  0
SECTION
  2
HEADER
  9
$ACADVER
  1
AC1015
  9
$ACADMAINTVER
 70
    20
  9
$DWGCODEPAGE
  3
ANSI_932
  9
$INSBASE
 10
0.0
 20
0.0
 30
0.0
  9
$EXTMIN
 10
-0.1922460740788665
 20
-0.2700599612071528
 30
-0.0015258207003583
  9
$EXTMAX
 10
6300.192275410744
 20
8850.270101172235
 30
0.0000000349246037
  9
$LIMMIN
 10
0.0
 20
0.0
  9
$LIMMAX
 10
297.0
 20
210.0
  9
$ORTHOMODE
 70
     1
  9
$REGENMODE
 70
     1
  9
$FILLMODE
 70
     0
  9
$QTEXTMODE
 70
     0
  9
$MIRRTEXT
 70
     1
  9
$LTSCALE
 40
100.0
  9
$ATTMODE
 70
     1
  9
$TEXTSIZE
 40
180.0
  9
$TRACEWID
 40
0.05
  9
$TEXTSTYLE
  7
STANDARD
  9
$CLAYER
  8
3
  9
$CELTYPE
  6
ByLayer
  9
$CECOLOR
 62
   256
  9
$CELTSCALE
 40
1.0
  9
$DISPSILH
 70
     0
  9
$DIMSCALE
 40
30.0
  9
$DIMASZ
 40
2.0
  9
$DIMEXO
 40
1.0
  9
$DIMDLI
 40
10.0
  9
$DIMRND
 40
0.0
  9
$DIMDLE
 40
0.0
  9
$DIMEXE
 40
1.0
  9
$DIMTP
 40
1.0
  9
$DIMTM
 40
1.0
  9
$DIMTXT
 40
3.0
  9
$DIMCEN
 40
0.0
  9
$DIMTSZ
 40
0.0
  9
$DIMTOL
 70
     0
  9
$DIMLIM
 70
     0
  9
$DIMTIH
 70
     0
  9
$DIMTOH
 70
     0
  9
$DIMSE1
 70
     0
  9
$DIMSE2
 70
     0
  9
$DIMTAD
 70
     1
  9
$DIMZIN
 70
     8
  9
$DIMBLK
  1

  9
$DIMASO
 70
     1
  9
$DIMSHO
 70
     1
  9
$DIMPOST
  1

  9
$DIMAPOST
  1

  9
$DIMALT
 70
     0
  9
$DIMALTD
 70
     2
  9
$DIMALTF
 40
0.039
  9
$DIMLFAC
 40
1.0
  9
$DIMTOFL
 70
     1
  9
$DIMTVP
 40
0.0
  9
$DIMTIX
 70
     0
  9
$DIMSOXD
 70
     0
  9
$DIMSAH
 70
     1
  9
$DIMBLK1
  1
OPEN
  9
$DIMBLK2
  1
OPEN
  9
$DIMSTYLE
  2
IGA
  9
$DIMCLRD
 70
     0
  9
$DIMCLRE
 70
     0
  9
$DIMCLRT
 70
     0
  9
$DIMTFAC
 40
10.0
  9
$DIMGAP
 40
1.0
  9
$DIMJUST
 70
     0
  9
$DIMSD1
 70
     0
  9
$DIMSD2
 70
     0
  9
$DIMTOLJ
 70
     1
  9
$DIMTZIN
 70
     0
  9
$DIMALTZ
 70
     0
  9
$DIMALTTZ
 70
     0
  9
$DIMUPT
 70
     0
  9
$DIMDEC
 70
     4
  9
$DIMTDEC
 70
     4
  9
$DIMALTU
 70
     2
  9
$DIMALTTD
 70
     2
  9
$DIMTXSTY
  7
STANDARD
  9
$DIMAUNIT
 70
     0
  9
$DIMADEC
 70
     0
  9
$DIMALTRND
 40
0.0
  9
$DIMAZIN
 70
     0
  9
$DIMDSEP
 70
    46
  9
$DIMATFIT
 70
     3
  9
$DIMFRAC
 70
     0
  9
$DIMLDRBLK
  1
OPEN
  9
$DIMLUNIT
 70
     2
  9
$DIMLWD
 70
    -2
  9
$DIMLWE
 70
    -2
  9
$DIMTMOVE
 70
     0
  9
$LUNITS
 70
     2
  9
$LUPREC
 70
     3
  9
$SKETCHINC
 40
0.1
  9
$FILLETRAD
 40
50.0
  9
$AUNITS
 70
     0
  9
$AUPREC
 70
     0
  9
$MENU
  1
acad
  9
$ELEVATION
 40
0.0
  9
$PELEVATION
 40
0.0
  9
$THICKNESS
 40
0.0
  9
$LIMCHECK
 70
     0
  9
$CHAMFERA
 40
0.5
  9
$CHAMFERB
 40
0.5
  9
$CHAMFERC
 40
0.0
  9
$CHAMFERD
 40
0.0
  9
$SKPOLY
 70
     0
  9
$TDCREATE
 40
2451389.575190046
  9
$TDUCREATE
 40
2451389.200190047
  9
$TDUPDATE
 40
2460271.727433275
  9
$TDUUPDATE
 40
2460271.352433275
  9
$TDINDWG
 40
0.0253606019
  9
$TDUSRTIMER
 40
0.0253603356
  9
$USRTIMER
 70
     1
  9
$ANGBASE
 50
0.0
  9
$ANGDIR
 70
     0
  9
$PDMODE
 70
     0
  9
$PDSIZE
 40
0.0
  9
$PLINEWID
 40
0.0
  9
$SPLFRAME
 70
     0
  9
$SPLINETYPE
 70
     6
  9
$SPLINESEGS
 70
     8
  9
$HANDSEED
  5
87C9
  9
$SURFTAB1
 70
     6
  9
$SURFTAB2
 70
     6
  9
$SURFTYPE
 70
     6
  9
$SURFU
 70
     6
  9
$SURFV
 70
     6
  9
$UCSBASE
  2

  9
$UCSNAME
  2

  9
$UCSORG
 10
0.0
 20
0.0
 30
0.0
  9
$UCSXDIR
 10
1.0
 20
0.0
 30
0.0
  9
$UCSYDIR
 10
0.0
 20
1.0
 30
0.0
  9
$UCSORTHOREF
  2

  9
$UCSORTHOVIEW
 70
     0
  9
$UCSORGTOP
 10
0.0
 20
0.0
 30
0.0
  9
$UCSORGBOTTOM
 10
0.0
 20
0.0
 30
0.0
  9
$UCSORGLEFT
 10
0.0
 20
0.0
 30
0.0
  9
$UCSORGRIGHT
 10
0.0
 20
0.0
 30
0.0
  9
$UCSORGFRONT
 10
0.0
 20
0.0
 30
0.0
  9
$UCSORGBACK
 10
0.0
 20
0.0
 30
0.0
  9
$PUCSBASE
  2

  9
$PUCSNAME
  2

  9
$PUCSORG
 10
0.0
 20
0.0
 30
0.0
  9
$PUCSXDIR
 10
1.0
 20
0.0
 30
0.0
  9
$PUCSYDIR
 10
0.0
 20
1.0
 30
0.0
  9
$PUCSORTHOREF
  2

  9
$PUCSORTHOVIEW
 70
     0
  9
$PUCSORGTOP
 10
0.0
 20
0.0
 30
0.0
  9
$PUCSORGBOTTOM
 10
0.0
 20
0.0
 30
0.0
  9
$PUCSORGLEFT
 10
0.0
 20
0.0
 30
0.0
  9
$PUCSORGRIGHT
 10
0.0
 20
0.0
 30
0.0
  9
$PUCSORGFRONT
 10
0.0
 20
0.0
 30
0.0
  9
$PUCSORGBACK
 10
0.0
 20
0.0
 30
0.0
  9
$USERI1
 70
     0
  9
$USERI2
 70
     0
  9
$USERI3
 70
     0
  9
$USERI4
 70
     0
  9
$USERI5
 70
     0
  9
$USERR1
 40
0.0
  9
$USERR2
 40
0.0
  9
$USERR3
 40
0.0
  9
$USERR4
 40
0.0
  9
$USERR5
 40
0.0
  9
$WORLDVIEW
 70
     1
  9
$SHADEDGE
 70
     3
  9
$SHADEDIF
 70
    70
  9
$TILEMODE
 70
     1
  9
$MAXACTVP
 70
    16
  9
$PINSBASE
 10
0.0
 20
0.0
 30
0.0
  9
$PLIMCHECK
 70
     0
  9
$PEXTMIN
 10
1.000000000000000E+20
 20
1.000000000000000E+20
 30
1.000000000000000E+20
  9
$PEXTMAX
 10
-1.000000000000000E+20
 20
-1.000000000000000E+20
 30
-1.000000000000000E+20
  9
$PLIMMIN
 10
0.0
 20
0.0
  9
$PLIMMAX
 10
12.0
 20
9.0
  9
$UNITMODE
 70
     0
  9
$VISRETAIN
 70
     0
  9
$PLINEGEN
 70
     0
  9
$PSLTSCALE
 70
     1
  9
$TREEDEPTH
 70
  3020
  9
$CMLSTYLE
  2
Standard
  9
$CMLJUST
 70
     0
  9
$CMLSCALE
 40
1.0
  9
$PROXYGRAPHICS
 70
     1
  9
$MEASUREMENT
 70
     0
  9
$CELWEIGHT
370
    -1
  9
$ENDCAPS
280
     0
  9
$JOINSTYLE
280
     0
  9
$LWDISPLAY
290
     0
  9
$INSUNITS
 70
     0
  9
$HYPERLINKBASE
  1

  9
$STYLESHEET
  1

  9
$XEDIT
290
     1
  9
$CEPSNTYPE
380
     0
  9
$PSTYLEMODE
290
     1
  9
$FINGERPRINTGUID
  2
{F0774ECD-DE66-49D8-9EF1-4CFB99CCC237}
  9
$VERSIONGUID
  2
{3B9F8316-8C47-4272-B716-784D2B359092}
  9
$EXTNAMES
290
     1
  9
$PSVPSCALE
 40
0.0
  9
$OLESTARTUP
290
     0
  0
ENDSEC
  0
SECTION
  2
CLASSES
  0
CLASS
  1
ACDBDICTIONARYWDFLT
  2
AcDbDictionaryWithDefault
  3
ObjectDBX Classes
 90
        0
280
     0
281
     0
  0
CLASS
  1
MATERIAL
  2
AcDbMaterial
  3
ObjectDBX Classes
 90
     1153
280
     0
281
     0
  0
CLASS
  1
VISUALSTYLE
  2
AcDbVisualStyle
  3
ObjectDBX Classes
 90
     4095
280
     0
281
     0
  0
CLASS
  1
SCALE
  2
AcDbScale
  3
ObjectDBX Classes
 90
     1153
280
     0
281
     0
  0
CLASS
  1
TABLESTYLE
  2
AcDbTableStyle
  3
ObjectDBX Classes
 90
     4095
280
     0
281
     0
  0
CLASS
  1
MLEADERSTYLE
  2
AcDbMLeaderStyle
  3
ACDB_MLEADERSTYLE_CLASS
 90
     4095
280
     0
281
     0
  0
CLASS
  1
ACDBSECTIONVIEWSTYLE
  2
AcDbSectionViewStyle
  3
ObjectDBX Classes
 90
     1025
280
     0
281
     0
  0
CLASS
  1
ACDBDETAILVIEWSTYLE
  2
AcDbDetailViewStyle
  3
ObjectDBX Classes
 90
     1025
280
     0
281
     0
  0
CLASS
  1
SORTENTSTABLE
  2
AcDbSortentsTable
  3
ObjectDBX Classes
 90
        0
280
     0
281
     0
  0
CLASS
  1
DICTIONARYVAR
  2
AcDbDictionaryVar
  3
ObjectDBX Classes
 90
        0
280
     0
281
     0
  0
CLASS
  1
CELLSTYLEMAP
  2
AcDbCellStyleMap
  3
ObjectDBX Classes
 90
     1152
280
     0
281
     0
  0
CLASS
  1
ACDBPLACEHOLDER
  2
AcDbPlaceHolder
  3
ObjectDBX Classes
 90
        0
280
     0
281
     0
  0
CLASS
  1
LAYOUT
  2
AcDbLayout
  3
ObjectDBX Classes
 90
        0
280
     0
281
     0
  0
ENDSEC
  0
SECTION
  2
TABLES
  0
TABLE
  2
VPORT
  5
818D
330
0
100
AcDbSymbolTable
 70
     1
  0
VPORT
  5
81F9
330
818D
100
AcDbSymbolTableRecord
100
AcDbViewportTableRecord
  2
*ACTIVE
 70
     0
 10
0.0
 20
0.0
 11
1.0
 21
1.0
 12
3150.000014668333
 22
4425.000020605514
 13
0.0
 23
0.0
 14
10.0
 24
10.0
 15
10.0
 25
10.0
 16
0.0
 26
0.0
 36
1.0
 17
0.0
 27
0.0
 37
0.0
 40
8907.213844128961
 41
2.050213675213675
 42
50.0
 43
0.0
 44
0.0
 50
0.0
 51
0.0
 71
     0
 72
   100
 73
     1
 74
     0
 75
     0
 76
     0
 77
     0
 78
     0
281
     0
 65
     1
110
0.0
120
0.0
130
0.0
111
1.0
121
0.0
131
0.0
112
0.0
122
1.0
132
0.0
 79
     0
146
0.0
1001
ACAD_NAV_VCDISPLAY
1070
     3
  0
ENDTAB
  0
TABLE
  2
LTYPE
  5
818A
330
0
100
AcDbSymbolTable
 70
     4
  0
LTYPE
  5
81DF
330
818A
100
AcDbSymbolTableRecord
100
AcDbLinetypeTableRecord
  2
ByBlock
 70
     0
  3

 72
    65
 73
     0
 40
0.0
  0
LTYPE
  5
81E0
330
818A
100
AcDbSymbolTableRecord
100
AcDbLinetypeTableRecord
  2
ByLayer
 70
     0
  3

 72
    65
 73
     0
 40
0.0
  0
LTYPE
  5
81E1
330
818A
100
AcDbSymbolTableRecord
100
AcDbLinetypeTableRecord
  2
CONTINUOUS
 70
     0
  3
Solid line
 72
    65
 73
     0
 40
0.0
  0
LTYPE
  5
81FA
330
818A
100
AcDbSymbolTableRecord
100
AcDbLinetypeTableRecord
  2
CENTER
 70
     0
  3
____ _ ____ _ ____ _ ____ _ ____ _ ____ _ ____ 
 72
    65
 73
     4
 40
2.0
 49
1.25
 74
     0
 49
-0.25
 74
     0
 49
0.25
 74
     0
 49
-0.25
 74
     0
  0
ENDTAB
  0
TABLE
  2
LAYER
  5
8187
330
0
100
AcDbSymbolTable
 70
     6
  0
LAYER
  5
81D9
102
{ACAD_XDICTIONARY
360
8773
102
}
330
8187
100
AcDbSymbolTableRecord
100
AcDbLayerTableRecord
  2
0
 70
     0
 62
     7
  6
CONTINUOUS
370
    -3
390
8194
  0
LAYER
  5
81F8
102
{ACAD_XDICTIONARY
360
8775
102
}
330
8187
100
AcDbSymbolTableRecord
100
AcDbLayerTableRecord
  2
3
 70
     0
 62
     2
  6
CONTINUOUS
370
    -3
390
8194
  0
LAYER
  5
81FB
102
{ACAD_XDICTIONARY
360
8777
102
}
330
8187
100
AcDbSymbolTableRecord
100
AcDbLayerTableRecord
  2
2
 70
     0
 62
     3
  6
CENTER
370
    -3
390
8194
  0
LAYER
  5
81FC
102
{ACAD_XDICTIONARY
360
8779
102
}
330
8187
100
AcDbSymbolTableRecord
100
AcDbLayerTableRecord
  2
1
 70
     0
 62
     4
  6
CONTINUOUS
370
    -3
390
8194
  0
LAYER
  5
81FD
102
{ACAD_XDICTIONARY
360
877B
102
}
330
8187
100
AcDbSymbolTableRecord
100
AcDbLayerTableRecord
  2
4
 70
     0
 62
     7
  6
CONTINUOUS
370
    -3
390
8194
  0
LAYER
  5
81FE
330
8187
100
AcDbSymbolTableRecord
100
AcDbLayerTableRecord
  2
DEFPOINTS
 70
     0
 62
     7
  6
CONTINUOUS
290
     0
370
    -3
390
8194
  0
ENDTAB
  0
TABLE
  2
STYLE
  5
8188
330
0
100
AcDbSymbolTable
 70
     2
  0
STYLE
  5
81DA
330
8188
100
AcDbSymbolTableRecord
100
AcDbTextStyleTableRecord
  2
STANDARD
 70
     0
 40
0.0
 41
1.0
 50
0.0
 71
     0
 42
180.0
  3
simplex.shx
  4
extfont.shx
  0
STYLE
  5
81DE
330
8188
100
AcDbSymbolTableRecord
100
AcDbTextStyleTableRecord
  2
Annotative
 70
     0
 40
0.0
 41
1.0
 50
0.0
 71
     0
 42
0.2
  3
txt
  4

1001
AcadAnnotative
1000
AnnotativeData
1002
{
1070
     1
1070
     1
1002
}
  0
ENDTAB
  0
TABLE
  2
VIEW
  5
818B
330
0
100
AcDbSymbolTable
 70
     0
  0
ENDTAB
  0
TABLE
  2
UCS
  5
818C
330
0
100
AcDbSymbolTable
 70
     0
  0
ENDTAB
  0
TABLE
  2
APPID
  5
818E
330
0
100
AcDbSymbolTable
 70
     8
  0
APPID
  5
81DB
330
818E
100
AcDbSymbolTableRecord
100
AcDbRegAppTableRecord
  2
ACAD
 70
     0
  0
APPID
  5
81E2
330
818E
100
AcDbSymbolTableRecord
100
AcDbRegAppTableRecord
  2
AcadAnnotative
 70
     0
  0
APPID
  5
826C
330
818E
100
AcDbSymbolTableRecord
100
AcDbRegAppTableRecord
  2
ACAD_DSTYLE_DIMJAG
 70
     0
  0
APPID
  5
826D
330
818E
100
AcDbSymbolTableRecord
100
AcDbRegAppTableRecord
  2
ACAD_DSTYLE_DIMTALN
 70
     0
  0
APPID
  5
82B3
330
818E
100
AcDbSymbolTableRecord
100
AcDbRegAppTableRecord
  2
ACAD_EXEMPT_FROM_CAD_STANDARDS
 70
     0
  0
APPID
  5
82F6
330
818E
100
AcDbSymbolTableRecord
100
AcDbRegAppTableRecord
  2
AcadAnnoMonitorAlertIconDisabled
 70
     0
  0
APPID
  5
8787
330
818E
100
AcDbSymbolTableRecord
100
AcDbRegAppTableRecord
  2
ACAD_NAV_VCDISPLAY
 70
     0
  0
APPID
  5
87C0
330
818E
100
AcDbSymbolTableRecord
100
AcDbRegAppTableRecord
  2
ACAD_MLEADERVER
 70
     0
  0
ENDTAB
  0
TABLE
  2
DIMSTYLE
  5
818F
330
0
100
AcDbSymbolTable
 70
     5
100
AcDbDimStyleTable
 71
     1
340
81FF
  0
DIMSTYLE
105
81DC
102
{ACAD_REACTORS
330
7C7A
330
7C7B
330
7CBD
330
7CBF
330
7CC0
330
7CC4
330
7CC5
330
7CFB
330
7D03
330
7D08
330
8054
330
8061
330
806E
330
807B
330
80CF
102
}
330
818F
100
AcDbSymbolTableRecord
100
AcDbDimStyleTableRecord
  2
Standard
 70
     0
340
81DA
  0
DIMSTYLE
105
81DD
330
818F
100
AcDbSymbolTableRecord
100
AcDbDimStyleTableRecord
  2
Annotative
 70
     0
340
81DA
1001
AcadAnnotative
1000
AnnotativeData
1002
{
1070
     1
1070
     1
1002
}
  0
DIMSTYLE
105
81FF
102
{ACAD_REACTORS
330
823F
330
824C
330
8291
330
82BA
330
82C7
330
82D9
330
875D
102
}
330
818F
100
AcDbSymbolTableRecord
100
AcDbDimStyleTableRecord
  2
IGA
 70
     0
 40
2.0
 41
2.0
 42
0.5
 43
10.0
 44
1.0
 47
1.0
 48
1.0
 73
     0
 74
     0
 77
     1
 78
     8
140
3.0
141
0.0
143
0.03937
146
10.0
147
1.0
173
     1
271
     3
272
     3
279
     2
284
     8
285
     8
286
     8
340
81DA
  0
DIMSTYLE
105
8200
330
818F
100
AcDbSymbolTableRecord
100
AcDbDimStyleTableRecord
  2
MATSU
 70
     0
 41
2.0
 42
1.0
 43
10.0
 44
1.0
 73
     0
 74
     0
 77
     1
 78
     8
140
3.0
141
0.0
143
0.03937
147
0.5
172
     1
173
     1
176
   256
177
   256
178
   256
271
     3
272
     3
279
     2
284
     8
285
     8
286
     8
340
81DA
  0
ENDTAB
  0
TABLE
  2
BLOCK_RECORD
  5
8186
330
0
100
AcDbSymbolTable
 70
    40
  0
BLOCK_RECORD
  5
81F4
102
{ACAD_XDICTIONARY
360
82B1
102
}
330
8186
100
AcDbSymbolTableRecord
100
AcDbBlockTableRecord
  2
*Model_Space
340
81F7
  0
BLOCK_RECORD
  5
81F0
330
8186
100
AcDbSymbolTableRecord
100
AcDbBlockTableRecord
  2
*Paper_Space
340
81F3
  0
BLOCK_RECORD
  5
8204
330
8186
100
AcDbSymbolTableRecord
100
AcDbBlockTableRecord
  2
$MODEL_SPACE
340
0
  0
BLOCK_RECORD
  5
8206
330
8186
100
AcDbSymbolTableRecord
100
AcDbBlockTableRecord
  2
$PAPER_SPACE
340
0
  0
BLOCK_RECORD
  5
8208
330
8186
100
AcDbSymbolTableRecord
100
AcDbBlockTableRecord
  2
_OPEN
340
0
102
{BLKREFS
331
7E35
331
7E36
331
7E40
331
7E41
331
7E8D
331
7E8E
331
7E98
331
7E99
331
7EA3
331
7EA4
331
7EAE
331
7EAF
331
801D
331
801E
331
8033
331
8034
331
7ECF
331
7ED0
331
7EDA
331
7EDB
331
7EE5
331
7EE6
331
8162
331
8163
331
7EFA
331
7EFB
331
816A
331
816B
331
8176
331
80C8
331
80C9
331
828B
331
828C
331
8298
331
8299
331
82A1
331
82A2
331
82AA
331
82AB
331
7F33
331
7F34
331
804D
331
804E
331
805A
331
805B
331
8067
331
8068
331
8074
331
8075
331
8720
331
8721
331
874D
331
8759
331
876D
331
876E
102
}
  0
BLOCK_RECORD
  5
820A
330
8186
100
AcDbSymbolTableRecord
100
AcDbBlockTableRecord
  2
YA_N
340
0
102
{BLKREFS
331
7C27
331
7C3D
331
7C78
331
7C98
331
7CCD
331
7CCF
331
7CD1
331
7CD3
102
}
  0
BLOCK_RECORD
  5
820C
330
8186
100
AcDbSymbolTableRecord
100
AcDbBlockTableRecord
  2
*D4
340
0
  0
BLOCK_RECORD
  5
820E
330
8186
100
AcDbSymbolTableRecord
100
AcDbBlockTableRecord
  2
*D5
340
0
  0
BLOCK_RECORD
  5
8210
330
8186
100
AcDbSymbolTableRecord
100
AcDbBlockTableRecord
  2
*D6
340
0
  0
BLOCK_RECORD
  5
8212
330
8186
100
AcDbSymbolTableRecord
100
AcDbBlockTableRecord
  2
*D7
340
0
  0
BLOCK_RECORD
  5
8214
330
8186
100
AcDbSymbolTableRecord
100
AcDbBlockTableRecord
  2
*D8
340
0
  0
BLOCK_RECORD
  5
8216
330
8186
100
AcDbSymbolTableRecord
100
AcDbBlockTableRecord
  2
*D9
340
0
  0
BLOCK_RECORD
  5
8218
330
8186
100
AcDbSymbolTableRecord
100
AcDbBlockTableRecord
  2
*D10
340
0
  0
BLOCK_RECORD
  5
821A
330
8186
100
AcDbSymbolTableRecord
100
AcDbBlockTableRecord
  2
*U11
340
0
102
{BLKREFS
331
801F
102
}
  0
BLOCK_RECORD
  5
821B
330
8186
100
AcDbSymbolTableRecord
100
AcDbBlockTableRecord
  2
*D12
340
0
  0
BLOCK_RECORD
  5
821D
330
8186
100
AcDbSymbolTableRecord
100
AcDbBlockTableRecord
  2
*D13
340
0
  0
BLOCK_RECORD
  5
821F
330
8186
100
AcDbSymbolTableRecord
100
AcDbBlockTableRecord
  2
*D14
340
0
  0
BLOCK_RECORD
  5
8221
330
8186
100
AcDbSymbolTableRecord
100
AcDbBlockTableRecord
  2
*D15
340
0
  0
BLOCK_RECORD
  5
8223
330
8186
100
AcDbSymbolTableRecord
100
AcDbBlockTableRecord
  2
*D16
340
0
  0
BLOCK_RECORD
  5
8225
330
8186
100
AcDbSymbolTableRecord
100
AcDbBlockTableRecord
  2
*D17
340
0
  0
BLOCK_RECORD
  5
8227
330
8186
100
AcDbSymbolTableRecord
100
AcDbBlockTableRecord
  2
*D18
340
0
  0
BLOCK_RECORD
  5
8229
330
8186
100
AcDbSymbolTableRecord
100
AcDbBlockTableRecord
  2
*D19
340
0
  0
BLOCK_RECORD
  5
822B
330
8186
100
AcDbSymbolTableRecord
100
AcDbBlockTableRecord
  2
_DOT
340
0
102
{BLKREFS
331
8175
102
}
  0
BLOCK_RECORD
  5
822C
330
8186
100
AcDbSymbolTableRecord
100
AcDbBlockTableRecord
  2
*D21
340
0
  0
BLOCK_RECORD
  5
822F
330
8186
100
AcDbSymbolTableRecord
100
AcDbBlockTableRecord
  2
*D22
340
0
  0
BLOCK_RECORD
  5
8231
330
8186
100
AcDbSymbolTableRecord
100
AcDbBlockTableRecord
  2
*D23
340
0
  0
BLOCK_RECORD
  5
8233
330
8186
100
AcDbSymbolTableRecord
100
AcDbBlockTableRecord
  2
*D24
340
0
  0
BLOCK_RECORD
  5
8235
330
8186
100
AcDbSymbolTableRecord
100
AcDbBlockTableRecord
  2
*D25
340
0
  0
BLOCK_RECORD
  5
8237
330
8186
100
AcDbSymbolTableRecord
100
AcDbBlockTableRecord
  2
_NONE
340
0
  0
BLOCK_RECORD
  5
8239
330
8186
100
AcDbSymbolTableRecord
100
AcDbBlockTableRecord
  2
*D27
340
0
  0
BLOCK_RECORD
  5
823B
330
8186
100
AcDbSymbolTableRecord
100
AcDbBlockTableRecord
  2
*D28
340
0
  0
BLOCK_RECORD
  5
8240
330
8186
100
AcDbSymbolTableRecord
100
AcDbBlockTableRecord
  2
*D29
340
0
  0
BLOCK_RECORD
  5
824D
330
8186
100
AcDbSymbolTableRecord
100
AcDbBlockTableRecord
  2
*D30
340
0
  0
BLOCK_RECORD
  5
826F
330
8186
100
AcDbSymbolTableRecord
100
AcDbBlockTableRecord
  2
*D31
340
0
  0
BLOCK_RECORD
  5
827B
330
8186
100
AcDbSymbolTableRecord
100
AcDbBlockTableRecord
  2
*D32
340
0
  0
BLOCK_RECORD
  5
8292
330
8186
100
AcDbSymbolTableRecord
100
AcDbBlockTableRecord
  2
*D33
340
0
  0
BLOCK_RECORD
  5
82BB
330
8186
100
AcDbSymbolTableRecord
100
AcDbBlockTableRecord
  2
*D35
340
0
  0
BLOCK_RECORD
  5
82C8
330
8186
100
AcDbSymbolTableRecord
100
AcDbBlockTableRecord
  2
*D36
340
0
  0
BLOCK_RECORD
  5
82DA
330
8186
100
AcDbSymbolTableRecord
100
AcDbBlockTableRecord
  2
*D37
340
0
  0
BLOCK_RECORD
  5
8367
330
8186
100
AcDbSymbolTableRecord
100
AcDbBlockTableRecord
  2
_DotSmall
340
0
102
{BLKREFS
331
874E
331
8758
102
}
  0
BLOCK_RECORD
  5
875E
330
8186
100
AcDbSymbolTableRecord
100
AcDbBlockTableRecord
  2
*D39
340
0
  0
ENDTAB
  0
ENDSEC
  0
SECTION
  2
BLOCKS
  0
BLOCK
  5
81F5
330
81F4
100
AcDbEntity
  8
0
100
AcDbBlockBegin
  2
*Model_Space
 70
     0
 10
0.0
 20
0.0
 30
0.0
  3
*Model_Space
  1

  0
ENDBLK
  5
81F6
330
81F4
100
AcDbEntity
  8
0
100
AcDbBlockEnd
  0
BLOCK
  5
81F1
330
81F0
100
AcDbEntity
 67
     1
  8
0
100
AcDbBlockBegin
  2
*Paper_Space
 70
     0
 10
0.0
 20
0.0
 30
0.0
  3
*Paper_Space
  1

  0
ENDBLK
  5
81F2
330
81F0
100
AcDbEntity
 67
     1
  8
0
100
AcDbBlockEnd
  0
BLOCK
  5
8205
330
8204
100
AcDbEntity
  8
0
100
AcDbBlockBegin
  2
$MODEL_SPACE
 70
     0
 10
0.0
 20
0.0
 30
0.0
  3
$MODEL_SPACE
  1

  0
ENDBLK
  5
1B
330
8204
100
AcDbEntity
  8
0
100
AcDbBlockEnd
  0
BLOCK
  5
8207
330
8206
100
AcDbEntity
  8
0
100
AcDbBlockBegin
  2
$PAPER_SPACE
 70
     0
 10
0.0
 20
0.0
 30
0.0
  3
$PAPER_SPACE
  1

  0
ENDBLK
  5
18
330
8206
100
AcDbEntity
  8
0
100
AcDbBlockEnd
  0
BLOCK
  5
8209
330
8208
100
AcDbEntity
  8
0
100
AcDbBlockBegin
  2
_OPEN
 70
     0
 10
0.0
 20
0.0
 30
0.0
  3
_OPEN
  1

  0
LINE
  5
79FD
330
8208
100
AcDbEntity
  8
0
  6
ByBlock
 62
     0
100
AcDbLine
 10
-1.0
 20
0.1666666666666666
 30
0.0
 11
0.0
 21
0.0
 31
0.0
  0
LINE
  5
79FE
330
8208
100
AcDbEntity
  8
0
  6
ByBlock
 62
     0
100
AcDbLine
 10
0.0
 20
0.0
 30
0.0
 11
-1.0
 21
-0.1666666666666666
 31
0.0
  0
LINE
  5
79FF
330
8208
100
AcDbEntity
  8
0
  6
ByBlock
 62
     0
100
AcDbLine
 10
0.0
 20
0.0
 30
0.0
 11
-1.0
 21
0.0
 31
0.0
  0
ENDBLK
  5
7A01
330
8208
100
AcDbEntity
  8
0
100
AcDbBlockEnd
  0
BLOCK
  5
820B
330
820A
100
AcDbEntity
  8
0
100
AcDbBlockBegin
  2
YA_N
 70
     0
 10
0.0
 20
0.0
 30
0.0
  3
YA_N
  1

  0
ENDBLK
  5
7A04
330
820A
100
AcDbEntity
  8
0
100
AcDbBlockEnd
  0
BLOCK
  5
820D
330
820C
100
AcDbEntity
  8
0
100
AcDbBlockBegin
  2
*D4
 70
     1
 10
0.0
 20
0.0
 30
0.0
  3
*D4
  1

  0
LINE
  5
7E32
330
820C
100
AcDbEntity
  8
0
  6
ByBlock
100
AcDbLine
 10
2234.165690591193
 20
1338.060302835747
 30
0.0
 11
2234.165690591193
 21
1539.22039982989
 31
0.0
  0
LINE
  5
7E33
330
820C
100
AcDbEntity
  8
0
  6
ByBlock
100
AcDbLine
 10
1204.165690591195
 20
1338.060302835747
 30
0.0
 11
1204.165690591195
 21
1539.22039982989
 31
0.0
  0
LINE
  5
7E34
330
820C
100
AcDbEntity
  8
0
  6
ByBlock
100
AcDbLine
 10
2174.165690591194
 20
1509.22039982989
 30
0.0
 11
1264.165690591195
 21
1509.22039982989
 31
0.0
  0
INSERT
  5
7E35
330
820C
100
AcDbEntity
  8
0
  6
ByBlock
100
AcDbBlockReference
  2
_OPEN
 10
2234.165690591193
 20
1509.22039982989
 30
0.0
 41
60.0
 42
60.0
 43
60.0
  0
INSERT
  5
7E36
330
820C
100
AcDbEntity
  8
0
  6
ByBlock
100
AcDbBlockReference
  2
_OPEN
 10
1204.165690591195
 20
1509.22039982989
 30
0.0
 41
60.0
 42
60.0
 43
60.0
 50
180.0
  0
TEXT
  5
7E37
330
820C
100
AcDbEntity
  8
3
100
AcDbText
 10
1569.165690591194
 20
1524.22039982989
 30
0.0
 40
90.0
  1
1030
100
AcDbText
  0
POINT
  5
7E38
330
820C
100
AcDbEntity
  8
DEFPOINTS
  6
ByBlock
 62
     0
100
AcDbPoint
 10
2234.165690591193
 20
1308.060302835747
 30
0.0
  0
POINT
  5
7E39
330
820C
100
AcDbEntity
  8
DEFPOINTS
  6
ByBlock
 62
     0
100
AcDbPoint
 10
1204.165690591195
 20
1308.060302835747
 30
0.0
  0
POINT
  5
7E3A
330
820C
100
AcDbEntity
  8
DEFPOINTS
  6
ByBlock
 62
     0
100
AcDbPoint
 10
1204.165690591195
 20
1509.22039982989
 30
0.0
  0
ENDBLK
  5
7E3B
330
820C
100
AcDbEntity
  8
0
100
AcDbBlockEnd
  0
BLOCK
  5
820F
330
820E
100
AcDbEntity
  8
0
100
AcDbBlockBegin
  2
*D5
 70
     1
 10
0.0
 20
0.0
 30
0.0
  3
*D5
  1

  0
LINE
  5
7E3D
330
820E
100
AcDbEntity
  8
0
  6
ByBlock
100
AcDbLine
 10
2234.165690591193
 20
1338.060302835747
 30
0.0
 11
2234.165690591193
 21
1740.022445289042
 31
0.0
  0
LINE
  5
7E3E
330
820E
100
AcDbEntity
  8
0
  6
ByBlock
100
AcDbLine
 10
1160.165690591194
 20
1397.676285333375
 30
0.0
 11
1160.165690591194
 21
1740.022445289042
 31
0.0
  0
LINE
  5
7E3F
330
820E
100
AcDbEntity
  8
0
  6
ByBlock
100
AcDbLine
 10
2174.165690591194
 20
1710.022445289044
 30
0.0
 11
1220.165690591194
 21
1710.022445289044
 31
0.0
  0
INSERT
  5
7E40
330
820E
100
AcDbEntity
  8
0
  6
ByBlock
100
AcDbBlockReference
  2
_OPEN
 10
2234.165690591193
 20
1710.022445289044
 30
0.0
 41
60.0
 42
60.0
 43
60.0
  0
INSERT
  5
7E41
330
820E
100
AcDbEntity
  8
0
  6
ByBlock
100
AcDbBlockReference
  2
_OPEN
 10
1160.165690591194
 20
1710.022445289044
 30
0.0
 41
60.0
 42
60.0
 43
60.0
 50
180.0
  0
TEXT
  5
7E42
330
820E
100
AcDbEntity
  8
3
100
AcDbText
 10
1545.022833448337
 20
1725.022445289043
 30
0.0
 40
90.0
  1
1074
100
AcDbText
  0
POINT
  5
7E43
330
820E
100
AcDbEntity
  8
DEFPOINTS
  6
ByBlock
 62
     0
100
AcDbPoint
 10
2234.165690591193
 20
1308.060302835747
 30
0.0
  0
POINT
  5
7E44
330
820E
100
AcDbEntity
  8
DEFPOINTS
  6
ByBlock
 62
     0
100
AcDbPoint
 10
1160.165690591194
 20
1367.676285333375
 30
0.0
  0
POINT
  5
7E45
330
820E
100
AcDbEntity
  8
DEFPOINTS
  6
ByBlock
 62
     0
100
AcDbPoint
 10
1160.165690591194
 20
1710.022445289044
 30
0.0
  0
ENDBLK
  5
7E46
330
820E
100
AcDbEntity
  8
0
100
AcDbBlockEnd
  0
BLOCK
  5
8211
330
8210
100
AcDbEntity
  8
0
100
AcDbBlockBegin
  2
*D6
 70
     1
 10
0.0
 20
0.0
 30
0.0
  3
*D6
  1

  0
LINE
  5
7E8A
330
8210
100
AcDbEntity
  8
0
  6
ByBlock
100
AcDbLine
 10
1785.165690591193
 20
4406.031599361241
 30
0.0
 11
1785.165690591193
 21
4627.335536588958
 31
0.0
  0
LINE
  5
7E8B
330
8210
100
AcDbEntity
  8
0
  6
ByBlock
100
AcDbLine
 10
535.1656905911932
 20
4406.031599361237
 30
0.0
 11
535.1656905911932
 21
4627.335536588958
 31
0.0
  0
LINE
  5
7E8C
330
8210
100
AcDbEntity
  8
0
  6
ByBlock
100
AcDbLine
 10
1725.165690591193
 20
4597.335536588958
 30
0.0
 11
595.165690591193
 21
4597.335536588958
 31
0.0
  0
INSERT
  5
7E8D
330
8210
100
AcDbEntity
  8
0
  6
ByBlock
100
AcDbBlockReference
  2
_OPEN
 10
1785.165690591193
 20
4597.335536588958
 30
0.0
 41
60.0
 42
60.0
 43
60.0
  0
INSERT
  5
7E8E
330
8210
100
AcDbEntity
  8
0
  6
ByBlock
100
AcDbBlockReference
  2
_OPEN
 10
535.1656905911932
 20
4597.335536588958
 30
0.0
 41
60.0
 42
60.0
 43
60.0
 50
180.0
  0
TEXT
  5
7E8F
330
8210
100
AcDbEntity
  8
3
100
AcDbText
 10
1010.165690591193
 20
4612.335536588958
 30
0.0
 40
90.0
  1
1250
100
AcDbText
  0
POINT
  5
7E90
330
8210
100
AcDbEntity
  8
DEFPOINTS
  6
ByBlock
 62
     0
100
AcDbPoint
 10
1785.165690591193
 20
4376.031599361239
 30
0.0
  0
POINT
  5
7E91
330
8210
100
AcDbEntity
  8
DEFPOINTS
  6
ByBlock
 62
     0
100
AcDbPoint
 10
535.1656905911932
 20
4376.031599361239
 30
0.0
  0
POINT
  5
7E92
330
8210
100
AcDbEntity
  8
DEFPOINTS
  6
ByBlock
 62
     0
100
AcDbPoint
 10
535.1656905911932
 20
4597.335536588958
 30
0.0
  0
ENDBLK
  5
7E93
330
8210
100
AcDbEntity
  8
0
100
AcDbBlockEnd
  0
BLOCK
  5
8213
330
8212
100
AcDbEntity
  8
0
100
AcDbBlockBegin
  2
*D7
 70
     1
 10
0.0
 20
0.0
 30
0.0
  3
*D7
  1

  0
LINE
  5
7E95
330
8212
100
AcDbEntity
  8
0
  6
ByBlock
100
AcDbLine
 10
2585.165690591193
 20
2841.031599361241
 30
0.0
 11
2585.165690591193
 21
2552.481475534663
 31
0.0
  0
LINE
  5
7E96
330
8212
100
AcDbEntity
  8
0
  6
ByBlock
100
AcDbLine
 10
535.1656905911932
 20
2841.031599361238
 30
0.0
 11
535.1656905911932
 21
2552.481475534663
 31
0.0
  0
LINE
  5
7E97
330
8212
100
AcDbEntity
  8
0
  6
ByBlock
100
AcDbLine
 10
2525.165690591193
 20
2582.481475534663
 30
0.0
 11
595.165690591193
 21
2582.481475534663
 31
0.0
  0
INSERT
  5
7E98
330
8212
100
AcDbEntity
  8
0
  6
ByBlock
100
AcDbBlockReference
  2
_OPEN
 10
2585.165690591193
 20
2582.481475534663
 30
0.0
 41
60.0
 42
60.0
 43
60.0
  0
INSERT
  5
7E99
330
8212
100
AcDbEntity
  8
0
  6
ByBlock
100
AcDbBlockReference
  2
_OPEN
 10
535.1656905911932
 20
2582.481475534663
 30
0.0
 41
60.0
 42
60.0
 43
60.0
 50
180.0
  0
TEXT
  5
7E9A
330
8212
100
AcDbEntity
  8
3
100
AcDbText
 10
1401.594262019765
 20
2597.481475534663
 30
0.0
 40
90.0
  1
2050
100
AcDbText
  0
POINT
  5
7E9B
330
8212
100
AcDbEntity
  8
DEFPOINTS
  6
ByBlock
 62
     0
100
AcDbPoint
 10
2585.165690591193
 20
2871.03159936124
 30
0.0
  0
POINT
  5
7E9C
330
8212
100
AcDbEntity
  8
DEFPOINTS
  6
ByBlock
 62
     0
100
AcDbPoint
 10
535.1656905911932
 20
2871.031599361238
 30
0.0
  0
POINT
  5
7E9D
330
8212
100
AcDbEntity
  8
DEFPOINTS
  6
ByBlock
 62
     0
100
AcDbPoint
 10
535.1656905911932
 20
2582.481475534663
 30
0.0
  0
ENDBLK
  5
7E9E
330
8212
100
AcDbEntity
  8
0
100
AcDbBlockEnd
  0
BLOCK
  5
8215
330
8214
100
AcDbEntity
  8
0
100
AcDbBlockBegin
  2
*D8
 70
     1
 10
0.0
 20
0.0
 30
0.0
  3
*D8
  1

  0
LINE
  5
7EA0
330
8214
100
AcDbEntity
  8
0
  6
ByBlock
100
AcDbLine
 10
2615.165690591193
 20
3721.031599361241
 30
0.0
 11
2837.213758091805
 21
3721.031599361241
 31
0.0
  0
LINE
  5
7EA1
330
8214
100
AcDbEntity
  8
0
  6
ByBlock
100
AcDbLine
 10
2615.165690591193
 20
2871.03159936124
 30
0.0
 11
2837.213758091805
 21
2871.03159936124
 31
0.0
  0
LINE
  5
7EA2
330
8214
100
AcDbEntity
  8
0
  6
ByBlock
100
AcDbLine
 10
2807.213758091804
 20
3661.031599361241
 30
0.0
 11
2807.213758091804
 21
2931.03159936124
 31
0.0
  0
INSERT
  5
7EA3
330
8214
100
AcDbEntity
  8
0
  6
ByBlock
100
AcDbBlockReference
  2
_OPEN
 10
2807.213758091804
 20
3721.031599361241
 30
0.0
 41
60.0
 42
60.0
 43
60.0
 50
90.0
  0
INSERT
  5
7EA4
330
8214
100
AcDbEntity
  8
0
  6
ByBlock
100
AcDbBlockReference
  2
_OPEN
 10
2807.213758091804
 20
2871.03159936124
 30
0.0
 41
60.0
 42
60.0
 43
60.0
 50
270.0
  0
TEXT
  5
7EA5
330
8214
100
AcDbEntity
  8
3
100
AcDbText
 10
2792.213758091805
 20
3180.317313646954
 30
0.0
 40
90.0
  1
850
 50
90.0
100
AcDbText
  0
POINT
  5
7EA6
330
8214
100
AcDbEntity
  8
DEFPOINTS
  6
ByBlock
 62
     0
100
AcDbPoint
 10
2585.165690591193
 20
3721.031599361241
 30
0.0
  0
POINT
  5
7EA7
330
8214
100
AcDbEntity
  8
DEFPOINTS
  6
ByBlock
 62
     0
100
AcDbPoint
 10
2585.165690591193
 20
2871.03159936124
 30
0.0
  0
POINT
  5
7EA8
330
8214
100
AcDbEntity
  8
DEFPOINTS
  6
ByBlock
 62
     0
100
AcDbPoint
 10
2807.213758091804
 20
2871.03159936124
 30
0.0
  0
ENDBLK
  5
7EA9
330
8214
100
AcDbEntity
  8
0
100
AcDbBlockEnd
  0
BLOCK
  5
8217
330
8216
100
AcDbEntity
  8
0
100
AcDbBlockBegin
  2
*D9
 70
     1
 10
0.0
 20
0.0
 30
0.0
  3
*D9
  1

  0
LINE
  5
7EAB
330
8216
100
AcDbEntity
  8
0
  6
ByBlock
100
AcDbLine
 10
505.1656905911931
 20
4376.031599361239
 30
0.0
 11
106.5215525822586
 21
4376.031599361239
 31
0.0
  0
LINE
  5
7EAC
330
8216
100
AcDbEntity
  8
0
  6
ByBlock
100
AcDbLine
 10
505.1656905911931
 20
2871.031599361238
 30
0.0
 11
106.5215525822586
 21
2871.031599361238
 31
0.0
  0
LINE
  5
7EAD
330
8216
100
AcDbEntity
  8
0
  6
ByBlock
100
AcDbLine
 10
136.5215525822585
 20
4316.031599361237
 30
0.0
 11
136.5215525822585
 21
2931.031599361238
 31
0.0
  0
INSERT
  5
7EAE
330
8216
100
AcDbEntity
  8
0
  6
ByBlock
100
AcDbBlockReference
  2
_OPEN
 10
136.5215525822585
 20
4376.031599361239
 30
0.0
 41
60.0
 42
60.0
 43
60.0
 50
90.0
  0
INSERT
  5
7EAF
330
8216
100
AcDbEntity
  8
0
  6
ByBlock
100
AcDbBlockReference
  2
_OPEN
 10
136.5215525822585
 20
2871.031599361238
 30
0.0
 41
60.0
 42
60.0
 43
60.0
 50
270.0
  0
TEXT
  5
7EB0
330
8216
100
AcDbEntity
  8
3
100
AcDbText
 10
121.5215525822586
 20
3473.531599361239
 30
0.0
 40
90.0
  1
1505
 50
90.0
100
AcDbText
  0
POINT
  5
7EB1
330
8216
100
AcDbEntity
  8
DEFPOINTS
  6
ByBlock
 62
     0
100
AcDbPoint
 10
535.1656905911932
 20
4376.031599361239
 30
0.0
  0
POINT
  5
7EB2
330
8216
100
AcDbEntity
  8
DEFPOINTS
  6
ByBlock
 62
     0
100
AcDbPoint
 10
535.1656905911932
 20
2871.031599361238
 30
0.0
  0
POINT
  5
7EB3
330
8216
100
AcDbEntity
  8
DEFPOINTS
  6
ByBlock
 62
     0
100
AcDbPoint
 10
136.5215525822585
 20
2871.031599361238
 30
0.0
  0
ENDBLK
  5
7EB4
330
8216
100
AcDbEntity
  8
0
100
AcDbBlockEnd
  0
BLOCK
  5
8219
330
8218
100
AcDbEntity
  8
0
100
AcDbBlockBegin
  2
*D10
 70
     1
 10
0.0
 20
0.0
 30
0.0
  3
*D10
  1

  0
LINE
  5
801A
330
8218
100
AcDbEntity
  8
0
  6
ByBlock
100
AcDbLine
 10
3836.583739525316
 20
3324.169466167079
 30
0.0
 11
3836.583739525316
 21
4177.692100635555
 31
0.0
  0
LINE
  5
801B
330
8218
100
AcDbEntity
  8
0
  6
ByBlock
100
AcDbLine
 10
4804.083739525321
 20
4149.688192329445
 30
0.0
 11
4804.083739525321
 21
4177.692100635555
 31
0.0
  0
LINE
  5
801C
330
8218
100
AcDbEntity
  8
0
  6
ByBlock
100
AcDbLine
 10
3896.583739525317
 20
4147.692100635555
 30
0.0
 11
4744.083739525321
 21
4147.692100635555
 31
0.0
  0
INSERT
  5
801D
330
8218
100
AcDbEntity
  8
0
  6
ByBlock
100
AcDbBlockReference
  2
_OPEN
 10
3836.583739525316
 20
4147.692100635555
 30
0.0
 41
60.0
 42
60.0
 43
60.0
 50
180.0
  0
INSERT
  5
801E
330
8218
100
AcDbEntity
  8
0
  6
ByBlock
100
AcDbBlockReference
  2
_OPEN
 10
4804.083739525321
 20
4147.692100635555
 30
0.0
 41
60.0
 42
60.0
 43
60.0
  0
INSERT
  5
801F
330
8218
100
AcDbEntity
  8
3
100
AcDbBlockReference
  2
*U11
 10
0.0
 20
0.0
 30
0.0
  0
POINT
  5
8020
330
8218
100
AcDbEntity
  8
DEFPOINTS
  6
ByBlock
 62
     0
100
AcDbPoint
 10
3836.583739525316
 20
3294.16946616708
 30
0.0
  0
POINT
  5
8021
330
8218
100
AcDbEntity
  8
DEFPOINTS
  6
ByBlock
 62
     0
100
AcDbPoint
 10
4804.083739525321
 20
4119.688192329446
 30
0.0
  0
POINT
  5
8022
330
8218
100
AcDbEntity
  8
DEFPOINTS
  6
ByBlock
 62
     0
100
AcDbPoint
 10
4804.083739525321
 20
4147.692100635555
 30
0.0
  0
ENDBLK
  5
8023
330
8218
100
AcDbEntity
  8
0
100
AcDbBlockEnd
  0
BLOCK
  5
823D
330
821A
100
AcDbEntity
  8
0
100
AcDbBlockBegin
  2
*U11
 70
     1
 10
0.0
 20
0.0
 30
0.0
  3
*U11
  1

  0
TEXT
  5
817F
330
821A
100
AcDbEntity
  8
3
100
AcDbText
 10
4191.762310953889
 20
4312.692100635555
 30
0.0
 40
90.0
  1
MAX
100
AcDbText
  0
TEXT
  5
8180
330
821A
100
AcDbEntity
  8
3
100
AcDbText
 10
4170.333739525318
 20
4162.692100635555
 30
0.0
 40
90.0
  1
1020
100
AcDbText
  0
ENDBLK
  5
8182
330
821A
100
AcDbEntity
  8
0
100
AcDbBlockEnd
  0
BLOCK
  5
821C
330
821B
100
AcDbEntity
  8
0
100
AcDbBlockBegin
  2
*D12
 70
     1
 10
0.0
 20
0.0
 30
0.0
  3
*D12
  1

  0
LINE
  5
8030
330
821B
100
AcDbEntity
  8
0
  6
ByBlock
100
AcDbLine
 10
4804.083739525321
 20
4093.269258384377
 30
0.0
 11
4804.083739525321
 21
4177.692100635555
 31
0.0
  0
LINE
  5
8031
330
821B
100
AcDbEntity
  8
0
  6
ByBlock
100
AcDbLine
 10
5572.083739525325
 20
3008.36946616708
 30
0.0
 11
5572.083739525325
 21
4177.692100635555
 31
0.0
  0
LINE
  5
8032
330
821B
100
AcDbEntity
  8
0
  6
ByBlock
100
AcDbLine
 10
4864.083739525321
 20
4147.692100635555
 30
0.0
 11
5512.083739525325
 21
4147.692100635555
 31
0.0
  0
INSERT
  5
8033
330
821B
100
AcDbEntity
  8
0
  6
ByBlock
100
AcDbBlockReference
  2
_OPEN
 10
4804.083739525321
 20
4147.692100635555
 30
0.0
 41
60.0
 42
60.0
 43
60.0
 50
180.0
  0
INSERT
  5
8034
330
821B
100
AcDbEntity
  8
0
  6
ByBlock
100
AcDbBlockReference
  2
_OPEN
 10
5572.083739525325
 20
4147.692100635555
 30
0.0
 41
60.0
 42
60.0
 43
60.0
  0
TEXT
  5
8035
330
821B
100
AcDbEntity
  8
3
100
AcDbText
 10
5014.512310953894
 20
4201.263529206982
 30
0.0
 40
90.0
  1
(780)
100
AcDbText
  0
POINT
  5
8036
330
821B
100
AcDbEntity
  8
DEFPOINTS
  6
ByBlock
 62
     0
100
AcDbPoint
 10
4804.083739525321
 20
4063.269258384377
 30
0.0
  0
POINT
  5
8037
330
821B
100
AcDbEntity
  8
DEFPOINTS
  6
ByBlock
 62
     0
100
AcDbPoint
 10
5572.083739525325
 20
2978.369466167081
 30
0.0
  0
POINT
  5
8038
330
821B
100
AcDbEntity
  8
DEFPOINTS
  6
ByBlock
 62
     0
100
AcDbPoint
 10
5572.083739525325
 20
4147.692100635555
 30
0.0
  0
ENDBLK
  5
8039
330
821B
100
AcDbEntity
  8
0
100
AcDbBlockEnd
  0
BLOCK
  5
821E
330
821D
100
AcDbEntity
  8
0
100
AcDbBlockBegin
  2
*D13
 70
     1
 10
0.0
 20
0.0
 30
0.0
  3
*D13
  1

  0
LINE
  5
7ECC
330
821D
100
AcDbEntity
  8
0
  6
ByBlock
100
AcDbLine
 10
4259.104621073492
 20
1312.374620489382
 30
0.0
 11
4259.104621073492
 21
1592.055054257674
 31
0.0
  0
LINE
  5
7ECD
330
821D
100
AcDbEntity
  8
0
  6
ByBlock
100
AcDbLine
 10
5509.104621073492
 20
1309.096068293924
 30
0.0
 11
5509.104621073492
 21
1592.055054257674
 31
0.0
  0
LINE
  5
7ECE
330
821D
100
AcDbEntity
  8
0
  6
ByBlock
100
AcDbLine
 10
4319.104621073492
 20
1562.055054257674
 30
0.0
 11
5449.104621073495
 21
1562.055054257674
 31
0.0
  0
INSERT
  5
7ECF
330
821D
100
AcDbEntity
  8
0
  6
ByBlock
100
AcDbBlockReference
  2
_OPEN
 10
4259.104621073492
 20
1562.055054257674
 30
0.0
 41
60.0
 42
60.0
 43
60.0
 50
180.0
  0
INSERT
  5
7ED0
330
821D
100
AcDbEntity
  8
0
  6
ByBlock
100
AcDbBlockReference
  2
_OPEN
 10
5509.104621073492
 20
1562.055054257674
 30
0.0
 41
60.0
 42
60.0
 43
60.0
  0
TEXT
  5
7ED1
330
821D
100
AcDbEntity
  8
3
100
AcDbText
 10
4734.104621073493
 20
1577.055054257674
 30
0.0
 40
90.0
  1
1250
100
AcDbText
  0
POINT
  5
7ED2
330
821D
100
AcDbEntity
  8
DEFPOINTS
  6
ByBlock
 62
     0
100
AcDbPoint
 10
4259.104621073492
 20
1282.374620489382
 30
0.0
  0
POINT
  5
7ED3
330
821D
100
AcDbEntity
  8
DEFPOINTS
  6
ByBlock
 62
     0
100
AcDbPoint
 10
5509.104621073492
 20
1279.096068293924
 30
0.0
  0
POINT
  5
7ED4
330
821D
100
AcDbEntity
  8
DEFPOINTS
  6
ByBlock
 62
     0
100
AcDbPoint
 10
5509.104621073492
 20
1562.055054257674
 30
0.0
  0
ENDBLK
  5
7ED5
330
821D
100
AcDbEntity
  8
0
100
AcDbBlockEnd
  0
BLOCK
  5
8220
330
821F
100
AcDbEntity
  8
0
100
AcDbBlockBegin
  2
*D14
 70
     1
 10
0.0
 20
0.0
 30
0.0
  3
*D14
  1

  0
LINE
  5
7ED7
330
821F
100
AcDbEntity
  8
0
  6
ByBlock
100
AcDbLine
 10
5544.604621073492
 20
98.06030283574637
 30
0.0
 11
5883.472841444802
 21
98.06030283574637
 31
0.0
  0
LINE
  5
7ED8
330
821F
100
AcDbEntity
  8
0
  6
ByBlock
100
AcDbLine
 10
5544.604621073492
 20
1158.060302835746
 30
0.0
 11
5883.472841444802
 21
1158.060302835746
 31
0.0
  0
LINE
  5
7ED9
330
821F
100
AcDbEntity
  8
0
  6
ByBlock
100
AcDbLine
 10
5853.472841444804
 20
158.0603028357463
 30
0.0
 11
5853.472841444804
 21
1098.060302835746
 31
0.0
  0
INSERT
  5
7EDA
330
821F
100
AcDbEntity
  8
0
  6
ByBlock
100
AcDbBlockReference
  2
_OPEN
 10
5853.472841444804
 20
98.06030283574637
 30
0.0
 41
60.0
 42
60.0
 43
60.0
 50
270.0
  0
INSERT
  5
7EDB
330
821F
100
AcDbEntity
  8
0
  6
ByBlock
100
AcDbBlockReference
  2
_OPEN
 10
5853.472841444804
 20
1158.060302835746
 30
0.0
 41
60.0
 42
60.0
 43
60.0
 50
90.0
  0
TEXT
  5
7EDC
330
821F
100
AcDbEntity
  8
3
100
AcDbText
 10
5838.472841444802
 20
433.0603028357463
 30
0.0
 40
90.0
  1
\U+03C61060
 50
90.0
100
AcDbText
  0
POINT
  5
7EDD
330
821F
100
AcDbEntity
  8
DEFPOINTS
  6
ByBlock
 62
     0
100
AcDbPoint
 10
5514.604621073492
 20
98.06030283574637
 30
0.0
  0
POINT
  5
7EDE
330
821F
100
AcDbEntity
  8
DEFPOINTS
  6
ByBlock
 62
     0
100
AcDbPoint
 10
5514.604621073492
 20
1158.060302835746
 30
0.0
  0
POINT
  5
7EDF
330
821F
100
AcDbEntity
  8
DEFPOINTS
  6
ByBlock
 62
     0
100
AcDbPoint
 10
5853.472841444804
 20
1158.060302835746
 30
0.0
  0
ENDBLK
  5
7EE0
330
821F
100
AcDbEntity
  8
0
100
AcDbBlockEnd
  0
BLOCK
  5
8222
330
8221
100
AcDbEntity
  8
0
100
AcDbBlockBegin
  2
*D15
 70
     1
 10
0.0
 20
0.0
 30
0.0
  3
*D15
  1

  0
LINE
  5
7EE2
330
8221
100
AcDbEntity
  8
0
  6
ByBlock
100
AcDbLine
 10
1785.165690591193
 20
4406.031599361241
 30
0.0
 11
1785.165690591193
 21
4627.335536588958
 31
0.0
  0
LINE
  5
7EE3
330
8221
100
AcDbEntity
  8
0
  6
ByBlock
100
AcDbLine
 10
2585.165690591193
 20
3751.03159936124
 30
0.0
 11
2585.165690591193
 21
4627.335536588958
 31
0.0
  0
LINE
  5
7EE4
330
8221
100
AcDbEntity
  8
0
  6
ByBlock
100
AcDbLine
 10
1845.165690591193
 20
4597.335536588958
 30
0.0
 11
2525.165690591193
 21
4597.335536588958
 31
0.0
  0
INSERT
  5
7EE5
330
8221
100
AcDbEntity
  8
0
  6
ByBlock
100
AcDbBlockReference
  2
_OPEN
 10
1785.165690591193
 20
4597.335536588958
 30
0.0
 41
60.0
 42
60.0
 43
60.0
 50
180.0
  0
INSERT
  5
7EE6
330
8221
100
AcDbEntity
  8
0
  6
ByBlock
100
AcDbBlockReference
  2
_OPEN
 10
2585.165690591193
 20
4597.335536588958
 30
0.0
 41
60.0
 42
60.0
 43
60.0
  0
TEXT
  5
7EE7
330
8221
100
AcDbEntity
  8
3
100
AcDbText
 10
2069.451404876907
 20
4612.335536588958
 30
0.0
 40
90.0
  1
800
100
AcDbText
  0
POINT
  5
7EE8
330
8221
100
AcDbEntity
  8
DEFPOINTS
  6
ByBlock
 62
     0
100
AcDbPoint
 10
1785.165690591193
 20
4376.031599361239
 30
0.0
  0
POINT
  5
7EE9
330
8221
100
AcDbEntity
  8
DEFPOINTS
  6
ByBlock
 62
     0
100
AcDbPoint
 10
2585.165690591193
 20
3721.031599361241
 30
0.0
  0
POINT
  5
7EEA
330
8221
100
AcDbEntity
  8
DEFPOINTS
  6
ByBlock
 62
     0
100
AcDbPoint
 10
2585.165690591193
 20
4597.335536588958
 30
0.0
  0
ENDBLK
  5
7EEB
330
8221
100
AcDbEntity
  8
0
100
AcDbBlockEnd
  0
BLOCK
  5
8224
330
8223
100
AcDbEntity
  8
0
100
AcDbBlockBegin
  2
*D16
 70
     1
 10
0.0
 20
0.0
 30
0.0
  3
*D16
  1

  0
LINE
  5
8160
330
8223
100
AcDbEntity
  8
3
100
AcDbLine
 10
1168.497639781776
 20
2970.169466167082
 30
0.0
 11
1168.497639781776
 21
4126.131608620377
 31
0.0
  0
LINE
  5
8161
330
8223
100
AcDbEntity
  8
3
100
AcDbLine
 10
1828.497639781776
 20
4096.131608620377
 30
0.0
 11
1228.497639781776
 21
4096.131608620377
 31
0.0
  0
INSERT
  5
8162
330
8223
100
AcDbEntity
  8
3
100
AcDbBlockReference
  2
_OPEN
 10
1888.497639781776
 20
4096.131608620377
 30
0.0
 41
60.0
 42
60.0
 43
60.0
  0
INSERT
  5
8163
330
8223
100
AcDbEntity
  8
3
100
AcDbBlockReference
  2
_OPEN
 10
1168.497639781776
 20
4096.131608620377
 30
0.0
 41
60.0
 42
60.0
 43
60.0
 50
180.0
  0
TEXT
  5
8183
330
8223
100
AcDbEntity
  8
3
100
AcDbText
 10
1348.5
 20
3996.83
 30
0.0
 40
90.0
  1
720
100
AcDbText
  0
POINT
  5
8165
330
8223
100
AcDbEntity
  8
DEFPOINTS
 62
     0
100
AcDbPoint
 10
1888.497639781776
 20
3753.785448664709
 30
0.0
  0
POINT
  5
8166
330
8223
100
AcDbEntity
  8
DEFPOINTS
 62
     0
100
AcDbPoint
 10
1168.497639781776
 20
2940.169466167081
 30
0.0
  0
POINT
  5
8167
330
8223
100
AcDbEntity
  8
DEFPOINTS
 62
     0
100
AcDbPoint
 10
1168.497639781776
 20
4096.131608620377
 30
0.0
  0
ENDBLK
  5
7EF5
330
8223
100
AcDbEntity
  8
0
100
AcDbBlockEnd
  0
BLOCK
  5
8226
330
8225
100
AcDbEntity
  8
0
100
AcDbBlockBegin
  2
*D17
 70
     1
 10
0.0
 20
0.0
 30
0.0
  3
*D17
  1

  0
LINE
  5
7EF7
330
8225
100
AcDbEntity
  8
0
  6
ByBlock
100
AcDbLine
 10
1130.165690591195
 20
1308.060302835747
 30
0.0
 11
143.471821917903
 21
1308.060302835747
 31
0.0
  0
LINE
  5
7EF8
330
8225
100
AcDbEntity
  8
0
  6
ByBlock
100
AcDbLine
 10
390.5497080935656
 20
628.0603028357453
 30
0.0
 11
143.471821917903
 21
628.0603028357453
 31
0.0
  0
LINE
  5
7EF9
330
8225
100
AcDbEntity
  8
0
  6
ByBlock
100
AcDbLine
 10
173.471821917903
 20
1248.060302835747
 30
0.0
 11
173.471821917903
 21
688.0603028357453
 31
0.0
  0
INSERT
  5
7EFA
330
8225
100
AcDbEntity
  8
0
  6
ByBlock
100
AcDbBlockReference
  2
_OPEN
 10
173.471821917903
 20
1308.060302835747
 30
0.0
 41
60.0
 42
60.0
 43
60.0
 50
90.0
  0
INSERT
  5
7EFB
330
8225
100
AcDbEntity
  8
0
  6
ByBlock
100
AcDbBlockReference
  2
_OPEN
 10
173.471821917903
 20
628.0603028357453
 30
0.0
 41
60.0
 42
60.0
 43
60.0
 50
270.0
  0
TEXT
  5
7EFC
330
8225
100
AcDbEntity
  8
3
100
AcDbText
 10
158.471821917903
 20
852.3460171214606
 30
0.0
 40
90.0
  1
680
 50
90.0
100
AcDbText
  0
POINT
  5
7EFD
330
8225
100
AcDbEntity
  8
DEFPOINTS
  6
ByBlock
 62
     0
100
AcDbPoint
 10
1160.165690591195
 20
1308.060302835747
 30
0.0
  0
POINT
  5
7EFE
330
8225
100
AcDbEntity
  8
DEFPOINTS
  6
ByBlock
 62
     0
100
AcDbPoint
 10
420.5497080935655
 20
628.0603028357453
 30
0.0
  0
POINT
  5
7EFF
330
8225
100
AcDbEntity
  8
DEFPOINTS
  6
ByBlock
 62
     0
100
AcDbPoint
 10
173.471821917903
 20
628.0603028357453
 30
0.0
  0
ENDBLK
  5
7F00
330
8225
100
AcDbEntity
  8
0
100
AcDbBlockEnd
  0
BLOCK
  5
8228
330
8227
100
AcDbEntity
  8
0
100
AcDbBlockBegin
  2
*D18
 70
     1
 10
0.0
 20
0.0
 30
0.0
  3
*D18
  1

  0
LINE
  5
8168
330
8227
100
AcDbEntity
  8
3
100
AcDbLine
 10
1233.497639781775
 20
2118.972316392661
 30
0.0
 11
871.8037711084853
 21
2118.972316392661
 31
0.0
  0
LINE
  5
8169
330
8227
100
AcDbEntity
  8
3
100
AcDbLine
 10
901.8037711084856
 20
2954.169466167079
 30
0.0
 11
901.8037711084852
 21
2178.972316392661
 31
0.0
  0
INSERT
  5
816A
330
8227
100
AcDbEntity
  8
3
100
AcDbBlockReference
  2
_OPEN
 10
901.8037711084856
 20
3014.169466167079
 30
0.0
 41
60.0
 42
60.0
 43
60.0
 50
90.0
  0
INSERT
  5
816B
330
8227
100
AcDbEntity
  8
3
100
AcDbBlockReference
  2
_OPEN
 10
901.8037711084852
 20
2118.972316392661
 30
0.0
 41
60.0
 42
60.0
 43
60.0
 50
270.0
  0
TEXT
  5
8184
330
8227
100
AcDbEntity
  8
3
100
AcDbText
 10
661.8039999999999
 20
2407.27
 30
0.0
 40
90.0
  1
895
100
AcDbText
  0
POINT
  5
816D
330
8227
100
AcDbEntity
  8
DEFPOINTS
 62
     0
100
AcDbPoint
 10
1148.881657284148
 20
3014.169466167079
 30
0.0
  0
POINT
  5
816E
330
8227
100
AcDbEntity
  8
DEFPOINTS
 62
     0
100
AcDbPoint
 10
1263.497639781775
 20
2118.972316392661
 30
0.0
  0
POINT
  5
816F
330
8227
100
AcDbEntity
  8
DEFPOINTS
 62
     0
100
AcDbPoint
 10
901.8037711084852
 20
2118.972316392661
 30
0.0
  0
ENDBLK
  5
7F0A
330
8227
100
AcDbEntity
  8
0
100
AcDbBlockEnd
  0
BLOCK
  5
822A
330
8229
100
AcDbEntity
  8
0
100
AcDbBlockBegin
  2
*D19
 70
     1
 10
0.0
 20
0.0
 30
0.0
  3
*D19
  1

  0
LINE
  5
8170
330
8229
100
AcDbEntity
  8
3
 62
     0
100
AcDbLine
 10
1248.497639781775
 20
2098.97231639266
 30
0.0
 11
871.8037711084853
 21
2098.972316392661
 31
0.0
  0
LINE
  5
8171
330
8229
100
AcDbEntity
  8
3
 62
     0
100
AcDbLine
 10
1248.497639781775
 20
1998.972316392659
 30
0.0
 11
871.8037711084853
 21
1998.972316392659
 31
0.0
  0
LINE
  5
8172
330
8229
100
AcDbEntity
  8
3
 62
     0
100
AcDbLine
 10
901.8037711084852
 20
2158.972316392661
 30
0.0
 11
901.8037711084852
 21
2218.972316392661
 31
0.0
  0
LINE
  5
8173
330
8229
100
AcDbEntity
  8
3
 62
     0
100
AcDbLine
 10
901.8037711084852
 20
1938.972316392661
 30
0.0
 11
901.8037711084852
 21
1604.686602106947
 31
0.0
  0
LINE
  5
8174
330
8229
100
AcDbEntity
  8
3
 62
     0
100
AcDbLine
 10
901.8037711084852
 20
2098.972316392661
 30
0.0
 11
901.8037711084852
 21
1998.972316392659
 31
0.0
  0
INSERT
  5
8175
330
8229
100
AcDbEntity
  8
3
 62
     0
100
AcDbBlockReference
  2
_DOT
 10
901.8037711084852
 20
2098.972316392661
 30
0.0
 41
60.0
 42
60.0
 43
60.0
 50
270.0
  0
INSERT
  5
8176
330
8229
100
AcDbEntity
  8
3
 62
     0
100
AcDbBlockReference
  2
_OPEN
 10
901.8037711084852
 20
1998.972316392659
 30
0.0
 41
60.0
 42
60.0
 43
60.0
 50
90.0
  0
TEXT
  5
8185
330
8229
100
AcDbEntity
  8
3
 62
     0
100
AcDbText
 10
646.804
 20
1582.53
 30
0.0
 40
90.0
  1
100
100
AcDbText
  0
POINT
  5
8178
330
8229
100
AcDbEntity
  8
DEFPOINTS
 62
     0
100
AcDbPoint
 10
1263.497639781775
 20
2098.97231639266
 30
0.0
  0
POINT
  5
8179
330
8229
100
AcDbEntity
  8
DEFPOINTS
 62
     0
100
AcDbPoint
 10
1263.497639781775
 20
1998.972316392659
 30
0.0
  0
POINT
  5
817A
330
8229
100
AcDbEntity
  8
DEFPOINTS
 62
     0
100
AcDbPoint
 10
901.8037711084852
 20
1998.972316392659
 30
0.0
  0
ENDBLK
  5
7FD0
330
8229
100
AcDbEntity
  8
0
100
AcDbBlockEnd
  0
BLOCK
  5
822E
330
822B
100
AcDbEntity
  8
0
100
AcDbBlockBegin
  2
_DOT
 70
     0
 10
0.0
 20
0.0
 30
0.0
  3
_DOT
  1

  0
LWPOLYLINE
  5
7FE0
330
822B
100
AcDbEntity
  8
0
  6
ByBlock
 62
     0
100
AcDbPolyline
 90
        2
 70
     1
 43
0.25
 10
-0.125
 20
0.0
 42
1.0
 10
0.125
 20
0.0
 42
1.0
  0
LINE
  5
7FE4
330
822B
100
AcDbEntity
  8
0
  6
ByBlock
 62
     0
100
AcDbLine
 10
-0.25
 20
0.0
 30
0.0
 11
-1.0
 21
0.0
 31
0.0
  0
ENDBLK
  5
7FC3
330
822B
100
AcDbEntity
  8
0
100
AcDbBlockEnd
  0
BLOCK
  5
822D
330
822C
100
AcDbEntity
  8
0
100
AcDbBlockBegin
  2
*D21
 70
     1
 10
0.0
 20
0.0
 30
0.0
  3
*D21
  1

  0
LINE
  5
7F30
330
822C
100
AcDbEntity
  8
0
  6
ByBlock
100
AcDbLine
 10
440.1656905911941
 20
584.0603028357476
 30
0.0
 11
440.1656905911941
 21
1915.071285267736
 31
0.0
  0
LINE
  5
7F31
330
822C
100
AcDbEntity
  8
0
  6
ByBlock
100
AcDbLine
 10
2585.165690591193
 20
-137.1368469386743
 30
0.0
 11
2585.165690591193
 21
1915.071285267736
 31
0.0
  0
LINE
  5
7F32
330
822C
100
AcDbEntity
  8
0
  6
ByBlock
100
AcDbLine
 10
500.165690591194
 20
1885.071285267737
 30
0.0
 11
2525.165690591193
 21
1885.071285267737
 31
0.0
  0
INSERT
  5
7F33
330
822C
100
AcDbEntity
  8
0
  6
ByBlock
100
AcDbBlockReference
  2
_OPEN
 10
440.1656905911941
 20
1885.071285267737
 30
0.0
 41
60.0
 42
60.0
 43
60.0
 50
180.0
  0
INSERT
  5
7F34
330
822C
100
AcDbEntity
  8
0
  6
ByBlock
100
AcDbBlockReference
  2
_OPEN
 10
2585.165690591193
 20
1885.071285267737
 30
0.0
 41
60.0
 42
60.0
 43
60.0
  0
TEXT
  5
7F35
330
822C
100
AcDbEntity
  8
3
100
AcDbText
 10
1362.665690591193
 20
1900.071285267737
 30
0.0
 40
90.0
  1
2145
100
AcDbText
  0
POINT
  5
7F36
330
822C
100
AcDbEntity
  8
DEFPOINTS
  6
ByBlock
 62
     0
100
AcDbPoint
 10
440.1656905911941
 20
554.0603028357477
 30
0.0
  0
POINT
  5
7F37
330
822C
100
AcDbEntity
  8
DEFPOINTS
  6
ByBlock
 62
     0
100
AcDbPoint
 10
2585.165690591193
 20
-167.1368469386743
 30
0.0
  0
POINT
  5
7F38
330
822C
100
AcDbEntity
  8
DEFPOINTS
  6
ByBlock
 62
     0
100
AcDbPoint
 10
2585.165690591193
 20
1885.071285267737
 30
0.0
  0
ENDBLK
  5
7F39
330
822C
100
AcDbEntity
  8
0
100
AcDbBlockEnd
  0
BLOCK
  5
8230
330
822F
100
AcDbEntity
  8
0
100
AcDbBlockBegin
  2
*D22
 70
     1
 10
0.0
 20
0.0
 30
0.0
  3
*D22
  1

  0
LINE
  5
804A
330
822F
100
AcDbEntity
  8
0
  6
ByBlock
 62
     0
100
AcDbLine
 10
1263.497639781775
 20
1961.972316392661
 30
0.0
 11
1263.497639781775
 21
1746.026870346177
 31
0.0
  0
LINE
  5
804B
330
822F
100
AcDbEntity
  8
0
  6
ByBlock
 62
     0
100
AcDbLine
 10
1888.497639781777
 20
1961.972316392661
 30
0.0
 11
1888.497639781777
 21
1746.026870346177
 31
0.0
  0
LINE
  5
804C
330
822F
100
AcDbEntity
  8
0
  6
ByBlock
 62
     0
100
AcDbLine
 10
1323.497639781775
 20
1776.026870346177
 30
0.0
 11
1828.497639781777
 21
1776.026870346177
 31
0.0
  0
INSERT
  5
804D
330
822F
100
AcDbEntity
  8
0
  6
ByBlock
 62
     0
100
AcDbBlockReference
  2
_OPEN
 10
1263.497639781775
 20
1776.026870346177
 30
0.0
 41
60.0
 42
60.0
 43
60.0
 50
180.0
  0
INSERT
  5
804E
330
822F
100
AcDbEntity
  8
0
  6
ByBlock
 62
     0
100
AcDbBlockReference
  2
_OPEN
 10
1888.497639781777
 20
1776.026870346177
 30
0.0
 41
60.0
 42
60.0
 43
60.0
  0
TEXT
  5
804F
330
822F
100
AcDbEntity
  8
3
 62
     0
100
AcDbText
 10
1460.28335406749
 20
1806.026870346176
 30
0.0
 40
90.0
  1
625
100
AcDbText
  0
POINT
  5
8050
330
822F
100
AcDbEntity
  8
DEFPOINTS
  6
ByBlock
 62
     0
100
AcDbPoint
 10
1263.497639781775
 20
1991.972316392661
 30
0.0
  0
POINT
  5
8051
330
822F
100
AcDbEntity
  8
DEFPOINTS
  6
ByBlock
 62
     0
100
AcDbPoint
 10
1888.497639781777
 20
1991.972316392661
 30
0.0
  0
POINT
  5
8052
330
822F
100
AcDbEntity
  8
DEFPOINTS
  6
ByBlock
 62
     0
100
AcDbPoint
 10
1888.497639781777
 20
1776.026870346177
 30
0.0
  0
ENDBLK
  5
8053
330
822F
100
AcDbEntity
  8
0
100
AcDbBlockEnd
  0
BLOCK
  5
8232
330
8231
100
AcDbEntity
  8
0
100
AcDbBlockBegin
  2
*D23
 70
     1
 10
0.0
 20
0.0
 30
0.0
  3
*D23
  1

  0
LINE
  5
8057
330
8231
100
AcDbEntity
  8
0
  6
ByBlock
 62
     0
100
AcDbLine
 10
1888.497639781777
 20
1961.972316392661
 30
0.0
 11
1888.497639781777
 21
1746.026870346177
 31
0.0
  0
LINE
  5
8058
330
8231
100
AcDbEntity
  8
0
  6
ByBlock
 62
     0
100
AcDbLine
 10
3313.497639781775
 20
1961.972316392661
 30
0.0
 11
3313.497639781775
 21
1746.026870346177
 31
0.0
  0
LINE
  5
8059
330
8231
100
AcDbEntity
  8
0
  6
ByBlock
 62
     0
100
AcDbLine
 10
1948.497639781777
 20
1776.026870346177
 30
0.0
 11
3253.497639781775
 21
1776.026870346177
 31
0.0
  0
INSERT
  5
805A
330
8231
100
AcDbEntity
  8
0
  6
ByBlock
 62
     0
100
AcDbBlockReference
  2
_OPEN
 10
1888.497639781777
 20
1776.026870346177
 30
0.0
 41
60.0
 42
60.0
 43
60.0
 50
180.0
  0
INSERT
  5
805B
330
8231
100
AcDbEntity
  8
0
  6
ByBlock
 62
     0
100
AcDbBlockReference
  2
_OPEN
 10
3313.497639781775
 20
1776.026870346177
 30
0.0
 41
60.0
 42
60.0
 43
60.0
  0
TEXT
  5
805C
330
8231
100
AcDbEntity
  8
3
 62
     0
100
AcDbText
 10
2450.997639781776
 20
1806.026870346176
 30
0.0
 40
90.0
  1
1425
100
AcDbText
  0
POINT
  5
805D
330
8231
100
AcDbEntity
  8
DEFPOINTS
  6
ByBlock
 62
     0
100
AcDbPoint
 10
1888.497639781777
 20
1991.972316392661
 30
0.0
  0
POINT
  5
805E
330
8231
100
AcDbEntity
  8
DEFPOINTS
  6
ByBlock
 62
     0
100
AcDbPoint
 10
3313.497639781775
 20
1991.972316392661
 30
0.0
  0
POINT
  5
805F
330
8231
100
AcDbEntity
  8
DEFPOINTS
  6
ByBlock
 62
     0
100
AcDbPoint
 10
3313.497639781775
 20
1776.026870346177
 30
0.0
  0
ENDBLK
  5
8060
330
8231
100
AcDbEntity
  8
0
100
AcDbBlockEnd
  0
BLOCK
  5
8234
330
8233
100
AcDbEntity
  8
0
100
AcDbBlockBegin
  2
*D24
 70
     1
 10
0.0
 20
0.0
 30
0.0
  3
*D24
  1

  0
LINE
  5
8064
330
8233
100
AcDbEntity
  8
0
  6
ByBlock
 62
     0
100
AcDbLine
 10
3977.083739525323
 20
1962.169466167079
 30
0.0
 11
3977.083739525323
 21
1746.026870346177
 31
0.0
  0
LINE
  5
8065
330
8233
100
AcDbEntity
  8
0
  6
ByBlock
 62
     0
100
AcDbLine
 10
4804.083739525321
 20
1962.169466167079
 30
0.0
 11
4804.083739525321
 21
1746.026870346177
 31
0.0
  0
LINE
  5
8066
330
8233
100
AcDbEntity
  8
0
  6
ByBlock
 62
     0
100
AcDbLine
 10
4037.08373952532
 20
1776.026870346177
 30
0.0
 11
4744.083739525321
 21
1776.026870346177
 31
0.0
  0
INSERT
  5
8067
330
8233
100
AcDbEntity
  8
0
  6
ByBlock
 62
     0
100
AcDbBlockReference
  2
_OPEN
 10
3977.083739525323
 20
1776.026870346177
 30
0.0
 41
60.0
 42
60.0
 43
60.0
 50
180.0
  0
INSERT
  5
8068
330
8233
100
AcDbEntity
  8
0
  6
ByBlock
 62
     0
100
AcDbBlockReference
  2
_OPEN
 10
4804.083739525321
 20
1776.026870346177
 30
0.0
 41
60.0
 42
60.0
 43
60.0
  0
TEXT
  5
8069
330
8233
100
AcDbEntity
  8
3
 62
     0
100
AcDbText
 10
4274.869453811037
 20
1806.026870346176
 30
0.0
 40
90.0
  1
827
100
AcDbText
  0
POINT
  5
806A
330
8233
100
AcDbEntity
  8
DEFPOINTS
  6
ByBlock
 62
     0
100
AcDbPoint
 10
3977.083739525323
 20
1992.169466167078
 30
0.0
  0
POINT
  5
806B
330
8233
100
AcDbEntity
  8
DEFPOINTS
  6
ByBlock
 62
     0
100
AcDbPoint
 10
4804.083739525321
 20
1992.169466167078
 30
0.0
  0
POINT
  5
806C
330
8233
100
AcDbEntity
  8
DEFPOINTS
  6
ByBlock
 62
     0
100
AcDbPoint
 10
4804.083739525321
 20
1776.026870346177
 30
0.0
  0
ENDBLK
  5
806D
330
8233
100
AcDbEntity
  8
0
100
AcDbBlockEnd
  0
BLOCK
  5
8236
330
8235
100
AcDbEntity
  8
0
100
AcDbBlockBegin
  2
*D25
 70
     1
 10
0.0
 20
0.0
 30
0.0
  3
*D25
  1

  0
LINE
  5
8071
330
8235
100
AcDbEntity
  8
0
  6
ByBlock
 62
     0
100
AcDbLine
 10
4804.083739525321
 20
1962.169466167079
 30
0.0
 11
4804.083739525321
 21
1746.026870346177
 31
0.0
  0
LINE
  5
8072
330
8235
100
AcDbEntity
  8
0
  6
ByBlock
 62
     0
100
AcDbLine
 10
5482.083739525322
 20
1962.169466167079
 30
0.0
 11
5482.083739525322
 21
1746.026870346177
 31
0.0
  0
LINE
  5
8073
330
8235
100
AcDbEntity
  8
0
  6
ByBlock
 62
     0
100
AcDbLine
 10
4864.083739525321
 20
1776.026870346177
 30
0.0
 11
5422.083739525322
 21
1776.026870346177
 31
0.0
  0
INSERT
  5
8074
330
8235
100
AcDbEntity
  8
0
  6
ByBlock
 62
     0
100
AcDbBlockReference
  2
_OPEN
 10
4804.083739525321
 20
1776.026870346177
 30
0.0
 41
60.0
 42
60.0
 43
60.0
 50
180.0
  0
INSERT
  5
8075
330
8235
100
AcDbEntity
  8
0
  6
ByBlock
 62
     0
100
AcDbBlockReference
  2
_OPEN
 10
5482.083739525322
 20
1776.026870346177
 30
0.0
 41
60.0
 42
60.0
 43
60.0
  0
TEXT
  5
8076
330
8235
100
AcDbEntity
  8
3
 62
     0
100
AcDbText
 10
5027.369453811036
 20
1806.026870346176
 30
0.0
 40
90.0
  1
678
100
AcDbText
  0
POINT
  5
8077
330
8235
100
AcDbEntity
  8
DEFPOINTS
  6
ByBlock
 62
     0
100
AcDbPoint
 10
4804.083739525321
 20
1992.169466167078
 30
0.0
  0
POINT
  5
8078
330
8235
100
AcDbEntity
  8
DEFPOINTS
  6
ByBlock
 62
     0
100
AcDbPoint
 10
5482.083739525322
 20
1992.169466167078
 30
0.0
  0
POINT
  5
8079
330
8235
100
AcDbEntity
  8
DEFPOINTS
  6
ByBlock
 62
     0
100
AcDbPoint
 10
5482.083739525322
 20
1776.026870346177
 30
0.0
  0
ENDBLK
  5
807A
330
8235
100
AcDbEntity
  8
0
100
AcDbBlockEnd
  0
BLOCK
  5
8238
330
8237
100
AcDbEntity
  8
0
100
AcDbBlockBegin
  2
_NONE
 70
     0
 10
0.0
 20
0.0
 30
0.0
  3
_NONE
  1

  0
CIRCLE
  5
807E
330
8237
100
AcDbEntity
  8
0
  6
ByBlock
 62
     0
100
AcDbCircle
 10
0.0
 20
0.0
 30
0.0
 40
0.25
  0
ENDBLK
  5
807F
330
8237
100
AcDbEntity
  8
0
100
AcDbBlockEnd
  0
BLOCK
  5
823A
330
8239
100
AcDbEntity
  8
0
100
AcDbBlockBegin
  2
*D27
 70
     1
 10
0.0
 20
0.0
 30
0.0
  3
*D27
  1

  0
LINE
  5
80E3
330
8239
100
AcDbEntity
  8
0
  6
ByBlock
 62
     0
100
AcDbLine
 10
899.0127063696672
 20
2098.97231639266
 30
0.0
 11
899.0127063696672
 21
2098.97231639266
 31
0.0
  0
LINE
  5
80E4
330
8239
100
AcDbEntity
  8
0
  6
ByBlock
 62
     0
100
AcDbLine
 10
899.0127063696672
 20
2118.972316392661
 30
0.0
 11
899.0127063696672
 21
2238.972316392661
 31
0.0
  0
TEXT
  5
80E5
330
8239
100
AcDbEntity
  8
3
 62
     0
100
AcDbText
 10
785.4412777982387
 20
1951.258030678375
 30
0.0
 40
90.0
  1
 (20)
 50
90.0
100
AcDbText
  0
LINE
  5
80E6
330
8239
100
AcDbEntity
  8
0
  6
ByBlock
 62
     0
100
AcDbLine
 10
899.0127063696672
 20
2098.97231639266
 30
0.0
 11
899.0127063696672
 21
2118.972316392661
 31
0.0
  0
POINT
  5
80E7
330
8239
100
AcDbEntity
  8
DEFPOINTS
  6
ByBlock
 62
     0
100
AcDbPoint
 10
1263.497639781775
 20
2098.97231639266
 30
0.0
  0
POINT
  5
80E8
330
8239
100
AcDbEntity
  8
DEFPOINTS
  6
ByBlock
 62
     0
100
AcDbPoint
 10
1263.497639781775
 20
2118.972316392661
 30
0.0
  0
POINT
  5
80E9
330
8239
100
AcDbEntity
  8
DEFPOINTS
  6
ByBlock
 62
     0
100
AcDbPoint
 10
899.0127063696672
 20
2118.972316392661
 30
0.0
  0
ENDBLK
  5
80EA
330
8239
100
AcDbEntity
  8
0
100
AcDbBlockEnd
  0
BLOCK
  5
823C
330
823B
100
AcDbEntity
  8
0
100
AcDbBlockBegin
  2
*D28
 70
     1
 10
0.0
 20
0.0
 30
0.0
  3
*D28
  1

  0
LINE
  5
80C5
330
823B
100
AcDbEntity
  8
0
  6
ByBlock
 62
     0
100
AcDbLine
 10
1233.497639781775
 20
1998.972316392659
 30
0.0
 11
612.012689290681
 21
1998.972316392659
 31
0.0
  0
LINE
  5
80C6
330
823B
100
AcDbEntity
  8
0
  6
ByBlock
 62
     0
100
AcDbLine
 10
1828.497639781777
 20
3694.169466167082
 30
0.0
 11
612.012689290681
 21
3694.169466167082
 31
0.0
  0
LINE
  5
80C7
330
823B
100
AcDbEntity
  8
0
  6
ByBlock
 62
     0
100
AcDbLine
 10
642.012689290681
 20
2058.972316392661
 30
0.0
 11
642.012689290681
 21
3634.169466167082
 31
0.0
  0
INSERT
  5
80C8
330
823B
100
AcDbEntity
  8
0
  6
ByBlock
 62
     0
100
AcDbBlockReference
  2
_OPEN
 10
642.012689290681
 20
1998.972316392659
 30
0.0
 41
60.0
 42
60.0
 43
60.0
 50
270.0
  0
INSERT
  5
80C9
330
823B
100
AcDbEntity
  8
0
  6
ByBlock
 62
     0
100
AcDbBlockReference
  2
_OPEN
 10
642.012689290681
 20
3694.169466167082
 30
0.0
 41
60.0
 42
60.0
 43
60.0
 50
90.0
  0
TEXT
  5
80CA
330
823B
100
AcDbEntity
  8
3
 62
     0
100
AcDbText
 10
573.4412607192524
 20
2638.713748422728
 30
0.0
 40
90.0
  1
(1695)
 50
90.0
100
AcDbText
  0
POINT
  5
80CB
330
823B
100
AcDbEntity
  8
DEFPOINTS
  6
ByBlock
 62
     0
100
AcDbPoint
 10
1263.497639781775
 20
1998.972316392659
 30
0.0
  0
POINT
  5
80CC
330
823B
100
AcDbEntity
  8
DEFPOINTS
  6
ByBlock
 62
     0
100
AcDbPoint
 10
1858.497639781777
 20
3694.169466167082
 30
0.0
  0
POINT
  5
80CD
330
823B
100
AcDbEntity
  8
DEFPOINTS
  6
ByBlock
 62
     0
100
AcDbPoint
 10
642.012689290681
 20
3694.169466167082
 30
0.0
  0
ENDBLK
  5
80CE
330
823B
100
AcDbEntity
  8
0
100
AcDbBlockEnd
  0
BLOCK
  5
8241
330
8240
100
AcDbEntity
  8
0
100
AcDbBlockBegin
  2
*D29
 70
     1
 10
0.0
 20
0.0
 30
0.0
  3
*D29
  1

  0
LINE
  5
829E
330
8240
100
AcDbEntity
  8
3
 62
     0
370
    -2
100
AcDbLine
 10
3744.083739525316
 20
3324.16946616708
 30
0.0
 11
3744.083739525316
 21
4292.321035480273
 31
0.0
  0
LINE
  5
829F
330
8240
100
AcDbEntity
  8
3
 62
     0
370
    -2
100
AcDbLine
 10
4804.083739525322
 20
4083.164217589007
 30
0.0
 11
4804.083739525322
 21
4292.321035480273
 31
0.0
  0
LINE
  5
82A0
330
8240
100
AcDbEntity
  8
3
 62
     0
370
    -2
100
AcDbLine
 10
3804.083739525316
 20
4262.321035480272
 30
0.0
 11
4744.083739525321
 21
4262.321035480272
 31
0.0
  0
INSERT
  5
82A1
330
8240
100
AcDbEntity
  8
3
 62
     0
370
    -2
100
AcDbBlockReference
  2
_OPEN
 10
3744.083739525316
 20
4262.321035480272
 30
0.0
 41
60.0
 42
60.0
 43
60.0
 50
180.0
  0
INSERT
  5
82A2
330
8240
100
AcDbEntity
  8
3
 62
     0
370
    -2
100
AcDbBlockReference
  2
_OPEN
 10
4804.083739525322
 20
4262.321035480272
 30
0.0
 41
60.0
 42
60.0
 43
60.0
  0
MTEXT
  5
82A3
330
8240
100
AcDbEntity
  8
3
 62
     0
100
AcDbMText
 10
4274.083739525319
 20
4360.8924640517
 30
0.0
 40
90.0
 41
0.0
 71
     5
 72
     1
  1
\A1;(1060)
 73
     1
 44
1.0
1001
ACAD
1000
MTEXTBEGIN
1070
    73
1070
     1
1070
    44
1040
1.0
1070
    74
1070
     0
1000
MTEXTEND
  0
POINT
  5
82A4
330
8240
100
AcDbEntity
  8
DEFPOINTS
 62
     0
100
AcDbPoint
 10
3744.083739525316
 20
3294.16946616708
 30
0.0
  0
POINT
  5
82A5
330
8240
100
AcDbEntity
  8
DEFPOINTS
 62
     0
100
AcDbPoint
 10
4804.083739525322
 20
4053.164217589007
 30
0.0
  0
POINT
  5
82A6
330
8240
100
AcDbEntity
  8
DEFPOINTS
 62
     0
100
AcDbPoint
 10
4804.083739525322
 20
4262.321035480272
 30
0.0
  0
ENDBLK
  5
8242
330
8240
100
AcDbEntity
  8
0
100
AcDbBlockEnd
  0
BLOCK
  5
824E
330
824D
100
AcDbEntity
  8
0
100
AcDbBlockBegin
  2
*D30
 70
     1
 10
0.0
 20
0.0
 30
0.0
  3
*D30
  1

  0
LINE
  5
82A7
330
824D
100
AcDbEntity
  8
3
 62
     0
370
    -2
100
AcDbLine
 10
4804.083739525322
 20
4083.164217589007
 30
0.0
 11
4804.083739525322
 21
4292.321035480273
 31
0.0
  0
LINE
  5
82A8
330
824D
100
AcDbEntity
  8
3
 62
     0
370
    -2
100
AcDbLine
 10
5584.083739525321
 20
3008.36946616708
 30
0.0
 11
5584.083739525321
 21
4292.321035480273
 31
0.0
  0
LINE
  5
82A9
330
824D
100
AcDbEntity
  8
3
 62
     0
370
    -2
100
AcDbLine
 10
4864.083739525322
 20
4262.321035480272
 30
0.0
 11
5524.083739525321
 21
4262.321035480272
 31
0.0
  0
INSERT
  5
82AA
330
824D
100
AcDbEntity
  8
3
 62
     0
370
    -2
100
AcDbBlockReference
  2
_OPEN
 10
4804.083739525322
 20
4262.321035480272
 30
0.0
 41
60.0
 42
60.0
 43
60.0
 50
180.0
  0
INSERT
  5
82AB
330
824D
100
AcDbEntity
  8
3
 62
     0
370
    -2
100
AcDbBlockReference
  2
_OPEN
 10
5584.083739525321
 20
4262.321035480272
 30
0.0
 41
60.0
 42
60.0
 43
60.0
  0
MTEXT
  5
82AC
330
824D
100
AcDbEntity
  8
3
 62
     0
100
AcDbMText
 10
5194.083739525321
 20
4360.8924640517
 30
0.0
 40
90.0
 41
0.0
 71
     5
 72
     1
  1
\A1;(780)
 73
     1
 44
1.0
1001
ACAD
1000
MTEXTBEGIN
1070
    73
1070
     1
1070
    44
1040
1.0
1070
    74
1070
     0
1000
MTEXTEND
  0
POINT
  5
82AD
330
824D
100
AcDbEntity
  8
DEFPOINTS
 62
     0
100
AcDbPoint
 10
4804.083739525322
 20
4053.164217589007
 30
0.0
  0
POINT
  5
82AE
330
824D
100
AcDbEntity
  8
DEFPOINTS
 62
     0
100
AcDbPoint
 10
5584.083739525321
 20
2978.369466167081
 30
0.0
  0
POINT
  5
82AF
330
824D
100
AcDbEntity
  8
DEFPOINTS
 62
     0
100
AcDbPoint
 10
5584.083739525321
 20
4262.321035480272
 30
0.0
  0
ENDBLK
  5
824F
330
824D
100
AcDbEntity
  8
0
100
AcDbBlockEnd
  0
BLOCK
  5
8270
330
826F
100
AcDbEntity
  8
0
100
AcDbBlockBegin
  2
*D31
 70
     1
 10
0.0
 20
0.0
 30
0.0
  3
*D31
  1

  0
LINE
  5
8288
330
826F
100
AcDbEntity
  8
3
 62
     0
370
    -2
100
AcDbLine
 10
1096.81742701428
 20
5783.335754123925
 30
0.0
 11
-330.9515176870335
 21
5783.335754123925
 31
0.0
  0
LINE
  5
8289
330
826F
100
AcDbEntity
  8
3
 62
     0
370
    -2
100
AcDbLine
 10
1578.497639781777
 20
4723.335754123922
 30
0.0
 11
-330.9515176870338
 21
4723.335754123922
 31
0.0
  0
LINE
  5
828A
330
826F
100
AcDbEntity
  8
3
 62
     0
370
    -2
100
AcDbLine
 10
-300.9515176870336
 20
5723.335754123925
 30
0.0
 11
-300.9515176870337
 21
4783.335754123922
 31
0.0
  0
INSERT
  5
828B
330
826F
100
AcDbEntity
  8
3
 62
     0
370
    -2
100
AcDbBlockReference
  2
_OPEN
 10
-300.9515176870335
 20
5783.335754123925
 30
0.0
 41
60.0
 42
60.0
 43
60.0
 50
90.0
  0
INSERT
  5
828C
330
826F
100
AcDbEntity
  8
3
 62
     0
370
    -2
100
AcDbBlockReference
  2
_OPEN
 10
-300.9515176870338
 20
4723.335754123922
 30
0.0
 41
60.0
 42
60.0
 43
60.0
 50
270.0
  0
MTEXT
  5
828D
330
826F
100
AcDbEntity
  8
3
 62
     0
100
AcDbMText
 10
-375.9515176870345
 20
5253.335754123924
 30
0.0
 40
90.0
 41
0.0
 71
     5
 72
     1
  1
\A1;1060
 11
0.0000000000000001
 21
1.0
 31
0.0
 73
     1
 44
1.0
1001
ACAD
1000
MTEXTBEGIN
1070
    73
1070
     1
1070
    44
1040
1.0
1070
    74
1070
     0
1000
MTEXTEND
  0
POINT
  5
828E
330
826F
100
AcDbEntity
  8
DEFPOINTS
 62
     0
100
AcDbPoint
 10
1126.81742701428
 20
5783.335754123925
 30
0.0
  0
POINT
  5
828F
330
826F
100
AcDbEntity
  8
DEFPOINTS
 62
     0
100
AcDbPoint
 10
1608.497639781777
 20
4723.335754123922
 30
0.0
  0
POINT
  5
8290
330
826F
100
AcDbEntity
  8
DEFPOINTS
 62
     0
100
AcDbPoint
 10
-300.9515176870338
 20
4723.335754123922
 30
0.0
  0
ENDBLK
  5
8271
330
826F
100
AcDbEntity
  8
0
100
AcDbBlockEnd
  0
BLOCK
  5
827C
330
827B
100
AcDbEntity
  8
0
100
AcDbBlockBegin
  2
*D32
 70
     1
 10
0.0
 20
0.0
 30
0.0
  3
*D32
  1

  0
LINE
  5
827E
330
827B
100
AcDbEntity
  8
3
 62
     0
370
    -2
100
AcDbLine
 10
3313.497639781775
 20
4954.460754123926
 30
0.0
 11
3313.497639781775
 21
4542.385630297348
 31
0.0
  0
LINE
  5
827F
330
827B
100
AcDbEntity
  8
3
 62
     0
370
    -2
100
AcDbLine
 10
1263.497639781775
 20
4954.460754123924
 30
0.0
 11
1263.497639781775
 21
4542.385630297348
 31
0.0
  0
LINE
  5
8280
330
827B
100
AcDbEntity
  8
3
 62
     0
370
    -2
100
AcDbLine
 10
3308.097639781775
 20
4547.785630297347
 30
0.0
 11
2312.283354067489
 21
4547.785630297347
 31
0.0
  0
LINE
  5
8281
330
827B
100
AcDbEntity
  8
3
 62
     0
370
    -2
100
AcDbLine
 10
1268.897639781775
 20
4547.785630297347
 30
0.0
 11
2264.711925496061
 21
4547.785630297347
 31
0.0
  0
SOLID
  5
8282
330
827B
100
AcDbEntity
  8
3
 62
     0
100
AcDbTrace
 10
3308.097639781775
 20
4548.685630297347
 30
0.0
 11
3308.097639781775
 21
4546.885630297349
 31
0.0
 12
3313.497639781775
 22
4547.785630297347
 32
0.0
 13
3313.497639781775
 23
4547.785630297347
 33
0.0
  0
SOLID
  5
8283
330
827B
100
AcDbEntity
  8
3
 62
     0
100
AcDbTrace
 10
1268.897639781775
 20
4548.685630297347
 30
0.0
 11
1268.897639781775
 21
4546.885630297349
 31
0.0
 12
1263.497639781775
 22
4547.785630297347
 32
0.0
 13
1263.497639781775
 23
4547.785630297347
 33
0.0
  0
MTEXT
  5
8284
330
827B
100
AcDbEntity
  8
3
 62
     0
100
AcDbMText
 10
2288.497639781775
 20
4547.785630297347
 30
0.0
 40
5.399999999999999
 41
0.0
 71
     5
 72
     1
  1
\A1;2050.0000
 73
     1
 44
1.0
1001
ACAD
1000
MTEXTBEGIN
1070
    73
1070
     1
1070
    44
1040
1.0
1070
    74
1070
     0
1000
MTEXTEND
  0
POINT
  5
8285
330
827B
100
AcDbEntity
  8
DEFPOINTS
 62
     0
100
AcDbPoint
 10
3313.497639781775
 20
4956.335754123926
 30
0.0
  0
POINT
  5
8286
330
827B
100
AcDbEntity
  8
DEFPOINTS
 62
     0
100
AcDbPoint
 10
1263.497639781775
 20
4956.335754123924
 30
0.0
  0
POINT
  5
8287
330
827B
100
AcDbEntity
  8
DEFPOINTS
 62
     0
100
AcDbPoint
 10
1263.497639781775
 20
4547.785630297347
 30
0.0
  0
ENDBLK
  5
827D
330
827B
100
AcDbEntity
  8
0
100
AcDbBlockEnd
  0
BLOCK
  5
8293
330
8292
100
AcDbEntity
  8
0
100
AcDbBlockBegin
  2
*D33
 70
     1
 10
0.0
 20
0.0
 30
0.0
  3
*D33
  1

  0
LINE
  5
8295
330
8292
100
AcDbEntity
  8
3
 62
     0
370
    -2
100
AcDbLine
 10
1263.497639781775
 20
4926.335754123924
 30
0.0
 11
1263.497639781775
 21
4489.965663319759
 31
0.0
  0
LINE
  5
8296
330
8292
100
AcDbEntity
  8
3
 62
     0
370
    -2
100
AcDbLine
 10
3313.497639781775
 20
4926.335754123925
 30
0.0
 11
3313.497639781775
 21
4489.965663319759
 31
0.0
  0
LINE
  5
8297
330
8292
100
AcDbEntity
  8
3
 62
     0
370
    -2
100
AcDbLine
 10
1323.497639781775
 20
4519.965663319759
 30
0.0
 11
3253.497639781775
 21
4519.965663319759
 31
0.0
  0
INSERT
  5
8298
330
8292
100
AcDbEntity
  8
3
 62
     0
370
    -2
100
AcDbBlockReference
  2
_OPEN
 10
1263.497639781775
 20
4519.965663319759
 30
0.0
 41
60.0
 42
60.0
 43
60.0
 50
180.0
  0
INSERT
  5
8299
330
8292
100
AcDbEntity
  8
3
 62
     0
370
    -2
100
AcDbBlockReference
  2
_OPEN
 10
3313.497639781775
 20
4519.965663319759
 30
0.0
 41
60.0
 42
60.0
 43
60.0
  0
MTEXT
  5
829A
330
8292
100
AcDbEntity
  8
3
 62
     0
100
AcDbMText
 10
2288.497639781775
 20
4594.965663319759
 30
0.0
 40
90.0
 41
0.0
 71
     5
 72
     1
  1
\A1;2050
 73
     1
 44
1.0
1001
ACAD
1000
MTEXTBEGIN
1070
    73
1070
     1
1070
    44
1040
1.0
1070
    74
1070
     0
1000
MTEXTEND
  0
POINT
  5
829B
330
8292
100
AcDbEntity
  8
DEFPOINTS
 62
     0
100
AcDbPoint
 10
1263.497639781775
 20
4956.335754123924
 30
0.0
  0
POINT
  5
829C
330
8292
100
AcDbEntity
  8
DEFPOINTS
 62
     0
100
AcDbPoint
 10
3313.497639781775
 20
4956.335754123926
 30
0.0
  0
POINT
  5
829D
330
8292
100
AcDbEntity
  8
DEFPOINTS
 62
     0
100
AcDbPoint
 10
3313.497639781775
 20
4519.965663319759
 30
0.0
  0
ENDBLK
  5
8294
330
8292
100
AcDbEntity
  8
0
100
AcDbBlockEnd
  0
BLOCK
  5
82BC
330
82BB
100
AcDbEntity
  8
0
100
AcDbBlockBegin
  2
*D35
 70
     1
 10
0.0
 20
0.0
 30
0.0
  3
*D35
  1

  0
LINE
  5
871D
330
82BB
100
AcDbEntity
  8
3
 62
     0
370
    -2
100
AcDbLine
 10
1118.881657284148
 20
3014.169466167079
 30
0.0
 11
871.8037711084853
 21
3014.169466167079
 31
0.0
  0
LINE
  5
871E
330
82BB
100
AcDbEntity
  8
3
 62
     0
370
    -2
100
AcDbLine
 10
1233.497639781775
 20
2119.169466167079
 30
0.0
 11
871.8037711084852
 21
2119.16946616708
 31
0.0
  0
LINE
  5
871F
330
82BB
100
AcDbEntity
  8
3
 62
     0
370
    -2
100
AcDbLine
 10
901.8037711084854
 20
2954.16946616708
 30
0.0
 11
901.8037711084852
 21
2179.16946616708
 31
0.0
  0
INSERT
  5
8720
330
82BB
100
AcDbEntity
  8
3
 62
     0
370
    -2
100
AcDbBlockReference
  2
_OPEN
 10
901.8037711084854
 20
3014.169466167079
 30
0.0
 41
60.0
 42
60.0
 43
60.0
 50
90.0
  0
INSERT
  5
8721
330
82BB
100
AcDbEntity
  8
3
 62
     0
370
    -2
100
AcDbBlockReference
  2
_OPEN
 10
901.8037711084852
 20
2119.16946616708
 30
0.0
 41
60.0
 42
60.0
 43
60.0
 50
270.0
  0
MTEXT
  5
8722
330
82BB
100
AcDbEntity
  8
3
 62
     0
100
AcDbMText
 10
826.8037711084849
 20
2566.66946616708
 30
0.0
 40
90.0
 41
0.0
 71
     5
 72
     1
  1
\A1;895
 11
0.0000000000000001
 21
1.0
 31
0.0
 73
     1
 44
1.0
1001
ACAD
1000
MTEXTBEGIN
1070
    73
1070
     1
1070
    44
1040
1.0
1070
    74
1070
     0
1000
MTEXTEND
  0
POINT
  5
8723
330
82BB
100
AcDbEntity
  8
DEFPOINTS
 62
     0
100
AcDbPoint
 10
1148.881657284148
 20
3014.169466167079
 30
0.0
  0
POINT
  5
8724
330
82BB
100
AcDbEntity
  8
DEFPOINTS
 62
     0
100
AcDbPoint
 10
1263.497639781775
 20
2119.169466167079
 30
0.0
  0
POINT
  5
8725
330
82BB
100
AcDbEntity
  8
DEFPOINTS
 62
     0
100
AcDbPoint
 10
901.8037711084852
 20
2119.16946616708
 30
0.0
  0
ENDBLK
  5
82BD
330
82BB
100
AcDbEntity
  8
0
100
AcDbBlockEnd
  0
BLOCK
  5
82C9
330
82C8
100
AcDbEntity
  8
0
100
AcDbBlockBegin
  2
*D36
 70
     1
 10
0.0
 20
0.0
 30
0.0
  3
*D36
  1

  0
LINE
  5
8747
330
82C8
100
AcDbEntity
  8
3
 62
     0
370
    -2
100
AcDbLine
 10
1233.497639781775
 20
2119.169466167079
 30
0.0
 11
871.8037711084852
 21
2119.16946616708
 31
0.0
  0
LINE
  5
8748
330
82C8
100
AcDbEntity
  8
3
 62
     0
370
    -2
100
AcDbLine
 10
1233.497639781775
 20
2099.169466167079
 30
0.0
 11
871.8037711084852
 21
2099.169466167079
 31
0.0
  0
LINE
  5
8749
330
82C8
100
AcDbEntity
  8
3
 62
     0
370
    -2
100
AcDbLine
 10
901.8037711084852
 20
2179.16946616708
 30
0.0
 11
901.8037711084852
 21
2239.16946616708
 31
0.0
  0
LINE
  5
874A
330
82C8
100
AcDbEntity
  8
3
 62
     0
370
    -2
100
AcDbLine
 10
901.8037711084852
 20
2099.169466167079
 30
0.0
 11
901.8037711084852
 21
2039.169466167079
 31
0.0
  0
MTEXT
  5
874B
330
82C8
100
AcDbEntity
  8
3
 62
     0
100
AcDbMText
 10
765.3844842168463
 20
2166.004964851138
 30
0.0
 40
90.0
 41
0.0
 71
     5
 72
     1
  1
\A1;(20)
 11
0.0000000000000001
 21
1.0
 31
0.0
 73
     1
 44
1.0
1001
ACAD
1000
MTEXTBEGIN
1070
    73
1070
     1
1070
    44
1040
1.0
1070
    74
1070
     0
1000
MTEXTEND
  0
LINE
  5
874C
330
82C8
100
AcDbEntity
  8
3
 62
     0
370
    -2
100
AcDbLine
 10
901.8037711084852
 20
2119.16946616708
 30
0.0
 11
901.8037711084852
 21
2099.169466167079
 31
0.0
  0
INSERT
  5
874D
330
82C8
100
AcDbEntity
  8
3
 62
     0
370
    -2
100
AcDbBlockReference
  2
_OPEN
 10
901.8037711084852
 20
2119.16946616708
 30
0.0
 41
60.0
 42
60.0
 43
60.0
 50
270.0
  0
INSERT
  5
874E
330
82C8
100
AcDbEntity
  8
3
 62
     0
370
    -2
100
AcDbBlockReference
  2
_DotSmall
 10
901.8037711084852
 20
2099.169466167079
 30
0.0
 41
60.0
 42
60.0
 43
60.0
 50
90.0
  0
POINT
  5
874F
330
82C8
100
AcDbEntity
  8
DEFPOINTS
 62
     0
100
AcDbPoint
 10
1263.497639781775
 20
2119.169466167079
 30
0.0
  0
POINT
  5
8750
330
82C8
100
AcDbEntity
  8
DEFPOINTS
 62
     0
100
AcDbPoint
 10
1263.497639781775
 20
2099.169466167079
 30
0.0
  0
POINT
  5
8751
330
82C8
100
AcDbEntity
  8
DEFPOINTS
 62
     0
100
AcDbPoint
 10
901.8037711084852
 20
2099.169466167079
 30
0.0
  0
ENDBLK
  5
82CA
330
82C8
100
AcDbEntity
  8
0
100
AcDbBlockEnd
  0
BLOCK
  5
82DB
330
82DA
100
AcDbEntity
  8
0
100
AcDbBlockBegin
  2
*D37
 70
     1
 10
0.0
 20
0.0
 30
0.0
  3
*D37
  1

  0
LINE
  5
8752
330
82DA
100
AcDbEntity
  8
3
 62
     0
370
    -2
100
AcDbLine
 10
1233.497639781775
 20
2099.169466167079
 30
0.0
 11
871.8037711084852
 21
2099.169466167079
 31
0.0
  0
LINE
  5
8753
330
82DA
100
AcDbEntity
  8
3
 62
     0
370
    -2
100
AcDbLine
 10
1233.497639781775
 20
1999.169466167078
 30
0.0
 11
871.8037711084852
 21
1999.169466167078
 31
0.0
  0
LINE
  5
8754
330
82DA
100
AcDbEntity
  8
3
 62
     0
370
    -2
100
AcDbLine
 10
901.8037711084852
 20
2099.169466167079
 30
0.0
 11
901.8037711084852
 21
2159.169466167079
 31
0.0
  0
LINE
  5
8755
330
82DA
100
AcDbEntity
  8
3
 62
     0
370
    -2
100
AcDbLine
 10
901.8037711084852
 20
1939.169466167078
 30
0.0
 11
901.8037711084852
 21
1879.169466167078
 31
0.0
  0
MTEXT
  5
8756
330
82DA
100
AcDbEntity
  8
3
 62
     0
100
AcDbMText
 10
826.8037711084852
 20
1856.220379333262
 30
0.0
 40
90.0
 41
0.0
 71
     5
 72
     1
  1
\A1;100
 11
0.0000000000000001
 21
1.0
 31
0.0
 73
     1
 44
1.0
1001
ACAD
1000
MTEXTBEGIN
1070
    73
1070
     1
1070
    44
1040
1.0
1070
    74
1070
     0
1000
MTEXTEND
  0
LINE
  5
8757
330
82DA
100
AcDbEntity
  8
3
 62
     0
370
    -2
100
AcDbLine
 10
901.8037711084852
 20
2099.169466167079
 30
0.0
 11
901.8037711084852
 21
1999.169466167078
 31
0.0
  0
INSERT
  5
8758
330
82DA
100
AcDbEntity
  8
3
 62
     0
370
    -2
100
AcDbBlockReference
  2
_DotSmall
 10
901.8037711084852
 20
2099.169466167079
 30
0.0
 41
60.0
 42
60.0
 43
60.0
 50
270.0
  0
INSERT
  5
8759
330
82DA
100
AcDbEntity
  8
3
 62
     0
370
    -2
100
AcDbBlockReference
  2
_OPEN
 10
901.8037711084852
 20
1999.169466167078
 30
0.0
 41
60.0
 42
60.0
 43
60.0
 50
90.0
  0
POINT
  5
875A
330
82DA
100
AcDbEntity
  8
DEFPOINTS
 62
     0
100
AcDbPoint
 10
1263.497639781775
 20
2099.169466167079
 30
0.0
  0
POINT
  5
875B
330
82DA
100
AcDbEntity
  8
DEFPOINTS
 62
     0
100
AcDbPoint
 10
1263.497639781775
 20
1999.169466167078
 30
0.0
  0
POINT
  5
875C
330
82DA
100
AcDbEntity
  8
DEFPOINTS
 62
     0
100
AcDbPoint
 10
901.8037711084852
 20
1999.169466167078
 30
0.0
  0
ENDBLK
  5
82DC
330
82DA
100
AcDbEntity
  8
0
100
AcDbBlockEnd
  0
BLOCK
  5
8369
330
8367
100
AcDbEntity
  8
0
100
AcDbBlockBegin
  2
_DotSmall
 70
     0
 10
0.0
 20
0.0
 30
0.0
  3
_DotSmall
  1

  0
LWPOLYLINE
  5
8368
330
8367
100
AcDbEntity
  8
0
  6
ByBlock
 62
     0
100
AcDbPolyline
 90
        2
 70
     1
 43
0.5
 10
-0.0625
 20
0.0
 42
1.0
 10
0.0625
 20
0.0
 42
1.0
  0
ENDBLK
  5
836A
330
8367
100
AcDbEntity
  8
0
100
AcDbBlockEnd
  0
BLOCK
  5
875F
330
875E
100
AcDbEntity
  8
0
100
AcDbBlockBegin
  2
*D39
 70
     1
 10
0.0
 20
0.0
 30
0.0
  3
*D39
  1

  0
LINE
  5
876A
330
875E
100
AcDbEntity
  8
3
 62
     0
370
    -2
100
AcDbLine
 10
1888.497639781777
 20
3763.82600011631
 30
0.0
 11
1888.497639781777
 21
4126.131608620377
 31
0.0
  0
LINE
  5
876B
330
875E
100
AcDbEntity
  8
3
 62
     0
370
    -2
100
AcDbLine
 10
1168.497639781776
 20
2970.169466167082
 30
0.0
 11
1168.497639781776
 21
4126.131608620377
 31
0.0
  0
LINE
  5
876C
330
875E
100
AcDbEntity
  8
3
 62
     0
370
    -2
100
AcDbLine
 10
1828.497639781777
 20
4096.131608620377
 30
0.0
 11
1228.497639781776
 21
4096.131608620377
 31
0.0
  0
INSERT
  5
876D
330
875E
100
AcDbEntity
  8
3
 62
     0
370
    -2
100
AcDbBlockReference
  2
_OPEN
 10
1888.497639781777
 20
4096.131608620377
 30
0.0
 41
60.0
 42
60.0
 43
60.0
  0
INSERT
  5
876E
330
875E
100
AcDbEntity
  8
3
 62
     0
370
    -2
100
AcDbBlockReference
  2
_OPEN
 10
1168.497639781776
 20
4096.131608620377
 30
0.0
 41
60.0
 42
60.0
 43
60.0
 50
180.0
  0
MTEXT
  5
876F
330
875E
100
AcDbEntity
  8
3
 62
     0
100
AcDbMText
 10
1528.497639781776
 20
4171.131608620377
 30
0.0
 40
90.0
 41
0.0
 71
     5
 72
     1
  1
\A1;720
 73
     1
 44
1.0
1001
ACAD
1000
MTEXTBEGIN
1070
    73
1070
     1
1070
    44
1040
1.0
1070
    74
1070
     0
1000
MTEXTEND
  0
POINT
  5
8770
330
875E
100
AcDbEntity
  8
DEFPOINTS
 62
     0
100
AcDbPoint
 10
1888.497639781777
 20
3733.826000116309
 30
0.0
  0
POINT
  5
8771
330
875E
100
AcDbEntity
  8
DEFPOINTS
 62
     0
100
AcDbPoint
 10
1168.497639781776
 20
2940.169466167081
 30
0.0
  0
POINT
  5
8772
330
875E
100
AcDbEntity
  8
DEFPOINTS
 62
     0
100
AcDbPoint
 10
1168.497639781776
 20
4096.131608620377
 30
0.0
  0
ENDBLK
  5
8760
330
875E
100
AcDbEntity
  8
0
100
AcDbBlockEnd
  0
ENDSEC
  0
SECTION
  2
ENTITIES
  0
INSERT
  5
7C27
330
81F4
100
AcDbEntity
  8
0
100
AcDbBlockReference
  2
YA_N
 10
6.0
 20
5.0
 30
0.0
  0
ARC
  5
7C29
330
81F4
100
AcDbEntity
  8
1
100
AcDbCircle
 10
1962.497639781776
 20
3088.169466167081
 30
0.0
 40
942.0
100
AcDbArc
 50
292.6737795343462
 51
355.4944154733556
  0
ARC
  5
7C2A
330
81F4
100
AcDbEntity
  8
1
100
AcDbCircle
 10
1962.497639781776
 20
2940.169466167081
 30
0.0
 40
794.0
100
AcDbArc
 50
174.6523302501611
 51
245.2726700885535
  0
ARC
  5
7C2B
330
81F4
100
AcDbEntity
  8
1
100
AcDbCircle
 10
1827.997639781776
 20
2953.669466167081
 30
0.0
 40
659.4999999999998
100
AcDbArc
 50
84.73650479693301
 51
174.736504796933
  0
LINE
  5
7C2C
330
81F4
100
AcDbEntity
  8
1
100
AcDbLine
 10
1932.497639781776
 20
3611.551253636366
 30
0.0
 11
1932.497639781777
 21
3694.169466167082
 31
0.0
  0
LINE
  5
7C2D
330
81F4
100
AcDbEntity
  8
1
100
AcDbLine
 10
3015.497639781777
 20
3694.169466167082
 30
0.0
 11
1879.497639781776
 21
3694.169466167082
 31
0.0
  0
LINE
  5
7C2E
330
81F4
100
AcDbEntity
  8
1
100
AcDbLine
 10
2962.497639781777
 20
3694.169466167082
 30
0.0
 11
2901.5865599592
 21
3014.169466167081
 31
0.0
  0
LINE
  5
7C2F
330
81F4
100
AcDbEntity
  8
1
100
AcDbLine
 10
3015.497639781777
 20
3690.16946616708
 30
0.0
 11
3015.497639781777
 21
3694.169466167082
 31
0.0
  0
LINE
  5
7C30
330
81F4
100
AcDbEntity
  8
1
100
AcDbLine
 10
1879.497639781776
 20
3690.169466167083
 30
0.0
 11
1879.497639781776
 21
3694.169466167082
 31
0.0
  0
LINE
  5
7C31
330
81F4
100
AcDbEntity
  8
1
100
AcDbLine
 10
2958.018883912469
 20
3644.169466167082
 30
0.0
 11
1932.497639781776
 21
3644.169466167082
 31
0.0
  0
LINE
  5
7C32
330
81F4
100
AcDbEntity
  8
1
100
AcDbLine
 10
3015.497639781777
 20
3690.169466167079
 30
0.0
 11
1879.497639781776
 21
3690.169466167083
 31
0.0
  0
LINE
  5
7C33
330
81F4
100
AcDbEntity
  8
1
100
AcDbLine
 10
3313.497639781775
 20
2219.169466167078
 30
0.0
 11
1263.497639781775
 21
2219.169466167079
 31
0.0
  0
LINE
  5
7C34
330
81F4
100
AcDbEntity
  8
1
100
AcDbLine
 10
1263.497639781775
 20
2219.169466167079
 30
0.0
 11
1263.497639781775
 21
2119.169466167079
 31
0.0
  0
LINE
  5
7C35
330
81F4
100
AcDbEntity
  8
2
100
AcDbLine
 10
3719.08373952532
 20
3014.16946616708
 30
0.0
 11
5610.160371074623
 21
3014.16946616708
 31
0.0
  0
LINE
  5
7C36
330
81F4
100
AcDbEntity
  8
2
100
AcDbLine
 10
4804.083739525322
 20
3925.218337515751
 30
0.0
 11
4804.083739525321
 21
1999.16946616708
 31
0.0
  0
LINE
  5
7C37
330
81F4
100
AcDbEntity
  8
1
100
AcDbLine
 10
3977.083739525321
 20
2119.169466167079
 30
0.0
 11
5482.083739525322
 21
2119.169466167079
 31
0.0
1001
ACAD
1000
ASC_BOUNDS
1002
{
1070
    19
1005
0
1005
0
1002
}
  0
LINE
  5
7C38
330
81F4
100
AcDbEntity
  8
1
100
AcDbLine
 10
3977.083739525323
 20
2219.169466167079
 30
0.0
 11
5482.083739525322
 21
2219.169466167079
 31
0.0
  0
LINE
  5
7C39
330
81F4
100
AcDbEntity
  8
1
100
AcDbLine
 10
5429.083739525322
 20
3694.16946616708
 30
0.0
 11
5429.083739525324
 21
3014.16946616708
 31
0.0
  0
LINE
  5
7C3A
330
81F4
100
AcDbEntity
  8
2
100
AcDbLine
 10
1888.497639781777
 20
3733.826000116309
 30
0.0
 11
1888.497639781776
 21
1998.972316392661
 31
0.0
  0
LINE
  5
7C3B
330
81F4
100
AcDbEntity
  8
2
100
AcDbLine
 10
1148.881657284148
 20
3014.169466167079
 30
0.0
 11
2961.673410288387
 21
3014.16946616708
 31
0.0
  0
LINE
  5
7C3C
330
81F4
100
AcDbEntity
  8
1
100
AcDbLine
 10
3313.497639781775
 20
2119.169466167079
 30
0.0
 11
1263.497639781775
 21
2119.169466167079
 31
0.0
1001
ACAD
1000
ASC_BOUNDS
1002
{
1070
    19
1005
0
1002
}
  0
INSERT
  5
7C3D
330
81F4
100
AcDbEntity
  8
0
100
AcDbBlockReference
  2
YA_N
 10
-1637.209838160516
 20
-1405.432827243363
 30
0.0
 41
25.0
 42
25.0
 43
25.0
  0
ARC
  5
7C3F
330
81F4
100
AcDbEntity
  8
1
100
AcDbCircle
 10
3038.497639781776
 20
2454.169466167078
 30
0.0
 40
185.0
100
AcDbArc
 50
287.9452509999999
 51
252.054749
  0
LINE
  5
7C40
330
81F4
100
AcDbEntity
  8
2
100
AcDbLine
 10
3038.497639781776
 20
2717.985140167078
 30
0.0
 11
3038.497639781777
 21
1999.16946616708
 31
0.0
  0
LINE
  5
7C41
330
81F4
100
AcDbEntity
  8
1
100
AcDbLine
 10
2981.497624781775
 20
2278.169466167079
 30
0.0
 11
3095.497639781776
 21
2278.169466167079
 31
0.0
  0
LINE
  5
7C42
330
81F4
100
AcDbEntity
  8
1
100
AcDbLine
 10
2876.497624781777
 20
2349.428499167077
 30
0.0
 11
2876.497624781777
 21
2274.169466167078
 31
0.0
  0
LINE
  5
7C46
330
81F4
100
AcDbEntity
  8
1
100
AcDbLine
 10
2935.997624781776
 20
2279.318025167079
 30
0.0
 11
2945.504338781775
 21
2294.240633167078
 31
0.0
  0
LINE
  5
7C47
330
81F4
100
AcDbEntity
  8
1
100
AcDbLine
 10
2935.997624781776
 20
2291.169466167079
 30
0.0
 11
2935.997624781776
 21
2274.169466167078
 31
0.0
  0
LINE
  5
7C49
330
81F4
100
AcDbEntity
  8
1
100
AcDbLine
 10
2879.497624781775
 20
2294.169466167079
 30
0.0
 11
2932.997624781775
 21
2294.169466167079
 31
0.0
  0
ARC
  5
7C4B
330
81F4
100
AcDbEntity
  8
1
100
AcDbCircle
 10
2879.497624781775
 20
2291.169466167079
 30
0.0
 40
3.0
100
AcDbArc
 50
90.0
 51
180.0
  0
LINE
  5
7C4D
330
81F4
100
AcDbEntity
  8
1
100
AcDbLine
 10
2927.673710781776
 20
2294.169466167079
 30
0.0
 11
2932.853459781776
 21
2302.300066167077
 31
0.0
  0
ARC
  5
7C4E
330
81F4
100
AcDbEntity
  8
1
100
AcDbCircle
 10
2932.997624781775
 20
2291.169466167079
 30
0.0
 40
3.0
100
AcDbArc
 50
0.0
 51
90.0
  0
LINE
  5
7C51
330
81F4
100
AcDbEntity
  8
1
100
AcDbLine
 10
2876.497624781777
 20
2349.428499167077
 30
0.0
 11
2882.881596781776
 21
2354.126253167078
 31
0.0
  0
LINE
  5
7C54
330
81F4
100
AcDbEntity
  8
1
100
AcDbLine
 10
3200.497639781776
 20
2349.428499167077
 30
0.0
 11
3200.497639781776
 21
2274.169466167078
 31
0.0
  0
LINE
  5
7C55
330
81F4
100
AcDbEntity
  8
1
100
AcDbLine
 10
3197.497639781776
 20
2294.169466167079
 30
0.0
 11
3143.997639781777
 21
2294.169466167079
 31
0.0
  0
LINE
  5
7C56
330
81F4
100
AcDbEntity
  8
1
100
AcDbLine
 10
3140.997639781776
 20
2279.318025167079
 30
0.0
 11
3131.490925781776
 21
2294.240633167078
 31
0.0
  0
LINE
  5
7C59
330
81F4
100
AcDbEntity
  8
1
100
AcDbLine
 10
3140.997639781776
 20
2274.169466167078
 30
0.0
 11
3140.997639781776
 21
2291.169466167079
 31
0.0
  0
LINE
  5
7C5C
330
81F4
100
AcDbEntity
  8
1
100
AcDbLine
 10
3149.321553781776
 20
2294.169466167079
 30
0.0
 11
3144.141804781777
 21
2302.300066167077
 31
0.0
  0
ARC
  5
7C5D
330
81F4
100
AcDbEntity
  8
1
100
AcDbCircle
 10
3143.997639781777
 20
2291.169466167079
 30
0.0
 40
3.0
100
AcDbArc
 50
90.0
 51
180.0
  0
ARC
  5
7C60
330
81F4
100
AcDbEntity
  8
1
100
AcDbCircle
 10
3197.497639781776
 20
2291.169466167079
 30
0.0
 40
3.0
100
AcDbArc
 50
0.0
 51
90.0
  0
LINE
  5
7C61
330
81F4
100
AcDbEntity
  8
1
100
AcDbLine
 10
3200.497639781776
 20
2349.428499167077
 30
0.0
 11
3194.113667781776
 21
2354.126253167078
 31
0.0
  0
LINE
  5
7C62
330
81F4
100
AcDbEntity
  8
2
100
AcDbLine
 10
3288.92405390732
 20
2454.169466167078
 30
0.0
 11
2822.41810713582
 21
2454.169466167078
 31
0.0
  0
LINE
  5
7C63
330
81F4
100
AcDbEntity
  8
1
100
AcDbLine
 10
3248.913652807541
 20
2274.169466167078
 30
0.0
 11
3108.497639781777
 21
2274.169466167078
 31
0.0
  0
LINE
  5
7C64
330
81F4
100
AcDbEntity
  8
1
100
AcDbLine
 10
2813.497639781776
 20
2219.169466167078
 30
0.0
 11
2828.282388568111
 21
2274.169466167078
 31
0.0
  0
LINE
  5
7C65
330
81F4
100
AcDbEntity
  8
1
100
AcDbLine
 10
3263.497639781777
 20
2219.169466167078
 30
0.0
 11
3248.913652807541
 21
2274.169466167078
 31
0.0
  0
LINE
  5
7C67
330
81F4
100
AcDbEntity
  8
1
100
AcDbLine
 10
3108.497639781777
 20
2264.169466167078
 30
0.0
 11
2968.497639781777
 21
2264.169466167078
 31
0.0
  0
LINE
  5
7C68
330
81F4
100
AcDbEntity
  8
1
100
AcDbLine
 10
3108.497639781777
 20
2274.169466167078
 30
0.0
 11
3108.497639781777
 21
2264.169466167078
 31
0.0
  0
LINE
  5
7C69
330
81F4
100
AcDbEntity
  8
1
100
AcDbLine
 10
2968.497639781775
 20
2274.169466167078
 30
0.0
 11
2968.497639781775
 21
2264.169466167078
 31
0.0
  0
LINE
  5
7C6A
330
81F4
100
AcDbEntity
  8
1
100
AcDbLine
 10
2968.497639781777
 20
2274.169466167078
 30
0.0
 11
2828.282388568111
 21
2274.169466167078
 31
0.0
  0
CIRCLE
  5
7C6D
330
81F4
100
AcDbEntity
  8
1
100
AcDbCircle
 10
1888.497639781777
 20
3014.169466167079
 30
0.0
 40
165.0999999999999
  0
CIRCLE
  5
7C6E
330
81F4
100
AcDbEntity
  8
1
100
AcDbCircle
 10
3038.497639781776
 20
2454.169466167078
 30
0.0
 40
114.3
  0
LINE
  5
7C6F
330
81F4
100
AcDbEntity
  8
1
100
AcDbLine
 10
3313.497639781775
 20
2099.169466167079
 30
0.0
 11
1263.497639781775
 21
2099.169466167079
 31
0.0
1001
ACAD
1000
ASC_BOUNDS
1002
{
1070
    19
1005
0
1002
}
  0
LINE
  5
7C70
330
81F4
100
AcDbEntity
  8
1
100
AcDbLine
 10
3313.497639781775
 20
1999.169466167078
 30
0.0
 11
1263.497639781775
 21
1999.169466167078
 31
0.0
  0
LINE
  5
7C71
330
81F4
100
AcDbEntity
  8
1
100
AcDbLine
 10
1263.497639781775
 20
2099.169466167079
 30
0.0
 11
1263.497639781775
 21
1999.169466167078
 31
0.0
  0
POINT
  5
7C72
330
81F4
100
AcDbEntity
  8
1
100
AcDbPoint
 10
1263.497639781775
 20
2099.169466167079
 30
0.0
  0
POINT
  5
7C73
330
81F4
100
AcDbEntity
  8
1
100
AcDbPoint
 10
1263.497639781775
 20
2099.169466167079
 30
0.0
  0
LINE
  5
7C74
330
81F4
100
AcDbEntity
  8
1
100
AcDbLine
 10
3977.083739525321
 20
2099.169466167079
 30
0.0
 11
5482.083739525322
 21
2099.169466167079
 31
0.0
1001
ACAD
1000
ASC_BOUNDS
1002
{
1070
    19
1005
0
1005
0
1002
}
  0
POINT
  5
7C75
330
81F4
100
AcDbEntity
  8
1
100
AcDbPoint
 10
1263.497639781775
 20
2099.169466167079
 30
0.0
  0
POINT
  5
7C76
330
81F4
100
AcDbEntity
  8
1
100
AcDbPoint
 10
1263.497639781775
 20
2099.169466167079
 30
0.0
  0
LINE
  5
7C77
330
81F4
100
AcDbEntity
  8
1
100
AcDbLine
 10
4804.083739525322
 20
3694.16946616708
 30
0.0
 11
5469.083739525324
 21
3694.16946616708
 31
0.0
  0
INSERT
  5
7C78
330
81F4
100
AcDbEntity
  8
0
100
AcDbBlockReference
  2
YA_N
 10
-1144.893563079054
 20
-989.0222135336152
 30
0.0
 41
25.0
 42
25.0
 43
25.0
  0
DIMENSION
  5
7C7A
330
81F4
100
AcDbEntity
  8
3
100
AcDbDimension
  2
*D4
 10
1932.497639781777
 20
3895.329563161224
 30
0.0
 11
2447.497639781778
 21
3955.329563161224
 31
0.0
 12
728.3319491905822
 22
2386.109163331333
 32
0.0
 71
     5
 42
-1.0
  3
Standard
100
AcDbAlignedDimension
 13
2962.497639781777
 23
3694.169466167082
 33
0.0
 14
1932.497639781777
 24
3694.169466167082
 34
0.0
100
AcDbRotatedDimension
1001
ACAD
1000
DSTYLE
1002
{
1070
    40
1040
30.0
1002
}
  0
DIMENSION
  5
7C7B
330
81F4
100
AcDbEntity
  8
3
100
AcDbDimension
  2
*D5
 10
1888.497639781776
 20
4096.131608620377
 30
0.0
 11
2425.497639781776
 21
4156.131608620376
 31
0.0
 12
728.3319491905822
 22
2386.109163331333
 32
0.0
 71
     5
 42
-1.0
  3
Standard
100
AcDbAlignedDimension
 13
2962.497639781777
 23
3694.169466167082
 33
0.0
 14
1888.497639781776
 24
3753.785448664709
 34
0.0
100
AcDbRotatedDimension
1001
ACAD
1000
DSTYLE
1002
{
1070
    40
1040
30.0
1002
}
  0
POINT
  5
7C7C
330
81F4
100
AcDbEntity
  8
1
100
AcDbPoint
 10
1263.497639781775
 20
2099.169466167079
 30
0.0
  0
POINT
  5
7C7D
330
81F4
100
AcDbEntity
  8
1
100
AcDbPoint
 10
1263.497639781775
 20
2099.169466167079
 30
0.0
  0
LINE
  5
7C7E
330
81F4
100
AcDbEntity
  8
1
100
AcDbLine
 10
5429.083739525322
 20
3014.16946616708
 30
0.0
 11
5429.083739525322
 21
2219.169466167079
 31
0.0
  0
LINE
  5
7C7F
330
81F4
100
AcDbEntity
  8
1
100
AcDbLine
 10
4179.083739525321
 20
3694.16946616708
 30
0.0
 11
4179.083739525321
 21
3014.16946616708
 31
0.0
  0
LINE
  5
7C80
330
81F4
100
AcDbEntity
  8
1
100
AcDbLine
 10
4804.083739525322
 20
3694.16946616708
 30
0.0
 11
4139.083739525321
 21
3694.16946616708
 31
0.0
  0
LINE
  5
7C81
330
81F4
100
AcDbEntity
  8
1
100
AcDbLine
 10
4179.083739525321
 20
3014.16946616708
 30
0.0
 11
4179.083739525321
 21
2636.47231639266
 31
0.0
  0
LINE
  5
7C82
330
81F4
100
AcDbEntity
  8
1
100
AcDbLine
 10
5584.083739525321
 20
2978.369466167081
 30
0.0
 11
5584.083739525321
 21
2848.36946616708
 31
0.0
  0
LINE
  5
7C83
330
81F4
100
AcDbEntity
  8
1
100
AcDbLine
 10
5447.083739525321
 20
2988.36946616708
 30
0.0
 11
5447.083739525321
 21
2838.36946616708
 31
0.0
  0
LINE
  5
7C84
330
81F4
100
AcDbEntity
  8
1
100
AcDbLine
 10
5447.083739525321
 20
2988.36946616708
 30
0.0
 11
5496.383739525322
 21
2988.36946616708
 31
0.0
  0
LINE
  5
7C85
330
81F4
100
AcDbEntity
  8
1
100
AcDbLine
 10
5447.083739525321
 20
2838.36946616708
 30
0.0
 11
5496.383739525322
 21
2838.36946616708
 31
0.0
  0
ARC
  5
7C86
330
81F4
100
AcDbEntity
  8
1
100
AcDbCircle
 10
5574.083739525324
 20
2978.369466167081
 30
0.0
 40
10.0
100
AcDbArc
 50
0.0000000000006514
 51
90.0
  0
ARC
  5
7C87
330
81F4
100
AcDbEntity
  8
1
100
AcDbCircle
 10
5574.083739525322
 20
2848.36946616708
 30
0.0
 40
10.0
100
AcDbArc
 50
270.0
 51
0.0000000000006514
  0
LINE
  5
7C88
330
81F4
100
AcDbEntity
  8
1
100
AcDbLine
 10
5496.383739525321
 20
2988.36946616708
 30
0.0
 11
5574.08373952532
 21
2988.36946616708
 31
0.0
  0
LINE
  5
7C89
330
81F4
100
AcDbEntity
  8
1
100
AcDbLine
 10
5496.383739525322
 20
2838.36946616708
 30
0.0
 11
5574.083739525322
 21
2838.36946616708
 31
0.0
  0
LINE
  5
7C8A
330
81F4
100
AcDbEntity
  8
1
100
AcDbLine
 10
3881.083739525323
 20
3179.269466167079
 30
0.0
 11
3991.083739525322
 21
3179.269466167079
 31
0.0
  0
LINE
  5
7C8B
330
81F4
100
AcDbEntity
  8
1
100
AcDbLine
 10
3881.083739525323
 20
2849.06946616708
 30
0.0
 11
3991.083739525322
 21
2849.06946616708
 31
0.0
  0
LINE
  5
7C8C
330
81F4
100
AcDbEntity
  8
1
100
AcDbLine
 10
3881.083739525323
 20
2568.27231639266
 30
0.0
 11
3991.083739525322
 21
2568.27231639266
 31
0.0
  0
LINE
  5
7C8D
330
81F4
100
AcDbEntity
  8
1
100
AcDbLine
 10
3881.083739525323
 20
2339.672316392659
 30
0.0
 11
3991.083739525322
 21
2339.672316392659
 31
0.0
  0
LINE
  5
7C8E
330
81F4
100
AcDbEntity
  8
1
100
AcDbLine
 10
3881.083739525323
 20
3179.269466167079
 30
0.0
 11
3881.083739525323
 21
2339.672316392659
 31
0.0
  0
LINE
  5
7C8F
330
81F4
100
AcDbEntity
  8
1
100
AcDbLine
 10
3991.083739525322
 20
3179.269466167079
 30
0.0
 11
3991.083739525321
 21
2339.672316392659
 31
0.0
  0
LINE
  5
7C90
330
81F4
100
AcDbEntity
  8
1
100
AcDbLine
 10
3744.083739525316
 20
3294.16946616708
 30
0.0
 11
3744.083739525329
 21
2233.972316392661
 31
0.0
  0
LINE
  5
7C91
330
81F4
100
AcDbEntity
  8
1
100
AcDbLine
 10
3744.083739525316
 20
3294.16946616708
 30
0.0
 11
4036.583739525315
 21
3294.16946616708
 31
0.0
  0
LINE
  5
7C92
330
81F4
100
AcDbEntity
  8
1
100
AcDbLine
 10
3744.083739525325
 20
2233.972316392661
 30
0.0
 11
4036.583739525325
 21
2233.972316392661
 31
0.0
  0
LINE
  5
7C93
330
81F4
100
AcDbEntity
  8
1
100
AcDbLine
 10
4036.583739525315
 20
3294.169466167082
 30
0.0
 11
4036.583739525315
 21
3274.16946616708
 31
0.0
  0
LINE
  5
7C94
330
81F4
100
AcDbEntity
  8
1
100
AcDbLine
 10
4036.583739525325
 20
2253.97231639266
 30
0.0
 11
4036.583739525325
 21
2233.972316392661
 31
0.0
  0
POINT
  5
7C95
330
81F4
100
AcDbEntity
  8
1
100
AcDbPoint
 10
5584.083739525325
 20
2978.369466167081
 30
0.0
  0
LINE
  5
7C96
330
81F4
100
AcDbEntity
  8
2
100
AcDbLine
 10
1888.497639781775
 20
6377.251315973105
 30
0.0
 11
1888.497639781775
 21
4689.263508402548
 31
0.0
  0
LINE
  5
7C97
330
81F4
100
AcDbEntity
  8
2
100
AcDbLine
 10
2962.497639781777
 20
5783.335754123926
 30
0.0
 11
1126.81742701428
 21
5783.335754123925
 31
0.0
  0
INSERT
  5
7C98
330
81F4
100
AcDbEntity
  8
0
100
AcDbBlockReference
  2
YA_N
 10
3439.312525519781
 20
-2261.498311600258
 30
0.0
  0
LINE
  5
7C9A
330
81F4
100
AcDbEntity
  8
1
100
AcDbLine
 10
3977.083739525323
 20
1999.16946616708
 30
0.0
 11
5482.083739525322
 21
1999.16946616708
 31
0.0
1001
ACAD
1000
ASC_BOUNDS
1002
{
1070
    19
1002
}
  0
LINE
  5
7C9B
330
81F4
100
AcDbEntity
  8
1
100
AcDbLine
 10
5482.083739525322
 20
2219.169466167079
 30
0.0
 11
5482.083739525322
 21
2119.169466167079
 31
0.0
  0
LINE
  5
7C9C
330
81F4
100
AcDbEntity
  8
1
100
AcDbLine
 10
3977.083739525321
 20
2219.169466167079
 30
0.0
 11
3977.083739525321
 21
2119.169466167079
 31
0.0
  0
LINE
  5
7C9D
330
81F4
100
AcDbEntity
  8
1
100
AcDbLine
 10
4111.783739525321
 20
2981.96946616708
 30
0.0
 11
4046.083739525323
 21
2981.96946616708
 31
0.0
  0
LINE
  5
7C9E
330
81F4
100
AcDbEntity
  8
1
100
AcDbLine
 10
4111.78373952532
 20
2831.96946616708
 30
0.0
 11
4046.08373952532
 21
2831.96946616708
 31
0.0
  0
LINE
  5
7C9F
330
81F4
100
AcDbEntity
  8
1
100
AcDbLine
 10
4161.083739525321
 20
2981.96946616708
 30
0.0
 11
4161.083739525322
 21
2831.96946616708
 31
0.0
  0
LINE
  5
7CA0
330
81F4
100
AcDbEntity
  8
1
100
AcDbLine
 10
4161.083739525322
 20
2831.96946616708
 30
0.0
 11
4111.78373952532
 21
2831.96946616708
 31
0.0
  0
LINE
  5
7CA1
330
81F4
100
AcDbEntity
  8
1
100
AcDbLine
 10
4161.083739525322
 20
2981.969466167079
 30
0.0
 11
4111.78373952532
 21
2981.96946616708
 31
0.0
  0
LINE
  5
7CA2
330
81F4
100
AcDbEntity
  8
1
100
AcDbLine
 10
4036.083739525323
 20
2971.96946616708
 30
0.0
 11
4036.083739525323
 21
2841.969466167081
 31
0.0
  0
ARC
  5
7CA3
330
81F4
100
AcDbEntity
  8
1
100
AcDbCircle
 10
4046.08373952532
 20
2841.969466167081
 30
0.0
 40
10.0
100
AcDbArc
 50
179.9999999999992
 51
270.0
  0
ARC
  5
7CA4
330
81F4
100
AcDbEntity
  8
1
100
AcDbCircle
 10
4046.083739525319
 20
2971.96946616708
 30
0.0
 40
10.0
100
AcDbArc
 50
90.0
 51
179.9999999999992
  0
POINT
  5
7CA5
330
81F4
100
AcDbEntity
  8
1
100
AcDbPoint
 10
4036.083739525319
 20
2971.96946616708
 30
0.0
  0
LINE
  5
7CA6
330
81F4
100
AcDbEntity
  8
1
100
AcDbLine
 10
4001.083739525323
 20
3046.669466167079
 30
0.0
 11
4179.083739525321
 21
3046.66946616708
 31
0.0
  0
LINE
  5
7CA7
330
81F4
100
AcDbEntity
  8
1
100
AcDbLine
 10
4001.083739525323
 20
2981.66946616708
 30
0.0
 11
4043.652690369088
 21
2981.66946616708
 31
0.0
  0
LINE
  5
7CA8
330
81F4
100
AcDbEntity
  8
1
100
AcDbLine
 10
4001.083739525323
 20
3046.669466167079
 30
0.0
 11
4001.083739525323
 21
2981.66946616708
 31
0.0
  0
LINE
  5
7CA9
330
81F4
100
AcDbEntity
  8
1
100
AcDbLine
 10
3991.083739525322
 20
3044.16946616708
 30
0.0
 11
4001.083739525323
 21
3044.16946616708
 31
0.0
  0
LINE
  5
7CAA
330
81F4
100
AcDbEntity
  8
1
100
AcDbLine
 10
3991.083739525322
 20
2984.16946616708
 30
0.0
 11
4001.083739525323
 21
2984.16946616708
 31
0.0
  0
LINE
  5
7CAE
330
81F4
100
AcDbEntity
  8
1
100
AcDbLine
 10
3313.497639781775
 20
2219.169466167079
 30
0.0
 11
3313.497639781775
 21
2119.169466167079
 31
0.0
  0
LINE
  5
7CAF
330
81F4
100
AcDbEntity
  8
1
100
AcDbLine
 10
3313.497639781775
 20
2099.169466167079
 30
0.0
 11
3313.497639781775
 21
1999.169466167078
 31
0.0
  0
POINT
  5
7CB0
330
81F4
100
AcDbEntity
  8
1
100
AcDbPoint
 10
1263.497639781775
 20
2099.169466167079
 30
0.0
  0
POINT
  5
7CB1
330
81F4
100
AcDbEntity
  8
1
100
AcDbPoint
 10
1263.497639781775
 20
2119.169466167079
 30
0.0
  0
POINT
  5
7CB2
330
81F4
100
AcDbEntity
  8
1
100
AcDbPoint
 10
1263.497639781775
 20
2099.169466167079
 30
0.0
  0
LINE
  5
7CB6
330
81F4
100
AcDbEntity
  8
1
100
AcDbLine
 10
3313.497639781775
 20
4956.335754123926
 30
0.0
 11
1263.497639781775
 21
4956.335754123924
 31
0.0
  0
LINE
  5
7CB7
330
81F4
100
AcDbEntity
  8
1
100
AcDbLine
 10
2513.497639781775
 20
6461.335754123926
 30
0.0
 11
1263.497639781775
 21
6461.335754123926
 31
0.0
  0
LINE
  5
7CB8
330
81F4
100
AcDbEntity
  8
1
100
AcDbLine
 10
1263.497639781775
 20
6461.335754123926
 30
0.0
 11
1263.497639781775
 21
6408.335754123922
 31
0.0
  0
LINE
  5
7CB9
330
81F4
100
AcDbEntity
  8
1
100
AcDbLine
 10
3313.497639781775
 20
5806.335754123927
 30
0.0
 11
3313.497639781775
 21
4956.335754123926
 31
0.0
  0
LINE
  5
7CBA
330
81F4
100
AcDbEntity
  8
1
100
AcDbLine
 10
2513.497639781775
 20
6461.335754123926
 30
0.0
 11
2513.497639781775
 21
6408.335754123925
 31
0.0
  0
LINE
  5
7CBB
330
81F4
100
AcDbEntity
  8
1
100
AcDbLine
 10
3313.497639781775
 20
5806.335754123924
 30
0.0
 11
2962.497639781777
 21
5806.335754123924
 31
0.0
  0
LINE
  5
7CBC
330
81F4
100
AcDbEntity
  8
2
100
AcDbLine
 10
3038.497639781776
 20
5700.371117812299
 30
0.0
 11
3038.497639781776
 21
4691.637873033618
 31
0.0
  0
DIMENSION
  5
7CBD
330
81F4
100
AcDbEntity
  8
3
100
AcDbDimension
  2
*D6
 10
1263.497639781775
 20
6682.639691351642
 30
0.0
 11
1888.497639781775
 21
6682.639691351642
 31
0.0
 12
728.3319491905822
 22
2085.304154762685
 32
0.0
 70
   128
 71
     5
 42
-1.0
  3
Standard
100
AcDbAlignedDimension
 13
2513.497639781775
 23
6461.335754123926
 33
0.0
 14
1263.497639781775
 24
6461.335754123926
 34
0.0
100
AcDbRotatedDimension
1001
ACAD
1000
DSTYLE
1002
{
1070
    40
1040
30.0
1002
}
  0
DIMENSION
  5
7CBF
330
81F4
100
AcDbEntity
  8
3
100
AcDbDimension
  2
*D8
 10
3535.545707282386
 20
4956.335754123926
 30
0.0
 11
3535.545707282386
 21
5381.335754123925
 31
0.0
 12
728.3319491905822
 22
2085.304154762685
 32
0.0
 70
   128
 71
     5
 42
-1.0
  3
Standard
100
AcDbAlignedDimension
 13
3313.497639781775
 23
5806.335754123927
 33
0.0
 14
3313.497639781775
 24
4956.335754123926
 34
0.0
 50
270.0
100
AcDbRotatedDimension
1001
ACAD
1000
DSTYLE
1002
{
1070
    40
1040
30.0
1002
}
  0
DIMENSION
  5
7CC0
330
81F4
100
AcDbEntity
  8
3
100
AcDbDimension
  2
*D9
 10
864.8535017728409
 20
4956.335754123924
 30
0.0
 11
804.8535017728406
 21
5708.835754123924
 31
0.0
 12
728.3319491905822
 22
2085.304154762685
 32
0.0
 71
     5
 42
-1.0
  3
Standard
100
AcDbAlignedDimension
 13
1263.497639781775
 23
6461.335754123926
 33
0.0
 14
1263.497639781775
 24
4956.335754123924
 34
0.0
 50
270.0
100
AcDbRotatedDimension
1001
ACAD
1000
DSTYLE
1002
{
1070
    40
1040
30.0
1002
}
  0
DIMENSION
  5
7CC4
330
81F4
100
AcDbEntity
  8
3
100
AcDbDimension
  2
*D13
 10
5429.083739525322
 20
3948.164217589009
 30
0.0
 11
4804.083739525322
 21
4008.164217589007
 31
0.0
 12
-80.02088154817101
 22
2386.109163331333
 32
0.0
 71
     5
 42
-1.0
  3
Standard
100
AcDbAlignedDimension
 13
4179.083739525321
 23
3668.483783820716
 33
0.0
 14
5429.083739525322
 24
3665.205231625258
 34
0.0
100
AcDbRotatedDimension
1001
ACAD
1000
DSTYLE
1002
{
1070
    40
1040
30.0
1002
}
  0
DIMENSION
  5
7CC5
330
81F4
100
AcDbEntity
  8
3
100
AcDbDimension
  2
*D14
 10
5773.451959896632
 20
3544.16946616708
 30
0.0
 11
5713.451959896634
 21
3014.16946616708
 31
0.0
 12
-80.02088154817101
 22
2386.109163331333
 32
0.0
  1
\U+03C6<>
 71
     5
 42
-1.0
  3
Standard
100
AcDbAlignedDimension
 13
5434.583739525322
 23
2484.16946616708
 33
0.0
 14
5434.583739525322
 24
3544.16946616708
 34
0.0
 50
90.0
100
AcDbRotatedDimension
1001
ACAD
1000
DSTYLE
1002
{
1070
    40
1040
30.0
1002
}
  0
LINE
  5
7CC6
330
81F4
100
AcDbEntity
  8
2
100
AcDbLine
 10
3714.559828355549
 20
2453.97231639266
 30
0.0
 11
4655.765138191367
 21
2453.97231639266
 31
0.0
  0
ARC
  5
7CC7
330
81F4
100
AcDbEntity
  8
1
100
AcDbCircle
 10
1888.497639781777
 20
3014.169466167079
 30
0.0
 40
280.0
100
AcDbArc
 50
67.34404266857237
 51
252.9700165845115
  0
ARC
  5
7CC8
330
81F4
100
AcDbEntity
  8
1
100
AcDbCircle
 10
3038.497639781776
 20
2454.169466167078
 30
0.0
 40
220.0
100
AcDbArc
 50
252.9700165845115
 51
67.34404266857237
  0
LINE
  5
7CC9
330
81F4
100
AcDbEntity
  8
1
100
AcDbLine
 10
1996.352739012465
 20
3272.563114637661
 30
0.0
 11
3123.240932034459
 21
2656.995897333831
 31
0.0
  0
LINE
  5
7CCA
330
81F4
100
AcDbEntity
  8
1
100
AcDbLine
 10
1806.493449581178
 20
2746.447011394335
 30
0.0
 11
2974.065776052734
 21
2243.618959071218
 31
0.0
  0
LINE
  5
7CCB
330
81F4
100
AcDbEntity
  8
1
100
AcDbLine
 10
1950.94414303788
 20
3167.004161937004
 30
0.0
 11
3081.729834343694
 21
2559.780951925685
 31
0.0
  0
LINE
  5
7CCC
330
81F4
100
AcDbEntity
  8
1
100
AcDbLine
 10
1838.956710460678
 20
2856.677541542348
 30
0.0
 11
3004.200073328707
 21
2344.939445498615
 31
0.0
  0
INSERT
  5
7CCD
330
81F4
100
AcDbEntity
  8
0
100
AcDbBlockReference
  2
YA_N
 10
742.6405419924267
 20
-7350.772430041375
 30
0.0
  0
INSERT
  5
7CCF
330
81F4
100
AcDbEntity
  8
0
100
AcDbBlockReference
  2
YA_N
 10
2.995684825677016
 20
-7626.802696743742
 30
0.0
 41
20.0
 42
20.0
 43
20.0
  0
INSERT
  5
7CD1
330
81F4
100
AcDbEntity
  8
0
100
AcDbBlockReference
  2
YA_N
 10
699.9059132844049
 20
-7054.118742438055
 30
0.0
 41
20.0
 42
20.0
 43
20.0
  0
INSERT
  5
7CD3
330
81F4
100
AcDbEntity
  8
0
100
AcDbBlockReference
  2
YA_N
 10
814.1254386385663
 20
-7130.460452277301
 30
0.0
 41
20.0
 42
20.0
 43
20.0
  0
ARC
  5
7CD5
330
81F4
100
AcDbEntity
  8
1
100
AcDbCircle
 10
1888.497639781777
 20
3014.169466167079
 30
0.0
 40
599.0
100
AcDbArc
 50
85.78750092208547
 51
90.00000000000005
  0
CIRCLE
  5
7CD6
330
81F4
100
AcDbEntity
  8
1
100
AcDbCircle
 10
1888.497639781777
 20
3014.169466167079
 30
0.0
 40
530.0
  0
CIRCLE
  5
7CD7
330
81F4
100
AcDbEntity
  8
1
100
AcDbCircle
 10
1888.497639781777
 20
3014.169466167079
 30
0.0
 40
580.0
  0
LINE
  5
7CD8
330
81F4
100
AcDbEntity
  8
1
100
AcDbLine
 10
5482.083739525322
 20
2099.169466167079
 30
0.0
 11
5482.083739525322
 21
1999.16946616708
 31
0.0
  0
LINE
  5
7CD9
330
81F4
100
AcDbEntity
  8
1
100
AcDbLine
 10
3977.083739525321
 20
2099.169466167079
 30
0.0
 11
3977.083739525323
 21
1999.16946616708
 31
0.0
  0
LINE
  5
7CDA
330
81F4
100
AcDbEntity
  8
1
100
AcDbLine
 10
3258.497639781776
 20
4723.335754123925
 30
0.0
 11
1608.497639781777
 21
4723.335754123922
 31
0.0
  0
LINE
  5
7CDB
330
81F4
100
AcDbEntity
  8
1
100
AcDbLine
 10
3258.497639781776
 20
5043.335754123926
 30
0.0
 11
1608.497639781777
 21
5043.335754123924
 31
0.0
  0
LINE
  5
7CDC
330
81F4
100
AcDbEntity
  8
1
100
AcDbLine
 10
1608.497639781777
 20
4723.335754123922
 30
0.0
 11
1608.497639781777
 21
5043.335754123924
 31
0.0
  0
LINE
  5
7CDD
330
81F4
100
AcDbEntity
  8
1
100
AcDbLine
 10
3258.497639781776
 20
4723.335754123925
 30
0.0
 11
3258.497639781776
 21
5043.335754123926
 31
0.0
  0
LINE
  5
7CDE
330
81F4
100
AcDbEntity
  8
1
100
AcDbLine
 10
3152.797639781776
 20
4888.335754123925
 30
0.0
 11
3152.797639781776
 21
4998.335754123925
 31
0.0
  0
LINE
  5
7CDF
330
81F4
100
AcDbEntity
  8
1
100
AcDbLine
 10
2924.197639781776
 20
4888.335754123924
 30
0.0
 11
2924.197639781776
 21
4998.335754123925
 31
0.0
  0
LINE
  5
7CE0
330
81F4
100
AcDbEntity
  8
1
100
AcDbLine
 10
1723.397639781777
 20
4888.335754123924
 30
0.0
 11
1723.397639781777
 21
4998.335754123924
 31
0.0
  0
LINE
  5
7CE1
330
81F4
100
AcDbEntity
  8
1
100
AcDbLine
 10
2053.597639781777
 20
4888.335754123924
 30
0.0
 11
2053.597639781777
 21
4998.335754123924
 31
0.0
  0
LINE
  5
7CE2
330
81F4
100
AcDbEntity
  8
1
100
AcDbLine
 10
3152.797639781776
 20
4998.335754123925
 30
0.0
 11
2924.197639781776
 21
4998.335754123925
 31
0.0
  0
LINE
  5
7CE3
330
81F4
100
AcDbEntity
  8
1
100
AcDbLine
 10
3152.797639781776
 20
4888.335754123925
 30
0.0
 11
2924.197639781776
 21
4888.335754123925
 31
0.0
  0
LINE
  5
7CE4
330
81F4
100
AcDbEntity
  8
1
100
AcDbLine
 10
2053.597639781777
 20
4888.335754123924
 30
0.0
 11
1723.397639781777
 21
4888.335754123924
 31
0.0
  0
LINE
  5
7CE5
330
81F4
100
AcDbEntity
  8
1
100
AcDbLine
 10
2053.597639781777
 20
4998.335754123924
 30
0.0
 11
1723.397639781777
 21
4998.335754123924
 31
0.0
  0
LINE
  5
7CE6
330
81F4
100
AcDbEntity
  8
1
100
AcDbLine
 10
2855.997639781776
 20
5158.335754123922
 30
0.0
 11
2855.997639781776
 21
5003.335754123924
 31
0.0
  0
LINE
  5
7CE7
330
81F4
100
AcDbEntity
  8
1
100
AcDbLine
 10
3220.997639781776
 20
5564.835754123926
 30
0.0
 11
3220.997639781776
 21
5003.335754123924
 31
0.0
  0
LINE
  5
7CE8
330
81F4
100
AcDbEntity
  8
1
100
AcDbLine
 10
3220.997639781776
 20
5564.835754123926
 30
0.0
 11
2962.497639781777
 21
5564.835754123926
 31
0.0
  0
LINE
  5
7CE9
330
81F4
100
AcDbEntity
  8
1
100
AcDbLine
 10
3220.997639781776
 20
5003.335754123924
 30
0.0
 11
2855.997639781776
 21
5003.335754123924
 31
0.0
  0
LINE
  5
7CEA
330
81F4
100
AcDbEntity
  8
1
100
AcDbLine
 10
3014.497639781776
 20
5003.335754123924
 30
0.0
 11
3014.497639781776
 21
4998.335754123925
 31
0.0
  0
LINE
  5
7CEB
330
81F4
100
AcDbEntity
  8
1
100
AcDbLine
 10
3062.497639781776
 20
5003.335754123924
 30
0.0
 11
3062.497639781776
 21
4998.335754123925
 31
0.0
  0
LINE
  5
7CEC
330
81F4
100
AcDbEntity
  8
1
100
AcDbLine
 10
4557.583739525322
 20
2636.47231639266
 30
0.0
 11
3996.083739525323
 21
2636.47231639266
 31
0.0
  0
LINE
  5
7CED
330
81F4
100
AcDbEntity
  8
1
100
AcDbLine
 10
4557.583739525322
 20
2271.47231639266
 30
0.0
 11
3996.083739525323
 21
2271.47231639266
 31
0.0
  0
LINE
  5
7CEE
330
81F4
100
AcDbEntity
  8
1
100
AcDbLine
 10
3996.083739525323
 20
2636.47231639266
 30
0.0
 11
3996.083739525323
 21
2271.47231639266
 31
0.0
  0
LINE
  5
7CEF
330
81F4
100
AcDbEntity
  8
1
100
AcDbLine
 10
3996.083739525323
 20
2477.97231639266
 30
0.0
 11
3991.083739525322
 21
2477.97231639266
 31
0.0
  0
LINE
  5
7CF0
330
81F4
100
AcDbEntity
  8
1
100
AcDbLine
 10
3996.083739525323
 20
2429.97231639266
 30
0.0
 11
3991.083739525322
 21
2429.97231639266
 31
0.0
  0
LINE
  5
7CF3
330
81F4
100
AcDbEntity
  8
1
100
AcDbLine
 10
2962.497639781777
 20
5158.335754123922
 30
0.0
 11
1168.497639781776
 21
5158.335754123922
 31
0.0
  0
LINE
  5
7CF4
330
81F4
100
AcDbEntity
  8
1
100
AcDbLine
 10
2962.497639781777
 20
6408.335754123925
 30
0.0
 11
1168.497639781776
 21
6408.335754123922
 31
0.0
  0
LINE
  5
7CF8
330
81F4
100
AcDbEntity
  8
1
100
AcDbLine
 10
1855.997639781775
 20
5158.335754123925
 30
0.0
 11
1855.997639781775
 21
4998.335754123925
 31
0.0
  0
LINE
  5
7CF9
330
81F4
100
AcDbEntity
  8
1
100
AcDbLine
 10
1920.997639781775
 20
5158.335754123925
 30
0.0
 11
1920.997639781775
 21
4998.335754123925
 31
0.0
  0
LINE
  5
7CFA
330
81F4
100
AcDbEntity
  8
1
100
AcDbLine
 10
4161.083739525321
 20
2981.66946616708
 30
0.0
 11
4179.083739525321
 21
2981.66946616708
 31
0.0
  0
DIMENSION
  5
7CFB
330
81F4
100
AcDbEntity
  8
3
100
AcDbDimension
  2
*D15
 10
3313.497639781775
 20
6682.639691351642
 30
0.0
 11
2913.497639781775
 21
6742.639691351644
 31
0.0
 12
728.3319491905822
 22
2085.304154762685
 32
0.0
 71
     5
 42
-1.0
  3
Standard
100
AcDbAlignedDimension
 13
2513.497639781775
 23
6461.335754123926
 33
0.0
 14
3313.497639781775
 24
5806.335754123924
 34
0.0
100
AcDbRotatedDimension
1001
ACAD
1000
DSTYLE
1002
{
1070
    40
1040
30.0
1002
}
  0
DIMENSION
  5
7D03
330
81F4
100
AcDbEntity
  8
3
100
AcDbDimension
  2
*D17
 10
901.8037711084852
 20
3014.169466167079
 30
0.0
 11
841.8037711084853
 21
3354.169466167081
 31
0.0
 12
728.3319491905822
 22
2386.109163331333
 32
0.0
 71
     5
 42
-1.0
  3
Standard
100
AcDbAlignedDimension
 13
1888.497639781777
 23
3694.169466167082
 33
0.0
 14
1148.881657284148
 24
3014.169466167079
 34
0.0
 50
270.0
100
AcDbRotatedDimension
1001
ACAD
1000
DSTYLE
1002
{
1070
    40
1040
30.0
1002
}
  0
DIMENSION
  5
7D08
330
81F4
100
AcDbEntity
  8
3
100
AcDbDimension
  2
*D21
 10
3313.497639781775
 20
4271.180448599069
 30
0.0
 11
2240.997639781775
 21
4331.180448599069
 31
0.0
 12
728.3319491905822
 22
2386.109163331333
 32
0.0
 71
     5
 42
-1.0
  3
Standard
100
AcDbAlignedDimension
 13
1168.497639781776
 23
2940.169466167081
 33
0.0
 14
3313.497639781775
 24
2218.97231639266
 34
0.0
100
AcDbRotatedDimension
1001
ACAD
1000
DSTYLE
1002
{
1070
    40
1040
30.0
1002
}
  0
LINE
  5
7D09
330
81F4
100
AcDbEntity
  8
1
100
AcDbLine
 10
4804.083739525322
 20
3690.16946616708
 30
0.0
 11
4139.083739525321
 21
3690.16946616708
 31
0.0
  0
LINE
  5
7D0A
330
81F4
100
AcDbEntity
  8
1
100
AcDbLine
 10
4804.083739525322
 20
3690.16946616708
 30
0.0
 11
5469.083739525324
 21
3690.16946616708
 31
0.0
  0
LINE
  5
7D0B
330
81F4
100
AcDbEntity
  8
1
100
AcDbLine
 10
4139.083739525321
 20
3694.16946616708
 30
0.0
 11
4139.083739525321
 21
3690.16946616708
 31
0.0
  0
LINE
  5
7D0C
330
81F4
100
AcDbEntity
  8
1
100
AcDbLine
 10
5469.083739525324
 20
3694.16946616708
 30
0.0
 11
5469.083739525322
 21
3690.169466167079
 31
0.0
  0
LINE
  5
7D0D
330
81F4
100
AcDbEntity
  8
1
100
AcDbLine
 10
4557.583739525322
 20
2636.47231639266
 30
0.0
 11
4557.583739525322
 21
2271.47231639266
 31
0.0
  0
LINE
  5
7D0E
330
81F4
100
AcDbEntity
  8
1
100
AcDbLine
 10
4485.783470339291
 20
2271.47231639266
 30
0.0
 11
4485.783470339291
 21
2219.169466167079
 31
0.0
  0
LINE
  5
7D0F
330
81F4
100
AcDbEntity
  8
1
100
AcDbLine
 10
4080.093704145837
 20
2271.47231639266
 30
0.0
 11
4080.093704145837
 21
2219.169466167079
 31
0.0
  0
LINE
  5
7F3A
330
81F4
100
AcDbEntity
  8
4
100
AcDbLine
 10
5550.0
 20
1210.115599408851
 30
0.0
 11
5550.0
 21
610.1155994088513
 31
0.0
  0
LINE
  5
7F3B
330
81F4
100
AcDbEntity
  8
4
100
AcDbLine
 10
3450.0
 20
1210.115599408851
 30
0.0
 11
3450.0
 21
610.1155994088513
 31
0.0
  0
LINE
  5
7F3C
330
81F4
100
AcDbEntity
  8
4
100
AcDbLine
 10
1950.0
 20
1210.115599408851
 30
0.0
 11
1950.0
 21
610.1155994088513
 31
0.0
  0
LINE
  5
7F3F
330
81F4
100
AcDbEntity
  8
4
100
AcDbLine
 10
1950.0
 20
610.1155994088513
 30
0.0
 11
5550.0
 21
610.1155994088513
 31
0.0
  0
LINE
  5
7F40
330
81F4
100
AcDbEntity
  8
4
100
AcDbLine
 10
1950.0
 20
910.1155994088513
 30
0.0
 11
5550.0
 21
910.1155994088513
 31
0.0
  0
TEXT
  5
7F41
330
81F4
100
AcDbEntity
  8
4
100
AcDbText
 10
2065.506242540704
 20
1004.74467700869
 30
0.0
 40
150.0
  1
機器名称
100
AcDbText
  0
TEXT
  5
7F42
330
81F4
100
AcDbEntity
  8
4
100
AcDbText
 10
2058.774318074392
 20
675.0510696048841
 30
0.0
 40
150.0
  1
機器型番
100
AcDbText
  0
TEXT
  5
7F43
330
81F4
100
AcDbEntity
  8
4
100
AcDbText
 10
3533.036236462995
 20
977.8309062815567
 30
0.0
 40
150.0
  1
ミツヤ多翼送風機
100
AcDbText
  0
TEXT
  5
7F44
330
81F4
100
AcDbEntity
  8
4
100
AcDbText
 10
3559.963486756442
 20
661.5943522486814
 30
0.0
 40
150.0
  1
MF#6-5
100
AcDbText
  0
TEXT
  5
7F46
330
81F4
100
AcDbEntity
  8
4
100
AcDbText
 10
2334.165810534461
 20
7150.286523997547
 30
0.0
 40
161.9999999999998
  1
床置防振ベット
100
AcDbText
  0
TEXT
  5
7F47
330
81F4
100
AcDbEntity
  8
4
100
AcDbText
 10
948.5027799883393
 20
7601.642928597894
 30
0.0
 40
216.0
  1
遠心式両吸込両持多翼ファン
100
AcDbText
  0
LINE
  5
7F48
330
81F4
100
AcDbEntity
  8
4
100
AcDbLine
 10
750.0
 20
7408.226262794413
 30
0.0
 11
5550.0
 21
7408.226262794413
 31
0.0
  0
LINE
  5
7F49
330
81F4
100
AcDbEntity
  8
4
100
AcDbLine
 10
750.0
 20
8008.226262794414
 30
0.0
 11
5550.0
 21
8008.226262794414
 31
0.0
  0
LINE
  5
7F4A
330
81F4
100
AcDbEntity
  8
4
100
AcDbLine
 10
1950.0
 20
1210.115599408851
 30
0.0
 11
5550.0
 21
1210.115599408851
 31
0.0
  0
LINE
  5
7F4B
330
81F4
100
AcDbEntity
  8
4
100
AcDbLine
 10
750.0
 20
8008.226262794414
 30
0.0
 11
750.0
 21
7408.226262794413
 31
0.0
  0
TEXT
  5
7F4C
330
81F4
100
AcDbEntity
  8
4
100
AcDbText
 10
1026.589313806354
 20
7146.958432639029
 30
0.0
 40
161.9999999999998
  1
左回転上向
100
AcDbText
  0
TEXT
  5
7F4D
330
81F4
100
AcDbEntity
  8
4
100
AcDbText
 10
4406.908677747869
 20
8118.183244485924
 30
0.0
 40
168.0
  1
No.
100
AcDbText
  0
TEXT
  5
7F4E
330
81F4
100
AcDbEntity
  8
4
100
AcDbText
 10
3933.888187800039
 20
7150.286523997547
 30
0.0
 40
161.9999999999998
  1
縮尺：1/30
100
AcDbText
  0
LINE
  5
7F4F
330
81F4
100
AcDbEntity
  8
4
100
AcDbLine
 10
5550.0
 20
8008.226262794414
 30
0.0
 11
5550.0
 21
7408.226262794413
 31
0.0
  0
LINE
  5
7F50
330
81F4
100
AcDbEntity
  8
4
100
AcDbLine
 10
6300.0
 20
8850.0
 30
0.0
 11
6300.0
 21
8850.0
 31
0.0
  0
LINE
  5
7F51
330
81F4
100
AcDbEntity
  8
4
100
AcDbLine
 10
4321.852267079594
 20
8043.790749376205
 30
0.0
 11
4321.852267079594
 21
8359.956784649257
 31
0.0
  0
LINE
  5
7F52
330
81F4
100
AcDbEntity
  8
4
100
AcDbLine
 10
4321.852267079594
 20
8359.956784649257
 30
0.0
 11
5550.0
 21
8359.956784649257
 31
0.0
  0
LINE
  5
7F53
330
81F4
100
AcDbEntity
  8
4
100
AcDbLine
 10
5550.0
 20
8359.956784649257
 30
0.0
 11
5550.0
 21
8043.790749376205
 31
0.0
  0
LINE
  5
7F54
330
81F4
100
AcDbEntity
  8
4
100
AcDbLine
 10
5550.0
 20
8043.790749376205
 30
0.0
 11
4321.852267079594
 21
8043.790749376205
 31
0.0
  0
LINE
  5
7F55
330
81F4
100
AcDbEntity
  8
4
100
AcDbLine
 10
0.0
 20
0.0
 30
0.0
 11
0.0
 21
8850.0
 31
0.0
  0
LINE
  5
7F56
330
81F4
100
AcDbEntity
  8
4
100
AcDbLine
 10
0.0
 20
8850.0
 30
0.0
 11
6300.0
 21
8850.0
 31
0.0
  0
LINE
  5
7F57
330
81F4
100
AcDbEntity
  8
4
100
AcDbLine
 10
6300.0
 20
8850.0
 30
0.0
 11
6300.0
 21
0.0
 31
0.0
  0
LINE
  5
7F58
330
81F4
100
AcDbEntity
  8
4
100
AcDbLine
 10
6300.0
 20
0.0
 30
0.0
 11
0.0
 21
0.0
 31
0.0
  0
DIMENSION
  5
8054
330
81F4
100
AcDbEntity
  8
3
100
AcDbDimension
  2
*D22
 10
1888.497639781777
 20
1783.026870346176
 30
0.0
 11
1575.997639781776
 21
1858.026870346177
 31
0.0
 12
0.0
 22
7.0
 32
0.0
 71
     5
 42
-1.0
  3
Standard
100
AcDbAlignedDimension
 13
1263.497639781775
 23
1998.972316392659
 33
0.0
 14
1888.497639781777
 24
1998.972316392661
 34
0.0
100
AcDbRotatedDimension
1001
ACAD
1000
DSTYLE
1002
{
1070
   172
1070
     1
1070
    40
1040
30.0
1070
    42
1040
1.0
1070
   271
1070
     0
1070
   143
1040
0.039
1002
}
  0
DIMENSION
  5
8061
330
81F4
100
AcDbEntity
  8
3
100
AcDbDimension
  2
*D23
 10
3313.497639781775
 20
1783.026870346176
 30
0.0
 11
2600.997639781776
 21
1858.026870346177
 31
0.0
 12
0.0
 22
7.0
 32
0.0
 71
     5
 42
-1.0
  3
Standard
100
AcDbAlignedDimension
 13
1888.497639781777
 23
1998.972316392661
 33
0.0
 14
3313.497639781775
 24
1998.972316392659
 34
0.0
100
AcDbRotatedDimension
1001
ACAD
1000
DSTYLE
1002
{
1070
   172
1070
     1
1070
    40
1040
30.0
1070
    42
1040
1.0
1070
   271
1070
     0
1070
   143
1040
0.039
1002
}
  0
DIMENSION
  5
806E
330
81F4
100
AcDbEntity
  8
3
100
AcDbDimension
  2
*D24
 10
4804.083739525321
 20
1783.026870346176
 30
0.0
 11
4390.583739525322
 21
1858.026870346177
 31
0.0
 12
0.0
 22
7.0
 32
0.0
 71
     5
 42
-1.0
  3
Standard
100
AcDbAlignedDimension
 13
3977.083739525323
 23
1999.16946616708
 33
0.0
 14
4804.083739525321
 24
1999.16946616708
 34
0.0
100
AcDbRotatedDimension
1001
ACAD
1000
DSTYLE
1002
{
1070
   172
1070
     1
1070
    40
1040
30.0
1070
    42
1040
1.0
1070
   271
1070
     0
1070
   143
1040
0.039
1002
}
  0
DIMENSION
  5
807B
330
81F4
100
AcDbEntity
  8
3
100
AcDbDimension
  2
*D25
 10
5482.083739525322
 20
1783.026870346176
 30
0.0
 11
5143.083739525322
 21
1858.026870346177
 31
0.0
 12
0.0
 22
7.0
 32
0.0
 71
     5
 42
-1.0
  3
Standard
100
AcDbAlignedDimension
 13
4804.083739525321
 23
1999.16946616708
 33
0.0
 14
5482.083739525322
 24
1999.16946616708
 34
0.0
100
AcDbRotatedDimension
1001
ACAD
1000
DSTYLE
1002
{
1070
   172
1070
     1
1070
    40
1040
30.0
1070
    42
1040
1.0
1070
   271
1070
     0
1070
   143
1040
0.039
1002
}
  0
DIMENSION
  5
80CF
330
81F4
100
AcDbEntity
  8
3
100
AcDbDimension
  2
*D28
 10
642.012689290681
 20
3694.169466167082
 30
0.0
 11
543.4412607192524
 21
2846.570891279871
 31
0.0
 71
     5
 42
-1.0
  3
Standard
100
AcDbAlignedDimension
 13
1263.497639781775
 23
1998.972316392659
 33
0.0
 14
1858.497639781777
 24
3694.169466167082
 34
0.0
 50
90.0
100
AcDbRotatedDimension
1001
ACAD
1000
DSTYLE
1002
{
1070
   172
1070
     1
1070
    40
1040
30.0
1070
     3
1000
(<>)
1070
    42
1040
1.0
1070
   271
1070
     0
1070
   143
1040
0.039
1002
}
  0
LINE
  5
80EF
330
81F4
100
AcDbEntity
  8
1
100
AcDbLine
 10
2962.497639781777
 20
5158.335754123922
 30
0.0
 11
2962.497639781777
 21
6408.335754123928
 31
0.0
  0
LINE
  5
80F0
330
81F4
100
AcDbEntity
  8
1
100
AcDbLine
 10
1932.497639781777
 20
5158.335754123922
 30
0.0
 11
1932.497639781777
 21
6408.335754123925
 31
0.0
  0
LINE
  5
80F1
330
81F4
100
AcDbEntity
  8
1
100
AcDbLine
 10
1168.497639781776
 20
5158.335754123922
 30
0.0
 11
1168.497639781776
 21
6408.335754123921
 31
0.0
  0
LINE
  5
80F2
330
81F4
100
AcDbEntity
  8
1
100
AcDbLine
 10
1932.497639781777
 20
5158.335754123922
 30
0.0
 11
2962.497639781777
 21
6408.335754123925
 31
0.0
  0
LINE
  5
80F3
330
81F4
100
AcDbEntity
  8
1
100
AcDbLine
 10
1932.497639781777
 20
6408.335754123925
 30
0.0
 11
2962.497639781777
 21
5158.335754123922
 31
0.0
  0
LINE
  5
80F8
330
81F4
100
AcDbEntity
  8
1
100
AcDbLine
 10
1263.497639781775
 20
5158.335754123922
 30
0.0
 11
1263.497639781775
 21
4956.335754123924
 31
0.0
  0
DIMENSION
  5
823F
330
81F4
100
AcDbEntity
  8
3
100
AcDbDimension
  2
*D29
 10
4804.083739525322
 20
4262.321035480272
 30
0.0
 11
4274.083739525319
 21
4360.8924640517
 31
0.0
 70
    32
 71
     5
 42
1060.000000000006
  3
IGA
100
AcDbAlignedDimension
 13
3744.083739525316
 23
3294.16946616708
 33
0.0
 14
4804.083739525322
 24
4053.164217589007
 34
0.0
100
AcDbRotatedDimension
1001
ACAD
1000
DSTYLE
1002
{
1070
     3
1000
(<>)
1070
    40
1040
30.0
1070
    42
1040
1.0
1070
   143
1040
0.039
1070
   172
1070
     1
1070
   271
1070
     4
1070
   272
1070
     4
1070
   279
1070
     0
1070
   284
1070
     0
1070
   285
1070
     0
1070
   286
1070
     0
1070
   341
1005
8208
1070
   343
1005
8208
1070
   344
1005
8208
1002
}
  0
DIMENSION
  5
824C
330
81F4
100
AcDbEntity
  8
3
100
AcDbDimension
  2
*D30
 10
5584.083739525321
 20
4262.321035480272
 30
0.0
 11
5194.083739525321
 21
4360.8924640517
 31
0.0
 70
    32
 71
     5
 42
779.999999999999
  3
IGA
100
AcDbAlignedDimension
 13
4804.083739525322
 23
4053.164217589007
 33
0.0
 14
5584.083739525321
 24
2978.369466167081
 34
0.0
100
AcDbRotatedDimension
1001
ACAD
1000
DSTYLE
1002
{
1070
     3
1000
(<>)
1070
    40
1040
30.0
1070
    42
1040
1.0
1070
   143
1040
0.039
1070
   172
1070
     1
1070
   271
1070
     4
1070
   272
1070
     4
1070
   279
1070
     1
1070
   284
1070
     0
1070
   285
1070
     0
1070
   286
1070
     0
1070
   341
1005
8208
1070
   343
1005
8208
1070
   344
1005
8208
1002
}
  0
DIMENSION
  5
8291
330
81F4
100
AcDbEntity
  8
3
100
AcDbDimension
  2
*D33
 10
3313.497639781775
 20
4519.965663319759
 30
0.0
 11
2288.497639781775
 21
4594.965663319759
 31
0.0
 70
    32
 71
     5
 42
2050.0
  3
IGA
100
AcDbAlignedDimension
 13
1263.497639781775
 23
4956.335754123924
 33
0.0
 14
3313.497639781775
 24
4956.335754123926
 34
0.0
100
AcDbRotatedDimension
1001
ACAD
1000
DSTYLE
1002
{
1070
    40
1040
30.0
1070
    42
1040
1.0
1070
   143
1040
0.039
1070
   172
1070
     1
1070
   271
1070
     4
1070
   272
1070
     4
1070
   279
1070
     0
1070
   284
1070
     0
1070
   285
1070
     0
1070
   286
1070
     0
1070
   341
1005
8208
1070
   343
1005
8208
1070
   344
1005
8208
1002
}
  0
DIMENSION
  5
82BA
330
81F4
100
AcDbEntity
  8
3
100
AcDbDimension
  2
*D35
 10
901.8037711084852
 20
2119.16946616708
 30
0.0
 11
826.8037711084849
 21
2566.66946616708
 31
0.0
 70
    32
 71
     5
 42
894.9999999999995
  3
IGA
100
AcDbAlignedDimension
 13
1148.881657284148
 23
3014.169466167079
 33
0.0
 14
1263.497639781775
 24
2119.169466167079
 34
0.0
 50
90.0
100
AcDbRotatedDimension
1001
ACAD
1000
DSTYLE
1002
{
1070
    40
1040
30.0
1070
    42
1040
1.0
1070
   143
1040
0.039
1070
   172
1070
     1
1070
   271
1070
     4
1070
   272
1070
     4
1070
   279
1070
     0
1070
   284
1070
     0
1070
   285
1070
     0
1070
   286
1070
     0
1070
   341
1005
8208
1070
   343
1005
8208
1070
   344
1005
8208
1002
}
  0
DIMENSION
  5
82C7
330
81F4
100
AcDbEntity
  8
3
100
AcDbDimension
  2
*D36
 10
901.8037711084852
 20
2099.169466167079
 30
0.0
 11
863.9559127882748
 21
2166.004964851138
 31
0.0
 70
   160
  1
(<>)
 71
     5
 42
20.00000000000091
  3
IGA
100
AcDbAlignedDimension
 13
1263.497639781775
 23
2119.169466167079
 33
0.0
 14
1263.497639781775
 24
2099.169466167079
 34
0.0
 50
90.0
100
AcDbRotatedDimension
1001
ACAD
1000
DSTYLE
1002
{
1070
    40
1040
30.0
1070
    42
1040
1.0
1070
   143
1040
0.039
1070
   172
1070
     1
1070
   271
1070
     4
1070
   272
1070
     4
1070
   279
1070
     1
1070
   284
1070
     0
1070
   285
1070
     0
1070
   286
1070
     0
1070
   341
1005
8208
1070
   343
1005
8208
1070
   344
1005
8367
1002
}
  0
DIMENSION
  5
82D9
330
81F4
100
AcDbEntity
  8
3
100
AcDbDimension
  2
*D37
 10
901.8037711084852
 20
1999.169466167078
 30
0.0
 11
901.8037711084852
 21
1856.220379333262
 31
0.0
 70
   160
 71
     5
 42
100.0000000000004
  3
IGA
100
AcDbAlignedDimension
 13
1263.497639781775
 23
2099.169466167079
 33
0.0
 14
1263.497639781775
 24
1999.169466167078
 34
0.0
 50
90.0
100
AcDbRotatedDimension
1001
ACAD
1000
DSTYLE
1002
{
1070
    40
1040
30.0
1070
    42
1040
1.0
1070
   143
1040
0.039
1070
   172
1070
     1
1070
   271
1070
     4
1070
   272
1070
     4
1070
   279
1070
     1
1070
   284
1070
     0
1070
   285
1070
     0
1070
   286
1070
     0
1070
   341
1005
8208
1070
   343
1005
8367
1070
   344
1005
8208
1002
}
  0
DIMENSION
  5
875D
330
81F4
100
AcDbEntity
  8
3
100
AcDbDimension
  2
*D39
 10
1168.497639781776
 20
4096.131608620377
 30
0.0
 11
1528.497639781776
 21
4171.131608620377
 31
0.0
 70
    32
 71
     5
 42
720.0000000000009
  3
IGA
100
AcDbAlignedDimension
 13
1888.497639781777
 23
3733.826000116309
 33
0.0
 14
1168.497639781776
 24
2940.169466167081
 34
0.0
100
AcDbRotatedDimension
1001
ACAD
1000
DSTYLE
1002
{
1070
    40
1040
30.0
1070
    42
1040
1.0
1070
   143
1040
0.039
1070
   172
1070
     1
1070
   271
1070
     4
1070
   272
1070
     4
1070
   279
1070
     0
1070
   284
1070
     0
1070
   285
1070
     0
1070
   286
1070
     0
1070
   341
1005
8208
1070
   343
1005
8208
1070
   344
1005
8208
1002
}
  0
ENDSEC
  0
SECTION
  2
OBJECTS
  0
DICTIONARY
  5
8191
330
0
100
AcDbDictionary
281
     1
  3
ACAD_CIP_PREVIOUS_PRODUCT_INFO
350
823E
  3
ACAD_COLOR
350
81E7
  3
ACAD_DETAILVIEWSTYLE
350
81EE
  3
ACAD_GROUP
350
8192
  3
ACAD_LAYOUT
350
81E6
  3
ACAD_MATERIAL
350
8195
  3
ACAD_MLEADERSTYLE
350
81EA
  3
ACAD_MLINESTYLE
350
81E3
  3
ACAD_PLOTSETTINGS
350
81E5
  3
ACAD_PLOTSTYLENAME
350
8193
  3
ACAD_SCALELIST
350
81C7
  3
ACAD_SECTIONVIEWSTYLE
350
81EC
  3
ACAD_TABLESTYLE
350
81E8
  3
ACAD_VISUALSTYLE
350
81AE
  3
ACDB_RECOMPOSE_DATA
350
878A
  3
AcDbVariableDictionary
350
877D
  3
DWGPROPS
350
878B
  0
DICTIONARY
  5
8773
330
81D9
100
AcDbDictionary
280
     1
281
     1
  3
ADSK_XREC_LAYER_RECONCILED
360
8774
  0
DICTIONARY
  5
8775
330
81F8
100
AcDbDictionary
280
     1
281
     1
  3
ADSK_XREC_LAYER_RECONCILED
360
8776
  0
DICTIONARY
  5
8777
330
81FB
100
AcDbDictionary
280
     1
281
     1
  3
ADSK_XREC_LAYER_RECONCILED
360
8778
  0
DICTIONARY
  5
8779
330
81FC
100
AcDbDictionary
280
     1
281
     1
  3
ADSK_XREC_LAYER_RECONCILED
360
877A
  0
DICTIONARY
  5
877B
330
81FD
100
AcDbDictionary
280
     1
281
     1
  3
ADSK_XREC_LAYER_RECONCILED
360
877C
  0
DICTIONARY
  5
82B1
330
81F4
100
AcDbDictionary
280
     1
281
     1
  3
ACAD_SORTENTS
360
82B2
  0
XRECORD
  5
823E
102
{ACAD_REACTORS
330
8191
102
}
330
8191
100
AcDbXrecord
280
     1
300
ACDLT
300
2015
300
INVLTS_F_S
  0
DICTIONARY
  5
81E7
102
{ACAD_REACTORS
330
8191
102
}
330
8191
100
AcDbDictionary
281
     1
  0
DICTIONARY
  5
81EE
102
{ACAD_REACTORS
330
8191
102
}
330
8191
100
AcDbDictionary
281
     1
  3
Imperial24
350
81EF
  0
DICTIONARY
  5
8192
102
{ACAD_REACTORS
330
8191
102
}
330
8191
100
AcDbDictionary
281
     1
  0
DICTIONARY
  5
81E6
102
{ACAD_REACTORS
330
8191
102
}
330
8191
100
AcDbDictionary
281
     1
  3
Model
350
81F7
  3
レイアウト1
350
81F3
  0
DICTIONARY
  5
8195
102
{ACAD_REACTORS
330
8191
102
}
330
8191
100
AcDbDictionary
281
     1
  3
ByBlock
350
819E
  3
ByLayer
350
8196
  3
Global
350
81A6
  0
DICTIONARY
  5
81EA
102
{ACAD_REACTORS
330
8191
102
}
330
8191
100
AcDbDictionary
281
     1
  3
Standard
350
81EB
  0
DICTIONARY
  5
81E3
102
{ACAD_REACTORS
330
8191
102
}
330
8191
100
AcDbDictionary
281
     1
  3
Standard
350
81E4
  0
DICTIONARY
  5
81E5
102
{ACAD_REACTORS
330
8191
102
}
330
8191
100
AcDbDictionary
281
     1
  0
ACDBDICTIONARYWDFLT
  5
8193
102
{ACAD_REACTORS
330
8191
102
}
330
8191
100
AcDbDictionary
281
     1
  3
Normal
350
8194
100
AcDbDictionaryWithDefault
340
8194
  0
DICTIONARY
  5
81C7
102
{ACAD_REACTORS
330
8191
102
}
330
8191
100
AcDbDictionary
281
     1
  3
A0
350
81C8
  3
A1
350
81C9
  3
A2
350
81CA
  3
A3
350
81CB
  3
A4
350
81CC
  3
A5
350
81CD
  3
A6
350
81CE
  3
A7
350
81CF
  3
A8
350
81D0
  3
A9
350
81D1
  3
B0
350
81D2
  3
B1
350
81D3
  3
B2
350
81D4
  3
B3
350
81D5
  3
B4
350
81D6
  3
B5
350
81D7
  3
B6
350
81D8
  0
DICTIONARY
  5
81EC
102
{ACAD_REACTORS
330
8191
102
}
330
8191
100
AcDbDictionary
281
     1
  3
Imperial24
350
81ED
  0
DICTIONARY
  5
81E8
102
{ACAD_REACTORS
330
8191
102
}
330
8191
100
AcDbDictionary
281
     1
  3
Standard
350
81E9
  0
DICTIONARY
  5
81AE
102
{ACAD_REACTORS
330
8191
102
}
330
8191
100
AcDbDictionary
281
     1
  3
2dWireframe
350
81B4
  3
Basic
350
81B3
  3
Brighten
350
81BA
  3
ColorChange
350
81BE
  3
Conceptual
350
81B7
  3
Dim
350
81B9
  3
EdgeColorOff
350
81C6
  3
Facepattern
350
81BD
  3
Flat
350
81AF
  3
FlatWithEdges
350
81B0
  3
Gouraud
350
81B1
  3
GouraudWithEdges
350
81B2
  3
Hidden
350
81B6
  3
JitterOff
350
81C4
  3
Linepattern
350
81BC
  3
OverhangOff
350
81C5
  3
Realistic
350
81B8
  3
Shaded
350
81C3
  3
Shaded with edges
350
81C2
  3
Shades of Gray
350
81BF
  3
Sketchy
350
81C0
  3
Thicken
350
81BB
  3
Wireframe
350
81B5
  3
X-Ray
350
81C1
  0
XRECORD
  5
878A
102
{ACAD_REACTORS
330
8191
102
}
330
8191
100
AcDbXrecord
280
     1
 90
        1
330
81E9
  0
DICTIONARY
  5
877D
102
{ACAD_REACTORS
330
8191
102
}
330
8191
100
AcDbDictionary
281
     1
  3
CANNOSCALE
350
8782
  3
CMLEADERSTYLE
350
877F
  3
CTABLESTYLE
350
877E
  3
CVIEWDETAILSTYLE
350
8780
  3
CVIEWSECTIONSTYLE
350
8781
  3
DIMASSOC
350
8785
  3
INDEXCTL
350
8784
  3
SORTENTS
350
8783
  3
XCLIPFRAME
350
8786
  0
XRECORD
  5
878B
102
{ACAD_REACTORS
330
8191
102
}
330
8191
100
AcDbXrecord
280
     1
  1
DWGPROPS COOKIE
  2

  3

  4

  6

  7

  8
yasukiyo.ogawa
  9

300
=
301
=
302
=
303
=
304
=
305
=
306
=
307
=
308
=
309
=
 40
0.0253597569444445
 41
2451389.575190046
 42
2460271.727433275
  1

 90
        0
  0
XRECORD
  5
8774
102
{ACAD_REACTORS
330
8773
102
}
330
8773
100
AcDbXrecord
280
     1
290
     1
  0
XRECORD
  5
8776
102
{ACAD_REACTORS
330
8775
102
}
330
8775
100
AcDbXrecord
280
     1
290
     1
  0
XRECORD
  5
8778
102
{ACAD_REACTORS
330
8777
102
}
330
8777
100
AcDbXrecord
280
     1
290
     1
  0
XRECORD
  5
877A
102
{ACAD_REACTORS
330
8779
102
}
330
8779
100
AcDbXrecord
280
     1
290
     1
  0
XRECORD
  5
877C
102
{ACAD_REACTORS
330
877B
102
}
330
877B
100
AcDbXrecord
280
     1
290
     1
  0
SORTENTSTABLE
  5
82B2
102
{ACAD_REACTORS
330
82B1
102
}
330
82B1
100
AcDbSortentsTable
330
81F4
331
7F46
  5
7F47
331
7D0D
  5
7D0E
331
7CEB
  5
7CEC
331
7CDA
  5
7CDB
331
7CC9
  5
7CCA
331
7CB8
  5
7CB9
331
7F57
  5
7F58
331
80F8
  5
823F
331
7CA7
  5
7CA8
331
7C8D
  5
7C8E
331
7C7C
  5
7C7D
331
7C49
  5
7C4B
331
7C38
  5
7C38
331
7C27
  5
7C27
331
7F58
  5
8054
331
7F47
  5
7F48
331
7D0E
  5
7D0F
331
7CEC
  5
7CED
331
7CDB
  5
7CDC
331
7CCA
  5
7CCB
331
7CB9
  5
7CBA
331
7CA8
  5
7CA9
331
807B
  5
80C2
331
7C8E
  5
7C8F
331
7C7D
  5
7C7E
331
7C39
  5
7C39
331
8291
  5
82B0
331
7CA9
  5
7CAA
331
7C98
  5
7C9A
331
7F48
  5
7F49
331
7D0F
  5
7F3A
331
7CED
  5
7CEE
331
7CDC
  5
7CDD
331
7CCB
  5
7CCC
331
7CBA
  5
7CBB
331
7C8F
  5
7C90
331
7C7E
  5
7C7F
331
7C6D
  5
7C6E
331
7C5C
  5
7C5D
331
7C4B
  5
7C4D
331
7C3A
  5
7C3A
331
7C29
  5
7C29
331
7F49
  5
7F4A
331
7CEE
  5
7CEF
331
7CDD
  5
7CDE
331
7CCC
  5
7CCD
331
7CBB
  5
7CBC
331
7CAA
  5
7CAE
331
7C90
  5
7C91
331
824C
  5
8291
331
7C7F
  5
7C80
331
7C6E
  5
7C6F
331
7C5D
  5
7C60
331
7C3B
  5
7C3B
331
7C2A
  5
7C2A
331
7F4A
  5
7F4B
331
7CEF
  5
7CF0
331
7CDE
  5
7CDF
331
7CCD
  5
7CCF
331
7CBC
  5
7CBD
331
7C9A
  5
7C9B
331
7C91
  5
7C92
331
7C80
  5
7C81
331
7C6F
  5
7C70
331
7C4D
  5
7C4E
331
7C3C
  5
7C3D
331
7C2B
  5
7C2B
331
7F4B
  5
7F4C
331
7F3A
  5
7F3B
331
7CF0
  5
7CF3
331
7CDF
  5
7CE0
331
7CBD
  5
7CBF
331
7C9B
  5
7C9C
331
7C92
  5
7C93
331
7C81
  5
7C82
331
7C70
  5
7C71
331
806E
  5
807B
331
7C4E
  5
7C51
331
7C3D
  5
7C3F
331
7C2C
  5
7C2C
331
7F4C
  5
7F4D
331
7F3B
  5
7F3C
331
7CE0
  5
7CE1
331
7CCF
  5
7CD1
331
7C9C
  5
7C9D
331
7C93
  5
7C94
331
7C82
  5
7C83
331
7C71
  5
7C72
331
7C60
  5
7C61
331
7C2D
  5
7C2D
331
7F4D
  5
7F4E
331
7F3C
  5
7F3F
331
7D03
  5
7D04
331
7CE1
  5
7CE2
331
7CBF
  5
7CC0
331
7CAE
  5
7CAF
331
7C9D
  5
7C9E
331
7C94
  5
7C95
331
7C83
  5
7C84
331
7C72
  5
7C73
331
7C61
  5
7C62
331
7C3F
  5
7C40
331
7C2E
  5
7C2E
331
7F4E
  5
7F4F
331
7CF3
  5
7CF4
331
7CE2
  5
7CE3
331
7CD1
  5
7CD3
331
7CC0
  5
7CC4
331
7CAF
  5
7CB0
331
7C9E
  5
7C9F
331
7C95
  5
7C96
331
7C84
  5
7C85
331
7C73
  5
7C74
331
7C62
  5
7C63
331
7C51
  5
7C54
331
7C40
  5
7C41
331
7C2F
  5
7C2F
331
80F0
  5
80F1
331
8061
  5
806E
331
7C41
  5
7C42
331
80CF
  5
80EF
331
7C9F
  5
7CA0
331
7C96
  5
7C97
331
7C85
  5
7C86
331
7C74
  5
7C75
331
7F4F
  5
7F50
331
7CF4
  5
7CF8
331
7CE3
  5
7CE4
331
7CB0
  5
7CB1
331
7C63
  5
7C64
331
7C30
  5
7C30
331
7F50
  5
7F51
331
80F1
  5
80F2
331
7F3F
  5
7F40
331
7CE4
  5
7CE5
331
7CD3
  5
7CD5
331
7CB1
  5
7CB2
331
7CA0
  5
7CA1
331
7C97
  5
7C98
331
7C86
  5
7C87
331
7C75
  5
7C76
331
7C64
  5
7C65
331
7C42
  5
7C46
331
7C31
  5
7C31
331
7F51
  5
7F52
331
7F40
  5
7F41
331
80F2
  5
80F3
331
7CE5
  5
7CE6
331
7CB2
  5
7CB6
331
7CA1
  5
7CA2
331
7C87
  5
7C88
331
7C76
  5
7C77
331
7C65
  5
7C67
331
7C54
  5
7C55
331
7C32
  5
7C32
331
7F52
  5
7F53
331
7F41
  5
7F42
331
7D08
  5
7D09
331
80F3
  5
80F8
331
80EF
  5
80F0
331
7C77
  5
7C78
331
7C55
  5
7C56
331
7CE6
  5
7CE7
331
7CD5
  5
7CD6
331
7CC4
  5
7CC5
331
7CA2
  5
7CA3
331
7C88
  5
7C89
331
7C33
  5
7C33
331
7F53
  5
7F54
331
7F42
  5
7F43
331
7D09
  5
7D0A
331
7CF8
  5
7CF9
331
8054
  5
8061
331
823F
  5
824C
331
7C67
  5
7C68
331
7C56
  5
7C59
331
7C89
  5
7C8A
331
7CE7
  5
7CE8
331
7CD6
  5
7CD7
331
7CC5
  5
7CC6
331
7CA3
  5
7CA4
331
7C78
  5
7C7A
331
7C34
  5
7C34
331
7F54
  5
7F55
331
7F43
  5
7F44
331
7D0A
  5
7D0B
331
7CF9
  5
7CFA
331
7CE8
  5
7CE9
331
7CD7
  5
7CD8
331
7CC6
  5
7CC7
331
7CA4
  5
7CA5
331
7C8A
  5
7C8B
331
7C68
  5
7C69
331
7C46
  5
7C47
331
7C35
  5
7C35
331
7F55
  5
7F56
331
7F44
  5
7F46
331
7D0B
  5
7D0C
331
7CFA
  5
7CFB
331
7CE9
  5
7CEA
331
7CD8
  5
7CD9
331
7CC7
  5
7CC8
331
7CB6
  5
7CB7
331
7CA5
  5
7CA6
331
7C8B
  5
7C8C
331
7C7A
  5
7C7B
331
7C69
  5
7C6A
331
7C47
  5
7C49
331
7C36
  5
7C36
331
7CC8
  5
7CC9
331
7F56
  5
7F57
331
7D0C
  5
7D0D
331
7CFB
  5
7D02
331
7CEA
  5
7CEB
331
7CD9
  5
7CDA
331
7CB7
  5
7CB8
331
7CA6
  5
7CA7
331
7C8C
  5
7C8D
331
7C7B
  5
7C7C
331
7C6A
  5
7C6D
331
7C59
  5
7C5C
331
7C37
  5
7C37
  0
ACDBDETAILVIEWSTYLE
  5
81EF
102
{ACAD_XDICTIONARY
360
87C3
102
}
102
{ACAD_REACTORS
330
81EE
102
}
330
81EE
100
AcDbModelDocViewStyle
 70
     0
  3
Imperial24
290
     0
100
AcDbDetailViewStyle
 70
     0
 71
     0
 90
        3
 71
     1
340
81DA
 40
0.24
340
0
 40
0.24
300

 40
0.36
280
     3
 71
     2
340
81E1
 90
       25
 71
     3
340
81DA
 40
0.24
 90
        1
 40
0.75
 90
        1
300
%<\AcVar ViewType \f "%tc1">% %<\AcVar ViewDetailId>%\PSCALE %<\AcVar ViewScale \f "%sn">%
 71
     4
340
81E1
 90
       25
340
81E1
 90
       25
280
     0
  0
LAYOUT
  5
81F7
102
{ACAD_XDICTIONARY
360
87C7
102
}
102
{ACAD_REACTORS
330
81E6
102
}
330
81E6
100
AcDbPlotSettings
  1

  2
RICOH imagio MP W3600 RPCS
  4

  6

 40
0.0
 41
0.0
 42
0.0
 43
0.0
 44
0.0
 45
0.0
 46
0.0
 47
0.0
 48
0.0
 49
0.0
140
0.0
141
0.0
142
1.0
143
1.0
 70
  1712
 72
     0
 73
     0
 74
     0
  7

 75
     0
147
1.0
148
0.0
149
0.0
100
AcDbLayout
  1
Model
 70
     1
 71
     0
 10
0.0
 20
0.0
 11
12.0
 21
9.0
 12
0.0
 22
0.0
 32
0.0
 14
0.0
 24
0.0
 34
0.0
 15
0.0
 25
0.0
 35
0.0
146
0.0
 13
0.0
 23
0.0
 33
0.0
 16
1.0
 26
0.0
 36
0.0
 17
0.0
 27
1.0
 37
0.0
 76
     0
330
81F4
331
81F9
  0
LAYOUT
  5
81F3
102
{ACAD_XDICTIONARY
360
87C5
102
}
102
{ACAD_REACTORS
330
81E6
102
}
330
81E6
100
AcDbPlotSettings
  1

  2
RICOH imagio MP W3600 RPCS
  4

  6

 40
0.0
 41
0.0
 42
0.0
 43
0.0
 44
0.0
 45
0.0
 46
0.0
 47
0.0
 48
0.0
 49
0.0
140
0.0
141
0.0
142
1.0
143
1.0
 70
   688
 72
     0
 73
     0
 74
     5
  7

 75
    16
147
1.0
148
0.0
149
0.0
100
AcDbLayout
  1
レイアウト1
 70
     1
 71
     1
 10
0.0
 20
0.0
 11
12.0
 21
9.0
 12
0.0
 22
0.0
 32
0.0
 14
1.000000000000000E+20
 24
1.000000000000000E+20
 34
1.000000000000000E+20
 15
-1.000000000000000E+20
 25
-1.000000000000000E+20
 35
-1.000000000000000E+20
146
0.0
 13
0.0
 23
0.0
 33
0.0
 16
1.0
 26
0.0
 36
0.0
 17
0.0
 27
1.0
 37
0.0
 76
     0
330
81F0
  0
MATERIAL
  5
819E
102
{ACAD_XDICTIONARY
360
819F
102
}
102
{ACAD_REACTORS
330
8195
102
}
330
8195
100
AcDbMaterial
  1
ByBlock
 72
     0
 43
0.0208333333333333
 43
0.0
 43
0.0
 43
0.0
 43
0.0
 43
0.0208333333333333
 43
0.0
 43
0.0
 43
0.0
 43
0.0
 43
1.0
 43
0.0
 43
0.0
 43
0.0
 43
0.0
 43
1.0
 77
     0
 47
0.0208333333333333
 47
0.0
 47
0.0
 47
0.0
 47
0.0
 47
0.0208333333333333
 47
0.0
 47
0.0
 47
0.0
 47
0.0
 47
1.0
 47
0.0
 47
0.0
 47
0.0
 47
0.0
 47
1.0
171
     0
 49
0.0208333333333333
 49
0.0
 49
0.0
 49
0.0
 49
0.0
 49
0.0208333333333333
 49
0.0
 49
0.0
 49
0.0
 49
0.0
 49
1.0
 49
0.0
 49
0.0
 49
0.0
 49
0.0
 49
1.0
175
     0
142
0.0208333333333333
142
0.0
142
0.0
142
0.0
142
0.0
142
0.0208333333333333
142
0.0
142
0.0
142
0.0
142
0.0
142
1.0
142
0.0
142
0.0
142
0.0
142
0.0
142
1.0
179
     0
144
0.0208333333333333
144
0.0
144
0.0
144
0.0
144
0.0
144
0.0208333333333333
144
0.0
144
0.0
144
0.0
144
0.0
144
1.0
144
0.0
144
0.0
144
0.0
144
0.0
144
1.0
147
0.0208333333333333
147
0.0
147
0.0
147
0.0
147
0.0
147
0.0208333333333333
147
0.0
147
0.0
147
0.0
147
0.0
147
1.0
147
0.0
147
0.0
147
0.0
147
0.0
147
1.0
  0
MATERIAL
  5
8196
102
{ACAD_XDICTIONARY
360
8197
102
}
102
{ACAD_REACTORS
330
8195
102
}
330
8195
100
AcDbMaterial
  1
ByLayer
 72
     0
 43
0.0208333333333333
 43
0.0
 43
0.0
 43
0.0
 43
0.0
 43
0.0208333333333333
 43
0.0
 43
0.0
 43
0.0
 43
0.0
 43
1.0
 43
0.0
 43
0.0
 43
0.0
 43
0.0
 43
1.0
 77
     0
 47
0.0208333333333333
 47
0.0
 47
0.0
 47
0.0
 47
0.0
 47
0.0208333333333333
 47
0.0
 47
0.0
 47
0.0
 47
0.0
 47
1.0
 47
0.0
 47
0.0
 47
0.0
 47
0.0
 47
1.0
171
     0
 49
0.0208333333333333
 49
0.0
 49
0.0
 49
0.0
 49
0.0
 49
0.0208333333333333
 49
0.0
 49
0.0
 49
0.0
 49
0.0
 49
1.0
 49
0.0
 49
0.0
 49
0.0
 49
0.0
 49
1.0
175
     0
142
0.0208333333333333
142
0.0
142
0.0
142
0.0
142
0.0
142
0.0208333333333333
142
0.0
142
0.0
142
0.0
142
0.0
142
1.0
142
0.0
142
0.0
142
0.0
142
0.0
142
1.0
179
     0
144
0.0208333333333333
144
0.0
144
0.0
144
0.0
144
0.0
144
0.0208333333333333
144
0.0
144
0.0
144
0.0
144
0.0
144
1.0
144
0.0
144
0.0
144
0.0
144
0.0
144
1.0
147
0.0208333333333333
147
0.0
147
0.0
147
0.0
147
0.0
147
0.0208333333333333
147
0.0
147
0.0
147
0.0
147
0.0
147
1.0
147
0.0
147
0.0
147
0.0
147
0.0
147
1.0
  0
MATERIAL
  5
81A6
102
{ACAD_XDICTIONARY
360
81A7
102
}
102
{ACAD_REACTORS
330
8195
102
}
330
8195
100
AcDbMaterial
  1
Global
 72
     0
 43
0.0208333333333333
 43
0.0
 43
0.0
 43
0.0
 43
0.0
 43
0.0208333333333333
 43
0.0
 43
0.0
 43
0.0
 43
0.0
 43
1.0
 43
0.0
 43
0.0
 43
0.0
 43
0.0
 43
1.0
 77
     0
 47
0.0208333333333333
 47
0.0
 47
0.0
 47
0.0
 47
0.0
 47
0.0208333333333333
 47
0.0
 47
0.0
 47
0.0
 47
0.0
 47
1.0
 47
0.0
 47
0.0
 47
0.0
 47
0.0
 47
1.0
171
     0
 49
0.0208333333333333
 49
0.0
 49
0.0
 49
0.0
 49
0.0
 49
0.0208333333333333
 49
0.0
 49
0.0
 49
0.0
 49
0.0
 49
1.0
 49
0.0
 49
0.0
 49
0.0
 49
0.0
 49
1.0
175
     0
142
0.0208333333333333
142
0.0
142
0.0
142
0.0
142
0.0
142
0.0208333333333333
142
0.0
142
0.0
142
0.0
142
0.0
142
1.0
142
0.0
142
0.0
142
0.0
142
0.0
142
1.0
179
     0
144
0.0208333333333333
144
0.0
144
0.0
144
0.0
144
0.0
144
0.0208333333333333
144
0.0
144
0.0
144
0.0
144
0.0
144
1.0
144
0.0
144
0.0
144
0.0
144
0.0
144
1.0
147
0.0208333333333333
147
0.0
147
0.0
147
0.0
147
0.0
147
0.0208333333333333
147
0.0
147
0.0
147
0.0
147
0.0
147
1.0
147
0.0
147
0.0
147
0.0
147
0.0
147
1.0
  0
MLEADERSTYLE
  5
81EB
102
{ACAD_REACTORS
330
81EA
102
}
330
81EA
100
AcDbMLeaderStyle
170
     2
171
     1
172
     0
 90
        2
 40
0.0
 41
0.0
173
     1
 91
-1056964608
340
81DF
 92
       -2
290
     1
 42
0.09
291
     1
 43
0.36
  3
Standard
 44
0.18
300

342
81DA
174
     1
178
     6
175
     1
176
     0
 93
-1056964608
 45
0.18
292
     0
297
     0
 46
0.18
 94
-1056964608
 47
1.0
 49
1.0
140
1.0
293
     1
141
0.0
294
     1
177
     0
142
1.0
295
     0
296
     0
143
0.125
1001
ACAD_MLEADERVER
1070
     2
  0
MLINESTYLE
  5
81E4
102
{ACAD_REACTORS
330
81E3
102
}
330
81E3
100
AcDbMlineStyle
  2
STANDARD
 70
     0
  3

 62
   256
 51
90.0
 52
90.0
 71
     2
 49
0.5
 62
   256
  6
BYLAYER
 49
-0.5
 62
   256
  6
BYLAYER
  0
ACDBPLACEHOLDER
  5
8194
102
{ACAD_REACTORS
330
8193
102
}
330
8193
  0
SCALE
  5
81C8
102
{ACAD_REACTORS
330
81C7
102
}
330
81C7
100
AcDbScale
 70
     0
300
1:1
140
1.0
141
1.0
290
     1
  0
SCALE
  5
81C9
102
{ACAD_REACTORS
330
81C7
102
}
330
81C7
100
AcDbScale
 70
     0
300
1/128" = 1'-0"
140
0.0078125
141
12.0
290
     0
  0
SCALE
  5
81CA
102
{ACAD_REACTORS
330
81C7
102
}
330
81C7
100
AcDbScale
 70
     0
300
1/64" = 1'-0"
140
0.015625
141
12.0
290
     0
  0
SCALE
  5
81CB
102
{ACAD_REACTORS
330
81C7
102
}
330
81C7
100
AcDbScale
 70
     0
300
1/32" = 1'-0"
140
0.03125
141
12.0
290
     0
  0
SCALE
  5
81CC
102
{ACAD_REACTORS
330
81C7
102
}
330
81C7
100
AcDbScale
 70
     0
300
1/16" = 1'-0"
140
0.0625
141
12.0
290
     0
  0
SCALE
  5
81CD
102
{ACAD_REACTORS
330
81C7
102
}
330
81C7
100
AcDbScale
 70
     0
300
3/32" = 1'-0"
140
0.09375
141
12.0
290
     0
  0
SCALE
  5
81CE
102
{ACAD_REACTORS
330
81C7
102
}
330
81C7
100
AcDbScale
 70
     0
300
1/8" = 1'-0"
140
0.125
141
12.0
290
     0
  0
SCALE
  5
81CF
102
{ACAD_REACTORS
330
81C7
102
}
330
81C7
100
AcDbScale
 70
     0
300
3/16" = 1'-0"
140
0.1875
141
12.0
290
     0
  0
SCALE
  5
81D0
102
{ACAD_REACTORS
330
81C7
102
}
330
81C7
100
AcDbScale
 70
     0
300
1/4" = 1'-0"
140
0.25
141
12.0
290
     0
  0
SCALE
  5
81D1
102
{ACAD_REACTORS
330
81C7
102
}
330
81C7
100
AcDbScale
 70
     0
300
3/8" = 1'-0"
140
0.375
141
12.0
290
     0
  0
SCALE
  5
81D2
102
{ACAD_REACTORS
330
81C7
102
}
330
81C7
100
AcDbScale
 70
     0
300
1/2" = 1'-0"
140
0.5
141
12.0
290
     0
  0
SCALE
  5
81D3
102
{ACAD_REACTORS
330
81C7
102
}
330
81C7
100
AcDbScale
 70
     0
300
3/4" = 1'-0"
140
0.75
141
12.0
290
     0
  0
SCALE
  5
81D4
102
{ACAD_REACTORS
330
81C7
102
}
330
81C7
100
AcDbScale
 70
     0
300
1" = 1'-0"
140
1.0
141
12.0
290
     0
  0
SCALE
  5
81D5
102
{ACAD_REACTORS
330
81C7
102
}
330
81C7
100
AcDbScale
 70
     0
300
1-1/2" = 1'-0"
140
1.5
141
12.0
290
     0
  0
SCALE
  5
81D6
102
{ACAD_REACTORS
330
81C7
102
}
330
81C7
100
AcDbScale
 70
     0
300
3" = 1'-0"
140
3.0
141
12.0
290
     0
  0
SCALE
  5
81D7
102
{ACAD_REACTORS
330
81C7
102
}
330
81C7
100
AcDbScale
 70
     0
300
6" = 1'-0"
140
6.0
141
12.0
290
     0
  0
SCALE
  5
81D8
102
{ACAD_REACTORS
330
81C7
102
}
330
81C7
100
AcDbScale
 70
     0
300
1'-0" = 1'-0"
140
12.0
141
12.0
290
     0
  0
ACDBSECTIONVIEWSTYLE
  5
81ED
102
{ACAD_XDICTIONARY
360
87C1
102
}
102
{ACAD_REACTORS
330
81EC
102
}
330
81EC
100
AcDbModelDocViewStyle
 70
     0
  3
Imperial24
290
     0
100
AcDbSectionViewStyle
 70
     0
 71
     0
 90
       78
 71
     1
340
81DA
 40
0.24
340
0
340
0
 40
0.24
300
I, O, Q, S, X, Z
 40
0.48
 90
        3
 40
0.18
 90
        1
 71
     2
340
81E1
 90
       25
340
81E1
 90
       50
 40
0.24
 40
0.0
 40
0.24
 71
     3
340
81DA
 40
0.24
 90
        1
 40
0.75
 90
        1
300
%<\AcVar ViewType \f "%tc1">% %<\AcVar ViewSectionStartId>%-%<\AcVar ViewSectionEndId>%\PSCALE %<\AcVar ViewScale \f "%sn">%
 71
     4
300
ANSI31
 40
1.0
 90
        0
290
     0
290
     0
 90
        6
 40
0.0
 40
1.570796326794896
 40
0.2617993877991494
 40
1.308996938995747
 40
-0.2617993877991494
 40
1.832595714594046
  0
TABLESTYLE
  5
81E9
102
{ACAD_XDICTIONARY
360
8788
102
}
102
{ACAD_REACTORS
330
81E8
102
}
330
81E8
100
AcDbTableStyle
  3
Standard
 70
     0
 71
     0
 40
0.06
 41
0.06
280
     0
281
     0
  7
STANDARD
140
0.18
170
     2
 62
     0
 63
     7
283
     0
274
    -2
284
     1
 64
     0
275
    -2
285
     1
 65
     0
276
    -2
286
     1
 66
     0
277
    -2
287
     1
 67
     0
278
    -2
288
     1
 68
     0
279
    -2
289
     1
 69
     0
  7
STANDARD
140
0.25
170
     5
 62
     0
 63
     7
283
     0
274
    -2
284
     1
 64
     0
275
    -2
285
     1
 65
     0
276
    -2
286
     1
 66
     0
277
    -2
287
     1
 67
     0
278
    -2
288
     1
 68
     0
279
    -2
289
     1
 69
     0
  7
STANDARD
140
0.18
170
     5
 62
     0
 63
     7
283
     0
274
    -2
284
     1
 64
     0
275
    -2
285
     1
 65
     0
276
    -2
286
     1
 66
     0
277
    -2
287
     1
 67
     0
278
    -2
288
     1
 68
     0
279
    -2
289
     1
 69
     0
  0
VISUALSTYLE
  5
81B4
102
{ACAD_XDICTIONARY
360
8799
102
}
102
{ACAD_REACTORS
330
81AE
102
}
330
81AE
100
AcDbVisualStyle
  2
2dWireframe
 70
     4
 71
     0
 72
     2
 73
     0
 90
        0
 40
-0.6
 41
-30.0
 62
     5
 63
     7
 74
     1
 91
        4
 64
     7
 65
   257
 75
     1
175
     1
 42
1.0
 92
        0
 66
   257
 43
1.0
 76
     1
 77
     6
 78
     2
 67
     7
 79
     5
170
     0
171
     0
290
     0
174
     0
 93
        1
 44
0.0
173
     0
291
     0
 45
0.0
1001
ACAD
1000
AcDbSavedByObjectVersion
1070
     0
  0
VISUALSTYLE
  5
81B3
102
{ACAD_XDICTIONARY
360
8797
102
}
102
{ACAD_REACTORS
330
81AE
102
}
330
81AE
100
AcDbVisualStyle
  2
Basic
 70
     7
 71
     1
 72
     0
 73
     1
 90
        0
 40
-0.6
 41
-30.0
 62
     5
 63
     7
 74
     0
 91
        4
 64
     7
 65
   257
 75
     1
175
     1
 42
1.0
 92
        8
 66
     7
 43
1.0
 76
     1
 77
     6
 78
     2
 67
     7
 79
     5
170
     0
171
     0
290
     0
174
     0
 93
        1
 44
0.0
173
     0
291
     1
 45
0.0
1001
ACAD
1000
AcDbSavedByObjectVersion
1070
     0
  0
VISUALSTYLE
  5
81BA
102
{ACAD_XDICTIONARY
360
87A5
102
}
102
{ACAD_REACTORS
330
81AE
102
}
330
81AE
100
AcDbVisualStyle
  2
Brighten
 70
    12
 71
     2
 72
     2
 73
     0
 90
        0
 40
-0.6
 41
-30.0
 62
     5
 63
     7
 74
     1
 91
        4
 64
     7
 65
   257
 75
     1
175
     1
 42
1.0
 92
        8
 66
     7
 43
1.0
 76
     1
 77
     6
 78
     2
 67
     7
 79
     5
170
     0
171
     0
290
     0
174
     0
 93
        1
 44
50.0
173
     0
291
     1
 45
0.0
1001
ACAD
1000
AcDbSavedByObjectVersion
1070
     0
  0
VISUALSTYLE
  5
81BE
102
{ACAD_XDICTIONARY
360
87AD
102
}
102
{ACAD_REACTORS
330
81AE
102
}
330
81AE
100
AcDbVisualStyle
  2
ColorChange
 70
    16
 71
     2
 72
     2
 73
     3
 90
        0
 40
-0.6
 41
-30.0
 62
     5
 63
     8
 74
     1
 91
        4
 64
     7
 65
   257
 75
     1
175
     1
 42
1.0
 92
        8
 66
     8
 43
1.0
 76
     1
 77
     6
 78
     2
 67
     7
 79
     5
170
     0
171
     0
290
     0
174
     0
 93
        1
 44
0.0
173
     0
291
     1
 45
0.0
1001
ACAD
1000
AcDbSavedByObjectVersion
1070
     0
  0
VISUALSTYLE
  5
81B7
102
{ACAD_XDICTIONARY
360
879F
102
}
102
{ACAD_REACTORS
330
81AE
102
}
330
81AE
100
AcDbVisualStyle
  2
Conceptual
 70
     9
 71
     3
 72
     2
 73
     0
 90
        0
 40
-0.6
 41
-30.0
 62
     5
 63
     7
 74
     2
 91
        2
 64
     7
 65
   257
 75
     1
175
     1
 42
179.0
 92
        8
 66
     7
 43
1.0
 76
     1
 77
     6
 78
     2
 67
     7
 79
     3
170
     0
171
     0
290
     0
174
     0
 93
        1
 44
0.0
173
     0
291
     0
 45
0.0
1001
ACAD
1000
AcDbSavedByObjectVersion
1070
     0
  0
VISUALSTYLE
  5
81B9
102
{ACAD_XDICTIONARY
360
87A3
102
}
102
{ACAD_REACTORS
330
81AE
102
}
330
81AE
100
AcDbVisualStyle
  2
Dim
 70
    11
 71
     2
 72
     2
 73
     0
 90
        0
 40
-0.6
 41
-30.0
 62
     5
 63
     7
 74
     1
 91
        4
 64
     7
 65
   257
 75
     1
175
     1
 42
1.0
 92
        8
 66
     7
 43
1.0
 76
     1
 77
     6
 78
     2
 67
     7
 79
     5
170
     0
171
     0
290
     0
174
     0
 93
        1
 44
-50.0
173
     0
291
     1
 45
0.0
1001
ACAD
1000
AcDbSavedByObjectVersion
1070
     0
  0
VISUALSTYLE
  5
81C6
102
{ACAD_XDICTIONARY
360
87BD
102
}
102
{ACAD_REACTORS
330
81AE
102
}
330
81AE
100
AcDbVisualStyle
  2
EdgeColorOff
 70
    22
 71
     2
 72
     2
 73
     0
 90
        0
 40
-0.6
 41
-30.0
 62
     5
 63
     7
 74
     1
 91
        4
 64
     7
 65
   257
 75
     1
175
     1
 42
1.0
 92
        8
 66
     7
 43
1.0
 76
     1
 77
     6
 78
     2
 67
     7
 79
     5
170
     0
171
     0
290
     0
174
     0
 93
        1
 44
0.0
173
     0
291
     1
 45
0.0
1001
ACAD
1000
AcDbSavedByObjectVersion
1070
     0
  0
VISUALSTYLE
  5
81BD
102
{ACAD_XDICTIONARY
360
87AB
102
}
102
{ACAD_REACTORS
330
81AE
102
}
330
81AE
100
AcDbVisualStyle
  2
Facepattern
 70
    15
 71
     2
 72
     2
 73
     0
 90
        0
 40
-0.6
 41
-30.0
 62
     5
 63
     7
 74
     1
 91
        4
 64
     7
 65
   257
 75
     1
175
     1
 42
1.0
 92
        8
 66
     7
 43
1.0
 76
     1
 77
     6
 78
     2
 67
     7
 79
     5
170
     0
171
     0
290
     0
174
     0
 93
        1
 44
0.0
173
     0
291
     1
 45
0.0
1001
ACAD
1000
AcDbSavedByObjectVersion
1070
     0
  0
VISUALSTYLE
  5
81AF
102
{ACAD_XDICTIONARY
360
878F
102
}
102
{ACAD_REACTORS
330
81AE
102
}
330
81AE
100
AcDbVisualStyle
  2
Flat
 70
     0
 71
     2
 72
     1
 73
     1
 90
        2
 40
-0.6
 41
30.0
 62
     5
 63
     7
 74
     0
 91
        0
 64
     7
 65
   257
 75
     1
175
     1
 42
1.0
 92
        8
 66
     7
 43
1.0
 76
     1
 77
     6
 78
     2
 67
     7
 79
     5
170
     0
171
     0
290
     0
174
     0
 93
       13
 44
0.0
173
     0
291
     1
 45
0.0
1001
ACAD
1000
AcDbSavedByObjectVersion
1070
     0
  0
VISUALSTYLE
  5
81B0
102
{ACAD_XDICTIONARY
360
8791
102
}
102
{ACAD_REACTORS
330
81AE
102
}
330
81AE
100
AcDbVisualStyle
  2
FlatWithEdges
 70
     1
 71
     2
 72
     1
 73
     1
 90
        2
 40
-0.6
 41
30.0
 62
     5
 63
     7
 74
     1
 91
        0
 64
     7
 65
   257
 75
     1
175
     1
 42
1.0
 92
        0
 66
   257
 43
1.0
 76
     1
 77
     6
 78
     2
 67
     7
 79
     5
170
     0
171
     0
290
     0
174
     0
 93
       13
 44
0.0
173
     0
291
     1
 45
0.0
1001
ACAD
1000
AcDbSavedByObjectVersion
1070
     0
  0
VISUALSTYLE
  5
81B1
102
{ACAD_XDICTIONARY
360
8793
102
}
102
{ACAD_REACTORS
330
81AE
102
}
330
81AE
100
AcDbVisualStyle
  2
Gouraud
 70
     2
 71
     2
 72
     2
 73
     1
 90
        2
 40
-0.6
 41
30.0
 62
     5
 63
     7
 74
     0
 91
        0
 64
     7
 65
   257
 75
     1
175
     1
 42
1.0
 92
        0
 66
     7
 43
1.0
 76
     1
 77
     6
 78
     2
 67
     7
 79
     5
170
     0
171
     0
290
     0
174
     0
 93
       13
 44
0.0
173
     0
291
     1
 45
0.0
1001
ACAD
1000
AcDbSavedByObjectVersion
1070
     0
  0
VISUALSTYLE
  5
81B2
102
{ACAD_XDICTIONARY
360
8795
102
}
102
{ACAD_REACTORS
330
81AE
102
}
330
81AE
100
AcDbVisualStyle
  2
GouraudWithEdges
 70
     3
 71
     2
 72
     2
 73
     1
 90
        2
 40
-0.6
 41
30.0
 62
     5
 63
     7
 74
     1
 91
        0
 64
     7
 65
   257
 75
     1
175
     1
 42
1.0
 92
        0
 66
   257
 43
1.0
 76
     1
 77
     6
 78
     2
 67
     7
 79
     5
170
     0
171
     0
290
     0
174
     0
 93
       13
 44
0.0
173
     0
291
     1
 45
0.0
1001
ACAD
1000
AcDbSavedByObjectVersion
1070
     0
  0
VISUALSTYLE
  5
81B6
102
{ACAD_XDICTIONARY
360
879D
102
}
102
{ACAD_REACTORS
330
81AE
102
}
330
81AE
100
AcDbVisualStyle
  2
Hidden
 70
     6
 71
     1
 72
     2
 73
     2
 90
        0
 40
-0.6
 41
-30.0
 62
     5
 63
     7
 74
     2
 91
        2
 64
     7
 65
   257
 75
     2
175
     1
 42
40.0
 92
        0
 66
   257
 43
1.0
 76
     1
 77
     6
 78
     2
 67
     7
 79
     3
170
     0
171
     0
290
     0
174
     0
 93
        1
 44
0.0
173
     0
291
     0
 45
0.0
1001
ACAD
1000
AcDbSavedByObjectVersion
1070
     0
  0
VISUALSTYLE
  5
81C4
102
{ACAD_XDICTIONARY
360
87B9
102
}
102
{ACAD_REACTORS
330
81AE
102
}
330
81AE
100
AcDbVisualStyle
  2
JitterOff
 70
    20
 71
     2
 72
     2
 73
     0
 90
        0
 40
-0.6
 41
-30.0
 62
     5
 63
     7
 74
     1
 91
        4
 64
     7
 65
   257
 75
     1
175
     1
 42
1.0
 92
       10
 66
     7
 43
1.0
 76
     1
 77
     6
 78
     2
 67
     7
 79
     5
170
     0
171
     0
290
     0
174
     0
 93
        1
 44
0.0
173
     0
291
     1
 45
0.0
1001
ACAD
1000
AcDbSavedByObjectVersion
1070
     0
  0
VISUALSTYLE
  5
81BC
102
{ACAD_XDICTIONARY
360
87A9
102
}
102
{ACAD_REACTORS
330
81AE
102
}
330
81AE
100
AcDbVisualStyle
  2
Linepattern
 70
    14
 71
     2
 72
     2
 73
     0
 90
        0
 40
-0.6
 41
-30.0
 62
     5
 63
     7
 74
     1
 91
        4
 64
     7
 65
   257
 75
     7
175
     7
 42
1.0
 92
        8
 66
     7
 43
1.0
 76
     1
 77
     6
 78
     2
 67
     7
 79
     5
170
     0
171
     0
290
     0
174
     0
 93
        1
 44
0.0
173
     0
291
     1
 45
0.0
1001
ACAD
1000
AcDbSavedByObjectVersion
1070
     0
  0
VISUALSTYLE
  5
81C5
102
{ACAD_XDICTIONARY
360
87BB
102
}
102
{ACAD_REACTORS
330
81AE
102
}
330
81AE
100
AcDbVisualStyle
  2
OverhangOff
 70
    21
 71
     2
 72
     2
 73
     0
 90
        0
 40
-0.6
 41
-30.0
 62
     5
 63
     7
 74
     1
 91
        4
 64
     7
 65
   257
 75
     1
175
     1
 42
1.0
 92
        9
 66
     7
 43
1.0
 76
     1
 77
     6
 78
     2
 67
     7
 79
     5
170
     0
171
     0
290
     0
174
     0
 93
        1
 44
0.0
173
     0
291
     1
 45
0.0
1001
ACAD
1000
AcDbSavedByObjectVersion
1070
     0
  0
VISUALSTYLE
  5
81B8
102
{ACAD_XDICTIONARY
360
87A1
102
}
102
{ACAD_REACTORS
330
81AE
102
}
330
81AE
100
AcDbVisualStyle
  2
Realistic
 70
     8
 71
     2
 72
     3
 73
     0
 90
        2
 40
-0.6
 41
30.0
 62
     5
 63
     7
 74
     0
 91
        0
 64
     7
 65
   257
 75
     1
175
     1
 42
1.0
 92
        8
 66
   257
 43
1.0
 76
     1
 77
     6
 78
     2
 67
     7
 79
     3
170
     0
171
     0
290
     0
174
     0
 93
       13
 44
0.0
173
     0
291
     0
 45
0.0
1001
ACAD
1000
AcDbSavedByObjectVersion
1070
     0
  0
VISUALSTYLE
  5
81C3
102
{ACAD_XDICTIONARY
360
87B7
102
}
102
{ACAD_REACTORS
330
81AE
102
}
330
81AE
100
AcDbVisualStyle
  2
Shaded
 70
    27
 71
     2
 72
     2
 73
     1
 90
        2
 40
-0.6
 41
30.0
 62
     5
 63
     7
 74
     0
 91
        4
 64
     7
 65
   257
 75
     1
175
     1
 42
1.0
 92
        8
 66
   257
 43
1.0
 76
     1
 77
     6
 78
     2
 67
     8
 79
     3
170
     0
171
     0
290
     0
174
     0
 93
        5
 44
0.0
173
     0
291
     0
 45
0.0
1001
ACAD
1000
AcDbSavedByObjectVersion
1070
     0
  0
VISUALSTYLE
  5
81C2
102
{ACAD_XDICTIONARY
360
87B5
102
}
102
{ACAD_REACTORS
330
81AE
102
}
330
81AE
100
AcDbVisualStyle
  2
Shaded with edges
 70
    26
 71
     2
 72
     2
 73
     1
 90
        2
 40
-0.6
 41
30.0
 62
     5
 63
     7
 74
     1
 91
       10
 64
     7
 65
   257
 75
     2
175
     1
 42
1.0
 92
        8
 66
   257
 43
1.0
 76
     1
 77
     6
 78
     2
 67
     7
 79
     3
170
     0
171
     0
290
     0
174
     0
 93
        5
 44
0.0
173
     0
291
     0
 45
0.0
1001
ACAD
1000
AcDbSavedByObjectVersion
1070
     0
  0
VISUALSTYLE
  5
81BF
102
{ACAD_XDICTIONARY
360
87AF
102
}
102
{ACAD_REACTORS
330
81AE
102
}
330
81AE
100
AcDbVisualStyle
  2
Shades of Gray
 70
    23
 71
     2
 72
     2
 73
     3
 90
        0
 40
-0.6
 41
-30.0
 62
     5
 63
     7
 74
     2
 91
        2
 64
     7
 65
     7
 75
     1
175
     1
 42
40.0
 92
        8
 66
     7
 43
1.0
 76
     1
 77
     6
 78
     2
 67
     7
 79
     3
170
     0
171
     0
290
     0
174
     0
 93
        1
 44
0.0
173
     0
291
     0
 45
0.0
1001
ACAD
1000
AcDbSavedByObjectVersion
1070
     0
  0
VISUALSTYLE
  5
81C0
102
{ACAD_XDICTIONARY
360
87B1
102
}
102
{ACAD_REACTORS
330
81AE
102
}
330
81AE
100
AcDbVisualStyle
  2
Sketchy
 70
    24
 71
     1
 72
     2
 73
     2
 90
        0
 40
-0.6
 41
-30.0
 62
     5
 63
     7
 74
     2
 91
        2
 64
     7
 65
     7
 75
     1
175
     1
 42
40.0
 92
       11
 66
     7
 43
1.0
 76
     1
 77
     6
 78
     2
 67
     7
 79
     6
170
     0
171
     0
290
     0
174
     0
 93
        1
 44
0.0
173
     0
291
     0
 45
0.0
1001
ACAD
1000
AcDbSavedByObjectVersion
1070
     0
  0
VISUALSTYLE
  5
81BB
102
{ACAD_XDICTIONARY
360
87A7
102
}
102
{ACAD_REACTORS
330
81AE
102
}
330
81AE
100
AcDbVisualStyle
  2
Thicken
 70
    13
 71
     2
 72
     2
 73
     0
 90
        0
 40
-0.6
 41
-30.0
 62
     5
 63
     7
 74
     1
 91
        4
 64
     7
 65
   257
 75
     1
175
     1
 42
1.0
 92
       12
 66
     7
 43
1.0
 76
     1
 77
     6
 78
     2
 67
     7
 79
     5
170
     0
171
     0
290
     0
174
     0
 93
        1
 44
0.0
173
     0
291
     1
 45
0.0
1001
ACAD
1000
AcDbSavedByObjectVersion
1070
     0
  0
VISUALSTYLE
  5
81B5
102
{ACAD_XDICTIONARY
360
879B
102
}
102
{ACAD_REACTORS
330
81AE
102
}
330
81AE
100
AcDbVisualStyle
  2
Wireframe
 70
     5
 71
     0
 72
     2
 73
     0
 90
        0
 40
-0.6
 41
-30.0
 62
     5
 63
     7
 74
     1
 91
        4
 64
     7
 65
   257
 75
     1
175
     1
 42
1.0
 92
        0
 66
   257
 43
1.0
 76
     1
 77
     6
 78
     2
 67
     7
 79
     3
170
     0
171
     0
290
     0
174
     0
 93
        1
 44
0.0
173
     0
291
     0
 45
0.0
1001
ACAD
1000
AcDbSavedByObjectVersion
1070
     0
  0
VISUALSTYLE
  5
81C1
102
{ACAD_XDICTIONARY
360
87B3
102
}
102
{ACAD_REACTORS
330
81AE
102
}
330
81AE
100
AcDbVisualStyle
  2
X-Ray
 70
    25
 71
     2
 72
     2
 73
     1
 90
        1
 40
0.5
 41
-30.0
 62
     5
 63
     7
 74
     1
 91
        0
 64
     7
 65
   257
 75
     1
175
     1
 42
1.0
 92
        8
 66
     7
 43
1.0
 76
     1
 77
     6
 78
     2
 67
     7
 79
     3
170
     0
171
     0
290
     0
174
     0
 93
       13
 44
0.0
173
     0
291
     0
 45
0.0
1001
ACAD
1000
AcDbSavedByObjectVersion
1070
     0
  0
DICTIONARYVAR
  5
8782
102
{ACAD_REACTORS
330
877D
102
}
330
877D
100
DictionaryVariables
280
     0
  1
1:1
  0
DICTIONARYVAR
  5
877F
102
{ACAD_REACTORS
330
877D
102
}
330
877D
100
DictionaryVariables
280
     0
  1
STANDARD
  0
DICTIONARYVAR
  5
877E
102
{ACAD_REACTORS
330
877D
102
}
330
877D
100
DictionaryVariables
280
     0
  1
STANDARD
  0
DICTIONARYVAR
  5
8780
102
{ACAD_REACTORS
330
877D
102
}
330
877D
100
DictionaryVariables
280
     0
  1
Imperial24
  0
DICTIONARYVAR
  5
8781
102
{ACAD_REACTORS
330
877D
102
}
330
877D
100
DictionaryVariables
280
     0
  1
Imperial24
  0
DICTIONARYVAR
  5
8785
102
{ACAD_REACTORS
330
877D
102
}
330
877D
100
DictionaryVariables
280
     0
  1
1
  0
DICTIONARYVAR
  5
8784
102
{ACAD_REACTORS
330
877D
102
}
330
877D
100
DictionaryVariables
280
     0
  1
0
  0
DICTIONARYVAR
  5
8783
102
{ACAD_REACTORS
330
877D
102
}
330
877D
100
DictionaryVariables
280
     0
  1
127
  0
DICTIONARYVAR
  5
8786
102
{ACAD_REACTORS
330
877D
102
}
330
877D
100
DictionaryVariables
280
     0
  1
2
  0
DICTIONARY
  5
87C3
330
81EF
100
AcDbDictionary
280
     1
281
     1
  3
ACAD_XREC_ROUNDTRIP
360
87C4
  0
DICTIONARY
  5
87C7
330
81F7
100
AcDbDictionary
280
     1
281
     1
  3
ACAD_XREC_ROUNDTRIP
360
87C8
  0
DICTIONARY
  5
87C5
330
81F3
100
AcDbDictionary
280
     1
281
     1
  3
ACAD_XREC_ROUNDTRIP
360
87C6
  0
DICTIONARY
  5
819F
330
819E
100
AcDbDictionary
280
     1
281
     1
  3
ACAD_XREC_ROUNDTRIP
360
878D
  3
BUMPTILE
360
81A1
  3
DIFFUSETILE
360
81A0
  3
OPACITYTILE
360
81A4
  3
REFLECTIONTILE
360
81A3
  3
REFRACTIONTILE
360
81A5
  3
SPECULARTILE
360
81A2
  0
DICTIONARY
  5
8197
330
8196
100
AcDbDictionary
280
     1
281
     1
  3
ACAD_XREC_ROUNDTRIP
360
878C
  3
BUMPTILE
360
8199
  3
DIFFUSETILE
360
8198
  3
OPACITYTILE
360
819C
  3
REFLECTIONTILE
360
819B
  3
REFRACTIONTILE
360
819D
  3
SPECULARTILE
360
819A
  0
DICTIONARY
  5
81A7
330
81A6
100
AcDbDictionary
280
     1
281
     1
  3
ACAD_XREC_ROUNDTRIP
360
878E
  3
BUMPTILE
360
81A9
  3
DIFFUSETILE
360
81A8
  3
FBXASSET
360
826B
  3
OPACITYTILE
360
81AC
  3
REFLECTIONTILE
360
81AB
  3
REFRACTIONTILE
360
81AD
  3
SPECULARTILE
360
81AA
  0
DICTIONARY
  5
87C1
330
81ED
100
AcDbDictionary
280
     1
281
     1
  3
ACAD_XREC_ROUNDTRIP
360
87C2
  0
DICTIONARY
  5
8788
330
81E9
100
AcDbDictionary
280
     1
281
     1
  3
ACAD_ROUNDTRIP_2008_TABLESTYLE_CELLSTYLEMAP
360
8789
  3
ACAD_XREC_ROUNDTRIP
360
87BF
  0
DICTIONARY
  5
8799
330
81B4
100
AcDbDictionary
280
     1
281
     1
  3
ACAD_XREC_ROUNDTRIP
360
879A
  0
DICTIONARY
  5
8797
330
81B3
100
AcDbDictionary
280
     1
281
     1
  3
ACAD_XREC_ROUNDTRIP
360
8798
  0
DICTIONARY
  5
87A5
330
81BA
100
AcDbDictionary
280
     1
281
     1
  3
ACAD_XREC_ROUNDTRIP
360
87A6
  0
DICTIONARY
  5
87AD
330
81BE
100
AcDbDictionary
280
     1
281
     1
  3
ACAD_XREC_ROUNDTRIP
360
87AE
  0
DICTIONARY
  5
879F
330
81B7
100
AcDbDictionary
280
     1
281
     1
  3
ACAD_XREC_ROUNDTRIP
360
87A0
  0
DICTIONARY
  5
87A3
330
81B9
100
AcDbDictionary
280
     1
281
     1
  3
ACAD_XREC_ROUNDTRIP
360
87A4
  0
DICTIONARY
  5
87BD
330
81C6
100
AcDbDictionary
280
     1
281
     1
  3
ACAD_XREC_ROUNDTRIP
360
87BE
  0
DICTIONARY
  5
87AB
330
81BD
100
AcDbDictionary
280
     1
281
     1
  3
ACAD_XREC_ROUNDTRIP
360
87AC
  0
DICTIONARY
  5
878F
330
81AF
100
AcDbDictionary
280
     1
281
     1
  3
ACAD_XREC_ROUNDTRIP
360
8790
  0
DICTIONARY
  5
8791
330
81B0
100
AcDbDictionary
280
     1
281
     1
  3
ACAD_XREC_ROUNDTRIP
360
8792
  0
DICTIONARY
  5
8793
330
81B1
100
AcDbDictionary
280
     1
281
     1
  3
ACAD_XREC_ROUNDTRIP
360
8794
  0
DICTIONARY
  5
8795
330
81B2
100
AcDbDictionary
280
     1
281
     1
  3
ACAD_XREC_ROUNDTRIP
360
8796
  0
DICTIONARY
  5
879D
330
81B6
100
AcDbDictionary
280
     1
281
     1
  3
ACAD_XREC_ROUNDTRIP
360
879E
  0
DICTIONARY
  5
87B9
330
81C4
100
AcDbDictionary
280
     1
281
     1
  3
ACAD_XREC_ROUNDTRIP
360
87BA
  0
DICTIONARY
  5
87A9
330
81BC
100
AcDbDictionary
280
     1
281
     1
  3
ACAD_XREC_ROUNDTRIP
360
87AA
  0
DICTIONARY
  5
87BB
330
81C5
100
AcDbDictionary
280
     1
281
     1
  3
ACAD_XREC_ROUNDTRIP
360
87BC
  0
DICTIONARY
  5
87A1
330
81B8
100
AcDbDictionary
280
     1
281
     1
  3
ACAD_XREC_ROUNDTRIP
360
87A2
  0
DICTIONARY
  5
87B7
330
81C3
100
AcDbDictionary
280
     1
281
     1
  3
ACAD_XREC_ROUNDTRIP
360
87B8
  0
DICTIONARY
  5
87B5
330
81C2
100
AcDbDictionary
280
     1
281
     1
  3
ACAD_XREC_ROUNDTRIP
360
87B6
  0
DICTIONARY
  5
87AF
330
81BF
100
AcDbDictionary
280
     1
281
     1
  3
ACAD_XREC_ROUNDTRIP
360
87B0
  0
DICTIONARY
  5
87B1
330
81C0
100
AcDbDictionary
280
     1
281
     1
  3
ACAD_XREC_ROUNDTRIP
360
87B2
  0
DICTIONARY
  5
87A7
330
81BB
100
AcDbDictionary
280
     1
281
     1
  3
ACAD_XREC_ROUNDTRIP
360
87A8
  0
DICTIONARY
  5
879B
330
81B5
100
AcDbDictionary
280
     1
281
     1
  3
ACAD_XREC_ROUNDTRIP
360
879C
  0
DICTIONARY
  5
87B3
330
81C1
100
AcDbDictionary
280
     1
281
     1
  3
ACAD_XREC_ROUNDTRIP
360
87B4
  0
XRECORD
  5
87C4
102
{ACAD_REACTORS
330
87C3
102
}
330
87C3
100
AcDbXrecord
280
     1
102
DISPLAYNAME
  1
Imperial24
102
FLAGS
 90
        0
  0
XRECORD
  5
87C8
102
{ACAD_REACTORS
330
87C7
102
}
330
87C7
100
AcDbXrecord
280
     1
102
SHADEPLOT
 70
     0
102
SHADEPLOTRESLEVEL
 70
     2
102
SHADEPLOTCUSTOMDPI
 70
   300
  0
XRECORD
  5
87C6
102
{ACAD_REACTORS
330
87C5
102
}
330
87C5
100
AcDbXrecord
280
     1
102
SHADEPLOT
 70
     0
102
SHADEPLOTRESLEVEL
 70
     2
102
SHADEPLOTCUSTOMDPI
 70
   300
  0
XRECORD
  5
878D
102
{ACAD_REACTORS
330
819F
102
}
330
819F
100
AcDbXrecord
280
     1
102
MATERIAL
148
0.0
149
0.0
149
0.0
 93
        0
 94
      127
282
     0
 72
     0
 77
     0
171
     0
175
     0
179
     0
273
     0
  0
XRECORD
  5
81A1
102
{ACAD_REACTORS
330
819F
102
}
330
819F
100
AcDbXrecord
280
     1
270
     1
271
     1
  0
XRECORD
  5
81A0
102
{ACAD_REACTORS
330
819F
102
}
330
819F
100
AcDbXrecord
280
     1
270
     1
271
     1
  0
XRECORD
  5
81A4
102
{ACAD_REACTORS
330
819F
102
}
330
819F
100
AcDbXrecord
280
     1
270
     1
271
     1
  0
XRECORD
  5
81A3
102
{ACAD_REACTORS
330
819F
102
}
330
819F
100
AcDbXrecord
280
     1
270
     1
271
     1
  0
XRECORD
  5
81A5
102
{ACAD_REACTORS
330
819F
102
}
330
819F
100
AcDbXrecord
280
     1
270
     1
271
     1
  0
XRECORD
  5
81A2
102
{ACAD_REACTORS
330
819F
102
}
330
819F
100
AcDbXrecord
280
     1
270
     1
271
     1
  0
XRECORD
  5
878C
102
{ACAD_REACTORS
330
8197
102
}
330
8197
100
AcDbXrecord
280
     1
102
MATERIAL
148
0.0
149
0.0
149
0.0
 93
        0
 94
      127
282
     0
 72
     0
 77
     0
171
     0
175
     0
179
     0
273
     0
  0
XRECORD
  5
8199
102
{ACAD_REACTORS
330
8197
102
}
330
8197
100
AcDbXrecord
280
     1
270
     1
271
     1
  0
XRECORD
  5
8198
102
{ACAD_REACTORS
330
8197
102
}
330
8197
100
AcDbXrecord
280
     1
270
     1
271
     1
  0
XRECORD
  5
819C
102
{ACAD_REACTORS
330
8197
102
}
330
8197
100
AcDbXrecord
280
     1
270
     1
271
     1
  0
XRECORD
  5
819B
102
{ACAD_REACTORS
330
8197
102
}
330
8197
100
AcDbXrecord
280
     1
270
     1
271
     1
  0
XRECORD
  5
819D
102
{ACAD_REACTORS
330
8197
102
}
330
8197
100
AcDbXrecord
280
     1
270
     1
271
     1
  0
XRECORD
  5
819A
102
{ACAD_REACTORS
330
8197
102
}
330
8197
100
AcDbXrecord
280
     1
270
     1
271
     1
  0
XRECORD
  5
878E
102
{ACAD_REACTORS
330
81A7
102
}
330
81A7
100
AcDbXrecord
280
     1
102
MATERIAL
148
0.0
149
0.0
149
0.0
 93
        0
 94
      127
282
     0
 72
     0
 77
     0
171
     0
175
     0
179
     0
273
     0
  0
XRECORD
  5
81A9
102
{ACAD_REACTORS
330
81A7
102
}
330
81A7
100
AcDbXrecord
280
     1
270
     1
271
     1
  0
XRECORD
  5
81A8
102
{ACAD_REACTORS
330
81A7
102
}
330
81A7
100
AcDbXrecord
280
     1
270
     1
271
     1
  0
XRECORD
  5
826B
102
{ACAD_REACTORS
330
81A7
102
}
330
81A7
100
AcDbXrecord
280
     1
 70
     1
 90
1959938040
 71
     1
  1
EDFE2BE4-B857-4B20-9C4A-4B292477229D
311
504B0304140006080800888A76574AE44DCAD8000000200100004F00000044433544344631452D314438342D344330342D423146432D4639313932393933323430322F4173736574446174612F446566696E6974696F6E4974657261746F7250726F706572746965732E62696E454E3D6FC2400CBD32B4EAC0D07F80D8AFF7
311
4112DA08A8400D4C7469A72EC85C0C8D7449502E91183BF65F832DA8B0F4ECE7AF67FF09214E57232AEE08BFE4FB1457586153B84FF78325887BAEF87A0BFEE1D6EB11E5F41D77D0F996B7D64570E83D545877E1E9363A28A12539F0CFBCF448F82F0456D85F8EF1FD0F02BFC411F243FA0621603B55BBED51C566A15FB271
311
2497998E64A4E3A55C648991C948BF46C4E2C4CC5583A1EE1A874159A53757E5CDA1DA17F96CD216250E2A28713A740DD24FF97066B51D4963A4B55F669C5A9D9AE47BA278F20C504B0304140006080800888A7657F74E61F30B010000300200004500000044433544344631452D314438342D344330342D423146432D4639
311
313932393933323430322F4173736574446174612F496E7374616E636550726F706572746965732E62696EEB606060F80F0540260323103700495E20ED9E9A975A94991C9C9C919A9BA802147075717335727235D175B23035D735713232D0B574367104B12C8D4CCCCD8D8C2C5DD8111A415A8C0D4D5C5C8D4C2D754D4D4C
311
8C754DCC8C0C759DDC9C5C740DCD8D0D9CCD9C9D2D1D5D2D81CAC0F63268C6F41FFAAA71C51E483301C51A8018C607D3403E107CB087A8666010706010000B81091507041B2B0BA81102E00CACCA808270051F9881BC0620866A7D00A57980429800148E0819B821180A53763A6088A108606A0519AD81A4E6833D0B90078A
311
2D3E200E2E4F2C49CED0752A4ACC4B494D01C9303068375CFDFF7F5528980DE7838CF97FB5411B260F61C2D54034A109C20D0A5DF5FF3F00504B0304140006080800888A765728BB58AF800100009E0500003D00000044433544344631452D314438342D344330342D423146432D4639313932393933323430322F53636865
311
6D61732F436F6D6D6F6E536368656D612E786D6CBD544D4FC23018BEFB2B96DE15493C78601010A34B880709DEDFB52FD0D8B54BD70DF6EFED3AC0B12E6442E2716BFB3CEFF3D18E26FB440405EA8C2B1992E1C323095052C5B8DC842437EBFB673219DF8DA659866649B798C078B48AE6410122242F2A4994AC7F93815DF8
311
5C049C8564CA0A901499DD886B2EB9B1E02448F358701A9235880C49A0119892A20C89D1B9FD768815CAD268CB5E0355B40B1E47F3E37A2020464BED06AA57CE8FCC20C3C3446D46761A2632A8C1283D07031EFF2AE7CCB1BFEEE916E406DFAC8E36FFD99A9D60A6944090EEDC3B670C7DC13DE86B6B2C5C240D6E503BB85A
311
CD579D513F1B9F9A69DC9CC22AFA80C426D40AF0B21EA168559156B6276F0F726A6BFF04DCD513A87A62CAD41FB24FCB2858B3952E3D852084DA25B9303C15687973CC8E8AAE11DF2836C38C6A9E765E8C1BA1BFB1DC29CDFE518C8B5A7655A4ED7E77291ABEB80DBD82EC866ADE1B8D05AF9E35CF09D7A061F38A986D9EC4
311
12B8F0F65E5D81534D9B231D1E5A8FE577A241F3A5FD01504B0304140006080800888A76572CCEBD668A040000E01200003E00000044433544344631452D314438342D344330342D423146432D4639313932393933323430322F536368656D61732F47656E65726963536368656D612E786D6CD5586D6FDB380CFE7EBF42F0
311
F7A649B70E1B90744856B4970F450FCD7A5F05459613EDE4174872DADCAF3F522F8ED3B88D2F1D06AC4050DBA2493EE4438AF2F8EB73AEC8466823CB62928C06C384888297A92C5693A4B6D9D9E7E4EBD51FE3A931C22EF85AE4EC6AFC38BF261BA626C9AD288496DC3F4FCEAFC63366845F7A10452AF41DB320C0D44EC26E
311
AB20918735565582695670811A6A49643A49A6E9069FA4604A64B29016DC4B48552F95E4932463CA888468C1D2B250DB4962750DF7CE273069CE8363F1FF4EDB00E0A21999574AE4A2B00C353B93F3BD4777B8A61ED8F604ABFEDD79CE56A2B7BDFBDBC50996E0ADDE16FED26223C5D30956C29BDF4A55EA686E5E58B112DA
311
45CE67F76F4FA27EFA3FB672FD7372FC388FAECDCA5209E693CAD167BADCD272F943701B3812F8A3D852008B1D2E32DB927B2F833C6EA95879925356D254582695095A3CE982924720BE5774A3CB9CDCDB350427D2DF20DA1B5532EBE2D5D6288D75D4F7E4FD9890A0EF8E3D93EBB8F8BA4758158EF6FB90A6F9520281C93D
311
E7AAC6D24607DA296BB96018123F821A7D6A5C5884050C475DA4865442732C8B95684A50165CBB3A32F25F783A4A480ED59AD7F924B968AEA50131F46303223E6A397B0E52976030DC1DCA81D7E7C1EDEEA42C19FF27635C505E2BD5198A599020DF50A2330FCB3AAF28CB0124108429553EF1B228802E2265D8F7CC240104
311
2B155BCC7070F1E5C55F13B4A9577362CCCE46C32174E010C3C378C44841A4BDA00FE3A12006CE11EE6AEC59894D3526DDE1CD59D503ECC324017F8061B7F162162FA62EDD81AE3308617770796DCBDAD2B2625C5AE8A63DE20B2C8AA5E95E76E5730823955956E33E705425A2187C185D36489A1B44D3DCEC2172F6BA2105
311
C3546287A7194B2331768EBBE64F6E70A9930ABE0ADEA89E9E2C38523B810287AD67A54A039C1606EAFE68F8304610BB9093DBDDABC0B2AE4E290DCDA15376D7E39F72B556F0B32EAB5D3D498B4C41ABADEC3A1434C422D87E8025A84BDCB2B1417ED750FAE4DA8976863974C577C7F902D3F156AD354DEA3540DE6BEAE2BE
311
A52F7A2EB4CA43802ECE5BF2CE2EDC9347179FFB023CE412E60BE16DA0BE29B374988A553F561DC04615DD35F7D2C8979F60E5955CE93DF29DED8AFA1EE6642D53418086C03C47C377910F75F7E8F5EF665F70B60FFB22AEDF897D119E8423C773E819A3C1E55E550599EE6EDCA34D0C86FD72057DF2CD46F16A470682471C
311
164E4346D5306BF12D7D12D82CFF673D41636C347443FEB51B50D72EA171A8E4A58623A4A16E0FA2B8B10A0D23268D87C33896EE8FB73305A74BF224EDBADFA0BD674AB354D63DB7BD5D83426761C077DE767728235446A552754EB93B755891C3C4CC6CADE37CF0E912A7BB38DBA010F9DE1282EDF470CA69A9CDA482E334
311
C4A6EA4107987980B17E72F31730EBF88BBD39E7C629F56797A3C0009C2C5AE7951D9A05A02773440F02EEB4DE396A3B6A570C72CCFBCD823B0B8ED3F1D5CEDDFED772FA70236C83FB7D86C385D570B87107535572A60A96035F8F7C6A7192F13007246BBE0521855E6AC46F3E27689CEE7D186A6FD679D98CDCAD13333E04
311
EBE7ED6F55FF01504B0304140006080800888A76576180134D5F0100006B0300004500000044433544344631452D314438342D344330342D423146432D4639313932393933323430322F536368656D61732F52656E6465724D6174657269616C536368656D612E786D6CA5934D6FC2300C86EFFB1551EEE343DBA41D1A1030
311
09551ADAD40EAE28A4A68D9426284961FCFBE5A340113B2071746D3F765EBF4DC6BFB5407BD0862B49F0B037C0082453059725C18DDD3EBFE3F1E829991803366715D474942CD30FB4A782E00C64017A412D684E454CE3FE28995203B162A6EA5AC94B66997D225E109CD63B0135484BAD1B3C07E9080CA35DB3119C11BCA5
311
C200461A68A1A438126C75E3E230D40FF81FB3F03C91D1E3A3A0AF79FE28E25BC39EC3E17E4C2A2D94A0833A51AF55BCCA7D88572FCBAC529C4140B020FC3AAFA886621DCED7EAD7664CC86024E806DC297DA1BB393E4156543457A4537DB8817349A70F8ACBF09B3EEE2CB2F33E91B65D60786E4E3B39B77E3FEEEF565042
311
4525DA657FB8B46BE6BF064646F0A0F7327C0BC1BC1B4CBBC1C419FA3CCB23500007872A2580CAAE5461865565294E4EDB4617B62FF579DF9A5B2F54E834076A597573A020912FED777F9B3F504B0304140006080800888A7657422C7FBF4E000000570000004700000044433544344631452D314438342D344330342D4231
311
46432D4639313932393933323430322F4173736574446174612F41737365745461626C654F66436F6E74656E74732E62696E536160607075717335727235D175B23035D735713232D0B574367104B12C8D4CCCCD8D8C2C5D8480EA72134B528B321373120B0A52138B12F39253818260C00B24DD53F380B2C9C1C919A9B989
311
00504B0304140006080800888A7657F865834058000000680000004500000044433544344631452D314438342D344330342D423146432D4639313932393933323430322F4173736574446174612F53747265616D56657273696F6E5461626C652E696E66558CBD0A80300C06F73E4B117FB66E451741D041DC5BF98480A492
311
E4FDD18EAEC7DD4555D89EF28DF51A0B1BD8340C4DE7DD848B988C0ACF0649566493F2408C508DDEBB99D5129FF8F1AF8CF5B9503E20FAE5A16B5AF702504B0304140006080800888A76576551804F340100009A0400003600000044433544344631452D314438342D344330342D423146432D463931393239393332343032
311
2F4173736574446174612F636E782E786D6CCD94314FC3301085FF4AE43D7612244095E30AC1D209242A06B6AB7369AD3A76645F10FC7BEC3403A888A943D7F3BBF3F327BF93EBCFC1161F18A2F1AE6535AF58814EFBCEB87DCB26EACB7B56AC950CDED30F192B1C0CD8B25C664AEE839FC6A5D4610F93CD556BDC71293EC4
311
88B4859DC5E7FED13B42479115DA428C2D8BFA80037098C877188FBC03025EF380D14F41639A4466C065920E08841D534DD5DC94755D36CDB6BE5B35D5AABE7D97222B95DC796F17BD4997053F16FA742B539514F958C929984593DFC2D45F1EF9CE38299252C9482131593AE86B4C1D308ED668A0844E784D486512210C52
311
9CC44A8ACCE0178927EC8D33B965938C01F9F092EC6120835747E43FAF9727B37191C069BC5E1EE70E2F4FE175FE416FA740CE89B9B69C9C3BE4C6F517488998D7480A4DDE2AEA1B504B0304140006080800888A7657B07DCA90070100004F0300003400000044433544344631452D314438342D344330342D423146432D46
311
39313932393933323430322F536368656D61732F636E782E786D6CCD93314F04211484FF0AA13F58D644CD85E50A0B2B1BB5B2437877470E781B608DFE7B61A5B84BECB4B80E862F646678C8DD67F0E403527618272AD840094483D6C5C34497B2DFDC53B253322196338C92A8034CB4C954C943C265EE9285BD5E7C53BD8B
311
A72E3E6008185FCC1182A6C4789DF344F3BA657A2968219F98D54533C112645C92817A437101FA0D26812E60A91A87F16623C4661C5FC5DD761CB6E2F64DF2462AF98EE83BEF62818433315817B1DA19246FC74A2EC975A665A0EADC1BAB6D485E09257349B5834E96AFB9927A9EBD33BAD4AAF80AFE304AF216F522F02344
311
48CE5C67E20B73FF16F919A285F4545F2939EDAF33F96F1EFF56005F67BF8E40FB0AEA1B504B0304140006080800888A7657410A3D5871000000A40000002C00000044433544344631452D314438342D344330342D423146432D4639313932393933323430322F636E782E786D6C55CC4D0E82301086E1AB34B31774E7A22D
311
31F1069E60020334B633A63FC6E34B0909B07DDE2F9FEE7EC1AB2FC5E4840DDC9A2B28E25E06C7938192C7CB1D54677514C9871928C640062A83D55394F2D968A0118BAFEA1DBF377CA444F98919176EAB9FEAAB9F2960DA5BBB1E2ED3FA6FFF504B0304140006080800888A7657549D6B7D7D000000A30000000700000063
311
6E782E786D6C4D8CD10AC22018465F45FE7B4BCD60823A48F33D467343DA74D88C1E3F8D5D74F5C1E13B47F69F75416F9F5F214505F44400F9F8486388B382B24FB803D46B9953DAFF6E80E2B07A050D8396734E653BD0E8A7A12C8D2E213E0F68CDD57247EF98DA8E636E08C737EA0C76820A26C48571C2AA716E4A9D5FAF
311
6ECBEB2F504B0304140006080800888A765716E99B5DA600000035010000130000005B436F6E74656E745F54797065735D2E786D6C9590410E82301045AFD2740F4517C6180A0BF5065E60AC53688469D30E066F6F91AD9AB89CF9FFFD3F99BA9DC7413C3026E749CB4D59498164FCCD51A7E5C4B6D84BD136F5E5193089EC
311
A5A465CF1C0E4A25D3E308A9F401292BD6C711388FB15301CC1D3A54DBAADA29E38991B8E0254336F5092D4C038BF39CD76B6FC6A538AEBEA54A4B08617006389FA516557DE4AE8E7E70DE30729138228C5F021CD93F02D4FB0DCD0B504B0304140006080800888A76573DEE336E64000000790000001B0000006175746F64
311
65736B2D64657369676E2D7061636B6167652E786D6C35CBC10E83200C00D05F21DCA56CA76D41FC96062B120735B69A7DBE268BB7777961F8D5AF396893C2ADB70FE7ADA196782C2DF776D7A97B5933C430F15651E5469C55D70F80A4992A3ADC954792C525AE70A1E4D6AD9816CC044FEFDF01FE3FDE907802504B030414
311
0006080800888A76573E7C6F66F7000000960100003700000044433544344631452D314438342D344330342D423146432D4639313932393933323430322F4173736574446174612F636F72652E786D6C8550CB6EC32010FC156BEFD88013378A30516D375FD0536F0888831283C5A3EAE71712576A4F3DED6A76667677D8E9
311
6BB9579FDA07E36C0FA4C650692B9D3276EE21C50B3A4075E2CC3B177FD1A0B262D13D1418389BBD4BEB064967A3B605B54EE90D1421E80895BCE7A68720AF7A11B5483133C2AD5E85BC8959D7A47EF2384BC9A84D6A54763317A33D707AC6231EDF2634E17644BBFD7E4287A1C5B9A3DD300EC3AE1BCFAC2962CEA2597EB6
311
4BAF45D42AEB316D112188D277F272A4F848BA0FD614266721FAFCF3B6B47C07FCB55C3D892858F39CFE714DABFADF35191B5BBAB93E150138C9473E069C3525A55C1E11E65A12E5DF504B0304140006080800888A7657F57069C9F6000000940100003500000044433544344631452D314438342D344330342D423146432D
311
4639313932393933323430322F536368656D61732F636F72652E786D6C8550CB6E833010FC15B477836D121A45C69180E607DA536F9671889560233FAA7E7E6DA0527BEA6957B333B3BBC32E5FF3B3F854CE6B6B5A202586421969476DA61662B8A1131417CE9CB5E1170D0A2366D5428681B3C9D9B8EC90B4262893516347
311
B583C27B15A090CFD4B4E0E55DCDA2143124867F948B900F31A992941B8FB318F5B84BF598DCF44D2B079C5E718FFBD7010DB8EED1E1781CD0A9AB71EA68D3F55D7768FA2BABB298B3A0E79FEDD22911D498F498D6881044E93B7939537C26CD07AB3293331F5CFA795F9ABF03FEB6DEE959B5CDFE78C665FCDF336A136ABA
311
7B6E0A0F9CA413D7016755CE289535C054739EFC1B504B0304140006080800888A7657D64E2DE501010000D70100002D00000044433544344631452D314438342D344330342D423146432D4639313932393933323430322F636F72652E786D6C9591C14EC42010865F85CC9DB6D0AE6E37944D6CED1378F28665B692DD4253
311
C0F8F8525BA3DEF404F9F9FE19FE19717E9F6EE40D176F9C6D80650510B483D3C68E0DC470A14720672916E7C20F0C88551336B0CA20C5B8B838EFD2E06C40BBAAD669DC45E53D0620C32D5D1AF0C32B4E2A533124C25FB3590D573562C6B28D932298E9CB3A2CA8026A90BCE025658C72FEC4EE4FBC38B1BB6791AFA414D1
311
D850F2BD194E2FA8899B438A04F220F2ED3551D1E89D313AFDD15C0C2E20BBF6D0553D7BA4AC3B56B46A8B8A3EB0BEA57DCD6A5ED725AF0A9E8A24B3143E2C69327B9175067FB56FC65FC9E2ACFF996C737890EC3B54BE8E598AFC7307E95C57223F00504B0304140006080800888A76570EBB577106010000B20100000800
311
0000636F72652E786D6C8D50CB6EC32010FC15C41D1B709246112692EDE60B7AEA8D1AE2A0D860F188DABF2FC4546A6F3DED6A76666776D9F97399C14339AFAD6921A93004CA8C566A33B530862B3A4270E6CC591B7ED1203062512DCC30E46C7236AE051AAD09CA64D458A90A28BC570182714E4D0BFD78538BA8440C89E1
311
EFD52AC6BB985445AA8DC759D0CB8F74744A042521A79836881044E91B7939517C22877756672667316A59ACB44CEEFAAA954B920BEE71FF3AA001373DDAEDF7033A760D4E1D3D747DD7ED0EFD85D559CC990F2EDD5C96A49C0178F1C8BEACDE469C7D583B17420A258135F317E498D579F027745CE53F426B131A5A166E0A
311
0F3949819E83649C3F98CAF3BDA9E66FF36F504B01021400140006080800888A76574AE44DCAD8000000200100004F000000000000000000000000000000000044433544344631452D314438342D344330342D423146432D4639313932393933323430322F4173736574446174612F446566696E6974696F6E497465726174
311
6F7250726F706572746965732E62696E504B01021400140006080800888A7657F74E61F30B0100003002000045000000000000000000000000004501000044433544344631452D314438342D344330342D423146432D4639313932393933323430322F4173736574446174612F496E7374616E636550726F70657274696573
311
2E62696E504B01021400140006080800888A765728BB58AF800100009E0500003D00000000000000000000000000B302000044433544344631452D314438342D344330342D423146432D4639313932393933323430322F536368656D61732F436F6D6D6F6E536368656D612E786D6C504B01021400140006080800888A7657
311
2CCEBD668A040000E01200003E000000000000000000000000008E04000044433544344631452D314438342D344330342D423146432D4639313932393933323430322F536368656D61732F47656E65726963536368656D612E786D6C504B01021400140006080800888A76576180134D5F0100006B03000045000000000000
311
000000000000007409000044433544344631452D314438342D344330342D423146432D4639313932393933323430322F536368656D61732F52656E6465724D6174657269616C536368656D612E786D6C504B01021400140006080800888A7657422C7FBF4E000000570000004700000000000000000000000000360B000044
311
433544344631452D314438342D344330342D423146432D4639313932393933323430322F4173736574446174612F41737365745461626C654F66436F6E74656E74732E62696E504B01021400140006080800888A7657F865834058000000680000004500000000000000000000000000E90B000044433544344631452D3144
311
38342D344330342D423146432D4639313932393933323430322F4173736574446174612F53747265616D56657273696F6E5461626C652E696E66504B01021400140006080800888A76576551804F340100009A0400003600000000000000000000000000A40C000044433544344631452D314438342D344330342D42314643
311
2D4639313932393933323430322F4173736574446174612F636E782E786D6C504B01021400140006080800888A7657B07DCA90070100004F03000034000000000000000000000000002C0E000044433544344631452D314438342D344330342D423146432D4639313932393933323430322F536368656D61732F636E782E78
311
6D6C504B01021400140006080800888A7657410A3D5871000000A40000002C00000000000000000000000000850F000044433544344631452D314438342D344330342D423146432D4639313932393933323430322F636E782E786D6C504B01021400140006080800888A7657549D6B7D7D000000A300000007000000000000
311
0000000000000040100000636E782E786D6C504B01021400140006080800888A765716E99B5DA6000000350100001300000000000000000000000000E21000005B436F6E74656E745F54797065735D2E786D6C504B01021400140006080800888A76573DEE336E64000000790000001B00000000000000000000000000B911
311
00006175746F6465736B2D64657369676E2D7061636B6167652E786D6C504B01021400140006080800888A76573E7C6F66F70000009601000037000000000000000000000000005612000044433544344631452D314438342D344330342D423146432D4639313932393933323430322F4173736574446174612F636F72652E
311
786D6C504B01021400140006080800888A7657F57069C9F6000000940100003500000000000000000000000000A213000044433544344631452D314438342D344330342D423146432D4639313932393933323430322F536368656D61732F636F72652E786D6C504B01021400140006080800888A7657D64E2DE501010000D7
311
0100002D00000000000000000000000000EB14000044433544344631452D314438342D344330342D423146432D4639313932393933323430322F636F72652E786D6C504B01021400140006080800888A76570EBB577106010000B2010000080000000000000000000000000037160000636F72652E786D6C504B0506000000
311
00110011005A060000631700000000
310
504B0304140006080800888A7657000000000000000000000000370000006662782F36414144314435342D373742302D343744372D424237392D4643423339353139424432462F617474726962757465732E62696E504B0304140006080800888A7657000000000000000000000000350000006662782F3641414431443534
310
2D373742302D343744372D424237392D4643423339353139424432462F76657274696365732E62696E504B0304140006080800888A7657F270F1330600000004000000360000006662782F36414144314435342D373742302D343744372D424237392D4643423339353139424432462F747269616E676C65732E62696E6366
310
60600000504B0304140006080800888A765751464CB48900000043010000360000006662782F36414144314435342D373742302D343744372D424237392D4643423339353139424432462F6469726563746F72792E786D6C9D8F310EC2300C45AF127987122606C71DD918B841D4B851A43646695A717C52A85029031293A5
310
A76FBF6FACEF7DA7264E43906840EF0FA03836E242F406C6DCEE4EA06AC22492573150D1F66C60C640E8938CB705396EEDD86DE9B5042FE27813D640EA63BB001C722AF6E55CB61E4863F58284D5D3F53DD715CE1C3985E63FD7F1B7EBDD617E9F1E504B0304140006080800888A7657CCD0ABDD3B070000201C0000340000
310
006662782F36414144314435342D373742302D343744372D424237392D4643423339353139424432462F6F626A656374732E786D6CDD59596FDB3810FE2B84F665F74197AFC485E3223E521845DAA24617FB26D032ED70431DA0A4C4D95FBF438A944545B6951EC062132056687238F3CD3D9ABC3F440C3D119ED124BEB17C
310
C7B31089C3644BE3FD8D55E43BFBDA42EFA768C29324AFEDB3508C23726389656B3AD9F3A448D5D296EC70C19AAB77B3BF5016929858286438CB6EAC2C7C2011767091275B923D3A5B9C6367BF3B38BE536E34C9EE394E1F1A57A59893380756613D062A8A03DFFC174472A713576C30B6F5BB6DEB9DD9E64AC14D46699CE5
310
380E5F71D5B8AE7782ABC6757D7FB058F686637B3818F4EDC1A8E7DBB3BBD9C2F6AFFADE7C349F8F6F97630B4D279B2461950252126F418B2FD6D49FB8E29B4A7C85421BDF6112C7245468B66DD812459792AC898901AC2F45AB29A494B5B6D0EF28FC896D9D40315832D0D6C2E9CFBAF5269BBF0184AC8B95F28C082BCF72
310
0EBA56D897FEE04DDC72D5D00BCD508473C2296688D10DC71C14045B4B05196484B70852486026B5A8E9D57905C3BEEC4B6D5CEE0AC684FF5A53E96901F823C933C919FD87F023F7F5DB802790B6A0717EAD84CD5F5220319EB872B1FCAEDF535F9640A21DC37BB01610536CEAF71A78CD452C582DACE9C7BBCD612DE243FB
310
E5294F52C2736179D29995DF690DD64C0B8CAF032825AEA6EE8EA87C05E83F01F2152F68029AE3F430380CB4EC1CC7D92EE111680779C8F6E08F87C4E3ABA7895B1D9E2264C4CA539882DBFE244C0D318CBB6B904E274F60F409EF2BE1D6216660D3F734167E0E868258024B10EF779B83355D41308545388519480FBF1357
310
3C22F828E940BC6968A82DFC7650947698A69F1D75F5016C86D3B0529521E3297C873F05DFDBC5FAE3BAE03B1C927BE5D80BB2A331CD2199B63364806EB8FCB7D527E9911F58B2C1EC78DAD814C235FB44C48D16B5AC955A90D40B7022D270A919B9724FC1DB19C331498A4CADB7C5A93061090F362F41E9C2AD77FDA96DA0
310
BC4C19406B2C83E41E729A0A4CACA9D25615089D9AA06061982B0BDC975A0D36459406384A8A5884DAD7A6D8E403E28CB044A02AA969C3D65EABC96EE96E576410BC5A49CE0D20953F6BC2A5850F208EB5F1CBC98E6348A2491C50C8C1E02CAD37181754E09DE739236C1750C68A28D85106792488707A827E4709EA99EB91
310
BC3C277CDB4AD0B42CED93DA8604E00A580D92CE5665CC573AE5E4898A3253E6339D0D8C1DAA0EB5A68313E942648A1640B5314A335F2EEE96BDD97260CFAE8757F660D6F3ECF17C702B9EC6BDC1D555AF375E34F9D4D1AA9EEF4095A2CC31FC2F7F28A24D8C29832F84D8789BBE7B2FB3E78D0BA1D11DFA33EF7A7935B0EF
310
96DEC01E78C33B7BB61CF9F6A8EF8D07F0341CF9B72E275952F090646ECFF5026D9269BC3FC595E6EE750C85B2E672B2D3FA6A0AF33F8EA1CD9C6028F1BF1A44ABD8D55210760DA2E2683384E2F051A4A82084AAAFD57D1A41B4C9475B9C7B635CF69CBE277F7C7FDCF3C6BDEBF1A832F6B3815ADEF3C371AE4D8210FACE22
310
0F921487346F4FA80D5C3AC6E937E516A7EF0F11A053FDAD2E399F67D425018DF09E043B2CBA8496C0784982D61CB6674996D19864B2CB7B55FD35687A0E145366CE6D31429A0511C9F1F7D89F6C1B1A360DB19905D08FE6622270B12AA80C5A7520A7288AEE1712B794FF25C87094B2B2D3BD8481DFD310E81EA7CDE204D3
310
E28A27B0B700E781B725727071897AC5BEAE0F5AB5D6A43EFE6EF227E0D175CD2F84475FD1BD747286FE58FC5C4350190DFDFE9556C425ACF455B9E8E358019D67F8123C13BA7FE8546876D349AD642B8BEA9C44D0C6E2BCE09DFC7534F45E5DA4E242C3216A37BDB13894FD9BEEE0003DD9C09D2A6F6BD7401D4A63987375
310
12E49514AD262C7521677A6274F506BF3EABEC3AD51F8E97BFBC62AE3B5F24873F9771806AB90CC02AFA1835756BD56DD443D933CE4308A46BF969CFC023B6647B6CCC0C726D25BAAE4F2F55CF2B11502398D8621167EFC503FB8A41D5D03D67EE87B26873CBF595486C0E0CA78F7C184C9BB43E7F5837A8C04AE7D35F0446
310
E4B94141ADCE45377C86D4B7D5B1E76F5050127D5B9D39FE9FE828B4026B633498066709A33094275BB42709646F183B74E8367844329995C1785590D26F043A9C7E2A67AA39DE307D3A7CC0309866AA172B42188A42C6BCB1D43AFA0DC6A06212298753CE23B4612A8659A8E0F4C6028BCD29745BCE06C659727828A937C6
310
95E0D838DE8B7C5F9EAAFE3F1E13E840543ACA55EDE9828B92CC7026286C53F99E00AABEF28BE9E4FB45D7EC209CC3E3A6C82B618E0B47691408FA8540291C4CFD1E15BC072828CECBE53B728F0149A7C9FC593B28A9DA39E67B395EAFE17DBBF8E28AC9F8EA334A59B117EA3CD7FD1A946CD175B3A29C424DC03094982916
310
35E4FC9DFB8527F08A294277148C00FD7EB81EFDE1CE93284AE272C9BD552FAAD0FA015E3B6D5D3DF28336DEF387AE9C02A8B17EB0C11971F0367B8405502DA762365A426C1840154D6B06A035227401C78CFDAB0552B5516D42520FBB021E39D347E048E25D8E709BFA86DA00127C01B8925F1E1FF4C2C4E530049FFE0B50
310
4B0304140006080800888A76574FDE57993E01000046050000300000006662782F36414144314435342D373742302D343744372D424237392D4643423339353139424432462F636E782E786D6CCD94CF4A033110C65F65C97DB37F0495924DC1834FE041BC65B3D335369B599259B16F6F52D3AA48C543A1DEC2E41BF87E33
310
1F23D66F932D5EC10783AE630DAF59014EE360DCD8B18536E52D2BD6527844FA2263855313742C959914A3C765CEA501366AB1A96A8DDBE6A222F2A65F08022BB45521742CE8679814570BE10061CB07458A37DC43C0C56B88FD6426C8FDDA832218986CEBF6AA6C9AB26D1F9A9B555BAF9AEB275125A5143DA2CD7AE3083C
310
CE85C6F870D14C2DAAF42DC5E24DD62402263F9DF1DE3851C57F294274EBC6ACA3DD9C74F36C8D5614C754A126A0328A404DA2FA104B5125DE6FD4F7778F0707C5603C6842BFBBD0009A5303381AE331097FE3DF0B7FC7C6FE25E25E6ADB2761B3ADB3A11ED21A625C7FEE3FA648B9D1FEBFD01F8D9D3FF3F19490D1FF0FF9
310
E0EB4CC4D5FEE4C5A5A70B28DF01504B0304140006080800888A7657F5255A127E000000A30000000B0000006662782F636E782E786D6C4D8CD10E822018465F85FDF798A4466C809398EFE1121D0BA191B41E3F685E74F56D67DF39BCFF6C0EBD4D7CD9E00590AA0664FC3DCCD6AF02D2BEE02BA05EF218C2FE7703E4A7CD
310
082818245F6348CF03CD6699922BD459FF38E0651834D15D8B2955356EA9A65829CAF078530DEB0853FA3C66E354943CBF5EDE92975F504B0304140006080800888A7657A6D797065F0000008200000007000000636E782E786D6C4DCB3B0E80201045D1AD90E9FD7516806B51190811670C8A61F982B1B0BAC9C97B72CA7B
310
1037C6D3332918DA1E04D2CAC69353902EDB8C20262D23F3F59B81A079470595414B17391D1F19B4730A5583A7ED43BBE4025D9592775E5ADFFA01504B0304140006080800888A76574FEB6A7CA0000000F4000000130000005B436F6E74656E745F54797065735D2E786D6C7D8F4B0EC2300C44AF1279DFA6B0400835ED02
310
B8011730C16D239A8F121795DB93D02D6269CFBC19BBED573B8B17C564BC53B0AB1B10E4B47F18372A5878A88E20FAAEBDBD032591BD2E299898C349CAA427B2986A1FC86565F0D122E7318E32A07EE24872DF3407A9BD63725C71C980AEBDD080CBCCE2BAE6F5D69B7110E7CD57AA146008B3D1C8F92C5954F993BB1BF787
310
F39A89ABC491D09600F9FDA2FB00504B0304140006080800888A76573DEE336E64000000790000001B0000006175746F6465736B2D64657369676E2D7061636B6167652E786D6C35CBC10E83200C00D05F21DCA56CA76D41FC96062B120735B69A7DBE268BB7777961F8D5AF396893C2ADB70FE7ADA196782C2DF776D7A97B
310
5933C430F15651E5469C55D70F80A4992A3ADC954792C525AE70A1E4D6AD9816CC044FEFDF01FE3FDE907802504B0304140006080800888A765762027B47F8000000960100003B0000006662782F36414144314435342D373742302D343744372D424237392D4643423339353139424432462F7265736F75726365732F636F
310
72652E786D6C8550CB6E833010FC15B4770336A42491718492F60B7AEACD321B6225D8C88FAA9F5F3B50A93DF5B4ABD999D9DDE1A7AFF9517CA2F3DA9A1E6859438146D9519BA98718AE640FC54970676DF84583C2C8197BC830083E391B970D52D60434193576C40D94DE6380423D52D38357379C652963480C7F2F17A9EE
310
72C292962B4FF018F5B849F598DCF455A30371A969C72E6F07D252D690B63D9FC9B01B5E49D736C3FE400F6DD7EC7895C582073DFF6C570E65C01104AB938C52C2D83BED8EAC3ED2970F5E65A6E03EB8F4F3B6347F07C2A1B7D129F4BC5AA77F5CE332FEEF1AB5090DDB5C57850741D391CF81E0554E29956784A9E644C537
310
504B0304140006080800888A7657257FD3F9F2000000B1010000310000006662782F36414144314435342D373742302D343744372D424237392D4643423339353139424432462F636F72652E786D6C8D50416EC32010FC8AB5776C839350479828AE9517F4D41B02E2A0C46001AEFAFC42EC4AED2DA745B333CCECB0D3F7F4
310
28BEB40FC6D90E705943A1AD74CAD8B183255ED11B1427CEBC73F10F0D0A2B26DD418681B3D1BB65DE20E96CD436A3D629BD8122041DA1908FF4E820C89B9E4429969818E15ECE42DEC5A84B5CAE3CCEA2997EA5D26B11B5024E6AD2208C11211F981E497DC4874F56652667CB62D4666554723757A33DF0C3F93CE061BF43
310
94F635DAD181A2BEA72DBABCF74DBBC76D3F900BABB298B3107DBA79FB245FF7AA7C15FECBBCCCEA85CCC6C6866C86AB2200C729CF73C159950B4CE3D96E9AB96CFE03504B0304140006080800888A76571936069253010000DD0200000C0000006662782F636F72652E786D6C8D52CB6E833010FC15E43B0F1B5292C8388A
310
92F60B7AEACD310EB502363236CAE777798972E84348C69ADD999D1D999E9E4D1DF4D276CAE802E1284181D4C2944A5705F2EE1EEE517062D41AE3BEB5A140F34616688011A39535BE9D2161B4937A40B529E50CF2AE930E05A2864B813AF1291B1E71EFA0A37B442D170F5EC90847531FA3DEAB72A6AA12D4D45D498BD835
310
C139B9BE1DC20C9334CCB2CB253CEFCEAF619EA5E7FD011FB23CDDD1782033EA54B34C175672274BC44802348C4342DE717E24C911BF7CD078E864B47316769E870EDB2176BF3D693CE11B3DDF967FEB79A55D4A66BD89D12186C1DE5860341EF281DF18DE3643180CF9397EAB97151E00F552386333A894C6AFA59ED75E82
310
74128C1F8DA72A288F023FE9905F747ED780A0B8AEC01A7770BD79374CDF7A6AA50D7BF70CB4B10DAF577393C5F55C076D565AE8C2D4C6FE87BDACBA84190F0F937D01504B0304140006080800888A76577CF7E71206010000B201000008000000636F72652E786D6C8D50C96EC32010FD1534772F60A74E224C6425ED17F4
310
D41B35C445B1C16289DABF2FC4546A6F3D0D7ACBBCC7D0D3E732A3BBB44E19DD032E6B40528F46283DF510FCB5D8033A316A8DF1BF6480345F640F090646276BC29AA1D1682F7542B5113283DC39E9018D737CF4E0C60FB9F092071F15EE56AE7CBCF14996B8DC748C7AB5FC58472BB9970218A94953605C10F28ABB23A98F
310
F8E98D5649C968084AE4282562BABA2A69815D6ADC91CBCBA16871F4B6EDF95C0CBBE1B9E8DA66D81FF0A1ED9A1DAD929951E76DFC735E127B7AE4F83DE5D26AA3187D3766CE82584A20A3E72F6035AD12F1A77458C53F4A2BED1B92176E0E070CC7420F2206A70BC6F1386F9CE9DAEC1B504B01021400140006080800888A
310
76570000000000000000000000003700000000000000000000000000000000006662782F36414144314435342D373742302D343744372D424237392D4643423339353139424432462F617474726962757465732E62696E504B01021400140006080800888A7657000000000000000000000000350000000000000000000000
310
0000550000006662782F36414144314435342D373742302D343744372D424237392D4643423339353139424432462F76657274696365732E62696E504B01021400140006080800888A7657F270F13306000000040000003600000000000000000000000000A80000006662782F36414144314435342D373742302D34374437
310
2D424237392D4643423339353139424432462F747269616E676C65732E62696E504B01021400140006080800888A765751464CB489000000430100003600000000000000000000000000020100006662782F36414144314435342D373742302D343744372D424237392D4643423339353139424432462F6469726563746F72
310
792E786D6C504B01021400140006080800888A7657CCD0ABDD3B070000201C00003400000000000000000000000000DF0100006662782F36414144314435342D373742302D343744372D424237392D4643423339353139424432462F6F626A656374732E786D6C504B01021400140006080800888A76574FDE57993E010000
310
4605000030000000000000000000000000006C0900006662782F36414144314435342D373742302D343744372D424237392D4643423339353139424432462F636E782E786D6C504B01021400140006080800888A7657F5255A127E000000A30000000B00000000000000000000000000F80A00006662782F636E782E786D6C
310
504B01021400140006080800888A7657A6D797065F0000008200000007000000000000000000000000009F0B0000636E782E786D6C504B01021400140006080800888A76574FEB6A7CA0000000F40000001300000000000000000000000000230C00005B436F6E74656E745F54797065735D2E786D6C504B01021400140006
310
080800888A76573DEE336E64000000790000001B00000000000000000000000000F40C00006175746F6465736B2D64657369676E2D7061636B6167652E786D6C504B01021400140006080800888A765762027B47F8000000960100003B00000000000000000000000000910D00006662782F36414144314435342D37374230
310
2D343744372D424237392D4643423339353139424432462F7265736F75726365732F636F72652E786D6C504B01021400140006080800888A7657257FD3F9F2000000B10100003100000000000000000000000000E20E00006662782F36414144314435342D373742302D343744372D424237392D4643423339353139424432
310
462F636F72652E786D6C504B01021400140006080800888A76571936069253010000DD0200000C00000000000000000000000000231000006662782F636F72652E786D6C504B01021400140006080800888A76577CF7E71206010000B20100000800000000000000000000000000A0110000636F72652E786D6C504B050600
310
0000000E000E0080040000CC1200000000
  0
XRECORD
  5
81AC
102
{ACAD_REACTORS
330
81A7
102
}
330
81A7
100
AcDbXrecord
280
     1
270
     1
271
     1
  0
XRECORD
  5
81AB
102
{ACAD_REACTORS
330
81A7
102
}
330
81A7
100
AcDbXrecord
280
     1
270
     1
271
     1
  0
XRECORD
  5
81AD
102
{ACAD_REACTORS
330
81A7
102
}
330
81A7
100
AcDbXrecord
280
     1
270
     1
271
     1
  0
XRECORD
  5
81AA
102
{ACAD_REACTORS
330
81A7
102
}
330
81A7
100
AcDbXrecord
280
     1
270
     1
271
     1
  0
XRECORD
  5
87C2
102
{ACAD_REACTORS
330
87C1
102
}
330
87C1
100
AcDbXrecord
280
     1
102
DISPLAYNAME
  1
Imperial24
102
FLAGS
 90
        0
  0
CELLSTYLEMAP
  5
8789
102
{ACAD_REACTORS
330
8788
102
}
330
8788
100
AcDbCellStyleMap
 90
        3
300
CELLSTYLE
  1
TABLEFORMAT_BEGIN
 90
        5
170
     1
 91
        0
 92
    32768
 62
   257
 93
        1
300
CONTENTFORMAT
  1
CONTENTFORMAT_BEGIN
 90
        0
 91
        0
 92
      512
 93
        0
300

 40
0.0
140
1.0
 94
        5
 62
     0
340
81DA
144
0.25
309
CONTENTFORMAT_END
171
     0
 94
        0
309
TABLEFORMAT_END
  1
CELLSTYLE_BEGIN
 90
        1
 91
        1
300
_TITLE
309
CELLSTYLE_END
300
CELLSTYLE
  1
TABLEFORMAT_BEGIN
 90
        5
170
     1
 91
        0
 92
        0
 62
   257
 93
        1
300
CONTENTFORMAT
  1
CONTENTFORMAT_BEGIN
 90
        0
 91
        0
 92
      512
 93
        0
300

 40
0.0
140
1.0
 94
        5
 62
     0
340
81DA
144
0.18
309
CONTENTFORMAT_END
171
     0
 94
        0
309
TABLEFORMAT_END
  1
CELLSTYLE_BEGIN
 90
        2
 91
        1
300
_HEADER
309
CELLSTYLE_END
300
CELLSTYLE
  1
TABLEFORMAT_BEGIN
 90
        5
170
     1
 91
        0
 92
        0
 62
   257
 93
        1
300
CONTENTFORMAT
  1
CONTENTFORMAT_BEGIN
 90
        0
 91
        0
 92
      512
 93
        0
300

 40
0.0
140
1.0
 94
        2
 62
     0
340
81DA
144
0.18
309
CONTENTFORMAT_END
171
     0
 94
        0
309
TABLEFORMAT_END
  1
CELLSTYLE_BEGIN
 90
        3
 91
        2
300
_DATA
309
CELLSTYLE_END
  0
XRECORD
  5
87BF
102
{ACAD_REACTORS
330
8788
102
}
330
8788
100
AcDbXrecord
280
     1
102
ACAD_ROUNDTRIP_PRE2007_TABLESTYLE
 90
      512
 91
        0
  1

 92
      512
 93
        0
  2

 94
      512
 95
        0
  3

  0
XRECORD
  5
879A
102
{ACAD_REACTORS
330
8799
102
}
330
8799
100
AcDbXrecord
280
     1
102
RTVSPost2010Prop28
280
     1
102
RTVSPost2010PropOp28
 70
     1
102
RTVSPost2010Prop29
280
     1
102
RTVSPost2010PropOp29
 70
     1
102
RTVSPost2010Prop30
280
     0
102
RTVSPost2010PropOp30
 70
     1
102
RTVSPost2010Prop31
280
     0
102
RTVSPost2010PropOp31
 70
     1
102
RTVSPost2010Prop32
280
     0
102
RTVSPost2010PropOp32
 70
     1
102
RTVSPost2010Prop33
280
     0
102
RTVSPost2010PropOp33
 70
     1
102
RTVSPost2010Prop34
280
     0
102
RTVSPost2010PropOp34
 70
     1
102
RTVSPost2010Prop35
280
     0
102
RTVSPost2010PropOp35
 70
     1
102
RTVSPost2010Prop36
280
     0
102
RTVSPost2010PropOp36
 70
     1
102
RTVSPost2010Prop37
 90
       50
102
RTVSPost2010PropOp37
 70
     1
102
RTVSPost2010Prop38
140
0.0
102
RTVSPost2010PropOp38
 70
     1
102
RTVSPost2010Prop39
140
1.0
102
RTVSPost2010PropOp39
 70
     1
102
RTVSPost2010Prop40
 90
        0
102
RTVSPost2010PropOp40
 70
     1
102
RTVSPost2010Prop41ColorIndex
 90
       18
102
RTVSPost2010Prop41ColorRGB
 90
        0
102
RTVSPost2010PropOp41
 70
     1
102
RTVSPost2010Prop42
 90
       50
102
RTVSPost2010PropOp42
 70
     1
102
RTVSPost2010Prop43
 90
        3
102
RTVSPost2010PropOp43
 70
     1
102
RTVSPost2010Prop44ColorIndex
 90
        5
102
RTVSPost2010Prop44ColorRGB
 90
      255
102
RTVSPost2010PropOp44
 70
     1
102
RTVSPost2010Prop45
280
     0
102
RTVSPost2010PropOp45
 70
     1
102
RTVSPost2010Prop46
 90
       50
102
RTVSPost2010PropOp46
 70
     1
102
RTVSPost2010Prop47
 90
       50
102
RTVSPost2010PropOp47
 70
     1
102
RTVSPost2010Prop48
 90
       50
102
RTVSPost2010PropOp48
 70
     1
102
RTVSPost2010Prop49
280
     0
102
RTVSPost2010PropOp49
 70
     1
102
RTVSPost2010Prop50
 90
       50
102
RTVSPost2010PropOp50
 70
     1
102
RTVSPost2010Prop51ColorIndex
 90
      256
102
RTVSPost2010Prop51ColorRGB
 90
-16777216
102
RTVSPost2010PropOp51
 70
     0
102
RTVSPost2010Prop52
140
1.0
102
RTVSPost2010PropOp52
 70
     0
102
RTVSPost2010Prop53
 90
        2
102
RTVSPost2010PropOp53
 70
     1
102
RTVSPost2010Prop54
  1
strokes_ogs.tif
102
RTVSPost2010PropOp54
 70
     1
102
RTVSPost2010Prop55
280
     0
102
RTVSPost2010PropOp55
 70
     1
102
RTVSPost2010Prop56
140
1.0
102
RTVSPost2010PropOp56
 70
     1
102
RTVSPost2010Prop57
140
1.0
102
RTVSPost2010PropOp57
 70
     1
102
RTVSPropertyOp0
 70
     1
102
RTVSPropertyOp1
 70
     1
102
RTVSPropertyOp2
 70
     1
102
RTVSPropertyOp3
 70
     1
102
RTVSPropertyOp4
 70
     1
102
RTVSPropertyOp5
 70
     1
102
RTVSPropertyOp6
 70
     1
102
RTVSPropertyOp7
 70
     1
102
RTVSPropertyOp8
 70
     1
102
RTVSPropertyOp9
 70
     1
102
RTVSPropertyOp10
 70
     1
102
RTVSPropertyOp11
 70
     1
102
RTVSPropertyOp12
 70
     1
102
RTVSPropertyOp13
 70
     1
102
RTVSPropertyOp14
 70
     1
102
RTVSPropertyOp15
 70
     1
102
RTVSPropertyOp16
 70
     1
102
RTVSPropertyOp17
 70
     1
102
RTVSPropertyOp18
 70
     1
102
RTVSPropertyOp19
 70
     1
102
RTVSPropertyOp20
 70
     1
102
RTVSPropertyOp21
 70
     1
102
RTVSPropertyOp22
 70
     1
102
RTVSPropertyOp23
 70
     1
102
RTVSPropertyOp24
 70
     1
102
RTVSPropertyOp25
 70
     1
102
RTVSPropertyOp26
 70
     1
102
RTVSPropertyOp27
 70
     1
102
RTVSPropertyOp28
 70
     1
102
RTVSPropertyOp29
 70
     1
102
RTVSPropertyOp30
 70
     1
102
RTVSPropertyOp31
 70
     1
102
RTVSPropertyOp32
 70
     1
102
RTVSPropertyOp33
 70
     1
102
RTVSPropertyOp34
 70
     1
102
RTVSPropertyOp35
 70
     1
102
RTVSPropertyOp36
 70
     1
102
RTVSPropertyOp37
 70
     1
102
RTVSPropertyOp38
 70
     1
102
RTVSPropertyOp39
 70
     1
102
RTVSPropertyOp40
 70
     1
102
RTVSPropertyOp41
 70
     1
102
RTVSPropertyOp42
 70
     1
102
RTVSPropertyOp43
 70
     1
102
RTVSPropertyOp44
 70
     1
102
RTVSPropertyOp45
 70
     1
102
RTVSPropertyOp46
 70
     1
102
RTVSPropertyOp47
 70
     1
102
RTVSPropertyOp48
 70
     1
102
RTVSPropertyOp49
 70
     1
102
RTVSPropertyOp50
 70
     1
102
RTVSPropertyOp51
 70
     0
102
RTVSPropertyOp52
 70
     0
102
RTVSPropertyOp53
 70
     1
102
RTVSPropertyOp54
 70
     1
102
RTVSPropertyOp55
 70
     1
102
RTVSPropertyOp56
 70
     1
102
RTVSPropertyOp57
 70
     1
102
RTVSPropertyOp58
 70
     1
102
RTVSPropertyOp59
 70
     1
102
RTVSPropertyOp60
 70
     1
102
RTVSPropertyOp61
 70
     1
102
RTVSPropertyOp62
 70
     1
  0
XRECORD
  5
8798
102
{ACAD_REACTORS
330
8797
102
}
330
8797
100
AcDbXrecord
280
     1
102
RTVSPost2010Prop28
280
     0
102
RTVSPost2010PropOp28
 70
     1
102
RTVSPost2010Prop29
280
     1
102
RTVSPost2010PropOp29
 70
     1
102
RTVSPost2010Prop30
280
     1
102
RTVSPost2010PropOp30
 70
     1
102
RTVSPost2010Prop31
280
     0
102
RTVSPost2010PropOp31
 70
     1
102
RTVSPost2010Prop32
280
     0
102
RTVSPost2010PropOp32
 70
     1
102
RTVSPost2010Prop33
280
     0
102
RTVSPost2010PropOp33
 70
     1
102
RTVSPost2010Prop34
280
     0
102
RTVSPost2010PropOp34
 70
     1
102
RTVSPost2010Prop35
280
     0
102
RTVSPost2010PropOp35
 70
     1
102
RTVSPost2010Prop36
280
     0
102
RTVSPost2010PropOp36
 70
     1
102
RTVSPost2010Prop37
 90
       50
102
RTVSPost2010PropOp37
 70
     1
102
RTVSPost2010Prop38
140
0.0
102
RTVSPost2010PropOp38
 70
     1
102
RTVSPost2010Prop39
140
1.0
102
RTVSPost2010PropOp39
 70
     1
102
RTVSPost2010Prop40
 90
        0
102
RTVSPost2010PropOp40
 70
     1
102
RTVSPost2010Prop41ColorIndex
 90
       18
102
RTVSPost2010Prop41ColorRGB
 90
        0
102
RTVSPost2010PropOp41
 70
     1
102
RTVSPost2010Prop42
 90
       50
102
RTVSPost2010PropOp42
 70
     1
102
RTVSPost2010Prop43
 90
        3
102
RTVSPost2010PropOp43
 70
     1
102
RTVSPost2010Prop44ColorIndex
 90
        5
102
RTVSPost2010Prop44ColorRGB
 90
      255
102
RTVSPost2010PropOp44
 70
     1
102
RTVSPost2010Prop45
280
     0
102
RTVSPost2010PropOp45
 70
     1
102
RTVSPost2010Prop46
 90
       50
102
RTVSPost2010PropOp46
 70
     1
102
RTVSPost2010Prop47
 90
       50
102
RTVSPost2010PropOp47
 70
     1
102
RTVSPost2010Prop48
 90
       50
102
RTVSPost2010PropOp48
 70
     1
102
RTVSPost2010Prop49
280
     0
102
RTVSPost2010PropOp49
 70
     1
102
RTVSPost2010Prop50
 90
       50
102
RTVSPost2010PropOp50
 70
     1
102
RTVSPost2010Prop51ColorIndex
 90
      256
102
RTVSPost2010Prop51ColorRGB
 90
-16777216
102
RTVSPost2010PropOp51
 70
     0
102
RTVSPost2010Prop52
140
1.0
102
RTVSPost2010PropOp52
 70
     0
102
RTVSPost2010Prop53
 90
        2
102
RTVSPost2010PropOp53
 70
     1
102
RTVSPost2010Prop54
  1
strokes_ogs.tif
102
RTVSPost2010PropOp54
 70
     1
102
RTVSPost2010Prop55
280
     0
102
RTVSPost2010PropOp55
 70
     1
102
RTVSPost2010Prop56
140
1.0
102
RTVSPost2010PropOp56
 70
     1
102
RTVSPost2010Prop57
140
1.0
102
RTVSPost2010PropOp57
 70
     1
102
RTVSPropertyOp0
 70
     1
102
RTVSPropertyOp1
 70
     1
102
RTVSPropertyOp2
 70
     1
102
RTVSPropertyOp3
 70
     1
102
RTVSPropertyOp4
 70
     1
102
RTVSPropertyOp5
 70
     1
102
RTVSPropertyOp6
 70
     1
102
RTVSPropertyOp7
 70
     1
102
RTVSPropertyOp8
 70
     1
102
RTVSPropertyOp9
 70
     1
102
RTVSPropertyOp10
 70
     1
102
RTVSPropertyOp11
 70
     1
102
RTVSPropertyOp12
 70
     1
102
RTVSPropertyOp13
 70
     1
102
RTVSPropertyOp14
 70
     1
102
RTVSPropertyOp15
 70
     1
102
RTVSPropertyOp16
 70
     1
102
RTVSPropertyOp17
 70
     1
102
RTVSPropertyOp18
 70
     1
102
RTVSPropertyOp19
 70
     1
102
RTVSPropertyOp20
 70
     1
102
RTVSPropertyOp21
 70
     1
102
RTVSPropertyOp22
 70
     1
102
RTVSPropertyOp23
 70
     1
102
RTVSPropertyOp24
 70
     1
102
RTVSPropertyOp25
 70
     1
102
RTVSPropertyOp26
 70
     1
102
RTVSPropertyOp27
 70
     1
102
RTVSPropertyOp28
 70
     1
102
RTVSPropertyOp29
 70
     1
102
RTVSPropertyOp30
 70
     1
102
RTVSPropertyOp31
 70
     1
102
RTVSPropertyOp32
 70
     1
102
RTVSPropertyOp33
 70
     1
102
RTVSPropertyOp34
 70
     1
102
RTVSPropertyOp35
 70
     1
102
RTVSPropertyOp36
 70
     1
102
RTVSPropertyOp37
 70
     1
102
RTVSPropertyOp38
 70
     1
102
RTVSPropertyOp39
 70
     1
102
RTVSPropertyOp40
 70
     1
102
RTVSPropertyOp41
 70
     1
102
RTVSPropertyOp42
 70
     1
102
RTVSPropertyOp43
 70
     1
102
RTVSPropertyOp44
 70
     1
102
RTVSPropertyOp45
 70
     1
102
RTVSPropertyOp46
 70
     1
102
RTVSPropertyOp47
 70
     1
102
RTVSPropertyOp48
 70
     1
102
RTVSPropertyOp49
 70
     1
102
RTVSPropertyOp50
 70
     1
102
RTVSPropertyOp51
 70
     0
102
RTVSPropertyOp52
 70
     0
102
RTVSPropertyOp53
 70
     1
102
RTVSPropertyOp54
 70
     1
102
RTVSPropertyOp55
 70
     1
102
RTVSPropertyOp56
 70
     1
102
RTVSPropertyOp57
 70
     1
102
RTVSPropertyOp58
 70
     1
102
RTVSPropertyOp59
 70
     1
102
RTVSPropertyOp60
 70
     1
102
RTVSPropertyOp61
 70
     1
102
RTVSPropertyOp62
 70
     1
  0
XRECORD
  5
87A6
102
{ACAD_REACTORS
330
87A5
102
}
330
87A5
100
AcDbXrecord
280
     1
102
RTVSPost2010Prop28
280
     0
102
RTVSPost2010PropOp28
 70
     1
102
RTVSPost2010Prop29
280
     1
102
RTVSPost2010PropOp29
 70
     1
102
RTVSPost2010Prop30
280
     1
102
RTVSPost2010PropOp30
 70
     1
102
RTVSPost2010Prop31
280
     0
102
RTVSPost2010PropOp31
 70
     1
102
RTVSPost2010Prop32
280
     0
102
RTVSPost2010PropOp32
 70
     1
102
RTVSPost2010Prop33
280
     0
102
RTVSPost2010PropOp33
 70
     1
102
RTVSPost2010Prop34
280
     0
102
RTVSPost2010PropOp34
 70
     1
102
RTVSPost2010Prop35
280
     0
102
RTVSPost2010PropOp35
 70
     1
102
RTVSPost2010Prop36
280
     0
102
RTVSPost2010PropOp36
 70
     1
102
RTVSPost2010Prop37
 90
       50
102
RTVSPost2010PropOp37
 70
     1
102
RTVSPost2010Prop38
140
0.0
102
RTVSPost2010PropOp38
 70
     1
102
RTVSPost2010Prop39
140
1.0
102
RTVSPost2010PropOp39
 70
     1
102
RTVSPost2010Prop40
 90
        0
102
RTVSPost2010PropOp40
 70
     1
102
RTVSPost2010Prop41ColorIndex
 90
       18
102
RTVSPost2010Prop41ColorRGB
 90
        0
102
RTVSPost2010PropOp41
 70
     1
102
RTVSPost2010Prop42
 90
       50
102
RTVSPost2010PropOp42
 70
     1
102
RTVSPost2010Prop43
 90
        3
102
RTVSPost2010PropOp43
 70
     1
102
RTVSPost2010Prop44ColorIndex
 90
        5
102
RTVSPost2010Prop44ColorRGB
 90
      255
102
RTVSPost2010PropOp44
 70
     1
102
RTVSPost2010Prop45
280
     0
102
RTVSPost2010PropOp45
 70
     1
102
RTVSPost2010Prop46
 90
       50
102
RTVSPost2010PropOp46
 70
     1
102
RTVSPost2010Prop47
 90
       50
102
RTVSPost2010PropOp47
 70
     1
102
RTVSPost2010Prop48
 90
       50
102
RTVSPost2010PropOp48
 70
     1
102
RTVSPost2010Prop49
280
     0
102
RTVSPost2010PropOp49
 70
     1
102
RTVSPost2010Prop50
 90
       50
102
RTVSPost2010PropOp50
 70
     1
102
RTVSPost2010Prop51ColorIndex
 90
      256
102
RTVSPost2010Prop51ColorRGB
 90
-16777216
102
RTVSPost2010PropOp51
 70
     0
102
RTVSPost2010Prop52
140
1.0
102
RTVSPost2010PropOp52
 70
     0
102
RTVSPost2010Prop53
 90
        2
102
RTVSPost2010PropOp53
 70
     1
102
RTVSPost2010Prop54
  1
strokes_ogs.tif
102
RTVSPost2010PropOp54
 70
     1
102
RTVSPost2010Prop55
280
     0
102
RTVSPost2010PropOp55
 70
     1
102
RTVSPost2010Prop56
140
1.0
102
RTVSPost2010PropOp56
 70
     1
102
RTVSPost2010Prop57
140
1.0
102
RTVSPost2010PropOp57
 70
     1
102
RTVSPropertyOp0
 70
     1
102
RTVSPropertyOp1
 70
     1
102
RTVSPropertyOp2
 70
     1
102
RTVSPropertyOp3
 70
     1
102
RTVSPropertyOp4
 70
     1
102
RTVSPropertyOp5
 70
     1
102
RTVSPropertyOp6
 70
     1
102
RTVSPropertyOp7
 70
     1
102
RTVSPropertyOp8
 70
     1
102
RTVSPropertyOp9
 70
     1
102
RTVSPropertyOp10
 70
     1
102
RTVSPropertyOp11
 70
     1
102
RTVSPropertyOp12
 70
     1
102
RTVSPropertyOp13
 70
     1
102
RTVSPropertyOp14
 70
     1
102
RTVSPropertyOp15
 70
     1
102
RTVSPropertyOp16
 70
     1
102
RTVSPropertyOp17
 70
     1
102
RTVSPropertyOp18
 70
     1
102
RTVSPropertyOp19
 70
     1
102
RTVSPropertyOp20
 70
     1
102
RTVSPropertyOp21
 70
     1
102
RTVSPropertyOp22
 70
     1
102
RTVSPropertyOp23
 70
     1
102
RTVSPropertyOp24
 70
     1
102
RTVSPropertyOp25
 70
     1
102
RTVSPropertyOp26
 70
     1
102
RTVSPropertyOp27
 70
     1
102
RTVSPropertyOp28
 70
     1
102
RTVSPropertyOp29
 70
     1
102
RTVSPropertyOp30
 70
     1
102
RTVSPropertyOp31
 70
     1
102
RTVSPropertyOp32
 70
     1
102
RTVSPropertyOp33
 70
     1
102
RTVSPropertyOp34
 70
     1
102
RTVSPropertyOp35
 70
     1
102
RTVSPropertyOp36
 70
     1
102
RTVSPropertyOp37
 70
     1
102
RTVSPropertyOp38
 70
     1
102
RTVSPropertyOp39
 70
     1
102
RTVSPropertyOp40
 70
     1
102
RTVSPropertyOp41
 70
     1
102
RTVSPropertyOp42
 70
     1
102
RTVSPropertyOp43
 70
     1
102
RTVSPropertyOp44
 70
     1
102
RTVSPropertyOp45
 70
     1
102
RTVSPropertyOp46
 70
     1
102
RTVSPropertyOp47
 70
     1
102
RTVSPropertyOp48
 70
     1
102
RTVSPropertyOp49
 70
     1
102
RTVSPropertyOp50
 70
     1
102
RTVSPropertyOp51
 70
     0
102
RTVSPropertyOp52
 70
     0
102
RTVSPropertyOp53
 70
     1
102
RTVSPropertyOp54
 70
     1
102
RTVSPropertyOp55
 70
     1
102
RTVSPropertyOp56
 70
     1
102
RTVSPropertyOp57
 70
     1
102
RTVSPropertyOp58
 70
     1
102
RTVSPropertyOp59
 70
     1
102
RTVSPropertyOp60
 70
     1
102
RTVSPropertyOp61
 70
     1
102
RTVSPropertyOp62
 70
     1
  0
XRECORD
  5
87AE
102
{ACAD_REACTORS
330
87AD
102
}
330
87AD
100
AcDbXrecord
280
     1
102
RTVSPost2010Prop28
280
     0
102
RTVSPost2010PropOp28
 70
     1
102
RTVSPost2010Prop29
280
     1
102
RTVSPost2010PropOp29
 70
     1
102
RTVSPost2010Prop30
280
     1
102
RTVSPost2010PropOp30
 70
     1
102
RTVSPost2010Prop31
280
     0
102
RTVSPost2010PropOp31
 70
     1
102
RTVSPost2010Prop32
280
     0
102
RTVSPost2010PropOp32
 70
     1
102
RTVSPost2010Prop33
280
     0
102
RTVSPost2010PropOp33
 70
     1
102
RTVSPost2010Prop34
280
     0
102
RTVSPost2010PropOp34
 70
     1
102
RTVSPost2010Prop35
280
     0
102
RTVSPost2010PropOp35
 70
     1
102
RTVSPost2010Prop36
280
     0
102
RTVSPost2010PropOp36
 70
     1
102
RTVSPost2010Prop37
 90
       50
102
RTVSPost2010PropOp37
 70
     1
102
RTVSPost2010Prop38
140
0.0
102
RTVSPost2010PropOp38
 70
     1
102
RTVSPost2010Prop39
140
1.0
102
RTVSPost2010PropOp39
 70
     1
102
RTVSPost2010Prop40
 90
        0
102
RTVSPost2010PropOp40
 70
     1
102
RTVSPost2010Prop41ColorIndex
 90
       18
102
RTVSPost2010Prop41ColorRGB
 90
        0
102
RTVSPost2010PropOp41
 70
     1
102
RTVSPost2010Prop42
 90
       50
102
RTVSPost2010PropOp42
 70
     1
102
RTVSPost2010Prop43
 90
        3
102
RTVSPost2010PropOp43
 70
     1
102
RTVSPost2010Prop44ColorIndex
 90
        5
102
RTVSPost2010Prop44ColorRGB
 90
      255
102
RTVSPost2010PropOp44
 70
     1
102
RTVSPost2010Prop45
280
     0
102
RTVSPost2010PropOp45
 70
     1
102
RTVSPost2010Prop46
 90
       50
102
RTVSPost2010PropOp46
 70
     1
102
RTVSPost2010Prop47
 90
       50
102
RTVSPost2010PropOp47
 70
     1
102
RTVSPost2010Prop48
 90
       50
102
RTVSPost2010PropOp48
 70
     1
102
RTVSPost2010Prop49
280
     0
102
RTVSPost2010PropOp49
 70
     1
102
RTVSPost2010Prop50
 90
       50
102
RTVSPost2010PropOp50
 70
     1
102
RTVSPost2010Prop51ColorIndex
 90
      256
102
RTVSPost2010Prop51ColorRGB
 90
-16777216
102
RTVSPost2010PropOp51
 70
     0
102
RTVSPost2010Prop52
140
1.0
102
RTVSPost2010PropOp52
 70
     0
102
RTVSPost2010Prop53
 90
        2
102
RTVSPost2010PropOp53
 70
     1
102
RTVSPost2010Prop54
  1
strokes_ogs.tif
102
RTVSPost2010PropOp54
 70
     1
102
RTVSPost2010Prop55
280
     0
102
RTVSPost2010PropOp55
 70
     1
102
RTVSPost2010Prop56
140
1.0
102
RTVSPost2010PropOp56
 70
     1
102
RTVSPost2010Prop57
140
1.0
102
RTVSPost2010PropOp57
 70
     1
102
RTVSPropertyOp0
 70
     1
102
RTVSPropertyOp1
 70
     1
102
RTVSPropertyOp2
 70
     1
102
RTVSPropertyOp3
 70
     1
102
RTVSPropertyOp4
 70
     1
102
RTVSPropertyOp5
 70
     1
102
RTVSPropertyOp6
 70
     1
102
RTVSPropertyOp7
 70
     1
102
RTVSPropertyOp8
 70
     1
102
RTVSPropertyOp9
 70
     1
102
RTVSPropertyOp10
 70
     1
102
RTVSPropertyOp11
 70
     1
102
RTVSPropertyOp12
 70
     1
102
RTVSPropertyOp13
 70
     1
102
RTVSPropertyOp14
 70
     1
102
RTVSPropertyOp15
 70
     1
102
RTVSPropertyOp16
 70
     1
102
RTVSPropertyOp17
 70
     1
102
RTVSPropertyOp18
 70
     1
102
RTVSPropertyOp19
 70
     1
102
RTVSPropertyOp20
 70
     1
102
RTVSPropertyOp21
 70
     1
102
RTVSPropertyOp22
 70
     1
102
RTVSPropertyOp23
 70
     1
102
RTVSPropertyOp24
 70
     1
102
RTVSPropertyOp25
 70
     1
102
RTVSPropertyOp26
 70
     1
102
RTVSPropertyOp27
 70
     1
102
RTVSPropertyOp28
 70
     1
102
RTVSPropertyOp29
 70
     1
102
RTVSPropertyOp30
 70
     1
102
RTVSPropertyOp31
 70
     1
102
RTVSPropertyOp32
 70
     1
102
RTVSPropertyOp33
 70
     1
102
RTVSPropertyOp34
 70
     1
102
RTVSPropertyOp35
 70
     1
102
RTVSPropertyOp36
 70
     1
102
RTVSPropertyOp37
 70
     1
102
RTVSPropertyOp38
 70
     1
102
RTVSPropertyOp39
 70
     1
102
RTVSPropertyOp40
 70
     1
102
RTVSPropertyOp41
 70
     1
102
RTVSPropertyOp42
 70
     1
102
RTVSPropertyOp43
 70
     1
102
RTVSPropertyOp44
 70
     1
102
RTVSPropertyOp45
 70
     1
102
RTVSPropertyOp46
 70
     1
102
RTVSPropertyOp47
 70
     1
102
RTVSPropertyOp48
 70
     1
102
RTVSPropertyOp49
 70
     1
102
RTVSPropertyOp50
 70
     1
102
RTVSPropertyOp51
 70
     0
102
RTVSPropertyOp52
 70
     0
102
RTVSPropertyOp53
 70
     1
102
RTVSPropertyOp54
 70
     1
102
RTVSPropertyOp55
 70
     1
102
RTVSPropertyOp56
 70
     1
102
RTVSPropertyOp57
 70
     1
102
RTVSPropertyOp58
 70
     1
102
RTVSPropertyOp59
 70
     1
102
RTVSPropertyOp60
 70
     1
102
RTVSPropertyOp61
 70
     1
102
RTVSPropertyOp62
 70
     1
  0
XRECORD
  5
87A0
102
{ACAD_REACTORS
330
879F
102
}
330
879F
100
AcDbXrecord
280
     1
102
RTVSPost2010Prop28
280
     0
102
RTVSPost2010PropOp28
 70
     1
102
RTVSPost2010Prop29
280
     1
102
RTVSPost2010PropOp29
 70
     1
102
RTVSPost2010Prop30
280
     1
102
RTVSPost2010PropOp30
 70
     1
102
RTVSPost2010Prop31
280
     0
102
RTVSPost2010PropOp31
 70
     1
102
RTVSPost2010Prop32
280
     0
102
RTVSPost2010PropOp32
 70
     1
102
RTVSPost2010Prop33
280
     0
102
RTVSPost2010PropOp33
 70
     1
102
RTVSPost2010Prop34
280
     0
102
RTVSPost2010PropOp34
 70
     1
102
RTVSPost2010Prop35
280
     0
102
RTVSPost2010PropOp35
 70
     1
102
RTVSPost2010Prop36
280
     0
102
RTVSPost2010PropOp36
 70
     1
102
RTVSPost2010Prop37
 90
       50
102
RTVSPost2010PropOp37
 70
     1
102
RTVSPost2010Prop38
140
0.0
102
RTVSPost2010PropOp38
 70
     1
102
RTVSPost2010Prop39
140
1.0
102
RTVSPost2010PropOp39
 70
     1
102
RTVSPost2010Prop40
 90
        0
102
RTVSPost2010PropOp40
 70
     1
102
RTVSPost2010Prop41ColorIndex
 90
       18
102
RTVSPost2010Prop41ColorRGB
 90
        0
102
RTVSPost2010PropOp41
 70
     1
102
RTVSPost2010Prop42
 90
       50
102
RTVSPost2010PropOp42
 70
     1
102
RTVSPost2010Prop43
 90
        3
102
RTVSPost2010PropOp43
 70
     1
102
RTVSPost2010Prop44ColorIndex
 90
        5
102
RTVSPost2010Prop44ColorRGB
 90
      255
102
RTVSPost2010PropOp44
 70
     1
102
RTVSPost2010Prop45
280
     0
102
RTVSPost2010PropOp45
 70
     1
102
RTVSPost2010Prop46
 90
       50
102
RTVSPost2010PropOp46
 70
     1
102
RTVSPost2010Prop47
 90
       50
102
RTVSPost2010PropOp47
 70
     1
102
RTVSPost2010Prop48
 90
       50
102
RTVSPost2010PropOp48
 70
     1
102
RTVSPost2010Prop49
280
     0
102
RTVSPost2010PropOp49
 70
     1
102
RTVSPost2010Prop50
 90
       50
102
RTVSPost2010PropOp50
 70
     1
102
RTVSPost2010Prop51ColorIndex
 90
      256
102
RTVSPost2010Prop51ColorRGB
 90
-16777216
102
RTVSPost2010PropOp51
 70
     0
102
RTVSPost2010Prop52
140
1.0
102
RTVSPost2010PropOp52
 70
     0
102
RTVSPost2010Prop53
 90
        2
102
RTVSPost2010PropOp53
 70
     1
102
RTVSPost2010Prop54
  1
strokes_ogs.tif
102
RTVSPost2010PropOp54
 70
     1
102
RTVSPost2010Prop55
280
     0
102
RTVSPost2010PropOp55
 70
     1
102
RTVSPost2010Prop56
140
1.0
102
RTVSPost2010PropOp56
 70
     1
102
RTVSPost2010Prop57
140
1.0
102
RTVSPost2010PropOp57
 70
     1
102
RTVSPropertyOp0
 70
     1
102
RTVSPropertyOp1
 70
     1
102
RTVSPropertyOp2
 70
     1
102
RTVSPropertyOp3
 70
     1
102
RTVSPropertyOp4
 70
     1
102
RTVSPropertyOp5
 70
     1
102
RTVSPropertyOp6
 70
     1
102
RTVSPropertyOp7
 70
     1
102
RTVSPropertyOp8
 70
     1
102
RTVSPropertyOp9
 70
     1
102
RTVSPropertyOp10
 70
     1
102
RTVSPropertyOp11
 70
     1
102
RTVSPropertyOp12
 70
     1
102
RTVSPropertyOp13
 70
     1
102
RTVSPropertyOp14
 70
     1
102
RTVSPropertyOp15
 70
     1
102
RTVSPropertyOp16
 70
     1
102
RTVSPropertyOp17
 70
     1
102
RTVSPropertyOp18
 70
     1
102
RTVSPropertyOp19
 70
     1
102
RTVSPropertyOp20
 70
     1
102
RTVSPropertyOp21
 70
     1
102
RTVSPropertyOp22
 70
     1
102
RTVSPropertyOp23
 70
     1
102
RTVSPropertyOp24
 70
     1
102
RTVSPropertyOp25
 70
     1
102
RTVSPropertyOp26
 70
     1
102
RTVSPropertyOp27
 70
     1
102
RTVSPropertyOp28
 70
     1
102
RTVSPropertyOp29
 70
     1
102
RTVSPropertyOp30
 70
     1
102
RTVSPropertyOp31
 70
     1
102
RTVSPropertyOp32
 70
     1
102
RTVSPropertyOp33
 70
     1
102
RTVSPropertyOp34
 70
     1
102
RTVSPropertyOp35
 70
     1
102
RTVSPropertyOp36
 70
     1
102
RTVSPropertyOp37
 70
     1
102
RTVSPropertyOp38
 70
     1
102
RTVSPropertyOp39
 70
     1
102
RTVSPropertyOp40
 70
     1
102
RTVSPropertyOp41
 70
     1
102
RTVSPropertyOp42
 70
     1
102
RTVSPropertyOp43
 70
     1
102
RTVSPropertyOp44
 70
     1
102
RTVSPropertyOp45
 70
     1
102
RTVSPropertyOp46
 70
     1
102
RTVSPropertyOp47
 70
     1
102
RTVSPropertyOp48
 70
     1
102
RTVSPropertyOp49
 70
     1
102
RTVSPropertyOp50
 70
     1
102
RTVSPropertyOp51
 70
     0
102
RTVSPropertyOp52
 70
     0
102
RTVSPropertyOp53
 70
     1
102
RTVSPropertyOp54
 70
     1
102
RTVSPropertyOp55
 70
     1
102
RTVSPropertyOp56
 70
     1
102
RTVSPropertyOp57
 70
     1
102
RTVSPropertyOp58
 70
     1
102
RTVSPropertyOp59
 70
     1
102
RTVSPropertyOp60
 70
     1
102
RTVSPropertyOp61
 70
     1
102
RTVSPropertyOp62
 70
     1
  0
XRECORD
  5
87A4
102
{ACAD_REACTORS
330
87A3
102
}
330
87A3
100
AcDbXrecord
280
     1
102
RTVSPost2010Prop28
280
     0
102
RTVSPost2010PropOp28
 70
     1
102
RTVSPost2010Prop29
280
     1
102
RTVSPost2010PropOp29
 70
     1
102
RTVSPost2010Prop30
280
     1
102
RTVSPost2010PropOp30
 70
     1
102
RTVSPost2010Prop31
280
     0
102
RTVSPost2010PropOp31
 70
     1
102
RTVSPost2010Prop32
280
     0
102
RTVSPost2010PropOp32
 70
     1
102
RTVSPost2010Prop33
280
     0
102
RTVSPost2010PropOp33
 70
     1
102
RTVSPost2010Prop34
280
     0
102
RTVSPost2010PropOp34
 70
     1
102
RTVSPost2010Prop35
280
     0
102
RTVSPost2010PropOp35
 70
     1
102
RTVSPost2010Prop36
280
     0
102
RTVSPost2010PropOp36
 70
     1
102
RTVSPost2010Prop37
 90
       50
102
RTVSPost2010PropOp37
 70
     1
102
RTVSPost2010Prop38
140
0.0
102
RTVSPost2010PropOp38
 70
     1
102
RTVSPost2010Prop39
140
1.0
102
RTVSPost2010PropOp39
 70
     1
102
RTVSPost2010Prop40
 90
        0
102
RTVSPost2010PropOp40
 70
     1
102
RTVSPost2010Prop41ColorIndex
 90
       18
102
RTVSPost2010Prop41ColorRGB
 90
        0
102
RTVSPost2010PropOp41
 70
     1
102
RTVSPost2010Prop42
 90
       50
102
RTVSPost2010PropOp42
 70
     1
102
RTVSPost2010Prop43
 90
        3
102
RTVSPost2010PropOp43
 70
     1
102
RTVSPost2010Prop44ColorIndex
 90
        5
102
RTVSPost2010Prop44ColorRGB
 90
      255
102
RTVSPost2010PropOp44
 70
     1
102
RTVSPost2010Prop45
280
     0
102
RTVSPost2010PropOp45
 70
     1
102
RTVSPost2010Prop46
 90
       50
102
RTVSPost2010PropOp46
 70
     1
102
RTVSPost2010Prop47
 90
       50
102
RTVSPost2010PropOp47
 70
     1
102
RTVSPost2010Prop48
 90
       50
102
RTVSPost2010PropOp48
 70
     1
102
RTVSPost2010Prop49
280
     0
102
RTVSPost2010PropOp49
 70
     1
102
RTVSPost2010Prop50
 90
       50
102
RTVSPost2010PropOp50
 70
     1
102
RTVSPost2010Prop51ColorIndex
 90
      256
102
RTVSPost2010Prop51ColorRGB
 90
-16777216
102
RTVSPost2010PropOp51
 70
     0
102
RTVSPost2010Prop52
140
1.0
102
RTVSPost2010PropOp52
 70
     0
102
RTVSPost2010Prop53
 90
        2
102
RTVSPost2010PropOp53
 70
     1
102
RTVSPost2010Prop54
  1
strokes_ogs.tif
102
RTVSPost2010PropOp54
 70
     1
102
RTVSPost2010Prop55
280
     0
102
RTVSPost2010PropOp55
 70
     1
102
RTVSPost2010Prop56
140
1.0
102
RTVSPost2010PropOp56
 70
     1
102
RTVSPost2010Prop57
140
1.0
102
RTVSPost2010PropOp57
 70
     1
102
RTVSPropertyOp0
 70
     1
102
RTVSPropertyOp1
 70
     1
102
RTVSPropertyOp2
 70
     1
102
RTVSPropertyOp3
 70
     1
102
RTVSPropertyOp4
 70
     1
102
RTVSPropertyOp5
 70
     1
102
RTVSPropertyOp6
 70
     1
102
RTVSPropertyOp7
 70
     1
102
RTVSPropertyOp8
 70
     1
102
RTVSPropertyOp9
 70
     1
102
RTVSPropertyOp10
 70
     1
102
RTVSPropertyOp11
 70
     1
102
RTVSPropertyOp12
 70
     1
102
RTVSPropertyOp13
 70
     1
102
RTVSPropertyOp14
 70
     1
102
RTVSPropertyOp15
 70
     1
102
RTVSPropertyOp16
 70
     1
102
RTVSPropertyOp17
 70
     1
102
RTVSPropertyOp18
 70
     1
102
RTVSPropertyOp19
 70
     1
102
RTVSPropertyOp20
 70
     1
102
RTVSPropertyOp21
 70
     1
102
RTVSPropertyOp22
 70
     1
102
RTVSPropertyOp23
 70
     1
102
RTVSPropertyOp24
 70
     1
102
RTVSPropertyOp25
 70
     1
102
RTVSPropertyOp26
 70
     1
102
RTVSPropertyOp27
 70
     1
102
RTVSPropertyOp28
 70
     1
102
RTVSPropertyOp29
 70
     1
102
RTVSPropertyOp30
 70
     1
102
RTVSPropertyOp31
 70
     1
102
RTVSPropertyOp32
 70
     1
102
RTVSPropertyOp33
 70
     1
102
RTVSPropertyOp34
 70
     1
102
RTVSPropertyOp35
 70
     1
102
RTVSPropertyOp36
 70
     1
102
RTVSPropertyOp37
 70
     1
102
RTVSPropertyOp38
 70
     1
102
RTVSPropertyOp39
 70
     1
102
RTVSPropertyOp40
 70
     1
102
RTVSPropertyOp41
 70
     1
102
RTVSPropertyOp42
 70
     1
102
RTVSPropertyOp43
 70
     1
102
RTVSPropertyOp44
 70
     1
102
RTVSPropertyOp45
 70
     1
102
RTVSPropertyOp46
 70
     1
102
RTVSPropertyOp47
 70
     1
102
RTVSPropertyOp48
 70
     1
102
RTVSPropertyOp49
 70
     1
102
RTVSPropertyOp50
 70
     1
102
RTVSPropertyOp51
 70
     0
102
RTVSPropertyOp52
 70
     0
102
RTVSPropertyOp53
 70
     1
102
RTVSPropertyOp54
 70
     1
102
RTVSPropertyOp55
 70
     1
102
RTVSPropertyOp56
 70
     1
102
RTVSPropertyOp57
 70
     1
102
RTVSPropertyOp58
 70
     1
102
RTVSPropertyOp59
 70
     1
102
RTVSPropertyOp60
 70
     1
102
RTVSPropertyOp61
 70
     1
102
RTVSPropertyOp62
 70
     1
  0
XRECORD
  5
87BE
102
{ACAD_REACTORS
330
87BD
102
}
330
87BD
100
AcDbXrecord
280
     1
102
RTVSPost2010Prop28
280
     0
102
RTVSPost2010PropOp28
 70
     1
102
RTVSPost2010Prop29
280
     1
102
RTVSPost2010PropOp29
 70
     1
102
RTVSPost2010Prop30
280
     1
102
RTVSPost2010PropOp30
 70
     1
102
RTVSPost2010Prop31
280
     0
102
RTVSPost2010PropOp31
 70
     1
102
RTVSPost2010Prop32
280
     0
102
RTVSPost2010PropOp32
 70
     1
102
RTVSPost2010Prop33
280
     0
102
RTVSPost2010PropOp33
 70
     1
102
RTVSPost2010Prop34
280
     0
102
RTVSPost2010PropOp34
 70
     1
102
RTVSPost2010Prop35
280
     0
102
RTVSPost2010PropOp35
 70
     1
102
RTVSPost2010Prop36
280
     0
102
RTVSPost2010PropOp36
 70
     1
102
RTVSPost2010Prop37
 90
       50
102
RTVSPost2010PropOp37
 70
     0
102
RTVSPost2010Prop38
140
0.0
102
RTVSPost2010PropOp38
 70
     0
102
RTVSPost2010Prop39
140
1.0
102
RTVSPost2010PropOp39
 70
     0
102
RTVSPost2010Prop40
 90
        0
102
RTVSPost2010PropOp40
 70
     0
102
RTVSPost2010Prop41ColorIndex
 90
       18
102
RTVSPost2010Prop41ColorRGB
 90
        0
102
RTVSPost2010PropOp41
 70
     0
102
RTVSPost2010Prop42
 90
       50
102
RTVSPost2010PropOp42
 70
     0
102
RTVSPost2010Prop43
 90
        3
102
RTVSPost2010PropOp43
 70
     0
102
RTVSPost2010Prop44ColorIndex
 90
        5
102
RTVSPost2010Prop44ColorRGB
 90
      255
102
RTVSPost2010PropOp44
 70
     0
102
RTVSPost2010Prop45
280
     0
102
RTVSPost2010PropOp45
 70
     1
102
RTVSPost2010Prop46
 90
       50
102
RTVSPost2010PropOp46
 70
     0
102
RTVSPost2010Prop47
 90
       50
102
RTVSPost2010PropOp47
 70
     0
102
RTVSPost2010Prop48
 90
       50
102
RTVSPost2010PropOp48
 70
     0
102
RTVSPost2010Prop49
280
     0
102
RTVSPost2010PropOp49
 70
     1
102
RTVSPost2010Prop50
 90
       50
102
RTVSPost2010PropOp50
 70
     0
102
RTVSPost2010Prop51ColorIndex
 90
      256
102
RTVSPost2010Prop51ColorRGB
 90
-16777216
102
RTVSPost2010PropOp51
 70
     0
102
RTVSPost2010Prop52
140
1.0
102
RTVSPost2010PropOp52
 70
     0
102
RTVSPost2010Prop53
 90
        2
102
RTVSPost2010PropOp53
 70
     0
102
RTVSPost2010Prop54
  1
strokes_ogs.tif
102
RTVSPost2010PropOp54
 70
     0
102
RTVSPost2010Prop55
280
     0
102
RTVSPost2010PropOp55
 70
     1
102
RTVSPost2010Prop56
140
1.0
102
RTVSPost2010PropOp56
 70
     0
102
RTVSPost2010Prop57
140
1.0
102
RTVSPost2010PropOp57
 70
     0
102
RTVSPropertyOp0
 70
     0
102
RTVSPropertyOp1
 70
     0
102
RTVSPropertyOp2
 70
     0
102
RTVSPropertyOp3
 70
     0
102
RTVSPropertyOp4
 70
     0
102
RTVSPropertyOp5
 70
     0
102
RTVSPropertyOp6
 70
     0
102
RTVSPropertyOp7
 70
     0
102
RTVSPropertyOp8
 70
     0
102
RTVSPropertyOp9
 70
     0
102
RTVSPropertyOp10
 70
     0
102
RTVSPropertyOp11
 70
     0
102
RTVSPropertyOp12
 70
     0
102
RTVSPropertyOp13
 70
     0
102
RTVSPropertyOp14
 70
     2
102
RTVSPropertyOp15
 70
     0
102
RTVSPropertyOp16
 70
     0
102
RTVSPropertyOp17
 70
     0
102
RTVSPropertyOp18
 70
     0
102
RTVSPropertyOp19
 70
     0
102
RTVSPropertyOp20
 70
     0
102
RTVSPropertyOp21
 70
     0
102
RTVSPropertyOp22
 70
     0
102
RTVSPropertyOp23
 70
     0
102
RTVSPropertyOp24
 70
     0
102
RTVSPropertyOp25
 70
     0
102
RTVSPropertyOp26
 70
     0
102
RTVSPropertyOp27
 70
     0
102
RTVSPropertyOp28
 70
     1
102
RTVSPropertyOp29
 70
     1
102
RTVSPropertyOp30
 70
     1
102
RTVSPropertyOp31
 70
     1
102
RTVSPropertyOp32
 70
     1
102
RTVSPropertyOp33
 70
     1
102
RTVSPropertyOp34
 70
     1
102
RTVSPropertyOp35
 70
     1
102
RTVSPropertyOp36
 70
     1
102
RTVSPropertyOp37
 70
     0
102
RTVSPropertyOp38
 70
     0
102
RTVSPropertyOp39
 70
     0
102
RTVSPropertyOp40
 70
     0
102
RTVSPropertyOp41
 70
     0
102
RTVSPropertyOp42
 70
     0
102
RTVSPropertyOp43
 70
     0
102
RTVSPropertyOp44
 70
     0
102
RTVSPropertyOp45
 70
     1
102
RTVSPropertyOp46
 70
     0
102
RTVSPropertyOp47
 70
     0
102
RTVSPropertyOp48
 70
     0
102
RTVSPropertyOp49
 70
     1
102
RTVSPropertyOp50
 70
     0
102
RTVSPropertyOp51
 70
     0
102
RTVSPropertyOp52
 70
     0
102
RTVSPropertyOp53
 70
     0
102
RTVSPropertyOp54
 70
     0
102
RTVSPropertyOp55
 70
     1
102
RTVSPropertyOp56
 70
     0
102
RTVSPropertyOp57
 70
     0
102
RTVSPropertyOp58
 70
     0
102
RTVSPropertyOp59
 70
     0
102
RTVSPropertyOp60
 70
     0
102
RTVSPropertyOp61
 70
     0
102
RTVSPropertyOp62
 70
     0
  0
XRECORD
  5
87AC
102
{ACAD_REACTORS
330
87AB
102
}
330
87AB
100
AcDbXrecord
280
     1
102
RTVSPost2010Prop28
280
     0
102
RTVSPost2010PropOp28
 70
     1
102
RTVSPost2010Prop29
280
     1
102
RTVSPost2010PropOp29
 70
     1
102
RTVSPost2010Prop30
280
     1
102
RTVSPost2010PropOp30
 70
     1
102
RTVSPost2010Prop31
280
     0
102
RTVSPost2010PropOp31
 70
     1
102
RTVSPost2010Prop32
280
     0
102
RTVSPost2010PropOp32
 70
     1
102
RTVSPost2010Prop33
280
     0
102
RTVSPost2010PropOp33
 70
     1
102
RTVSPost2010Prop34
280
     0
102
RTVSPost2010PropOp34
 70
     1
102
RTVSPost2010Prop35
280
     0
102
RTVSPost2010PropOp35
 70
     1
102
RTVSPost2010Prop36
280
     0
102
RTVSPost2010PropOp36
 70
     1
102
RTVSPost2010Prop37
 90
       50
102
RTVSPost2010PropOp37
 70
     1
102
RTVSPost2010Prop38
140
0.0
102
RTVSPost2010PropOp38
 70
     1
102
RTVSPost2010Prop39
140
1.0
102
RTVSPost2010PropOp39
 70
     1
102
RTVSPost2010Prop40
 90
        0
102
RTVSPost2010PropOp40
 70
     1
102
RTVSPost2010Prop41ColorIndex
 90
       18
102
RTVSPost2010Prop41ColorRGB
 90
        0
102
RTVSPost2010PropOp41
 70
     1
102
RTVSPost2010Prop42
 90
       50
102
RTVSPost2010PropOp42
 70
     1
102
RTVSPost2010Prop43
 90
        3
102
RTVSPost2010PropOp43
 70
     1
102
RTVSPost2010Prop44ColorIndex
 90
        5
102
RTVSPost2010Prop44ColorRGB
 90
      255
102
RTVSPost2010PropOp44
 70
     1
102
RTVSPost2010Prop45
280
     0
102
RTVSPost2010PropOp45
 70
     1
102
RTVSPost2010Prop46
 90
       50
102
RTVSPost2010PropOp46
 70
     1
102
RTVSPost2010Prop47
 90
       50
102
RTVSPost2010PropOp47
 70
     1
102
RTVSPost2010Prop48
 90
       50
102
RTVSPost2010PropOp48
 70
     1
102
RTVSPost2010Prop49
280
     0
102
RTVSPost2010PropOp49
 70
     1
102
RTVSPost2010Prop50
 90
       50
102
RTVSPost2010PropOp50
 70
     1
102
RTVSPost2010Prop51ColorIndex
 90
      256
102
RTVSPost2010Prop51ColorRGB
 90
-16777216
102
RTVSPost2010PropOp51
 70
     0
102
RTVSPost2010Prop52
140
1.0
102
RTVSPost2010PropOp52
 70
     0
102
RTVSPost2010Prop53
 90
        2
102
RTVSPost2010PropOp53
 70
     1
102
RTVSPost2010Prop54
  1
strokes_ogs.tif
102
RTVSPost2010PropOp54
 70
     1
102
RTVSPost2010Prop55
280
     0
102
RTVSPost2010PropOp55
 70
     1
102
RTVSPost2010Prop56
140
1.0
102
RTVSPost2010PropOp56
 70
     1
102
RTVSPost2010Prop57
140
1.0
102
RTVSPost2010PropOp57
 70
     1
102
RTVSPropertyOp0
 70
     1
102
RTVSPropertyOp1
 70
     1
102
RTVSPropertyOp2
 70
     1
102
RTVSPropertyOp3
 70
     1
102
RTVSPropertyOp4
 70
     1
102
RTVSPropertyOp5
 70
     1
102
RTVSPropertyOp6
 70
     1
102
RTVSPropertyOp7
 70
     1
102
RTVSPropertyOp8
 70
     1
102
RTVSPropertyOp9
 70
     1
102
RTVSPropertyOp10
 70
     1
102
RTVSPropertyOp11
 70
     1
102
RTVSPropertyOp12
 70
     1
102
RTVSPropertyOp13
 70
     1
102
RTVSPropertyOp14
 70
     1
102
RTVSPropertyOp15
 70
     1
102
RTVSPropertyOp16
 70
     1
102
RTVSPropertyOp17
 70
     1
102
RTVSPropertyOp18
 70
     1
102
RTVSPropertyOp19
 70
     1
102
RTVSPropertyOp20
 70
     1
102
RTVSPropertyOp21
 70
     1
102
RTVSPropertyOp22
 70
     1
102
RTVSPropertyOp23
 70
     1
102
RTVSPropertyOp24
 70
     1
102
RTVSPropertyOp25
 70
     1
102
RTVSPropertyOp26
 70
     1
102
RTVSPropertyOp27
 70
     1
102
RTVSPropertyOp28
 70
     1
102
RTVSPropertyOp29
 70
     1
102
RTVSPropertyOp30
 70
     1
102
RTVSPropertyOp31
 70
     1
102
RTVSPropertyOp32
 70
     1
102
RTVSPropertyOp33
 70
     1
102
RTVSPropertyOp34
 70
     1
102
RTVSPropertyOp35
 70
     1
102
RTVSPropertyOp36
 70
     1
102
RTVSPropertyOp37
 70
     1
102
RTVSPropertyOp38
 70
     1
102
RTVSPropertyOp39
 70
     1
102
RTVSPropertyOp40
 70
     1
102
RTVSPropertyOp41
 70
     1
102
RTVSPropertyOp42
 70
     1
102
RTVSPropertyOp43
 70
     1
102
RTVSPropertyOp44
 70
     1
102
RTVSPropertyOp45
 70
     1
102
RTVSPropertyOp46
 70
     1
102
RTVSPropertyOp47
 70
     1
102
RTVSPropertyOp48
 70
     1
102
RTVSPropertyOp49
 70
     1
102
RTVSPropertyOp50
 70
     1
102
RTVSPropertyOp51
 70
     0
102
RTVSPropertyOp52
 70
     0
102
RTVSPropertyOp53
 70
     1
102
RTVSPropertyOp54
 70
     1
102
RTVSPropertyOp55
 70
     1
102
RTVSPropertyOp56
 70
     1
102
RTVSPropertyOp57
 70
     1
102
RTVSPropertyOp58
 70
     1
102
RTVSPropertyOp59
 70
     1
102
RTVSPropertyOp60
 70
     1
102
RTVSPropertyOp61
 70
     1
102
RTVSPropertyOp62
 70
     1
  0
XRECORD
  5
8790
102
{ACAD_REACTORS
330
878F
102
}
330
878F
100
AcDbXrecord
280
     1
102
RTVSPost2010Prop28
280
     0
102
RTVSPost2010PropOp28
 70
     1
102
RTVSPost2010Prop29
280
     1
102
RTVSPost2010PropOp29
 70
     1
102
RTVSPost2010Prop30
280
     1
102
RTVSPost2010PropOp30
 70
     1
102
RTVSPost2010Prop31
280
     0
102
RTVSPost2010PropOp31
 70
     1
102
RTVSPost2010Prop32
280
     0
102
RTVSPost2010PropOp32
 70
     1
102
RTVSPost2010Prop33
280
     0
102
RTVSPost2010PropOp33
 70
     1
102
RTVSPost2010Prop34
280
     0
102
RTVSPost2010PropOp34
 70
     1
102
RTVSPost2010Prop35
280
     0
102
RTVSPost2010PropOp35
 70
     1
102
RTVSPost2010Prop36
280
     0
102
RTVSPost2010PropOp36
 70
     1
102
RTVSPost2010Prop37
 90
       50
102
RTVSPost2010PropOp37
 70
     1
102
RTVSPost2010Prop38
140
0.0
102
RTVSPost2010PropOp38
 70
     1
102
RTVSPost2010Prop39
140
1.0
102
RTVSPost2010PropOp39
 70
     1
102
RTVSPost2010Prop40
 90
        0
102
RTVSPost2010PropOp40
 70
     1
102
RTVSPost2010Prop41ColorIndex
 90
       18
102
RTVSPost2010Prop41ColorRGB
 90
        0
102
RTVSPost2010PropOp41
 70
     1
102
RTVSPost2010Prop42
 90
       50
102
RTVSPost2010PropOp42
 70
     1
102
RTVSPost2010Prop43
 90
        3
102
RTVSPost2010PropOp43
 70
     1
102
RTVSPost2010Prop44ColorIndex
 90
        5
102
RTVSPost2010Prop44ColorRGB
 90
      255
102
RTVSPost2010PropOp44
 70
     1
102
RTVSPost2010Prop45
280
     0
102
RTVSPost2010PropOp45
 70
     1
102
RTVSPost2010Prop46
 90
       50
102
RTVSPost2010PropOp46
 70
     1
102
RTVSPost2010Prop47
 90
       50
102
RTVSPost2010PropOp47
 70
     1
102
RTVSPost2010Prop48
 90
       50
102
RTVSPost2010PropOp48
 70
     1
102
RTVSPost2010Prop49
280
     0
102
RTVSPost2010PropOp49
 70
     1
102
RTVSPost2010Prop50
 90
       50
102
RTVSPost2010PropOp50
 70
     1
102
RTVSPost2010Prop51ColorIndex
 90
      256
102
RTVSPost2010Prop51ColorRGB
 90
-16777216
102
RTVSPost2010PropOp51
 70
     0
102
RTVSPost2010Prop52
140
1.0
102
RTVSPost2010PropOp52
 70
     0
102
RTVSPost2010Prop53
 90
        2
102
RTVSPost2010PropOp53
 70
     1
102
RTVSPost2010Prop54
  1
strokes_ogs.tif
102
RTVSPost2010PropOp54
 70
     1
102
RTVSPost2010Prop55
280
     0
102
RTVSPost2010PropOp55
 70
     1
102
RTVSPost2010Prop56
140
1.0
102
RTVSPost2010PropOp56
 70
     1
102
RTVSPost2010Prop57
140
1.0
102
RTVSPost2010PropOp57
 70
     1
102
RTVSPropertyOp0
 70
     1
102
RTVSPropertyOp1
 70
     1
102
RTVSPropertyOp2
 70
     1
102
RTVSPropertyOp3
 70
     1
102
RTVSPropertyOp4
 70
     1
102
RTVSPropertyOp5
 70
     1
102
RTVSPropertyOp6
 70
     1
102
RTVSPropertyOp7
 70
     1
102
RTVSPropertyOp8
 70
     1
102
RTVSPropertyOp9
 70
     1
102
RTVSPropertyOp10
 70
     1
102
RTVSPropertyOp11
 70
     1
102
RTVSPropertyOp12
 70
     1
102
RTVSPropertyOp13
 70
     1
102
RTVSPropertyOp14
 70
     1
102
RTVSPropertyOp15
 70
     1
102
RTVSPropertyOp16
 70
     1
102
RTVSPropertyOp17
 70
     1
102
RTVSPropertyOp18
 70
     1
102
RTVSPropertyOp19
 70
     1
102
RTVSPropertyOp20
 70
     1
102
RTVSPropertyOp21
 70
     1
102
RTVSPropertyOp22
 70
     1
102
RTVSPropertyOp23
 70
     1
102
RTVSPropertyOp24
 70
     1
102
RTVSPropertyOp25
 70
     1
102
RTVSPropertyOp26
 70
     1
102
RTVSPropertyOp27
 70
     1
102
RTVSPropertyOp28
 70
     1
102
RTVSPropertyOp29
 70
     1
102
RTVSPropertyOp30
 70
     1
102
RTVSPropertyOp31
 70
     1
102
RTVSPropertyOp32
 70
     1
102
RTVSPropertyOp33
 70
     1
102
RTVSPropertyOp34
 70
     1
102
RTVSPropertyOp35
 70
     1
102
RTVSPropertyOp36
 70
     1
102
RTVSPropertyOp37
 70
     1
102
RTVSPropertyOp38
 70
     1
102
RTVSPropertyOp39
 70
     1
102
RTVSPropertyOp40
 70
     1
102
RTVSPropertyOp41
 70
     1
102
RTVSPropertyOp42
 70
     1
102
RTVSPropertyOp43
 70
     1
102
RTVSPropertyOp44
 70
     1
102
RTVSPropertyOp45
 70
     1
102
RTVSPropertyOp46
 70
     1
102
RTVSPropertyOp47
 70
     1
102
RTVSPropertyOp48
 70
     1
102
RTVSPropertyOp49
 70
     1
102
RTVSPropertyOp50
 70
     1
102
RTVSPropertyOp51
 70
     0
102
RTVSPropertyOp52
 70
     0
102
RTVSPropertyOp53
 70
     1
102
RTVSPropertyOp54
 70
     1
102
RTVSPropertyOp55
 70
     1
102
RTVSPropertyOp56
 70
     1
102
RTVSPropertyOp57
 70
     1
102
RTVSPropertyOp58
 70
     1
102
RTVSPropertyOp59
 70
     1
102
RTVSPropertyOp60
 70
     1
102
RTVSPropertyOp61
 70
     1
102
RTVSPropertyOp62
 70
     1
  0
XRECORD
  5
8792
102
{ACAD_REACTORS
330
8791
102
}
330
8791
100
AcDbXrecord
280
     1
102
RTVSPost2010Prop28
280
     0
102
RTVSPost2010PropOp28
 70
     1
102
RTVSPost2010Prop29
280
     1
102
RTVSPost2010PropOp29
 70
     1
102
RTVSPost2010Prop30
280
     1
102
RTVSPost2010PropOp30
 70
     1
102
RTVSPost2010Prop31
280
     0
102
RTVSPost2010PropOp31
 70
     1
102
RTVSPost2010Prop32
280
     0
102
RTVSPost2010PropOp32
 70
     1
102
RTVSPost2010Prop33
280
     0
102
RTVSPost2010PropOp33
 70
     1
102
RTVSPost2010Prop34
280
     0
102
RTVSPost2010PropOp34
 70
     1
102
RTVSPost2010Prop35
280
     0
102
RTVSPost2010PropOp35
 70
     1
102
RTVSPost2010Prop36
280
     0
102
RTVSPost2010PropOp36
 70
     1
102
RTVSPost2010Prop37
 90
       50
102
RTVSPost2010PropOp37
 70
     1
102
RTVSPost2010Prop38
140
0.0
102
RTVSPost2010PropOp38
 70
     1
102
RTVSPost2010Prop39
140
1.0
102
RTVSPost2010PropOp39
 70
     1
102
RTVSPost2010Prop40
 90
        0
102
RTVSPost2010PropOp40
 70
     1
102
RTVSPost2010Prop41ColorIndex
 90
       18
102
RTVSPost2010Prop41ColorRGB
 90
        0
102
RTVSPost2010PropOp41
 70
     1
102
RTVSPost2010Prop42
 90
       50
102
RTVSPost2010PropOp42
 70
     1
102
RTVSPost2010Prop43
 90
        3
102
RTVSPost2010PropOp43
 70
     1
102
RTVSPost2010Prop44ColorIndex
 90
        5
102
RTVSPost2010Prop44ColorRGB
 90
      255
102
RTVSPost2010PropOp44
 70
     1
102
RTVSPost2010Prop45
280
     0
102
RTVSPost2010PropOp45
 70
     1
102
RTVSPost2010Prop46
 90
       50
102
RTVSPost2010PropOp46
 70
     1
102
RTVSPost2010Prop47
 90
       50
102
RTVSPost2010PropOp47
 70
     1
102
RTVSPost2010Prop48
 90
       50
102
RTVSPost2010PropOp48
 70
     1
102
RTVSPost2010Prop49
280
     0
102
RTVSPost2010PropOp49
 70
     1
102
RTVSPost2010Prop50
 90
       50
102
RTVSPost2010PropOp50
 70
     1
102
RTVSPost2010Prop51ColorIndex
 90
      256
102
RTVSPost2010Prop51ColorRGB
 90
-16777216
102
RTVSPost2010PropOp51
 70
     0
102
RTVSPost2010Prop52
140
1.0
102
RTVSPost2010PropOp52
 70
     0
102
RTVSPost2010Prop53
 90
        2
102
RTVSPost2010PropOp53
 70
     1
102
RTVSPost2010Prop54
  1
strokes_ogs.tif
102
RTVSPost2010PropOp54
 70
     1
102
RTVSPost2010Prop55
280
     0
102
RTVSPost2010PropOp55
 70
     1
102
RTVSPost2010Prop56
140
1.0
102
RTVSPost2010PropOp56
 70
     1
102
RTVSPost2010Prop57
140
1.0
102
RTVSPost2010PropOp57
 70
     1
102
RTVSPropertyOp0
 70
     1
102
RTVSPropertyOp1
 70
     1
102
RTVSPropertyOp2
 70
     1
102
RTVSPropertyOp3
 70
     1
102
RTVSPropertyOp4
 70
     1
102
RTVSPropertyOp5
 70
     1
102
RTVSPropertyOp6
 70
     1
102
RTVSPropertyOp7
 70
     1
102
RTVSPropertyOp8
 70
     1
102
RTVSPropertyOp9
 70
     1
102
RTVSPropertyOp10
 70
     1
102
RTVSPropertyOp11
 70
     1
102
RTVSPropertyOp12
 70
     1
102
RTVSPropertyOp13
 70
     1
102
RTVSPropertyOp14
 70
     1
102
RTVSPropertyOp15
 70
     1
102
RTVSPropertyOp16
 70
     1
102
RTVSPropertyOp17
 70
     1
102
RTVSPropertyOp18
 70
     1
102
RTVSPropertyOp19
 70
     1
102
RTVSPropertyOp20
 70
     1
102
RTVSPropertyOp21
 70
     1
102
RTVSPropertyOp22
 70
     1
102
RTVSPropertyOp23
 70
     1
102
RTVSPropertyOp24
 70
     1
102
RTVSPropertyOp25
 70
     1
102
RTVSPropertyOp26
 70
     1
102
RTVSPropertyOp27
 70
     1
102
RTVSPropertyOp28
 70
     1
102
RTVSPropertyOp29
 70
     1
102
RTVSPropertyOp30
 70
     1
102
RTVSPropertyOp31
 70
     1
102
RTVSPropertyOp32
 70
     1
102
RTVSPropertyOp33
 70
     1
102
RTVSPropertyOp34
 70
     1
102
RTVSPropertyOp35
 70
     1
102
RTVSPropertyOp36
 70
     1
102
RTVSPropertyOp37
 70
     1
102
RTVSPropertyOp38
 70
     1
102
RTVSPropertyOp39
 70
     1
102
RTVSPropertyOp40
 70
     1
102
RTVSPropertyOp41
 70
     1
102
RTVSPropertyOp42
 70
     1
102
RTVSPropertyOp43
 70
     1
102
RTVSPropertyOp44
 70
     1
102
RTVSPropertyOp45
 70
     1
102
RTVSPropertyOp46
 70
     1
102
RTVSPropertyOp47
 70
     1
102
RTVSPropertyOp48
 70
     1
102
RTVSPropertyOp49
 70
     1
102
RTVSPropertyOp50
 70
     1
102
RTVSPropertyOp51
 70
     0
102
RTVSPropertyOp52
 70
     0
102
RTVSPropertyOp53
 70
     1
102
RTVSPropertyOp54
 70
     1
102
RTVSPropertyOp55
 70
     1
102
RTVSPropertyOp56
 70
     1
102
RTVSPropertyOp57
 70
     1
102
RTVSPropertyOp58
 70
     1
102
RTVSPropertyOp59
 70
     1
102
RTVSPropertyOp60
 70
     1
102
RTVSPropertyOp61
 70
     1
102
RTVSPropertyOp62
 70
     1
  0
XRECORD
  5
8794
102
{ACAD_REACTORS
330
8793
102
}
330
8793
100
AcDbXrecord
280
     1
102
RTVSPost2010Prop28
280
     0
102
RTVSPost2010PropOp28
 70
     1
102
RTVSPost2010Prop29
280
     1
102
RTVSPost2010PropOp29
 70
     1
102
RTVSPost2010Prop30
280
     1
102
RTVSPost2010PropOp30
 70
     1
102
RTVSPost2010Prop31
280
     0
102
RTVSPost2010PropOp31
 70
     1
102
RTVSPost2010Prop32
280
     0
102
RTVSPost2010PropOp32
 70
     1
102
RTVSPost2010Prop33
280
     0
102
RTVSPost2010PropOp33
 70
     1
102
RTVSPost2010Prop34
280
     0
102
RTVSPost2010PropOp34
 70
     1
102
RTVSPost2010Prop35
280
     0
102
RTVSPost2010PropOp35
 70
     1
102
RTVSPost2010Prop36
280
     0
102
RTVSPost2010PropOp36
 70
     1
102
RTVSPost2010Prop37
 90
       50
102
RTVSPost2010PropOp37
 70
     1
102
RTVSPost2010Prop38
140
0.0
102
RTVSPost2010PropOp38
 70
     1
102
RTVSPost2010Prop39
140
1.0
102
RTVSPost2010PropOp39
 70
     1
102
RTVSPost2010Prop40
 90
        0
102
RTVSPost2010PropOp40
 70
     1
102
RTVSPost2010Prop41ColorIndex
 90
       18
102
RTVSPost2010Prop41ColorRGB
 90
        0
102
RTVSPost2010PropOp41
 70
     1
102
RTVSPost2010Prop42
 90
       50
102
RTVSPost2010PropOp42
 70
     1
102
RTVSPost2010Prop43
 90
        3
102
RTVSPost2010PropOp43
 70
     1
102
RTVSPost2010Prop44ColorIndex
 90
        5
102
RTVSPost2010Prop44ColorRGB
 90
      255
102
RTVSPost2010PropOp44
 70
     1
102
RTVSPost2010Prop45
280
     0
102
RTVSPost2010PropOp45
 70
     1
102
RTVSPost2010Prop46
 90
       50
102
RTVSPost2010PropOp46
 70
     1
102
RTVSPost2010Prop47
 90
       50
102
RTVSPost2010PropOp47
 70
     1
102
RTVSPost2010Prop48
 90
       50
102
RTVSPost2010PropOp48
 70
     1
102
RTVSPost2010Prop49
280
     0
102
RTVSPost2010PropOp49
 70
     1
102
RTVSPost2010Prop50
 90
       50
102
RTVSPost2010PropOp50
 70
     1
102
RTVSPost2010Prop51ColorIndex
 90
      256
102
RTVSPost2010Prop51ColorRGB
 90
-16777216
102
RTVSPost2010PropOp51
 70
     0
102
RTVSPost2010Prop52
140
1.0
102
RTVSPost2010PropOp52
 70
     0
102
RTVSPost2010Prop53
 90
        2
102
RTVSPost2010PropOp53
 70
     1
102
RTVSPost2010Prop54
  1
strokes_ogs.tif
102
RTVSPost2010PropOp54
 70
     1
102
RTVSPost2010Prop55
280
     0
102
RTVSPost2010PropOp55
 70
     1
102
RTVSPost2010Prop56
140
1.0
102
RTVSPost2010PropOp56
 70
     1
102
RTVSPost2010Prop57
140
1.0
102
RTVSPost2010PropOp57
 70
     1
102
RTVSPropertyOp0
 70
     1
102
RTVSPropertyOp1
 70
     1
102
RTVSPropertyOp2
 70
     1
102
RTVSPropertyOp3
 70
     1
102
RTVSPropertyOp4
 70
     1
102
RTVSPropertyOp5
 70
     1
102
RTVSPropertyOp6
 70
     1
102
RTVSPropertyOp7
 70
     1
102
RTVSPropertyOp8
 70
     1
102
RTVSPropertyOp9
 70
     1
102
RTVSPropertyOp10
 70
     1
102
RTVSPropertyOp11
 70
     1
102
RTVSPropertyOp12
 70
     1
102
RTVSPropertyOp13
 70
     1
102
RTVSPropertyOp14
 70
     1
102
RTVSPropertyOp15
 70
     1
102
RTVSPropertyOp16
 70
     1
102
RTVSPropertyOp17
 70
     1
102
RTVSPropertyOp18
 70
     1
102
RTVSPropertyOp19
 70
     1
102
RTVSPropertyOp20
 70
     1
102
RTVSPropertyOp21
 70
     1
102
RTVSPropertyOp22
 70
     1
102
RTVSPropertyOp23
 70
     1
102
RTVSPropertyOp24
 70
     1
102
RTVSPropertyOp25
 70
     1
102
RTVSPropertyOp26
 70
     1
102
RTVSPropertyOp27
 70
     1
102
RTVSPropertyOp28
 70
     1
102
RTVSPropertyOp29
 70
     1
102
RTVSPropertyOp30
 70
     1
102
RTVSPropertyOp31
 70
     1
102
RTVSPropertyOp32
 70
     1
102
RTVSPropertyOp33
 70
     1
102
RTVSPropertyOp34
 70
     1
102
RTVSPropertyOp35
 70
     1
102
RTVSPropertyOp36
 70
     1
102
RTVSPropertyOp37
 70
     1
102
RTVSPropertyOp38
 70
     1
102
RTVSPropertyOp39
 70
     1
102
RTVSPropertyOp40
 70
     1
102
RTVSPropertyOp41
 70
     1
102
RTVSPropertyOp42
 70
     1
102
RTVSPropertyOp43
 70
     1
102
RTVSPropertyOp44
 70
     1
102
RTVSPropertyOp45
 70
     1
102
RTVSPropertyOp46
 70
     1
102
RTVSPropertyOp47
 70
     1
102
RTVSPropertyOp48
 70
     1
102
RTVSPropertyOp49
 70
     1
102
RTVSPropertyOp50
 70
     1
102
RTVSPropertyOp51
 70
     0
102
RTVSPropertyOp52
 70
     0
102
RTVSPropertyOp53
 70
     1
102
RTVSPropertyOp54
 70
     1
102
RTVSPropertyOp55
 70
     1
102
RTVSPropertyOp56
 70
     1
102
RTVSPropertyOp57
 70
     1
102
RTVSPropertyOp58
 70
     1
102
RTVSPropertyOp59
 70
     1
102
RTVSPropertyOp60
 70
     1
102
RTVSPropertyOp61
 70
     1
102
RTVSPropertyOp62
 70
     1
  0
XRECORD
  5
8796
102
{ACAD_REACTORS
330
8795
102
}
330
8795
100
AcDbXrecord
280
     1
102
RTVSPost2010Prop28
280
     0
102
RTVSPost2010PropOp28
 70
     1
102
RTVSPost2010Prop29
280
     1
102
RTVSPost2010PropOp29
 70
     1
102
RTVSPost2010Prop30
280
     1
102
RTVSPost2010PropOp30
 70
     1
102
RTVSPost2010Prop31
280
     0
102
RTVSPost2010PropOp31
 70
     1
102
RTVSPost2010Prop32
280
     0
102
RTVSPost2010PropOp32
 70
     1
102
RTVSPost2010Prop33
280
     0
102
RTVSPost2010PropOp33
 70
     1
102
RTVSPost2010Prop34
280
     0
102
RTVSPost2010PropOp34
 70
     1
102
RTVSPost2010Prop35
280
     0
102
RTVSPost2010PropOp35
 70
     1
102
RTVSPost2010Prop36
280
     0
102
RTVSPost2010PropOp36
 70
     1
102
RTVSPost2010Prop37
 90
       50
102
RTVSPost2010PropOp37
 70
     1
102
RTVSPost2010Prop38
140
0.0
102
RTVSPost2010PropOp38
 70
     1
102
RTVSPost2010Prop39
140
1.0
102
RTVSPost2010PropOp39
 70
     1
102
RTVSPost2010Prop40
 90
        0
102
RTVSPost2010PropOp40
 70
     1
102
RTVSPost2010Prop41ColorIndex
 90
       18
102
RTVSPost2010Prop41ColorRGB
 90
        0
102
RTVSPost2010PropOp41
 70
     1
102
RTVSPost2010Prop42
 90
       50
102
RTVSPost2010PropOp42
 70
     1
102
RTVSPost2010Prop43
 90
        3
102
RTVSPost2010PropOp43
 70
     1
102
RTVSPost2010Prop44ColorIndex
 90
        5
102
RTVSPost2010Prop44ColorRGB
 90
      255
102
RTVSPost2010PropOp44
 70
     1
102
RTVSPost2010Prop45
280
     0
102
RTVSPost2010PropOp45
 70
     1
102
RTVSPost2010Prop46
 90
       50
102
RTVSPost2010PropOp46
 70
     1
102
RTVSPost2010Prop47
 90
       50
102
RTVSPost2010PropOp47
 70
     1
102
RTVSPost2010Prop48
 90
       50
102
RTVSPost2010PropOp48
 70
     1
102
RTVSPost2010Prop49
280
     0
102
RTVSPost2010PropOp49
 70
     1
102
RTVSPost2010Prop50
 90
       50
102
RTVSPost2010PropOp50
 70
     1
102
RTVSPost2010Prop51ColorIndex
 90
      256
102
RTVSPost2010Prop51ColorRGB
 90
-16777216
102
RTVSPost2010PropOp51
 70
     0
102
RTVSPost2010Prop52
140
1.0
102
RTVSPost2010PropOp52
 70
     0
102
RTVSPost2010Prop53
 90
        2
102
RTVSPost2010PropOp53
 70
     1
102
RTVSPost2010Prop54
  1
strokes_ogs.tif
102
RTVSPost2010PropOp54
 70
     1
102
RTVSPost2010Prop55
280
     0
102
RTVSPost2010PropOp55
 70
     1
102
RTVSPost2010Prop56
140
1.0
102
RTVSPost2010PropOp56
 70
     1
102
RTVSPost2010Prop57
140
1.0
102
RTVSPost2010PropOp57
 70
     1
102
RTVSPropertyOp0
 70
     1
102
RTVSPropertyOp1
 70
     1
102
RTVSPropertyOp2
 70
     1
102
RTVSPropertyOp3
 70
     1
102
RTVSPropertyOp4
 70
     1
102
RTVSPropertyOp5
 70
     1
102
RTVSPropertyOp6
 70
     1
102
RTVSPropertyOp7
 70
     1
102
RTVSPropertyOp8
 70
     1
102
RTVSPropertyOp9
 70
     1
102
RTVSPropertyOp10
 70
     1
102
RTVSPropertyOp11
 70
     1
102
RTVSPropertyOp12
 70
     1
102
RTVSPropertyOp13
 70
     1
102
RTVSPropertyOp14
 70
     1
102
RTVSPropertyOp15
 70
     1
102
RTVSPropertyOp16
 70
     1
102
RTVSPropertyOp17
 70
     1
102
RTVSPropertyOp18
 70
     1
102
RTVSPropertyOp19
 70
     1
102
RTVSPropertyOp20
 70
     1
102
RTVSPropertyOp21
 70
     1
102
RTVSPropertyOp22
 70
     1
102
RTVSPropertyOp23
 70
     1
102
RTVSPropertyOp24
 70
     1
102
RTVSPropertyOp25
 70
     1
102
RTVSPropertyOp26
 70
     1
102
RTVSPropertyOp27
 70
     1
102
RTVSPropertyOp28
 70
     1
102
RTVSPropertyOp29
 70
     1
102
RTVSPropertyOp30
 70
     1
102
RTVSPropertyOp31
 70
     1
102
RTVSPropertyOp32
 70
     1
102
RTVSPropertyOp33
 70
     1
102
RTVSPropertyOp34
 70
     1
102
RTVSPropertyOp35
 70
     1
102
RTVSPropertyOp36
 70
     1
102
RTVSPropertyOp37
 70
     1
102
RTVSPropertyOp38
 70
     1
102
RTVSPropertyOp39
 70
     1
102
RTVSPropertyOp40
 70
     1
102
RTVSPropertyOp41
 70
     1
102
RTVSPropertyOp42
 70
     1
102
RTVSPropertyOp43
 70
     1
102
RTVSPropertyOp44
 70
     1
102
RTVSPropertyOp45
 70
     1
102
RTVSPropertyOp46
 70
     1
102
RTVSPropertyOp47
 70
     1
102
RTVSPropertyOp48
 70
     1
102
RTVSPropertyOp49
 70
     1
102
RTVSPropertyOp50
 70
     1
102
RTVSPropertyOp51
 70
     0
102
RTVSPropertyOp52
 70
     0
102
RTVSPropertyOp53
 70
     1
102
RTVSPropertyOp54
 70
     1
102
RTVSPropertyOp55
 70
     1
102
RTVSPropertyOp56
 70
     1
102
RTVSPropertyOp57
 70
     1
102
RTVSPropertyOp58
 70
     1
102
RTVSPropertyOp59
 70
     1
102
RTVSPropertyOp60
 70
     1
102
RTVSPropertyOp61
 70
     1
102
RTVSPropertyOp62
 70
     1
  0
XRECORD
  5
879E
102
{ACAD_REACTORS
330
879D
102
}
330
879D
100
AcDbXrecord
280
     1
102
RTVSPost2010Prop28
280
     0
102
RTVSPost2010PropOp28
 70
     1
102
RTVSPost2010Prop29
280
     1
102
RTVSPost2010PropOp29
 70
     1
102
RTVSPost2010Prop30
280
     1
102
RTVSPost2010PropOp30
 70
     1
102
RTVSPost2010Prop31
280
     0
102
RTVSPost2010PropOp31
 70
     1
102
RTVSPost2010Prop32
280
     0
102
RTVSPost2010PropOp32
 70
     1
102
RTVSPost2010Prop33
280
     0
102
RTVSPost2010PropOp33
 70
     1
102
RTVSPost2010Prop34
280
     0
102
RTVSPost2010PropOp34
 70
     1
102
RTVSPost2010Prop35
280
     0
102
RTVSPost2010PropOp35
 70
     1
102
RTVSPost2010Prop36
280
     0
102
RTVSPost2010PropOp36
 70
     1
102
RTVSPost2010Prop37
 90
       50
102
RTVSPost2010PropOp37
 70
     1
102
RTVSPost2010Prop38
140
0.0
102
RTVSPost2010PropOp38
 70
     1
102
RTVSPost2010Prop39
140
1.0
102
RTVSPost2010PropOp39
 70
     1
102
RTVSPost2010Prop40
 90
        0
102
RTVSPost2010PropOp40
 70
     1
102
RTVSPost2010Prop41ColorIndex
 90
       18
102
RTVSPost2010Prop41ColorRGB
 90
        0
102
RTVSPost2010PropOp41
 70
     1
102
RTVSPost2010Prop42
 90
       50
102
RTVSPost2010PropOp42
 70
     1
102
RTVSPost2010Prop43
 90
        3
102
RTVSPost2010PropOp43
 70
     1
102
RTVSPost2010Prop44ColorIndex
 90
        5
102
RTVSPost2010Prop44ColorRGB
 90
      255
102
RTVSPost2010PropOp44
 70
     1
102
RTVSPost2010Prop45
280
     0
102
RTVSPost2010PropOp45
 70
     1
102
RTVSPost2010Prop46
 90
       50
102
RTVSPost2010PropOp46
 70
     1
102
RTVSPost2010Prop47
 90
       50
102
RTVSPost2010PropOp47
 70
     1
102
RTVSPost2010Prop48
 90
       50
102
RTVSPost2010PropOp48
 70
     1
102
RTVSPost2010Prop49
280
     0
102
RTVSPost2010PropOp49
 70
     1
102
RTVSPost2010Prop50
 90
       50
102
RTVSPost2010PropOp50
 70
     1
102
RTVSPost2010Prop51ColorIndex
 90
      256
102
RTVSPost2010Prop51ColorRGB
 90
-16777216
102
RTVSPost2010PropOp51
 70
     0
102
RTVSPost2010Prop52
140
1.0
102
RTVSPost2010PropOp52
 70
     0
102
RTVSPost2010Prop53
 90
        2
102
RTVSPost2010PropOp53
 70
     1
102
RTVSPost2010Prop54
  1
strokes_ogs.tif
102
RTVSPost2010PropOp54
 70
     1
102
RTVSPost2010Prop55
280
     0
102
RTVSPost2010PropOp55
 70
     1
102
RTVSPost2010Prop56
140
1.0
102
RTVSPost2010PropOp56
 70
     1
102
RTVSPost2010Prop57
140
1.0
102
RTVSPost2010PropOp57
 70
     1
102
RTVSPropertyOp0
 70
     1
102
RTVSPropertyOp1
 70
     1
102
RTVSPropertyOp2
 70
     1
102
RTVSPropertyOp3
 70
     1
102
RTVSPropertyOp4
 70
     1
102
RTVSPropertyOp5
 70
     1
102
RTVSPropertyOp6
 70
     1
102
RTVSPropertyOp7
 70
     1
102
RTVSPropertyOp8
 70
     1
102
RTVSPropertyOp9
 70
     1
102
RTVSPropertyOp10
 70
     1
102
RTVSPropertyOp11
 70
     1
102
RTVSPropertyOp12
 70
     1
102
RTVSPropertyOp13
 70
     1
102
RTVSPropertyOp14
 70
     1
102
RTVSPropertyOp15
 70
     1
102
RTVSPropertyOp16
 70
     1
102
RTVSPropertyOp17
 70
     1
102
RTVSPropertyOp18
 70
     1
102
RTVSPropertyOp19
 70
     1
102
RTVSPropertyOp20
 70
     1
102
RTVSPropertyOp21
 70
     1
102
RTVSPropertyOp22
 70
     1
102
RTVSPropertyOp23
 70
     1
102
RTVSPropertyOp24
 70
     1
102
RTVSPropertyOp25
 70
     1
102
RTVSPropertyOp26
 70
     1
102
RTVSPropertyOp27
 70
     1
102
RTVSPropertyOp28
 70
     1
102
RTVSPropertyOp29
 70
     1
102
RTVSPropertyOp30
 70
     1
102
RTVSPropertyOp31
 70
     1
102
RTVSPropertyOp32
 70
     1
102
RTVSPropertyOp33
 70
     1
102
RTVSPropertyOp34
 70
     1
102
RTVSPropertyOp35
 70
     1
102
RTVSPropertyOp36
 70
     1
102
RTVSPropertyOp37
 70
     1
102
RTVSPropertyOp38
 70
     1
102
RTVSPropertyOp39
 70
     1
102
RTVSPropertyOp40
 70
     1
102
RTVSPropertyOp41
 70
     1
102
RTVSPropertyOp42
 70
     1
102
RTVSPropertyOp43
 70
     1
102
RTVSPropertyOp44
 70
     1
102
RTVSPropertyOp45
 70
     1
102
RTVSPropertyOp46
 70
     1
102
RTVSPropertyOp47
 70
     1
102
RTVSPropertyOp48
 70
     1
102
RTVSPropertyOp49
 70
     1
102
RTVSPropertyOp50
 70
     1
102
RTVSPropertyOp51
 70
     0
102
RTVSPropertyOp52
 70
     0
102
RTVSPropertyOp53
 70
     1
102
RTVSPropertyOp54
 70
     1
102
RTVSPropertyOp55
 70
     1
102
RTVSPropertyOp56
 70
     1
102
RTVSPropertyOp57
 70
     1
102
RTVSPropertyOp58
 70
     1
102
RTVSPropertyOp59
 70
     1
102
RTVSPropertyOp60
 70
     1
102
RTVSPropertyOp61
 70
     1
102
RTVSPropertyOp62
 70
     1
  0
XRECORD
  5
87BA
102
{ACAD_REACTORS
330
87B9
102
}
330
87B9
100
AcDbXrecord
280
     1
102
RTVSPost2010Prop28
280
     0
102
RTVSPost2010PropOp28
 70
     1
102
RTVSPost2010Prop29
280
     1
102
RTVSPost2010PropOp29
 70
     1
102
RTVSPost2010Prop30
280
     1
102
RTVSPost2010PropOp30
 70
     1
102
RTVSPost2010Prop31
280
     0
102
RTVSPost2010PropOp31
 70
     1
102
RTVSPost2010Prop32
280
     0
102
RTVSPost2010PropOp32
 70
     1
102
RTVSPost2010Prop33
280
     0
102
RTVSPost2010PropOp33
 70
     1
102
RTVSPost2010Prop34
280
     0
102
RTVSPost2010PropOp34
 70
     1
102
RTVSPost2010Prop35
280
     0
102
RTVSPost2010PropOp35
 70
     1
102
RTVSPost2010Prop36
280
     0
102
RTVSPost2010PropOp36
 70
     1
102
RTVSPost2010Prop37
 90
       50
102
RTVSPost2010PropOp37
 70
     0
102
RTVSPost2010Prop38
140
0.0
102
RTVSPost2010PropOp38
 70
     0
102
RTVSPost2010Prop39
140
1.0
102
RTVSPost2010PropOp39
 70
     0
102
RTVSPost2010Prop40
 90
        0
102
RTVSPost2010PropOp40
 70
     0
102
RTVSPost2010Prop41ColorIndex
 90
       18
102
RTVSPost2010Prop41ColorRGB
 90
        0
102
RTVSPost2010PropOp41
 70
     0
102
RTVSPost2010Prop42
 90
       50
102
RTVSPost2010PropOp42
 70
     0
102
RTVSPost2010Prop43
 90
        3
102
RTVSPost2010PropOp43
 70
     0
102
RTVSPost2010Prop44ColorIndex
 90
        5
102
RTVSPost2010Prop44ColorRGB
 90
      255
102
RTVSPost2010PropOp44
 70
     0
102
RTVSPost2010Prop45
280
     0
102
RTVSPost2010PropOp45
 70
     1
102
RTVSPost2010Prop46
 90
       50
102
RTVSPost2010PropOp46
 70
     0
102
RTVSPost2010Prop47
 90
       50
102
RTVSPost2010PropOp47
 70
     0
102
RTVSPost2010Prop48
 90
       50
102
RTVSPost2010PropOp48
 70
     0
102
RTVSPost2010Prop49
280
     0
102
RTVSPost2010PropOp49
 70
     1
102
RTVSPost2010Prop50
 90
       50
102
RTVSPost2010PropOp50
 70
     0
102
RTVSPost2010Prop51ColorIndex
 90
      256
102
RTVSPost2010Prop51ColorRGB
 90
-16777216
102
RTVSPost2010PropOp51
 70
     0
102
RTVSPost2010Prop52
140
1.0
102
RTVSPost2010PropOp52
 70
     0
102
RTVSPost2010Prop53
 90
        2
102
RTVSPost2010PropOp53
 70
     0
102
RTVSPost2010Prop54
  1
strokes_ogs.tif
102
RTVSPost2010PropOp54
 70
     0
102
RTVSPost2010Prop55
280
     0
102
RTVSPost2010PropOp55
 70
     1
102
RTVSPost2010Prop56
140
1.0
102
RTVSPost2010PropOp56
 70
     0
102
RTVSPost2010Prop57
140
1.0
102
RTVSPost2010PropOp57
 70
     0
102
RTVSPropertyOp0
 70
     0
102
RTVSPropertyOp1
 70
     0
102
RTVSPropertyOp2
 70
     0
102
RTVSPropertyOp3
 70
     0
102
RTVSPropertyOp4
 70
     0
102
RTVSPropertyOp5
 70
     0
102
RTVSPropertyOp6
 70
     0
102
RTVSPropertyOp7
 70
     0
102
RTVSPropertyOp8
 70
     0
102
RTVSPropertyOp9
 70
     0
102
RTVSPropertyOp10
 70
     0
102
RTVSPropertyOp11
 70
     0
102
RTVSPropertyOp12
 70
     0
102
RTVSPropertyOp13
 70
     0
102
RTVSPropertyOp14
 70
     2
102
RTVSPropertyOp15
 70
     0
102
RTVSPropertyOp16
 70
     0
102
RTVSPropertyOp17
 70
     0
102
RTVSPropertyOp18
 70
     0
102
RTVSPropertyOp19
 70
     0
102
RTVSPropertyOp20
 70
     0
102
RTVSPropertyOp21
 70
     0
102
RTVSPropertyOp22
 70
     0
102
RTVSPropertyOp23
 70
     0
102
RTVSPropertyOp24
 70
     0
102
RTVSPropertyOp25
 70
     0
102
RTVSPropertyOp26
 70
     0
102
RTVSPropertyOp27
 70
     0
102
RTVSPropertyOp28
 70
     1
102
RTVSPropertyOp29
 70
     1
102
RTVSPropertyOp30
 70
     1
102
RTVSPropertyOp31
 70
     1
102
RTVSPropertyOp32
 70
     1
102
RTVSPropertyOp33
 70
     1
102
RTVSPropertyOp34
 70
     1
102
RTVSPropertyOp35
 70
     1
102
RTVSPropertyOp36
 70
     1
102
RTVSPropertyOp37
 70
     0
102
RTVSPropertyOp38
 70
     0
102
RTVSPropertyOp39
 70
     0
102
RTVSPropertyOp40
 70
     0
102
RTVSPropertyOp41
 70
     0
102
RTVSPropertyOp42
 70
     0
102
RTVSPropertyOp43
 70
     0
102
RTVSPropertyOp44
 70
     0
102
RTVSPropertyOp45
 70
     1
102
RTVSPropertyOp46
 70
     0
102
RTVSPropertyOp47
 70
     0
102
RTVSPropertyOp48
 70
     0
102
RTVSPropertyOp49
 70
     1
102
RTVSPropertyOp50
 70
     0
102
RTVSPropertyOp51
 70
     0
102
RTVSPropertyOp52
 70
     0
102
RTVSPropertyOp53
 70
     0
102
RTVSPropertyOp54
 70
     0
102
RTVSPropertyOp55
 70
     1
102
RTVSPropertyOp56
 70
     0
102
RTVSPropertyOp57
 70
     0
102
RTVSPropertyOp58
 70
     0
102
RTVSPropertyOp59
 70
     0
102
RTVSPropertyOp60
 70
     0
102
RTVSPropertyOp61
 70
     0
102
RTVSPropertyOp62
 70
     0
  0
XRECORD
  5
87AA
102
{ACAD_REACTORS
330
87A9
102
}
330
87A9
100
AcDbXrecord
280
     1
102
RTVSPost2010Prop28
280
     0
102
RTVSPost2010PropOp28
 70
     1
102
RTVSPost2010Prop29
280
     1
102
RTVSPost2010PropOp29
 70
     1
102
RTVSPost2010Prop30
280
     1
102
RTVSPost2010PropOp30
 70
     1
102
RTVSPost2010Prop31
280
     0
102
RTVSPost2010PropOp31
 70
     1
102
RTVSPost2010Prop32
280
     0
102
RTVSPost2010PropOp32
 70
     1
102
RTVSPost2010Prop33
280
     0
102
RTVSPost2010PropOp33
 70
     1
102
RTVSPost2010Prop34
280
     0
102
RTVSPost2010PropOp34
 70
     1
102
RTVSPost2010Prop35
280
     0
102
RTVSPost2010PropOp35
 70
     1
102
RTVSPost2010Prop36
280
     0
102
RTVSPost2010PropOp36
 70
     1
102
RTVSPost2010Prop37
 90
       50
102
RTVSPost2010PropOp37
 70
     1
102
RTVSPost2010Prop38
140
0.0
102
RTVSPost2010PropOp38
 70
     1
102
RTVSPost2010Prop39
140
1.0
102
RTVSPost2010PropOp39
 70
     1
102
RTVSPost2010Prop40
 90
        0
102
RTVSPost2010PropOp40
 70
     1
102
RTVSPost2010Prop41ColorIndex
 90
       18
102
RTVSPost2010Prop41ColorRGB
 90
        0
102
RTVSPost2010PropOp41
 70
     1
102
RTVSPost2010Prop42
 90
       50
102
RTVSPost2010PropOp42
 70
     1
102
RTVSPost2010Prop43
 90
        3
102
RTVSPost2010PropOp43
 70
     1
102
RTVSPost2010Prop44ColorIndex
 90
        5
102
RTVSPost2010Prop44ColorRGB
 90
      255
102
RTVSPost2010PropOp44
 70
     1
102
RTVSPost2010Prop45
280
     0
102
RTVSPost2010PropOp45
 70
     1
102
RTVSPost2010Prop46
 90
       50
102
RTVSPost2010PropOp46
 70
     1
102
RTVSPost2010Prop47
 90
       50
102
RTVSPost2010PropOp47
 70
     1
102
RTVSPost2010Prop48
 90
       50
102
RTVSPost2010PropOp48
 70
     1
102
RTVSPost2010Prop49
280
     0
102
RTVSPost2010PropOp49
 70
     1
102
RTVSPost2010Prop50
 90
       50
102
RTVSPost2010PropOp50
 70
     1
102
RTVSPost2010Prop51ColorIndex
 90
      256
102
RTVSPost2010Prop51ColorRGB
 90
-16777216
102
RTVSPost2010PropOp51
 70
     0
102
RTVSPost2010Prop52
140
1.0
102
RTVSPost2010PropOp52
 70
     0
102
RTVSPost2010Prop53
 90
        2
102
RTVSPost2010PropOp53
 70
     1
102
RTVSPost2010Prop54
  1
strokes_ogs.tif
102
RTVSPost2010PropOp54
 70
     1
102
RTVSPost2010Prop55
280
     0
102
RTVSPost2010PropOp55
 70
     1
102
RTVSPost2010Prop56
140
1.0
102
RTVSPost2010PropOp56
 70
     1
102
RTVSPost2010Prop57
140
1.0
102
RTVSPost2010PropOp57
 70
     1
102
RTVSPropertyOp0
 70
     1
102
RTVSPropertyOp1
 70
     1
102
RTVSPropertyOp2
 70
     1
102
RTVSPropertyOp3
 70
     1
102
RTVSPropertyOp4
 70
     1
102
RTVSPropertyOp5
 70
     1
102
RTVSPropertyOp6
 70
     1
102
RTVSPropertyOp7
 70
     1
102
RTVSPropertyOp8
 70
     1
102
RTVSPropertyOp9
 70
     1
102
RTVSPropertyOp10
 70
     1
102
RTVSPropertyOp11
 70
     1
102
RTVSPropertyOp12
 70
     1
102
RTVSPropertyOp13
 70
     1
102
RTVSPropertyOp14
 70
     1
102
RTVSPropertyOp15
 70
     1
102
RTVSPropertyOp16
 70
     1
102
RTVSPropertyOp17
 70
     1
102
RTVSPropertyOp18
 70
     1
102
RTVSPropertyOp19
 70
     1
102
RTVSPropertyOp20
 70
     1
102
RTVSPropertyOp21
 70
     1
102
RTVSPropertyOp22
 70
     1
102
RTVSPropertyOp23
 70
     1
102
RTVSPropertyOp24
 70
     1
102
RTVSPropertyOp25
 70
     1
102
RTVSPropertyOp26
 70
     1
102
RTVSPropertyOp27
 70
     1
102
RTVSPropertyOp28
 70
     1
102
RTVSPropertyOp29
 70
     1
102
RTVSPropertyOp30
 70
     1
102
RTVSPropertyOp31
 70
     1
102
RTVSPropertyOp32
 70
     1
102
RTVSPropertyOp33
 70
     1
102
RTVSPropertyOp34
 70
     1
102
RTVSPropertyOp35
 70
     1
102
RTVSPropertyOp36
 70
     1
102
RTVSPropertyOp37
 70
     1
102
RTVSPropertyOp38
 70
     1
102
RTVSPropertyOp39
 70
     1
102
RTVSPropertyOp40
 70
     1
102
RTVSPropertyOp41
 70
     1
102
RTVSPropertyOp42
 70
     1
102
RTVSPropertyOp43
 70
     1
102
RTVSPropertyOp44
 70
     1
102
RTVSPropertyOp45
 70
     1
102
RTVSPropertyOp46
 70
     1
102
RTVSPropertyOp47
 70
     1
102
RTVSPropertyOp48
 70
     1
102
RTVSPropertyOp49
 70
     1
102
RTVSPropertyOp50
 70
     1
102
RTVSPropertyOp51
 70
     0
102
RTVSPropertyOp52
 70
     0
102
RTVSPropertyOp53
 70
     1
102
RTVSPropertyOp54
 70
     1
102
RTVSPropertyOp55
 70
     1
102
RTVSPropertyOp56
 70
     1
102
RTVSPropertyOp57
 70
     1
102
RTVSPropertyOp58
 70
     1
102
RTVSPropertyOp59
 70
     1
102
RTVSPropertyOp60
 70
     1
102
RTVSPropertyOp61
 70
     1
102
RTVSPropertyOp62
 70
     1
  0
XRECORD
  5
87BC
102
{ACAD_REACTORS
330
87BB
102
}
330
87BB
100
AcDbXrecord
280
     1
102
RTVSPost2010Prop28
280
     0
102
RTVSPost2010PropOp28
 70
     1
102
RTVSPost2010Prop29
280
     1
102
RTVSPost2010PropOp29
 70
     1
102
RTVSPost2010Prop30
280
     1
102
RTVSPost2010PropOp30
 70
     1
102
RTVSPost2010Prop31
280
     0
102
RTVSPost2010PropOp31
 70
     1
102
RTVSPost2010Prop32
280
     0
102
RTVSPost2010PropOp32
 70
     1
102
RTVSPost2010Prop33
280
     0
102
RTVSPost2010PropOp33
 70
     1
102
RTVSPost2010Prop34
280
     0
102
RTVSPost2010PropOp34
 70
     1
102
RTVSPost2010Prop35
280
     0
102
RTVSPost2010PropOp35
 70
     1
102
RTVSPost2010Prop36
280
     0
102
RTVSPost2010PropOp36
 70
     1
102
RTVSPost2010Prop37
 90
       50
102
RTVSPost2010PropOp37
 70
     0
102
RTVSPost2010Prop38
140
0.0
102
RTVSPost2010PropOp38
 70
     0
102
RTVSPost2010Prop39
140
1.0
102
RTVSPost2010PropOp39
 70
     0
102
RTVSPost2010Prop40
 90
        0
102
RTVSPost2010PropOp40
 70
     0
102
RTVSPost2010Prop41ColorIndex
 90
       18
102
RTVSPost2010Prop41ColorRGB
 90
        0
102
RTVSPost2010PropOp41
 70
     0
102
RTVSPost2010Prop42
 90
       50
102
RTVSPost2010PropOp42
 70
     0
102
RTVSPost2010Prop43
 90
        3
102
RTVSPost2010PropOp43
 70
     0
102
RTVSPost2010Prop44ColorIndex
 90
        5
102
RTVSPost2010Prop44ColorRGB
 90
      255
102
RTVSPost2010PropOp44
 70
     0
102
RTVSPost2010Prop45
280
     0
102
RTVSPost2010PropOp45
 70
     1
102
RTVSPost2010Prop46
 90
       50
102
RTVSPost2010PropOp46
 70
     0
102
RTVSPost2010Prop47
 90
       50
102
RTVSPost2010PropOp47
 70
     0
102
RTVSPost2010Prop48
 90
       50
102
RTVSPost2010PropOp48
 70
     0
102
RTVSPost2010Prop49
280
     0
102
RTVSPost2010PropOp49
 70
     1
102
RTVSPost2010Prop50
 90
       50
102
RTVSPost2010PropOp50
 70
     0
102
RTVSPost2010Prop51ColorIndex
 90
      256
102
RTVSPost2010Prop51ColorRGB
 90
-16777216
102
RTVSPost2010PropOp51
 70
     0
102
RTVSPost2010Prop52
140
1.0
102
RTVSPost2010PropOp52
 70
     0
102
RTVSPost2010Prop53
 90
        2
102
RTVSPost2010PropOp53
 70
     0
102
RTVSPost2010Prop54
  1
strokes_ogs.tif
102
RTVSPost2010PropOp54
 70
     0
102
RTVSPost2010Prop55
280
     0
102
RTVSPost2010PropOp55
 70
     1
102
RTVSPost2010Prop56
140
1.0
102
RTVSPost2010PropOp56
 70
     0
102
RTVSPost2010Prop57
140
1.0
102
RTVSPost2010PropOp57
 70
     0
102
RTVSPropertyOp0
 70
     0
102
RTVSPropertyOp1
 70
     0
102
RTVSPropertyOp2
 70
     0
102
RTVSPropertyOp3
 70
     0
102
RTVSPropertyOp4
 70
     0
102
RTVSPropertyOp5
 70
     0
102
RTVSPropertyOp6
 70
     0
102
RTVSPropertyOp7
 70
     0
102
RTVSPropertyOp8
 70
     0
102
RTVSPropertyOp9
 70
     0
102
RTVSPropertyOp10
 70
     0
102
RTVSPropertyOp11
 70
     0
102
RTVSPropertyOp12
 70
     0
102
RTVSPropertyOp13
 70
     0
102
RTVSPropertyOp14
 70
     2
102
RTVSPropertyOp15
 70
     0
102
RTVSPropertyOp16
 70
     0
102
RTVSPropertyOp17
 70
     0
102
RTVSPropertyOp18
 70
     0
102
RTVSPropertyOp19
 70
     0
102
RTVSPropertyOp20
 70
     0
102
RTVSPropertyOp21
 70
     0
102
RTVSPropertyOp22
 70
     0
102
RTVSPropertyOp23
 70
     0
102
RTVSPropertyOp24
 70
     0
102
RTVSPropertyOp25
 70
     0
102
RTVSPropertyOp26
 70
     0
102
RTVSPropertyOp27
 70
     0
102
RTVSPropertyOp28
 70
     1
102
RTVSPropertyOp29
 70
     1
102
RTVSPropertyOp30
 70
     1
102
RTVSPropertyOp31
 70
     1
102
RTVSPropertyOp32
 70
     1
102
RTVSPropertyOp33
 70
     1
102
RTVSPropertyOp34
 70
     1
102
RTVSPropertyOp35
 70
     1
102
RTVSPropertyOp36
 70
     1
102
RTVSPropertyOp37
 70
     0
102
RTVSPropertyOp38
 70
     0
102
RTVSPropertyOp39
 70
     0
102
RTVSPropertyOp40
 70
     0
102
RTVSPropertyOp41
 70
     0
102
RTVSPropertyOp42
 70
     0
102
RTVSPropertyOp43
 70
     0
102
RTVSPropertyOp44
 70
     0
102
RTVSPropertyOp45
 70
     1
102
RTVSPropertyOp46
 70
     0
102
RTVSPropertyOp47
 70
     0
102
RTVSPropertyOp48
 70
     0
102
RTVSPropertyOp49
 70
     1
102
RTVSPropertyOp50
 70
     0
102
RTVSPropertyOp51
 70
     0
102
RTVSPropertyOp52
 70
     0
102
RTVSPropertyOp53
 70
     0
102
RTVSPropertyOp54
 70
     0
102
RTVSPropertyOp55
 70
     1
102
RTVSPropertyOp56
 70
     0
102
RTVSPropertyOp57
 70
     0
102
RTVSPropertyOp58
 70
     0
102
RTVSPropertyOp59
 70
     0
102
RTVSPropertyOp60
 70
     0
102
RTVSPropertyOp61
 70
     0
102
RTVSPropertyOp62
 70
     0
  0
XRECORD
  5
87A2
102
{ACAD_REACTORS
330
87A1
102
}
330
87A1
100
AcDbXrecord
280
     1
102
RTVSPost2010Prop28
280
     0
102
RTVSPost2010PropOp28
 70
     1
102
RTVSPost2010Prop29
280
     1
102
RTVSPost2010PropOp29
 70
     1
102
RTVSPost2010Prop30
280
     1
102
RTVSPost2010PropOp30
 70
     1
102
RTVSPost2010Prop31
280
     0
102
RTVSPost2010PropOp31
 70
     1
102
RTVSPost2010Prop32
280
     0
102
RTVSPost2010PropOp32
 70
     1
102
RTVSPost2010Prop33
280
     0
102
RTVSPost2010PropOp33
 70
     1
102
RTVSPost2010Prop34
280
     0
102
RTVSPost2010PropOp34
 70
     1
102
RTVSPost2010Prop35
280
     0
102
RTVSPost2010PropOp35
 70
     1
102
RTVSPost2010Prop36
280
     0
102
RTVSPost2010PropOp36
 70
     1
102
RTVSPost2010Prop37
 90
       50
102
RTVSPost2010PropOp37
 70
     1
102
RTVSPost2010Prop38
140
0.0
102
RTVSPost2010PropOp38
 70
     1
102
RTVSPost2010Prop39
140
1.0
102
RTVSPost2010PropOp39
 70
     1
102
RTVSPost2010Prop40
 90
        0
102
RTVSPost2010PropOp40
 70
     1
102
RTVSPost2010Prop41ColorIndex
 90
       18
102
RTVSPost2010Prop41ColorRGB
 90
        0
102
RTVSPost2010PropOp41
 70
     1
102
RTVSPost2010Prop42
 90
       50
102
RTVSPost2010PropOp42
 70
     1
102
RTVSPost2010Prop43
 90
        3
102
RTVSPost2010PropOp43
 70
     1
102
RTVSPost2010Prop44ColorIndex
 90
        5
102
RTVSPost2010Prop44ColorRGB
 90
      255
102
RTVSPost2010PropOp44
 70
     1
102
RTVSPost2010Prop45
280
     0
102
RTVSPost2010PropOp45
 70
     1
102
RTVSPost2010Prop46
 90
       50
102
RTVSPost2010PropOp46
 70
     1
102
RTVSPost2010Prop47
 90
       50
102
RTVSPost2010PropOp47
 70
     1
102
RTVSPost2010Prop48
 90
       50
102
RTVSPost2010PropOp48
 70
     1
102
RTVSPost2010Prop49
280
     0
102
RTVSPost2010PropOp49
 70
     1
102
RTVSPost2010Prop50
 90
       50
102
RTVSPost2010PropOp50
 70
     1
102
RTVSPost2010Prop51ColorIndex
 90
      256
102
RTVSPost2010Prop51ColorRGB
 90
-16777216
102
RTVSPost2010PropOp51
 70
     0
102
RTVSPost2010Prop52
140
1.0
102
RTVSPost2010PropOp52
 70
     0
102
RTVSPost2010Prop53
 90
        2
102
RTVSPost2010PropOp53
 70
     1
102
RTVSPost2010Prop54
  1
strokes_ogs.tif
102
RTVSPost2010PropOp54
 70
     1
102
RTVSPost2010Prop55
280
     0
102
RTVSPost2010PropOp55
 70
     1
102
RTVSPost2010Prop56
140
1.0
102
RTVSPost2010PropOp56
 70
     1
102
RTVSPost2010Prop57
140
1.0
102
RTVSPost2010PropOp57
 70
     1
102
RTVSPropertyOp0
 70
     1
102
RTVSPropertyOp1
 70
     1
102
RTVSPropertyOp2
 70
     1
102
RTVSPropertyOp3
 70
     1
102
RTVSPropertyOp4
 70
     1
102
RTVSPropertyOp5
 70
     1
102
RTVSPropertyOp6
 70
     1
102
RTVSPropertyOp7
 70
     1
102
RTVSPropertyOp8
 70
     1
102
RTVSPropertyOp9
 70
     1
102
RTVSPropertyOp10
 70
     1
102
RTVSPropertyOp11
 70
     1
102
RTVSPropertyOp12
 70
     1
102
RTVSPropertyOp13
 70
     1
102
RTVSPropertyOp14
 70
     1
102
RTVSPropertyOp15
 70
     1
102
RTVSPropertyOp16
 70
     1
102
RTVSPropertyOp17
 70
     1
102
RTVSPropertyOp18
 70
     1
102
RTVSPropertyOp19
 70
     1
102
RTVSPropertyOp20
 70
     1
102
RTVSPropertyOp21
 70
     1
102
RTVSPropertyOp22
 70
     1
102
RTVSPropertyOp23
 70
     1
102
RTVSPropertyOp24
 70
     1
102
RTVSPropertyOp25
 70
     1
102
RTVSPropertyOp26
 70
     1
102
RTVSPropertyOp27
 70
     1
102
RTVSPropertyOp28
 70
     1
102
RTVSPropertyOp29
 70
     1
102
RTVSPropertyOp30
 70
     1
102
RTVSPropertyOp31
 70
     1
102
RTVSPropertyOp32
 70
     1
102
RTVSPropertyOp33
 70
     1
102
RTVSPropertyOp34
 70
     1
102
RTVSPropertyOp35
 70
     1
102
RTVSPropertyOp36
 70
     1
102
RTVSPropertyOp37
 70
     1
102
RTVSPropertyOp38
 70
     1
102
RTVSPropertyOp39
 70
     1
102
RTVSPropertyOp40
 70
     1
102
RTVSPropertyOp41
 70
     1
102
RTVSPropertyOp42
 70
     1
102
RTVSPropertyOp43
 70
     1
102
RTVSPropertyOp44
 70
     1
102
RTVSPropertyOp45
 70
     1
102
RTVSPropertyOp46
 70
     1
102
RTVSPropertyOp47
 70
     1
102
RTVSPropertyOp48
 70
     1
102
RTVSPropertyOp49
 70
     1
102
RTVSPropertyOp50
 70
     1
102
RTVSPropertyOp51
 70
     0
102
RTVSPropertyOp52
 70
     0
102
RTVSPropertyOp53
 70
     1
102
RTVSPropertyOp54
 70
     1
102
RTVSPropertyOp55
 70
     1
102
RTVSPropertyOp56
 70
     1
102
RTVSPropertyOp57
 70
     1
102
RTVSPropertyOp58
 70
     1
102
RTVSPropertyOp59
 70
     1
102
RTVSPropertyOp60
 70
     1
102
RTVSPropertyOp61
 70
     1
102
RTVSPropertyOp62
 70
     1
  0
XRECORD
  5
87B8
102
{ACAD_REACTORS
330
87B7
102
}
330
87B7
100
AcDbXrecord
280
     1
102
RTVSPost2010Prop28
280
     0
102
RTVSPost2010PropOp28
 70
     1
102
RTVSPost2010Prop29
280
     1
102
RTVSPost2010PropOp29
 70
     1
102
RTVSPost2010Prop30
280
     1
102
RTVSPost2010PropOp30
 70
     1
102
RTVSPost2010Prop31
280
     0
102
RTVSPost2010PropOp31
 70
     1
102
RTVSPost2010Prop32
280
     0
102
RTVSPost2010PropOp32
 70
     1
102
RTVSPost2010Prop33
280
     0
102
RTVSPost2010PropOp33
 70
     1
102
RTVSPost2010Prop34
280
     0
102
RTVSPost2010PropOp34
 70
     1
102
RTVSPost2010Prop35
280
     0
102
RTVSPost2010PropOp35
 70
     1
102
RTVSPost2010Prop36
280
     0
102
RTVSPost2010PropOp36
 70
     1
102
RTVSPost2010Prop37
 90
       50
102
RTVSPost2010PropOp37
 70
     1
102
RTVSPost2010Prop38
140
0.0
102
RTVSPost2010PropOp38
 70
     1
102
RTVSPost2010Prop39
140
1.0
102
RTVSPost2010PropOp39
 70
     1
102
RTVSPost2010Prop40
 90
        0
102
RTVSPost2010PropOp40
 70
     1
102
RTVSPost2010Prop41ColorIndex
 90
       18
102
RTVSPost2010Prop41ColorRGB
 90
        0
102
RTVSPost2010PropOp41
 70
     1
102
RTVSPost2010Prop42
 90
       50
102
RTVSPost2010PropOp42
 70
     1
102
RTVSPost2010Prop43
 90
        3
102
RTVSPost2010PropOp43
 70
     1
102
RTVSPost2010Prop44ColorIndex
 90
        5
102
RTVSPost2010Prop44ColorRGB
 90
      255
102
RTVSPost2010PropOp44
 70
     1
102
RTVSPost2010Prop45
280
     0
102
RTVSPost2010PropOp45
 70
     1
102
RTVSPost2010Prop46
 90
       50
102
RTVSPost2010PropOp46
 70
     1
102
RTVSPost2010Prop47
 90
       50
102
RTVSPost2010PropOp47
 70
     1
102
RTVSPost2010Prop48
 90
       50
102
RTVSPost2010PropOp48
 70
     1
102
RTVSPost2010Prop49
280
     0
102
RTVSPost2010PropOp49
 70
     1
102
RTVSPost2010Prop50
 90
       50
102
RTVSPost2010PropOp50
 70
     1
102
RTVSPost2010Prop51ColorIndex
 90
      256
102
RTVSPost2010Prop51ColorRGB
 90
-16777216
102
RTVSPost2010PropOp51
 70
     0
102
RTVSPost2010Prop52
140
1.0
102
RTVSPost2010PropOp52
 70
     0
102
RTVSPost2010Prop53
 90
        2
102
RTVSPost2010PropOp53
 70
     1
102
RTVSPost2010Prop54
  1
strokes_ogs.tif
102
RTVSPost2010PropOp54
 70
     1
102
RTVSPost2010Prop55
280
     0
102
RTVSPost2010PropOp55
 70
     1
102
RTVSPost2010Prop56
140
1.0
102
RTVSPost2010PropOp56
 70
     1
102
RTVSPost2010Prop57
140
1.0
102
RTVSPost2010PropOp57
 70
     1
102
RTVSPropertyOp0
 70
     1
102
RTVSPropertyOp1
 70
     1
102
RTVSPropertyOp2
 70
     1
102
RTVSPropertyOp3
 70
     1
102
RTVSPropertyOp4
 70
     1
102
RTVSPropertyOp5
 70
     1
102
RTVSPropertyOp6
 70
     1
102
RTVSPropertyOp7
 70
     1
102
RTVSPropertyOp8
 70
     1
102
RTVSPropertyOp9
 70
     1
102
RTVSPropertyOp10
 70
     1
102
RTVSPropertyOp11
 70
     1
102
RTVSPropertyOp12
 70
     1
102
RTVSPropertyOp13
 70
     1
102
RTVSPropertyOp14
 70
     1
102
RTVSPropertyOp15
 70
     1
102
RTVSPropertyOp16
 70
     1
102
RTVSPropertyOp17
 70
     1
102
RTVSPropertyOp18
 70
     1
102
RTVSPropertyOp19
 70
     1
102
RTVSPropertyOp20
 70
     1
102
RTVSPropertyOp21
 70
     1
102
RTVSPropertyOp22
 70
     1
102
RTVSPropertyOp23
 70
     1
102
RTVSPropertyOp24
 70
     1
102
RTVSPropertyOp25
 70
     1
102
RTVSPropertyOp26
 70
     1
102
RTVSPropertyOp27
 70
     1
102
RTVSPropertyOp28
 70
     1
102
RTVSPropertyOp29
 70
     1
102
RTVSPropertyOp30
 70
     1
102
RTVSPropertyOp31
 70
     1
102
RTVSPropertyOp32
 70
     1
102
RTVSPropertyOp33
 70
     1
102
RTVSPropertyOp34
 70
     1
102
RTVSPropertyOp35
 70
     1
102
RTVSPropertyOp36
 70
     1
102
RTVSPropertyOp37
 70
     1
102
RTVSPropertyOp38
 70
     1
102
RTVSPropertyOp39
 70
     1
102
RTVSPropertyOp40
 70
     1
102
RTVSPropertyOp41
 70
     1
102
RTVSPropertyOp42
 70
     1
102
RTVSPropertyOp43
 70
     1
102
RTVSPropertyOp44
 70
     1
102
RTVSPropertyOp45
 70
     1
102
RTVSPropertyOp46
 70
     1
102
RTVSPropertyOp47
 70
     1
102
RTVSPropertyOp48
 70
     1
102
RTVSPropertyOp49
 70
     1
102
RTVSPropertyOp50
 70
     1
102
RTVSPropertyOp51
 70
     0
102
RTVSPropertyOp52
 70
     0
102
RTVSPropertyOp53
 70
     1
102
RTVSPropertyOp54
 70
     1
102
RTVSPropertyOp55
 70
     1
102
RTVSPropertyOp56
 70
     1
102
RTVSPropertyOp57
 70
     1
102
RTVSPropertyOp58
 70
     1
102
RTVSPropertyOp59
 70
     1
102
RTVSPropertyOp60
 70
     1
102
RTVSPropertyOp61
 70
     1
102
RTVSPropertyOp62
 70
     1
  0
XRECORD
  5
87B6
102
{ACAD_REACTORS
330
87B5
102
}
330
87B5
100
AcDbXrecord
280
     1
102
RTVSPost2010Prop28
280
     0
102
RTVSPost2010PropOp28
 70
     1
102
RTVSPost2010Prop29
280
     1
102
RTVSPost2010PropOp29
 70
     1
102
RTVSPost2010Prop30
280
     1
102
RTVSPost2010PropOp30
 70
     1
102
RTVSPost2010Prop31
280
     0
102
RTVSPost2010PropOp31
 70
     1
102
RTVSPost2010Prop32
280
     0
102
RTVSPost2010PropOp32
 70
     1
102
RTVSPost2010Prop33
280
     0
102
RTVSPost2010PropOp33
 70
     1
102
RTVSPost2010Prop34
280
     0
102
RTVSPost2010PropOp34
 70
     1
102
RTVSPost2010Prop35
280
     0
102
RTVSPost2010PropOp35
 70
     1
102
RTVSPost2010Prop36
280
     0
102
RTVSPost2010PropOp36
 70
     1
102
RTVSPost2010Prop37
 90
       50
102
RTVSPost2010PropOp37
 70
     1
102
RTVSPost2010Prop38
140
0.0
102
RTVSPost2010PropOp38
 70
     1
102
RTVSPost2010Prop39
140
1.0
102
RTVSPost2010PropOp39
 70
     1
102
RTVSPost2010Prop40
 90
        0
102
RTVSPost2010PropOp40
 70
     1
102
RTVSPost2010Prop41ColorIndex
 90
       18
102
RTVSPost2010Prop41ColorRGB
 90
        0
102
RTVSPost2010PropOp41
 70
     1
102
RTVSPost2010Prop42
 90
       50
102
RTVSPost2010PropOp42
 70
     1
102
RTVSPost2010Prop43
 90
        3
102
RTVSPost2010PropOp43
 70
     1
102
RTVSPost2010Prop44ColorIndex
 90
        5
102
RTVSPost2010Prop44ColorRGB
 90
      255
102
RTVSPost2010PropOp44
 70
     1
102
RTVSPost2010Prop45
280
     0
102
RTVSPost2010PropOp45
 70
     1
102
RTVSPost2010Prop46
 90
       50
102
RTVSPost2010PropOp46
 70
     1
102
RTVSPost2010Prop47
 90
       50
102
RTVSPost2010PropOp47
 70
     1
102
RTVSPost2010Prop48
 90
       50
102
RTVSPost2010PropOp48
 70
     1
102
RTVSPost2010Prop49
280
     0
102
RTVSPost2010PropOp49
 70
     1
102
RTVSPost2010Prop50
 90
       50
102
RTVSPost2010PropOp50
 70
     1
102
RTVSPost2010Prop51ColorIndex
 90
      256
102
RTVSPost2010Prop51ColorRGB
 90
-16777216
102
RTVSPost2010PropOp51
 70
     0
102
RTVSPost2010Prop52
140
1.0
102
RTVSPost2010PropOp52
 70
     0
102
RTVSPost2010Prop53
 90
        2
102
RTVSPost2010PropOp53
 70
     1
102
RTVSPost2010Prop54
  1
strokes_ogs.tif
102
RTVSPost2010PropOp54
 70
     1
102
RTVSPost2010Prop55
280
     0
102
RTVSPost2010PropOp55
 70
     1
102
RTVSPost2010Prop56
140
1.0
102
RTVSPost2010PropOp56
 70
     1
102
RTVSPost2010Prop57
140
1.0
102
RTVSPost2010PropOp57
 70
     1
102
RTVSPropertyOp0
 70
     1
102
RTVSPropertyOp1
 70
     1
102
RTVSPropertyOp2
 70
     1
102
RTVSPropertyOp3
 70
     1
102
RTVSPropertyOp4
 70
     1
102
RTVSPropertyOp5
 70
     1
102
RTVSPropertyOp6
 70
     1
102
RTVSPropertyOp7
 70
     1
102
RTVSPropertyOp8
 70
     1
102
RTVSPropertyOp9
 70
     1
102
RTVSPropertyOp10
 70
     1
102
RTVSPropertyOp11
 70
     1
102
RTVSPropertyOp12
 70
     1
102
RTVSPropertyOp13
 70
     1
102
RTVSPropertyOp14
 70
     1
102
RTVSPropertyOp15
 70
     1
102
RTVSPropertyOp16
 70
     1
102
RTVSPropertyOp17
 70
     1
102
RTVSPropertyOp18
 70
     1
102
RTVSPropertyOp19
 70
     1
102
RTVSPropertyOp20
 70
     1
102
RTVSPropertyOp21
 70
     1
102
RTVSPropertyOp22
 70
     1
102
RTVSPropertyOp23
 70
     1
102
RTVSPropertyOp24
 70
     1
102
RTVSPropertyOp25
 70
     1
102
RTVSPropertyOp26
 70
     1
102
RTVSPropertyOp27
 70
     1
102
RTVSPropertyOp28
 70
     1
102
RTVSPropertyOp29
 70
     1
102
RTVSPropertyOp30
 70
     1
102
RTVSPropertyOp31
 70
     1
102
RTVSPropertyOp32
 70
     1
102
RTVSPropertyOp33
 70
     1
102
RTVSPropertyOp34
 70
     1
102
RTVSPropertyOp35
 70
     1
102
RTVSPropertyOp36
 70
     1
102
RTVSPropertyOp37
 70
     1
102
RTVSPropertyOp38
 70
     1
102
RTVSPropertyOp39
 70
     1
102
RTVSPropertyOp40
 70
     1
102
RTVSPropertyOp41
 70
     1
102
RTVSPropertyOp42
 70
     1
102
RTVSPropertyOp43
 70
     1
102
RTVSPropertyOp44
 70
     1
102
RTVSPropertyOp45
 70
     1
102
RTVSPropertyOp46
 70
     1
102
RTVSPropertyOp47
 70
     1
102
RTVSPropertyOp48
 70
     1
102
RTVSPropertyOp49
 70
     1
102
RTVSPropertyOp50
 70
     1
102
RTVSPropertyOp51
 70
     0
102
RTVSPropertyOp52
 70
     0
102
RTVSPropertyOp53
 70
     1
102
RTVSPropertyOp54
 70
     1
102
RTVSPropertyOp55
 70
     1
102
RTVSPropertyOp56
 70
     1
102
RTVSPropertyOp57
 70
     1
102
RTVSPropertyOp58
 70
     1
102
RTVSPropertyOp59
 70
     1
102
RTVSPropertyOp60
 70
     1
102
RTVSPropertyOp61
 70
     1
102
RTVSPropertyOp62
 70
     1
  0
XRECORD
  5
87B0
102
{ACAD_REACTORS
330
87AF
102
}
330
87AF
100
AcDbXrecord
280
     1
102
RTVSPost2010Prop28
280
     0
102
RTVSPost2010PropOp28
 70
     1
102
RTVSPost2010Prop29
280
     1
102
RTVSPost2010PropOp29
 70
     1
102
RTVSPost2010Prop30
280
     1
102
RTVSPost2010PropOp30
 70
     1
102
RTVSPost2010Prop31
280
     0
102
RTVSPost2010PropOp31
 70
     1
102
RTVSPost2010Prop32
280
     0
102
RTVSPost2010PropOp32
 70
     1
102
RTVSPost2010Prop33
280
     0
102
RTVSPost2010PropOp33
 70
     1
102
RTVSPost2010Prop34
280
     0
102
RTVSPost2010PropOp34
 70
     1
102
RTVSPost2010Prop35
280
     0
102
RTVSPost2010PropOp35
 70
     1
102
RTVSPost2010Prop36
280
     0
102
RTVSPost2010PropOp36
 70
     1
102
RTVSPost2010Prop37
 90
       50
102
RTVSPost2010PropOp37
 70
     1
102
RTVSPost2010Prop38
140
0.0
102
RTVSPost2010PropOp38
 70
     1
102
RTVSPost2010Prop39
140
1.0
102
RTVSPost2010PropOp39
 70
     1
102
RTVSPost2010Prop40
 90
        0
102
RTVSPost2010PropOp40
 70
     1
102
RTVSPost2010Prop41ColorIndex
 90
       18
102
RTVSPost2010Prop41ColorRGB
 90
        0
102
RTVSPost2010PropOp41
 70
     1
102
RTVSPost2010Prop42
 90
       50
102
RTVSPost2010PropOp42
 70
     1
102
RTVSPost2010Prop43
 90
        3
102
RTVSPost2010PropOp43
 70
     1
102
RTVSPost2010Prop44ColorIndex
 90
        5
102
RTVSPost2010Prop44ColorRGB
 90
      255
102
RTVSPost2010PropOp44
 70
     1
102
RTVSPost2010Prop45
280
     0
102
RTVSPost2010PropOp45
 70
     1
102
RTVSPost2010Prop46
 90
       50
102
RTVSPost2010PropOp46
 70
     1
102
RTVSPost2010Prop47
 90
       50
102
RTVSPost2010PropOp47
 70
     1
102
RTVSPost2010Prop48
 90
       50
102
RTVSPost2010PropOp48
 70
     1
102
RTVSPost2010Prop49
280
     0
102
RTVSPost2010PropOp49
 70
     1
102
RTVSPost2010Prop50
 90
       50
102
RTVSPost2010PropOp50
 70
     1
102
RTVSPost2010Prop51ColorIndex
 90
      256
102
RTVSPost2010Prop51ColorRGB
 90
-16777216
102
RTVSPost2010PropOp51
 70
     0
102
RTVSPost2010Prop52
140
1.0
102
RTVSPost2010PropOp52
 70
     0
102
RTVSPost2010Prop53
 90
        2
102
RTVSPost2010PropOp53
 70
     1
102
RTVSPost2010Prop54
  1
strokes_ogs.tif
102
RTVSPost2010PropOp54
 70
     1
102
RTVSPost2010Prop55
280
     0
102
RTVSPost2010PropOp55
 70
     1
102
RTVSPost2010Prop56
140
1.0
102
RTVSPost2010PropOp56
 70
     1
102
RTVSPost2010Prop57
140
1.0
102
RTVSPost2010PropOp57
 70
     1
102
RTVSPropertyOp0
 70
     1
102
RTVSPropertyOp1
 70
     1
102
RTVSPropertyOp2
 70
     1
102
RTVSPropertyOp3
 70
     1
102
RTVSPropertyOp4
 70
     1
102
RTVSPropertyOp5
 70
     1
102
RTVSPropertyOp6
 70
     1
102
RTVSPropertyOp7
 70
     1
102
RTVSPropertyOp8
 70
     1
102
RTVSPropertyOp9
 70
     1
102
RTVSPropertyOp10
 70
     1
102
RTVSPropertyOp11
 70
     1
102
RTVSPropertyOp12
 70
     1
102
RTVSPropertyOp13
 70
     1
102
RTVSPropertyOp14
 70
     1
102
RTVSPropertyOp15
 70
     1
102
RTVSPropertyOp16
 70
     1
102
RTVSPropertyOp17
 70
     1
102
RTVSPropertyOp18
 70
     1
102
RTVSPropertyOp19
 70
     1
102
RTVSPropertyOp20
 70
     1
102
RTVSPropertyOp21
 70
     1
102
RTVSPropertyOp22
 70
     1
102
RTVSPropertyOp23
 70
     1
102
RTVSPropertyOp24
 70
     1
102
RTVSPropertyOp25
 70
     1
102
RTVSPropertyOp26
 70
     1
102
RTVSPropertyOp27
 70
     1
102
RTVSPropertyOp28
 70
     1
102
RTVSPropertyOp29
 70
     1
102
RTVSPropertyOp30
 70
     1
102
RTVSPropertyOp31
 70
     1
102
RTVSPropertyOp32
 70
     1
102
RTVSPropertyOp33
 70
     1
102
RTVSPropertyOp34
 70
     1
102
RTVSPropertyOp35
 70
     1
102
RTVSPropertyOp36
 70
     1
102
RTVSPropertyOp37
 70
     1
102
RTVSPropertyOp38
 70
     1
102
RTVSPropertyOp39
 70
     1
102
RTVSPropertyOp40
 70
     1
102
RTVSPropertyOp41
 70
     1
102
RTVSPropertyOp42
 70
     1
102
RTVSPropertyOp43
 70
     1
102
RTVSPropertyOp44
 70
     1
102
RTVSPropertyOp45
 70
     1
102
RTVSPropertyOp46
 70
     1
102
RTVSPropertyOp47
 70
     1
102
RTVSPropertyOp48
 70
     1
102
RTVSPropertyOp49
 70
     1
102
RTVSPropertyOp50
 70
     1
102
RTVSPropertyOp51
 70
     0
102
RTVSPropertyOp52
 70
     0
102
RTVSPropertyOp53
 70
     1
102
RTVSPropertyOp54
 70
     1
102
RTVSPropertyOp55
 70
     1
102
RTVSPropertyOp56
 70
     1
102
RTVSPropertyOp57
 70
     1
102
RTVSPropertyOp58
 70
     1
102
RTVSPropertyOp59
 70
     1
102
RTVSPropertyOp60
 70
     1
102
RTVSPropertyOp61
 70
     1
102
RTVSPropertyOp62
 70
     1
  0
XRECORD
  5
87B2
102
{ACAD_REACTORS
330
87B1
102
}
330
87B1
100
AcDbXrecord
280
     1
102
RTVSPost2010Prop28
280
     0
102
RTVSPost2010PropOp28
 70
     1
102
RTVSPost2010Prop29
280
     1
102
RTVSPost2010PropOp29
 70
     1
102
RTVSPost2010Prop30
280
     1
102
RTVSPost2010PropOp30
 70
     1
102
RTVSPost2010Prop31
280
     0
102
RTVSPost2010PropOp31
 70
     1
102
RTVSPost2010Prop32
280
     0
102
RTVSPost2010PropOp32
 70
     1
102
RTVSPost2010Prop33
280
     0
102
RTVSPost2010PropOp33
 70
     1
102
RTVSPost2010Prop34
280
     0
102
RTVSPost2010PropOp34
 70
     1
102
RTVSPost2010Prop35
280
     0
102
RTVSPost2010PropOp35
 70
     1
102
RTVSPost2010Prop36
280
     0
102
RTVSPost2010PropOp36
 70
     1
102
RTVSPost2010Prop37
 90
       50
102
RTVSPost2010PropOp37
 70
     1
102
RTVSPost2010Prop38
140
0.0
102
RTVSPost2010PropOp38
 70
     1
102
RTVSPost2010Prop39
140
1.0
102
RTVSPost2010PropOp39
 70
     1
102
RTVSPost2010Prop40
 90
        0
102
RTVSPost2010PropOp40
 70
     1
102
RTVSPost2010Prop41ColorIndex
 90
       18
102
RTVSPost2010Prop41ColorRGB
 90
        0
102
RTVSPost2010PropOp41
 70
     1
102
RTVSPost2010Prop42
 90
       50
102
RTVSPost2010PropOp42
 70
     1
102
RTVSPost2010Prop43
 90
        3
102
RTVSPost2010PropOp43
 70
     1
102
RTVSPost2010Prop44ColorIndex
 90
        5
102
RTVSPost2010Prop44ColorRGB
 90
      255
102
RTVSPost2010PropOp44
 70
     1
102
RTVSPost2010Prop45
280
     0
102
RTVSPost2010PropOp45
 70
     1
102
RTVSPost2010Prop46
 90
       50
102
RTVSPost2010PropOp46
 70
     1
102
RTVSPost2010Prop47
 90
       50
102
RTVSPost2010PropOp47
 70
     1
102
RTVSPost2010Prop48
 90
       50
102
RTVSPost2010PropOp48
 70
     1
102
RTVSPost2010Prop49
280
     0
102
RTVSPost2010PropOp49
 70
     1
102
RTVSPost2010Prop50
 90
       50
102
RTVSPost2010PropOp50
 70
     1
102
RTVSPost2010Prop51ColorIndex
 90
      256
102
RTVSPost2010Prop51ColorRGB
 90
-16777216
102
RTVSPost2010PropOp51
 70
     0
102
RTVSPost2010Prop52
140
1.0
102
RTVSPost2010PropOp52
 70
     0
102
RTVSPost2010Prop53
 90
        2
102
RTVSPost2010PropOp53
 70
     1
102
RTVSPost2010Prop54
  1
strokes_ogs.tif
102
RTVSPost2010PropOp54
 70
     1
102
RTVSPost2010Prop55
280
     0
102
RTVSPost2010PropOp55
 70
     1
102
RTVSPost2010Prop56
140
1.0
102
RTVSPost2010PropOp56
 70
     1
102
RTVSPost2010Prop57
140
1.0
102
RTVSPost2010PropOp57
 70
     1
102
RTVSPropertyOp0
 70
     1
102
RTVSPropertyOp1
 70
     1
102
RTVSPropertyOp2
 70
     1
102
RTVSPropertyOp3
 70
     1
102
RTVSPropertyOp4
 70
     1
102
RTVSPropertyOp5
 70
     1
102
RTVSPropertyOp6
 70
     1
102
RTVSPropertyOp7
 70
     1
102
RTVSPropertyOp8
 70
     1
102
RTVSPropertyOp9
 70
     1
102
RTVSPropertyOp10
 70
     1
102
RTVSPropertyOp11
 70
     1
102
RTVSPropertyOp12
 70
     1
102
RTVSPropertyOp13
 70
     1
102
RTVSPropertyOp14
 70
     1
102
RTVSPropertyOp15
 70
     1
102
RTVSPropertyOp16
 70
     1
102
RTVSPropertyOp17
 70
     1
102
RTVSPropertyOp18
 70
     1
102
RTVSPropertyOp19
 70
     1
102
RTVSPropertyOp20
 70
     1
102
RTVSPropertyOp21
 70
     1
102
RTVSPropertyOp22
 70
     1
102
RTVSPropertyOp23
 70
     1
102
RTVSPropertyOp24
 70
     1
102
RTVSPropertyOp25
 70
     1
102
RTVSPropertyOp26
 70
     1
102
RTVSPropertyOp27
 70
     1
102
RTVSPropertyOp28
 70
     1
102
RTVSPropertyOp29
 70
     1
102
RTVSPropertyOp30
 70
     1
102
RTVSPropertyOp31
 70
     1
102
RTVSPropertyOp32
 70
     1
102
RTVSPropertyOp33
 70
     1
102
RTVSPropertyOp34
 70
     1
102
RTVSPropertyOp35
 70
     1
102
RTVSPropertyOp36
 70
     1
102
RTVSPropertyOp37
 70
     1
102
RTVSPropertyOp38
 70
     1
102
RTVSPropertyOp39
 70
     1
102
RTVSPropertyOp40
 70
     1
102
RTVSPropertyOp41
 70
     1
102
RTVSPropertyOp42
 70
     1
102
RTVSPropertyOp43
 70
     1
102
RTVSPropertyOp44
 70
     1
102
RTVSPropertyOp45
 70
     1
102
RTVSPropertyOp46
 70
     1
102
RTVSPropertyOp47
 70
     1
102
RTVSPropertyOp48
 70
     1
102
RTVSPropertyOp49
 70
     1
102
RTVSPropertyOp50
 70
     1
102
RTVSPropertyOp51
 70
     0
102
RTVSPropertyOp52
 70
     0
102
RTVSPropertyOp53
 70
     1
102
RTVSPropertyOp54
 70
     1
102
RTVSPropertyOp55
 70
     1
102
RTVSPropertyOp56
 70
     1
102
RTVSPropertyOp57
 70
     1
102
RTVSPropertyOp58
 70
     1
102
RTVSPropertyOp59
 70
     1
102
RTVSPropertyOp60
 70
     1
102
RTVSPropertyOp61
 70
     1
102
RTVSPropertyOp62
 70
     1
  0
XRECORD
  5
87A8
102
{ACAD_REACTORS
330
87A7
102
}
330
87A7
100
AcDbXrecord
280
     1
102
RTVSPost2010Prop28
280
     0
102
RTVSPost2010PropOp28
 70
     1
102
RTVSPost2010Prop29
280
     1
102
RTVSPost2010PropOp29
 70
     1
102
RTVSPost2010Prop30
280
     1
102
RTVSPost2010PropOp30
 70
     1
102
RTVSPost2010Prop31
280
     0
102
RTVSPost2010PropOp31
 70
     1
102
RTVSPost2010Prop32
280
     0
102
RTVSPost2010PropOp32
 70
     1
102
RTVSPost2010Prop33
280
     0
102
RTVSPost2010PropOp33
 70
     1
102
RTVSPost2010Prop34
280
     0
102
RTVSPost2010PropOp34
 70
     1
102
RTVSPost2010Prop35
280
     0
102
RTVSPost2010PropOp35
 70
     1
102
RTVSPost2010Prop36
280
     0
102
RTVSPost2010PropOp36
 70
     1
102
RTVSPost2010Prop37
 90
       50
102
RTVSPost2010PropOp37
 70
     1
102
RTVSPost2010Prop38
140
0.0
102
RTVSPost2010PropOp38
 70
     1
102
RTVSPost2010Prop39
140
1.0
102
RTVSPost2010PropOp39
 70
     1
102
RTVSPost2010Prop40
 90
        0
102
RTVSPost2010PropOp40
 70
     1
102
RTVSPost2010Prop41ColorIndex
 90
       18
102
RTVSPost2010Prop41ColorRGB
 90
        0
102
RTVSPost2010PropOp41
 70
     1
102
RTVSPost2010Prop42
 90
       50
102
RTVSPost2010PropOp42
 70
     1
102
RTVSPost2010Prop43
 90
        3
102
RTVSPost2010PropOp43
 70
     1
102
RTVSPost2010Prop44ColorIndex
 90
        5
102
RTVSPost2010Prop44ColorRGB
 90
      255
102
RTVSPost2010PropOp44
 70
     1
102
RTVSPost2010Prop45
280
     0
102
RTVSPost2010PropOp45
 70
     1
102
RTVSPost2010Prop46
 90
       50
102
RTVSPost2010PropOp46
 70
     1
102
RTVSPost2010Prop47
 90
       50
102
RTVSPost2010PropOp47
 70
     1
102
RTVSPost2010Prop48
 90
       50
102
RTVSPost2010PropOp48
 70
     1
102
RTVSPost2010Prop49
280
     0
102
RTVSPost2010PropOp49
 70
     1
102
RTVSPost2010Prop50
 90
       50
102
RTVSPost2010PropOp50
 70
     1
102
RTVSPost2010Prop51ColorIndex
 90
      256
102
RTVSPost2010Prop51ColorRGB
 90
-16777216
102
RTVSPost2010PropOp51
 70
     0
102
RTVSPost2010Prop52
140
1.0
102
RTVSPost2010PropOp52
 70
     0
102
RTVSPost2010Prop53
 90
        2
102
RTVSPost2010PropOp53
 70
     1
102
RTVSPost2010Prop54
  1
strokes_ogs.tif
102
RTVSPost2010PropOp54
 70
     1
102
RTVSPost2010Prop55
280
     0
102
RTVSPost2010PropOp55
 70
     1
102
RTVSPost2010Prop56
140
1.0
102
RTVSPost2010PropOp56
 70
     1
102
RTVSPost2010Prop57
140
1.0
102
RTVSPost2010PropOp57
 70
     1
102
RTVSPropertyOp0
 70
     1
102
RTVSPropertyOp1
 70
     1
102
RTVSPropertyOp2
 70
     1
102
RTVSPropertyOp3
 70
     1
102
RTVSPropertyOp4
 70
     1
102
RTVSPropertyOp5
 70
     1
102
RTVSPropertyOp6
 70
     1
102
RTVSPropertyOp7
 70
     1
102
RTVSPropertyOp8
 70
     1
102
RTVSPropertyOp9
 70
     1
102
RTVSPropertyOp10
 70
     1
102
RTVSPropertyOp11
 70
     1
102
RTVSPropertyOp12
 70
     1
102
RTVSPropertyOp13
 70
     1
102
RTVSPropertyOp14
 70
     1
102
RTVSPropertyOp15
 70
     1
102
RTVSPropertyOp16
 70
     1
102
RTVSPropertyOp17
 70
     1
102
RTVSPropertyOp18
 70
     1
102
RTVSPropertyOp19
 70
     1
102
RTVSPropertyOp20
 70
     1
102
RTVSPropertyOp21
 70
     1
102
RTVSPropertyOp22
 70
     1
102
RTVSPropertyOp23
 70
     1
102
RTVSPropertyOp24
 70
     1
102
RTVSPropertyOp25
 70
     1
102
RTVSPropertyOp26
 70
     1
102
RTVSPropertyOp27
 70
     1
102
RTVSPropertyOp28
 70
     1
102
RTVSPropertyOp29
 70
     1
102
RTVSPropertyOp30
 70
     1
102
RTVSPropertyOp31
 70
     1
102
RTVSPropertyOp32
 70
     1
102
RTVSPropertyOp33
 70
     1
102
RTVSPropertyOp34
 70
     1
102
RTVSPropertyOp35
 70
     1
102
RTVSPropertyOp36
 70
     1
102
RTVSPropertyOp37
 70
     1
102
RTVSPropertyOp38
 70
     1
102
RTVSPropertyOp39
 70
     1
102
RTVSPropertyOp40
 70
     1
102
RTVSPropertyOp41
 70
     1
102
RTVSPropertyOp42
 70
     1
102
RTVSPropertyOp43
 70
     1
102
RTVSPropertyOp44
 70
     1
102
RTVSPropertyOp45
 70
     1
102
RTVSPropertyOp46
 70
     1
102
RTVSPropertyOp47
 70
     1
102
RTVSPropertyOp48
 70
     1
102
RTVSPropertyOp49
 70
     1
102
RTVSPropertyOp50
 70
     1
102
RTVSPropertyOp51
 70
     0
102
RTVSPropertyOp52
 70
     0
102
RTVSPropertyOp53
 70
     1
102
RTVSPropertyOp54
 70
     1
102
RTVSPropertyOp55
 70
     1
102
RTVSPropertyOp56
 70
     1
102
RTVSPropertyOp57
 70
     1
102
RTVSPropertyOp58
 70
     1
102
RTVSPropertyOp59
 70
     1
102
RTVSPropertyOp60
 70
     1
102
RTVSPropertyOp61
 70
     1
102
RTVSPropertyOp62
 70
     1
  0
XRECORD
  5
879C
102
{ACAD_REACTORS
330
879B
102
}
330
879B
100
AcDbXrecord
280
     1
102
RTVSPost2010Prop28
280
     0
102
RTVSPost2010PropOp28
 70
     1
102
RTVSPost2010Prop29
280
     1
102
RTVSPost2010PropOp29
 70
     1
102
RTVSPost2010Prop30
280
     1
102
RTVSPost2010PropOp30
 70
     1
102
RTVSPost2010Prop31
280
     0
102
RTVSPost2010PropOp31
 70
     1
102
RTVSPost2010Prop32
280
     0
102
RTVSPost2010PropOp32
 70
     1
102
RTVSPost2010Prop33
280
     0
102
RTVSPost2010PropOp33
 70
     1
102
RTVSPost2010Prop34
280
     0
102
RTVSPost2010PropOp34
 70
     1
102
RTVSPost2010Prop35
280
     0
102
RTVSPost2010PropOp35
 70
     1
102
RTVSPost2010Prop36
280
     0
102
RTVSPost2010PropOp36
 70
     1
102
RTVSPost2010Prop37
 90
       50
102
RTVSPost2010PropOp37
 70
     1
102
RTVSPost2010Prop38
140
0.0
102
RTVSPost2010PropOp38
 70
     1
102
RTVSPost2010Prop39
140
1.0
102
RTVSPost2010PropOp39
 70
     1
102
RTVSPost2010Prop40
 90
        0
102
RTVSPost2010PropOp40
 70
     1
102
RTVSPost2010Prop41ColorIndex
 90
       18
102
RTVSPost2010Prop41ColorRGB
 90
        0
102
RTVSPost2010PropOp41
 70
     1
102
RTVSPost2010Prop42
 90
       50
102
RTVSPost2010PropOp42
 70
     1
102
RTVSPost2010Prop43
 90
        3
102
RTVSPost2010PropOp43
 70
     1
102
RTVSPost2010Prop44ColorIndex
 90
        5
102
RTVSPost2010Prop44ColorRGB
 90
      255
102
RTVSPost2010PropOp44
 70
     1
102
RTVSPost2010Prop45
280
     0
102
RTVSPost2010PropOp45
 70
     1
102
RTVSPost2010Prop46
 90
       50
102
RTVSPost2010PropOp46
 70
     1
102
RTVSPost2010Prop47
 90
       50
102
RTVSPost2010PropOp47
 70
     1
102
RTVSPost2010Prop48
 90
       50
102
RTVSPost2010PropOp48
 70
     1
102
RTVSPost2010Prop49
280
     0
102
RTVSPost2010PropOp49
 70
     1
102
RTVSPost2010Prop50
 90
       50
102
RTVSPost2010PropOp50
 70
     1
102
RTVSPost2010Prop51ColorIndex
 90
      256
102
RTVSPost2010Prop51ColorRGB
 90
-16777216
102
RTVSPost2010PropOp51
 70
     0
102
RTVSPost2010Prop52
140
1.0
102
RTVSPost2010PropOp52
 70
     0
102
RTVSPost2010Prop53
 90
        2
102
RTVSPost2010PropOp53
 70
     1
102
RTVSPost2010Prop54
  1
strokes_ogs.tif
102
RTVSPost2010PropOp54
 70
     1
102
RTVSPost2010Prop55
280
     0
102
RTVSPost2010PropOp55
 70
     1
102
RTVSPost2010Prop56
140
1.0
102
RTVSPost2010PropOp56
 70
     1
102
RTVSPost2010Prop57
140
1.0
102
RTVSPost2010PropOp57
 70
     1
102
RTVSPropertyOp0
 70
     1
102
RTVSPropertyOp1
 70
     1
102
RTVSPropertyOp2
 70
     1
102
RTVSPropertyOp3
 70
     1
102
RTVSPropertyOp4
 70
     1
102
RTVSPropertyOp5
 70
     1
102
RTVSPropertyOp6
 70
     1
102
RTVSPropertyOp7
 70
     1
102
RTVSPropertyOp8
 70
     1
102
RTVSPropertyOp9
 70
     1
102
RTVSPropertyOp10
 70
     1
102
RTVSPropertyOp11
 70
     1
102
RTVSPropertyOp12
 70
     1
102
RTVSPropertyOp13
 70
     1
102
RTVSPropertyOp14
 70
     1
102
RTVSPropertyOp15
 70
     1
102
RTVSPropertyOp16
 70
     1
102
RTVSPropertyOp17
 70
     1
102
RTVSPropertyOp18
 70
     1
102
RTVSPropertyOp19
 70
     1
102
RTVSPropertyOp20
 70
     1
102
RTVSPropertyOp21
 70
     1
102
RTVSPropertyOp22
 70
     1
102
RTVSPropertyOp23
 70
     1
102
RTVSPropertyOp24
 70
     1
102
RTVSPropertyOp25
 70
     1
102
RTVSPropertyOp26
 70
     1
102
RTVSPropertyOp27
 70
     1
102
RTVSPropertyOp28
 70
     1
102
RTVSPropertyOp29
 70
     1
102
RTVSPropertyOp30
 70
     1
102
RTVSPropertyOp31
 70
     1
102
RTVSPropertyOp32
 70
     1
102
RTVSPropertyOp33
 70
     1
102
RTVSPropertyOp34
 70
     1
102
RTVSPropertyOp35
 70
     1
102
RTVSPropertyOp36
 70
     1
102
RTVSPropertyOp37
 70
     1
102
RTVSPropertyOp38
 70
     1
102
RTVSPropertyOp39
 70
     1
102
RTVSPropertyOp40
 70
     1
102
RTVSPropertyOp41
 70
     1
102
RTVSPropertyOp42
 70
     1
102
RTVSPropertyOp43
 70
     1
102
RTVSPropertyOp44
 70
     1
102
RTVSPropertyOp45
 70
     1
102
RTVSPropertyOp46
 70
     1
102
RTVSPropertyOp47
 70
     1
102
RTVSPropertyOp48
 70
     1
102
RTVSPropertyOp49
 70
     1
102
RTVSPropertyOp50
 70
     1
102
RTVSPropertyOp51
 70
     0
102
RTVSPropertyOp52
 70
     0
102
RTVSPropertyOp53
 70
     1
102
RTVSPropertyOp54
 70
     1
102
RTVSPropertyOp55
 70
     1
102
RTVSPropertyOp56
 70
     1
102
RTVSPropertyOp57
 70
     1
102
RTVSPropertyOp58
 70
     1
102
RTVSPropertyOp59
 70
     1
102
RTVSPropertyOp60
 70
     1
102
RTVSPropertyOp61
 70
     1
102
RTVSPropertyOp62
 70
     1
  0
XRECORD
  5
87B4
102
{ACAD_REACTORS
330
87B3
102
}
330
87B3
100
AcDbXrecord
280
     1
102
RTVSPost2010Prop28
280
     0
102
RTVSPost2010PropOp28
 70
     1
102
RTVSPost2010Prop29
280
     1
102
RTVSPost2010PropOp29
 70
     1
102
RTVSPost2010Prop30
280
     1
102
RTVSPost2010PropOp30
 70
     1
102
RTVSPost2010Prop31
280
     0
102
RTVSPost2010PropOp31
 70
     1
102
RTVSPost2010Prop32
280
     0
102
RTVSPost2010PropOp32
 70
     1
102
RTVSPost2010Prop33
280
     0
102
RTVSPost2010PropOp33
 70
     1
102
RTVSPost2010Prop34
280
     0
102
RTVSPost2010PropOp34
 70
     1
102
RTVSPost2010Prop35
280
     0
102
RTVSPost2010PropOp35
 70
     1
102
RTVSPost2010Prop36
280
     0
102
RTVSPost2010PropOp36
 70
     1
102
RTVSPost2010Prop37
 90
       50
102
RTVSPost2010PropOp37
 70
     1
102
RTVSPost2010Prop38
140
0.0
102
RTVSPost2010PropOp38
 70
     1
102
RTVSPost2010Prop39
140
1.0
102
RTVSPost2010PropOp39
 70
     1
102
RTVSPost2010Prop40
 90
        0
102
RTVSPost2010PropOp40
 70
     1
102
RTVSPost2010Prop41ColorIndex
 90
       18
102
RTVSPost2010Prop41ColorRGB
 90
        0
102
RTVSPost2010PropOp41
 70
     1
102
RTVSPost2010Prop42
 90
       50
102
RTVSPost2010PropOp42
 70
     1
102
RTVSPost2010Prop43
 90
        3
102
RTVSPost2010PropOp43
 70
     1
102
RTVSPost2010Prop44ColorIndex
 90
        5
102
RTVSPost2010Prop44ColorRGB
 90
      255
102
RTVSPost2010PropOp44
 70
     1
102
RTVSPost2010Prop45
280
     0
102
RTVSPost2010PropOp45
 70
     1
102
RTVSPost2010Prop46
 90
       50
102
RTVSPost2010PropOp46
 70
     1
102
RTVSPost2010Prop47
 90
       50
102
RTVSPost2010PropOp47
 70
     1
102
RTVSPost2010Prop48
 90
       50
102
RTVSPost2010PropOp48
 70
     1
102
RTVSPost2010Prop49
280
     0
102
RTVSPost2010PropOp49
 70
     1
102
RTVSPost2010Prop50
 90
       50
102
RTVSPost2010PropOp50
 70
     1
102
RTVSPost2010Prop51ColorIndex
 90
      256
102
RTVSPost2010Prop51ColorRGB
 90
-16777216
102
RTVSPost2010PropOp51
 70
     0
102
RTVSPost2010Prop52
140
1.0
102
RTVSPost2010PropOp52
 70
     0
102
RTVSPost2010Prop53
 90
        2
102
RTVSPost2010PropOp53
 70
     1
102
RTVSPost2010Prop54
  1
strokes_ogs.tif
102
RTVSPost2010PropOp54
 70
     1
102
RTVSPost2010Prop55
280
     0
102
RTVSPost2010PropOp55
 70
     1
102
RTVSPost2010Prop56
140
1.0
102
RTVSPost2010PropOp56
 70
     1
102
RTVSPost2010Prop57
140
1.0
102
RTVSPost2010PropOp57
 70
     1
102
RTVSPropertyOp0
 70
     1
102
RTVSPropertyOp1
 70
     1
102
RTVSPropertyOp2
 70
     1
102
RTVSPropertyOp3
 70
     1
102
RTVSPropertyOp4
 70
     1
102
RTVSPropertyOp5
 70
     1
102
RTVSPropertyOp6
 70
     1
102
RTVSPropertyOp7
 70
     1
102
RTVSPropertyOp8
 70
     1
102
RTVSPropertyOp9
 70
     1
102
RTVSPropertyOp10
 70
     1
102
RTVSPropertyOp11
 70
     1
102
RTVSPropertyOp12
 70
     1
102
RTVSPropertyOp13
 70
     1
102
RTVSPropertyOp14
 70
     1
102
RTVSPropertyOp15
 70
     1
102
RTVSPropertyOp16
 70
     1
102
RTVSPropertyOp17
 70
     1
102
RTVSPropertyOp18
 70
     1
102
RTVSPropertyOp19
 70
     1
102
RTVSPropertyOp20
 70
     1
102
RTVSPropertyOp21
 70
     1
102
RTVSPropertyOp22
 70
     1
102
RTVSPropertyOp23
 70
     1
102
RTVSPropertyOp24
 70
     1
102
RTVSPropertyOp25
 70
     1
102
RTVSPropertyOp26
 70
     1
102
RTVSPropertyOp27
 70
     1
102
RTVSPropertyOp28
 70
     1
102
RTVSPropertyOp29
 70
     1
102
RTVSPropertyOp30
 70
     1
102
RTVSPropertyOp31
 70
     1
102
RTVSPropertyOp32
 70
     1
102
RTVSPropertyOp33
 70
     1
102
RTVSPropertyOp34
 70
     1
102
RTVSPropertyOp35
 70
     1
102
RTVSPropertyOp36
 70
     1
102
RTVSPropertyOp37
 70
     1
102
RTVSPropertyOp38
 70
     1
102
RTVSPropertyOp39
 70
     1
102
RTVSPropertyOp40
 70
     1
102
RTVSPropertyOp41
 70
     1
102
RTVSPropertyOp42
 70
     1
102
RTVSPropertyOp43
 70
     1
102
RTVSPropertyOp44
 70
     1
102
RTVSPropertyOp45
 70
     1
102
RTVSPropertyOp46
 70
     1
102
RTVSPropertyOp47
 70
     1
102
RTVSPropertyOp48
 70
     1
102
RTVSPropertyOp49
 70
     1
102
RTVSPropertyOp50
 70
     1
102
RTVSPropertyOp51
 70
     0
102
RTVSPropertyOp52
 70
     0
102
RTVSPropertyOp53
 70
     1
102
RTVSPropertyOp54
 70
     1
102
RTVSPropertyOp55
 70
     1
102
RTVSPropertyOp56
 70
     1
102
RTVSPropertyOp57
 70
     1
102
RTVSPropertyOp58
 70
     1
102
RTVSPropertyOp59
 70
     1
102
RTVSPropertyOp60
 70
     1
102
RTVSPropertyOp61
 70
     1
102
RTVSPropertyOp62
 70
     1
  0
ENDSEC
  0
EOF
