  0
SECTION
  2
HEADER
  9
$ACADVER
  1
AC1015
  9
$ACADMAINTVER
 70
    20
  9
$DWGCODEPAGE
  3
ANSI_932
  9
$INSBASE
 10
0.0
 20
0.0
 30
0.0
  9
$EXTMIN
 10
-0.1922460740788665
 20
-0.2700599612071528
 30
-0.0015258207003583
  9
$EXTMAX
 10
6300.192275410744
 20
8850.270101172235
 30
0.0000000349246037
  9
$LIMMIN
 10
0.0
 20
0.0
  9
$LIMMAX
 10
297.0
 20
210.0
  9
$ORTHOMODE
 70
     1
  9
$REGENMODE
 70
     1
  9
$FILLMODE
 70
     0
  9
$QTEXTMODE
 70
     0
  9
$MIRRTEXT
 70
     1
  9
$LTSCALE
 40
100.0
  9
$ATTMODE
 70
     1
  9
$TEXTSIZE
 40
180.0
  9
$TRACEWID
 40
0.05
  9
$TEXTSTYLE
  7
STANDARD
  9
$CLAYER
  8
3
  9
$CELTYPE
  6
ByLayer
  9
$CECOLOR
 62
   256
  9
$CELTSCALE
 40
1.0
  9
$DISPSILH
 70
     0
  9
$DIMSCALE
 40
30.0
  9
$DIMASZ
 40
2.0
  9
$DIMEXO
 40
1.0
  9
$DIMDLI
 40
10.0
  9
$DIMRND
 40
0.0
  9
$DIMDLE
 40
0.0
  9
$DIMEXE
 40
1.0
  9
$DIMTP
 40
1.0
  9
$DIMTM
 40
1.0
  9
$DIMTXT
 40
3.0
  9
$DIMCEN
 40
0.0
  9
$DIMTSZ
 40
0.0
  9
$DIMTOL
 70
     0
  9
$DIMLIM
 70
     0
  9
$DIMTIH
 70
     0
  9
$DIMTOH
 70
     0
  9
$DIMSE1
 70
     0
  9
$DIMSE2
 70
     0
  9
$DIMTAD
 70
     1
  9
$DIMZIN
 70
     8
  9
$DIMBLK
  1

  9
$DIMASO
 70
     1
  9
$DIMSHO
 70
     1
  9
$DIMPOST
  1

  9
$DIMAPOST
  1

  9
$DIMALT
 70
     0
  9
$DIMALTD
 70
     2
  9
$DIMALTF
 40
0.039
  9
$DIMLFAC
 40
1.0
  9
$DIMTOFL
 70
     1
  9
$DIMTVP
 40
0.0
  9
$DIMTIX
 70
     0
  9
$DIMSOXD
 70
     0
  9
$DIMSAH
 70
     1
  9
$DIMBLK1
  1
OPEN
  9
$DIMBLK2
  1
OPEN
  9
$DIMSTYLE
  2
IGA
  9
$DIMCLRD
 70
     0
  9
$DIMCLRE
 70
     0
  9
$DIMCLRT
 70
     0
  9
$DIMTFAC
 40
10.0
  9
$DIMGAP
 40
1.0
  9
$DIMJUST
 70
     0
  9
$DIMSD1
 70
     0
  9
$DIMSD2
 70
     0
  9
$DIMTOLJ
 70
     1
  9
$DIMTZIN
 70
     0
  9
$DIMALTZ
 70
     0
  9
$DIMALTTZ
 70
     0
  9
$DIMUPT
 70
     0
  9
$DIMDEC
 70
     4
  9
$DIMTDEC
 70
     4
  9
$DIMALTU
 70
     2
  9
$DIMALTTD
 70
     2
  9
$DIMTXSTY
  7
STANDARD
  9
$DIMAUNIT
 70
     0
  9
$DIMADEC
 70
     0
  9
$DIMALTRND
 40
0.0
  9
$DIMAZIN
 70
     0
  9
$DIMDSEP
 70
    46
  9
$DIMATFIT
 70
     3
  9
$DIMFRAC
 70
     0
  9
$DIMLDRBLK
  1
OPEN
  9
$DIMLUNIT
 70
     2
  9
$DIMLWD
 70
    -2
  9
$DIMLWE
 70
    -2
  9
$DIMTMOVE
 70
     0
  9
$LUNITS
 70
     2
  9
$LUPREC
 70
     3
  9
$SKETCHINC
 40
0.1
  9
$FILLETRAD
 40
50.0
  9
$AUNITS
 70
     0
  9
$AUPREC
 70
     0
  9
$MENU
  1
acad
  9
$ELEVATION
 40
0.0
  9
$PELEVATION
 40
0.0
  9
$THICKNESS
 40
0.0
  9
$LIMCHECK
 70
     0
  9
$CHAMFERA
 40
0.5
  9
$CHAMFERB
 40
0.5
  9
$CHAMFERC
 40
0.0
  9
$CHAMFERD
 40
0.0
  9
$SKPOLY
 70
     0
  9
$TDCREATE
 40
2451389.569592593
  9
$TDUCREATE
 40
2451389.194592593
  9
$TDUPDATE
 40
2460271.721781840
  9
$TDUUPDATE
 40
2460271.346781840
  9
$TDINDWG
 40
0.0132040394
  9
$TDUSRTIMER
 40
0.0132037731
  9
$USRTIMER
 70
     1
  9
$ANGBASE
 50
0.0
  9
$ANGDIR
 70
     0
  9
$PDMODE
 70
     0
  9
$PDSIZE
 40
0.0
  9
$PLINEWID
 40
0.0
  9
$SPLFRAME
 70
     0
  9
$SPLINETYPE
 70
     6
  9
$SPLINESEGS
 70
     8
  9
$HANDSEED
  5
82EF
  9
$SURFTAB1
 70
     6
  9
$SURFTAB2
 70
     6
  9
$SURFTYPE
 70
     6
  9
$SURFU
 70
     6
  9
$SURFV
 70
     6
  9
$UCSBASE
  2

  9
$UCSNAME
  2

  9
$UCSORG
 10
0.0
 20
0.0
 30
0.0
  9
$UCSXDIR
 10
1.0
 20
0.0
 30
0.0
  9
$UCSYDIR
 10
0.0
 20
1.0
 30
0.0
  9
$UCSORTHOREF
  2

  9
$UCSORTHOVIEW
 70
     0
  9
$UCSORGTOP
 10
0.0
 20
0.0
 30
0.0
  9
$UCSORGBOTTOM
 10
0.0
 20
0.0
 30
0.0
  9
$UCSORGLEFT
 10
0.0
 20
0.0
 30
0.0
  9
$UCSORGRIGHT
 10
0.0
 20
0.0
 30
0.0
  9
$UCSORGFRONT
 10
0.0
 20
0.0
 30
0.0
  9
$UCSORGBACK
 10
0.0
 20
0.0
 30
0.0
  9
$PUCSBASE
  2

  9
$PUCSNAME
  2

  9
$PUCSORG
 10
0.0
 20
0.0
 30
0.0
  9
$PUCSXDIR
 10
1.0
 20
0.0
 30
0.0
  9
$PUCSYDIR
 10
0.0
 20
1.0
 30
0.0
  9
$PUCSORTHOREF
  2

  9
$PUCSORTHOVIEW
 70
     0
  9
$PUCSORGTOP
 10
0.0
 20
0.0
 30
0.0
  9
$PUCSORGBOTTOM
 10
0.0
 20
0.0
 30
0.0
  9
$PUCSORGLEFT
 10
0.0
 20
0.0
 30
0.0
  9
$PUCSORGRIGHT
 10
0.0
 20
0.0
 30
0.0
  9
$PUCSORGFRONT
 10
0.0
 20
0.0
 30
0.0
  9
$PUCSORGBACK
 10
0.0
 20
0.0
 30
0.0
  9
$USERI1
 70
     0
  9
$USERI2
 70
     0
  9
$USERI3
 70
     0
  9
$USERI4
 70
     0
  9
$USERI5
 70
     0
  9
$USERR1
 40
0.0
  9
$USERR2
 40
0.0
  9
$USERR3
 40
0.0
  9
$USERR4
 40
0.0
  9
$USERR5
 40
0.0
  9
$WORLDVIEW
 70
     1
  9
$SHADEDGE
 70
     3
  9
$SHADEDIF
 70
    70
  9
$TILEMODE
 70
     1
  9
$MAXACTVP
 70
    16
  9
$PINSBASE
 10
0.0
 20
0.0
 30
0.0
  9
$PLIMCHECK
 70
     0
  9
$PEXTMIN
 10
1.000000000000000E+20
 20
1.000000000000000E+20
 30
1.000000000000000E+20
  9
$PEXTMAX
 10
-1.000000000000000E+20
 20
-1.000000000000000E+20
 30
-1.000000000000000E+20
  9
$PLIMMIN
 10
0.0
 20
0.0
  9
$PLIMMAX
 10
12.0
 20
9.0
  9
$UNITMODE
 70
     0
  9
$VISRETAIN
 70
     0
  9
$PLINEGEN
 70
     0
  9
$PSLTSCALE
 70
     1
  9
$TREEDEPTH
 70
  3020
  9
$CMLSTYLE
  2
Standard
  9
$CMLJUST
 70
     0
  9
$CMLSCALE
 40
1.0
  9
$PROXYGRAPHICS
 70
     1
  9
$MEASUREMENT
 70
     0
  9
$CELWEIGHT
370
    -1
  9
$ENDCAPS
280
     0
  9
$JOINSTYLE
280
     0
  9
$LWDISPLAY
290
     0
  9
$INSUNITS
 70
     0
  9
$HYPERLINKBASE
  1

  9
$STYLESHEET
  1

  9
$XEDIT
290
     1
  9
$CEPSNTYPE
380
     0
  9
$PSTYLEMODE
290
     1
  9
$FINGERPRINTGUID
  2
{24111253-AB9F-482A-838F-751BA0C3B223}
  9
$VERSIONGUID
  2
{0BF27DD7-8189-4C4E-9883-9B73216FE076}
  9
$EXTNAMES
290
     1
  9
$PSVPSCALE
 40
0.0
  9
$OLESTARTUP
290
     0
  0
ENDSEC
  0
SECTION
  2
CLASSES
  0
CLASS
  1
ACDBDICTIONARYWDFLT
  2
AcDbDictionaryWithDefault
  3
ObjectDBX Classes
 90
        0
280
     0
281
     0
  0
CLASS
  1
MATERIAL
  2
AcDbMaterial
  3
ObjectDBX Classes
 90
     1153
280
     0
281
     0
  0
CLASS
  1
VISUALSTYLE
  2
AcDbVisualStyle
  3
ObjectDBX Classes
 90
     4095
280
     0
281
     0
  0
CLASS
  1
SCALE
  2
AcDbScale
  3
ObjectDBX Classes
 90
     1153
280
     0
281
     0
  0
CLASS
  1
TABLESTYLE
  2
AcDbTableStyle
  3
ObjectDBX Classes
 90
     4095
280
     0
281
     0
  0
CLASS
  1
MLEADERSTYLE
  2
AcDbMLeaderStyle
  3
ACDB_MLEADERSTYLE_CLASS
 90
     4095
280
     0
281
     0
  0
CLASS
  1
ACDBSECTIONVIEWSTYLE
  2
AcDbSectionViewStyle
  3
ObjectDBX Classes
 90
     1025
280
     0
281
     0
  0
CLASS
  1
ACDBDETAILVIEWSTYLE
  2
AcDbDetailViewStyle
  3
ObjectDBX Classes
 90
     1025
280
     0
281
     0
  0
CLASS
  1
DICTIONARYVAR
  2
AcDbDictionaryVar
  3
ObjectDBX Classes
 90
        0
280
     0
281
     0
  0
CLASS
  1
CELLSTYLEMAP
  2
AcDbCellStyleMap
  3
ObjectDBX Classes
 90
     1152
280
     0
281
     0
  0
CLASS
  1
ACDBPLACEHOLDER
  2
AcDbPlaceHolder
  3
ObjectDBX Classes
 90
        0
280
     0
281
     0
  0
CLASS
  1
LAYOUT
  2
AcDbLayout
  3
ObjectDBX Classes
 90
        0
280
     0
281
     0
  0
ENDSEC
  0
SECTION
  2
TABLES
  0
TABLE
  2
VPORT
  5
814F
330
0
100
AcDbSymbolTable
 70
     1
  0
VPORT
  5
81BB
330
814F
100
AcDbSymbolTableRecord
100
AcDbViewportTableRecord
  2
*ACTIVE
 70
     0
 10
0.0
 20
0.0
 11
1.0
 21
1.0
 12
3150.000014668333
 22
4425.000020605514
 13
0.0
 23
0.0
 14
10.0
 24
10.0
 15
10.0
 25
10.0
 16
0.0
 26
0.0
 36
1.0
 17
0.0
 27
0.0
 37
0.0
 40
8907.213844128961
 41
2.050213675213675
 42
50.0
 43
0.0
 44
0.0
 50
0.0
 51
0.0
 71
     0
 72
   100
 73
     1
 74
     0
 75
     0
 76
     0
 77
     0
 78
     0
281
     0
 65
     1
110
0.0
120
0.0
130
0.0
111
1.0
121
0.0
131
0.0
112
0.0
122
1.0
132
0.0
 79
     0
146
0.0
1001
ACAD_NAV_VCDISPLAY
1070
     3
  0
ENDTAB
  0
TABLE
  2
LTYPE
  5
814C
330
0
100
AcDbSymbolTable
 70
     3
  0
LTYPE
  5
81A1
330
814C
100
AcDbSymbolTableRecord
100
AcDbLinetypeTableRecord
  2
ByBlock
 70
     0
  3

 72
    65
 73
     0
 40
0.0
  0
LTYPE
  5
81A2
330
814C
100
AcDbSymbolTableRecord
100
AcDbLinetypeTableRecord
  2
ByLayer
 70
     0
  3

 72
    65
 73
     0
 40
0.0
  0
LTYPE
  5
81A3
330
814C
100
AcDbSymbolTableRecord
100
AcDbLinetypeTableRecord
  2
CONTINUOUS
 70
     0
  3
Solid line
 72
    65
 73
     0
 40
0.0
  0
LTYPE
  5
81BC
330
814C
100
AcDbSymbolTableRecord
100
AcDbLinetypeTableRecord
  2
CENTER
 70
     0
  3
____ _ ____ _ ____ _ ____ _ ____ _ ____ _ ____ 
 72
    65
 73
     4
 40
2.0
 49
1.25
 74
     0
 49
-0.25
 74
     0
 49
0.25
 74
     0
 49
-0.25
 74
     0
  0
ENDTAB
  0
TABLE
  2
LAYER
  5
8149
330
0
100
AcDbSymbolTable
 70
     6
  0
LAYER
  5
819B
102
{ACAD_XDICTIONARY
360
8299
102
}
330
8149
100
AcDbSymbolTableRecord
100
AcDbLayerTableRecord
  2
0
 70
     0
 62
     7
  6
CONTINUOUS
370
    -3
390
8156
  0
LAYER
  5
81BA
102
{ACAD_XDICTIONARY
360
829B
102
}
330
8149
100
AcDbSymbolTableRecord
100
AcDbLayerTableRecord
  2
3
 70
     0
 62
     2
  6
CONTINUOUS
370
    -3
390
8156
  0
LAYER
  5
81BD
102
{ACAD_XDICTIONARY
360
829D
102
}
330
8149
100
AcDbSymbolTableRecord
100
AcDbLayerTableRecord
  2
2
 70
     0
 62
     3
  6
CENTER
370
    -3
390
8156
  0
LAYER
  5
81BE
102
{ACAD_XDICTIONARY
360
829F
102
}
330
8149
100
AcDbSymbolTableRecord
100
AcDbLayerTableRecord
  2
1
 70
     0
 62
     4
  6
CONTINUOUS
370
    -3
390
8156
  0
LAYER
  5
81BF
102
{ACAD_XDICTIONARY
360
82A1
102
}
330
8149
100
AcDbSymbolTableRecord
100
AcDbLayerTableRecord
  2
4
 70
     0
 62
     7
  6
CONTINUOUS
370
    -3
390
8156
  0
LAYER
  5
81C0
330
8149
100
AcDbSymbolTableRecord
100
AcDbLayerTableRecord
  2
DEFPOINTS
 70
     0
 62
     7
  6
CONTINUOUS
290
     0
370
    -3
390
8156
  0
ENDTAB
  0
TABLE
  2
STYLE
  5
814A
330
0
100
AcDbSymbolTable
 70
     2
  0
STYLE
  5
819C
330
814A
100
AcDbSymbolTableRecord
100
AcDbTextStyleTableRecord
  2
STANDARD
 70
     0
 40
0.0
 41
1.0
 50
0.0
 71
     0
 42
180.0
  3
simplex.shx
  4
extfont.shx
  0
STYLE
  5
81A0
330
814A
100
AcDbSymbolTableRecord
100
AcDbTextStyleTableRecord
  2
Annotative
 70
     0
 40
0.0
 41
1.0
 50
0.0
 71
     0
 42
0.2
  3
txt
  4

1001
AcadAnnotative
1000
AnnotativeData
1002
{
1070
     1
1070
     1
1002
}
  0
ENDTAB
  0
TABLE
  2
VIEW
  5
814D
330
0
100
AcDbSymbolTable
 70
     0
  0
ENDTAB
  0
TABLE
  2
UCS
  5
814E
330
0
100
AcDbSymbolTable
 70
     0
  0
ENDTAB
  0
TABLE
  2
APPID
  5
8150
330
0
100
AcDbSymbolTable
 70
     8
  0
APPID
  5
819D
330
8150
100
AcDbSymbolTableRecord
100
AcDbRegAppTableRecord
  2
ACAD
 70
     0
  0
APPID
  5
81A4
330
8150
100
AcDbSymbolTableRecord
100
AcDbRegAppTableRecord
  2
AcadAnnotative
 70
     0
  0
APPID
  5
8202
330
8150
100
AcDbSymbolTableRecord
100
AcDbRegAppTableRecord
  2
ACAD_DSTYLE_DIMJAG
 70
     0
  0
APPID
  5
8203
330
8150
100
AcDbSymbolTableRecord
100
AcDbRegAppTableRecord
  2
ACAD_DSTYLE_DIMTALN
 70
     0
  0
APPID
  5
8230
330
8150
100
AcDbSymbolTableRecord
100
AcDbRegAppTableRecord
  2
AcadAnnoMonitorAlertIconDisabled
 70
     0
  0
APPID
  5
8231
330
8150
100
AcDbSymbolTableRecord
100
AcDbRegAppTableRecord
  2
ACAD_EXEMPT_FROM_CAD_STANDARDS
 70
     0
  0
APPID
  5
82AD
330
8150
100
AcDbSymbolTableRecord
100
AcDbRegAppTableRecord
  2
ACAD_NAV_VCDISPLAY
 70
     0
  0
APPID
  5
82E6
330
8150
100
AcDbSymbolTableRecord
100
AcDbRegAppTableRecord
  2
ACAD_MLEADERVER
 70
     0
  0
ENDTAB
  0
TABLE
  2
DIMSTYLE
  5
8151
330
0
100
AcDbSymbolTable
 70
     4
100
AcDbDimStyleTable
 71
     1
340
81C1
  0
DIMSTYLE
105
819E
102
{ACAD_REACTORS
330
7C7D
330
7C7E
330
7C7F
330
7C82
330
7C83
330
7CC4
330
7CC6
330
7CC7
330
7CCB
330
7CCC
330
7CE3
330
7CFB
330
7D09
330
8046
330
8053
330
8060
330
806D
330
80B4
330
80C1
102
}
330
8151
100
AcDbSymbolTableRecord
100
AcDbDimStyleTableRecord
  2
Standard
 70
     0
340
819C
  0
DIMSTYLE
105
819F
330
8151
100
AcDbSymbolTableRecord
100
AcDbDimStyleTableRecord
  2
Annotative
 70
     0
340
819C
1001
AcadAnnotative
1000
AnnotativeData
1002
{
1070
     1
1070
     1
1002
}
  0
DIMSTYLE
105
81C1
102
{ACAD_REACTORS
330
8204
330
8211
330
827A
102
}
330
8151
100
AcDbSymbolTableRecord
100
AcDbDimStyleTableRecord
  2
IGA
 70
     0
 40
2.0
 41
2.0
 42
0.5
 43
10.0
 44
1.0
 47
1.0
 48
1.0
 73
     0
 74
     0
 77
     1
 78
     8
140
3.0
141
0.0
143
0.03937
146
10.0
147
1.0
173
     1
271
     3
272
     3
279
     2
284
     8
285
     8
286
     8
340
819C
  0
DIMSTYLE
105
81C2
330
8151
100
AcDbSymbolTableRecord
100
AcDbDimStyleTableRecord
  2
MATSU
 70
     0
 41
2.0
 42
1.0
 43
10.0
 44
1.0
 73
     0
 74
     0
 77
     1
 78
     8
140
3.0
141
0.0
143
0.03937
147
0.5
172
     1
173
     1
176
   256
177
   256
178
   256
271
     3
272
     3
279
     2
284
     8
285
     8
286
     8
340
819C
  0
ENDTAB
  0
TABLE
  2
BLOCK_RECORD
  5
8148
330
0
100
AcDbSymbolTable
 70
    34
  0
BLOCK_RECORD
  5
81B6
330
8148
100
AcDbSymbolTableRecord
100
AcDbBlockTableRecord
  2
*Model_Space
340
81B9
  0
BLOCK_RECORD
  5
81B2
330
8148
100
AcDbSymbolTableRecord
100
AcDbBlockTableRecord
  2
*Paper_Space
340
81B5
  0
BLOCK_RECORD
  5
81C6
330
8148
100
AcDbSymbolTableRecord
100
AcDbBlockTableRecord
  2
$MODEL_SPACE
340
0
  0
BLOCK_RECORD
  5
81C8
330
8148
100
AcDbSymbolTableRecord
100
AcDbBlockTableRecord
  2
$PAPER_SPACE
340
0
  0
BLOCK_RECORD
  5
81CA
330
8148
100
AcDbSymbolTableRecord
100
AcDbBlockTableRecord
  2
_OPEN
340
0
102
{BLKREFS
331
7E3B
331
7E3C
331
7E46
331
7E47
331
7E51
331
7E52
331
7E5C
331
7E5D
331
7E67
331
7E68
331
7EB4
331
7EB5
331
7EBF
331
7EC0
331
7ECA
331
7ECB
331
7ED5
331
7ED6
331
801C
331
801D
331
8027
331
8028
331
7EF6
331
7EF7
331
7F01
331
7F02
331
813A
331
80BA
331
80BB
331
8274
331
8275
331
8281
331
8282
331
828A
331
828B
331
8293
331
8294
331
7F31
331
7F32
331
7F3C
331
7F3D
331
803F
331
8040
331
804C
331
804D
331
8059
331
805A
331
8066
331
8067
102
}
  0
BLOCK_RECORD
  5
81CC
330
8148
100
AcDbSymbolTableRecord
100
AcDbBlockTableRecord
  2
YA_N
340
0
102
{BLKREFS
331
7C2A
331
7C40
331
7C7B
331
7C9E
331
7CD4
331
7CD6
331
7CD8
331
7CDA
102
}
  0
BLOCK_RECORD
  5
81CE
330
8148
100
AcDbSymbolTableRecord
100
AcDbBlockTableRecord
  2
*D4
340
0
  0
BLOCK_RECORD
  5
81D0
330
8148
100
AcDbSymbolTableRecord
100
AcDbBlockTableRecord
  2
*D5
340
0
  0
BLOCK_RECORD
  5
81D2
330
8148
100
AcDbSymbolTableRecord
100
AcDbBlockTableRecord
  2
*D6
340
0
  0
BLOCK_RECORD
  5
81D4
330
8148
100
AcDbSymbolTableRecord
100
AcDbBlockTableRecord
  2
*D7
340
0
  0
BLOCK_RECORD
  5
81D6
330
8148
100
AcDbSymbolTableRecord
100
AcDbBlockTableRecord
  2
*D8
340
0
  0
BLOCK_RECORD
  5
81D8
330
8148
100
AcDbSymbolTableRecord
100
AcDbBlockTableRecord
  2
*D9
340
0
  0
BLOCK_RECORD
  5
81DA
330
8148
100
AcDbSymbolTableRecord
100
AcDbBlockTableRecord
  2
*D10
340
0
  0
BLOCK_RECORD
  5
81DC
330
8148
100
AcDbSymbolTableRecord
100
AcDbBlockTableRecord
  2
*D11
340
0
  0
BLOCK_RECORD
  5
81DE
330
8148
100
AcDbSymbolTableRecord
100
AcDbBlockTableRecord
  2
*D12
340
0
  0
BLOCK_RECORD
  5
81E0
330
8148
100
AcDbSymbolTableRecord
100
AcDbBlockTableRecord
  2
*D13
340
0
  0
BLOCK_RECORD
  5
81E2
330
8148
100
AcDbSymbolTableRecord
100
AcDbBlockTableRecord
  2
*U14
340
0
102
{BLKREFS
331
801E
102
}
  0
BLOCK_RECORD
  5
81E3
330
8148
100
AcDbSymbolTableRecord
100
AcDbBlockTableRecord
  2
*D15
340
0
  0
BLOCK_RECORD
  5
81E5
330
8148
100
AcDbSymbolTableRecord
100
AcDbBlockTableRecord
  2
*D16
340
0
  0
BLOCK_RECORD
  5
81E7
330
8148
100
AcDbSymbolTableRecord
100
AcDbBlockTableRecord
  2
*D17
340
0
  0
BLOCK_RECORD
  5
81E9
330
8148
100
AcDbSymbolTableRecord
100
AcDbBlockTableRecord
  2
*D18
340
0
  0
BLOCK_RECORD
  5
81EB
330
8148
100
AcDbSymbolTableRecord
100
AcDbBlockTableRecord
  2
_DOT
340
0
102
{BLKREFS
331
8139
102
}
  0
BLOCK_RECORD
  5
81EC
330
8148
100
AcDbSymbolTableRecord
100
AcDbBlockTableRecord
  2
*D20
340
0
  0
BLOCK_RECORD
  5
81EE
330
8148
100
AcDbSymbolTableRecord
100
AcDbBlockTableRecord
  2
*D21
340
0
  0
BLOCK_RECORD
  5
81F1
330
8148
100
AcDbSymbolTableRecord
100
AcDbBlockTableRecord
  2
*D22
340
0
  0
BLOCK_RECORD
  5
81F3
330
8148
100
AcDbSymbolTableRecord
100
AcDbBlockTableRecord
  2
*D23
340
0
  0
BLOCK_RECORD
  5
81F5
330
8148
100
AcDbSymbolTableRecord
100
AcDbBlockTableRecord
  2
*D24
340
0
  0
BLOCK_RECORD
  5
81F7
330
8148
100
AcDbSymbolTableRecord
100
AcDbBlockTableRecord
  2
*D25
340
0
  0
BLOCK_RECORD
  5
81F9
330
8148
100
AcDbSymbolTableRecord
100
AcDbBlockTableRecord
  2
_NONE
340
0
  0
BLOCK_RECORD
  5
81FB
330
8148
100
AcDbSymbolTableRecord
100
AcDbBlockTableRecord
  2
*D27
340
0
  0
BLOCK_RECORD
  5
81FD
330
8148
100
AcDbSymbolTableRecord
100
AcDbBlockTableRecord
  2
*D28
340
0
  0
BLOCK_RECORD
  5
8205
330
8148
100
AcDbSymbolTableRecord
100
AcDbBlockTableRecord
  2
*D29
340
0
  0
BLOCK_RECORD
  5
8212
330
8148
100
AcDbSymbolTableRecord
100
AcDbBlockTableRecord
  2
*D30
340
0
  0
BLOCK_RECORD
  5
8258
330
8148
100
AcDbSymbolTableRecord
100
AcDbBlockTableRecord
  2
*D31
340
0
  0
BLOCK_RECORD
  5
8264
330
8148
100
AcDbSymbolTableRecord
100
AcDbBlockTableRecord
  2
*D32
340
0
  0
BLOCK_RECORD
  5
827B
330
8148
100
AcDbSymbolTableRecord
100
AcDbBlockTableRecord
  2
*D33
340
0
  0
ENDTAB
  0
ENDSEC
  0
SECTION
  2
BLOCKS
  0
BLOCK
  5
81B7
330
81B6
100
AcDbEntity
  8
0
100
AcDbBlockBegin
  2
*Model_Space
 70
     0
 10
0.0
 20
0.0
 30
0.0
  3
*Model_Space
  1

  0
ENDBLK
  5
81B8
330
81B6
100
AcDbEntity
  8
0
100
AcDbBlockEnd
  0
BLOCK
  5
81B3
330
81B2
100
AcDbEntity
 67
     1
  8
0
100
AcDbBlockBegin
  2
*Paper_Space
 70
     0
 10
0.0
 20
0.0
 30
0.0
  3
*Paper_Space
  1

  0
ENDBLK
  5
81B4
330
81B2
100
AcDbEntity
 67
     1
  8
0
100
AcDbBlockEnd
  0
BLOCK
  5
81C7
330
81C6
100
AcDbEntity
  8
0
100
AcDbBlockBegin
  2
$MODEL_SPACE
 70
     0
 10
0.0
 20
0.0
 30
0.0
  3
$MODEL_SPACE
  1

  0
ENDBLK
  5
1B
330
81C6
100
AcDbEntity
  8
0
100
AcDbBlockEnd
  0
BLOCK
  5
81C9
330
81C8
100
AcDbEntity
  8
0
100
AcDbBlockBegin
  2
$PAPER_SPACE
 70
     0
 10
0.0
 20
0.0
 30
0.0
  3
$PAPER_SPACE
  1

  0
ENDBLK
  5
18
330
81C8
100
AcDbEntity
  8
0
100
AcDbBlockEnd
  0
BLOCK
  5
81CB
330
81CA
100
AcDbEntity
  8
0
100
AcDbBlockBegin
  2
_OPEN
 70
     0
 10
0.0
 20
0.0
 30
0.0
  3
_OPEN
  1

  0
LINE
  5
79FD
330
81CA
100
AcDbEntity
  8
0
  6
ByBlock
 62
     0
100
AcDbLine
 10
-1.0
 20
0.1666666666666666
 30
0.0
 11
0.0
 21
0.0
 31
0.0
  0
LINE
  5
79FE
330
81CA
100
AcDbEntity
  8
0
  6
ByBlock
 62
     0
100
AcDbLine
 10
0.0
 20
0.0
 30
0.0
 11
-1.0
 21
-0.1666666666666666
 31
0.0
  0
LINE
  5
79FF
330
81CA
100
AcDbEntity
  8
0
  6
ByBlock
 62
     0
100
AcDbLine
 10
0.0
 20
0.0
 30
0.0
 11
-1.0
 21
0.0
 31
0.0
  0
ENDBLK
  5
7A01
330
81CA
100
AcDbEntity
  8
0
100
AcDbBlockEnd
  0
BLOCK
  5
81CD
330
81CC
100
AcDbEntity
  8
0
100
AcDbBlockBegin
  2
YA_N
 70
     0
 10
0.0
 20
0.0
 30
0.0
  3
YA_N
  1

  0
ENDBLK
  5
7A04
330
81CC
100
AcDbEntity
  8
0
100
AcDbBlockEnd
  0
BLOCK
  5
81CF
330
81CE
100
AcDbEntity
  8
0
100
AcDbBlockBegin
  2
*D4
 70
     1
 10
0.0
 20
0.0
 30
0.0
  3
*D4
  1

  0
LINE
  5
7E38
330
81CE
100
AcDbEntity
  8
0
  6
ByBlock
100
AcDbLine
 10
313.8332086870922
 20
1702.060302835745
 30
0.0
 11
112.6731116929495
 21
1702.060302835745
 31
0.0
  0
LINE
  5
7E39
330
81CE
100
AcDbEntity
  8
0
  6
ByBlock
100
AcDbLine
 10
313.8332086870922
 20
672.0603028357458
 30
0.0
 11
112.6731116929495
 21
672.0603028357458
 31
0.0
  0
LINE
  5
7E3A
330
81CE
100
AcDbEntity
  8
0
  6
ByBlock
100
AcDbLine
 10
142.6731116929495
 20
1642.060302835745
 30
0.0
 11
142.6731116929495
 21
732.0603028357457
 31
0.0
  0
INSERT
  5
7E3B
330
81CE
100
AcDbEntity
  8
0
  6
ByBlock
100
AcDbBlockReference
  2
_OPEN
 10
142.6731116929495
 20
1702.060302835745
 30
0.0
 41
60.0
 42
60.0
 43
60.0
 50
90.0
  0
INSERT
  5
7E3C
330
81CE
100
AcDbEntity
  8
0
  6
ByBlock
100
AcDbBlockReference
  2
_OPEN
 10
142.6731116929495
 20
672.0603028357458
 30
0.0
 41
60.0
 42
60.0
 43
60.0
 50
270.0
  0
TEXT
  5
7E3D
330
81CE
100
AcDbEntity
  8
3
100
AcDbText
 10
127.6731116929495
 20
1037.060302835745
 30
0.0
 40
90.0
  1
1030
 50
90.0
100
AcDbText
  0
POINT
  5
7E3E
330
81CE
100
AcDbEntity
  8
DEFPOINTS
  6
ByBlock
 62
     0
100
AcDbPoint
 10
343.8332086870923
 20
1702.060302835745
 30
0.0
  0
POINT
  5
7E3F
330
81CE
100
AcDbEntity
  8
DEFPOINTS
  6
ByBlock
 62
     0
100
AcDbPoint
 10
343.8332086870923
 20
672.0603028357458
 30
0.0
  0
POINT
  5
7E40
330
81CE
100
AcDbEntity
  8
DEFPOINTS
  6
ByBlock
 62
     0
100
AcDbPoint
 10
142.6731116929495
 20
672.0603028357458
 30
0.0
  0
ENDBLK
  5
7E41
330
81CE
100
AcDbEntity
  8
0
100
AcDbBlockEnd
  0
BLOCK
  5
81D1
330
81D0
100
AcDbEntity
  8
0
100
AcDbBlockBegin
  2
*D5
 70
     1
 10
0.0
 20
0.0
 30
0.0
  3
*D5
  1

  0
LINE
  5
7E43
330
81D0
100
AcDbEntity
  8
0
  6
ByBlock
100
AcDbLine
 10
313.8332086870922
 20
1702.060302835745
 30
0.0
 11
-88.12893376620378
 21
1702.060302835745
 31
0.0
  0
LINE
  5
7E44
330
81D0
100
AcDbEntity
  8
0
  6
ByBlock
100
AcDbLine
 10
254.2172261894648
 20
628.0603028357453
 30
0.0
 11
-88.12893376620378
 21
628.0603028357453
 31
0.0
  0
LINE
  5
7E45
330
81D0
100
AcDbEntity
  8
0
  6
ByBlock
100
AcDbLine
 10
-58.12893376620377
 20
1642.060302835745
 30
0.0
 11
-58.12893376620377
 21
688.0603028357453
 31
0.0
  0
INSERT
  5
7E46
330
81D0
100
AcDbEntity
  8
0
  6
ByBlock
100
AcDbBlockReference
  2
_OPEN
 10
-58.12893376620377
 20
1702.060302835745
 30
0.0
 41
60.0
 42
60.0
 43
60.0
 50
90.0
  0
INSERT
  5
7E47
330
81D0
100
AcDbEntity
  8
0
  6
ByBlock
100
AcDbBlockReference
  2
_OPEN
 10
-58.12893376620377
 20
628.0603028357453
 30
0.0
 41
60.0
 42
60.0
 43
60.0
 50
270.0
  0
TEXT
  5
7E48
330
81D0
100
AcDbEntity
  8
3
100
AcDbText
 10
-73.12893376620379
 20
1012.917445692888
 30
0.0
 40
90.0
  1
1074
 50
90.0
100
AcDbText
  0
POINT
  5
7E49
330
81D0
100
AcDbEntity
  8
DEFPOINTS
  6
ByBlock
 62
     0
100
AcDbPoint
 10
343.8332086870923
 20
1702.060302835745
 30
0.0
  0
POINT
  5
7E4A
330
81D0
100
AcDbEntity
  8
DEFPOINTS
  6
ByBlock
 62
     0
100
AcDbPoint
 10
284.2172261894648
 20
628.0603028357453
 30
0.0
  0
POINT
  5
7E4B
330
81D0
100
AcDbEntity
  8
DEFPOINTS
  6
ByBlock
 62
     0
100
AcDbPoint
 10
-58.12893376620377
 20
628.0603028357453
 30
0.0
  0
ENDBLK
  5
7E4C
330
81D0
100
AcDbEntity
  8
0
100
AcDbBlockEnd
  0
BLOCK
  5
81D3
330
81D2
100
AcDbEntity
  8
0
100
AcDbBlockBegin
  2
*D6
 70
     1
 10
0.0
 20
0.0
 30
0.0
  3
*D6
  1

  0
LINE
  5
7E4E
330
81D2
100
AcDbEntity
  8
0
  6
ByBlock
100
AcDbLine
 10
254.2172261894648
 20
628.0603028357453
 30
0.0
 11
-88.12893376620378
 21
628.0603028357453
 31
0.0
  0
LINE
  5
7E4F
330
81D2
100
AcDbEntity
  8
0
  6
ByBlock
100
AcDbLine
 10
368.8332086870923
 20
-121.9396971642527
 30
0.0
 11
-88.12893376620378
 21
-121.9396971642527
 31
0.0
  0
LINE
  5
7E50
330
81D2
100
AcDbEntity
  8
0
  6
ByBlock
100
AcDbLine
 10
-58.12893376620377
 20
568.0603028357453
 30
0.0
 11
-58.12893376620377
 21
-61.93969716425272
 31
0.0
  0
INSERT
  5
7E51
330
81D2
100
AcDbEntity
  8
0
  6
ByBlock
100
AcDbBlockReference
  2
_OPEN
 10
-58.12893376620377
 20
628.0603028357453
 30
0.0
 41
60.0
 42
60.0
 43
60.0
 50
90.0
  0
INSERT
  5
7E52
330
81D2
100
AcDbEntity
  8
0
  6
ByBlock
100
AcDbBlockReference
  2
_OPEN
 10
-58.12893376620377
 20
-121.9396971642527
 30
0.0
 41
60.0
 42
60.0
 43
60.0
 50
270.0
  0
TEXT
  5
7E53
330
81D2
100
AcDbEntity
  8
3
100
AcDbText
 10
-73.12893376620379
 20
137.3460171214606
 30
0.0
 40
90.0
  1
750
 50
90.0
100
AcDbText
  0
POINT
  5
7E54
330
81D2
100
AcDbEntity
  8
DEFPOINTS
  6
ByBlock
 62
     0
100
AcDbPoint
 10
284.2172261894648
 20
628.0603028357453
 30
0.0
  0
POINT
  5
7E55
330
81D2
100
AcDbEntity
  8
DEFPOINTS
  6
ByBlock
 62
     0
100
AcDbPoint
 10
398.8332086870923
 20
-121.9396971642527
 30
0.0
  0
POINT
  5
7E56
330
81D2
100
AcDbEntity
  8
DEFPOINTS
  6
ByBlock
 62
     0
100
AcDbPoint
 10
-58.12893376620377
 20
-121.9396971642527
 30
0.0
  0
ENDBLK
  5
7E57
330
81D2
100
AcDbEntity
  8
0
100
AcDbBlockEnd
  0
BLOCK
  5
81D5
330
81D4
100
AcDbEntity
  8
0
100
AcDbBlockBegin
  2
*D7
 70
     1
 10
0.0
 20
0.0
 30
0.0
  3
*D7
  1

  0
LINE
  5
7E59
330
81D4
100
AcDbEntity
  8
0
  6
ByBlock
100
AcDbLine
 10
343.8332086870923
 20
1785.060302835745
 30
0.0
 11
343.8332086870923
 21
1985.834976178721
 31
0.0
  0
LINE
  5
7E5A
330
81D4
100
AcDbEntity
  8
0
  6
ByBlock
100
AcDbLine
 10
1023.833208687094
 20
1822.976195176186
 30
0.0
 11
1023.833208687094
 21
1985.834976178721
 31
0.0
  0
LINE
  5
7E5B
330
81D4
100
AcDbEntity
  8
0
  6
ByBlock
100
AcDbLine
 10
403.8332086870922
 20
1955.834976178721
 30
0.0
 11
963.8332086870942
 21
1955.834976178721
 31
0.0
  0
INSERT
  5
7E5C
330
81D4
100
AcDbEntity
  8
0
  6
ByBlock
100
AcDbBlockReference
  2
_OPEN
 10
343.8332086870923
 20
1955.834976178721
 30
0.0
 41
60.0
 42
60.0
 43
60.0
 50
180.0
  0
INSERT
  5
7E5D
330
81D4
100
AcDbEntity
  8
0
  6
ByBlock
100
AcDbBlockReference
  2
_OPEN
 10
1023.833208687094
 20
1955.834976178721
 30
0.0
 41
60.0
 42
60.0
 43
60.0
  0
TEXT
  5
7E5E
330
81D4
100
AcDbEntity
  8
3
100
AcDbText
 10
568.1189229728074
 20
1970.834976178721
 30
0.0
 40
90.0
  1
680
100
AcDbText
  0
POINT
  5
7E5F
330
81D4
100
AcDbEntity
  8
DEFPOINTS
  6
ByBlock
 62
     0
100
AcDbPoint
 10
343.8332086870923
 20
1755.060302835746
 30
0.0
  0
POINT
  5
7E60
330
81D4
100
AcDbEntity
  8
DEFPOINTS
  6
ByBlock
 62
     0
100
AcDbPoint
 10
1023.833208687094
 20
1792.976195176187
 30
0.0
  0
POINT
  5
7E61
330
81D4
100
AcDbEntity
  8
DEFPOINTS
  6
ByBlock
 62
     0
100
AcDbPoint
 10
1023.833208687094
 20
1955.834976178721
 30
0.0
  0
ENDBLK
  5
7E62
330
81D4
100
AcDbEntity
  8
0
100
AcDbBlockEnd
  0
BLOCK
  5
81D7
330
81D6
100
AcDbEntity
  8
0
100
AcDbBlockBegin
  2
*D8
 70
     1
 10
0.0
 20
0.0
 30
0.0
  3
*D8
  1

  0
LINE
  5
7E64
330
81D6
100
AcDbEntity
  8
0
  6
ByBlock
100
AcDbLine
 10
1023.833208687094
 20
1822.976195176186
 30
0.0
 11
1023.833208687094
 21
1985.377276243805
 31
0.0
  0
LINE
  5
7E65
330
81D6
100
AcDbEntity
  8
0
  6
ByBlock
100
AcDbLine
 10
1888.377325103121
 20
658.0603028357444
 30
0.0
 11
1888.377325103121
 21
1985.377276243805
 31
0.0
  0
LINE
  5
7E66
330
81D6
100
AcDbEntity
  8
0
  6
ByBlock
100
AcDbLine
 10
1083.833208687094
 20
1955.377276243805
 30
0.0
 11
1828.377325103121
 21
1955.377276243805
 31
0.0
  0
INSERT
  5
7E67
330
81D6
100
AcDbEntity
  8
0
  6
ByBlock
100
AcDbBlockReference
  2
_OPEN
 10
1023.833208687094
 20
1955.377276243805
 30
0.0
 41
60.0
 42
60.0
 43
60.0
 50
180.0
  0
INSERT
  5
7E68
330
81D6
100
AcDbEntity
  8
0
  6
ByBlock
100
AcDbBlockReference
  2
_OPEN
 10
1888.377325103121
 20
1955.377276243805
 30
0.0
 41
60.0
 42
60.0
 43
60.0
  0
TEXT
  5
7E69
330
81D6
100
AcDbEntity
  8
3
100
AcDbText
 10
1340.390981180822
 20
1970.377276243805
 30
0.0
 40
90.0
  1
868
100
AcDbText
  0
POINT
  5
7E6A
330
81D6
100
AcDbEntity
  8
DEFPOINTS
  6
ByBlock
 62
     0
100
AcDbPoint
 10
1023.833208687094
 20
1792.976195176187
 30
0.0
  0
POINT
  5
7E6B
330
81D6
100
AcDbEntity
  8
DEFPOINTS
  6
ByBlock
 62
     0
100
AcDbPoint
 10
1888.377325103121
 20
628.0603028357444
 30
0.0
  0
POINT
  5
7E6C
330
81D6
100
AcDbEntity
  8
DEFPOINTS
  6
ByBlock
 62
     0
100
AcDbPoint
 10
1888.377325103121
 20
1955.377276243805
 30
0.0
  0
ENDBLK
  5
7E6D
330
81D6
100
AcDbEntity
  8
0
100
AcDbBlockEnd
  0
BLOCK
  5
81D9
330
81D8
100
AcDbEntity
  8
0
100
AcDbBlockBegin
  2
*D9
 70
     1
 10
0.0
 20
0.0
 30
0.0
  3
*D9
  1

  0
LINE
  5
7EB1
330
81D8
100
AcDbEntity
  8
0
  6
ByBlock
100
AcDbLine
 10
1648.833208687092
 20
4406.031599361241
 30
0.0
 11
1648.833208687092
 21
4627.335536588958
 31
0.0
  0
LINE
  5
7EB2
330
81D8
100
AcDbEntity
  8
0
  6
ByBlock
100
AcDbLine
 10
398.8332086870923
 20
4406.031599361237
 30
0.0
 11
398.8332086870923
 21
4627.335536588958
 31
0.0
  0
LINE
  5
7EB3
330
81D8
100
AcDbEntity
  8
0
  6
ByBlock
100
AcDbLine
 10
1588.833208687092
 20
4597.335536588958
 30
0.0
 11
458.8332086870923
 21
4597.335536588958
 31
0.0
  0
INSERT
  5
7EB4
330
81D8
100
AcDbEntity
  8
0
  6
ByBlock
100
AcDbBlockReference
  2
_OPEN
 10
1648.833208687092
 20
4597.335536588958
 30
0.0
 41
60.0
 42
60.0
 43
60.0
  0
INSERT
  5
7EB5
330
81D8
100
AcDbEntity
  8
0
  6
ByBlock
100
AcDbBlockReference
  2
_OPEN
 10
398.8332086870923
 20
4597.335536588958
 30
0.0
 41
60.0
 42
60.0
 43
60.0
 50
180.0
  0
TEXT
  5
7EB6
330
81D8
100
AcDbEntity
  8
3
100
AcDbText
 10
873.8332086870924
 20
4612.335536588958
 30
0.0
 40
90.0
  1
1250
100
AcDbText
  0
POINT
  5
7EB7
330
81D8
100
AcDbEntity
  8
DEFPOINTS
  6
ByBlock
 62
     0
100
AcDbPoint
 10
1648.833208687092
 20
4376.031599361239
 30
0.0
  0
POINT
  5
7EB8
330
81D8
100
AcDbEntity
  8
DEFPOINTS
  6
ByBlock
 62
     0
100
AcDbPoint
 10
398.8332086870923
 20
4376.031599361239
 30
0.0
  0
POINT
  5
7EB9
330
81D8
100
AcDbEntity
  8
DEFPOINTS
  6
ByBlock
 62
     0
100
AcDbPoint
 10
398.8332086870923
 20
4597.335536588958
 30
0.0
  0
ENDBLK
  5
7EBA
330
81D8
100
AcDbEntity
  8
0
100
AcDbBlockEnd
  0
BLOCK
  5
81DB
330
81DA
100
AcDbEntity
  8
0
100
AcDbBlockBegin
  2
*D10
 70
     1
 10
0.0
 20
0.0
 30
0.0
  3
*D10
  1

  0
LINE
  5
7EBC
330
81DA
100
AcDbEntity
  8
0
  6
ByBlock
100
AcDbLine
 10
2448.833208687092
 20
2841.031599361241
 30
0.0
 11
2448.833208687092
 21
2552.481475534663
 31
0.0
  0
LINE
  5
7EBD
330
81DA
100
AcDbEntity
  8
0
  6
ByBlock
100
AcDbLine
 10
398.8332086870923
 20
2841.031599361238
 30
0.0
 11
398.8332086870923
 21
2552.481475534663
 31
0.0
  0
LINE
  5
7EBE
330
81DA
100
AcDbEntity
  8
0
  6
ByBlock
100
AcDbLine
 10
2388.833208687092
 20
2582.481475534663
 30
0.0
 11
458.8332086870923
 21
2582.481475534663
 31
0.0
  0
INSERT
  5
7EBF
330
81DA
100
AcDbEntity
  8
0
  6
ByBlock
100
AcDbBlockReference
  2
_OPEN
 10
2448.833208687092
 20
2582.481475534663
 30
0.0
 41
60.0
 42
60.0
 43
60.0
  0
INSERT
  5
7EC0
330
81DA
100
AcDbEntity
  8
0
  6
ByBlock
100
AcDbBlockReference
  2
_OPEN
 10
398.8332086870923
 20
2582.481475534663
 30
0.0
 41
60.0
 42
60.0
 43
60.0
 50
180.0
  0
TEXT
  5
7EC1
330
81DA
100
AcDbEntity
  8
3
100
AcDbText
 10
1265.261780115664
 20
2597.481475534663
 30
0.0
 40
90.0
  1
2050
100
AcDbText
  0
POINT
  5
7EC2
330
81DA
100
AcDbEntity
  8
DEFPOINTS
  6
ByBlock
 62
     0
100
AcDbPoint
 10
2448.833208687092
 20
2871.03159936124
 30
0.0
  0
POINT
  5
7EC3
330
81DA
100
AcDbEntity
  8
DEFPOINTS
  6
ByBlock
 62
     0
100
AcDbPoint
 10
398.8332086870923
 20
2871.031599361238
 30
0.0
  0
POINT
  5
7EC4
330
81DA
100
AcDbEntity
  8
DEFPOINTS
  6
ByBlock
 62
     0
100
AcDbPoint
 10
398.8332086870923
 20
2582.481475534663
 30
0.0
  0
ENDBLK
  5
7EC5
330
81DA
100
AcDbEntity
  8
0
100
AcDbBlockEnd
  0
BLOCK
  5
81DD
330
81DC
100
AcDbEntity
  8
0
100
AcDbBlockBegin
  2
*D11
 70
     1
 10
0.0
 20
0.0
 30
0.0
  3
*D11
  1

  0
LINE
  5
7EC7
330
81DC
100
AcDbEntity
  8
0
  6
ByBlock
100
AcDbLine
 10
2478.833208687092
 20
3721.031599361241
 30
0.0
 11
2700.881276187703
 21
3721.031599361241
 31
0.0
  0
LINE
  5
7EC8
330
81DC
100
AcDbEntity
  8
0
  6
ByBlock
100
AcDbLine
 10
2478.833208687092
 20
2871.03159936124
 30
0.0
 11
2700.881276187703
 21
2871.03159936124
 31
0.0
  0
LINE
  5
7EC9
330
81DC
100
AcDbEntity
  8
0
  6
ByBlock
100
AcDbLine
 10
2670.881276187703
 20
3661.031599361241
 30
0.0
 11
2670.881276187703
 21
2931.03159936124
 31
0.0
  0
INSERT
  5
7ECA
330
81DC
100
AcDbEntity
  8
0
  6
ByBlock
100
AcDbBlockReference
  2
_OPEN
 10
2670.881276187703
 20
3721.031599361241
 30
0.0
 41
60.0
 42
60.0
 43
60.0
 50
90.0
  0
INSERT
  5
7ECB
330
81DC
100
AcDbEntity
  8
0
  6
ByBlock
100
AcDbBlockReference
  2
_OPEN
 10
2670.881276187703
 20
2871.03159936124
 30
0.0
 41
60.0
 42
60.0
 43
60.0
 50
270.0
  0
TEXT
  5
7ECC
330
81DC
100
AcDbEntity
  8
3
100
AcDbText
 10
2655.881276187703
 20
3180.317313646954
 30
0.0
 40
90.0
  1
850
 50
90.0
100
AcDbText
  0
POINT
  5
7ECD
330
81DC
100
AcDbEntity
  8
DEFPOINTS
  6
ByBlock
 62
     0
100
AcDbPoint
 10
2448.833208687092
 20
3721.031599361241
 30
0.0
  0
POINT
  5
7ECE
330
81DC
100
AcDbEntity
  8
DEFPOINTS
  6
ByBlock
 62
     0
100
AcDbPoint
 10
2448.833208687092
 20
2871.03159936124
 30
0.0
  0
POINT
  5
7ECF
330
81DC
100
AcDbEntity
  8
DEFPOINTS
  6
ByBlock
 62
     0
100
AcDbPoint
 10
2670.881276187703
 20
2871.03159936124
 30
0.0
  0
ENDBLK
  5
7ED0
330
81DC
100
AcDbEntity
  8
0
100
AcDbBlockEnd
  0
BLOCK
  5
81DF
330
81DE
100
AcDbEntity
  8
0
100
AcDbBlockBegin
  2
*D12
 70
     1
 10
0.0
 20
0.0
 30
0.0
  3
*D12
  1

  0
LINE
  5
7ED2
330
81DE
100
AcDbEntity
  8
0
  6
ByBlock
100
AcDbLine
 10
368.8332086870923
 20
4376.031599361239
 30
0.0
 11
-29.8109293218422
 21
4376.031599361239
 31
0.0
  0
LINE
  5
7ED3
330
81DE
100
AcDbEntity
  8
0
  6
ByBlock
100
AcDbLine
 10
368.8332086870923
 20
2871.031599361238
 30
0.0
 11
-29.8109293218422
 21
2871.031599361238
 31
0.0
  0
LINE
  5
7ED4
330
81DE
100
AcDbEntity
  8
0
  6
ByBlock
100
AcDbLine
 10
0.1890706781578046
 20
4316.031599361237
 30
0.0
 11
0.1890706781578046
 21
2931.031599361238
 31
0.0
  0
INSERT
  5
7ED5
330
81DE
100
AcDbEntity
  8
0
  6
ByBlock
100
AcDbBlockReference
  2
_OPEN
 10
0.1890706781578046
 20
4376.031599361239
 30
0.0
 41
60.0
 42
60.0
 43
60.0
 50
90.0
  0
INSERT
  5
7ED6
330
81DE
100
AcDbEntity
  8
0
  6
ByBlock
100
AcDbBlockReference
  2
_OPEN
 10
0.1890706781578046
 20
2871.031599361238
 30
0.0
 41
60.0
 42
60.0
 43
60.0
 50
270.0
  0
TEXT
  5
7ED7
330
81DE
100
AcDbEntity
  8
3
100
AcDbText
 10
-14.81092932184219
 20
3473.531599361239
 30
0.0
 40
90.0
  1
1505
 50
90.0
100
AcDbText
  0
POINT
  5
7ED8
330
81DE
100
AcDbEntity
  8
DEFPOINTS
  6
ByBlock
 62
     0
100
AcDbPoint
 10
398.8332086870923
 20
4376.031599361239
 30
0.0
  0
POINT
  5
7ED9
330
81DE
100
AcDbEntity
  8
DEFPOINTS
  6
ByBlock
 62
     0
100
AcDbPoint
 10
398.8332086870923
 20
2871.031599361238
 30
0.0
  0
POINT
  5
7EDA
330
81DE
100
AcDbEntity
  8
DEFPOINTS
  6
ByBlock
 62
     0
100
AcDbPoint
 10
0.1890706781578046
 20
2871.031599361238
 30
0.0
  0
ENDBLK
  5
7EDB
330
81DE
100
AcDbEntity
  8
0
100
AcDbBlockEnd
  0
BLOCK
  5
81E1
330
81E0
100
AcDbEntity
  8
0
100
AcDbBlockBegin
  2
*D13
 70
     1
 10
0.0
 20
0.0
 30
0.0
  3
*D13
  1

  0
LINE
  5
8019
330
81E0
100
AcDbEntity
  8
0
  6
ByBlock
100
AcDbLine
 10
4026.721020739036
 20
3186.657117507037
 30
0.0
 11
4026.721020739036
 21
4434.179751975512
 31
0.0
  0
LINE
  5
801A
330
81E0
100
AcDbEntity
  8
0
  6
ByBlock
100
AcDbLine
 10
4994.221020739041
 20
4406.175843669402
 30
0.0
 11
4994.221020739041
 21
4434.179751975512
 31
0.0
  0
LINE
  5
801B
330
81E0
100
AcDbEntity
  8
0
  6
ByBlock
100
AcDbLine
 10
4086.721020739036
 20
4404.179751975513
 30
0.0
 11
4934.221020739041
 21
4404.179751975513
 31
0.0
  0
INSERT
  5
801C
330
81E0
100
AcDbEntity
  8
0
  6
ByBlock
100
AcDbBlockReference
  2
_OPEN
 10
4026.721020739036
 20
4404.179751975513
 30
0.0
 41
60.0
 42
60.0
 43
60.0
 50
180.0
  0
INSERT
  5
801D
330
81E0
100
AcDbEntity
  8
0
  6
ByBlock
100
AcDbBlockReference
  2
_OPEN
 10
4994.221020739041
 20
4404.179751975513
 30
0.0
 41
60.0
 42
60.0
 43
60.0
  0
INSERT
  5
801E
330
81E0
100
AcDbEntity
  8
3
100
AcDbBlockReference
  2
*U14
 10
0.0
 20
0.0
 30
0.0
  0
POINT
  5
801F
330
81E0
100
AcDbEntity
  8
DEFPOINTS
  6
ByBlock
 62
     0
100
AcDbPoint
 10
4026.721020739036
 20
3156.657117507037
 30
0.0
  0
POINT
  5
8020
330
81E0
100
AcDbEntity
  8
DEFPOINTS
  6
ByBlock
 62
     0
100
AcDbPoint
 10
4994.221020739041
 20
4376.175843669403
 30
0.0
  0
POINT
  5
8021
330
81E0
100
AcDbEntity
  8
DEFPOINTS
  6
ByBlock
 62
     0
100
AcDbPoint
 10
4994.221020739041
 20
4404.179751975513
 30
0.0
  0
ENDBLK
  5
8022
330
81E0
100
AcDbEntity
  8
0
100
AcDbBlockEnd
  0
BLOCK
  5
81FF
330
81E2
100
AcDbEntity
  8
0
100
AcDbBlockBegin
  2
*U14
 70
     1
 10
0.0
 20
0.0
 30
0.0
  3
*U14
  1

  0
TEXT
  5
8143
330
81E2
100
AcDbEntity
  8
3
100
AcDbText
 10
4381.899592167609
 20
4569.179751975513
 30
0.0
 40
90.0
  1
MAX
100
AcDbText
  0
TEXT
  5
8144
330
81E2
100
AcDbEntity
  8
3
100
AcDbText
 10
4360.471020739039
 20
4419.179751975511
 30
0.0
 40
90.0
  1
1020
100
AcDbText
  0
ENDBLK
  5
8146
330
81E2
100
AcDbEntity
  8
0
100
AcDbBlockEnd
  0
BLOCK
  5
81E4
330
81E3
100
AcDbEntity
  8
0
100
AcDbBlockBegin
  2
*D15
 70
     1
 10
0.0
 20
0.0
 30
0.0
  3
*D15
  1

  0
LINE
  5
8024
330
81E3
100
AcDbEntity
  8
0
  6
ByBlock
100
AcDbLine
 10
4994.221020739041
 20
4360.646690952726
 30
0.0
 11
4994.221020739041
 21
4434.179751975512
 31
0.0
  0
LINE
  5
8025
330
81E3
100
AcDbEntity
  8
0
  6
ByBlock
100
AcDbLine
 10
5762.221020739045
 20
2870.857117507037
 30
0.0
 11
5762.221020739045
 21
4434.179751975512
 31
0.0
  0
LINE
  5
8026
330
81E3
100
AcDbEntity
  8
0
  6
ByBlock
100
AcDbLine
 10
5054.221020739041
 20
4404.179751975513
 30
0.0
 11
5702.221020739045
 21
4404.179751975513
 31
0.0
  0
INSERT
  5
8027
330
81E3
100
AcDbEntity
  8
0
  6
ByBlock
100
AcDbBlockReference
  2
_OPEN
 10
4994.221020739041
 20
4404.179751975513
 30
0.0
 41
60.0
 42
60.0
 43
60.0
 50
180.0
  0
INSERT
  5
8028
330
81E3
100
AcDbEntity
  8
0
  6
ByBlock
100
AcDbBlockReference
  2
_OPEN
 10
5762.221020739045
 20
4404.179751975513
 30
0.0
 41
60.0
 42
60.0
 43
60.0
  0
TEXT
  5
8029
330
81E3
100
AcDbEntity
  8
3
100
AcDbText
 10
5204.649592167614
 20
4457.751180546941
 30
0.0
 40
90.0
  1
(780)
100
AcDbText
  0
POINT
  5
802A
330
81E3
100
AcDbEntity
  8
DEFPOINTS
  6
ByBlock
 62
     0
100
AcDbPoint
 10
4994.221020739041
 20
4330.646690952726
 30
0.0
  0
POINT
  5
802B
330
81E3
100
AcDbEntity
  8
DEFPOINTS
  6
ByBlock
 62
     0
100
AcDbPoint
 10
5762.221020739045
 20
2840.857117507038
 30
0.0
  0
POINT
  5
802C
330
81E3
100
AcDbEntity
  8
DEFPOINTS
  6
ByBlock
 62
     0
100
AcDbPoint
 10
5762.221020739045
 20
4404.179751975513
 30
0.0
  0
ENDBLK
  5
802D
330
81E3
100
AcDbEntity
  8
0
100
AcDbBlockEnd
  0
BLOCK
  5
81E6
330
81E5
100
AcDbEntity
  8
0
100
AcDbBlockBegin
  2
*D16
 70
     1
 10
0.0
 20
0.0
 30
0.0
  3
*D16
  1

  0
LINE
  5
7EF3
330
81E5
100
AcDbEntity
  8
0
  6
ByBlock
100
AcDbLine
 10
4259.104621073492
 20
1706.374620489382
 30
0.0
 11
4259.104621073492
 21
1986.055054257675
 31
0.0
  0
LINE
  5
7EF4
330
81E5
100
AcDbEntity
  8
0
  6
ByBlock
100
AcDbLine
 10
5509.104621073492
 20
1703.096068293924
 30
0.0
 11
5509.104621073492
 21
1986.055054257675
 31
0.0
  0
LINE
  5
7EF5
330
81E5
100
AcDbEntity
  8
0
  6
ByBlock
100
AcDbLine
 10
4319.104621073492
 20
1956.055054257674
 30
0.0
 11
5449.104621073495
 21
1956.055054257674
 31
0.0
  0
INSERT
  5
7EF6
330
81E5
100
AcDbEntity
  8
0
  6
ByBlock
100
AcDbBlockReference
  2
_OPEN
 10
4259.104621073492
 20
1956.055054257674
 30
0.0
 41
60.0
 42
60.0
 43
60.0
 50
180.0
  0
INSERT
  5
7EF7
330
81E5
100
AcDbEntity
  8
0
  6
ByBlock
100
AcDbBlockReference
  2
_OPEN
 10
5509.104621073492
 20
1956.055054257674
 30
0.0
 41
60.0
 42
60.0
 43
60.0
  0
TEXT
  5
7EF8
330
81E5
100
AcDbEntity
  8
3
100
AcDbText
 10
4734.104621073493
 20
1971.055054257674
 30
0.0
 40
90.0
  1
1250
100
AcDbText
  0
POINT
  5
7EF9
330
81E5
100
AcDbEntity
  8
DEFPOINTS
  6
ByBlock
 62
     0
100
AcDbPoint
 10
4259.104621073492
 20
1676.374620489382
 30
0.0
  0
POINT
  5
7EFA
330
81E5
100
AcDbEntity
  8
DEFPOINTS
  6
ByBlock
 62
     0
100
AcDbPoint
 10
5509.104621073492
 20
1673.096068293924
 30
0.0
  0
POINT
  5
7EFB
330
81E5
100
AcDbEntity
  8
DEFPOINTS
  6
ByBlock
 62
     0
100
AcDbPoint
 10
5509.104621073492
 20
1956.055054257674
 30
0.0
  0
ENDBLK
  5
7EFC
330
81E5
100
AcDbEntity
  8
0
100
AcDbBlockEnd
  0
BLOCK
  5
81E8
330
81E7
100
AcDbEntity
  8
0
100
AcDbBlockBegin
  2
*D17
 70
     1
 10
0.0
 20
0.0
 30
0.0
  3
*D17
  1

  0
LINE
  5
7EFE
330
81E7
100
AcDbEntity
  8
0
  6
ByBlock
100
AcDbLine
 10
5544.604621073492
 20
98.06030283574637
 30
0.0
 11
5883.472841444802
 21
98.06030283574637
 31
0.0
  0
LINE
  5
7EFF
330
81E7
100
AcDbEntity
  8
0
  6
ByBlock
100
AcDbLine
 10
5544.604621073492
 20
1158.060302835746
 30
0.0
 11
5883.472841444802
 21
1158.060302835746
 31
0.0
  0
LINE
  5
7F00
330
81E7
100
AcDbEntity
  8
0
  6
ByBlock
100
AcDbLine
 10
5853.472841444804
 20
158.0603028357463
 30
0.0
 11
5853.472841444804
 21
1098.060302835746
 31
0.0
  0
INSERT
  5
7F01
330
81E7
100
AcDbEntity
  8
0
  6
ByBlock
100
AcDbBlockReference
  2
_OPEN
 10
5853.472841444804
 20
98.06030283574637
 30
0.0
 41
60.0
 42
60.0
 43
60.0
 50
270.0
  0
INSERT
  5
7F02
330
81E7
100
AcDbEntity
  8
0
  6
ByBlock
100
AcDbBlockReference
  2
_OPEN
 10
5853.472841444804
 20
1158.060302835746
 30
0.0
 41
60.0
 42
60.0
 43
60.0
 50
90.0
  0
TEXT
  5
7F03
330
81E7
100
AcDbEntity
  8
3
100
AcDbText
 10
5838.472841444802
 20
433.0603028357463
 30
0.0
 40
90.0
  1
\U+03C61060
 50
90.0
100
AcDbText
  0
POINT
  5
7F04
330
81E7
100
AcDbEntity
  8
DEFPOINTS
  6
ByBlock
 62
     0
100
AcDbPoint
 10
5514.604621073492
 20
98.06030283574637
 30
0.0
  0
POINT
  5
7F05
330
81E7
100
AcDbEntity
  8
DEFPOINTS
  6
ByBlock
 62
     0
100
AcDbPoint
 10
5514.604621073492
 20
1158.060302835746
 30
0.0
  0
POINT
  5
7F06
330
81E7
100
AcDbEntity
  8
DEFPOINTS
  6
ByBlock
 62
     0
100
AcDbPoint
 10
5853.472841444804
 20
1158.060302835746
 30
0.0
  0
ENDBLK
  5
7F07
330
81E7
100
AcDbEntity
  8
0
100
AcDbBlockEnd
  0
BLOCK
  5
81EA
330
81E9
100
AcDbEntity
  8
0
100
AcDbBlockBegin
  2
*D18
 70
     1
 10
0.0
 20
0.0
 30
0.0
  3
*D18
  1

  0
LINE
  5
8134
330
81E9
100
AcDbEntity
  8
3
 62
     0
100
AcDbLine
 10
1270.17386573767
 20
2106.657117507038
 30
0.0
 11
798.2117232843759
 21
2106.657117507038
 31
0.0
  0
LINE
  5
8135
330
81E9
100
AcDbEntity
  8
3
 62
     0
100
AcDbLine
 10
1270.17386573767
 20
2006.657117507038
 30
0.0
 11
798.2117232843759
 21
2006.657117507038
 31
0.0
  0
LINE
  5
8136
330
81E9
100
AcDbEntity
  8
3
 62
     0
100
AcDbLine
 10
828.2117232843756
 20
2166.657117507039
 30
0.0
 11
828.2117232843756
 21
2226.657117507039
 31
0.0
  0
LINE
  5
8137
330
81E9
100
AcDbEntity
  8
3
 62
     0
100
AcDbLine
 10
828.2117232843756
 20
1946.657117507038
 30
0.0
 11
828.2117232843756
 21
1612.371403221324
 31
0.0
  0
LINE
  5
8138
330
81E9
100
AcDbEntity
  8
3
 62
     0
100
AcDbLine
 10
828.2117232843756
 20
2106.657117507038
 30
0.0
 11
828.2117232843756
 21
2006.657117507038
 31
0.0
  0
INSERT
  5
8139
330
81E9
100
AcDbEntity
  8
3
 62
     0
100
AcDbBlockReference
  2
_DOT
 10
828.2117232843756
 20
2106.657117507038
 30
0.0
 41
60.0
 42
60.0
 43
60.0
 50
270.0
  0
INSERT
  5
813A
330
81E9
100
AcDbEntity
  8
3
 62
     0
100
AcDbBlockReference
  2
_OPEN
 10
828.2117232843756
 20
2006.657117507038
 30
0.0
 41
60.0
 42
60.0
 43
60.0
 50
90.0
  0
TEXT
  5
8147
330
81E9
100
AcDbEntity
  8
3
 62
     0
100
AcDbText
 10
573.212
 20
1590.21
 30
0.0
 40
90.0
  1
100
100
AcDbText
  0
POINT
  5
813C
330
81E9
100
AcDbEntity
  8
DEFPOINTS
 62
     0
100
AcDbPoint
 10
1285.173865737671
 20
2106.657117507038
 30
0.0
  0
POINT
  5
813D
330
81E9
100
AcDbEntity
  8
DEFPOINTS
 62
     0
100
AcDbPoint
 10
1285.173865737671
 20
2006.657117507038
 30
0.0
  0
POINT
  5
813E
330
81E9
100
AcDbEntity
  8
DEFPOINTS
 62
     0
100
AcDbPoint
 10
828.2117232843756
 20
2006.657117507038
 30
0.0
  0
ENDBLK
  5
7FD1
330
81E9
100
AcDbEntity
  8
0
100
AcDbBlockEnd
  0
BLOCK
  5
81F0
330
81EB
100
AcDbEntity
  8
0
100
AcDbBlockBegin
  2
_DOT
 70
     0
 10
0.0
 20
0.0
 30
0.0
  3
_DOT
  1

  0
LWPOLYLINE
  5
7FD4
330
81EB
100
AcDbEntity
  8
0
  6
ByBlock
 62
     0
100
AcDbPolyline
 90
        2
 70
     1
 43
0.25
 10
-0.125
 20
0.0
 42
1.0
 10
0.125
 20
0.0
 42
1.0
  0
LINE
  5
7FD8
330
81EB
100
AcDbEntity
  8
0
  6
ByBlock
 62
     0
100
AcDbLine
 10
-0.25
 20
0.0
 30
0.0
 11
-1.0
 21
0.0
 31
0.0
  0
ENDBLK
  5
7FB7
330
81EB
100
AcDbEntity
  8
0
100
AcDbBlockEnd
  0
BLOCK
  5
81ED
330
81EC
100
AcDbEntity
  8
0
100
AcDbBlockBegin
  2
*D20
 70
     1
 10
0.0
 20
0.0
 30
0.0
  3
*D20
  1

  0
LINE
  5
7F2E
330
81EC
100
AcDbEntity
  8
0
  6
ByBlock
100
AcDbLine
 10
343.8332086870923
 20
1785.060302835745
 30
0.0
 11
343.8332086870923
 21
2165.221479554626
 31
0.0
  0
LINE
  5
7F2F
330
81EC
100
AcDbEntity
  8
0
  6
ByBlock
100
AcDbLine
 10
2448.833208687092
 20
8.060302835745686
 30
0.0
 11
2448.833208687092
 21
2165.221479554626
 31
0.0
  0
LINE
  5
7F30
330
81EC
100
AcDbEntity
  8
0
  6
ByBlock
100
AcDbLine
 10
403.8332086870922
 20
2135.221479554626
 30
0.0
 11
2388.833208687092
 21
2135.221479554626
 31
0.0
  0
INSERT
  5
7F31
330
81EC
100
AcDbEntity
  8
0
  6
ByBlock
100
AcDbBlockReference
  2
_OPEN
 10
343.8332086870923
 20
2135.221479554626
 30
0.0
 41
60.0
 42
60.0
 43
60.0
 50
180.0
  0
INSERT
  5
7F32
330
81EC
100
AcDbEntity
  8
0
  6
ByBlock
100
AcDbBlockReference
  2
_OPEN
 10
2448.833208687092
 20
2135.221479554626
 30
0.0
 41
60.0
 42
60.0
 43
60.0
  0
TEXT
  5
7F33
330
81EC
100
AcDbEntity
  8
3
100
AcDbText
 10
1246.333208687092
 20
2150.221479554626
 30
0.0
 40
90.0
  1
2105
100
AcDbText
  0
POINT
  5
7F34
330
81EC
100
AcDbEntity
  8
DEFPOINTS
  6
ByBlock
 62
     0
100
AcDbPoint
 10
343.8332086870923
 20
1755.060302835746
 30
0.0
  0
POINT
  5
7F35
330
81EC
100
AcDbEntity
  8
DEFPOINTS
  6
ByBlock
 62
     0
100
AcDbPoint
 10
2448.833208687092
 20
-21.93969716425431
 30
0.0
  0
POINT
  5
7F36
330
81EC
100
AcDbEntity
  8
DEFPOINTS
  6
ByBlock
 62
     0
100
AcDbPoint
 10
2448.833208687092
 20
2135.221479554626
 30
0.0
  0
ENDBLK
  5
7F37
330
81EC
100
AcDbEntity
  8
0
100
AcDbBlockEnd
  0
BLOCK
  5
81EF
330
81EE
100
AcDbEntity
  8
0
100
AcDbBlockBegin
  2
*D21
 70
     1
 10
0.0
 20
0.0
 30
0.0
  3
*D21
  1

  0
LINE
  5
7F39
330
81EE
100
AcDbEntity
  8
0
  6
ByBlock
100
AcDbLine
 10
1648.833208687092
 20
4406.031599361241
 30
0.0
 11
1648.833208687092
 21
4627.335536588958
 31
0.0
  0
LINE
  5
7F3A
330
81EE
100
AcDbEntity
  8
0
  6
ByBlock
100
AcDbLine
 10
2448.833208687092
 20
3751.03159936124
 30
0.0
 11
2448.833208687092
 21
4627.335536588958
 31
0.0
  0
LINE
  5
7F3B
330
81EE
100
AcDbEntity
  8
0
  6
ByBlock
100
AcDbLine
 10
1708.833208687092
 20
4597.335536588958
 30
0.0
 11
2388.833208687092
 21
4597.335536588958
 31
0.0
  0
INSERT
  5
7F3C
330
81EE
100
AcDbEntity
  8
0
  6
ByBlock
100
AcDbBlockReference
  2
_OPEN
 10
1648.833208687092
 20
4597.335536588958
 30
0.0
 41
60.0
 42
60.0
 43
60.0
 50
180.0
  0
INSERT
  5
7F3D
330
81EE
100
AcDbEntity
  8
0
  6
ByBlock
100
AcDbBlockReference
  2
_OPEN
 10
2448.833208687092
 20
4597.335536588958
 30
0.0
 41
60.0
 42
60.0
 43
60.0
  0
TEXT
  5
7F3E
330
81EE
100
AcDbEntity
  8
3
100
AcDbText
 10
1933.118922972806
 20
4612.335536588958
 30
0.0
 40
90.0
  1
800
100
AcDbText
  0
POINT
  5
7F3F
330
81EE
100
AcDbEntity
  8
DEFPOINTS
  6
ByBlock
 62
     0
100
AcDbPoint
 10
1648.833208687092
 20
4376.031599361239
 30
0.0
  0
POINT
  5
7F40
330
81EE
100
AcDbEntity
  8
DEFPOINTS
  6
ByBlock
 62
     0
100
AcDbPoint
 10
2448.833208687092
 20
3721.031599361241
 30
0.0
  0
POINT
  5
7F41
330
81EE
100
AcDbEntity
  8
DEFPOINTS
  6
ByBlock
 62
     0
100
AcDbPoint
 10
2448.833208687092
 20
4597.335536588958
 30
0.0
  0
ENDBLK
  5
7F42
330
81EE
100
AcDbEntity
  8
0
100
AcDbBlockEnd
  0
BLOCK
  5
81F2
330
81F1
100
AcDbEntity
  8
0
100
AcDbBlockBegin
  2
*D22
 70
     1
 10
0.0
 20
0.0
 30
0.0
  3
*D22
  1

  0
LINE
  5
803C
330
81F1
100
AcDbEntity
  8
0
  6
ByBlock
 62
     0
100
AcDbLine
 10
1285.173865737671
 20
1969.657117507038
 30
0.0
 11
1285.173865737671
 21
1770.848373107928
 31
0.0
  0
LINE
  5
803D
330
81F1
100
AcDbEntity
  8
0
  6
ByBlock
 62
     0
100
AcDbLine
 10
1910.173865737673
 20
1969.657117507038
 30
0.0
 11
1910.173865737673
 21
1770.848373107928
 31
0.0
  0
LINE
  5
803E
330
81F1
100
AcDbEntity
  8
0
  6
ByBlock
 62
     0
100
AcDbLine
 10
1345.173865737671
 20
1800.848373107928
 30
0.0
 11
1850.173865737673
 21
1800.848373107928
 31
0.0
  0
INSERT
  5
803F
330
81F1
100
AcDbEntity
  8
0
  6
ByBlock
 62
     0
100
AcDbBlockReference
  2
_OPEN
 10
1285.173865737671
 20
1800.848373107928
 30
0.0
 41
60.0
 42
60.0
 43
60.0
 50
180.0
  0
INSERT
  5
8040
330
81F1
100
AcDbEntity
  8
0
  6
ByBlock
 62
     0
100
AcDbBlockReference
  2
_OPEN
 10
1910.173865737673
 20
1800.848373107928
 30
0.0
 41
60.0
 42
60.0
 43
60.0
  0
TEXT
  5
8041
330
81F1
100
AcDbEntity
  8
3
 62
     0
100
AcDbText
 10
1481.959580023387
 20
1830.848373107929
 30
0.0
 40
90.0
  1
625
100
AcDbText
  0
POINT
  5
8042
330
81F1
100
AcDbEntity
  8
DEFPOINTS
  6
ByBlock
 62
     0
100
AcDbPoint
 10
1285.173865737671
 20
1999.657117507038
 30
0.0
  0
POINT
  5
8043
330
81F1
100
AcDbEntity
  8
DEFPOINTS
  6
ByBlock
 62
     0
100
AcDbPoint
 10
1910.173865737673
 20
1999.657117507038
 30
0.0
  0
POINT
  5
8044
330
81F1
100
AcDbEntity
  8
DEFPOINTS
  6
ByBlock
 62
     0
100
AcDbPoint
 10
1910.173865737673
 20
1800.848373107928
 30
0.0
  0
ENDBLK
  5
8045
330
81F1
100
AcDbEntity
  8
0
100
AcDbBlockEnd
  0
BLOCK
  5
81F4
330
81F3
100
AcDbEntity
  8
0
100
AcDbBlockBegin
  2
*D23
 70
     1
 10
0.0
 20
0.0
 30
0.0
  3
*D23
  1

  0
LINE
  5
8049
330
81F3
100
AcDbEntity
  8
0
  6
ByBlock
 62
     0
100
AcDbLine
 10
1910.173865737673
 20
1969.657117507038
 30
0.0
 11
1910.173865737673
 21
1770.848373107928
 31
0.0
  0
LINE
  5
804A
330
81F3
100
AcDbEntity
  8
0
  6
ByBlock
 62
     0
100
AcDbLine
 10
3335.173865737672
 20
1969.657117507038
 30
0.0
 11
3335.173865737672
 21
1770.848373107928
 31
0.0
  0
LINE
  5
804B
330
81F3
100
AcDbEntity
  8
0
  6
ByBlock
 62
     0
100
AcDbLine
 10
1970.173865737672
 20
1800.848373107928
 30
0.0
 11
3275.173865737672
 21
1800.848373107928
 31
0.0
  0
INSERT
  5
804C
330
81F3
100
AcDbEntity
  8
0
  6
ByBlock
 62
     0
100
AcDbBlockReference
  2
_OPEN
 10
1910.173865737673
 20
1800.848373107928
 30
0.0
 41
60.0
 42
60.0
 43
60.0
 50
180.0
  0
INSERT
  5
804D
330
81F3
100
AcDbEntity
  8
0
  6
ByBlock
 62
     0
100
AcDbBlockReference
  2
_OPEN
 10
3335.173865737672
 20
1800.848373107928
 30
0.0
 41
60.0
 42
60.0
 43
60.0
  0
TEXT
  5
804E
330
81F3
100
AcDbEntity
  8
3
 62
     0
100
AcDbText
 10
2472.673865737673
 20
1830.848373107929
 30
0.0
 40
90.0
  1
1425
100
AcDbText
  0
POINT
  5
804F
330
81F3
100
AcDbEntity
  8
DEFPOINTS
  6
ByBlock
 62
     0
100
AcDbPoint
 10
1910.173865737673
 20
1999.657117507038
 30
0.0
  0
POINT
  5
8050
330
81F3
100
AcDbEntity
  8
DEFPOINTS
  6
ByBlock
 62
     0
100
AcDbPoint
 10
3335.173865737672
 20
1999.657117507038
 30
0.0
  0
POINT
  5
8051
330
81F3
100
AcDbEntity
  8
DEFPOINTS
  6
ByBlock
 62
     0
100
AcDbPoint
 10
3335.173865737672
 20
1800.848373107928
 30
0.0
  0
ENDBLK
  5
8052
330
81F3
100
AcDbEntity
  8
0
100
AcDbBlockEnd
  0
BLOCK
  5
81F6
330
81F5
100
AcDbEntity
  8
0
100
AcDbBlockBegin
  2
*D24
 70
     1
 10
0.0
 20
0.0
 30
0.0
  3
*D24
  1

  0
LINE
  5
8056
330
81F5
100
AcDbEntity
  8
0
  6
ByBlock
 62
     0
100
AcDbLine
 10
3992.520643908476
 20
1969.657117507036
 30
0.0
 11
3992.520643908476
 21
1770.848373107928
 31
0.0
  0
LINE
  5
8057
330
81F5
100
AcDbEntity
  8
0
  6
ByBlock
 62
     0
100
AcDbLine
 10
4819.520643908475
 20
1969.657117507036
 30
0.0
 11
4819.520643908475
 21
1770.848373107928
 31
0.0
  0
LINE
  5
8058
330
81F5
100
AcDbEntity
  8
0
  6
ByBlock
 62
     0
100
AcDbLine
 10
4052.520643908476
 20
1800.848373107928
 30
0.0
 11
4759.520643908475
 21
1800.848373107928
 31
0.0
  0
INSERT
  5
8059
330
81F5
100
AcDbEntity
  8
0
  6
ByBlock
 62
     0
100
AcDbBlockReference
  2
_OPEN
 10
3992.520643908476
 20
1800.848373107928
 30
0.0
 41
60.0
 42
60.0
 43
60.0
 50
180.0
  0
INSERT
  5
805A
330
81F5
100
AcDbEntity
  8
0
  6
ByBlock
 62
     0
100
AcDbBlockReference
  2
_OPEN
 10
4819.520643908475
 20
1800.848373107928
 30
0.0
 41
60.0
 42
60.0
 43
60.0
  0
TEXT
  5
805B
330
81F5
100
AcDbEntity
  8
3
 62
     0
100
AcDbText
 10
4290.30635819419
 20
1830.848373107929
 30
0.0
 40
90.0
  1
827
100
AcDbText
  0
POINT
  5
805C
330
81F5
100
AcDbEntity
  8
DEFPOINTS
  6
ByBlock
 62
     0
100
AcDbPoint
 10
3992.520643908476
 20
1999.657117507037
 30
0.0
  0
POINT
  5
805D
330
81F5
100
AcDbEntity
  8
DEFPOINTS
  6
ByBlock
 62
     0
100
AcDbPoint
 10
4819.520643908475
 20
1999.657117507037
 30
0.0
  0
POINT
  5
805E
330
81F5
100
AcDbEntity
  8
DEFPOINTS
  6
ByBlock
 62
     0
100
AcDbPoint
 10
4819.520643908475
 20
1800.848373107928
 30
0.0
  0
ENDBLK
  5
805F
330
81F5
100
AcDbEntity
  8
0
100
AcDbBlockEnd
  0
BLOCK
  5
81F8
330
81F7
100
AcDbEntity
  8
0
100
AcDbBlockBegin
  2
*D25
 70
     1
 10
0.0
 20
0.0
 30
0.0
  3
*D25
  1

  0
LINE
  5
8063
330
81F7
100
AcDbEntity
  8
0
  6
ByBlock
 62
     0
100
AcDbLine
 10
4819.520643908475
 20
1969.657117507036
 30
0.0
 11
4819.520643908475
 21
1770.848373107928
 31
0.0
  0
LINE
  5
8064
330
81F7
100
AcDbEntity
  8
0
  6
ByBlock
 62
     0
100
AcDbLine
 10
5497.520643908476
 20
1969.657117507036
 30
0.0
 11
5497.520643908476
 21
1770.848373107928
 31
0.0
  0
LINE
  5
8065
330
81F7
100
AcDbEntity
  8
0
  6
ByBlock
 62
     0
100
AcDbLine
 10
4879.520643908475
 20
1800.848373107928
 30
0.0
 11
5437.520643908476
 21
1800.848373107928
 31
0.0
  0
INSERT
  5
8066
330
81F7
100
AcDbEntity
  8
0
  6
ByBlock
 62
     0
100
AcDbBlockReference
  2
_OPEN
 10
4819.520643908475
 20
1800.848373107928
 30
0.0
 41
60.0
 42
60.0
 43
60.0
 50
180.0
  0
INSERT
  5
8067
330
81F7
100
AcDbEntity
  8
0
  6
ByBlock
 62
     0
100
AcDbBlockReference
  2
_OPEN
 10
5497.520643908476
 20
1800.848373107928
 30
0.0
 41
60.0
 42
60.0
 43
60.0
  0
TEXT
  5
8068
330
81F7
100
AcDbEntity
  8
3
 62
     0
100
AcDbText
 10
5042.806358194191
 20
1830.848373107929
 30
0.0
 40
90.0
  1
678
100
AcDbText
  0
POINT
  5
8069
330
81F7
100
AcDbEntity
  8
DEFPOINTS
  6
ByBlock
 62
     0
100
AcDbPoint
 10
4819.520643908475
 20
1999.657117507037
 30
0.0
  0
POINT
  5
806A
330
81F7
100
AcDbEntity
  8
DEFPOINTS
  6
ByBlock
 62
     0
100
AcDbPoint
 10
5497.520643908476
 20
1999.657117507037
 30
0.0
  0
POINT
  5
806B
330
81F7
100
AcDbEntity
  8
DEFPOINTS
  6
ByBlock
 62
     0
100
AcDbPoint
 10
5497.520643908476
 20
1800.848373107928
 30
0.0
  0
ENDBLK
  5
806C
330
81F7
100
AcDbEntity
  8
0
100
AcDbBlockEnd
  0
BLOCK
  5
81FA
330
81F9
100
AcDbEntity
  8
0
100
AcDbBlockBegin
  2
_NONE
 70
     0
 10
0.0
 20
0.0
 30
0.0
  3
_NONE
  1

  0
CIRCLE
  5
8070
330
81F9
100
AcDbEntity
  8
0
  6
ByBlock
 62
     0
100
AcDbCircle
 10
0.0
 20
0.0
 30
0.0
 40
0.25
  0
ENDBLK
  5
8071
330
81F9
100
AcDbEntity
  8
0
100
AcDbBlockEnd
  0
BLOCK
  5
81FC
330
81FB
100
AcDbEntity
  8
0
100
AcDbBlockBegin
  2
*D27
 70
     1
 10
0.0
 20
0.0
 30
0.0
  3
*D27
  1

  0
LINE
  5
80D5
330
81FB
100
AcDbEntity
  8
0
  6
ByBlock
 62
     0
100
AcDbLine
 10
830.3552352768711
 20
2106.657117507038
 30
0.0
 11
830.3552352768711
 21
2106.657117507038
 31
0.0
  0
LINE
  5
80D6
330
81FB
100
AcDbEntity
  8
0
  6
ByBlock
 62
     0
100
AcDbLine
 10
830.3552352768711
 20
2126.657117507038
 30
0.0
 11
830.3552352768711
 21
2246.657117507038
 31
0.0
  0
TEXT
  5
80D7
330
81FB
100
AcDbEntity
  8
3
 62
     0
100
AcDbText
 10
716.7838067054425
 20
1958.942831792752
 30
0.0
 40
90.0
  1
 (20)
 50
90.0
100
AcDbText
  0
LINE
  5
80D8
330
81FB
100
AcDbEntity
  8
0
  6
ByBlock
 62
     0
100
AcDbLine
 10
830.3552352768711
 20
2106.657117507038
 30
0.0
 11
830.3552352768711
 21
2126.657117507038
 31
0.0
  0
POINT
  5
80D9
330
81FB
100
AcDbEntity
  8
DEFPOINTS
  6
ByBlock
 62
     0
100
AcDbPoint
 10
1285.173865737671
 20
2106.657117507038
 30
0.0
  0
POINT
  5
80DA
330
81FB
100
AcDbEntity
  8
DEFPOINTS
  6
ByBlock
 62
     0
100
AcDbPoint
 10
1285.173865737671
 20
2126.657117507038
 30
0.0
  0
POINT
  5
80DB
330
81FB
100
AcDbEntity
  8
DEFPOINTS
  6
ByBlock
 62
     0
100
AcDbPoint
 10
830.3552352768711
 20
2126.657117507038
 30
0.0
  0
ENDBLK
  5
80DC
330
81FB
100
AcDbEntity
  8
0
100
AcDbBlockEnd
  0
BLOCK
  5
81FE
330
81FD
100
AcDbEntity
  8
0
100
AcDbBlockBegin
  2
*D28
 70
     1
 10
0.0
 20
0.0
 30
0.0
  3
*D28
  1

  0
LINE
  5
80B7
330
81FD
100
AcDbEntity
  8
0
  6
ByBlock
 62
     0
100
AcDbLine
 10
1255.17386573767
 20
2006.657117507038
 30
0.0
 11
525.4608617362101
 21
2006.657117507038
 31
0.0
  0
LINE
  5
80B8
330
81FD
100
AcDbEntity
  8
0
  6
ByBlock
 62
     0
100
AcDbLine
 10
1170.173865737671
 20
3950.657117507036
 30
0.0
 11
525.4608617362101
 21
3950.657117507036
 31
0.0
  0
LINE
  5
80B9
330
81FD
100
AcDbEntity
  8
0
  6
ByBlock
 62
     0
100
AcDbLine
 10
555.46086173621
 20
2066.657117507038
 30
0.0
 11
555.46086173621
 21
3890.657117507036
 31
0.0
  0
INSERT
  5
80BA
330
81FD
100
AcDbEntity
  8
0
  6
ByBlock
 62
     0
100
AcDbBlockReference
  2
_OPEN
 10
555.46086173621
 20
2006.657117507038
 30
0.0
 41
60.0
 42
60.0
 43
60.0
 50
270.0
  0
INSERT
  5
80BB
330
81FD
100
AcDbEntity
  8
0
  6
ByBlock
 62
     0
100
AcDbBlockReference
  2
_OPEN
 10
555.46086173621
 20
3950.657117507036
 30
0.0
 41
60.0
 42
60.0
 43
60.0
 50
90.0
  0
TEXT
  5
80BC
330
81FD
100
AcDbEntity
  8
3
 62
     0
100
AcDbText
 10
486.8894331647815
 20
2770.799974649895
 30
0.0
 40
90.0
  1
(1944)
 50
90.0
100
AcDbText
  0
POINT
  5
80BD
330
81FD
100
AcDbEntity
  8
DEFPOINTS
  6
ByBlock
 62
     0
100
AcDbPoint
 10
1285.173865737671
 20
2006.657117507038
 30
0.0
  0
POINT
  5
80BE
330
81FD
100
AcDbEntity
  8
DEFPOINTS
  6
ByBlock
 62
     0
100
AcDbPoint
 10
1200.173865737671
 20
3950.657117507036
 30
0.0
  0
POINT
  5
80BF
330
81FD
100
AcDbEntity
  8
DEFPOINTS
  6
ByBlock
 62
     0
100
AcDbPoint
 10
555.46086173621
 20
3950.657117507036
 30
0.0
  0
ENDBLK
  5
80C0
330
81FD
100
AcDbEntity
  8
0
100
AcDbBlockEnd
  0
BLOCK
  5
8206
330
8205
100
AcDbEntity
  8
0
100
AcDbBlockBegin
  2
*D29
 70
     1
 10
0.0
 20
0.0
 30
0.0
  3
*D29
  1

  0
LINE
  5
8287
330
8205
100
AcDbEntity
  8
3
 62
     0
370
    -2
100
AcDbLine
 10
3759.520643908471
 20
3186.657117507037
 30
0.0
 11
3759.520643908471
 21
4423.498543833702
 31
0.0
  0
LINE
  5
8288
330
8205
100
AcDbEntity
  8
3
 62
     0
370
    -2
100
AcDbLine
 10
4819.520643908475
 20
4339.651868928965
 30
0.0
 11
4819.520643908475
 21
4423.498543833702
 31
0.0
  0
LINE
  5
8289
330
8205
100
AcDbEntity
  8
3
 62
     0
370
    -2
100
AcDbLine
 10
3819.520643908471
 20
4393.498543833703
 30
0.0
 11
4759.520643908475
 21
4393.498543833703
 31
0.0
  0
INSERT
  5
828A
330
8205
100
AcDbEntity
  8
3
 62
     0
370
    -2
100
AcDbBlockReference
  2
_OPEN
 10
3759.520643908471
 20
4393.498543833703
 30
0.0
 41
60.0
 42
60.0
 43
60.0
 50
180.0
  0
INSERT
  5
828B
330
8205
100
AcDbEntity
  8
3
 62
     0
370
    -2
100
AcDbBlockReference
  2
_OPEN
 10
4819.520643908475
 20
4393.498543833703
 30
0.0
 41
60.0
 42
60.0
 43
60.0
  0
MTEXT
  5
828C
330
8205
100
AcDbEntity
  8
3
 62
     0
100
AcDbMText
 10
4289.520643908472
 20
4492.069972405131
 30
0.0
 40
90.0
 41
0.0
 71
     5
 72
     1
  1
\A1;(1060)
 73
     1
 44
1.0
1001
ACAD
1000
MTEXTBEGIN
1070
    73
1070
     1
1070
    44
1040
1.0
1070
    74
1070
     0
1000
MTEXTEND
  0
POINT
  5
828D
330
8205
100
AcDbEntity
  8
DEFPOINTS
 62
     0
100
AcDbPoint
 10
3759.520643908471
 20
3156.657117507037
 30
0.0
  0
POINT
  5
828E
330
8205
100
AcDbEntity
  8
DEFPOINTS
 62
     0
100
AcDbPoint
 10
4819.520643908475
 20
4309.651868928965
 30
0.0
  0
POINT
  5
828F
330
8205
100
AcDbEntity
  8
DEFPOINTS
 62
     0
100
AcDbPoint
 10
4819.520643908475
 20
4393.498543833703
 30
0.0
  0
ENDBLK
  5
8207
330
8205
100
AcDbEntity
  8
0
100
AcDbBlockEnd
  0
BLOCK
  5
8213
330
8212
100
AcDbEntity
  8
0
100
AcDbBlockBegin
  2
*D30
 70
     1
 10
0.0
 20
0.0
 30
0.0
  3
*D30
  1

  0
LINE
  5
8290
330
8212
100
AcDbEntity
  8
3
 62
     0
370
    -2
100
AcDbLine
 10
4819.520643908475
 20
4339.651868928965
 30
0.0
 11
4819.520643908475
 21
4423.498543833702
 31
0.0
  0
LINE
  5
8291
330
8212
100
AcDbEntity
  8
3
 62
     0
370
    -2
100
AcDbLine
 10
5599.520643908475
 20
2870.857117507038
 30
0.0
 11
5599.520643908475
 21
4423.498543833702
 31
0.0
  0
LINE
  5
8292
330
8212
100
AcDbEntity
  8
3
 62
     0
370
    -2
100
AcDbLine
 10
4879.520643908475
 20
4393.498543833703
 30
0.0
 11
5539.520643908475
 21
4393.498543833703
 31
0.0
  0
INSERT
  5
8293
330
8212
100
AcDbEntity
  8
3
 62
     0
370
    -2
100
AcDbBlockReference
  2
_OPEN
 10
4819.520643908475
 20
4393.498543833703
 30
0.0
 41
60.0
 42
60.0
 43
60.0
 50
180.0
  0
INSERT
  5
8294
330
8212
100
AcDbEntity
  8
3
 62
     0
370
    -2
100
AcDbBlockReference
  2
_OPEN
 10
5599.520643908475
 20
4393.498543833703
 30
0.0
 41
60.0
 42
60.0
 43
60.0
  0
MTEXT
  5
8295
330
8212
100
AcDbEntity
  8
3
 62
     0
100
AcDbMText
 10
5209.520643908475
 20
4492.069972405131
 30
0.0
 40
90.0
 41
0.0
 71
     5
 72
     1
  1
\A1;(780)
 73
     1
 44
1.0
1001
ACAD
1000
MTEXTBEGIN
1070
    73
1070
     1
1070
    44
1040
1.0
1070
    74
1070
     0
1000
MTEXTEND
  0
POINT
  5
8296
330
8212
100
AcDbEntity
  8
DEFPOINTS
 62
     0
100
AcDbPoint
 10
4819.520643908475
 20
4309.651868928965
 30
0.0
  0
POINT
  5
8297
330
8212
100
AcDbEntity
  8
DEFPOINTS
 62
     0
100
AcDbPoint
 10
5599.520643908475
 20
2840.857117507038
 30
0.0
  0
POINT
  5
8298
330
8212
100
AcDbEntity
  8
DEFPOINTS
 62
     0
100
AcDbPoint
 10
5599.520643908475
 20
4393.498543833703
 30
0.0
  0
ENDBLK
  5
8214
330
8212
100
AcDbEntity
  8
0
100
AcDbBlockEnd
  0
BLOCK
  5
8259
330
8258
100
AcDbEntity
  8
0
100
AcDbBlockBegin
  2
*D31
 70
     1
 10
0.0
 20
0.0
 30
0.0
  3
*D31
  1

  0
LINE
  5
8271
330
8258
100
AcDbEntity
  8
3
 62
     0
370
    -2
100
AcDbLine
 10
1401.248675355085
 20
5851.637371266839
 30
0.0
 11
544.7917014335108
 21
5851.637371266839
 31
0.0
  0
LINE
  5
8272
330
8258
100
AcDbEntity
  8
3
 62
     0
370
    -2
100
AcDbLine
 10
1600.173865737672
 20
4791.63737126684
 30
0.0
 11
544.7917014335106
 21
4791.63737126684
 31
0.0
  0
LINE
  5
8273
330
8258
100
AcDbEntity
  8
3
 62
     0
370
    -2
100
AcDbLine
 10
574.7917014335108
 20
5791.63737126684
 30
0.0
 11
574.7917014335106
 21
4851.637371266839
 31
0.0
  0
INSERT
  5
8274
330
8258
100
AcDbEntity
  8
3
 62
     0
370
    -2
100
AcDbBlockReference
  2
_OPEN
 10
574.7917014335108
 20
5851.637371266839
 30
0.0
 41
60.0
 42
60.0
 43
60.0
 50
90.0
  0
INSERT
  5
8275
330
8258
100
AcDbEntity
  8
3
 62
     0
370
    -2
100
AcDbBlockReference
  2
_OPEN
 10
574.7917014335106
 20
4791.63737126684
 30
0.0
 41
60.0
 42
60.0
 43
60.0
 50
270.0
  0
MTEXT
  5
8276
330
8258
100
AcDbEntity
  8
3
 62
     0
100
AcDbMText
 10
499.7917014335099
 20
5321.637371266839
 30
0.0
 40
90.0
 41
0.0
 71
     5
 72
     1
  1
\A1;1060
 11
0.0000000000000001
 21
1.0
 31
0.0
 73
     1
 44
1.0
1001
ACAD
1000
MTEXTBEGIN
1070
    73
1070
     1
1070
    44
1040
1.0
1070
    74
1070
     0
1000
MTEXTEND
  0
POINT
  5
8277
330
8258
100
AcDbEntity
  8
DEFPOINTS
 62
     0
100
AcDbPoint
 10
1431.248675355085
 20
5851.637371266839
 30
0.0
  0
POINT
  5
8278
330
8258
100
AcDbEntity
  8
DEFPOINTS
 62
     0
100
AcDbPoint
 10
1630.173865737672
 20
4791.63737126684
 30
0.0
  0
POINT
  5
8279
330
8258
100
AcDbEntity
  8
DEFPOINTS
 62
     0
100
AcDbPoint
 10
574.7917014335106
 20
4791.63737126684
 30
0.0
  0
ENDBLK
  5
825A
330
8258
100
AcDbEntity
  8
0
100
AcDbBlockEnd
  0
BLOCK
  5
8265
330
8264
100
AcDbEntity
  8
0
100
AcDbBlockBegin
  2
*D32
 70
     1
 10
0.0
 20
0.0
 30
0.0
  3
*D32
  1

  0
LINE
  5
8267
330
8264
100
AcDbEntity
  8
3
 62
     0
370
    -2
100
AcDbLine
 10
3335.173865737672
 20
5022.762371266841
 30
0.0
 11
3335.173865737672
 21
4610.687247440264
 31
0.0
  0
LINE
  5
8268
330
8264
100
AcDbEntity
  8
3
 62
     0
370
    -2
100
AcDbLine
 10
1285.173865737671
 20
5022.762371266839
 30
0.0
 11
1285.173865737671
 21
4610.687247440264
 31
0.0
  0
LINE
  5
8269
330
8264
100
AcDbEntity
  8
3
 62
     0
370
    -2
100
AcDbLine
 10
3329.773865737672
 20
4616.087247440264
 30
0.0
 11
2333.959580023387
 21
4616.087247440264
 31
0.0
  0
LINE
  5
826A
330
8264
100
AcDbEntity
  8
3
 62
     0
370
    -2
100
AcDbLine
 10
1290.573865737671
 20
4616.087247440264
 30
0.0
 11
2286.388151451958
 21
4616.087247440264
 31
0.0
  0
SOLID
  5
826B
330
8264
100
AcDbEntity
  8
3
 62
     0
100
AcDbTrace
 10
3329.773865737672
 20
4616.987247440263
 30
0.0
 11
3329.773865737672
 21
4615.187247440264
 31
0.0
 12
3335.173865737672
 22
4616.087247440264
 32
0.0
 13
3335.173865737672
 23
4616.087247440264
 33
0.0
  0
SOLID
  5
826C
330
8264
100
AcDbEntity
  8
3
 62
     0
100
AcDbTrace
 10
1290.573865737671
 20
4616.987247440263
 30
0.0
 11
1290.573865737671
 21
4615.187247440264
 31
0.0
 12
1285.173865737671
 22
4616.087247440264
 32
0.0
 13
1285.173865737671
 23
4616.087247440264
 33
0.0
  0
MTEXT
  5
826D
330
8264
100
AcDbEntity
  8
3
 62
     0
100
AcDbMText
 10
2310.173865737672
 20
4616.087247440264
 30
0.0
 40
5.399999999999999
 41
0.0
 71
     5
 72
     1
  1
\A1;2050.0000
 73
     1
 44
1.0
1001
ACAD
1000
MTEXTBEGIN
1070
    73
1070
     1
1070
    44
1040
1.0
1070
    74
1070
     0
1000
MTEXTEND
  0
POINT
  5
826E
330
8264
100
AcDbEntity
  8
DEFPOINTS
 62
     0
100
AcDbPoint
 10
3335.173865737672
 20
5024.637371266841
 30
0.0
  0
POINT
  5
826F
330
8264
100
AcDbEntity
  8
DEFPOINTS
 62
     0
100
AcDbPoint
 10
1285.173865737671
 20
5024.637371266839
 30
0.0
  0
POINT
  5
8270
330
8264
100
AcDbEntity
  8
DEFPOINTS
 62
     0
100
AcDbPoint
 10
1285.173865737671
 20
4616.087247440264
 30
0.0
  0
ENDBLK
  5
8266
330
8264
100
AcDbEntity
  8
0
100
AcDbBlockEnd
  0
BLOCK
  5
827C
330
827B
100
AcDbEntity
  8
0
100
AcDbBlockBegin
  2
*D33
 70
     1
 10
0.0
 20
0.0
 30
0.0
  3
*D33
  1

  0
LINE
  5
827E
330
827B
100
AcDbEntity
  8
3
 62
     0
370
    -2
100
AcDbLine
 10
1285.173865737671
 20
4994.637371266839
 30
0.0
 11
1285.173865737671
 21
4577.333626267392
 31
0.0
  0
LINE
  5
827F
330
827B
100
AcDbEntity
  8
3
 62
     0
370
    -2
100
AcDbLine
 10
3335.173865737672
 20
4994.637371266841
 30
0.0
 11
3335.173865737672
 21
4577.333626267392
 31
0.0
  0
LINE
  5
8280
330
827B
100
AcDbEntity
  8
3
 62
     0
370
    -2
100
AcDbLine
 10
1345.173865737671
 20
4607.333626267391
 30
0.0
 11
3275.173865737672
 21
4607.333626267391
 31
0.0
  0
INSERT
  5
8281
330
827B
100
AcDbEntity
  8
3
 62
     0
370
    -2
100
AcDbBlockReference
  2
_OPEN
 10
1285.173865737671
 20
4607.333626267391
 30
0.0
 41
60.0
 42
60.0
 43
60.0
 50
180.0
  0
INSERT
  5
8282
330
827B
100
AcDbEntity
  8
3
 62
     0
370
    -2
100
AcDbBlockReference
  2
_OPEN
 10
3335.173865737672
 20
4607.333626267391
 30
0.0
 41
60.0
 42
60.0
 43
60.0
  0
MTEXT
  5
8283
330
827B
100
AcDbEntity
  8
3
 62
     0
100
AcDbMText
 10
2310.173865737672
 20
4682.333626267391
 30
0.0
 40
90.0
 41
0.0
 71
     5
 72
     1
  1
\A1;2050
 73
     1
 44
1.0
1001
ACAD
1000
MTEXTBEGIN
1070
    73
1070
     1
1070
    44
1040
1.0
1070
    74
1070
     0
1000
MTEXTEND
  0
POINT
  5
8284
330
827B
100
AcDbEntity
  8
DEFPOINTS
 62
     0
100
AcDbPoint
 10
1285.173865737671
 20
5024.637371266839
 30
0.0
  0
POINT
  5
8285
330
827B
100
AcDbEntity
  8
DEFPOINTS
 62
     0
100
AcDbPoint
 10
3335.173865737672
 20
5024.637371266841
 30
0.0
  0
POINT
  5
8286
330
827B
100
AcDbEntity
  8
DEFPOINTS
 62
     0
100
AcDbPoint
 10
3335.173865737672
 20
4607.333626267391
 30
0.0
  0
ENDBLK
  5
827D
330
827B
100
AcDbEntity
  8
0
100
AcDbBlockEnd
  0
ENDSEC
  0
SECTION
  2
ENTITIES
  0
INSERT
  5
7C2A
330
81B6
100
AcDbEntity
  8
0
100
AcDbBlockReference
  2
YA_N
 10
6.0
 20
5.0
 30
0.0
  0
ARC
  5
7C2C
330
81B6
100
AcDbEntity
  8
1
100
AcDbCircle
 10
1836.173865737672
 20
2950.657117507036
 30
0.0
 40
942.0
100
AcDbArc
 50
355.4944154733556
 51
85.49441547335558
  0
ARC
  5
7C2D
330
81B6
100
AcDbEntity
  8
1
100
AcDbCircle
 10
1984.173865737671
 20
2950.657117507036
 30
0.0
 40
794.0
100
AcDbArc
 50
294.2392914290734
 51
354.6523302501612
  0
ARC
  5
7C2E
330
81B6
100
AcDbEntity
  8
1
100
AcDbCircle
 10
1970.673865737671
 20
2816.157117507037
 30
0.0
 40
659.4999999999998
100
AcDbArc
 50
174.736504796933
 51
243.3622439488804
  0
LINE
  5
7C2F
330
81B6
100
AcDbEntity
  8
1
100
AcDbLine
 10
1312.792078268387
 20
2920.657117507036
 30
0.0
 11
1230.17386573767
 21
2920.657117507037
 31
0.0
  0
LINE
  5
7C30
330
81B6
100
AcDbEntity
  8
1
100
AcDbLine
 10
1230.17386573767
 20
4003.657117507037
 30
0.0
 11
1230.17386573767
 21
2867.657117507036
 31
0.0
  0
LINE
  5
7C31
330
81B6
100
AcDbEntity
  8
1
100
AcDbLine
 10
1230.17386573767
 20
3950.657117507036
 30
0.0
 11
1910.173865737671
 21
3889.74603768446
 31
0.0
  0
LINE
  5
7C32
330
81B6
100
AcDbEntity
  8
1
100
AcDbLine
 10
1234.173865737673
 20
4003.657117507037
 30
0.0
 11
1230.17386573767
 21
4003.657117507037
 31
0.0
  0
LINE
  5
7C33
330
81B6
100
AcDbEntity
  8
1
100
AcDbLine
 10
1234.17386573767
 20
2867.657117507036
 30
0.0
 11
1230.17386573767
 21
2867.657117507036
 31
0.0
  0
LINE
  5
7C34
330
81B6
100
AcDbEntity
  8
1
100
AcDbLine
 10
1280.173865737672
 20
3946.178361637729
 30
0.0
 11
1280.173865737672
 21
2920.657117507036
 31
0.0
  0
LINE
  5
7C35
330
81B6
100
AcDbEntity
  8
1
100
AcDbLine
 10
1234.173865737673
 20
4003.657117507037
 30
0.0
 11
1234.17386573767
 21
2867.657117507036
 31
0.0
  0
LINE
  5
7C36
330
81B6
100
AcDbEntity
  8
1
100
AcDbLine
 10
3335.173865737672
 20
2226.657117507036
 30
0.0
 11
1285.173865737671
 21
2226.657117507038
 31
0.0
  0
LINE
  5
7C37
330
81B6
100
AcDbEntity
  8
1
100
AcDbLine
 10
1285.173865737671
 20
2226.657117507038
 30
0.0
 11
1285.173865737671
 21
2126.657117507038
 31
0.0
  0
LINE
  5
7C38
330
81B6
100
AcDbEntity
  8
2
100
AcDbLine
 10
3734.520643908473
 20
2876.657117507037
 30
0.0
 11
5625.597275457778
 21
2876.657117507037
 31
0.0
  0
LINE
  5
7C39
330
81B6
100
AcDbEntity
  8
2
100
AcDbLine
 10
4819.520643908475
 20
4181.70598885571
 30
0.0
 11
4819.520643908475
 21
2006.657117507037
 31
0.0
  0
LINE
  5
7C3A
330
81B6
100
AcDbEntity
  8
1
100
AcDbLine
 10
3992.520643908475
 20
2126.657117507037
 30
0.0
 11
5497.520643908476
 21
2126.657117507037
 31
0.0
1001
ACAD
1000
ASC_BOUNDS
1002
{
1070
    19
1005
0
1005
0
1002
}
  0
LINE
  5
7C3B
330
81B6
100
AcDbEntity
  8
1
100
AcDbLine
 10
3992.520643908476
 20
2226.657117507037
 30
0.0
 11
5497.520643908477
 21
2226.657117507037
 31
0.0
  0
LINE
  5
7C3C
330
81B6
100
AcDbEntity
  8
1
100
AcDbLine
 10
5444.520643908477
 20
3950.657117507038
 30
0.0
 11
5444.520643908478
 21
2876.657117507037
 31
0.0
  0
LINE
  5
7C3D
330
81B6
100
AcDbEntity
  8
2
100
AcDbLine
 10
1910.173865737673
 20
4041.573009847478
 30
0.0
 11
1910.173865737673
 21
2006.657117507038
 31
0.0
  0
LINE
  5
7C3E
330
81B6
100
AcDbEntity
  8
2
100
AcDbLine
 10
1170.557883240044
 20
2876.657117507037
 30
0.0
 11
2842.68878179388
 21
2876.657117507037
 31
0.0
  0
LINE
  5
7C3F
330
81B6
100
AcDbEntity
  8
1
100
AcDbLine
 10
3335.173865737672
 20
2126.657117507038
 30
0.0
 11
1285.173865737671
 21
2126.657117507038
 31
0.0
1001
ACAD
1000
ASC_BOUNDS
1002
{
1070
    19
1005
0
1002
}
  0
INSERT
  5
7C40
330
81B6
100
AcDbEntity
  8
0
100
AcDbBlockReference
  2
YA_N
 10
-1637.209838160516
 20
-1405.432827243363
 30
0.0
 41
25.0
 42
25.0
 43
25.0
  0
ARC
  5
7C42
330
81B6
100
AcDbEntity
  8
1
100
AcDbCircle
 10
3060.173865737672
 20
2461.657117507038
 30
0.0
 40
185.0
100
AcDbArc
 50
287.9452509999999
 51
252.054749
  0
LINE
  5
7C43
330
81B6
100
AcDbEntity
  8
2
100
AcDbLine
 10
3060.173865737672
 20
2725.472791507038
 30
0.0
 11
3060.173865737673
 21
2006.657117507038
 31
0.0
  0
LINE
  5
7C44
330
81B6
100
AcDbEntity
  8
1
100
AcDbLine
 10
3003.173850737673
 20
2285.657117507037
 30
0.0
 11
3117.173865737673
 21
2285.657117507037
 31
0.0
  0
LINE
  5
7C45
330
81B6
100
AcDbEntity
  8
1
100
AcDbLine
 10
2898.173850737672
 20
2356.916150507037
 30
0.0
 11
2898.173850737672
 21
2281.657117507037
 31
0.0
  0
LINE
  5
7C49
330
81B6
100
AcDbEntity
  8
1
100
AcDbLine
 10
2957.673850737672
 20
2286.805676507037
 30
0.0
 11
2967.180564737672
 21
2301.728284507037
 31
0.0
  0
LINE
  5
7C4A
330
81B6
100
AcDbEntity
  8
1
100
AcDbLine
 10
2957.673850737672
 20
2298.657117507037
 30
0.0
 11
2957.673850737672
 21
2281.657117507037
 31
0.0
  0
LINE
  5
7C4C
330
81B6
100
AcDbEntity
  8
1
100
AcDbLine
 10
2901.173850737672
 20
2301.657117507037
 30
0.0
 11
2954.673850737672
 21
2301.657117507037
 31
0.0
  0
ARC
  5
7C4E
330
81B6
100
AcDbEntity
  8
1
100
AcDbCircle
 10
2901.173850737672
 20
2298.657117507037
 30
0.0
 40
3.0
100
AcDbArc
 50
90.0
 51
180.0
  0
LINE
  5
7C50
330
81B6
100
AcDbEntity
  8
1
100
AcDbLine
 10
2949.349936737672
 20
2301.657117507037
 30
0.0
 11
2954.529685737672
 21
2309.787717507037
 31
0.0
  0
ARC
  5
7C51
330
81B6
100
AcDbEntity
  8
1
100
AcDbCircle
 10
2954.673850737672
 20
2298.657117507037
 30
0.0
 40
3.0
100
AcDbArc
 50
0.0
 51
90.0
  0
LINE
  5
7C54
330
81B6
100
AcDbEntity
  8
1
100
AcDbLine
 10
2898.173850737672
 20
2356.916150507037
 30
0.0
 11
2904.557822737672
 21
2361.613904507037
 31
0.0
  0
LINE
  5
7C57
330
81B6
100
AcDbEntity
  8
1
100
AcDbLine
 10
3222.173865737673
 20
2356.916150507037
 30
0.0
 11
3222.173865737673
 21
2281.657117507037
 31
0.0
  0
LINE
  5
7C58
330
81B6
100
AcDbEntity
  8
1
100
AcDbLine
 10
3219.173865737673
 20
2301.657117507037
 30
0.0
 11
3165.673865737673
 21
2301.657117507037
 31
0.0
  0
LINE
  5
7C59
330
81B6
100
AcDbEntity
  8
1
100
AcDbLine
 10
3162.673865737672
 20
2286.805676507037
 30
0.0
 11
3153.167151737672
 21
2301.728284507037
 31
0.0
  0
LINE
  5
7C5C
330
81B6
100
AcDbEntity
  8
1
100
AcDbLine
 10
3162.673865737672
 20
2281.657117507037
 30
0.0
 11
3162.673865737672
 21
2298.657117507037
 31
0.0
  0
LINE
  5
7C5F
330
81B6
100
AcDbEntity
  8
1
100
AcDbLine
 10
3170.997779737672
 20
2301.657117507037
 30
0.0
 11
3165.818030737672
 21
2309.787717507037
 31
0.0
  0
ARC
  5
7C60
330
81B6
100
AcDbEntity
  8
1
100
AcDbCircle
 10
3165.673865737673
 20
2298.657117507037
 30
0.0
 40
3.0
100
AcDbArc
 50
90.0
 51
180.0
  0
ARC
  5
7C63
330
81B6
100
AcDbEntity
  8
1
100
AcDbCircle
 10
3219.173865737673
 20
2298.657117507037
 30
0.0
 40
3.0
100
AcDbArc
 50
0.0
 51
90.0
  0
LINE
  5
7C64
330
81B6
100
AcDbEntity
  8
1
100
AcDbLine
 10
3222.173865737673
 20
2356.916150507037
 30
0.0
 11
3215.789893737672
 21
2361.613904507037
 31
0.0
  0
LINE
  5
7C65
330
81B6
100
AcDbEntity
  8
2
100
AcDbLine
 10
3310.600279863216
 20
2461.657117507038
 30
0.0
 11
2844.094333091716
 21
2461.657117507038
 31
0.0
  0
LINE
  5
7C66
330
81B6
100
AcDbEntity
  8
1
100
AcDbLine
 10
3270.589878763438
 20
2281.657117507037
 30
0.0
 11
3130.173865737673
 21
2281.657117507037
 31
0.0
  0
LINE
  5
7C67
330
81B6
100
AcDbEntity
  8
1
100
AcDbLine
 10
2835.173865737673
 20
2226.657117507036
 30
0.0
 11
2849.958614524006
 21
2281.657117507037
 31
0.0
  0
LINE
  5
7C68
330
81B6
100
AcDbEntity
  8
1
100
AcDbLine
 10
3285.173865737673
 20
2226.657117507036
 30
0.0
 11
3270.589878763438
 21
2281.657117507037
 31
0.0
  0
LINE
  5
7C6A
330
81B6
100
AcDbEntity
  8
1
100
AcDbLine
 10
3130.173865737673
 20
2271.657117507036
 30
0.0
 11
2990.173865737673
 21
2271.657117507036
 31
0.0
  0
LINE
  5
7C6B
330
81B6
100
AcDbEntity
  8
1
100
AcDbLine
 10
3130.173865737673
 20
2281.657117507037
 30
0.0
 11
3130.173865737673
 21
2271.657117507036
 31
0.0
  0
LINE
  5
7C6C
330
81B6
100
AcDbEntity
  8
1
100
AcDbLine
 10
2990.173865737672
 20
2281.657117507037
 30
0.0
 11
2990.173865737672
 21
2271.657117507036
 31
0.0
  0
LINE
  5
7C6D
330
81B6
100
AcDbEntity
  8
1
100
AcDbLine
 10
2990.173865737673
 20
2281.657117507037
 30
0.0
 11
2849.958614524006
 21
2281.657117507037
 31
0.0
  0
CIRCLE
  5
7C70
330
81B6
100
AcDbEntity
  8
1
100
AcDbCircle
 10
1910.173865737673
 20
2876.657117507037
 30
0.0
 40
165.0999999999999
  0
CIRCLE
  5
7C71
330
81B6
100
AcDbEntity
  8
1
100
AcDbCircle
 10
3060.173865737672
 20
2461.657117507038
 30
0.0
 40
114.3
  0
LINE
  5
7C72
330
81B6
100
AcDbEntity
  8
1
100
AcDbLine
 10
3335.173865737672
 20
2106.657117507038
 30
0.0
 11
1285.173865737671
 21
2106.657117507038
 31
0.0
1001
ACAD
1000
ASC_BOUNDS
1002
{
1070
    19
1005
0
1002
}
  0
LINE
  5
7C73
330
81B6
100
AcDbEntity
  8
1
100
AcDbLine
 10
3335.173865737672
 20
2006.657117507038
 30
0.0
 11
1285.173865737671
 21
2006.657117507038
 31
0.0
  0
LINE
  5
7C74
330
81B6
100
AcDbEntity
  8
1
100
AcDbLine
 10
1285.173865737671
 20
2106.657117507038
 30
0.0
 11
1285.173865737671
 21
2006.657117507038
 31
0.0
  0
POINT
  5
7C75
330
81B6
100
AcDbEntity
  8
1
100
AcDbPoint
 10
1285.173865737671
 20
2106.657117507038
 30
0.0
  0
POINT
  5
7C76
330
81B6
100
AcDbEntity
  8
1
100
AcDbPoint
 10
1285.173865737671
 20
2106.657117507038
 30
0.0
  0
LINE
  5
7C77
330
81B6
100
AcDbEntity
  8
1
100
AcDbLine
 10
3992.520643908475
 20
2106.657117507037
 30
0.0
 11
5497.520643908476
 21
2106.657117507037
 31
0.0
1001
ACAD
1000
ASC_BOUNDS
1002
{
1070
    19
1005
0
1005
0
1002
}
  0
POINT
  5
7C78
330
81B6
100
AcDbEntity
  8
1
100
AcDbPoint
 10
1285.173865737671
 20
2106.657117507038
 30
0.0
  0
POINT
  5
7C79
330
81B6
100
AcDbEntity
  8
1
100
AcDbPoint
 10
1285.173865737671
 20
2106.657117507038
 30
0.0
  0
LINE
  5
7C7A
330
81B6
100
AcDbEntity
  8
1
100
AcDbLine
 10
4819.520643908475
 20
3950.657117507038
 30
0.0
 11
5444.520643908478
 21
3950.657117507038
 31
0.0
  0
INSERT
  5
7C7B
330
81B6
100
AcDbEntity
  8
0
100
AcDbBlockReference
  2
YA_N
 10
-1144.893563079054
 20
-989.0222135336152
 30
0.0
 41
25.0
 42
25.0
 43
25.0
  0
DIMENSION
  5
7C7D
330
81B6
100
AcDbEntity
  8
3
100
AcDbDimension
  2
*D4
 10
1029.013768743529
 20
2920.657117507037
 30
0.0
 11
969.013768743529
 21
3435.657117507036
 31
0.0
 12
886.3406570505793
 22
2248.596814671291
 32
0.0
 71
     5
 42
-1.0
  3
Standard
100
AcDbAlignedDimension
 13
1230.17386573767
 23
3950.657117507036
 33
0.0
 14
1230.17386573767
 24
2920.657117507037
 34
0.0
 50
90.0
100
AcDbRotatedDimension
1001
ACAD
1000
DSTYLE
1002
{
1070
    40
1040
30.0
1002
}
  0
DIMENSION
  5
7C7E
330
81B6
100
AcDbEntity
  8
3
100
AcDbDimension
  2
*D5
 10
828.2117232843756
 20
2876.657117507037
 30
0.0
 11
768.2117232843759
 21
3413.657117507037
 31
0.0
 12
886.3406570505793
 22
2248.596814671291
 32
0.0
 71
     5
 42
-1.0
  3
Standard
100
AcDbAlignedDimension
 13
1230.17386573767
 23
3950.657117507036
 33
0.0
 14
1170.557883240044
 24
2876.657117507037
 34
0.0
 50
90.0
100
AcDbRotatedDimension
1001
ACAD
1000
DSTYLE
1002
{
1070
    40
1040
30.0
1002
}
  0
DIMENSION
  5
7C7F
330
81B6
100
AcDbEntity
  8
3
100
AcDbDimension
  2
*D6
 10
828.2117232843756
 20
2126.657117507038
 30
0.0
 11
768.2117232843759
 21
2501.657117507037
 31
0.0
 12
886.3406570505793
 22
2248.596814671291
 32
0.0
 71
     5
 42
-1.0
  3
Standard
100
AcDbAlignedDimension
 13
1170.557883240044
 23
2876.657117507037
 33
0.0
 14
1285.173865737671
 24
2126.657117507038
 34
0.0
 50
90.0
100
AcDbRotatedDimension
1001
ACAD
1000
DSTYLE
1002
{
1070
    40
1040
30.0
1002
}
  0
POINT
  5
7C80
330
81B6
100
AcDbEntity
  8
1
100
AcDbPoint
 10
1285.173865737671
 20
2106.657117507038
 30
0.0
  0
POINT
  5
7C81
330
81B6
100
AcDbEntity
  8
1
100
AcDbPoint
 10
1285.173865737671
 20
2106.657117507038
 30
0.0
  0
DIMENSION
  5
7C82
330
81B6
100
AcDbEntity
  8
3
100
AcDbDimension
  2
*D7
 10
1910.173865737673
 20
4204.431790850012
 30
0.0
 11
1570.173865737672
 21
4264.431790850013
 31
0.0
 12
886.3406570505793
 22
2248.596814671291
 32
0.0
 71
     5
 42
-1.0
  3
Standard
100
AcDbAlignedDimension
 13
1230.17386573767
 23
4003.657117507037
 33
0.0
 14
1910.173865737673
 24
4041.573009847478
 34
0.0
100
AcDbRotatedDimension
1001
ACAD
1000
DSTYLE
1002
{
1070
    40
1040
30.0
1002
}
  0
DIMENSION
  5
7C83
330
81B6
100
AcDbEntity
  8
3
100
AcDbDimension
  2
*D8
 10
2774.717982153701
 20
4203.974090915097
 30
0.0
 11
2342.445923945687
 21
4263.974090915097
 31
0.0
 12
886.3406570505793
 22
2248.596814671291
 32
0.0
  1
868
 71
     5
 42
-1.0
  3
Standard
100
AcDbAlignedDimension
 13
1910.173865737673
 23
4041.573009847478
 33
0.0
 14
2774.717982153701
 24
2876.657117507035
 34
0.0
100
AcDbRotatedDimension
1001
ACAD
1000
DSTYLE
1002
{
1070
    40
1040
30.0
1002
}
  0
LINE
  5
7C84
330
81B6
100
AcDbEntity
  8
1
100
AcDbLine
 10
5444.520643908477
 20
2876.657117507037
 30
0.0
 11
5444.520643908477
 21
2226.657117507037
 31
0.0
  0
LINE
  5
7C85
330
81B6
100
AcDbEntity
  8
1
100
AcDbLine
 10
4194.520643908473
 20
3950.657117507038
 30
0.0
 11
4194.520643908473
 21
2876.657117507037
 31
0.0
  0
LINE
  5
7C86
330
81B6
100
AcDbEntity
  8
1
100
AcDbLine
 10
4819.520643908475
 20
3950.657117507038
 30
0.0
 11
4194.520643908474
 21
3950.657117507038
 31
0.0
  0
LINE
  5
7C87
330
81B6
100
AcDbEntity
  8
1
100
AcDbLine
 10
4194.520643908473
 20
2876.657117507037
 30
0.0
 11
4194.520643908473
 21
2644.157117507038
 31
0.0
  0
LINE
  5
7C88
330
81B6
100
AcDbEntity
  8
1
100
AcDbLine
 10
5599.520643908475
 20
2840.857117507038
 30
0.0
 11
5599.520643908476
 21
2710.857117507038
 31
0.0
  0
LINE
  5
7C89
330
81B6
100
AcDbEntity
  8
1
100
AcDbLine
 10
5462.520643908477
 20
2850.857117507038
 30
0.0
 11
5462.520643908476
 21
2700.857117507037
 31
0.0
  0
LINE
  5
7C8A
330
81B6
100
AcDbEntity
  8
1
100
AcDbLine
 10
5462.520643908476
 20
2850.857117507037
 30
0.0
 11
5511.820643908477
 21
2850.857117507038
 31
0.0
  0
LINE
  5
7C8B
330
81B6
100
AcDbEntity
  8
1
100
AcDbLine
 10
5462.520643908476
 20
2700.857117507037
 30
0.0
 11
5511.820643908477
 21
2700.857117507037
 31
0.0
  0
ARC
  5
7C8C
330
81B6
100
AcDbEntity
  8
1
100
AcDbCircle
 10
5589.520643908478
 20
2840.857117507038
 30
0.0
 40
10.0
100
AcDbArc
 50
0.0000000000006514
 51
90.0
  0
ARC
  5
7C8D
330
81B6
100
AcDbEntity
  8
1
100
AcDbCircle
 10
5589.520643908478
 20
2710.857117507038
 30
0.0
 40
10.0
100
AcDbArc
 50
270.0
 51
0.0000000000006514
  0
LINE
  5
7C8E
330
81B6
100
AcDbEntity
  8
1
100
AcDbLine
 10
5511.820643908475
 20
2850.857117507038
 30
0.0
 11
5589.520643908475
 21
2850.857117507038
 31
0.0
  0
LINE
  5
7C8F
330
81B6
100
AcDbEntity
  8
1
100
AcDbLine
 10
5511.820643908477
 20
2700.857117507037
 30
0.0
 11
5589.520643908478
 21
2700.857117507037
 31
0.0
  0
LINE
  5
7C90
330
81B6
100
AcDbEntity
  8
1
100
AcDbLine
 10
3896.520643908475
 20
3041.757117507037
 30
0.0
 11
4006.520643908475
 21
3041.757117507037
 31
0.0
  0
LINE
  5
7C91
330
81B6
100
AcDbEntity
  8
1
100
AcDbLine
 10
3896.520643908475
 20
2711.557117507037
 30
0.0
 11
4006.520643908475
 21
2711.557117507037
 31
0.0
  0
LINE
  5
7C92
330
81B6
100
AcDbEntity
  8
1
100
AcDbLine
 10
3896.520643908475
 20
2575.957117507037
 30
0.0
 11
4006.520643908475
 21
2575.957117507037
 31
0.0
  0
LINE
  5
7C93
330
81B6
100
AcDbEntity
  8
1
100
AcDbLine
 10
3896.520643908477
 20
2347.357117507037
 30
0.0
 11
4006.520643908475
 21
2347.357117507037
 31
0.0
  0
LINE
  5
7C94
330
81B6
100
AcDbEntity
  8
1
100
AcDbLine
 10
3896.520643908475
 20
3041.757117507037
 30
0.0
 11
3896.520643908475
 21
2347.357117507037
 31
0.0
  0
LINE
  5
7C95
330
81B6
100
AcDbEntity
  8
1
100
AcDbLine
 10
4006.520643908475
 20
3041.757117507037
 30
0.0
 11
4006.520643908475
 21
2347.357117507037
 31
0.0
  0
LINE
  5
7C96
330
81B6
100
AcDbEntity
  8
1
100
AcDbLine
 10
3759.520643908471
 20
3156.657117507037
 30
0.0
 11
3759.52064390848
 21
2241.657117507037
 31
0.0
  0
LINE
  5
7C97
330
81B6
100
AcDbEntity
  8
1
100
AcDbLine
 10
3759.520643908471
 20
3156.657117507037
 30
0.0
 11
4052.02064390847
 21
3156.657117507037
 31
0.0
  0
LINE
  5
7C98
330
81B6
100
AcDbEntity
  8
1
100
AcDbLine
 10
3759.520643908479
 20
2241.657117507037
 30
0.0
 11
4052.02064390848
 21
2241.657117507037
 31
0.0
  0
LINE
  5
7C99
330
81B6
100
AcDbEntity
  8
1
100
AcDbLine
 10
4052.02064390847
 20
3156.65711750704
 30
0.0
 11
4052.02064390847
 21
3136.657117507037
 31
0.0
  0
LINE
  5
7C9A
330
81B6
100
AcDbEntity
  8
1
100
AcDbLine
 10
4052.02064390848
 20
2261.657117507037
 30
0.0
 11
4052.02064390848
 21
2241.65711750704
 31
0.0
  0
POINT
  5
7C9B
330
81B6
100
AcDbEntity
  8
1
100
AcDbPoint
 10
5599.520643908479
 20
2840.857117507038
 30
0.0
  0
LINE
  5
7C9C
330
81B6
100
AcDbEntity
  8
2
100
AcDbLine
 10
1910.173865737671
 20
6445.552933116022
 30
0.0
 11
1910.173865737671
 21
4757.565125545465
 31
0.0
  0
LINE
  5
7C9D
330
81B6
100
AcDbEntity
  8
2
100
AcDbLine
 10
2395.828431389951
 20
5851.637371266839
 30
0.0
 11
1431.248675355085
 21
5851.637371266839
 31
0.0
  0
INSERT
  5
7C9E
330
81B6
100
AcDbEntity
  8
0
100
AcDbBlockReference
  2
YA_N
 10
3439.312525519781
 20
-2261.498311600258
 30
0.0
  0
LINE
  5
7CA0
330
81B6
100
AcDbEntity
  8
1
100
AcDbLine
 10
3992.520643908476
 20
2006.657117507037
 30
0.0
 11
5497.520643908477
 21
2006.657117507037
 31
0.0
1001
ACAD
1000
ASC_BOUNDS
1002
{
1070
    19
1002
}
  0
LINE
  5
7CA1
330
81B6
100
AcDbEntity
  8
1
100
AcDbLine
 10
5497.520643908477
 20
2226.657117507037
 30
0.0
 11
5497.520643908476
 21
2126.657117507037
 31
0.0
  0
LINE
  5
7CA2
330
81B6
100
AcDbEntity
  8
1
100
AcDbLine
 10
3992.520643908475
 20
2226.657117507037
 30
0.0
 11
3992.520643908475
 21
2126.657117507037
 31
0.0
  0
LINE
  5
7CA3
330
81B6
100
AcDbEntity
  8
1
100
AcDbLine
 10
4127.220643908477
 20
2844.457117507039
 30
0.0
 11
4061.520643908475
 21
2844.457117507039
 31
0.0
  0
LINE
  5
7CA4
330
81B6
100
AcDbEntity
  8
1
100
AcDbLine
 10
4127.220643908475
 20
2694.457117507039
 30
0.0
 11
4061.520643908473
 21
2694.457117507039
 31
0.0
  0
LINE
  5
7CA5
330
81B6
100
AcDbEntity
  8
1
100
AcDbLine
 10
4176.520643908474
 20
2844.457117507039
 30
0.0
 11
4176.520643908474
 21
2694.457117507039
 31
0.0
  0
LINE
  5
7CA6
330
81B6
100
AcDbEntity
  8
1
100
AcDbLine
 10
4176.520643908474
 20
2694.457117507039
 30
0.0
 11
4127.220643908475
 21
2694.457117507039
 31
0.0
  0
LINE
  5
7CA7
330
81B6
100
AcDbEntity
  8
1
100
AcDbLine
 10
4176.520643908474
 20
2844.457117507037
 30
0.0
 11
4127.220643908475
 21
2844.457117507039
 31
0.0
  0
LINE
  5
7CA8
330
81B6
100
AcDbEntity
  8
1
100
AcDbLine
 10
4051.520643908477
 20
2834.457117507037
 30
0.0
 11
4051.520643908474
 21
2704.457117507037
 31
0.0
  0
ARC
  5
7CA9
330
81B6
100
AcDbEntity
  8
1
100
AcDbCircle
 10
4061.520643908473
 20
2704.457117507037
 30
0.0
 40
10.0
100
AcDbArc
 50
179.9999999999992
 51
270.0
  0
ARC
  5
7CAA
330
81B6
100
AcDbEntity
  8
1
100
AcDbCircle
 10
4061.520643908473
 20
2834.457117507037
 30
0.0
 40
10.0
100
AcDbArc
 50
90.0
 51
179.9999999999992
  0
POINT
  5
7CAB
330
81B6
100
AcDbEntity
  8
1
100
AcDbPoint
 10
4051.520643908474
 20
2834.457117507037
 30
0.0
  0
LINE
  5
7CAC
330
81B6
100
AcDbEntity
  8
1
100
AcDbLine
 10
4016.520643908476
 20
2909.157117507037
 30
0.0
 11
4194.520643908473
 21
2909.157117507037
 31
0.0
  0
LINE
  5
7CAD
330
81B6
100
AcDbEntity
  8
1
100
AcDbLine
 10
4016.520643908476
 20
2844.157117507037
 30
0.0
 11
4059.089594752244
 21
2844.157117507037
 31
0.0
  0
LINE
  5
7CAE
330
81B6
100
AcDbEntity
  8
1
100
AcDbLine
 10
4016.520643908476
 20
2909.157117507037
 30
0.0
 11
4016.520643908476
 21
2844.157117507037
 31
0.0
  0
LINE
  5
7CAF
330
81B6
100
AcDbEntity
  8
1
100
AcDbLine
 10
4006.520643908475
 20
2906.657117507037
 30
0.0
 11
4016.520643908477
 21
2906.657117507037
 31
0.0
  0
LINE
  5
7CB0
330
81B6
100
AcDbEntity
  8
1
100
AcDbLine
 10
4006.520643908475
 20
2846.657117507037
 30
0.0
 11
4016.520643908477
 21
2846.657117507037
 31
0.0
  0
LINE
  5
7CB4
330
81B6
100
AcDbEntity
  8
1
100
AcDbLine
 10
3335.173865737672
 20
2226.657117507038
 30
0.0
 11
3335.173865737672
 21
2126.657117507038
 31
0.0
  0
LINE
  5
7CB5
330
81B6
100
AcDbEntity
  8
1
100
AcDbLine
 10
3335.173865737672
 20
2106.657117507038
 30
0.0
 11
3335.173865737672
 21
2006.657117507038
 31
0.0
  0
POINT
  5
7CB6
330
81B6
100
AcDbEntity
  8
1
100
AcDbPoint
 10
1285.173865737671
 20
2106.657117507038
 30
0.0
  0
POINT
  5
7CB7
330
81B6
100
AcDbEntity
  8
1
100
AcDbPoint
 10
1285.173865737671
 20
2126.657117507038
 30
0.0
  0
POINT
  5
7CB8
330
81B6
100
AcDbEntity
  8
1
100
AcDbPoint
 10
1285.173865737671
 20
2106.657117507038
 30
0.0
  0
POINT
  5
7CB9
330
81B6
100
AcDbEntity
  8
1
100
AcDbPoint
 10
828.8961418749295
 20
2006.657117507038
 30
0.0
  0
LINE
  5
7CBD
330
81B6
100
AcDbEntity
  8
1
100
AcDbLine
 10
3335.173865737672
 20
5024.637371266841
 30
0.0
 11
1285.173865737671
 21
5024.637371266839
 31
0.0
  0
LINE
  5
7CBE
330
81B6
100
AcDbEntity
  8
1
100
AcDbLine
 10
2535.173865737673
 20
6529.63737126684
 30
0.0
 11
1285.173865737671
 21
6529.63737126684
 31
0.0
  0
LINE
  5
7CBF
330
81B6
100
AcDbEntity
  8
1
100
AcDbLine
 10
1285.173865737671
 20
6529.63737126684
 30
0.0
 11
1285.173865737671
 21
5024.637371266839
 31
0.0
  0
LINE
  5
7CC0
330
81B6
100
AcDbEntity
  8
1
100
AcDbLine
 10
3335.173865737672
 20
5874.637371266842
 30
0.0
 11
3335.173865737672
 21
5024.637371266841
 31
0.0
  0
LINE
  5
7CC1
330
81B6
100
AcDbEntity
  8
1
100
AcDbLine
 10
2535.173865737673
 20
6529.63737126684
 30
0.0
 11
2535.173865737673
 21
6476.637371266839
 31
0.0
  0
LINE
  5
7CC2
330
81B6
100
AcDbEntity
  8
1
100
AcDbLine
 10
3335.173865737672
 20
5874.637371266841
 30
0.0
 11
2778.173865737671
 21
5874.637371266841
 31
0.0
  0
LINE
  5
7CC3
330
81B6
100
AcDbEntity
  8
2
100
AcDbLine
 10
3060.173865737672
 20
5768.672734955212
 30
0.0
 11
3060.173865737672
 21
4759.939490176534
 31
0.0
  0
DIMENSION
  5
7CC4
330
81B6
100
AcDbEntity
  8
3
100
AcDbDimension
  2
*D9
 10
1285.173865737671
 20
6750.941308494559
 30
0.0
 11
1910.173865737671
 21
6750.941308494559
 31
0.0
 12
886.3406570505793
 22
2153.6057719056
 32
0.0
 70
   128
 71
     5
 42
-1.0
  3
Standard
100
AcDbAlignedDimension
 13
2535.173865737673
 23
6529.63737126684
 33
0.0
 14
1285.173865737671
 24
6529.63737126684
 34
0.0
100
AcDbRotatedDimension
1001
ACAD
1000
DSTYLE
1002
{
1070
    40
1040
30.0
1002
}
  0
DIMENSION
  5
7CC6
330
81B6
100
AcDbEntity
  8
3
100
AcDbDimension
  2
*D11
 10
3557.221933238283
 20
5024.637371266841
 30
0.0
 11
3557.221933238283
 21
5449.637371266841
 31
0.0
 12
886.3406570505793
 22
2153.6057719056
 32
0.0
 70
   128
 71
     5
 42
-1.0
  3
Standard
100
AcDbAlignedDimension
 13
3335.173865737672
 23
5874.637371266842
 33
0.0
 14
3335.173865737672
 24
5024.637371266841
 34
0.0
 50
270.0
100
AcDbRotatedDimension
1001
ACAD
1000
DSTYLE
1002
{
1070
    40
1040
30.0
1002
}
  0
DIMENSION
  5
7CC7
330
81B6
100
AcDbEntity
  8
3
100
AcDbDimension
  2
*D12
 10
886.5297277287371
 20
5024.637371266839
 30
0.0
 11
826.5297277287372
 21
5777.137371266839
 31
0.0
 12
886.3406570505793
 22
2153.6057719056
 32
0.0
 71
     5
 42
-1.0
  3
Standard
100
AcDbAlignedDimension
 13
1285.173865737671
 23
6529.63737126684
 33
0.0
 14
1285.173865737671
 24
5024.637371266839
 34
0.0
 50
270.0
100
AcDbRotatedDimension
1001
ACAD
1000
DSTYLE
1002
{
1070
    40
1040
30.0
1002
}
  0
DIMENSION
  5
7CCB
330
81B6
100
AcDbEntity
  8
3
100
AcDbDimension
  2
*D16
 10
5444.520643908477
 20
4204.651868928966
 30
0.0
 11
4819.520643908475
 21
4264.651868928966
 31
0.0
 12
-64.58397716501713
 22
2248.596814671291
 32
0.0
 71
     5
 42
-1.0
  3
Standard
100
AcDbAlignedDimension
 13
4194.520643908473
 23
3924.971435160673
 33
0.0
 14
5444.520643908477
 24
3921.692882965216
 34
0.0
100
AcDbRotatedDimension
1001
ACAD
1000
DSTYLE
1002
{
1070
    40
1040
30.0
1002
}
  0
DIMENSION
  5
7CCC
330
81B6
100
AcDbEntity
  8
3
100
AcDbDimension
  2
*D17
 10
5788.888864279787
 20
3406.657117507037
 30
0.0
 11
5728.888864279786
 21
2876.657117507037
 31
0.0
 12
-64.58397716501713
 22
2248.596814671291
 32
0.0
  1
\U+03C6<>
 71
     5
 42
-1.0
  3
Standard
100
AcDbAlignedDimension
 13
5450.020643908477
 23
2346.657117507037
 33
0.0
 14
5450.020643908477
 24
3406.657117507037
 34
0.0
 50
90.0
100
AcDbRotatedDimension
1001
ACAD
1000
DSTYLE
1002
{
1070
    40
1040
30.0
1002
}
  0
LINE
  5
7CCD
330
81B6
100
AcDbEntity
  8
2
100
AcDbLine
 10
3729.996732738703
 20
2461.657117507038
 30
0.0
 11
4708.454900707278
 21
2461.657117507038
 31
0.0
  0
ARC
  5
7CCE
330
81B6
100
AcDbEntity
  8
1
100
AcDbCircle
 10
1910.173865737673
 20
2876.657117507037
 30
0.0
 40
280.0
100
AcDbArc
 50
67.34404266857237
 51
252.9700165845115
  0
ARC
  5
7CCF
330
81B6
100
AcDbEntity
  8
1
100
AcDbCircle
 10
3060.173865737672
 20
2461.657117507038
 30
0.0
 40
220.0
100
AcDbArc
 50
252.9700165845115
 51
67.34404266857237
  0
LINE
  5
7CD0
330
81B6
100
AcDbEntity
  8
1
100
AcDbLine
 10
2018.028964968361
 20
3135.050765977618
 30
0.0
 11
3144.917157990356
 21
2664.680698448208
 31
0.0
  0
LINE
  5
7CD1
330
81B6
100
AcDbEntity
  8
1
100
AcDbLine
 10
1828.169675537075
 20
2608.934662734293
 30
0.0
 11
2995.742002008631
 21
2251.303760185595
 31
0.0
  0
LINE
  5
7CD2
330
81B6
100
AcDbEntity
  8
1
100
AcDbLine
 10
1972.620368993776
 20
3029.491813276961
 30
0.0
 11
3103.40606029959
 21
2567.465753040062
 31
0.0
  0
LINE
  5
7CD3
330
81B6
100
AcDbEntity
  8
1
100
AcDbLine
 10
1860.632936416575
 20
2719.165192882307
 30
0.0
 11
3025.876299284604
 21
2352.624246612993
 31
0.0
  0
INSERT
  5
7CD4
330
81B6
100
AcDbEntity
  8
0
100
AcDbBlockReference
  2
YA_N
 10
742.6405419924267
 20
-7350.772430041375
 30
0.0
  0
INSERT
  5
7CD6
330
81B6
100
AcDbEntity
  8
0
100
AcDbBlockReference
  2
YA_N
 10
2.995684825677016
 20
-7626.802696743742
 30
0.0
 41
20.0
 42
20.0
 43
20.0
  0
INSERT
  5
7CD8
330
81B6
100
AcDbEntity
  8
0
100
AcDbBlockReference
  2
YA_N
 10
699.9059132844049
 20
-7054.118742438055
 30
0.0
 41
20.0
 42
20.0
 43
20.0
  0
INSERT
  5
7CDA
330
81B6
100
AcDbEntity
  8
0
100
AcDbBlockReference
  2
YA_N
 10
814.1254386385663
 20
-7130.460452277301
 30
0.0
 41
20.0
 42
20.0
 43
20.0
  0
ARC
  5
7CDC
330
81B6
100
AcDbEntity
  8
1
100
AcDbCircle
 10
1910.173865737673
 20
2876.657117507037
 30
0.0
 40
599.0
100
AcDbArc
 50
175.7875009220855
 51
180.0
  0
CIRCLE
  5
7CDD
330
81B6
100
AcDbEntity
  8
1
100
AcDbCircle
 10
1910.173865737673
 20
2876.657117507037
 30
0.0
 40
530.0
  0
CIRCLE
  5
7CDE
330
81B6
100
AcDbEntity
  8
1
100
AcDbCircle
 10
1910.173865737673
 20
2876.657117507037
 30
0.0
 40
580.0
  0
LINE
  5
7CDF
330
81B6
100
AcDbEntity
  8
1
100
AcDbLine
 10
5497.520643908476
 20
2106.657117507037
 30
0.0
 11
5497.520643908476
 21
2006.657117507037
 31
0.0
  0
LINE
  5
7CE0
330
81B6
100
AcDbEntity
  8
1
100
AcDbLine
 10
3992.520643908475
 20
2106.657117507037
 30
0.0
 11
3992.520643908476
 21
2006.657117507037
 31
0.0
  0
DIMENSION
  5
7CE3
330
81B6
100
AcDbEntity
  8
3
100
AcDbDimension
  2
*D18
 10
828.2117232843756
 20
2006.657117507038
 30
0.0
 11
753.2117232843753
 21
1749.51426036418
 31
0.0
 71
     5
 42
-1.0
  3
Standard
100
AcDbAlignedDimension
 13
1285.173865737671
 23
2106.657117507038
 33
0.0
 14
1285.173865737671
 24
2006.657117507038
 34
0.0
 50
270.0
100
AcDbRotatedDimension
1001
ACAD
1000
DSTYLE
1002
{
1070
   287
1070
     3
1070
   287
1070
     3
1070
    40
1040
30.0
1070
   143
1040
0.039
1070
   172
1070
     1
1070
   271
1070
     0
1070
   279
1070
     0
1070
   288
1070
     1
1070
     6
1000
DOT
1002
}
  0
LINE
  5
7CE4
330
81B6
100
AcDbEntity
  8
1
100
AcDbLine
 10
3280.173865737673
 20
4791.63737126684
 30
0.0
 11
1630.173865737672
 21
4791.63737126684
 31
0.0
  0
LINE
  5
7CE5
330
81B6
100
AcDbEntity
  8
1
100
AcDbLine
 10
3280.173865737673
 20
5111.637371266841
 30
0.0
 11
1630.173865737672
 21
5111.637371266839
 31
0.0
  0
LINE
  5
7CE6
330
81B6
100
AcDbEntity
  8
1
100
AcDbLine
 10
1630.173865737672
 20
4791.63737126684
 30
0.0
 11
1630.173865737672
 21
5111.637371266839
 31
0.0
  0
LINE
  5
7CE7
330
81B6
100
AcDbEntity
  8
1
100
AcDbLine
 10
3280.173865737673
 20
4791.63737126684
 30
0.0
 11
3280.173865737673
 21
5111.637371266841
 31
0.0
  0
LINE
  5
7CE8
330
81B6
100
AcDbEntity
  8
1
100
AcDbLine
 10
3174.473865737672
 20
4956.637371266841
 30
0.0
 11
3174.473865737672
 21
5066.637371266841
 31
0.0
  0
LINE
  5
7CE9
330
81B6
100
AcDbEntity
  8
1
100
AcDbLine
 10
2945.873865737672
 20
4956.63737126684
 30
0.0
 11
2945.873865737672
 21
5066.63737126684
 31
0.0
  0
LINE
  5
7CEA
330
81B6
100
AcDbEntity
  8
1
100
AcDbLine
 10
1745.073865737673
 20
4956.63737126684
 30
0.0
 11
1745.073865737673
 21
5066.637371266839
 31
0.0
  0
LINE
  5
7CEB
330
81B6
100
AcDbEntity
  8
1
100
AcDbLine
 10
2075.273865737674
 20
4956.63737126684
 30
0.0
 11
2075.273865737674
 21
5066.637371266839
 31
0.0
  0
LINE
  5
7CEC
330
81B6
100
AcDbEntity
  8
1
100
AcDbLine
 10
3174.473865737672
 20
5066.637371266841
 30
0.0
 11
2945.873865737672
 21
5066.637371266841
 31
0.0
  0
LINE
  5
7CED
330
81B6
100
AcDbEntity
  8
1
100
AcDbLine
 10
3174.473865737672
 20
4956.637371266841
 30
0.0
 11
2945.873865737672
 21
4956.637371266841
 31
0.0
  0
LINE
  5
7CEE
330
81B6
100
AcDbEntity
  8
1
100
AcDbLine
 10
2075.273865737674
 20
4956.63737126684
 30
0.0
 11
1745.073865737673
 21
4956.63737126684
 31
0.0
  0
LINE
  5
7CEF
330
81B6
100
AcDbEntity
  8
1
100
AcDbLine
 10
2075.273865737674
 20
5066.637371266839
 30
0.0
 11
1745.073865737673
 21
5066.637371266839
 31
0.0
  0
LINE
  5
7CF0
330
81B6
100
AcDbEntity
  8
1
100
AcDbLine
 10
2877.673865737673
 20
5633.137371266842
 30
0.0
 11
2877.673865737673
 21
5071.637371266842
 31
0.0
  0
LINE
  5
7CF1
330
81B6
100
AcDbEntity
  8
1
100
AcDbLine
 10
3242.673865737673
 20
5633.137371266842
 30
0.0
 11
3242.673865737673
 21
5071.637371266842
 31
0.0
  0
LINE
  5
7CF2
330
81B6
100
AcDbEntity
  8
1
100
AcDbLine
 10
3242.673865737673
 20
5633.137371266839
 30
0.0
 11
2877.673865737673
 21
5633.137371266839
 31
0.0
  0
LINE
  5
7CF3
330
81B6
100
AcDbEntity
  8
1
100
AcDbLine
 10
3242.673865737673
 20
5071.637371266842
 30
0.0
 11
2877.673865737673
 21
5071.637371266842
 31
0.0
  0
LINE
  5
7CF4
330
81B6
100
AcDbEntity
  8
1
100
AcDbLine
 10
3036.173865737672
 20
5071.637371266842
 30
0.0
 11
3036.173865737672
 21
5066.637371266841
 31
0.0
  0
LINE
  5
7CF5
330
81B6
100
AcDbEntity
  8
1
100
AcDbLine
 10
3084.173865737672
 20
5071.637371266842
 30
0.0
 11
3084.173865737672
 21
5066.637371266841
 31
0.0
  0
LINE
  5
7CF6
330
81B6
100
AcDbEntity
  8
1
100
AcDbLine
 10
4573.020643908477
 20
2644.157117507038
 30
0.0
 11
4011.520643908478
 21
2644.157117507038
 31
0.0
  0
LINE
  5
7CF7
330
81B6
100
AcDbEntity
  8
1
100
AcDbLine
 10
4573.020643908477
 20
2279.157117507037
 30
0.0
 11
4011.520643908478
 21
2279.157117507037
 31
0.0
  0
LINE
  5
7CF8
330
81B6
100
AcDbEntity
  8
1
100
AcDbLine
 10
4011.520643908475
 20
2644.157117507038
 30
0.0
 11
4011.520643908475
 21
2279.157117507037
 31
0.0
  0
LINE
  5
7CF9
330
81B6
100
AcDbEntity
  8
1
100
AcDbLine
 10
4011.520643908478
 20
2485.657117507038
 30
0.0
 11
4006.520643908475
 21
2485.657117507038
 31
0.0
  0
LINE
  5
7CFA
330
81B6
100
AcDbEntity
  8
1
100
AcDbLine
 10
4011.520643908478
 20
2437.657117507038
 30
0.0
 11
4006.520643908475
 21
2437.657117507038
 31
0.0
  0
DIMENSION
  5
7CFB
330
81B6
100
AcDbEntity
  8
3
100
AcDbDimension
  2
*D20
 10
3335.173865737672
 20
4383.818294225917
 30
0.0
 11
2282.673865737672
 21
4443.818294225916
 31
0.0
 12
886.3406570505793
 22
2248.596814671291
 32
0.0
 71
     5
 42
-1.0
  3
Standard
100
AcDbAlignedDimension
 13
1230.17386573767
 23
4003.657117507037
 33
0.0
 14
3335.173865737672
 24
2226.657117507036
 34
0.0
100
AcDbRotatedDimension
1001
ACAD
1000
DSTYLE
1002
{
1070
    40
1040
30.0
1002
}
  0
LINE
  5
7CFC
330
81B6
100
AcDbEntity
  8
1
100
AcDbLine
 10
1230.17386573767
 20
6526.637371266838
 30
0.0
 11
1230.17386573767
 21
5176.637371266838
 31
0.0
  0
LINE
  5
7CFD
330
81B6
100
AcDbEntity
  8
1
100
AcDbLine
 10
2778.173865737671
 20
6476.637371266841
 30
0.0
 11
2778.173865737671
 21
5226.637371266839
 31
0.0
  0
LINE
  5
7CFE
330
81B6
100
AcDbEntity
  8
1
100
AcDbLine
 10
2778.173865737671
 20
5226.637371266839
 30
0.0
 11
1230.17386573767
 21
5226.637371266839
 31
0.0
  0
LINE
  5
7CFF
330
81B6
100
AcDbEntity
  8
1
100
AcDbLine
 10
2778.173865737671
 20
6476.637371266841
 30
0.0
 11
1230.17386573767
 21
6476.637371266838
 31
0.0
  0
LINE
  5
7D00
330
81B6
100
AcDbEntity
  8
1
100
AcDbLine
 10
1234.173865737673
 20
6526.63737126684
 30
0.0
 11
1230.17386573767
 21
6526.637371266838
 31
0.0
  0
LINE
  5
7D01
330
81B6
100
AcDbEntity
  8
1
100
AcDbLine
 10
1234.173865737671
 20
5176.637371266838
 30
0.0
 11
1230.17386573767
 21
5176.637371266838
 31
0.0
  0
LINE
  5
7D02
330
81B6
100
AcDbEntity
  8
1
100
AcDbLine
 10
1234.173865737671
 20
6526.637371266838
 30
0.0
 11
1234.173865737671
 21
5176.637371266838
 31
0.0
  0
LINE
  5
7D06
330
81B6
100
AcDbEntity
  8
1
100
AcDbLine
 10
1877.673865737671
 20
5226.63737126684
 30
0.0
 11
1877.673865737671
 21
5066.63737126684
 31
0.0
  0
LINE
  5
7D07
330
81B6
100
AcDbEntity
  8
1
100
AcDbLine
 10
1942.673865737671
 20
5226.63737126684
 30
0.0
 11
1942.673865737671
 21
5066.63737126684
 31
0.0
  0
LINE
  5
7D08
330
81B6
100
AcDbEntity
  8
1
100
AcDbLine
 10
4176.520643908474
 20
2844.157117507037
 30
0.0
 11
4194.520643908473
 21
2844.157117507037
 31
0.0
  0
DIMENSION
  5
7D09
330
81B6
100
AcDbEntity
  8
3
100
AcDbDimension
  2
*D21
 10
3335.173865737672
 20
6750.941308494559
 30
0.0
 11
2935.173865737672
 21
6810.941308494559
 31
0.0
 12
886.3406570505793
 22
2153.6057719056
 32
0.0
 71
     5
 42
-1.0
  3
Standard
100
AcDbAlignedDimension
 13
2535.173865737673
 23
6529.63737126684
 33
0.0
 14
3335.173865737672
 24
5874.637371266841
 34
0.0
100
AcDbRotatedDimension
1001
ACAD
1000
DSTYLE
1002
{
1070
    40
1040
30.0
1002
}
  0
LINE
  5
7D10
330
81B6
100
AcDbEntity
  8
1
100
AcDbLine
 10
4573.020643908477
 20
2644.157117507038
 30
0.0
 11
4573.020643908477
 21
2279.157117507037
 31
0.0
  0
LINE
  5
7D11
330
81B6
100
AcDbEntity
  8
1
100
AcDbLine
 10
4460.437483381607
 20
2279.157117507037
 30
0.0
 11
4460.437483381607
 21
2226.657117507037
 31
0.0
  0
LINE
  5
7D12
330
81B6
100
AcDbEntity
  8
1
100
AcDbLine
 10
4106.449032391272
 20
2279.157117507037
 30
0.0
 11
4106.449032391272
 21
2226.657117507037
 31
0.0
  0
LINE
  5
7F43
330
81B6
100
AcDbEntity
  8
4
100
AcDbLine
 10
5550.0
 20
1500.0
 30
0.0
 11
5550.0
 21
900.0
 31
0.0
  0
LINE
  5
7F44
330
81B6
100
AcDbEntity
  8
4
100
AcDbLine
 10
3450.0
 20
1500.0
 30
0.0
 11
3450.0
 21
900.0
 31
0.0
  0
LINE
  5
7F45
330
81B6
100
AcDbEntity
  8
4
100
AcDbLine
 10
1950.0
 20
1500.0
 30
0.0
 11
1950.0
 21
900.0
 31
0.0
  0
LINE
  5
7F48
330
81B6
100
AcDbEntity
  8
4
100
AcDbLine
 10
1950.0
 20
900.0
 30
0.0
 11
5550.0
 21
900.0
 31
0.0
  0
LINE
  5
7F49
330
81B6
100
AcDbEntity
  8
4
100
AcDbLine
 10
1950.0
 20
1200.0
 30
0.0
 11
5550.0
 21
1200.0
 31
0.0
  0
TEXT
  5
7F4A
330
81B6
100
AcDbEntity
  8
4
100
AcDbText
 10
2065.506242540704
 20
1294.629077599838
 30
0.0
 40
150.0
  1
機器名称
100
AcDbText
  0
TEXT
  5
7F4B
330
81B6
100
AcDbEntity
  8
4
100
AcDbText
 10
2058.774318074392
 20
964.9354701960326
 30
0.0
 40
150.0
  1
機器型番
100
AcDbText
  0
TEXT
  5
7F4C
330
81B6
100
AcDbEntity
  8
4
100
AcDbText
 10
3533.036236462995
 20
1267.715306872705
 30
0.0
 40
150.0
  1
ミツヤ多翼送風機
100
AcDbText
  0
TEXT
  5
7F4D
330
81B6
100
AcDbEntity
  8
4
100
AcDbText
 10
3559.963486756442
 20
951.4787528398301
 30
0.0
 40
150.0
  1
MF#6-5
100
AcDbText
  0
TEXT
  5
7F4F
330
81B6
100
AcDbEntity
  8
4
100
AcDbText
 10
2318.324497747933
 20
7150.286523997547
 30
0.0
 40
161.9999999999998
  1
床置防振ベット
100
AcDbText
  0
TEXT
  5
7F50
330
81B6
100
AcDbEntity
  8
4
100
AcDbText
 10
948.5027799883393
 20
7601.642928597894
 30
0.0
 40
216.0
  1
遠心式両吸込両持多翼ファン
100
AcDbText
  0
LINE
  5
7F51
330
81B6
100
AcDbEntity
  8
4
100
AcDbLine
 10
750.0
 20
7408.226262794413
 30
0.0
 11
5550.0
 21
7408.226262794413
 31
0.0
  0
LINE
  5
7F52
330
81B6
100
AcDbEntity
  8
4
100
AcDbLine
 10
750.0
 20
8008.226262794414
 30
0.0
 11
5550.0
 21
8008.226262794414
 31
0.0
  0
LINE
  5
7F53
330
81B6
100
AcDbEntity
  8
4
100
AcDbLine
 10
1950.0
 20
1500.0
 30
0.0
 11
5550.0
 21
1500.0
 31
0.0
  0
LINE
  5
7F54
330
81B6
100
AcDbEntity
  8
4
100
AcDbLine
 10
750.0
 20
8008.226262794414
 30
0.0
 11
750.0
 21
7408.226262794413
 31
0.0
  0
TEXT
  5
7F55
330
81B6
100
AcDbEntity
  8
4
100
AcDbText
 10
1010.748001019827
 20
7146.958432639029
 30
0.0
 40
161.9999999999998
  1
左回転左横向
100
AcDbText
  0
TEXT
  5
7F56
330
81B6
100
AcDbEntity
  8
4
100
AcDbText
 10
4406.908677747869
 20
8118.183244485924
 30
0.0
 40
168.0
  1
No.
100
AcDbText
  0
TEXT
  5
7F57
330
81B6
100
AcDbEntity
  8
4
100
AcDbText
 10
3933.888187800039
 20
7150.286523997547
 30
0.0
 40
161.9999999999998
  1
縮尺：1/30
100
AcDbText
  0
LINE
  5
7F58
330
81B6
100
AcDbEntity
  8
4
100
AcDbLine
 10
5550.0
 20
8008.226262794414
 30
0.0
 11
5550.0
 21
7408.226262794413
 31
0.0
  0
LINE
  5
7F59
330
81B6
100
AcDbEntity
  8
4
100
AcDbLine
 10
6300.0
 20
8850.0
 30
0.0
 11
6300.0
 21
8850.0
 31
0.0
  0
LINE
  5
7F5A
330
81B6
100
AcDbEntity
  8
4
100
AcDbLine
 10
4321.852267079594
 20
8043.790749376205
 30
0.0
 11
4321.852267079594
 21
8359.956784649257
 31
0.0
  0
LINE
  5
7F5B
330
81B6
100
AcDbEntity
  8
4
100
AcDbLine
 10
4321.852267079594
 20
8359.956784649257
 30
0.0
 11
5550.0
 21
8359.956784649257
 31
0.0
  0
LINE
  5
7F5C
330
81B6
100
AcDbEntity
  8
4
100
AcDbLine
 10
5550.0
 20
8359.956784649257
 30
0.0
 11
5550.0
 21
8043.790749376205
 31
0.0
  0
LINE
  5
7F5D
330
81B6
100
AcDbEntity
  8
4
100
AcDbLine
 10
5550.0
 20
8043.790749376205
 30
0.0
 11
4321.852267079594
 21
8043.790749376205
 31
0.0
  0
LINE
  5
7F5E
330
81B6
100
AcDbEntity
  8
4
100
AcDbLine
 10
0.0
 20
0.0
 30
0.0
 11
0.0
 21
8850.0
 31
0.0
  0
LINE
  5
7F5F
330
81B6
100
AcDbEntity
  8
4
100
AcDbLine
 10
0.0
 20
8850.0
 30
0.0
 11
6300.0
 21
8850.0
 31
0.0
  0
LINE
  5
7F60
330
81B6
100
AcDbEntity
  8
4
100
AcDbLine
 10
6300.0
 20
8850.0
 30
0.0
 11
6300.0
 21
0.0
 31
0.0
  0
LINE
  5
7F61
330
81B6
100
AcDbEntity
  8
4
100
AcDbLine
 10
6300.0
 20
0.0
 30
0.0
 11
0.0
 21
0.0
 31
0.0
  0
DIMENSION
  5
8046
330
81B6
100
AcDbEntity
  8
3
100
AcDbDimension
  2
*D22
 10
1910.173865737673
 20
1807.848373107928
 30
0.0
 11
1597.673865737673
 21
1882.848373107928
 31
0.0
 12
0.0
 22
7.0
 32
0.0
 71
     5
 42
-1.0
  3
Standard
100
AcDbAlignedDimension
 13
1285.173865737671
 23
2006.657117507038
 33
0.0
 14
1910.173865737673
 24
2006.657117507038
 34
0.0
100
AcDbRotatedDimension
1001
ACAD
1000
DSTYLE
1002
{
1070
   172
1070
     1
1070
    40
1040
30.0
1070
    42
1040
1.0
1070
   271
1070
     0
1070
   143
1040
0.039
1002
}
  0
DIMENSION
  5
8053
330
81B6
100
AcDbEntity
  8
3
100
AcDbDimension
  2
*D23
 10
3335.173865737672
 20
1807.848373107928
 30
0.0
 11
2622.673865737672
 21
1882.848373107928
 31
0.0
 12
0.0
 22
7.0
 32
0.0
 71
     5
 42
-1.0
  3
Standard
100
AcDbAlignedDimension
 13
1910.173865737673
 23
2006.657117507038
 33
0.0
 14
3335.173865737672
 24
2006.657117507038
 34
0.0
100
AcDbRotatedDimension
1001
ACAD
1000
DSTYLE
1002
{
1070
   172
1070
     1
1070
    40
1040
30.0
1070
    42
1040
1.0
1070
   271
1070
     0
1070
   143
1040
0.039
1002
}
  0
DIMENSION
  5
8060
330
81B6
100
AcDbEntity
  8
3
100
AcDbDimension
  2
*D24
 10
4819.520643908475
 20
1807.848373107928
 30
0.0
 11
4406.020643908475
 21
1882.848373107928
 31
0.0
 12
0.0
 22
7.0
 32
0.0
 71
     5
 42
-1.0
  3
Standard
100
AcDbAlignedDimension
 13
3992.520643908476
 23
2006.657117507037
 33
0.0
 14
4819.520643908475
 24
2006.657117507037
 34
0.0
100
AcDbRotatedDimension
1001
ACAD
1000
DSTYLE
1002
{
1070
   172
1070
     1
1070
    40
1040
30.0
1070
    42
1040
1.0
1070
   271
1070
     0
1070
   143
1040
0.039
1002
}
  0
DIMENSION
  5
806D
330
81B6
100
AcDbEntity
  8
3
100
AcDbDimension
  2
*D25
 10
5497.520643908476
 20
1807.848373107928
 30
0.0
 11
5158.520643908476
 21
1882.848373107928
 31
0.0
 12
0.0
 22
7.0
 32
0.0
 71
     5
 42
-1.0
  3
Standard
100
AcDbAlignedDimension
 13
4819.520643908475
 23
2006.657117507037
 33
0.0
 14
5497.520643908476
 24
2006.657117507037
 34
0.0
100
AcDbRotatedDimension
1001
ACAD
1000
DSTYLE
1002
{
1070
   172
1070
     1
1070
    40
1040
30.0
1070
    42
1040
1.0
1070
   271
1070
     0
1070
   143
1040
0.039
1002
}
  0
DIMENSION
  5
80B4
330
81B6
100
AcDbEntity
  8
3
100
AcDbDimension
  2
*D27
 10
830.3552352768711
 20
2126.657117507038
 30
0.0
 11
686.7838067054425
 21
2116.657117507038
 31
0.0
  1
 <>
 71
     5
 42
-1.0
  3
Standard
100
AcDbAlignedDimension
 13
1285.173865737671
 23
2106.657117507038
 33
0.0
 14
1285.173865737671
 24
2126.657117507038
 34
0.0
 50
90.0
100
AcDbRotatedDimension
1001
ACAD
1000
DSTYLE
1002
{
1070
   172
1070
     1
1070
    76
1070
     1
1070
    75
1070
     1
1070
    40
1040
30.0
1070
     3
1000
(<>)
1070
    42
1040
1.0
1070
   271
1070
     0
1070
     7
1000
_NONE
1070
     6
1000
_NONE
1070
   143
1040
0.039
1002
}
  0
DIMENSION
  5
80C1
330
81B6
100
AcDbEntity
  8
3
100
AcDbDimension
  2
*D28
 10
555.46086173621
 20
3950.657117507036
 30
0.0
 11
456.8894331647815
 21
2978.657117507037
 31
0.0
 71
     5
 42
-1.0
  3
Standard
100
AcDbAlignedDimension
 13
1285.173865737671
 23
2006.657117507038
 33
0.0
 14
1200.173865737671
 24
3950.657117507036
 34
0.0
 50
90.0
100
AcDbRotatedDimension
1001
ACAD
1000
DSTYLE
1002
{
1070
   172
1070
     1
1070
    40
1040
30.0
1070
     3
1000
(<>)
1070
    42
1040
1.0
1070
   271
1070
     0
1070
   143
1040
0.039
1002
}
  0
DIMENSION
  5
8204
330
81B6
100
AcDbEntity
  8
3
100
AcDbDimension
  2
*D29
 10
4819.520643908475
 20
4393.498543833703
 30
0.0
 11
4289.520643908472
 21
4492.069972405131
 31
0.0
 70
    32
  1
(<>)
 71
     5
 42
1060.000000000004
  3
IGA
100
AcDbAlignedDimension
 13
3759.520643908471
 23
3156.657117507037
 33
0.0
 14
4819.520643908475
 24
4309.651868928965
 34
0.0
100
AcDbRotatedDimension
1001
ACAD
1000
DSTYLE
1002
{
1070
    40
1040
30.0
1070
    42
1040
1.0
1070
   143
1040
0.039
1070
   172
1070
     1
1070
   271
1070
     4
1070
   272
1070
     4
1070
   279
1070
     0
1070
   284
1070
     0
1070
   285
1070
     0
1070
   286
1070
     0
1070
   341
1005
81CA
1070
   343
1005
81CA
1070
   344
1005
81CA
1002
}
  0
DIMENSION
  5
8211
330
81B6
100
AcDbEntity
  8
3
100
AcDbDimension
  2
*D30
 10
5599.520643908475
 20
4393.498543833703
 30
0.0
 11
5209.520643908475
 21
4492.069972405131
 31
0.0
 70
    32
  1
(<>)
 71
     5
 42
780.0
  3
IGA
100
AcDbAlignedDimension
 13
4819.520643908475
 23
4309.651868928965
 33
0.0
 14
5599.520643908475
 24
2840.857117507038
 34
0.0
100
AcDbRotatedDimension
1001
ACAD
1000
DSTYLE
1002
{
1070
    40
1040
30.0
1070
    42
1040
1.0
1070
   143
1040
0.039
1070
   172
1070
     1
1070
   271
1070
     4
1070
   272
1070
     4
1070
   279
1070
     1
1070
   284
1070
     0
1070
   285
1070
     0
1070
   286
1070
     0
1070
   341
1005
81CA
1070
   343
1005
81CA
1070
   344
1005
81CA
1002
}
  0
DIMENSION
  5
827A
330
81B6
100
AcDbEntity
  8
3
100
AcDbDimension
  2
*D33
 10
3335.173865737672
 20
4607.333626267391
 30
0.0
 11
2310.173865737672
 21
4682.333626267391
 31
0.0
 70
    32
 71
     5
 42
2050.000000000002
  3
IGA
100
AcDbAlignedDimension
 13
1285.173865737671
 23
5024.637371266839
 33
0.0
 14
3335.173865737672
 24
5024.637371266841
 34
0.0
100
AcDbRotatedDimension
1001
ACAD
1000
DSTYLE
1002
{
1070
    40
1040
30.0
1070
    42
1040
1.0
1070
   143
1040
0.039
1070
   172
1070
     1
1070
   271
1070
     4
1070
   272
1070
     4
1070
   279
1070
     0
1070
   284
1070
     0
1070
   285
1070
     0
1070
   286
1070
     0
1070
   341
1005
81CA
1070
   343
1005
81CA
1070
   344
1005
81CA
1002
}
  0
ENDSEC
  0
SECTION
  2
OBJECTS
  0
DICTIONARY
  5
8153
330
0
100
AcDbDictionary
281
     1
  3
ACAD_CIP_PREVIOUS_PRODUCT_INFO
350
8200
  3
ACAD_COLOR
350
81A9
  3
ACAD_DETAILVIEWSTYLE
350
81B0
  3
ACAD_GROUP
350
8154
  3
ACAD_LAYOUT
350
81A8
  3
ACAD_MATERIAL
350
8157
  3
ACAD_MLEADERSTYLE
350
81AC
  3
ACAD_MLINESTYLE
350
81A5
  3
ACAD_PLOTSETTINGS
350
81A7
  3
ACAD_PLOTSTYLENAME
350
8155
  3
ACAD_SCALELIST
350
8189
  3
ACAD_SECTIONVIEWSTYLE
350
81AE
  3
ACAD_TABLESTYLE
350
81AA
  3
ACAD_VISUALSTYLE
350
8170
  3
ACDB_RECOMPOSE_DATA
350
82B0
  3
AcDbVariableDictionary
350
82A3
  3
DWGPROPS
350
82B1
  0
DICTIONARY
  5
8299
330
819B
100
AcDbDictionary
280
     1
281
     1
  3
ADSK_XREC_LAYER_RECONCILED
360
829A
  0
DICTIONARY
  5
829B
330
81BA
100
AcDbDictionary
280
     1
281
     1
  3
ADSK_XREC_LAYER_RECONCILED
360
829C
  0
DICTIONARY
  5
829D
330
81BD
100
AcDbDictionary
280
     1
281
     1
  3
ADSK_XREC_LAYER_RECONCILED
360
829E
  0
DICTIONARY
  5
829F
330
81BE
100
AcDbDictionary
280
     1
281
     1
  3
ADSK_XREC_LAYER_RECONCILED
360
82A0
  0
DICTIONARY
  5
82A1
330
81BF
100
AcDbDictionary
280
     1
281
     1
  3
ADSK_XREC_LAYER_RECONCILED
360
82A2
  0
XRECORD
  5
8200
102
{ACAD_REACTORS
330
8153
102
}
330
8153
100
AcDbXrecord
280
     1
300
ACDLT
300
2015
300
INVLTS_F_S
  0
DICTIONARY
  5
81A9
102
{ACAD_REACTORS
330
8153
102
}
330
8153
100
AcDbDictionary
281
     1
  0
DICTIONARY
  5
81B0
102
{ACAD_REACTORS
330
8153
102
}
330
8153
100
AcDbDictionary
281
     1
  3
Imperial24
350
81B1
  0
DICTIONARY
  5
8154
102
{ACAD_REACTORS
330
8153
102
}
330
8153
100
AcDbDictionary
281
     1
  0
DICTIONARY
  5
81A8
102
{ACAD_REACTORS
330
8153
102
}
330
8153
100
AcDbDictionary
281
     1
  3
Model
350
81B9
  3
レイアウト1
350
81B5
  0
DICTIONARY
  5
8157
102
{ACAD_REACTORS
330
8153
102
}
330
8153
100
AcDbDictionary
281
     1
  3
ByBlock
350
8160
  3
ByLayer
350
8158
  3
Global
350
8168
  0
DICTIONARY
  5
81AC
102
{ACAD_REACTORS
330
8153
102
}
330
8153
100
AcDbDictionary
281
     1
  3
Standard
350
81AD
  0
DICTIONARY
  5
81A5
102
{ACAD_REACTORS
330
8153
102
}
330
8153
100
AcDbDictionary
281
     1
  3
Standard
350
81A6
  0
DICTIONARY
  5
81A7
102
{ACAD_REACTORS
330
8153
102
}
330
8153
100
AcDbDictionary
281
     1
  0
ACDBDICTIONARYWDFLT
  5
8155
102
{ACAD_REACTORS
330
8153
102
}
330
8153
100
AcDbDictionary
281
     1
  3
Normal
350
8156
100
AcDbDictionaryWithDefault
340
8156
  0
DICTIONARY
  5
8189
102
{ACAD_REACTORS
330
8153
102
}
330
8153
100
AcDbDictionary
281
     1
  3
A0
350
818A
  3
A1
350
818B
  3
A2
350
818C
  3
A3
350
818D
  3
A4
350
818E
  3
A5
350
818F
  3
A6
350
8190
  3
A7
350
8191
  3
A8
350
8192
  3
A9
350
8193
  3
B0
350
8194
  3
B1
350
8195
  3
B2
350
8196
  3
B3
350
8197
  3
B4
350
8198
  3
B5
350
8199
  3
B6
350
819A
  0
DICTIONARY
  5
81AE
102
{ACAD_REACTORS
330
8153
102
}
330
8153
100
AcDbDictionary
281
     1
  3
Imperial24
350
81AF
  0
DICTIONARY
  5
81AA
102
{ACAD_REACTORS
330
8153
102
}
330
8153
100
AcDbDictionary
281
     1
  3
Standard
350
81AB
  0
DICTIONARY
  5
8170
102
{ACAD_REACTORS
330
8153
102
}
330
8153
100
AcDbDictionary
281
     1
  3
2dWireframe
350
8176
  3
Basic
350
8175
  3
Brighten
350
817C
  3
ColorChange
350
8180
  3
Conceptual
350
8179
  3
Dim
350
817B
  3
EdgeColorOff
350
8188
  3
Facepattern
350
817F
  3
Flat
350
8171
  3
FlatWithEdges
350
8172
  3
Gouraud
350
8173
  3
GouraudWithEdges
350
8174
  3
Hidden
350
8178
  3
JitterOff
350
8186
  3
Linepattern
350
817E
  3
OverhangOff
350
8187
  3
Realistic
350
817A
  3
Shaded
350
8185
  3
Shaded with edges
350
8184
  3
Shades of Gray
350
8181
  3
Sketchy
350
8182
  3
Thicken
350
817D
  3
Wireframe
350
8177
  3
X-Ray
350
8183
  0
XRECORD
  5
82B0
102
{ACAD_REACTORS
330
8153
102
}
330
8153
100
AcDbXrecord
280
     1
 90
        1
330
81AB
  0
DICTIONARY
  5
82A3
102
{ACAD_REACTORS
330
8153
102
}
330
8153
100
AcDbDictionary
281
     1
  3
CANNOSCALE
350
82A8
  3
CMLEADERSTYLE
350
82A5
  3
CTABLESTYLE
350
82A4
  3
CVIEWDETAILSTYLE
350
82A6
  3
CVIEWSECTIONSTYLE
350
82A7
  3
DIMASSOC
350
82AB
  3
INDEXCTL
350
82AA
  3
SORTENTS
350
82A9
  3
XCLIPFRAME
350
82AC
  0
XRECORD
  5
82B1
102
{ACAD_REACTORS
330
8153
102
}
330
8153
100
AcDbXrecord
280
     1
  1
DWGPROPS COOKIE
  2

  3

  4

  6

  7

  8
yasukiyo.ogawa
  9

300
=
301
=
302
=
303
=
304
=
305
=
306
=
307
=
308
=
309
=
 40
0.0132030787037037
 41
2451389.569592593
 42
2460271.72178184
  1

 90
        0
  0
XRECORD
  5
829A
102
{ACAD_REACTORS
330
8299
102
}
330
8299
100
AcDbXrecord
280
     1
290
     1
  0
XRECORD
  5
829C
102
{ACAD_REACTORS
330
829B
102
}
330
829B
100
AcDbXrecord
280
     1
290
     1
  0
XRECORD
  5
829E
102
{ACAD_REACTORS
330
829D
102
}
330
829D
100
AcDbXrecord
280
     1
290
     1
  0
XRECORD
  5
82A0
102
{ACAD_REACTORS
330
829F
102
}
330
829F
100
AcDbXrecord
280
     1
290
     1
  0
XRECORD
  5
82A2
102
{ACAD_REACTORS
330
82A1
102
}
330
82A1
100
AcDbXrecord
280
     1
290
     1
  0
ACDBDETAILVIEWSTYLE
  5
81B1
102
{ACAD_XDICTIONARY
360
82E9
102
}
102
{ACAD_REACTORS
330
81B0
102
}
330
81B0
100
AcDbModelDocViewStyle
 70
     0
  3
Imperial24
290
     0
100
AcDbDetailViewStyle
 70
     0
 71
     0
 90
        3
 71
     1
340
819C
 40
0.24
340
0
 40
0.24
300

 40
0.36
280
     3
 71
     2
340
81A3
 90
       25
 71
     3
340
819C
 40
0.24
 90
        1
 40
0.75
 90
        1
300
%<\AcVar ViewType \f "%tc1">% %<\AcVar ViewDetailId>%\PSCALE %<\AcVar ViewScale \f "%sn">%
 71
     4
340
81A3
 90
       25
340
81A3
 90
       25
280
     0
  0
LAYOUT
  5
81B9
102
{ACAD_XDICTIONARY
360
82ED
102
}
102
{ACAD_REACTORS
330
81A8
102
}
330
81A8
100
AcDbPlotSettings
  1

  2
RICOH imagio MP W3600 RPCS
  4

  6

 40
0.0
 41
0.0
 42
0.0
 43
0.0
 44
0.0
 45
0.0
 46
0.0
 47
0.0
 48
0.0
 49
0.0
140
0.0
141
0.0
142
1.0
143
1.0
 70
  1712
 72
     0
 73
     0
 74
     0
  7

 75
     0
147
1.0
148
0.0
149
0.0
100
AcDbLayout
  1
Model
 70
     1
 71
     0
 10
0.0
 20
0.0
 11
12.0
 21
9.0
 12
0.0
 22
0.0
 32
0.0
 14
0.0
 24
0.0
 34
0.0
 15
0.0
 25
0.0
 35
0.0
146
0.0
 13
0.0
 23
0.0
 33
0.0
 16
1.0
 26
0.0
 36
0.0
 17
0.0
 27
1.0
 37
0.0
 76
     0
330
81B6
331
81BB
  0
LAYOUT
  5
81B5
102
{ACAD_XDICTIONARY
360
82EB
102
}
102
{ACAD_REACTORS
330
81A8
102
}
330
81A8
100
AcDbPlotSettings
  1

  2
RICOH imagio MP W3600 RPCS
  4

  6

 40
0.0
 41
0.0
 42
0.0
 43
0.0
 44
0.0
 45
0.0
 46
0.0
 47
0.0
 48
0.0
 49
0.0
140
0.0
141
0.0
142
1.0
143
1.0
 70
   688
 72
     0
 73
     0
 74
     5
  7

 75
    16
147
1.0
148
0.0
149
0.0
100
AcDbLayout
  1
レイアウト1
 70
     1
 71
     1
 10
0.0
 20
0.0
 11
12.0
 21
9.0
 12
0.0
 22
0.0
 32
0.0
 14
1.000000000000000E+20
 24
1.000000000000000E+20
 34
1.000000000000000E+20
 15
-1.000000000000000E+20
 25
-1.000000000000000E+20
 35
-1.000000000000000E+20
146
0.0
 13
0.0
 23
0.0
 33
0.0
 16
1.0
 26
0.0
 36
0.0
 17
0.0
 27
1.0
 37
0.0
 76
     0
330
81B2
  0
MATERIAL
  5
8160
102
{ACAD_XDICTIONARY
360
8161
102
}
102
{ACAD_REACTORS
330
8157
102
}
330
8157
100
AcDbMaterial
  1
ByBlock
 72
     0
 43
0.0208333333333333
 43
0.0
 43
0.0
 43
0.0
 43
0.0
 43
0.0208333333333333
 43
0.0
 43
0.0
 43
0.0
 43
0.0
 43
1.0
 43
0.0
 43
0.0
 43
0.0
 43
0.0
 43
1.0
 77
     0
 47
0.0208333333333333
 47
0.0
 47
0.0
 47
0.0
 47
0.0
 47
0.0208333333333333
 47
0.0
 47
0.0
 47
0.0
 47
0.0
 47
1.0
 47
0.0
 47
0.0
 47
0.0
 47
0.0
 47
1.0
171
     0
 49
0.0208333333333333
 49
0.0
 49
0.0
 49
0.0
 49
0.0
 49
0.0208333333333333
 49
0.0
 49
0.0
 49
0.0
 49
0.0
 49
1.0
 49
0.0
 49
0.0
 49
0.0
 49
0.0
 49
1.0
175
     0
142
0.0208333333333333
142
0.0
142
0.0
142
0.0
142
0.0
142
0.0208333333333333
142
0.0
142
0.0
142
0.0
142
0.0
142
1.0
142
0.0
142
0.0
142
0.0
142
0.0
142
1.0
179
     0
144
0.0208333333333333
144
0.0
144
0.0
144
0.0
144
0.0
144
0.0208333333333333
144
0.0
144
0.0
144
0.0
144
0.0
144
1.0
144
0.0
144
0.0
144
0.0
144
0.0
144
1.0
147
0.0208333333333333
147
0.0
147
0.0
147
0.0
147
0.0
147
0.0208333333333333
147
0.0
147
0.0
147
0.0
147
0.0
147
1.0
147
0.0
147
0.0
147
0.0
147
0.0
147
1.0
  0
MATERIAL
  5
8158
102
{ACAD_XDICTIONARY
360
8159
102
}
102
{ACAD_REACTORS
330
8157
102
}
330
8157
100
AcDbMaterial
  1
ByLayer
 72
     0
 43
0.0208333333333333
 43
0.0
 43
0.0
 43
0.0
 43
0.0
 43
0.0208333333333333
 43
0.0
 43
0.0
 43
0.0
 43
0.0
 43
1.0
 43
0.0
 43
0.0
 43
0.0
 43
0.0
 43
1.0
 77
     0
 47
0.0208333333333333
 47
0.0
 47
0.0
 47
0.0
 47
0.0
 47
0.0208333333333333
 47
0.0
 47
0.0
 47
0.0
 47
0.0
 47
1.0
 47
0.0
 47
0.0
 47
0.0
 47
0.0
 47
1.0
171
     0
 49
0.0208333333333333
 49
0.0
 49
0.0
 49
0.0
 49
0.0
 49
0.0208333333333333
 49
0.0
 49
0.0
 49
0.0
 49
0.0
 49
1.0
 49
0.0
 49
0.0
 49
0.0
 49
0.0
 49
1.0
175
     0
142
0.0208333333333333
142
0.0
142
0.0
142
0.0
142
0.0
142
0.0208333333333333
142
0.0
142
0.0
142
0.0
142
0.0
142
1.0
142
0.0
142
0.0
142
0.0
142
0.0
142
1.0
179
     0
144
0.0208333333333333
144
0.0
144
0.0
144
0.0
144
0.0
144
0.0208333333333333
144
0.0
144
0.0
144
0.0
144
0.0
144
1.0
144
0.0
144
0.0
144
0.0
144
0.0
144
1.0
147
0.0208333333333333
147
0.0
147
0.0
147
0.0
147
0.0
147
0.0208333333333333
147
0.0
147
0.0
147
0.0
147
0.0
147
1.0
147
0.0
147
0.0
147
0.0
147
0.0
147
1.0
  0
MATERIAL
  5
8168
102
{ACAD_XDICTIONARY
360
8169
102
}
102
{ACAD_REACTORS
330
8157
102
}
330
8157
100
AcDbMaterial
  1
Global
 72
     0
 43
0.0208333333333333
 43
0.0
 43
0.0
 43
0.0
 43
0.0
 43
0.0208333333333333
 43
0.0
 43
0.0
 43
0.0
 43
0.0
 43
1.0
 43
0.0
 43
0.0
 43
0.0
 43
0.0
 43
1.0
 77
     0
 47
0.0208333333333333
 47
0.0
 47
0.0
 47
0.0
 47
0.0
 47
0.0208333333333333
 47
0.0
 47
0.0
 47
0.0
 47
0.0
 47
1.0
 47
0.0
 47
0.0
 47
0.0
 47
0.0
 47
1.0
171
     0
 49
0.0208333333333333
 49
0.0
 49
0.0
 49
0.0
 49
0.0
 49
0.0208333333333333
 49
0.0
 49
0.0
 49
0.0
 49
0.0
 49
1.0
 49
0.0
 49
0.0
 49
0.0
 49
0.0
 49
1.0
175
     0
142
0.0208333333333333
142
0.0
142
0.0
142
0.0
142
0.0
142
0.0208333333333333
142
0.0
142
0.0
142
0.0
142
0.0
142
1.0
142
0.0
142
0.0
142
0.0
142
0.0
142
1.0
179
     0
144
0.0208333333333333
144
0.0
144
0.0
144
0.0
144
0.0
144
0.0208333333333333
144
0.0
144
0.0
144
0.0
144
0.0
144
1.0
144
0.0
144
0.0
144
0.0
144
0.0
144
1.0
147
0.0208333333333333
147
0.0
147
0.0
147
0.0
147
0.0
147
0.0208333333333333
147
0.0
147
0.0
147
0.0
147
0.0
147
1.0
147
0.0
147
0.0
147
0.0
147
0.0
147
1.0
  0
MLEADERSTYLE
  5
81AD
102
{ACAD_REACTORS
330
81AC
102
}
330
81AC
100
AcDbMLeaderStyle
170
     2
171
     1
172
     0
 90
        2
 40
0.0
 41
0.0
173
     1
 91
-1056964608
340
81A1
 92
       -2
290
     1
 42
0.09
291
     1
 43
0.36
  3
Standard
 44
0.18
300

342
819C
174
     1
178
     6
175
     1
176
     0
 93
-1056964608
 45
0.18
292
     0
297
     0
 46
0.18
 94
-1056964608
 47
1.0
 49
1.0
140
1.0
293
     1
141
0.0
294
     1
177
     0
142
1.0
295
     0
296
     0
143
0.125
1001
ACAD_MLEADERVER
1070
     2
  0
MLINESTYLE
  5
81A6
102
{ACAD_REACTORS
330
81A5
102
}
330
81A5
100
AcDbMlineStyle
  2
STANDARD
 70
     0
  3

 62
   256
 51
90.0
 52
90.0
 71
     2
 49
0.5
 62
   256
  6
BYLAYER
 49
-0.5
 62
   256
  6
BYLAYER
  0
ACDBPLACEHOLDER
  5
8156
102
{ACAD_REACTORS
330
8155
102
}
330
8155
  0
SCALE
  5
818A
102
{ACAD_REACTORS
330
8189
102
}
330
8189
100
AcDbScale
 70
     0
300
1:1
140
1.0
141
1.0
290
     1
  0
SCALE
  5
818B
102
{ACAD_REACTORS
330
8189
102
}
330
8189
100
AcDbScale
 70
     0
300
1/128" = 1'-0"
140
0.0078125
141
12.0
290
     0
  0
SCALE
  5
818C
102
{ACAD_REACTORS
330
8189
102
}
330
8189
100
AcDbScale
 70
     0
300
1/64" = 1'-0"
140
0.015625
141
12.0
290
     0
  0
SCALE
  5
818D
102
{ACAD_REACTORS
330
8189
102
}
330
8189
100
AcDbScale
 70
     0
300
1/32" = 1'-0"
140
0.03125
141
12.0
290
     0
  0
SCALE
  5
818E
102
{ACAD_REACTORS
330
8189
102
}
330
8189
100
AcDbScale
 70
     0
300
1/16" = 1'-0"
140
0.0625
141
12.0
290
     0
  0
SCALE
  5
818F
102
{ACAD_REACTORS
330
8189
102
}
330
8189
100
AcDbScale
 70
     0
300
3/32" = 1'-0"
140
0.09375
141
12.0
290
     0
  0
SCALE
  5
8190
102
{ACAD_REACTORS
330
8189
102
}
330
8189
100
AcDbScale
 70
     0
300
1/8" = 1'-0"
140
0.125
141
12.0
290
     0
  0
SCALE
  5
8191
102
{ACAD_REACTORS
330
8189
102
}
330
8189
100
AcDbScale
 70
     0
300
3/16" = 1'-0"
140
0.1875
141
12.0
290
     0
  0
SCALE
  5
8192
102
{ACAD_REACTORS
330
8189
102
}
330
8189
100
AcDbScale
 70
     0
300
1/4" = 1'-0"
140
0.25
141
12.0
290
     0
  0
SCALE
  5
8193
102
{ACAD_REACTORS
330
8189
102
}
330
8189
100
AcDbScale
 70
     0
300
3/8" = 1'-0"
140
0.375
141
12.0
290
     0
  0
SCALE
  5
8194
102
{ACAD_REACTORS
330
8189
102
}
330
8189
100
AcDbScale
 70
     0
300
1/2" = 1'-0"
140
0.5
141
12.0
290
     0
  0
SCALE
  5
8195
102
{ACAD_REACTORS
330
8189
102
}
330
8189
100
AcDbScale
 70
     0
300
3/4" = 1'-0"
140
0.75
141
12.0
290
     0
  0
SCALE
  5
8196
102
{ACAD_REACTORS
330
8189
102
}
330
8189
100
AcDbScale
 70
     0
300
1" = 1'-0"
140
1.0
141
12.0
290
     0
  0
SCALE
  5
8197
102
{ACAD_REACTORS
330
8189
102
}
330
8189
100
AcDbScale
 70
     0
300
1-1/2" = 1'-0"
140
1.5
141
12.0
290
     0
  0
SCALE
  5
8198
102
{ACAD_REACTORS
330
8189
102
}
330
8189
100
AcDbScale
 70
     0
300
3" = 1'-0"
140
3.0
141
12.0
290
     0
  0
SCALE
  5
8199
102
{ACAD_REACTORS
330
8189
102
}
330
8189
100
AcDbScale
 70
     0
300
6" = 1'-0"
140
6.0
141
12.0
290
     0
  0
SCALE
  5
819A
102
{ACAD_REACTORS
330
8189
102
}
330
8189
100
AcDbScale
 70
     0
300
1'-0" = 1'-0"
140
12.0
141
12.0
290
     0
  0
ACDBSECTIONVIEWSTYLE
  5
81AF
102
{ACAD_XDICTIONARY
360
82E7
102
}
102
{ACAD_REACTORS
330
81AE
102
}
330
81AE
100
AcDbModelDocViewStyle
 70
     0
  3
Imperial24
290
     0
100
AcDbSectionViewStyle
 70
     0
 71
     0
 90
       78
 71
     1
340
819C
 40
0.24
340
0
340
0
 40
0.24
300
I, O, Q, S, X, Z
 40
0.48
 90
        3
 40
0.18
 90
        1
 71
     2
340
81A3
 90
       25
340
81A3
 90
       50
 40
0.24
 40
0.0
 40
0.24
 71
     3
340
819C
 40
0.24
 90
        1
 40
0.75
 90
        1
300
%<\AcVar ViewType \f "%tc1">% %<\AcVar ViewSectionStartId>%-%<\AcVar ViewSectionEndId>%\PSCALE %<\AcVar ViewScale \f "%sn">%
 71
     4
300
ANSI31
 40
1.0
 90
        0
290
     0
290
     0
 90
        6
 40
0.0
 40
1.570796326794896
 40
0.2617993877991494
 40
1.308996938995747
 40
-0.2617993877991494
 40
1.832595714594046
  0
TABLESTYLE
  5
81AB
102
{ACAD_XDICTIONARY
360
82AE
102
}
102
{ACAD_REACTORS
330
81AA
102
}
330
81AA
100
AcDbTableStyle
  3
Standard
 70
     0
 71
     0
 40
0.06
 41
0.06
280
     0
281
     0
  7
STANDARD
140
0.18
170
     2
 62
     0
 63
     7
283
     0
274
    -2
284
     1
 64
     0
275
    -2
285
     1
 65
     0
276
    -2
286
     1
 66
     0
277
    -2
287
     1
 67
     0
278
    -2
288
     1
 68
     0
279
    -2
289
     1
 69
     0
  7
STANDARD
140
0.25
170
     5
 62
     0
 63
     7
283
     0
274
    -2
284
     1
 64
     0
275
    -2
285
     1
 65
     0
276
    -2
286
     1
 66
     0
277
    -2
287
     1
 67
     0
278
    -2
288
     1
 68
     0
279
    -2
289
     1
 69
     0
  7
STANDARD
140
0.18
170
     5
 62
     0
 63
     7
283
     0
274
    -2
284
     1
 64
     0
275
    -2
285
     1
 65
     0
276
    -2
286
     1
 66
     0
277
    -2
287
     1
 67
     0
278
    -2
288
     1
 68
     0
279
    -2
289
     1
 69
     0
  0
VISUALSTYLE
  5
8176
102
{ACAD_XDICTIONARY
360
82BF
102
}
102
{ACAD_REACTORS
330
8170
102
}
330
8170
100
AcDbVisualStyle
  2
2dWireframe
 70
     4
 71
     0
 72
     2
 73
     0
 90
        0
 40
-0.6
 41
-30.0
 62
     5
 63
     7
 74
     1
 91
        4
 64
     7
 65
   257
 75
     1
175
     1
 42
1.0
 92
        0
 66
   257
 43
1.0
 76
     1
 77
     6
 78
     2
 67
     7
 79
     5
170
     0
171
     0
290
     0
174
     0
 93
        1
 44
0.0
173
     0
291
     0
 45
0.0
1001
ACAD
1000
AcDbSavedByObjectVersion
1070
     0
  0
VISUALSTYLE
  5
8175
102
{ACAD_XDICTIONARY
360
82BD
102
}
102
{ACAD_REACTORS
330
8170
102
}
330
8170
100
AcDbVisualStyle
  2
Basic
 70
     7
 71
     1
 72
     0
 73
     1
 90
        0
 40
-0.6
 41
-30.0
 62
     5
 63
     7
 74
     0
 91
        4
 64
     7
 65
   257
 75
     1
175
     1
 42
1.0
 92
        8
 66
     7
 43
1.0
 76
     1
 77
     6
 78
     2
 67
     7
 79
     5
170
     0
171
     0
290
     0
174
     0
 93
        1
 44
0.0
173
     0
291
     1
 45
0.0
1001
ACAD
1000
AcDbSavedByObjectVersion
1070
     0
  0
VISUALSTYLE
  5
817C
102
{ACAD_XDICTIONARY
360
82CB
102
}
102
{ACAD_REACTORS
330
8170
102
}
330
8170
100
AcDbVisualStyle
  2
Brighten
 70
    12
 71
     2
 72
     2
 73
     0
 90
        0
 40
-0.6
 41
-30.0
 62
     5
 63
     7
 74
     1
 91
        4
 64
     7
 65
   257
 75
     1
175
     1
 42
1.0
 92
        8
 66
     7
 43
1.0
 76
     1
 77
     6
 78
     2
 67
     7
 79
     5
170
     0
171
     0
290
     0
174
     0
 93
        1
 44
50.0
173
     0
291
     1
 45
0.0
1001
ACAD
1000
AcDbSavedByObjectVersion
1070
     0
  0
VISUALSTYLE
  5
8180
102
{ACAD_XDICTIONARY
360
82D3
102
}
102
{ACAD_REACTORS
330
8170
102
}
330
8170
100
AcDbVisualStyle
  2
ColorChange
 70
    16
 71
     2
 72
     2
 73
     3
 90
        0
 40
-0.6
 41
-30.0
 62
     5
 63
     8
 74
     1
 91
        4
 64
     7
 65
   257
 75
     1
175
     1
 42
1.0
 92
        8
 66
     8
 43
1.0
 76
     1
 77
     6
 78
     2
 67
     7
 79
     5
170
     0
171
     0
290
     0
174
     0
 93
        1
 44
0.0
173
     0
291
     1
 45
0.0
1001
ACAD
1000
AcDbSavedByObjectVersion
1070
     0
  0
VISUALSTYLE
  5
8179
102
{ACAD_XDICTIONARY
360
82C5
102
}
102
{ACAD_REACTORS
330
8170
102
}
330
8170
100
AcDbVisualStyle
  2
Conceptual
 70
     9
 71
     3
 72
     2
 73
     0
 90
        0
 40
-0.6
 41
-30.0
 62
     5
 63
     7
 74
     2
 91
        2
 64
     7
 65
   257
 75
     1
175
     1
 42
179.0
 92
        8
 66
     7
 43
1.0
 76
     1
 77
     6
 78
     2
 67
     7
 79
     3
170
     0
171
     0
290
     0
174
     0
 93
        1
 44
0.0
173
     0
291
     0
 45
0.0
1001
ACAD
1000
AcDbSavedByObjectVersion
1070
     0
  0
VISUALSTYLE
  5
817B
102
{ACAD_XDICTIONARY
360
82C9
102
}
102
{ACAD_REACTORS
330
8170
102
}
330
8170
100
AcDbVisualStyle
  2
Dim
 70
    11
 71
     2
 72
     2
 73
     0
 90
        0
 40
-0.6
 41
-30.0
 62
     5
 63
     7
 74
     1
 91
        4
 64
     7
 65
   257
 75
     1
175
     1
 42
1.0
 92
        8
 66
     7
 43
1.0
 76
     1
 77
     6
 78
     2
 67
     7
 79
     5
170
     0
171
     0
290
     0
174
     0
 93
        1
 44
-50.0
173
     0
291
     1
 45
0.0
1001
ACAD
1000
AcDbSavedByObjectVersion
1070
     0
  0
VISUALSTYLE
  5
8188
102
{ACAD_XDICTIONARY
360
82E3
102
}
102
{ACAD_REACTORS
330
8170
102
}
330
8170
100
AcDbVisualStyle
  2
EdgeColorOff
 70
    22
 71
     2
 72
     2
 73
     0
 90
        0
 40
-0.6
 41
-30.0
 62
     5
 63
     7
 74
     1
 91
        4
 64
     7
 65
   257
 75
     1
175
     1
 42
1.0
 92
        8
 66
     7
 43
1.0
 76
     1
 77
     6
 78
     2
 67
     7
 79
     5
170
     0
171
     0
290
     0
174
     0
 93
        1
 44
0.0
173
     0
291
     1
 45
0.0
1001
ACAD
1000
AcDbSavedByObjectVersion
1070
     0
  0
VISUALSTYLE
  5
817F
102
{ACAD_XDICTIONARY
360
82D1
102
}
102
{ACAD_REACTORS
330
8170
102
}
330
8170
100
AcDbVisualStyle
  2
Facepattern
 70
    15
 71
     2
 72
     2
 73
     0
 90
        0
 40
-0.6
 41
-30.0
 62
     5
 63
     7
 74
     1
 91
        4
 64
     7
 65
   257
 75
     1
175
     1
 42
1.0
 92
        8
 66
     7
 43
1.0
 76
     1
 77
     6
 78
     2
 67
     7
 79
     5
170
     0
171
     0
290
     0
174
     0
 93
        1
 44
0.0
173
     0
291
     1
 45
0.0
1001
ACAD
1000
AcDbSavedByObjectVersion
1070
     0
  0
VISUALSTYLE
  5
8171
102
{ACAD_XDICTIONARY
360
82B5
102
}
102
{ACAD_REACTORS
330
8170
102
}
330
8170
100
AcDbVisualStyle
  2
Flat
 70
     0
 71
     2
 72
     1
 73
     1
 90
        2
 40
-0.6
 41
30.0
 62
     5
 63
     7
 74
     0
 91
        0
 64
     7
 65
   257
 75
     1
175
     1
 42
1.0
 92
        8
 66
     7
 43
1.0
 76
     1
 77
     6
 78
     2
 67
     7
 79
     5
170
     0
171
     0
290
     0
174
     0
 93
       13
 44
0.0
173
     0
291
     1
 45
0.0
1001
ACAD
1000
AcDbSavedByObjectVersion
1070
     0
  0
VISUALSTYLE
  5
8172
102
{ACAD_XDICTIONARY
360
82B7
102
}
102
{ACAD_REACTORS
330
8170
102
}
330
8170
100
AcDbVisualStyle
  2
FlatWithEdges
 70
     1
 71
     2
 72
     1
 73
     1
 90
        2
 40
-0.6
 41
30.0
 62
     5
 63
     7
 74
     1
 91
        0
 64
     7
 65
   257
 75
     1
175
     1
 42
1.0
 92
        0
 66
   257
 43
1.0
 76
     1
 77
     6
 78
     2
 67
     7
 79
     5
170
     0
171
     0
290
     0
174
     0
 93
       13
 44
0.0
173
     0
291
     1
 45
0.0
1001
ACAD
1000
AcDbSavedByObjectVersion
1070
     0
  0
VISUALSTYLE
  5
8173
102
{ACAD_XDICTIONARY
360
82B9
102
}
102
{ACAD_REACTORS
330
8170
102
}
330
8170
100
AcDbVisualStyle
  2
Gouraud
 70
     2
 71
     2
 72
     2
 73
     1
 90
        2
 40
-0.6
 41
30.0
 62
     5
 63
     7
 74
     0
 91
        0
 64
     7
 65
   257
 75
     1
175
     1
 42
1.0
 92
        0
 66
     7
 43
1.0
 76
     1
 77
     6
 78
     2
 67
     7
 79
     5
170
     0
171
     0
290
     0
174
     0
 93
       13
 44
0.0
173
     0
291
     1
 45
0.0
1001
ACAD
1000
AcDbSavedByObjectVersion
1070
     0
  0
VISUALSTYLE
  5
8174
102
{ACAD_XDICTIONARY
360
82BB
102
}
102
{ACAD_REACTORS
330
8170
102
}
330
8170
100
AcDbVisualStyle
  2
GouraudWithEdges
 70
     3
 71
     2
 72
     2
 73
     1
 90
        2
 40
-0.6
 41
30.0
 62
     5
 63
     7
 74
     1
 91
        0
 64
     7
 65
   257
 75
     1
175
     1
 42
1.0
 92
        0
 66
   257
 43
1.0
 76
     1
 77
     6
 78
     2
 67
     7
 79
     5
170
     0
171
     0
290
     0
174
     0
 93
       13
 44
0.0
173
     0
291
     1
 45
0.0
1001
ACAD
1000
AcDbSavedByObjectVersion
1070
     0
  0
VISUALSTYLE
  5
8178
102
{ACAD_XDICTIONARY
360
82C3
102
}
102
{ACAD_REACTORS
330
8170
102
}
330
8170
100
AcDbVisualStyle
  2
Hidden
 70
     6
 71
     1
 72
     2
 73
     2
 90
        0
 40
-0.6
 41
-30.0
 62
     5
 63
     7
 74
     2
 91
        2
 64
     7
 65
   257
 75
     2
175
     1
 42
40.0
 92
        0
 66
   257
 43
1.0
 76
     1
 77
     6
 78
     2
 67
     7
 79
     3
170
     0
171
     0
290
     0
174
     0
 93
        1
 44
0.0
173
     0
291
     0
 45
0.0
1001
ACAD
1000
AcDbSavedByObjectVersion
1070
     0
  0
VISUALSTYLE
  5
8186
102
{ACAD_XDICTIONARY
360
82DF
102
}
102
{ACAD_REACTORS
330
8170
102
}
330
8170
100
AcDbVisualStyle
  2
JitterOff
 70
    20
 71
     2
 72
     2
 73
     0
 90
        0
 40
-0.6
 41
-30.0
 62
     5
 63
     7
 74
     1
 91
        4
 64
     7
 65
   257
 75
     1
175
     1
 42
1.0
 92
       10
 66
     7
 43
1.0
 76
     1
 77
     6
 78
     2
 67
     7
 79
     5
170
     0
171
     0
290
     0
174
     0
 93
        1
 44
0.0
173
     0
291
     1
 45
0.0
1001
ACAD
1000
AcDbSavedByObjectVersion
1070
     0
  0
VISUALSTYLE
  5
817E
102
{ACAD_XDICTIONARY
360
82CF
102
}
102
{ACAD_REACTORS
330
8170
102
}
330
8170
100
AcDbVisualStyle
  2
Linepattern
 70
    14
 71
     2
 72
     2
 73
     0
 90
        0
 40
-0.6
 41
-30.0
 62
     5
 63
     7
 74
     1
 91
        4
 64
     7
 65
   257
 75
     7
175
     7
 42
1.0
 92
        8
 66
     7
 43
1.0
 76
     1
 77
     6
 78
     2
 67
     7
 79
     5
170
     0
171
     0
290
     0
174
     0
 93
        1
 44
0.0
173
     0
291
     1
 45
0.0
1001
ACAD
1000
AcDbSavedByObjectVersion
1070
     0
  0
VISUALSTYLE
  5
8187
102
{ACAD_XDICTIONARY
360
82E1
102
}
102
{ACAD_REACTORS
330
8170
102
}
330
8170
100
AcDbVisualStyle
  2
OverhangOff
 70
    21
 71
     2
 72
     2
 73
     0
 90
        0
 40
-0.6
 41
-30.0
 62
     5
 63
     7
 74
     1
 91
        4
 64
     7
 65
   257
 75
     1
175
     1
 42
1.0
 92
        9
 66
     7
 43
1.0
 76
     1
 77
     6
 78
     2
 67
     7
 79
     5
170
     0
171
     0
290
     0
174
     0
 93
        1
 44
0.0
173
     0
291
     1
 45
0.0
1001
ACAD
1000
AcDbSavedByObjectVersion
1070
     0
  0
VISUALSTYLE
  5
817A
102
{ACAD_XDICTIONARY
360
82C7
102
}
102
{ACAD_REACTORS
330
8170
102
}
330
8170
100
AcDbVisualStyle
  2
Realistic
 70
     8
 71
     2
 72
     3
 73
     0
 90
        2
 40
-0.6
 41
30.0
 62
     5
 63
     7
 74
     0
 91
        0
 64
     7
 65
   257
 75
     1
175
     1
 42
1.0
 92
        8
 66
   257
 43
1.0
 76
     1
 77
     6
 78
     2
 67
     7
 79
     3
170
     0
171
     0
290
     0
174
     0
 93
       13
 44
0.0
173
     0
291
     0
 45
0.0
1001
ACAD
1000
AcDbSavedByObjectVersion
1070
     0
  0
VISUALSTYLE
  5
8185
102
{ACAD_XDICTIONARY
360
82DD
102
}
102
{ACAD_REACTORS
330
8170
102
}
330
8170
100
AcDbVisualStyle
  2
Shaded
 70
    27
 71
     2
 72
     2
 73
     1
 90
        2
 40
-0.6
 41
30.0
 62
     5
 63
     7
 74
     0
 91
        4
 64
     7
 65
   257
 75
     1
175
     1
 42
1.0
 92
        8
 66
   257
 43
1.0
 76
     1
 77
     6
 78
     2
 67
     8
 79
     3
170
     0
171
     0
290
     0
174
     0
 93
        5
 44
0.0
173
     0
291
     0
 45
0.0
1001
ACAD
1000
AcDbSavedByObjectVersion
1070
     0
  0
VISUALSTYLE
  5
8184
102
{ACAD_XDICTIONARY
360
82DB
102
}
102
{ACAD_REACTORS
330
8170
102
}
330
8170
100
AcDbVisualStyle
  2
Shaded with edges
 70
    26
 71
     2
 72
     2
 73
     1
 90
        2
 40
-0.6
 41
30.0
 62
     5
 63
     7
 74
     1
 91
       10
 64
     7
 65
   257
 75
     2
175
     1
 42
1.0
 92
        8
 66
   257
 43
1.0
 76
     1
 77
     6
 78
     2
 67
     7
 79
     3
170
     0
171
     0
290
     0
174
     0
 93
        5
 44
0.0
173
     0
291
     0
 45
0.0
1001
ACAD
1000
AcDbSavedByObjectVersion
1070
     0
  0
VISUALSTYLE
  5
8181
102
{ACAD_XDICTIONARY
360
82D5
102
}
102
{ACAD_REACTORS
330
8170
102
}
330
8170
100
AcDbVisualStyle
  2
Shades of Gray
 70
    23
 71
     2
 72
     2
 73
     3
 90
        0
 40
-0.6
 41
-30.0
 62
     5
 63
     7
 74
     2
 91
        2
 64
     7
 65
     7
 75
     1
175
     1
 42
40.0
 92
        8
 66
     7
 43
1.0
 76
     1
 77
     6
 78
     2
 67
     7
 79
     3
170
     0
171
     0
290
     0
174
     0
 93
        1
 44
0.0
173
     0
291
     0
 45
0.0
1001
ACAD
1000
AcDbSavedByObjectVersion
1070
     0
  0
VISUALSTYLE
  5
8182
102
{ACAD_XDICTIONARY
360
82D7
102
}
102
{ACAD_REACTORS
330
8170
102
}
330
8170
100
AcDbVisualStyle
  2
Sketchy
 70
    24
 71
     1
 72
     2
 73
     2
 90
        0
 40
-0.6
 41
-30.0
 62
     5
 63
     7
 74
     2
 91
        2
 64
     7
 65
     7
 75
     1
175
     1
 42
40.0
 92
       11
 66
     7
 43
1.0
 76
     1
 77
     6
 78
     2
 67
     7
 79
     6
170
     0
171
     0
290
     0
174
     0
 93
        1
 44
0.0
173
     0
291
     0
 45
0.0
1001
ACAD
1000
AcDbSavedByObjectVersion
1070
     0
  0
VISUALSTYLE
  5
817D
102
{ACAD_XDICTIONARY
360
82CD
102
}
102
{ACAD_REACTORS
330
8170
102
}
330
8170
100
AcDbVisualStyle
  2
Thicken
 70
    13
 71
     2
 72
     2
 73
     0
 90
        0
 40
-0.6
 41
-30.0
 62
     5
 63
     7
 74
     1
 91
        4
 64
     7
 65
   257
 75
     1
175
     1
 42
1.0
 92
       12
 66
     7
 43
1.0
 76
     1
 77
     6
 78
     2
 67
     7
 79
     5
170
     0
171
     0
290
     0
174
     0
 93
        1
 44
0.0
173
     0
291
     1
 45
0.0
1001
ACAD
1000
AcDbSavedByObjectVersion
1070
     0
  0
VISUALSTYLE
  5
8177
102
{ACAD_XDICTIONARY
360
82C1
102
}
102
{ACAD_REACTORS
330
8170
102
}
330
8170
100
AcDbVisualStyle
  2
Wireframe
 70
     5
 71
     0
 72
     2
 73
     0
 90
        0
 40
-0.6
 41
-30.0
 62
     5
 63
     7
 74
     1
 91
        4
 64
     7
 65
   257
 75
     1
175
     1
 42
1.0
 92
        0
 66
   257
 43
1.0
 76
     1
 77
     6
 78
     2
 67
     7
 79
     3
170
     0
171
     0
290
     0
174
     0
 93
        1
 44
0.0
173
     0
291
     0
 45
0.0
1001
ACAD
1000
AcDbSavedByObjectVersion
1070
     0
  0
VISUALSTYLE
  5
8183
102
{ACAD_XDICTIONARY
360
82D9
102
}
102
{ACAD_REACTORS
330
8170
102
}
330
8170
100
AcDbVisualStyle
  2
X-Ray
 70
    25
 71
     2
 72
     2
 73
     1
 90
        1
 40
0.5
 41
-30.0
 62
     5
 63
     7
 74
     1
 91
        0
 64
     7
 65
   257
 75
     1
175
     1
 42
1.0
 92
        8
 66
     7
 43
1.0
 76
     1
 77
     6
 78
     2
 67
     7
 79
     3
170
     0
171
     0
290
     0
174
     0
 93
       13
 44
0.0
173
     0
291
     0
 45
0.0
1001
ACAD
1000
AcDbSavedByObjectVersion
1070
     0
  0
DICTIONARYVAR
  5
82A8
102
{ACAD_REACTORS
330
82A3
102
}
330
82A3
100
DictionaryVariables
280
     0
  1
1:1
  0
DICTIONARYVAR
  5
82A5
102
{ACAD_REACTORS
330
82A3
102
}
330
82A3
100
DictionaryVariables
280
     0
  1
STANDARD
  0
DICTIONARYVAR
  5
82A4
102
{ACAD_REACTORS
330
82A3
102
}
330
82A3
100
DictionaryVariables
280
     0
  1
STANDARD
  0
DICTIONARYVAR
  5
82A6
102
{ACAD_REACTORS
330
82A3
102
}
330
82A3
100
DictionaryVariables
280
     0
  1
Imperial24
  0
DICTIONARYVAR
  5
82A7
102
{ACAD_REACTORS
330
82A3
102
}
330
82A3
100
DictionaryVariables
280
     0
  1
Imperial24
  0
DICTIONARYVAR
  5
82AB
102
{ACAD_REACTORS
330
82A3
102
}
330
82A3
100
DictionaryVariables
280
     0
  1
1
  0
DICTIONARYVAR
  5
82AA
102
{ACAD_REACTORS
330
82A3
102
}
330
82A3
100
DictionaryVariables
280
     0
  1
0
  0
DICTIONARYVAR
  5
82A9
102
{ACAD_REACTORS
330
82A3
102
}
330
82A3
100
DictionaryVariables
280
     0
  1
127
  0
DICTIONARYVAR
  5
82AC
102
{ACAD_REACTORS
330
82A3
102
}
330
82A3
100
DictionaryVariables
280
     0
  1
2
  0
DICTIONARY
  5
82E9
330
81B1
100
AcDbDictionary
280
     1
281
     1
  3
ACAD_XREC_ROUNDTRIP
360
82EA
  0
DICTIONARY
  5
82ED
330
81B9
100
AcDbDictionary
280
     1
281
     1
  3
ACAD_XREC_ROUNDTRIP
360
82EE
  0
DICTIONARY
  5
82EB
330
81B5
100
AcDbDictionary
280
     1
281
     1
  3
ACAD_XREC_ROUNDTRIP
360
82EC
  0
DICTIONARY
  5
8161
330
8160
100
AcDbDictionary
280
     1
281
     1
  3
ACAD_XREC_ROUNDTRIP
360
82B3
  3
BUMPTILE
360
8163
  3
DIFFUSETILE
360
8162
  3
OPACITYTILE
360
8166
  3
REFLECTIONTILE
360
8165
  3
REFRACTIONTILE
360
8167
  3
SPECULARTILE
360
8164
  0
DICTIONARY
  5
8159
330
8158
100
AcDbDictionary
280
     1
281
     1
  3
ACAD_XREC_ROUNDTRIP
360
82B2
  3
BUMPTILE
360
815B
  3
DIFFUSETILE
360
815A
  3
OPACITYTILE
360
815E
  3
REFLECTIONTILE
360
815D
  3
REFRACTIONTILE
360
815F
  3
SPECULARTILE
360
815C
  0
DICTIONARY
  5
8169
330
8168
100
AcDbDictionary
280
     1
281
     1
  3
ACAD_XREC_ROUNDTRIP
360
82B4
  3
BUMPTILE
360
816B
  3
DIFFUSETILE
360
816A
  3
FBXASSET
360
8201
  3
OPACITYTILE
360
816E
  3
REFLECTIONTILE
360
816D
  3
REFRACTIONTILE
360
816F
  3
SPECULARTILE
360
816C
  0
DICTIONARY
  5
82E7
330
81AF
100
AcDbDictionary
280
     1
281
     1
  3
ACAD_XREC_ROUNDTRIP
360
82E8
  0
DICTIONARY
  5
82AE
330
81AB
100
AcDbDictionary
280
     1
281
     1
  3
ACAD_ROUNDTRIP_2008_TABLESTYLE_CELLSTYLEMAP
360
82AF
  3
ACAD_XREC_ROUNDTRIP
360
82E5
  0
DICTIONARY
  5
82BF
330
8176
100
AcDbDictionary
280
     1
281
     1
  3
ACAD_XREC_ROUNDTRIP
360
82C0
  0
DICTIONARY
  5
82BD
330
8175
100
AcDbDictionary
280
     1
281
     1
  3
ACAD_XREC_ROUNDTRIP
360
82BE
  0
DICTIONARY
  5
82CB
330
817C
100
AcDbDictionary
280
     1
281
     1
  3
ACAD_XREC_ROUNDTRIP
360
82CC
  0
DICTIONARY
  5
82D3
330
8180
100
AcDbDictionary
280
     1
281
     1
  3
ACAD_XREC_ROUNDTRIP
360
82D4
  0
DICTIONARY
  5
82C5
330
8179
100
AcDbDictionary
280
     1
281
     1
  3
ACAD_XREC_ROUNDTRIP
360
82C6
  0
DICTIONARY
  5
82C9
330
817B
100
AcDbDictionary
280
     1
281
     1
  3
ACAD_XREC_ROUNDTRIP
360
82CA
  0
DICTIONARY
  5
82E3
330
8188
100
AcDbDictionary
280
     1
281
     1
  3
ACAD_XREC_ROUNDTRIP
360
82E4
  0
DICTIONARY
  5
82D1
330
817F
100
AcDbDictionary
280
     1
281
     1
  3
ACAD_XREC_ROUNDTRIP
360
82D2
  0
DICTIONARY
  5
82B5
330
8171
100
AcDbDictionary
280
     1
281
     1
  3
ACAD_XREC_ROUNDTRIP
360
82B6
  0
DICTIONARY
  5
82B7
330
8172
100
AcDbDictionary
280
     1
281
     1
  3
ACAD_XREC_ROUNDTRIP
360
82B8
  0
DICTIONARY
  5
82B9
330
8173
100
AcDbDictionary
280
     1
281
     1
  3
ACAD_XREC_ROUNDTRIP
360
82BA
  0
DICTIONARY
  5
82BB
330
8174
100
AcDbDictionary
280
     1
281
     1
  3
ACAD_XREC_ROUNDTRIP
360
82BC
  0
DICTIONARY
  5
82C3
330
8178
100
AcDbDictionary
280
     1
281
     1
  3
ACAD_XREC_ROUNDTRIP
360
82C4
  0
DICTIONARY
  5
82DF
330
8186
100
AcDbDictionary
280
     1
281
     1
  3
ACAD_XREC_ROUNDTRIP
360
82E0
  0
DICTIONARY
  5
82CF
330
817E
100
AcDbDictionary
280
     1
281
     1
  3
ACAD_XREC_ROUNDTRIP
360
82D0
  0
DICTIONARY
  5
82E1
330
8187
100
AcDbDictionary
280
     1
281
     1
  3
ACAD_XREC_ROUNDTRIP
360
82E2
  0
DICTIONARY
  5
82C7
330
817A
100
AcDbDictionary
280
     1
281
     1
  3
ACAD_XREC_ROUNDTRIP
360
82C8
  0
DICTIONARY
  5
82DD
330
8185
100
AcDbDictionary
280
     1
281
     1
  3
ACAD_XREC_ROUNDTRIP
360
82DE
  0
DICTIONARY
  5
82DB
330
8184
100
AcDbDictionary
280
     1
281
     1
  3
ACAD_XREC_ROUNDTRIP
360
82DC
  0
DICTIONARY
  5
82D5
330
8181
100
AcDbDictionary
280
     1
281
     1
  3
ACAD_XREC_ROUNDTRIP
360
82D6
  0
DICTIONARY
  5
82D7
330
8182
100
AcDbDictionary
280
     1
281
     1
  3
ACAD_XREC_ROUNDTRIP
360
82D8
  0
DICTIONARY
  5
82CD
330
817D
100
AcDbDictionary
280
     1
281
     1
  3
ACAD_XREC_ROUNDTRIP
360
82CE
  0
DICTIONARY
  5
82C1
330
8177
100
AcDbDictionary
280
     1
281
     1
  3
ACAD_XREC_ROUNDTRIP
360
82C2
  0
DICTIONARY
  5
82D9
330
8183
100
AcDbDictionary
280
     1
281
     1
  3
ACAD_XREC_ROUNDTRIP
360
82DA
  0
XRECORD
  5
82EA
102
{ACAD_REACTORS
330
82E9
102
}
330
82E9
100
AcDbXrecord
280
     1
102
DISPLAYNAME
  1
Imperial24
102
FLAGS
 90
        0
  0
XRECORD
  5
82EE
102
{ACAD_REACTORS
330
82ED
102
}
330
82ED
100
AcDbXrecord
280
     1
102
SHADEPLOT
 70
     0
102
SHADEPLOTRESLEVEL
 70
     2
102
SHADEPLOTCUSTOMDPI
 70
   300
  0
XRECORD
  5
82EC
102
{ACAD_REACTORS
330
82EB
102
}
330
82EB
100
AcDbXrecord
280
     1
102
SHADEPLOT
 70
     0
102
SHADEPLOTRESLEVEL
 70
     2
102
SHADEPLOTCUSTOMDPI
 70
   300
  0
XRECORD
  5
82B3
102
{ACAD_REACTORS
330
8161
102
}
330
8161
100
AcDbXrecord
280
     1
102
MATERIAL
148
0.0
149
0.0
149
0.0
 93
        0
 94
      127
282
     0
 72
     0
 77
     0
171
     0
175
     0
179
     0
273
     0
  0
XRECORD
  5
8163
102
{ACAD_REACTORS
330
8161
102
}
330
8161
100
AcDbXrecord
280
     1
270
     1
271
     1
  0
XRECORD
  5
8162
102
{ACAD_REACTORS
330
8161
102
}
330
8161
100
AcDbXrecord
280
     1
270
     1
271
     1
  0
XRECORD
  5
8166
102
{ACAD_REACTORS
330
8161
102
}
330
8161
100
AcDbXrecord
280
     1
270
     1
271
     1
  0
XRECORD
  5
8165
102
{ACAD_REACTORS
330
8161
102
}
330
8161
100
AcDbXrecord
280
     1
270
     1
271
     1
  0
XRECORD
  5
8167
102
{ACAD_REACTORS
330
8161
102
}
330
8161
100
AcDbXrecord
280
     1
270
     1
271
     1
  0
XRECORD
  5
8164
102
{ACAD_REACTORS
330
8161
102
}
330
8161
100
AcDbXrecord
280
     1
270
     1
271
     1
  0
XRECORD
  5
82B2
102
{ACAD_REACTORS
330
8159
102
}
330
8159
100
AcDbXrecord
280
     1
102
MATERIAL
148
0.0
149
0.0
149
0.0
 93
        0
 94
      127
282
     0
 72
     0
 77
     0
171
     0
175
     0
179
     0
273
     0
  0
XRECORD
  5
815B
102
{ACAD_REACTORS
330
8159
102
}
330
8159
100
AcDbXrecord
280
     1
270
     1
271
     1
  0
XRECORD
  5
815A
102
{ACAD_REACTORS
330
8159
102
}
330
8159
100
AcDbXrecord
280
     1
270
     1
271
     1
  0
XRECORD
  5
815E
102
{ACAD_REACTORS
330
8159
102
}
330
8159
100
AcDbXrecord
280
     1
270
     1
271
     1
  0
XRECORD
  5
815D
102
{ACAD_REACTORS
330
8159
102
}
330
8159
100
AcDbXrecord
280
     1
270
     1
271
     1
  0
XRECORD
  5
815F
102
{ACAD_REACTORS
330
8159
102
}
330
8159
100
AcDbXrecord
280
     1
270
     1
271
     1
  0
XRECORD
  5
815C
102
{ACAD_REACTORS
330
8159
102
}
330
8159
100
AcDbXrecord
280
     1
270
     1
271
     1
  0
XRECORD
  5
82B4
102
{ACAD_REACTORS
330
8169
102
}
330
8169
100
AcDbXrecord
280
     1
102
MATERIAL
148
0.0
149
0.0
149
0.0
 93
        0
 94
      127
282
     0
 72
     0
 77
     0
171
     0
175
     0
179
     0
273
     0
  0
XRECORD
  5
816B
102
{ACAD_REACTORS
330
8169
102
}
330
8169
100
AcDbXrecord
280
     1
270
     1
271
     1
  0
XRECORD
  5
816A
102
{ACAD_REACTORS
330
8169
102
}
330
8169
100
AcDbXrecord
280
     1
270
     1
271
     1
  0
XRECORD
  5
8201
102
{ACAD_REACTORS
330
8169
102
}
330
8169
100
AcDbXrecord
280
     1
 70
     1
 90
1959938040
 71
     1
  1
81547EAD-606C-41D8-BB55-A608E31D476F
311
504B0304140006080800238A7657667AA934D4000000200100004F00000046323337443939392D324433392D343438442D423932392D4231303141414239443043332F4173736574446174612F446566696E6974696F6E4974657261746F7250726F706572746965732E62696E454E4B6EC2301075BBA0EAA28BDE800BB8B6
311
13E7E34A158A31B0EAA63D001AC214223909C289D876C9ADE9585031D29B37FF3767C6D8E56614B207C22FF917E21576786CEAEF7A8F2DB049ACF87E03FEE9DE7BA430A60E7F60F443DCFA6C428DDE4387FD185EEFA3D316063A07FE2D2E3D13FE0B215ED85DC5A2FE89105F8A0CDBC3FB0C42C0E1432C93B470C6189EB8D4
311
70AD4BC7AD490CB74AAAAAB2C6C9792ABE30F4E3B1C6204A95E96251399ECB7CCEB57225B736CB7895CB72912AA78B7C2986FDD86E3A68BC90E2F6C2FAD0ED48F96A7F504B0304140006080800238A7657E0602CDDEC000000300200004500000046323337443939392D324433392D343438442D423932392D423130314141
311
4239443043332F4173736574446174612F496E7374616E636550726F706572746965732E62696EEB606060F80F0540260323103700495E20ED9E9A975A94991C9C9C919A9BA80214B030343531777574D135333073D6353174B1D075723235D5753433B07035367431313773634768046931363471713532B5D435353131D6
311
35313332D475727372D13534373670367376B67474B5042A03DBCBA019D37FE8ABC6157B20CD04146B0062181F4C03F940F0C11EA29A8141C08141002C0426541C106CAC2CA046088033B02A030AC2157C6006F21A8018AAF50194E6010A610250382264E08660284CD9E98021862280A91564B406929A0FF62C401E28B6F8
311
8038B83CB1243943D7A928312F25350524432B0000504B0304140006080800238A765788E57597CD3F0000904100006B00000046323337443939392D324433392D343438442D423932392D4231303141414239443043332F5265736F75726365732F38313534374541442D363036432D343144382D424235352D4136303845
311
333144343736462F7468756D626E61696C2F302F67656E657269635F706E67355B773CD4FF1FBF73E71C0E67EF7576C9DEF3EC995D46C6A1EC5046649CBDF79E192942562825CE965D8A868C2842C8DE9FDFD1F7E7F138F7078FCF6B3F5FCFD7EBFDFEC41B196891913091804020321D6D7513FC77D8C5070EC3FFEE51B21F
311
068154CC75D455CC028A3EA68992803810109FDDE5D5CEC5521B28A1B422BF80741695D5B529DA1C2D058AD2388BDA9F476F7C2CADC939304173DBF48A452BF8A700C0C70C3D121C1AA15A5270C22E2B9E28763651F7DA0D12CE11077B2ECD0D560B5E3DE2368B1E65C5E1C87384A4CC5F2D9FB8BE39E9B77C753783A37998
311
F5CEF1B4FEE553463245C9712270880DF339E0B882A6BA713D865F6F384C842D440934EF264F4A304F8DE4EEFA1E2BF5E2D91F5ADD9613D6E31DDB33ED31DB1D7916CAF091286EA3D31B9CFECB78BB0060245B943C4C040119FF780A74DD308BA9D028678674EB5504ECF284EE814DAED07440BAF649BE4B55DA2890F4D73E
311
2D489A59EE54FDB0A85B59F2F52C4858A02705C4815A792B0C4A996A2023ECB195073E115E3E3647F64243A8338F2000BCB58DA5692C7E7C3D413F963FEDF3CF00FBB0F831A9D51360FECA43819F527B89FA260EB63C5DA676830AA3626A3693B23F1A17A0DFFCE3EE164E31B5365EDF0C89EF64D8E38AB0BA9A1117D7C3A0
311
EC44F44F4023095E80BA610DE336D0F99593A88BFC5306E72DF98F7FD132ED95878DF2964EA7E43071359FD83B2BDF9C6B5BDF768F0F3C0FC351199526F53D9460A34511F75D1B63E488178569472C91A94497807A3FD4A390C6558F26D416365C3656DE6E769DA9D8FC73774E1709812842DD8EF96AED1960F79D21B395CD
311
DFE6F92CB4EB962A4668C76990E2EF29798C8941D67DA50F4A5F947872460F1F6FDB794E8A29FD7AC0C0D6E0714339CE258FB17AE8535221E3464A10F29A0BE5EEECEFC5675926A89F49EB14E5711894F6586DB5754EB4D5DA9C6437EBA57DB97A24F8B8A8DB295FFD73266CF57E82694DF5166DDF93573AFE9C9C5EB05F8F
311
EF8E89E0A8917B0B3724DB7BEBB53252581EFC3E38166BA131A3A5B42FE2AD00A769BBFA4458D2DE7822F8C4F63D0B8E21B285AE13325F3410A435C648C9D91FDEB109E73CEDA7BC796961AF79175E1A3CE4C5E8B0D009B0C9E29EFD98BC8E97554E3D8D838424E270F7685226E5AC268E021EDE3522D583E8F20C0BDE2959
311
EF5BBFEEDAB32FE9A3ED0E39F211A86AA9DEBFC68182EDED132AB8BB794442D2D7EA9F4D8BFF52BC4D55BB165124EE90A42D101E67BBBB292FFB4F66DE5BF2300E44546757DA7CEF8932BFC9F92A0707953491A55C5A5ACEDABD9FA1AEA01BAC3DC5A24E22E7C47213493996EFBC369D086ED9397C9BA6C7F9855C7BD5E15B
311
FC8C53DB3D2A4C5901A57ACD2FBDF4D1676E95338B2C2BCE65FDA4C64F5FEFDC7D9CA5AA1FCF11E193F2FDABF0F4916BF13FB916A224380E6462A9815F2300DC49CC4DF8D055CEF76462F4B7A7ACA7365C2707891370BC1D0AA6203C44CCAB47084FEC057F27FFCD57F89B8B9852459798A675C66BD7CE572CAF71FF7E6D7E
311
CF7BF62CAB7B3F1107DCD04DC55A3F9961700286141C94A4F771FEB2BCDA2DDEE0CB0BAE402FF1DB0100F8E475DFFFC074DDB4498AB7D186A7654DDB1CB680D703D47CEB4E72F8CB13D86A4AA68116E26387B93FD6738779B34FEDB8E517EDF2BAF28D9BE93A1D3A164320E07D42E514725C29515FF361754213EDE06B079A
311
2E99EB1CA82A02019EADEEB87B9AF005BD04BBCECB14AACD6B24EFBE482194A97DD32400685FF1FEF1544D1B14EFB1E7F08E6D2CD2AF52DE757F35F5E62332EE88EA26417AD5C3E0E319D68F25414E6D672BD4522B278C57D18F0113921C71D96527E091F00CEB15AE23D24667369BD3CEFA10C7549D930890BA4366F4EBC5
311
5F01F746109F98ABCDD5A3EE06619C6AD78AB33E48E4C9BD21BF7478B385EC05C4F8987E2C1BFA0A60EBEDAA0AE0B015C2720ECE180FB6F2DEFBEB822D96338C9B63822183BBF52FB664A7AE57003AABCE512BF77E7E31BDA2E739AC4C131657DDFE5225E900FB56CC01CDE808FA4A9C9DA16AC679656BB64796283D89812B
311
8F91136AE18EE5EBBAF47A73BE3C153EB5D4CD491B4BFB4FE690A4CF9ABA08C0D8AA64220C438C96EA6CA80B58FE5761E697B3A292EB9FBDA502FA863E49FE694ADDFFF9D62C520BDD1A22014147A0903A05B9B729F54272EF83931FEEC057BFF8C8055C279EAC5C0011804828734024F6CFA319C9CC6867C727184465CD9B
311
B7ED386AFFD96B294A85E3802FAE47244602D8273615952B98C4F23F7EAE4463D9D638EEE374A20959E0FE519C4CFB0FBFE5DD80C2AA3F9DB961D1BDE57E67C9BB47B77FDD74EE3094F5DBBE3EBC1FBDB7393F5116263009E2EFE1AF9A221B2AE234C902BF70E9F280ED23E73908361565964333A3F01D0B006AF32FB21AA1
311
316744B489D5A198E85299241735BE559675130955C902A8ED761FC0DBE337A9F91919AF5CE32AF902ADF9AB2615E00E8A94586BA1A90839B61832FF1BFB76D2EFADE6DB1BA04CCAD3DA649E7E2A0219F592E22F2AD54847EEA8E42271011E9074F8F3DD9FBA6CDF88FFC9FC7E811AD1CA8F4557CE4AFC7BBEDCF0114A4868
311
9F20A584520C74DA8127124B767E2FB91A6B186246727BE63C9445BAE02088D58B8EFDC0F1072407CD9B89A13F6303B4A928F593AD489B58E6869325790ADC406036C591729FE14021F94B7796BB11848D463536A092A26F077F94639F7CEEE2A724C66EC885F4A24F8B8A0AC321F8FD149BA529460FAA34E4663C02D41FDF
311
80BCA222D42F0ABFF8490F4FA74C673807C2051D8E467B47B616072860069A9A303ABA9B319D58404461401B0A0F9BE5E1E151C14BC33B32ABE03DDE91708DFAEB15E7C0D593C86BB7D7EC17BE56E57975F077BFD5525F3A1A361D584A75E08CF29FC7B44B2B3085014F3A5A14517377C3F6B8F37E59514C3B12F8AACDEDDA
311
4DFC49BE5710101534CD6FB6DE15B50F11A09472AABA727F0C49D9CB906B158030065F48EB3625E010CEC1D511D0053474B11E6A4F01C0D6EF1BED3A944FDEC70E0DDCDC756C86545910E0DAE3BE3AA9A404574C2995CD5CAF9549226BC94B4F4F0F5F9086F418F6B32346464610D8BC7391D3C3A3CCF04CFC1FB2A3A3170E
311
369511868F14EEA4E5E438CC73DB1F3248AA94B6B2FF33B222FF3D1E7BF146CAD229770158063BCE4F5391964DF62F7E52A7BE0EEA829C9E13C4C147D6F93FE59E111DAB5E4594D6F3CD1AD375EE039930EFE5AF2BB2D41C83C7DABD8C659BAFBE8FAB392CA634F3D15C1D945DB4588D2B0824A4EC928AAC565557CA2F0DAA
311
588CA5BE30B3A8004F7BF005E96CBF891D7F18112A3619FDF530DC8AA64954258E1811789B5189B49B4EB53F5F89F7D37523894F3EB57B373763C91E502F52CC99EB7BDDF933FC324C4FFC2561DFFA7339FAFDD0A4BFBE6D3A8FF9ED1FC49898139864602458968913181918F719CCF5A68B2EE9C1FF050E34E63107003B81
311
20FA982C21B30A874E4F5E4B38D5A8290C4B8D9BE48A0BE31EA995BDC37AC6DE90BA17D259DEF53605D55922FEB1855D915B659FBEB350EE0DFB2F9F766E1C84CC8964B75D08667445EAB966015F63A18A9E0A325C1B3DC628C0D3CB60F767FA93CC65F25458BD23C3B312716E5F40E5858AC06EBA9AB14F95DB99147B8320
311
69201541D09A0D856E12C629CF32683760EE855537D1901988D5EBC156676C7DD51D7207CF3267AF1D76C2AD867315E44618015313A98B19941C696FED3461CAA9B5415F918556D7802EDACEFD6B2E45853A9735DFC9DBF7E440F9319F8B6805A973BCCDC76C069A9144E51F187EDCC12FC31B5DEAAF0A76137199B106EC84
311
ADA6B6EE697D4E6A96E007417F4E880E8B1E89B4BCE9D81EF611E2ED8F0C1A6C25F620FAFAAB656A7C42D464880E8AFAB0E0FC8EA38CA9A8AEEAEE3E4648BA4680270A89743CDD3E6C6CBF34B7B640EFA285ABC7EA0A1E28F3CC963D114A80123EE66D0AF7D5380EB41909B605AB4765B709B808590458157E69BA1378FEC4
311
B48CAF6A730E3BE3C5EF2DD1A5EAF94B1DDE50CEB55DDFD7EE9A16747FA4B223359FB1FCC69E1194892BABB93A1D5C4E807AC0EA2E30180811E77A2291F6E7F7FAA5E0F60215BC6024E48DE436C511F0628B8CA189982D4D83CCA17D305A7E923C37941CFDFDCD93ACAF735EF5F0E61BBD3E6C41A59B242790D3A3BAC7064D
311
CD89AA2E37214EC839820949D5CAA31E240D2948E48F690298974A96BA9A8432BC90F5071D6537C9666EA4564796B7AFFFA548077BEEA75F63083435074BA182F3699557397F71548383FDA8CA34D99B981E72835ECDA5DDDC151315173D05A21F651AAF8524E88209E2E7A737ED1045800CE3390050BCFB8BE588DF111617
311
874C62575039CA588EEFDEFEFE319B739DE2EDC147092A262611E159650E787917885EF08F1F51B8F2D8A71D60B58B190FEF9541A1BE94BC19FEA50784DA1419FE4B0FB51B8D36B5FF8E1286FD8AF42B91E59A5F1CC4D60174E764045FD8C57B18209B217F89A62252BD20BE0E63E12B8E8F029FE19E0E8D0870F58721A557
311
082250D5424F7909369376E41666C0EE77CD87CB283F661D5FB6D0DA023CB67320A20DC7BE661E9E1BFE5463085C557DA1FF9BE835733766C3D139F2CF9E2208873AD0EB4814DE9E6BF2CAF81614D4D43906ED1C05A3265CABBFE192770FC2F64F940CB6B17B5F166F133C9AEEAD2641807C3E69515171DD74C4A85311513D
311
6EC9530B3B601B6BA3EBFF3B5C3D2F7D69765141E345F75433953D013ADDF8F6AA7DC3F4A7563FE5C7D367937E2900D7EAD0F9FC9A4A1A9B5BDF1FEF08532660C01C5D6DE22199AA774383E306DAB87E301ABB7D213887F9869D4942D0D71E94B27EDF216A318BD488D45DF84529EF575AF3C3938C0AAA0215B01994153E20
311
54A0B894DA5C784980633AAD48576957CF4AEAEAFADC7C587368551C73DBE1E57C58AC713303A8BFC258BD04B51724459FF9E24C03A81E0E0679CEB9B348C0DC998FEB9C6D6EFA77D247CC8F92D3848599ED89A23218D0636465AD1CEEB7DC140D7426F83491C4E8E8281C2FB35240918FFECE880CA2A42D70E8B20B34DF52
311
21C7DB0CF90ECCB9C745B37A47E9B716FF7A97B7A252C1F3814DC7B1E1A7F72B8751D524EF7CAE45B0C73B3BE7D08ED39781B380DDFC9AA4A4749C9493DB5BAD07A6EA6C092FBD0E85DB004DF06B8C9D3089C5320187E4CE1846158C7EA7DDAE8AD9AFFF21AA3A1026BB06A259845E8232DEE62811A4DA9CEAB3A4887320B7
311
6E2AE5615EAB7BDF738CBDD01F1E64064BC13D9EC53576751CA8CACD58B3CEB0E6CA585BD089B2A59B9FC101403387AADBDBE70586B93D64BF3AD4453EF9C3B6A93817E8346991798601344F79A83C51F3D50F7BF2683A3605F51A72449489E0EE6169C749C60B1035651103AEE24D24E51A759C840DD3FC6504DA6FE10751
311
0E447B43461C79D22970B75DE5E1BD3007D1AFC619A4A4A69B5626AF5E9B8374E20677F77E2F8E73DF868E8BEC7EBA7B6A75EEF7205E1AB9486CB642741D6E03FF13FCCEDB1C4AC129886268B01CDF4B124AF797CF784F3C6DEC97A17D4B558070A0F1C04DA4FF9BDBF34159AEFE958479824B3F58EBD1E19088A2AFDE501B
311
6F2052368A3FD0E650A179EFAB1561E1D27527077136E652676C3670F42DCB3352F48F6BC86D2C3B0051727E41A0A4DC6CE2BE9D47F5CAA2935A3C0539AF080665997194ABECD723B08129CC5B6B21D2E7D54CD4D12610E7E9FB8306771A89576C7A982002775ED44F3F744CF21EEBB27A631671D921938AAEE3EB0D19CD1E
311
083727F607823E817BF599DCED5394E37EEBC2E88782E638920CA641EF74D4CDFCDEF06F4278ECB18E31E7E9876F2D783C8BF429C75395F57E98C2B495A3DA077EB3AC3C158608B6B57FE3EA48484D9A480096FCEE0DE880950E7E5A5714131C5C41AAA29FD19AE81AC145FA1B9E85C7169A5AB837B213493DF7E9AA4B5FBF
311
9CDEB36EBD21EF1181B7CF7366AB2A951D01E37AF4EB835D1BE8C117CFBE7625D2EBCDB0B20C5A4B45CED0BCDE3EE8DA9DA78C2E21DEAAFFD1197E463C33CC6A80FB785669B856EFF7A8CCCA2841B5A5369173320B1170C368B2748D81062EA0296E5E2D95D7667A4A46D98A6FF475C76AAB0A8C8D45E226FAFC9FE0133EA9
311
F60111F99CA81ACE03A1D14C89E8B0D69079C91464FA1D99E651D0EAF606F345C42A8A1AA9BA391031582B96D5B4176A77AADB01F12FD298A75DEEBB2C82F0B8650E880722F8DDD90C56A7A058E5FDEF1AC93545BA27367C76F5D8F9690CB6F8DAE141EDD7971F0FB548A2AE435F224D6E5954CA155512F7332029D5A12308
311
54B79F258EC5FFDB09F5F6343A8EB193229B7F7E79B3E48F8E183860B38C8269D1B53738FF1E0BACF6AADA6D4869E9DE708E79B5DADCC09B1BC76F649731CFAF59A83FD8BAE4C749D66FA87A3810D4D62FFE826FA400C0F325D2BC0F3CA35F5847B82A2ACC7961745C823E4D863D54460AF792CE6F79B5C7A33B25C3AEA6CD
311
E15A919B6367D781E9D44F61BF828672594A3E1D9EDD6DF179A81F27EAC05B936575D73E05C209DDD2115CFB705DF9BBF3C911589B3640735E9E618FC9C36A7326C82B2205E244C55D56FDB9D5DC93CE958D4BF8174D2B3DA54CB3C09F2C2A6DFF73D23B2197355761AD421EC581284A7EF8DE2CE3497C0C804D49B41DFD6A
311
7360844E5BEFFB495CFCDB97A4595911CDBA623274CE852B5E278AF0BEB1770E9D37CD977B2766A7DED0E94B840E1E95E8C77DE5CB6354AF7871427C28ADBEEF7BA0A28E19DE9ACD75F379FE373EAE6DDDAE3834692F9C2B03B4FCA8FCA9ABE8EEEBEBB725B88A7C90941E850682CA04061A7DF0CE82ED49BFAFFD42C30981
311
8FAE14755CAAE78B0F73243ECCCAD7DF58FCB9CDFAE7A4D3E6671A613639130D056C8383C8F4FCF4808C331E544DD26E4755D09EA05253B3049A1E32587CC25D72E073E2CD96D04A71BBCB0038FEC3F53D254199C3CDC67CD66640269431860225392B2CB3ECD0B4498AAE78BA1994246AE1EE78F2EDFB79F6C6CB6B5E279C
311
4D373FBC21CB2698C9ACBBEB6A4BB6B39E16AB0E421CCBFC7654D81ED86022F9BB522146F9F4772E2D0E4FA70120C95A85A417BF5078B232F4754363EB1750B2AC2148EB46B1EA72AD9B4D23ADCBC589D70106C3EC2ABEEED84DFE28E718C6C83502C28E9FDD3B09DA0A6F6F7B72B706A31C9E2A331EE70DA56A083D2177BF
311
D63C55B11D8D949FAFCF90B23A1E24B9B5018B9A17E99F2890EC302F330FE7936E2C23F0D237EC8916F5166AB84B62A21BB0B950146962D754F92CC2C8877BED8FC7B7B25726DD19545392570B3A2C66B58F027BEF412E552D12A588C4A3CC5C3193FCB3485EFFF700D0B9EEC077754A33DC1FB9E25AF814628F91DDFECB66
311
7D3F7690803F38D13F8AE39353523BB08FC6760144AFA2CE28236F65EDBB3D5F59A57D612B99E3D7E5F8A851666BF9B5A6658EFC96EEB37A378ABB0EB3FDDF1303AF32C41BD1C8560745D7BD81066B0D6313359CF488563D3BA3F8E2185D1FAA3EBA1397C9D0E3DD232180A4DCADB6AF25DB3AC3CC26589C8239E66E81547B
311
C7E2F328F9884764CA37EB5DBE390DFC03A5246B456A7C3684C4377D0EEF9A350680FA9A077E8B2957B489E09AB1AD41316944C2254B5984830F691C93CAA767EECF976FA5647538830B5E63236A6F0365C1E0F3E327F24FE35EDDBD7360B0F7374837409F7A6311BECC12B7026D4FA1AE204FA3F5FE904B1F420C7A9044AE
311
58E403E7C4848E7DA25DC9EDAC79DD756FAA26B9EA83ACE8A214A2612A22AFA19DAE7DBAC5F8CDE1292A485F98DAC731A29FE01A3966E96BCB9FB5A4C8830E1B9AF0C54B87FBE221A097036E5D28D1F869F810C06A9BB0AC0612F69AEBAF893C6E7AD59460208BAB3A6B09CA4F6BDDAB8CF0D1F84B72487498395A70DCD754
311
796E271099A567A55CF242BBED64696378BB6CF25EF0FCDB589F3A82F1116D010A9AB9FA4358809EE0C973A2B4229BAA876A70B03AB49CBA7FBE71DB1832FFD32F9BF2C8E98075CACAFB36921235D0F552B6A67E94E094097A5D7DF681B40623DA535ADA7A9AD8E9A62407D7C9A5AE51D62A17A83A23728DE86BB56115804D
311
3F2675F2C6B87541A0FC497BF0CA86420F558C9859EBE9FAD62747E323E3AADC03FDCDDFE7407B09DA90B44E3185723C5381EAEF589765E2F7A099BA46695BAD60CEF3491B8A171F5F56444F7CE9455312C3498C74173AEA0214EC029833B34B650CBB5A5508D5091665309642791708ECF27CF11DB3D797D6CFE474453BD4
311
BFADB768094B2147814D81C7CBAF8228DCAF5564B5891F5EF6A860EB2E323CB82AB868D8EA048880D63B0DE5341F1B3D53297B928A11E15F25E5148990F710747C3509ED14909C552EBE3973246FCE55D00564D8310BC3EBC5085D08D806799B77D6C57FDF5E55837F9E934F09C03C729271B64F12D0A9F9E938107CAF7BF1
311
EC8CF1BB9B42363D33070F4CACB425E605DDB0A34A12BB936DE286B9887A4E2E558F0886498BFF49C311D96C277CF6A9FC0D75AD0ECC5226D7E0E3572012E56D7FDE4410CEC7A6D0F997F225A2055B8B92E3956E875AE4993CB3D4C9063AF98FD45E1BAB165640A43439A2C9181A7C355B297C0A0CCFFAE19B6FA3C2BA238A
311
885FBC98B8F6DAF4B94B97304878DF4D8BFF6A4AEDF79E90ED4E68F00CD7299F4E0D83E35601AF0CBEF18C1E870E74758FA91F5131075004DB3CFCF09AE1DABC11957FD9808C92E8A678CE9DBE40DDA0E0D1D505AAFBCBA208232BFB6FB3704E8985E61ADE53DE74152F5C7DE74B1DEDCD37DC3E8FB30D7EBA8B9EFFC3606B
311
F90B8D438279CB7709FC7C00D327F41817EEA71CD9E49FE9C8C9A81C70915D9F0F15958EC5AA4C3BBFAF46986B90F188BDB24B89DE3C6F29EC3E6F66D84856EE96A35E657CA41B41EFD8DBFA16AD6E91439EA92B40B21C053249F51AE50EB0B24C770FFAF40DF12C8436366819C48E36547D4E7B72FE2BBF10828583057814
311
A668BDF183F6B2E58DFB151103E56303E63D00F39C27C4661605DB644D19175D02E3F0241E8FC3458D17AAAADB117CE9EEA690D0DB01E634878C04C2C9310B69FCAB831151E3AD293BEF6E46B0ABCECB50F5939B39C613D41E81FAE8D34CAE3C4566B761D37185FE864AC32FCB71AEF39DAA5BAB88609BB980CD2F07A8F941
311
653B529567726E2B2A58D079DD57E1E5E31426CF184A04D7B03B985F276D47406AF276FE32E3328BA866EB1FD39BEF57863A317634AA5FE467409B3873F5069EF0D71AF00AD189D17BA1974ECDB2D623E9E14086386A6AAB5807825C37B015BFE892AFD154920EC437EB945D958E18622E1E0FE2FA06557CE4BB9BBD05A2D4
311
0E774DA2B65473791E314B7D6C886820B2FCFE4AA272B3B8B15E7344A145E8AF919B5454D89D36D413E87211186BF6F645E5EC94DCCE8E1C799022E4EC9BC86D7A0F2AFB1FC4B2CE48F84B3F49ECE65BAD24CADCC07EFF39AB06BE9E6B27A059938EA7208838455383DDBCFCD967DDE4650EF92A14FF933C975DB20BD7FEEB
311
C4487576485963D757D16340D9599FEB362F775F38CA4185A86F74B629C81B133644A3B18FD056E997E0734F9BE26D11C0AAFC669E2AC9FC41D281F8B2E1C35AE27BCE05F3DA295488096688719D974DF1B5D182DB7792288697F8763CFB43562C1CDEE11C4AABD5C22B6E33F6F389CFC3477C5919DC0D533F8A7A1846B7AD
311
B60ABDC26C43D0CFC8910B7C15EE22675BD02702ED39DB77A87A192CA7A543E6205B979B9F5A6B512A3CA799E198B2D5797C0AF8D1D872CA455D4D431A7879D4DD76110B5FF7F4176B54477A9EB5E4A5D11214FDA585F0382751D8E2582BA5D2075053298FEB8F1537304E32CB22C2E2B693DC0A760B1DFCA751BDC445AFDC
311
BB12820ED85F6D5298933C7EF1211E9E057684056CDA3FEF3BB6052355E162DF27C59E965A8DDB7F9437EB72CDDA3A090DE65A5B2F50326247B7EC67B73ACC7047FC9B353D6EE990F772207C6EC52B39DC2F3C0754821DAB559F7C1809C7D0DD5B0499D0442E0A6E391B3D5DB46D11E731E6794EC77523FBDAA242ED67F9FA
311
1FB684255671F63C9BCFE6E7E896D51001A6113EF2298BA494E0B0980D1FA5B9D60796554C02256B1E0345FB7C6186B6A19D2DCA270416262845FA4F42DB5D9B0A0B6F07FCA2E56C242522E001E0CEB734AF310FC8BFB57E38E03AACE93B3326A2197891E68452B26A6307FDABFEE0223D3C03C3C73D2D5BC054C8311F1200
311
4CAE488E5C29287F8156A2CAA4AD0D7BE6B97264E4139F437CE73ADF52E5134C52B819777C18B323A5924E4F67AFD13B1CDC3A61793A79FAF5C0CEB718E441071E797C6DCCB9EFCF7E4A1E9F3DF3C2F9C9E8294E9586868788C972857FB0556D7A26941A7EEB9B580AD78EC40B85DC906B4120A563CA3B87797ED612D3B035
311
962BB75F6515A393F4CB057F564CDF54F2E5A024514E6A1F901DB80C7E70B1FC05E356A7E72FABF4775B3E3FB8F70A2A8E7B6A94542BB304157978CCC999E707A29CC795E67A59CC546A5D47B368954CA7B6E75EC9E1F6FC73CE3B4F71F8CB1A6B15923D61EAAEB14626AAA9D04A26EB9C66CD1BE86CA31A5D8703DE04CD1E
311
BCE4F5CCB62F93909AD11E55799A781A956ED27D3E738F4538CB04ADABC7DAEF20BC35BA6A90BCC1DC61BA05F20D8832FFB9BC9B15E2DB838A0AFBB7E0C82A562127E0446894F427794C3037186F622BF24DE1B00AA10A23BFA47B2A180D6DA5AD6F7326FEB8C100C2D7142EB2A0B2A9D1008A09BA343D70E054AB69E2A7ED
311
B783CBD92537FAF4A44D1296AC2792729104B3276C276C951D0CF3CF3F1E6B017720A7B8505A5FF9589365979678C36F1BAF759EAF57C60F1FF5FE9DCF5F8E764FF25A2D06CF25117A8FED51884C13B2B750DB0E4F5E3D64124FCF11F0AD8F1CC3B3DA4B38ED22BF1CB2585EE6BFEBBA63FBFD44F9537B9B37BDD6B358720F
311
98A8125AED4349CCFEB0E135F19E208A04CA7E2B10711185D72E381F448036EF57C9F874E54A971CA37A639E986AC0226DC5AA00D5B14FEA9192234B3DE617814FC221C92F33F1D392F297731B567FD98FD91D989379AF567A65B8ADF177591DB90FBEA99BF4ED11B16E50A0AB1DBF1156D034BBE04D69D08F939D8E92BF52
311
5A1DDAFF80ECBC95D8F45D3FDD289FD23F7D8B452F8EBB34EC082DEEE68E18EDDF072060FAD2AB1504DD4879BF67099FC58F6E9DEFBF645D16334A3E9A127C6F1AF6132CF287E433B43A0EE93812B4AA0B194E03EE3FF91EF9C6ED0074A2F6EB18A96A7C9890B1FCDA1F2095E944DB911ED54C60DF16FB74C8CE9BDC7C54C4
311
F14078CF73C2FFF1F1BBCCD7CF64F71407EA1683DBC410D226627F66E509060D5C0AFD611DE681D509DB8DD12FB1265B03C6F5C55FF4C30BD94187FF692B4F152982502F193098A789526A038AB529A52BC0DC4FB6285CBAC10A8B8DB75DCD9BDABBB221E27D1F8DA9F5EE5926A1C8AA9BA9BC09239C6A7F12914EA3B59EFF
311
7AAEC3FFCCE56F1C5C2980AD072793527565E774F4631DB178CEEC691B1F367BEA0CF2907E1D6B854D527065979DDEF002D8B2ACEA7CE21AE297737EDE1D45B31233B73FEA35BCFDD0B09721FDBAF6432681F2FD10C3E9EFB246FD6E854B344ACC9D8A0EEF876A7314B49B6A499FC650B099D650DBFEC7638ADFD245E2B783
311
9DA5AC5F7D5623FC0ECEEC8653FC9B2BDD1AD4D00A566FBA7186DD3C9CD26512551637498CADB950FEC71ADB9A5524285DE328B8EC7EC75D2345AEC6A27C42AF6D9B92155315C80DBFCABBB7DA0FAE425C4FB896B15C9BFAC4FE67DF5A23D30C93DA4D8F36FB15D100050DA6062E22AEC5F4DAC4F6FEEF97AE05DE63C6D38F
311
9E068A20BC5E3B6BCD75320C5090924E7F93640A7735B1A43451C2D91EE62C6238B797349E59890AF3A520DF4A87095F3ABEC2E61F0593416CE46CDCBE0E00E2523FCCD04408588B5B6C9DB6459C786CE378770B54F51DA3A5E1DF2A3349BEAAC234A6CF8993B598B3B25B4B113E353A4D750FA7534749430F3EBF2512E7EA
311
3FD43C6AB9A1F765A58463B306721A15D224FAFE8C6F5E3432D57EE697DA0DD5A9D4866A8BCCAAA9DFF1F06047851408FEC060471D0E3EB86BFAF46E4B5E60311DC3E3CEA147C75CF971BE74689507154FF2D2E92F15CDB2B9182B11459FD8ACAC5A85F174BC94A7F4EE4C4F5CAFA7C02E37BF0BC77B7DCD0C047BC316F562
311
A01A441AFA7931CC84A28CB9F4AA367EB515778F29BFE61195FA671F4352E5E46E3A64773F1F76EE5EB36D7BCE9BCEAD837A4D77F8DB8C92AEEF6711920D7C7D0F76B0FD0EB7AB83724CD35BCA7D36DDDF5FBB7FF6F04A91F3E2BB3B8F1A43CD659639507FF6331C5F697BCC782AE57D757A27D97F1AB9E0AEDB43F92F1B2A
311
ACDF5FEC8ADBAF9F814E2027003BA2F9E144B1938A7A04050AE5D953B82C45619165C813A10E76DD6906B3C16438064D14CDA713AEC420034613E1AC7241904A49FBF87409AFB1FCB9B72FE7933A87D8FBEDACECE4EDCF6A4FE9FB94D5DEB74FAB7CFEAE17EE965DF980DCCA2D04134994F9A2E94D2265DA4FE6AA7B7AC15F
311
ACAC2B5ABBCD7DFF542C5314FDAB2E1B9D8B65220B8E2B638BE008E8DCA22678C820C5053664D15E89F2D735B51A84955E81A443545E9FF787BE0FA700A76D136C27DA179A7C6E8939E01BE756E19CB292798063D8B97F44E8A27BCF3A614FEB8BE974A718E86F7EC99B53CA35FA24F61F2B07266684623A3D4CF073E511F3
311
A10A8FDAFAF0078C577F4DF9D339FE7862E5FA47CF4344209E5BF76D783B1B48E152AD281B15FCB934DCDA49CEC5706B1EE8B460F435324A5CAD154725E21AB8044B75A557A79F6C807B9340AA3D92503E866F4274412926C8C504E4D5EF8C0E68DD0B028781A6B4054F11CF18941F101C57CCC796773ABC8DED9CD91FE578
311
8806C05E548895354AEAC96546D55B0E94A59F148D061F42AA398D822CDECA4CDE79E13469BDCC44FDC990F366BA5978C15F97ED80CBFD73B0CD9B8B83A4F6845BDFBFAF034019473FB9A63BD55D3A4A7284757071574029A4D016DCCBE95DD679EF3C4880BF169422F8C89B68A988D2B13793CAED4F74DE7486C72DC94DF4
311
6B8E93D8E02EFCB1FF9B3BA10C8AE7F653DF94F4AF466CDDCEF5776687F7C4C14B63E4EED1719DC2EC482D7DBCC7AE518CDE3D5FF86D39000EC3673C0044E1D308BF05F74D1B5F033A7D1BE7F74BC55BBE3E4A20F920946CA0271EB17BD2B80E5660ACB8A29A79F5E4BBA49D4D945B6EEF4A7EFEAA65E5555BBB57A7E15D2F
311
83C69F30BBB978D2B39F1F26FC097424D39BB33CA3D87ABF64E307938B685BAD44F71556A30B7E712CA4FE600613C3E554B69ADE949A7CFE214DF1FFF05CB82151EC6FC31950239F94CF7AD39DC473F6EA356E5EC2C4EFA04383CEFE985A127484366FBEE3C0EC4FEA363E4F6632AE781392FD45D67B63FB8DF70E82734F43
311
1FD3443172A0E30A83D60982D55FA6A2CF86DBA8382502ACC6CDEF3B907982EED1160E14863FA242F9757347E1544275CCDCF71ECD5F8621CBEA326B8BA884AD7F825781923E66971F04010D574C541D8427A438A37EEF8AF88240EED7362C953F5A81DE2D56109CDE2524EA0F5D2F87308C0C47BD97AD605878AB8589E17C
311
A83930CB5E0DCCD75853D68B1AB136594926DE426C367428E9334AFAFF90ECE221BB5DC9E5BB53D2CDEF954EAA9CD814F0E5725F1965DD458E5F8487683AD86B9D0076BE3EE91EB1CECC5331A67A3F79D8B27587C12EC2A6A70474749F27B4C0BBAFB94B34189E88DC18964BE4121B9137FD516C7755356E50D6714E31ACD2
311
22621EBBCD1CFF81D87479056A9DA0E0B8EA19D24CF937DA89F78E8650CCBDC110AAB6C4E46DCBFD0446BA9E2060E81F314AC2031E88135E5476AC0160EF5C0DD2EEF1B8B5CB2D198BE9A554A9093B5F7D7E4B5407DDFCA1D9C152FD97F55BFFFDFE802954DFEC8995B983E28AC92F1971E28F531DC407A1280EB125F64A72
311
E617EFB27DFBCEDCDA2D6F2BDADA36873EE46B9BE1782998C63DA7182BC383FB6FD15DA472B175D7E8B4FC88F38D6E07FEAA3FA3CBB8F6B449ECF14D2175E5C5CCA3A42ABF24CA6C9395AF74535F4DDB38CB84F56614B0FD32D7E19CA5CF988DB4449C40E23DF2B16772594554579094450F56F253CD25EA7F77366FB1CFE7
311
9696C428BB64D5A41E986189427E5E4D7E2DAE3D5BB4972B3DC44EAABDDDD63A2264ECFA5C786EB0EE1FDC5BE34FA0F08376869FD1E61EA06CAE15191135445EE8F0394161C3266A596AA035572BB0C8876180D8B9C77D307DF9DCDF7365ABDA6F3A2366436457A4DFC1F259666569A9E4A79C817BDD5610E5200FCE894A35
311
8EC72858D50EF67545DA81C6FACE3D457BAF70367E1E6BDD9A952FB4F56247F58F523B97E640246051A72F79BE42FFA0B3187F63097F91C48B868586F714B0EBD5A00A8412C1236E1298F60C72BE6C96B82B404CADAA304AE9F303176B14BA53FBC2D5E86377E35542019E24D97B96A49B2C0E5006E7795954DEAF5DA58958
311
839043C6C70BD3B1B33B6DC5C31316D8A6923F142E26F6711A2258AF977DDF1F970ECC4F1F2B434B96D81BEB6E89BF3BBB3C7C8CC80505070723D6D7D7D3C8CA27CA164A26024FED94B12A86031867241DA53D929636DA600F050BC40CE48B8BA03D69224720DEE2ED2127390BDF5E6EA64527BBD4C4C63FA76BB801FEEC0E
311
61218EC98A8A86CD8313781617877E66692839B9468CF4DB8E50A73986E558E309C0D6F676F921BE02F1185454DC75B111572FF9D27D85EA14C05AD7271225B391C4275659CA4A43759D0BA44639BE4C30A84DB7F67A41399FB95CBF923B1B1672ABC807C1590557FB18D811983FA97F5E609516D62281D38B1281F68FC755
311
28C35E4CD7DF0F7DBB5E5DD69C414EBEA2F4A5B241B996BA77AE6C772E367408C633EA3E438B68563EA8BE7667F3A4C4FDEEA52ABD78A2820F443B7914A15F180018D231E64519C56A12F6CA7C8DAE18F06F6B769DBF92329EF6A5D18FBCE600F36BD8E8198DE5CDAA96181F3A756EBA5501CEE58F497EA4F418A2B82565B9
311
BCC611713C0B708CCA1F398B78C5F7D03B3437CC18F13061F55C7BEDADD5ACB1DB0E36D3CE47FF6EA1A563A57E9649EA5D14D1A50EAA457463381C073777EF1600607BAF6428A7DDC079D47A204EF1E1F1F0589FB054D45E02CE623B3823C317C601E589E22B1E88B448524B86A82828E32345EC18AE17214B42F8C41C6D42
311
8016D9BA31DDCB47572561E5A402E5BA4FCE55F78AF7268524AA04130F3A20BA5D1E9F9948EA48FC8F5314FDB35E21898198060034ACE5E3E2BBCA34092518F275190AF65F45867FF0900AA4B81F25427414C372BF51DC29AA855C5428EE1EEDD6B849AD60F6E73475C2D2523F8A2772C840A478DED18A8C5C91B085F255DC
311
4F54EA7AA8947354FD17ECF8FB3B4A0DE7B483CAF3A1165EE05BBA413E5C1FEF3DE1D6B8F2F3F3251C17D9FCAB48A9AAF63AC773A0E413BBC46A9ADF84A566FC920E4D8C52C9769EE3301CADEEEDD92B312E02E2A7E35B7F1E7D203FE5A7D75578B06E99D0E46FFADB8FDA17ED8880390DA29094202D6F645F76F6F96409CD
311
A05495A96E84B04A00D1A6C6C81D7F3DE9376E828CCF144EE50E364ACCE7237EA0BFB5607ED1AC3CFE73794E5B61739D14DF1743441B1AC98F00ECEDE9E7301FA29755FBEFA68C91EF2B314CF510537EF1ABFC9A762496280B546F5EDAAF8A5B387D469FC9A878A92828C88608453ACEC6094DCA54111E7AD5B2663DFE2DD1
311
51B7F123B9F4FEF8EE36AB125FD7AD52A59B1B765B3E3F73E3F73DEA93875004D2AFFE3CDE9493B87A9904DD052028949041A91DC0E1BA47BA714343FD5B25E0A6A09503AFC17C790058A836A324FE31D7893512E28230332F153181C1E018E1124EBE1BA262AA428A518237D1EA7275E48C5C561BD19ED6912EDD8367DA0F
311
31E40EEAE9683DA9257525AEA7B632B97119E17145A90231768A4F3B9120FF32E8319B015E3CBE26F1A754177D8185345817C096B0CE443A955D13AC15E1FB5DEEA0239EC32A3C92241A237B0B02FFCB4F93CF2B02570C8D192E2F2A68CEEB42F12E6F8CEEFF46C251E22B4341C56FB08CCE550E7A9D6F4D6564B9EA52A83D
311
5BF2C6E03FA19D2775E15A8A7ACF30A13C259EE7F5EF2AC3BA354F1500E1A07FC63FB4686E2F12EC69719F9ECF5FE3F35598DF2CE944008CE78F0911BA5BE5D0A34E0098FF038669C26030BA9B300303039852A8F6F496341737CA7E0D2E3AAA36DE0A70AA7D9CA0D54D9AD84B18A44C9E625475E1C97B93BEBB38DCE7D227
311
E67A2D00F531436136355F243D1FC0D712C5765754FA22FCFFAE97919161F46D6E61ACB37D83777B385889770B50765B127768443A5C4D3A4E35A3151111F146B7CA116F918A049F1C272F2CD7976C69A0068773451659A97E0F4A08FE604C3FF6CE7385DB19F4D3ABC8A0D80DA8A42096AC377DB49382B36E270B6FA75701
311
88B4B7D1DDDDA82ACA487CCA5D38BD3BD039ADBAFA4ACFF27809239B722081E2EB9F145320553D183F28471C388BC8814E5045676767AB58A8E72D1CED2CA731379515D2E533E4CF0B39DFC625F97AC4836831A4DE330E87A8126FA17EBE583D614E71E22A8DBF2825599743E0640037303E8E1B1E8EA4E1ABFA4F62907B5E
311
4E0E5DCFDAB417C36C6848A2B8D15F1E505434C0707E16B1CFC2A1C36A42BBF55734F8F4301DDC2A5110CEE8C0747F69519265012A2174BF4E955ECD4FDE095A3ABC70536B7AD0B9D7892F81287D667C108703C9B66A221E9A0929D030008F77FF6F5D2108EF5706FC87A3069B976F7C9FC3239D13D283CDEA83597461079F
311
EEE049B0F392889898B7D87D31F8D60ED7B56B91823A8E4EDDB36C6172ECEE42BD42B12CD67994FA0F0DFAE9389356F4CD4425A4B8AA55CBF7ECD585C6A2C2316791E43D5C06841ADBB226A87FD61515FFBB0167B74E56BD7F3E90A57A97FEDCBDF483A0D6699A8C0849CAEB4947FAA90D8E332D9DEBD9F4738C37DA0CAF9C
311
F3DAA68BCB67C420459C7A64498D6E848E5CADE92BB6901F607AA331104A67F7CD650EE169B1DAE94D2C31C2F993632259B6957E246EFE4C5481107B07118607700040E5812A2A2A38DA0076875258C753F60E0F2662C748EDD5F3F3686B8FC3BD6FE631ECCAA1E8B1C1E565AD117E54893E79F4672E32F9E46B2A183DFDCF
311
3EECB4D4D077DBEA0DA254D256045109670050129E9B9B1A9E4A11344D61497A992778095151510C4BB7EF2009B63AA4360635312E4CF668B7E0D3D85A8688E2BD83B569439892ADB63461930D428E0DE42E4AC57CE48DA5CC1449530D8BD3D6A0F08DF20C8E8F570F2CFFFCEA286E30969B4654D498A58D9DA782E19FE3F0
311
02181838925592C4A1EF0B332D88B61A92C644547BED490D3A42CFFAB70E36D961F694F6307F72FF15A1C79D5B1B5CEFD353D9E2B52566DEC8F8F09CB3E8359C0F68EBBB7898243E34E12A015B2685AB303C04D3A9E00671FF3DFF0A184E4A2ABEB2B666AF5B3A209C73D8EF29DCDB069C9F391EEE9DD0F74C7BCDE16F8F02
311
E3B8816122BBEB50665775B600549D8BB33A54A6BF940C028118BC6878C79958D6784F9DEAA6E26748386FFAF8D0D0101E2847B6563F5D8DC1D78F787BE00E2C941AE12148D4A81599FE8F68D4DA5CDED75530ADE138240300EE13B0FC13A1687FED6774662C05A2B7DFB186732F0D7A93545D8B0A6390AE5054D9CB582DA8
311
46D7A061B3358B45E2B52DDE63E114397EDB7E09233A579155D795BE76102CF277F4DF8B188C4F2879BEAE3C08347124BF9ED23B128259FE107D31E34A652F090B30B39E0D9AF917B76A2806135621A8A60681F16AF216514BBD02711585B5B1AE823F4B2D0369EA5B6BCB863072727FFC871CA6C9AB79A814D989057E9470
311
A3D238BC87CBB4A0EA49AFE2B86F22E499793CAA9047080450166BDC357524561E258C77CB697F1ABB32562CF87C3B7AA12F911EF19FB3E5C02222E887D08202A60A17151F5E053A86B437771088B4FEE14D652C43E8D939995D34545E12E2FF93D4E366EAD25F10CB7DED141563C3D0C447AF06078A91135FD4B9611583CB
311
4BF3BD167F2399CEAB0E0100F8FFC305F00F1711717173138B4B48C83022295DE657EFEDD97F238ECA80F528AFB4F8D67AD4E2594B9A3AA86D7487EFC313BA95745C186F0CDD84CC12DC9CB0424B42203D351FD9C0A3AF10CC7F388E0329279087386421F194F4A29464C1DEF7EF8BE515E4A199DCD5B909342598D8FE6A23
311
1F71336248D5CEC5454455C7BE383B3BC7B260FED27F703FDC39A170F3827239102F59D4DEE7FEF82EAA1A5E4BA94DCC4CC44E7E2EDE20F24244E4454369D2E87C3F823F193FD4FD27E1C23984B01898D15ABC20711A8A558054951A6AE280096BA36CBA439603B7B0B4C45F248C14B2383B4B5CD8ECECE4FF859AD4A6CA23
311
26D020EF090F4041D28DB66E5256B56232CC52829DE8060BAE6BBF37D4B7469B822454FE93210A3E8D15E69FFCF01123222611C51C4FD0A041A0CFA2471CF6BE38D2B20FA4C3525B5B8B586759475CF80ADFE67A284AC24651E52B8E683D24C2622642F27E7C3C22783BCF63648BC398BD6CD0D9C97E7E7E3EACB6126DB7A6
311
C1FD9F1031302EE67ED96F22B77C7CA0239BB324207559B105E4693EB26EC46182A92C9C0DBD24F29B31C5C5AC1F84300E0E17CEEAC15F5736FA4A98971E2F1423BFCD68D4BBD5F86E74B40A369F39507C88FCDB35D2DD8DEBEA4AF999E23CF2816D204200DF6E611781B9884C1AC8888B4DE397320472959434323A5A36B2
311
2A8E1F721A270DF3BD65E4A31C11FF048AFB0D8B7B6881423793963A23CFCE935FC189ED36FAE35C46DA3574C979E4394BE52084F3081837BE033396D2EBD80F1F691B273F660D2B32FA27A33B1DE4ADA5F0FA4651511102DFA410DDA86E065272CA314D5249DF91B06BB92807B28EFD54F08F7B525252782CD276DD02E6B0
311
319B13DF87B1F6361AD6B28FC0D711CF445429B9E5A433CD493051C49A9E03DDB1B147D880253514A5DED88009018620EE229101C041950E2D8AA8E1F5F5438E0C0C0C60EEDEE9E3E0C051948C69F84BB7B2A48A1F3C8EB9E6864687F4F4F6F6E2FA87608ADAF9C5E117B7C1A737E710769DA1D15ECE6A84502AA855398712
311
D5FB51BE92E4EF824969CE18278798AC303C2C7980DD2500ADF8FB1E6D6C2FAAFF9987178923334A244758BAA01A9A1B70FA5097D01E1CC2A58DAD0EC94CE6430AA9B0C10D75E3C6BAC670EFBADEE1607739CE0FC18A2587E3EC3058562014C64219C69BC269082D5C2F4A659278D585755912176D78A1B641719C2A394CED
311
495A1AC5D583FD2F5EDD93308EA7EAE8A6DD396598BDBD3D4CFED62D18A5BDFDE0DD5C80D1A89BA62697B131AE7CE9A6594138582F1B37D68F1749AC7CB67A70695D48A4A056AC1FBD4E82358CEAE38F54B95A9016F9000F9879C0D9D131768635CA798895F27D6F1614F11F2838A83611AA51C9A3DDB539D42979C29F1046
311
5655C17BEC3E2760B80DCBF609198C7B171A531905F3EC218D696025975E986C6B4C666666787271F202805577DD5A3EF0CAFAF91B62DC4B2DB4217A7606282F31D8DDBC290593BAA93EA6353AFA9939B877978481E15CFC9F2755CDC00C538F63A4BA3E80AE009B73CA0185687D339A507D165B74290D6EE46D5C58148F02
311
0C3668ABE9EF2F7549170DC80DB41FFC1D678FF19AEB10C7133832B104B80F691B3138F97A92D26E551F1F110400D45AC71A9B9AC41A1A1B1DAEED0B0810638EFFB511D46B121C6FEA0F38CD00E03CFFEB9713FE1F9C263E4DDEC160D0497FA9A132BA608584057FB15380825DE6C7FC3C667EE947D488A09898D8E939C495
311
3BF4EC9836344D2CC6B2971B2A21A572B06096F4982D2CC7232D46E8EA69DC83722E267754D777F97F96D5DA74E1E75178084D0E70F12AD33E5F71EF2AFA599B2BEBF60A5BE475F444F240CBFE8143C334E7ED9150FEEFEF7EB020C4DBED388DD1D6A167A76F3CBF119B578AE8CFA7736ACAFA4440A1C47185638A0D2F3EB5
311
BDDEFDA958FB13CE4AA4923D5BF840392D45544329525749734866684BF7F8D9D54D892E19BCA9F829A0F8BFCBEEA6CFDFC61D74EA1A645ED7A1FF241739F15694BD835B66FEC5677E40FE69BD3F91AE402F036537218A401CB0828604AD189E575015C6F3F6BBC8AC79CF6C70653847254B31551EFCBEB5978B9DB85D58D0
311
FA41A9DFE9C624834AA04949D24B5AE6D299E072D152D12097920F14AA92C31C3B97E28B6C2E6E9C23D63043ECBBC0A60FDF5BD0C33C127EA8A3308B8B6AFFEB28B4455BF6E7AF4FC6222728357EB8E46E85053E6A8843AB23295BF838ABDA94658FEF3F832F147046B4ACD6F7D48E8FCC9618582961C898D1C7A253C91BFE
311
CBDA6BA18A1FCF70755DCCEE2222F41B76D23CA98D0CB3D95F0CF66D57FFF65E2A90F5DF40FC3187621E981BD0BC1D992787212688976B94A8F0C6EF646624B570B78E068826F87CE27041A95C9A4871FF65CC17FCB1639629AD6A9517000D63AC231F3D741CB8430777E7ECF80CE7A3F73C0F162F7E56AA71F4DA80A33CD6
311
ACEE78E2C11FAC03DAFCE929B106F8F6B3ED2DC71FF994BD9CEF4E9A94896EF1B6E2B7B4978168BCF0847A3D2A4F1B0500B926E634B174548E9FBAD27153FB5FC36799B1E6C7C38A94E1F9E996796D7B485E635D5287A2AE76FBD11A341DB3F8F810385BB7296391973DC6C37C452A9305AEBBE0CDB6C566DB59FE60C8E94B
311
1FD090354BF51439FFD1B48D725228FFA88C84F686F547107A7A235665A4593B7C34D748C1AC8D56DD5DA861EEFBADDECBBD65117E65851F90351AEB65F0EFCFF4BCFEF24CB7A5879699FAC437A7AF9099186CF006BB923A59E37D7A36A29FD8D2CBB914A5E9D0A8FD212FBF796AE9A67958FF1D5D8B85F78F96219D4714EB
311
919929241B6C018AAE0C02069F8D919961EC5DDFBFB7573E3AC8E08BFB7C8534BE6DE045B3CD63DBD71F7638BA2309CAE398EA3A7D8F98BBBC7AEB367EFA5CFA27A9F8F2F52FE878058E6209C026453F8E7E8A237DFC389E9590F6059B397CFD65183BBF936E86896612A5B5FEE49DAC8455D026218AFEBEC12B3523A45B57
311
B82C9C97E02ACFA1184DB18E48CF615DBF39C3CC6F0B4AE6BBEEA2E39D944E290302FA3DE33FA7E40296E2EF7BF1CD855BBECFAD0FD622BEE9746FC4FDFDE545AE6E3BC234CADF83A0FB76DFB145BF3828AE3436368AC24989454F8FF70A177672C711CAA1A76107218CF948CA01F873520E7A2B118EBB161ABAD432932029
311
628B6761590C98AB590C8C8C79798CE9F715BA696E839E9131A4BB68BE923F1747FBFF165331FFDD4D05997ACD168F12CA75348DAC04C7F509FE83898A8B421181AF492861CE81E4A2DD0A30850CFA95E05F097FF70F9E777310D584A75BA7018922E271DAB1D785671157685B7D383D3E074DDB4F1E44EF04B07BAAC75A06
311
2077C54B9752C738C9D804D402E02851F3F89605AF189738C18C021D2139EAF72513824E10DDD3047BACC8521ED7E98B257D1166903B1B08FA6F918FD7E162913FEC7D0EF4787E29C35FBA8C6E2C9C20E9AB30AE42CA2A01A090E7D010C1B5BF9CEE2A304BF3A987FB40D836979B79E18D70F257DA61E808472DD85B827618
311
25779D6B90CAEB0F23360C6F80A7D7D77545E95B3DFF0CF96A827F9B5BCECD2C9698718417EF80FEEDEE938AFF55859D0D540B7FE09435583A6F04874A0C7E8CF234DF4879722000167F5872CEC6BF3EF7E5A8CC8121E6A359227C8A29C95212F9F735BC72A887D56B8F309FC525BFB4FD767AAEC4AEFF249CFBBD2DE1AB99
311
69A6155C7D8DABC307E47324C1F916C7BCFF40ABA5644E9FFB9238D19ADADA49D9610F01ABBA57E4DFCBDCCBB2B93C8953206C91DE01B0E2651A6D6C31721915B31F7B7CBCE55466F6D70402788FA91D73BE4ADCBA99A35F17D6B83383704917D6833F0FA3CD45C926ADB8BC17999A4A0AFBCE2541F7B8CF4C2F5FBA611B3E
311
626D64407CB32C122DFF4EF8674D6EDBB86C8F7C6A16D50FA685E2CCA34F8F7D1D8265BB0042E9D7F1F666F7BE5FAA5184DF58E12122A42EF02F461B3F369AC746F96528AD208512AB56844CF75B97F352DF7995024FB02855385854F3798670D01CAC771AC3E1889EC25F61A20C1F8CAB46898817F9C47E2CDA1F286BF2F3
311
58298709FE567C91133E2638C8B53975E753EA8BFD3578B5F7186B7BF084EBA3F77BAC3132A5779902EC22AF2D2E79F42D324E083386DAEE9810D1B44A5DAA54513C7A71E52A4AB9257D975B621308FE4D2141CC3DCFE946C154A3C1DFCCA7629EC69ACFA831634ADDA93C0388D2A9A2DDAFCF957C6995BCE7FBB6DC4EBAE7
311
9E63EB08E9A25F52F67076F7093CA545CA3053B5BF576DEAD4E0017143C5F759F32B2D6F145B52B67B48909B7C7FCA6586EE385A2189C16932CB6DDFD9152AE317C430492A578ED27B72D85D40C7C93C097939E1B50F4D67F05334FE9DC362C30B7FF561B95259138ECFD9274C8D695C31B14D4EAA9F3D7FA8DDF652F8C5DE
311
FA23284C799B7D94416DEE81E05A866302DC70192A5368EA65E1CED8BF107A1E2D3119A71E85DC1A7B0C1E93274CE04DD0F2ABC8AC7C987FDB002B6F81757B43502EF7A0D92E416494FAEEA4C9C090CD9557AA4D532F4996A272B94355C5A0E4974EEA9627476F30809B94D8D8D860062E02204643BEC7D0438AF800FC7E2B
311
26955D595421E83C69E1A07E0E3122285835F014AD538188CF9737CE76D464A353FA55A001AB2526B84E985083693BC76FE211CA1D000679C889E3C009832C87E1AC2EDD05C302557422DF0800E316FCAC86978A371F025A6C7DAA9F333E7BD160403A1A06EA75AA9888FF01504B0304140006080800238A765728BB58AF80
311
0100009E0500003D00000046323337443939392D324433392D343438442D423932392D4231303141414239443043332F536368656D61732F436F6D6D6F6E536368656D612E786D6CBD544D4FC23018BEFB2B96DE15493C78601010A34B880709DEDFB52FD0D8B54BD70DF6EFED3AC0B12E6442E2716BFB3CEFF3D18E26FB44
311
0405EA8C2B1992E1C323095052C5B8DC842437EBFB673219DF8DA659866649B798C078B48AE6410122242F2A4994AC7F93815DF85C049C8564CA0A901499DD886B2EB9B1E02448F358701A9235880C49A0119892A20C89D1B9FD768815CAD268CB5E0355B40B1E47F3E37A2020464BED06AA57CE8FCC20C3C3446D46761A26
311
32A8C1283D07031EFF2AE7CCB1BFEEE916E406DFAC8E36FFD99A9D60A6944090EEDC3B670C7DC13DE86B6B2C5C240D6E503BB85ACD579D513F1B9F9A69DC9CC22AFA80C426D40AF0B21EA168559156B6276F0F726A6BFF04DCD513A87A62CAD41FB24FCB2858B3952E3D852084DA25B9303C15687973CC8E8AAE11DF2836C3
311
8C6A9E765E8C1BA1BFB1DC29CDFE518C8B5A7655A4ED7E77291ABEB80DBD82EC866ADE1B8D05AF9E35CF09D7A061F38A986D9EC412B8F0F65E5D81534D9B231D1E5A8FE577A241F3A5FD01504B0304140006080800238A76572CCEBD668A040000E01200003E00000046323337443939392D324433392D343438442D423932
311
392D4231303141414239443043332F536368656D61732F47656E65726963536368656D612E786D6CD5586D6FDB380CFE7EBF42F0F7A649B70E1B90744856B4970F450FCD7A5F05459613EDE4174872DADCAF3F522F8ED3B88D2F1D06AC4050DBA2493EE4438AF2F8EB73AEC8466823CB62928C06C384888297A92C5693A4B6
311
D9D9E7E4EBD51FE3A931C22EF85AE4EC6AFC38BF261BA626C9AD288496DC3F4FCEAFC63366845F7A10452AF41DB320C0D44EC26EAB20918735565582695670811A6A49643A49A6E9069FA4604A64B29016DC4B48552F95E4932463CA888468C1D2B250DB4962750DF7CE273069CE8363F1FF4EDB00E0A21999574AE4A2B00C
311
353B93F3BD4777B8A61ED8F604ABFEDD79CE56A2B7BDFBDBC50996E0ADDE16FED26223C5D30956C29BDF4A55EA686E5E58B112DA45CE67F76F4FA27EFA3FB672FD7372FC388FAECDCA5209E693CAD167BADCD272F943701B3812F8A3D852008B1D2E32DB927B2F833C6EA95879925356D254582695095A3CE982924720BE57
311
74A3CB9CDCDB350427D2DF20DA1B5532EBE2D5D6288D75D4F7E4FD9890A0EF8E3D93EBB8F8BA4758158EF6FB90A6F9520281C93DE7AAC6D24607DA296BB96018123F821A7D6A5C5884050C475DA4865442732C8B95684A50165CBB3A32F25F783A4A480ED59AD7F924B968AEA50131F46303223E6A397B0E52976030DC1DCA
311
81D7E7C1EDEEA42C19FF27635C505E2BD5198A599020DF50A2330FCB3AAF28CB0124108429553EF1B228802E2265D8F7CC2401042B155BCC7070F1E5C55F13B4A9577362CCCE46C32174E010C3C378C44841A4BDA00FE3A12006CE11EE6AEC59894D3526DDE1CD59D503ECC324017F8061B7F162162FA62EDD81AE33086177
311
70796DCBDAD2B2625C5AE8A63DE20B2C8AA5E95E76E5730823955956E33E705425A2187C185D36489A1B44D3DCEC2172F6BA2105C3546287A7194B2331768EBBE64F6E70A9930ABE0ADEA89E9E2C38523B810287AD67A54A039C1606EAFE68F8304610BB9093DBDDABC0B2AE4E290DCDA15376D7E39F72B556F0B32EAB5D3D
311
498B4C41ABADEC3A1434C422D87E8025A84BDCB2B1417ED750FAE4DA8976863974C577C7F902D3F156AD354DEA3540DE6BEAE2BEA52F7A2EB4CA43802ECE5BF2CE2EDC9347179FFB023CE412E60BE16DA0BE29B374988A553F561DC04615DD35F7D2C8979F60E5955CE93DF29DED8AFA1EE6642D53418086C03C47C377910F
311
75F7E8F5EF665F70B60FFB22AEDF897D119E8423C773E819A3C1E55E550599EE6EDCA34D0C86FD72057DF2CD46F16A470682471C164E4346D5306BF12D7D12D82CFF673D41636C347443FEB51B50D72EA171A8E4A58623A4A16E0FA2B8B10A0D23268D87C33896EE8FB73305A74BF224EDBADFA0BD674AB354D63DB7BD5D83
311
426761C077DE767728235446A552754EB93B755891C3C4CC6CADE37CF0E912A7BB38DBA010F9DE1282EDF470CA69A9CDA482E334C4A6EA4107987980B17E72F31730EBF88BBD39E7C629F56797A3C0009C2C5AE7951D9A05A02773440F02EEB4DE396A3B6A570C72CCFBCD823B0B8ED3F1D5CEDDFED772FA70236C83FB7D86
311
C385D570B87107535572A60A96035F8F7C6A7192F13007246BBE0521855E6AC46F3E27689CEE7D186A6FD679D98CDCAD13333E04EBE7ED6F55FF01504B0304140006080800238A76576180134D5F0100006B0300004500000046323337443939392D324433392D343438442D423932392D4231303141414239443043332F53
311
6368656D61732F52656E6465724D6174657269616C536368656D612E786D6CA5934D6FC2300C86EFFB1551EEE343DBA41D1A103009551ADAD40EAE28A4A68D9426284961FCFBE5A340113B2071746D3F765EBF4DC6BFB5407BD0862B49F0B037C0082453059725C18DDD3EBFE3F1E829991803366715D474942CD30FB4A782
311
E00C64017A412D684E454CE3FE28995203B162A6EA5AC94B66997D225E109CD63B0135484BAD1B3C07E9080CA35DB3119C11BCA5C200461A68A1A438126C75E3E230D40FF81FB3F03C91D1E3A3A0AF79FE28E25BC39EC3E17E4C2A2D94A0833A51AF55BCCA7D88572FCBAC529C4140B020FC3AAFA886621DCED7EAD7664CC8
311
6024E806DC297DA1BB393E4156543457A4537DB8817349A70F8ACBF09B3EEE2CB2F33E91B65D60786E4E3B39B77E3FEEEF5650424525DA657FB8B46BE6BF064646F0A0F7327C0BC1BC1B4CBBC1C419FA3CCB23500007872A2580CAAE5461865565294E4EDB4617B62FF579DF9A5B2F54E834076A597573A020912FED777F9B
311
3F504B0304140006080800238A765762157D0251000000570000004700000046323337443939392D324433392D343438442D423932392D4231303141414239443043332F4173736574446174612F41737365745461626C654F66436F6E74656E74732E62696E53616060B030343531777574D135333073D6353174B1D07572
311
3235D5753433B070353674313137731302AACB4D2C492DCA4CCC492C28484D2C4ACC4B4E050A82012F90744FCD03CA26072767A4E6260200504B0304140006080800238A7657F865834058000000680000004500000046323337443939392D324433392D343438442D423932392D4231303141414239443043332F41737365
311
74446174612F53747265616D56657273696F6E5461626C652E696E66558CBD0A80300C06F73E4B117FB66E451741D041DC5BF98480A492E4FDD18EAEC7DD4555D89EF28DF51A0B1BD8340C4DE7DD848B988C0ACF0649566493F2408C508DDEBB99D5129FF8F1AF8CF5B9503E20FAE5A16B5AF702504B030414000608080023
311
8A765786DCC0FF330100009A0400003600000046323337443939392D324433392D343438442D423932392D4231303141414239443043332F4173736574446174612F636E782E786D6CCD54B14EC33010FD95C87BEC240C45C8718560E904121503DBC5B914AB8E1DD917047F8FDD6600153165A8E4E9F9DDDDF393DFC9EDE7
311
688B0F0CD178D7B29A57AC40A77D6FDCA165330DE52D2BB64A06EFE9078D150E466C5986999287E0E769817A1C60B619B5C61D17F03E46A43D74169F8607EF081D4556680B31B62CEA771C81C34CBEC778E43D10F09A078C7E0E1A532732232E9D744020EC996AAAE6A6ACEBB269F6F5E62E9D6AF32645662AD9796F17BE49
311
C3829F0A7D9ECA542545BE56720E66E1E4B730F59746DE192745622A1929244F960AFA9A52054C93351A285927BC26A43291104629CE642545F6E097138F38186772C92E0903F2E139C9C34006AFCE91FFB4AEEFCCCE4502A7F17AFDB854B8BE0B2FA71FF47A0EE42931D796934B85DCB861859488D31A49A1C95B457D0350
311
4B0304140006080800238A7657FCC73167E30000005E0100006700000046323337443939392D324433392D343438442D423932392D4231303141414239443043332F5265736F75726365732F38313534374541442D363036432D343144382D424235352D4136303845333144343736462F7468756D626E61696C2F302F636E
311
782E786D6C4D90416EC4200C45AF82D8079274315545984B74D54DE5124F8A866004A66A6F5F68598C64C9D6F793E5FFCDF5FB0CE20B73F11437B9A8590A8C8E761F8F4D56BE4DCF525CADC944FC804911E1C44D76595A7364AA69483BDEA086AE061FEF433C3062F6EE3DC5430A17A0944D16F7892728A84C3B96BBDA8141
311
2D2A63A19A1DB603EC4F1C075C4660DCA55DE7F5695A96695D5F97CB4BABF9F2667427ADF9200A83F7913153128EDA10DB37B3D17D6D4DCD7E30DD82B40FAF19DD96D614CECDFD80F8273508520ADE01B7903439469E1A84701AFD0F5BA3BBDBD6FEA268BD27637F01504B0304140006080800238A7657A233C2345D000000
311
800000006500000046323337443939392D324433392D343438442D423932392D4231303141414239443043332F5265736F75726365732F38313534374541442D363036432D343144382D424235352D4136303845333144343736462F7468756D626E61696C2F636E782E786D6C4D8B490E80201004BF42E6EE76F3C0F21623
311
4B883063108CCF170C074F95AE5473F5C4C06E932E4F28601967600677D21E9D8092EDB002539227A2FCCB80E1168D80A6417297A89C5D6963B7129A0D1E8F2EE73AA7B62BBEB8B27DE50B504B0304140006080800238A7657BE89762363000000880000005B00000046323337443939392D324433392D343438442D423932
311
392D4231303141414239443043332F5265736F75726365732F38313534374541442D363036432D343144382D424235352D4136303845333144343736462F636E782E786D6C4DCC3B0E80201004D0AB90EDFD75167CCE820A4A845D83603CBE602CAC26799919AEEEE0D965E2E908050C6D0FCCE04C8BC355404EB6198129C9
311
2351FAD580A10E464065907C8D948F8F166375F655BDC3FDC3B4E530A176BE7057BDC43B2A593FE403504B0304140006080800238A765709D03FBD7E000000A30000003600000046323337443939392D324433392D343438442D423932392D4231303141414239443043332F5265736F75726365732F636E782E786D6C4D8C
311
410EC2201405AF42FE1E85089405A569A5DEA3B1B4215230588CC7174C17AE5E327933AAFB6C1EBD6D7AB9185AA02702C8867B9C5D585BC8FB8225A04EAB14E3FE770314A6CDB6503168B5A6989F079AED32655FA977E1714049396BC6DE6041C415336A241E06CE712F881C2FD4B046DC8A71AE4A995FAF6CCDEB2F504B03
311
04140006080800238A765780FCB024070100004F0300003400000046323337443939392D324433392D343438442D423932392D4231303141414239443043332F536368656D61732F636E782E786D6CCD933F4F042110C5BF0AA15FD85D8B3386E50A0B2B1BB5B243983BC901B3E18FD16F2FAC1477899D169750C0E397C9BC
311
C720F69FDE910F88C96258E8C4464A206834361C175AF261B8A5642F4544CC6718254179586893A914C78865ED9281832AAEA9CE865317EFD17B0CCFFA1DBCA2443B95D242D37664AA6434904ECCA8ACD8C422242C5143AD90AD875E414750190C95F338DF0CD334CCF3CBB4BBAB6BDCBD0ADE4829DE105DE76DC81071251A
311
EB26D47646C1DBB51425DACE340F549EF7C66A1A8257428A9463CDA093F96BADA45A5767B5CA352ABE813F8C14BC59BD30FC0001A2D5D7E9F8A2B97FB3FC04C1407CACAF14AD72D7E9FCB71EFF1600DF66BF8E40FB0AF21B504B0304140006080800238A7657E3603EBE7A000000C20000002C00000046323337443939392D
311
324433392D343438442D423932392D4231303141414239443043332F636E782E786D6C6DCD410EC2201085E1AB90D9DBEACE05D09878023D01A1D34A8419C380F1F82DA68B9AB8FDFEC93C3D7C52546FCC12980C9CBA232824CF63A0D9402DD3E10C6AB03A3397DD192872090D3406ABE7CCF5B5D18893ABB1690CF4DCF022
311
82E5EA8A5BB96FFE536F285CB347F95BEFFE81C9ED5AFF9D5B1FB575BB00504B0304140006080800238A765776A6B8227E000000A300000007000000636E782E786D6C4D8CCB0AC32014057F45EEDED647A0B9100DB1D2FF088D0952A3C526A59F5F2D5974756038335DFF590379BBFCF2292AE02706C4C57B9A7C5C14ECDB
311
4C5B20BDEE724ADBDF0D481C57A7A062D0DD92D3FE3CD0E4E6710F95061F1F07BC0979B188488595489BA6B5D4A0406A38E3C360D0B2AB2CC6B92A657EBDB235AFBF504B0304140006080800238A7657CA1DF9C9A900000073010000130000005B436F6E74656E745F54797065735D2E786D6CA590410EC2300C04BF12E5DE
311
BA70400835E500FC800F84E0B411AD13252E2ABF27A55740421CEDDDD9B55CEFA7A117778CC979527255565220197F75D42A39B22DB652EC9BFAFC089844F65252B2630E3B80643A1C742A7D40CA8AF571D09CC7D842D0E6A65B8475556DC07862242E78CE904D7D44ABC79EC569CAEBA537E3521C16DF5CA5A40EA1774673
311
3E0B6615DE7217475F386F18B9481C510F1F021CD9FF027EA0E1F5C4E609504B0304140006080800238A76573DEE336E64000000790000001B0000006175746F6465736B2D64657369676E2D7061636B6167652E786D6C35CBC10E83200C00D05F21DCA56CA76D41FC96062B120735B69A7DBE268BB7777961F8D5AF396893
311
C2ADB70FE7ADA196782C2DF776D7A97B5933C430F15651E5469C55D70F80A4992A3ADC954792C525AE70A1E4D6AD9816CC044FEFDF01FE3FDE907802504B0304140006080800238A7657325506D5F7000000960100003700000046323337443939392D324433392D343438442D423932392D4231303141414239443043332F
311
4173736574446174612F636F72652E786D6C8550CB6EC32010FC156BEFD88644B55361223B76BFA0A7DE10100725068B47D5CF2FC4AED49E2A212D9A9D99DD1D7AFE5A1EC5A7725E5BD3012E6B289411566A337710C315B5509C1975D6865F34280C5F54071906466767E3BA43C29AA04C468D956A07B9F72A40211EE9D381
311
1737B5F092C79018FE5EAE5CDCF9AC4A5C6E3C4663D472976A99DCF4552B07EC855C86898C23EAEBE9848E4333A1D3D0B4A8262DEE5B3236ED1BA65516331AF4F2335D38C58392C0484D0E086344C83B6E5ED3AB9B0F5A6526A33EB874F33E345F07ACCF5B8F3C705A6DDD3FAE7195FFBB466DC281ECAE9BC203CB4B3E1B8C
311
5639A5549E11A69A1365DF504B0304140006080800238A7657D483B4D9F20000008E0100006800000046323337443939392D324433392D343438442D423932392D4231303141414239443043332F5265736F75726365732F38313534374541442D363036432D343144382D424235352D4136303845333144343736462F7468
311
756D626E61696C2F302F636F72652E786D6C8550CB6EC32010FC156BEFD840AADAA930515CBB5FD0536F0888831283C5A3EAE71762576A4F9556DAD53033CB0E3B7D2DF7EA53FB609CED81D4182A6DA553C6CE3DA478411D5427CEBC73F1170D2A2B16DD438181B3D9BBB4EE9074366A5B50EB94DE4111828E50C97B1E7A08
311
F2AA17518B143323DCEA55C89B98754DEA8DC7594A46ED52A3B29BB918ED813FD3D761A2E388CE783AA2A7A19DD071683B846947CE1D1DDBEE8DB0A688398B66F9D92EBD16512BE014D303220451FA4EDA975CB8FD604D617216A2CF37EF4BCB75C0316B36F48F5B5AD5FF6EC9D878A0BBDBA608C0CBE71E0F9C35259DDC1E
311
D1E55E92E4DF504B0304140006080800238A7657529B37D7F9000000960100006600000046323337443939392D324433392D343438442D423932392D4231303141414239443043332F5265736F75726365732F38313534374541442D363036432D343144382D424235352D4136303845333144343736462F7468756D626E61
311
696C2F636F72652E786D6C8550CB6EC32010FC156BEFD88644B55361A2B876BFA0A7DE281007C5068B47D5CF2FC4AED49E2A212D9A9D99DD1D7AFE5AE6E25339AFADE900973514CA082BB5993A88E18A5A28CE8C3A6BC32F1A14862FAA830C03A393B371DD21614D5026A3C64AB583DC7B15A01073FA74E0C54D2DBCE43124
311
86BF972B17773EA912971B8FD118B5DCA55A26377DD5CA017B222FFD4886015DEAF1848E7D33A253DFB4A8262DBEB46468DA574CAB2C6634E8E567BA708A072581919A1C10C6889037DC3CA75737EFB4CA4C467D70E9E67D68BE0E58B8C5E5C3703DD36AEBFE718DABFCDF356A130E6477DD141E585EF2D160B4CA29A5F288
311
30D59C28FB06504B0304140006080800238A76573D6AEDB70D010000B10100005C00000046323337443939392D324433392D343438442D423932392D4231303141414239443043332F5265736F75726365732F38313534374541442D363036432D343144382D424235352D4136303845333144343736462F636F72652E786D
311
6C8550416EC32010FC8AB5776C208EA11526B263E7053DF5866C92A2C41019A8FAFC42E24AEDA9D24ABB1A6676D81187AFE5567CEAD51B675B20258642DBC9CDC65E5A88E18C3814072956E7C22F1A14562DBA850C831497D5C5FB064DCE066D336ADDAC375079AF0314D32D0D2DF8E9432FAA54312486BF9677355DD54597
311
A47CF2A488D1CC9BD4CC699B391BBD826CE8B11FE930A00E8F2FA8EED9885E7AC611A69C749C0E8C9F88A8B2588A60961FF769D52AE81924C57487084194BE11F69A0AB3775165A6143EACE9E6CD345F0792937DCDC66E400D6E8EA82603477DBFDFA3AEC17CDC91A166CD49544FE11FC3789FFF378CC6861DDD0C9F0A0F32
311
FFFFF1204595034CED916EEA396CF90D504B0304140006080800238A7657A6096188F9000000960100003700000046323337443939392D324433392D343438442D423932392D4231303141414239443043332F5265736F75726365732F636F72652E786D6C8550CB4EC33010FC9568EF4E6217911439AE1A123E0071E26639
311
DB60B5B1233F109F8FDD04094E4896D69A9D99DD1D7EFA5A6EC5273AAFADE98096351468949DB4993B88E1425A284E823B6BC32F1A14462ED8418641F0D9D9B8EE90B226A0C9A8B113EEA0F41E0314EA963E1D78F5818B2C650C89E1AFE52AD555CE58D272E3091EA39E76A99E929BBE6874201ED9733FB26120E77A3C9287
311
BE19C9B16F5A52B3969E5B3634ED0BE555160B1EF4F2335D3994012710AC6607422961EC8D364FE9D5CD3BAF3253701F5CBA791F9AAF03F18ADE46A7D0F36AEBFE718DEBF4BF6BD4261CD8EEBA293C88BCE4BD217895534AE51E61AA3951F10D504B0304140006080800238A76571E17EB26F6000000940100003500000046
311
323337443939392D324433392D343438442D423932392D4231303141414239443043332F536368656D61732F636F72652E786D6C8550CB6EC32010FC156BEFD88654B55361A238767FA03DF58680B82831583CA27E7EC176A5F6540969D1ECCCECEED0D3D77C2F1ECA796D4D07B8ACA1504658A9CDD4410C57D4427162D459
311
1B7ED1A0307C561D6418189D9C8DCB0E096B8232193556AA1DE4DEAB0085B8A74F075E7CAA99973C86C4F0B772E1E2C62755E272E3311AA396BB54CBE4A6AF5A3960CFE4D28F6418D0B91E8FE8A96F4674EC9B16D5A4C5E7960C4DFB8A6995C58C063DFF4C174EF1A02430529303C21811F28E9B97F4EAE6835699C9A80F2E
311
DDBC0FCDD7017B5BF7F4B4DA7A7F3CE322FFF78CDA8403D93D37850796575C1B8C5639A354D60053CD79B26F504B0304140006080800238A7657848089AF00010000D70100002D00000046323337443939392D324433392D343438442D423932392D4231303141414239443043332F636F72652E786D6C9591DD4EC4201085
311
5FA5997BDA42D7743194CDD6C627F0CA3B2CB395EC161A7E8C8F2FB535EA9D262490C37706CE8C38BDCFB7E20D7D30CE7640CB1A0AB4A3D3C64E1DA4782147284E5278E7E20F0C0AAB66EC6095418AC9BBB4ECD2E86C44BBAAD669DC4515024628C65B3E7410C6579C55A952CC44B8968B1AAF6AC292961B274534F39775F4
311
A8226A90AC660DA19430F644DBFBBCEAF659542B29453236366C7F0CE717D4855B628E04F24E54DB6DA692D13B6374FEA3B918F4201F59D30E9C73C2868693C3E138909E334E7A5AD3F3B9E743FDD0E422D92C45883E77662FB2F6E0AFF6CDF82B595AF43F936D8E00927E87AAD6364B517DCE20EFEB48E407504B03041400
311
06080800238A76575C3FB68C06010000B201000008000000636F72652E786D6C8D50D16E842010FC15B2EF28704DF51AE47256FB057DEA1B15CE9253300297F6EF0BA74DDAB726244B66667766979F3EE709DDF4EA8DB30DD08200D27670CAD8B181182EB80674127C752EFC9201B272D60D6418041F5717971D1A9C0DDA66
311
D43AA577507AAF03A0614A9F06FCF0A16759C81892C25F8B450E5739EA82169B4EF060E69FD661D5326805821176C09462C65E69F5941EA9DE78999582C768D46E6554723717A357108FECB9ED59D7E133E98FF8A1AD7A7C6CAB1A1356D373CDBAAA7EA1BCCCCD82FBB0A69DF7212967405EDEB22F2F374AF077E7A65D9042
311
29E4ECF40582F032137F42C745FD23B4B1E1C0F6815B87079103DD89649C2F98CAFDBCA9E66B8B6F504B01021400140006080800238A7657667AA934D4000000200100004F000000000000000000000000000000000046323337443939392D324433392D343438442D423932392D4231303141414239443043332F41737365
311
74446174612F446566696E6974696F6E4974657261746F7250726F706572746965732E62696E504B01021400140006080800238A7657E0602CDDEC0000003002000045000000000000000000000000004101000046323337443939392D324433392D343438442D423932392D4231303141414239443043332F417373657444
311
6174612F496E7374616E636550726F706572746965732E62696E504B01021400140006080800238A765788E57597CD3F0000904100006B000000000000000000000000009002000046323337443939392D324433392D343438442D423932392D4231303141414239443043332F5265736F75726365732F3831353437454144
311
2D363036432D343144382D424235352D4136303845333144343736462F7468756D626E61696C2F302F67656E657269635F706E67504B01021400140006080800238A765728BB58AF800100009E0500003D00000000000000000000000000E642000046323337443939392D324433392D343438442D423932392D4231303141
311
414239443043332F536368656D61732F436F6D6D6F6E536368656D612E786D6C504B01021400140006080800238A76572CCEBD668A040000E01200003E00000000000000000000000000C144000046323337443939392D324433392D343438442D423932392D4231303141414239443043332F536368656D61732F47656E65
311
726963536368656D612E786D6C504B01021400140006080800238A76576180134D5F0100006B0300004500000000000000000000000000A749000046323337443939392D324433392D343438442D423932392D4231303141414239443043332F536368656D61732F52656E6465724D6174657269616C536368656D612E786D
311
6C504B01021400140006080800238A765762157D0251000000570000004700000000000000000000000000694B000046323337443939392D324433392D343438442D423932392D4231303141414239443043332F4173736574446174612F41737365745461626C654F66436F6E74656E74732E62696E504B01021400140006
311
080800238A7657F8658340580000006800000045000000000000000000000000001F4C000046323337443939392D324433392D343438442D423932392D4231303141414239443043332F4173736574446174612F53747265616D56657273696F6E5461626C652E696E66504B01021400140006080800238A765786DCC0FF33
311
0100009A0400003600000000000000000000000000DA4C000046323337443939392D324433392D343438442D423932392D4231303141414239443043332F4173736574446174612F636E782E786D6C504B01021400140006080800238A7657FCC73167E30000005E0100006700000000000000000000000000614E00004632
311
3337443939392D324433392D343438442D423932392D4231303141414239443043332F5265736F75726365732F38313534374541442D363036432D343144382D424235352D4136303845333144343736462F7468756D626E61696C2F302F636E782E786D6C504B01021400140006080800238A7657A233C2345D0000008000
311
00006500000000000000000000000000C94F000046323337443939392D324433392D343438442D423932392D4231303141414239443043332F5265736F75726365732F38313534374541442D363036432D343144382D424235352D4136303845333144343736462F7468756D626E61696C2F636E782E786D6C504B01021400
311
140006080800238A7657BE89762363000000880000005B00000000000000000000000000A950000046323337443939392D324433392D343438442D423932392D4231303141414239443043332F5265736F75726365732F38313534374541442D363036432D343144382D424235352D4136303845333144343736462F636E78
311
2E786D6C504B01021400140006080800238A765709D03FBD7E000000A300000036000000000000000000000000008551000046323337443939392D324433392D343438442D423932392D4231303141414239443043332F5265736F75726365732F636E782E786D6C504B01021400140006080800238A765780FCB024070100
311
004F03000034000000000000000000000000005752000046323337443939392D324433392D343438442D423932392D4231303141414239443043332F536368656D61732F636E782E786D6C504B01021400140006080800238A7657E3603EBE7A000000C20000002C00000000000000000000000000B0530000463233374439
311
39392D324433392D343438442D423932392D4231303141414239443043332F636E782E786D6C504B01021400140006080800238A765776A6B8227E000000A3000000070000000000000000000000000074540000636E782E786D6C504B01021400140006080800238A7657CA1DF9C9A9000000730100001300000000000000
311
000000000000175500005B436F6E74656E745F54797065735D2E786D6C504B01021400140006080800238A76573DEE336E64000000790000001B00000000000000000000000000F15500006175746F6465736B2D64657369676E2D7061636B6167652E786D6C504B01021400140006080800238A7657325506D5F700000096
311
01000037000000000000000000000000008E56000046323337443939392D324433392D343438442D423932392D4231303141414239443043332F4173736574446174612F636F72652E786D6C504B01021400140006080800238A7657D483B4D9F20000008E0100006800000000000000000000000000DA5700004632333744
311
3939392D324433392D343438442D423932392D4231303141414239443043332F5265736F75726365732F38313534374541442D363036432D343144382D424235352D4136303845333144343736462F7468756D626E61696C2F302F636F72652E786D6C504B01021400140006080800238A7657529B37D7F900000096010000
311
66000000000000000000000000005259000046323337443939392D324433392D343438442D423932392D4231303141414239443043332F5265736F75726365732F38313534374541442D363036432D343144382D424235352D4136303845333144343736462F7468756D626E61696C2F636F72652E786D6C504B0102140014
311
0006080800238A76573D6AEDB70D010000B10100005C00000000000000000000000000CF5A000046323337443939392D324433392D343438442D423932392D4231303141414239443043332F5265736F75726365732F38313534374541442D363036432D343144382D424235352D4136303845333144343736462F636F7265
311
2E786D6C504B01021400140006080800238A7657A6096188F9000000960100003700000000000000000000000000565C000046323337443939392D324433392D343438442D423932392D4231303141414239443043332F5265736F75726365732F636F72652E786D6C504B01021400140006080800238A76571E17EB26F600
311
0000940100003500000000000000000000000000A45D000046323337443939392D324433392D343438442D423932392D4231303141414239443043332F536368656D61732F636F72652E786D6C504B01021400140006080800238A7657848089AF00010000D70100002D00000000000000000000000000ED5E000046323337
311
443939392D324433392D343438442D423932392D4231303141414239443043332F636F72652E786D6C504B01021400140006080800238A76575C3FB68C06010000B2010000080000000000000000000000000038600000636F72652E786D6C504B0506000000001A001A00210B0000646100000000
310
504B0304140006080800238A7657000000000000000000000000370000006662782F35314230384537342D464530342D343035462D424536312D3633303934424536353631412F617474726962757465732E62696E504B0304140006080800238A7657000000000000000000000000350000006662782F3531423038453734
310
2D464530342D343035462D424536312D3633303934424536353631412F76657274696365732E62696E504B0304140006080800238A7657F270F1330600000004000000360000006662782F35314230384537342D464530342D343035462D424536312D3633303934424536353631412F747269616E676C65732E62696E6366
310
60600000504B0304140006080800238A765788E57597CD3F000090410000420000006662782F35314230384537342D464530342D343035462D424536312D3633303934424536353631412F7265736F75726365732F322F305F67656E657269632E706E67355B773CD4FF1FBF73E71C0E67EF7576C9DEF3EC995D46C6A1EC50
310
46649CBDF79E192942562825CE965D8A868C2842C8DE9FDFD1F7E7F138F7078FCF6B3F5FCFD7EBFDFEC41B196891913091804020321D6D7513FC77D8C5070EC3FFEE51B21F068154CC75D455CC028A3EA68992803810109FDDE5D5CEC5521B28A1B422BF80741695D5B529DA1C2D058AD2388BDA9F476F7C2CADC939304173
310
DBF48A452BF8A700C0C70C3D121C1AA15A5270C22E2B9E28763651F7DA0D12CE11077B2ECD0D560B5E3DE2368B1E65C5E1C87384A4CC5F2D9FB8BE39E9B77C753783A37998F5CEF1B4FEE553463245C9712270880DF339E0B882A6BA713D865F6F384C842D440934EF264F4A304F8DE4EEFA1E2BF5E2D91F5ADD9613D6E31D
310
DB33ED31DB1D7916CAF091286EA3D31B9CFECB78BB0060245B943C4C040119FF780A74DD308BA9D028678674EB5504ECF284EE814DAED07440BAF649BE4B55DA2890F4D73E2D489A59EE54FDB0A85B59F2F52C4858A02705C4815A792B0C4A996A2023ECB195073E115E3E3647F64243A8338F2000BCB58DA5692C7E7C3D41
310
3F963FEDF3CF00FBB0F831A9D51360FECA43819F527B89FA260EB63C5DA676830AA3626A3693B23F1A17A0DFFCE3EE164E31B5365EDF0C89EF64D8E38AB0BA9A1117D7C3A0EC44F44F4023095E80BA610DE336D0F99593A88BFC5306E72DF98F7FD132ED95878DF2964EA7E43071359FD83B2BDF9C6B5BDF768F0F3C0FC351
310
199526F53D9460A34511F75D1B63E488178569472C91A94497807A3FD4A390C6558F26D416365C3656DE6E769DA9D8FC73774E1709812842DD8EF96AED1960F79D21B395CDDFE6F92CB4EB962A4668C76990E2EF29798C8941D67DA50F4A5F947872460F1F6FDB794E8A29FD7AC0C0D6E0714339CE258FB17AE8535221E346
310
4A10F29A0BE5EEECEFC5675926A89F49EB14E5711894F6586DB5754EB4D5DA9C6437EBA57DB97A24F8B8A8DB295FFD73266CF57E82694DF5166DDF93573AFE9C9C5EB05F8FEF8E89E0A8917B0B3724DB7BEBB53252581EFC3E38166BA131A3A5B42FE2AD00A769BBFA4458D2DE7822F8C4F63D0B8E21B285AE13325F3410A4
310
35C648C9D91FDEB109E73CEDA7BC796961AF79175E1A3CE4C5E8B0D009B0C9E29EFD98BC8E97554E3D8D838424E270F7685226E5AC268E021EDE3522D583E8F20C0BDE2959EF5BBFEEDAB32FE9A3ED0E39F211A86AA9DEBFC68182EDED132AB8BB794442D2D7EA9F4D8BFF52BC4D55BB165124EE90A42D101E67BBBB292FFB
310
4F66DE5BF2300E44546757DA7CEF8932BFC9F92A0707953491A55C5A5ACEDABD9FA1AEA01BAC3DC5A24E22E7C47213493996EFBC369D086ED9397C9BA6C7F9855C7BD5E15BFC8C53DB3D2A4C5901A57ACD2FBDF4D1676E95338B2C2BCE65FDA4C64F5FEFDC7D9CA5AA1FCF11E193F2FDABF0F4916BF13FB916A224380E6462
310
A9815F2300DC49CC4DF8D055CEF76462F4B7A7ACA7365C2707891370BC1D0AA6203C44CCAB47084FEC057F27FFCD57F89B8B9852459798A675C66BD7CE572CAF71FF7E6D7ECF7BF62CAB7B3F1107DCD04DC55A3F9961700286141C94A4F771FEB2BCDA2DDEE0CB0BAE402FF1DB0100F8E475DFFFC074DDB4498AB7D186A765
310
4DDB1CB680D703D47CEB4E72F8CB13D86A4AA68116E26387B93FD6738779B34FEDB8E517EDF2BAF28D9BE93A1D3A164320E07D42E514725C29515FF361754213EDE06B079A2E99EB1CA82A02019EADEEB87B9AF005BD04BBCECB14AACD6B24EFBE482194A97DD32400685FF1FEF1544D1B14EFB1E7F08E6D2CD2AF52DE757F
310
35F5E62332EE88EA26417AD5C3E0E319D68F25414E6D672BD4522B278C57D18F0113921C71D96527E091F00CEB15AE23D24667369BD3CEFA10C7549D930890BA4366F4EBC55F01F746109F98ABCDD5A3EE06619C6AD78AB33E48E4C9BD21BF7478B385EC05C4F8987E2C1BFA0A60EBEDAA0AE0B015C2720ECE180FB6F2DEFB
310
EB822D96338C9B63822183BBF52FB664A7AE57003AABCE512BF77E7E31BDA2E739AC4C131657DDFE5225E900FB56CC01CDE808FA4A9C9DA16AC679656BB64796283D89812B8F91136AE18EE5EBBAF47A73BE3C153EB5D4CD491B4BFB4FE690A4CF9ABA08C0D8AA64220C438C96EA6CA80B58FE5761E697B3A292EB9FBDA502
310
FA863E49FE694ADDFFF9D62C520BDD1A22014147A0903A05B9B729F54272EF83931FEEC057BFF8C8055C279EAC5C0011804828734024F6CFA319C9CC6867C727184465CD9BB7ED386AFFD96B294A85E3802FAE47244602D8273615952B98C4F23F7EAE4463D9D638EEE374A20959E0FE519C4CFB0FBFE5DD80C2AA3F9DB961
310
D1BDE57E67C9BB47B77FDD74EE3094F5DBBE3EBC1FBDB7393F5116263009E2EFE1AF9A221B2AE234C902BF70E9F280ED23E73908361565964333A3F01D0B006AF32FB21AA1316744B489D5A198E85299241735BE559675130955C902A8ED761FC0DBE337A9F91919AF5CE32AF902ADF9AB2615E00E8A94586BA1A90839B618
310
32FF1BFB76D2EFADE6DB1BA04CCAD3DA649E7E2A0219F592E22F2AD54847EEA8E42271011E9074F8F3DD9FBA6CDF88FFC9FC7E811AD1CA8F4557CE4AFC7BBEDCF0114A48689F20A584520C74DA8127124B767E2FB91A6B186246727BE63C9445BAE02088D58B8EFDC0F1072407CD9B89A13F6303B4A928F593AD489B58E686
310
9325790ADC406036C591729FE14021F94B7796BB11848D463536A092A26F077F94639F7CEEE2A724C66EC885F4A24F8B8A0AC321F8FD149BA529460FAA34E4663C02D41FDF80BCA222D42F0ABFF8490F4FA74C673807C2051D8E467B47B616072860069A9A303ABA9B319D58404461401B0A0F9BE5E1E151C14BC33B32ABE0
310
3DDE91708DFAEB15E7C0D593C86BB7D7EC17BE56E57975F077BFD5525F3A1A361D584A75E08CF29FC7B44B2B3085014F3A5A14517377C3F6B8F37E59514C3B12F8AACDEDDA4DFC49BE5710101534CD6FB6DE15B50F11A09472AABA727F0C49D9CB906B158030065F48EB3625E010CEC1D511D0053474B11E6A4F01C0D6EF1B
310
ED3A944FDEC70E0DDCDC756C86545910E0DAE3BE3AA9A404574C2995CD5CAF9549226BC94B4F4F0F5F9086F418F6B32346464610D8BC7391D3C3A3CCF04CFC1FB2A3A3170E369511868F14EEA4E5E438CC73DB1F3248AA94B6B2FF33B222FF3D1E7BF146CAD229770158063BCE4F5391964DF62F7E52A7BE0EEA829C9E13C4
310
C147D6F93FE59E111DAB5E4594D6F3CD1AD375EE039930EFE5AF2BB2D41C83C7DABD8C659BAFBE8FAB392CA634F3D15C1D945DB4588D2B0824A4EC928AAC565557CA2F0DAA588CA5BE30B3A8004F7BF005E96CBF891D7F18112A3619FDF530DC8AA64954258E1811789B5189B49B4EB53F5F89F7D37523894F3EB57B373763
310
C91E502F52CC99EB7BDDF933FC324C4FFC2561DFFA7339FAFDD0A4BFBE6D3A8FF9ED1FC49898139864602458968913181918F719CCF5A68B2EE9C1FF050E34E63107003B8120FA982C21B30A874E4F5E4B38D5A8290C4B8D9BE48A0BE31EA995BDC37AC6DE90BA17D259DEF53605D55922FEB1855D915B659FBEB350EE0DFB
310
2F9F766E1C84CC8964B75D08667445EAB966015F63A18A9E0A325C1B3DC628C0D3CB60F767FA93CC65F25458BD23C3B312716E5F40E5858AC06EBA9AB14F95DB99147B832069201541D09A0D856E12C629CF32683760EE855537D1901988D5EBC156676C7DD51D7207CF3267AF1D76C2AD867315E44618015313A98B19941C
310
696FED3461CAA9B5415F918556D7802EDACEFD6B2E45853A9735DFC9DBF7E440F9319F8B6805A973BCCDC76C069A9144E51F187EDCC12FC31B5DEAAF0A76137199B106EC84ADA6B6EE697D4E6A96E007417F4E880E8B1E89B4BCE9D81EF611E2ED8F0C1A6C25F620FAFAAB656A7C42D464880E8AFAB0E0FC8EA38CA9A8AEEA
310
EE3E4648BA4680270A89743CDD3E6C6CBF34B7B640EFA285ABC7EA0A1E28F3CC963D114A80123EE66D0AF7D5380EB41909B605AB4765B709B808590458157E69BA1378FEC4B48CAF6A730E3BE3C5EF2DD1A5EAF94B1DDE50CEB55DDFD7EE9A16747FA4B223359FB1FCC69E1194892BABB93A1D5C4E807AC0EA2E30180811E7
310
7A2291F6E7F7FAA5E0F60215BC6024E48DE436C511F0628B8CA189982D4D83CCA17D305A7E923C37941CFDFDCD93ACAF735EF5F0E61BBD3E6C41A59B242790D3A3BAC7064DCD89AA2E37214EC839820949D5CAA31E240D2948E48F690298974A96BA9A8432BC90F5071D6537C9666EA4564796B7AFFFA548077BEEA75F6308
310
3435074BA182F3699557397F71548383FDA8CA34D99B981E72835ECDA5DDDC151315173D05A21F651AAF8524E88209E2E7A737ED1045800CE3390050BCFB8BE588DF111617874C62575039CA588EEFDEFEFE319B739DE2EDC147092A262611E159650E787917885EF08F1F51B8F2D8A71D60B58B190FEF9541A1BE94BC19FE
310
A50784DA1419FE4B0FB51B8D36B5FF8E1286FD8AF42B91E59A5F1CC4D60174E764045FD8C57B18209B217F89A62252BD20BE0E63E12B8E8F029FE19E0E8D0870F58721A557082250D5424F7909369376E41666C0EE77CD87CB283F661D5FB6D0DA023CB67320A20DC7BE661E9E1BFE5463085C557DA1FF9BE835733766C3D1
310
39F2CF9E2208873AD0EB4814DE9E6BF2CAF81614D4D43906ED1C05A3265CABBFE192770FC2F64F940CB6B17B5F166F133C9AEEAD2641807C3E69515171DD74C4A85311513D6EC9530B3B601B6BA3EBFF3B5C3D2F7D69765141E345F75433953D013ADDF8F6AA7DC3F4A7563FE5C7D367937E2900D7EAD0F9FC9A4A1A9B5BDF
310
1FEF08532660C01C5D6DE22199AA774383E306DAB87E301ABB7D213887F9869D4942D0D71E94B27EDF216A318BD488D45DF84529EF575AF3C3938C0AAA0215B01994153E2054A0B894DA5C784980633AAD48576957CF4AEAEAFADC7C587368551C73DBE1E57C58AC713303A8BFC258BD04B51724459FF9E24C03A81E0E0679
310
CEB9B348C0DC998FEB9C6D6EFA77D247CC8F92D3848599ED89A23218D0636465AD1CEEB7DC140D7426F83491C4E8E8281C2FB35240918FFECE880CA2A42D70E8B20B34DF5221C7DB0CF90ECCB9C745B37A47E9B716FF7A97B7A252C1F3814DC7B1E1A7F72B8751D524EF7CAE45B0C73B3BE7D08ED39781B380DDFC9AA4A474
310
9C9493DB5BAD07A6EA6C092FBD0E85DB004DF06B8C9D3089C5320187E4CE1846158C7EA7DDAE8AD9AFFF21AA3A1026BB06A259845E8232DEE62811A4DA9CEAB3A4887320B76E2AE5615EAB7BDF738CBDD01F1E64064BC13D9EC53576751CA8CACD58B3CEB0E6CA585BD089B2A59B9FC101403387AADBDBE70586B93D64BF3A
310
D4453EF9C3B6A93817E8346991798601344F79A83C51F3D50F7BF2683A3605F51A72449489E0EE6169C749C60B1035651103AEE24D24E51A759C840DD3FC6504DA6FE107510E447B43461C79D22970B75DE5E1BD3007D1AFC619A4A4A69B5626AF5E9B8374E20677F77E2F8E73DF868E8BEC7EBA7B6A75EEF7205E1AB9486C
310
B642741D6E03FF13FCCEDB1C4AC129886268B01CDF4B124AF797CF784F3C6DEC97A17D4B558070A0F1C04DA4FF9BDBF34159AEFE958479824B3F58EBD1E19088A2AFDE501B6F2052368A3FD0E650A179EFAB1561E1D27527077136E652676C3670F42DCB3352F48F6BC86D2C3B0051727E41A0A4DC6CE2BE9D47F5CAA2935A
310
3C0539AF080665997194ABECD723B08129CC5B6B21D2E7D54CD4D12610E7E9FB8306771A89576C7A982002775ED44F3F744CF21EEBB27A631671D921938AAEE3EB0D19CD1E083727F607823E817BF599DCED5394E37EEBC2E88782E638920CA641EF74D4CDFCDEF06F4278ECB18E31E7E9876F2D783C8BF429C75395F57E98
310
C2B495A3DA077EB3AC3C158608B6B57FE3EA48484D9A480096FCEE0DE880950E7E5A5714131C5C41AAA29FD19AE81AC145FA1B9E85C7169A5AB837B213493DF7E9AA4B5FBF9CDEB36EBD21EF1181B7CF7366AB2A951D01E37AF4EB835D1BE8C117CFBE7625D2EBCDB0B20C5A4B45CED0BCDE3EE8DA9DA78C2E21DEAAFFD119
310
7E463C33CC6A80FB785669B856EFF7A8CCCA2841B5A5369173320B1170C368B2748D81062EA0296E5E2D95D7667A4A46D98A6FF475C76AAB0A8C8D45E226FAFC9FE0133EA9F60111F99CA81ACE03A1D14C89E8B0D69079C91464FA1D99E651D0EAF606F345C42A8A1AA9BA391031582B96D5B4176A77AADB01F12FD298A75D
310
EEBB2C82F0B8650E880722F8DDD90C56A7A058E5FDEF1AC93545BA27367C76F5D8F9690CB6F8DAE141EDD7971F0FB548A2AE435F224D6E5954CA155512F7332029D5A1230854B79F258EC5FFDB09F5F6343A8EB193229B7F7E79B3E48F8E183860B38C8269D1B53738FF1E0BACF6AADA6D4869E9DE708E79B5DADCC09B1BC7
310
6F649731CFAF59A83FD8BAE4C749D66FA87A3810D4D62FFE826FA400C0F325D2BC0F3CA35F5847B82A2ACC7961745C823E4D863D54460AF792CE6F79B5C7A33B25C3AEA6CDE15A919B6367D781E9D44F61BF828672594A3E1D9EDD6DF179A81F27EAC05B936575D73E05C209DDD2115CFB705DF9BBF3C911589B3640735E9E
310
618FC9C36A7326C82B2205E244C55D56FDB9D5DC93CE958D4BF8174D2B3DA54CB3C09F2C2A6DFF73D23B2197355761AD421EC581284A7EF8DE2CE3497C0C804D49B41DFD6A7360844E5BEFFB495CFCDB97A4595911CDBA623274CE852B5E278AF0BEB1770E9D37CD977B2766A7DED0E94B840E1E95E8C77DE5CB6354AF7871
310
427C28ADBEEF7BA0A28E19DE9ACD75F379FE373EAE6DDDAE3834692F9C2B03B4FCA8FCA9ABE8EEEBEBB725B88A7C90941E850682CA04061A7DF0CE82ED49BFAFFD42C309818FAE14755CAAE78B0F73243ECCCAD7DF58FCB9CDFAE7A4D3E6671A613639130D056C8383C8F4FCF4808C331E544DD26E4755D09EA05253B3049A
310
1E32587CC25D72E073E2CD96D04A71BBCB0038FEC3F53D254199C3CDC67CD66640269431860225392B2CB3ECD0B4498AAE78BA1994246AE1EE78F2EDFB79F6C6CB6B5E279C4D373FBC21CB2698C9ACBBEB6A4BB6B39E16AB0E421CCBFC7654D81ED86022F9BB522146F9F4772E2D0E4FA70120C95A85A417BF5078B232F475
310
4363EB1750B2AC2148EB46B1EA72AD9B4D23ADCBC589D70106C3EC2ABEEED84DFE28E718C6C83502C28E9FDD3B09DA0A6F6F7B72B706A31C9E2A331EE70DA56A083D2177BFD63C55B11D8D949FAFCF90B23A1E24B9B5018B9A17E99F2890EC302F330FE7936E2C23F0D237EC8916F5166AB84B62A21BB0B950146962D754F9
310
2CC2C8877BED8FC7B7B25726DD19545392570B3A2C66B58F027BEF412E552D12A588C4A3CC5C3193FCB3485EFFF700D0B9EEC077754A33DC1FB9E25AF814628F91DDFECB667D3F7690803F38D13F8AE39353523BB08FC6760144AFA2CE28236F65EDBB3D5F59A57D612B99E3D7E5F8A851666BF9B5A6658EFC96EEB37A378A
310
BB0EB3FDDF1303AF32C41BD1C8560745D7BD81066B0D6313359CF488563D3BA3F8E2185D1FAA3EBA1397C9D0E3DD232180A4DCADB6AF25DB3AC3CC26589C8239E66E81547BC7E2F328F9884764CA37EB5DBE390DFC03A5246B456A7C3684C4377D0EEF9A350680FA9A077E8B2957B489E09AB1AD41316944C2254B5984830F
310
691C93CAA767EECF976FA5647538830B5E63236A6F0365C1E0F3E327F24FE35EDDBD7360B0F7374837409F7A6311BECC12B7026D4FA1AE204FA3F5FE904B1F420C7A9044AE58E403E7C4848E7DA25DC9EDAC79DD756FAA26B9EA83ACE8A214A2612A22AFA19DAE7DBAC5F8CDE1292A485F98DAC731A29FE01A3966E96BCB9F
310
B5A4C8830E1B9AF0C54B87FBE221A097036E5D28D1F869F810C06A9BB0AC0612F69AEBAF893C6E7AD59460208BAB3A6B09CA4F6BDDAB8CF0D1F84B72487498395A70DCD754796E271099A567A55CF242BBED64696378BB6CF25EF0FCDB589F3A82F1116D010A9AB9FA4358809EE0C973A2B4229BAA876A70B03AB49CBA7FBE
310
71DB1832FFD32F9BF2C8E98075CACAFB36921235D0F552B6A67E94E094097A5D7DF681B40623DA535ADA7A9AD8E9A62407D7C9A5AE51D62A17A83A23728DE86BB56115804D3F2675F2C6B87541A0FC497BF0CA86420F558C9859EBE9FAD62747E323E3AADC03FDCDDFE7407B09DA90B44E3185723C5381EAEF589765E2F7A0
310
99BA46695BAD60CEF3491B8A171F5F56444F7CE9455312C3498C74173AEA0214EC029833B34B650CBB5A5508D5091665309642791708ECF27CF11DB3D797D6CFE474453BD4BFADB768094B2147814D81C7CBAF8228DCAF5564B5891F5EF6A860EB2E323CB82AB868D8EA048880D63B0DE5341F1B3D53297B928A11E15F25E5
310
148990F710747C3509ED14909C552EBE3973246FCE55D00564D8310BC3EBC5085D08D806799B77D6C57FDF5E55837F9E934F09C03C729271B64F12D0A9F9E938107CAF7BF1EC8CF1BB9B42363D33070F4CACB425E605DDB0A34A12BB936DE286B9887A4E2E558F0886498BFF49C311D96C277CF6A9FC0D75AD0ECC5226D7E0
310
E3572012E56D7FDE4410CEC7A6D0F997F225A2055B8B92E3956E875AE4993CB3D4C9063AF98FD45E1BAB165640A43439A2C9181A7C355B297C0A0CCFFAE19B6FA3C2BA238A885FBC98B8F6DAF4B94B97304878DF4D8BFF6A4AEDF79E90ED4E68F00CD7299F4E0D83E35601AF0CBEF18C1E870E74758FA91F5131075004DB3C
310
FCF09AE1DABC11957FD9808C92E8A678CE9DBE40DDA0E0D1D505AAFBCBA208232BFB6FB3704E8985E61ADE53DE74152F5C7DE74B1DEDCD37DC3E8FB30D7EBA8B9EFFC3606BF90B8D438279CB7709FC7C00D327F41817EEA71CD9E49FE9C8C9A81C70915D9F0F15958EC5AA4C3BBFAF46986B90F188BDB24B89DE3C6F29EC3E
310
6F66D84856EE96A35E657CA41B41EFD8DBFA16AD6E91439EA92B40B21C053249F51AE50EB0B24C770FFAF40DF12C8436366819C48E36547D4E7B72FE2BBF10828583057814A668BDF183F6B2E58DFB151103E56303E63D00F39C27C4661605DB644D19175D02E3F0241E8FC3458D17AAAADB117CE9EEA690D0DB01E634878C
310
04C2C9310B69FCAB831151E3AD293BEF6E46B0ABCECB50F5939B39C613D41E81FAE8D34CAE3C4566B761D37185FE864AC32FCB71AEF39DAA5BAB88609BB980CD2F07A8F941653B529567726E2B2A58D079DD57E1E5E31426CF184A04D7B03B985F276D47406AF276FE32E3328BA866EB1FD39BEF57863A317634AA5FE46740
310
9B3873F5069EF0D71AF00AD189D17BA1974ECDB2D623E9E14086386A6AAB5807825C37B015BFE892AFD154920EC437EB945D958E18622E1E0FE2FA06557CE4BB9BBD05A2D40E774DA2B65473791E314B7D6C886820B2FCFE4AA272B3B8B15E7344A145E8AF919B5454D89D36D413E87211186BF6F645E5EC94DCCE8E1C7990
310
22E4EC9BC86D7A0F2AFB1FC4B2CE48F84B3F49ECE65BAD24CADCC07EFF39AB06BE9E6B27A059938EA7208838455383DDBCFCD967DDE4650EF92A14FF933C975DB20BD7FEEBC4487576485963D757D16340D9599FEB362F775F38CA4185A86F74B629C81B133644A3B18FD056E997E0734F9BE26D11C0AAFC669E2AC9FC41D2
310
81F8B2E1C35AE27BCE05F3DA295488096688719D974DF1B5D182DB7792288697F8763CFB43562C1CDEE11C4AABD5C22B6E33F6F389CFC3477C5919DC0D533F8A7A1846B7ADB60ABDC26C43D0CFC8910B7C15EE22675BD02702ED39DB77A87A192CA7A543E6205B979B9F5A6B512A3CA799E198B2D5797C0AF8D1D872CA455D
310
4D431A7879D4DD76110B5FF7F4176B54477A9EB5E4A5D11214FDA585F0382751D8E2582BA5D2075053298FEB8F1537304E32CB22C2E2B693DC0A760B1DFCA751BDC445AFDCBB12820ED85F6D5298933C7EF1211E9E057684056CDA3FEF3BB6052355E162DF27C59E965A8DDB7F9437EB72CDDA3A090DE65A5B2F50326247B7
310
EC67B73ACC7047FC9B353D6EE990F772207C6EC52B39DC2F3C0754821DAB559F7C1809C7D0DD5B0499D0442E0A6E391B3D5DB46D11E731E6794EC77523FBDAA242ED67F9FA1FB684255671F63C9BCFE6E7E896D51001A6113EF2298BA494E0B0980D1FA5B9D60796554C02256B1E0345FB7C6186B6A19D2DCA270416262845
310
FA4F42DB5D9B0A0B6F07FCA2E56C242522E001E0CEB734AF310FC8BFB57E38E03AACE93B3326A2197891E68452B26A6307FDABFEE0223D3C03C3C73D2D5BC054C8311F12004CAE488E5C29287F8156A2CAA4AD0D7BE6B97264E4139F437CE73ADF52E5134C52B819777C18B323A5924E4F67AFD13B1CDC3A61793A79FAF5C0
310
CEB718E441071E797C6DCCB9EFCF7E4A1E9F3DF3C2F9C9E8294E9586868788C972857FB0556D7A26941A7EEB9B580AD78EC40B85DC906B4120A563CA3B87797ED612D3B035962BB75F6515A393F4CB057F564CDF54F2E5A024514E6A1F901DB80C7E70B1FC05E356A7E72FABF4775B3E3FB8F70A2A8E7B6A94542BB3041579
310
78CCC999E707A29CC795E67A59CC546A5D47B368954CA7B6E75EC9E1F6FC73CE3B4F71F8CB1A6B15923D61EAAEB14626AAA9D04A26EB9C66CD1BE86CA31A5D8703DE04CD1EBCE4F5CCB62F93909AD11E55799A781A956ED27D3E738F4538CB04ADABC7DAEF20BC35BA6A90BCC1DC61BA05F20D8832FFB9BC9B15E2DB838A0A
310
FBB7E0C82A562127E0446894F427794C3037186F622BF24DE1B00AA10A23BFA47B2A180D6DA5AD6F7326FEB8C100C2D7142EB2A0B2A9D1008A09BA343D70E054AB69E2A7EDB783CBD92537FAF4A44D1296AC2792729104B3276C276C951D0CF3CF3F1E6B017720A7B8505A5FF9589365979678C36F1BAF759EAF57C60F1FF5
310
FE9DCF5F8E764FF25A2D06CF25117A8FED51884C13B2B750DB0E4F5E3D64124FCF11F0AD8F1CC3B3DA4B38ED22BF1CB2585EE6BFEBBA63FBFD44F9537B9B37BDD6B358720F98A8125AED4349CCFEB0E135F19E208A04CA7E2B10711185D72E381F448036EF57C9F874E54A971CA37A639E986AC0226DC5AA00D5B14FEA9192
310
234B3DE617814FC221C92F33F1D392F297731B567FD98FD91D989379AF567A65B8ADF177591DB90FBEA99BF4ED11B16E50A0AB1DBF1156D034BBE04D69D08F939D8E92BF525A1DDAFF80ECBC95D8F45D3FDD289FD23F7D8B452F8EBB34EC082DEEE68E18EDDF072060FAD2AB1504DD4879BF67099FC58F6E9DEFBF645D1633
310
4A3E9A127C6F1AF6132CF287E433B43A0EE93812B4AA0B194E03EE3FF91EF9C6ED0074A2F6EB18A96A7C9890B1FCDA1F2095E944DB911ED54C60DF16FB74C8CE9BDC7C54C4F14078CF73C2FFF1F1BBCCD7CF64F71407EA1683DBC410D226627F66E509060D5C0AFD611DE681D509DB8DD12FB1265B03C6F5C55FF4C30BD941
310
87FF692B4F152982502F193098A789526A038AB529A52BC0DC4FB6285CBAC10A8B8DB75DCD9BDABBB221E27D1F8DA9F5EE5926A1C8AA9BA9BC09239C6A7F12914EA3B59EFF7AAEC3FFCCE56F1C5C2980AD072793527565E774F4631DB178CEEC691B1F367BEA0CF2907E1D6B854D527065979DDEF002D8B2ACEA7CE21AE297
310
737EDE1D45B31233B73FEA35BCFDD0B09721FDBAF6432681F2FD10C3E9EFB246FD6E854B344ACC9D8A0EEF876A7314B49B6A499FC650B099D650DBFEC7638ADFD245E2B7839DA5AC5F7D5623FC0ECEEC8653FC9B2BDD1AD4D00A566FBA7186DD3C9CD26512551637498CADB950FEC71ADB9A5524285DE328B8EC7EC75D2345
310
AEC6A27C42AF6D9B92155315C80DBFCABBB7DA0FAE425C4FB896B15C9BFAC4FE67DF5A23D30C93DA4D8F36FB15D100050DA6062E22AEC5F4DAC4F6FEEF97AE05DE63C6D38F9E068A20BC5E3B6BCD75320C5090924E7F93640A7735B1A43451C2D91EE62C6238B797349E59890AF3A520DF4A87095F3ABEC2E61F0593416CE4
310
6CDCBE0E00E2523FCCD04408588B5B6C9DB6459C786CE378770B54F51DA3A5E1DF2A3349BEAAC234A6CF8993B598B3B25B4B113E353A4D750FA7534749430F3EBF2512E7EA3FD43C6AB9A1F765A58463B306721A15D224FAFE8C6F5E3432D57EE697DA0DD5A9D4866A8BCCAAA9DFF1F06047851408FEC060471D0E3EB86BFA
310
F46E4B5E60311DC3E3CEA147C75CF971BE74689507154FF2D2E92F15CDB2B9182B11459FD8ACAC5A85F174BC94A7F4EE4C4F5CAFA7C02E37BF0BC77B7DCD0C047BC316F562A01A441AFA7931CC84A28CB9F4AA367EB515778F29BFE61195FA671F4352E5E46E3A64773F1F76EE5EB36D7BCE9BCEAD837A4D77F8DB8C92AEEF
310
6711920D7C7D0F76B0FD0EB7AB83724CD35BCA7D36DDDF5FBB7FF6F04A91F3E2BB3B8F1A43CD659639507FF6331C5F697BCC782AE57D757A27D97F1AB9E0AEDB43F92F1B2AACDF5FEC8ADBAF9F814E2027003BA2F9E144B1938A7A04050AE5D953B82C45619165C813A10E76DD6906B3C16438064D14CDA713AEC420034613
310
E1AC7241904A49FBF87409AFB1FCB9B72FE7933A87D8FBEDACECE4EDCF6A4FE9FB94D5DEB74FAB7CFEAE17EE965DF980DCCA2D04134994F9A2E94D2265DA4FE6AA7B7AC15FACAC2B5ABBCD7DFF542C5314FDAB2E1B9D8B65220B8E2B638BE008E8DCA22678C820C5053664D15E89F2D735B51A84955E81A443545E9FF787BE
310
0FA700A76D136C27DA179A7C6E8939E01BE756E19CB292798063D8B97F44E8A27BCF3A614FEB8BE974A718E86F7EC99B53CA35FA24F61F2B07266684623A3D4CF073E511F3A10A8FDAFAF0078C577F4DF9D339FE7862E5FA47CF4344209E5BF76D783B1B48E152AD281B15FCB934DCDA49CEC5706B1EE8B460F435324A5CAD
310
154725E21AB8044B75A557A79F6C807B9340AA3D92503E866F4274412926C8C504E4D5EF8C0E68DD0B028781A6B4054F11CF18941F101C57CCC796773ABC8DED9CD91FE5788806C05E548895354AEAC96546D55B0E94A59F148D061F42AA398D822CDECA4CDE79E13469BDCC44FDC990F366BA5978C15F97ED80CBFD73B0CD
310
9B8B83A4F6845BDFBFAF034019473FB9A63BD55D3A4A7284757071574029A4D016DCCBE95DD679EF3C4880BF169422F8C89B68A988D2B13793CAED4F74DE7486C72DC94DF46B8E93D8E02EFCB1FF9B3BA10C8AE7F653DF94F4AF466CDDCEF5776687F7C4C14B63E4EED1719DC2EC482D7DBCC7AE518CDE3D5FF86D39000EC3
310
673C0044E1D308BF05F74D1B5F033A7D1BE7F74BC55BBE3E4A20F920946CA0271EB17BD2B80E5660ACB8A29A79F5E4BBA49D4D945B6EEF4A7EFEAA65E5555BBB57A7E15D2F83C69F30BBB978D2B39F1F26FC097424D39BB33CA3D87ABF64E307938B685BAD44F71556A30B7E712CA4FE600613C3E554B69ADE949A7CFE214D
310
F1FFF05CB82151EC6FC31950239F94CF7AD39DC473F6EA356E5EC2C4EFA04383CEFE985A127484366FBEE3C0EC4FEA363E4F6632AE781392FD45D67B63FB8DF70E82734F431FD3443172A0E30A83D60982D55FA6A2CF86DBA8382502ACC6CDEF3B907982EED1160E14863FA242F9757347E1544275CCDCF71ECD5F8621CBEA
310
326B8BA884AD7F825781923E66971F04010D574C541D8427A438A37EEF8AF88240EED7362C953F5A81DE2D56109CDE2524EA0F5D2F87308C0C47BD97AD605878AB8589E17CA83930CB5E0DCCD75853D68B1AB136594926DE426C367428E9334AFAFF90ECE221BB5DC9E5BB53D2CDEF954EAA9CD814F0E5725F1965DD458E5F
310
8487683AD86B9D0076BE3EE91EB1CECC5331A67A3F79D8B27587C12EC2A6A70474749F27B4C0BBAFB94B34189E88DC18964BE4121B9137FD516C7755356E50D6714E31ACD222621EBBCD1CFF81D87479056A9DA0E0B8EA19D24CF937DA89F78E8650CCBDC110AAB6C4E46DCBFD0446BA9E2060E81F314AC2031E88135E5476
310
AC0160EF5C0DD2EEF1B8B5CB2D198BE9A554A9093B5F7D7E4B5407DDFCA1D9C152FD97F55BFFFDFE802954DFEC8995B983E28AC92F1971E28F531DC407A1280EB125F64A72E617EFB27DFBCEDCDA2D6F2BDADA36873EE46B9BE1782998C63DA7182BC383FB6FD15DA472B175D7E8B4FC88F38D6E07FEAA3FA3CBB8F6B449EC
310
F14D2175E5C5CCA3A42ABF24CA6C9395AF74535F4DDB38CB84F56614B0FD32D7E19CA5CF988DB4449C40E23DF2B16772594554579094450F56F253CD25EA7F77366FB1CFE79696C428BB64D5A41E986189427E5E4D7E2DAE3D5BB4972B3DC44EAABDDDD63A2264ECFA5C786EB0EE1FDC5BE34FA0F08376869FD1E61EA06CAE
310
15191135445EE8F0394161C3266A596AA035572BB0C8876180D8B9C77D307DF9DCDF7365ABDA6F3A2366436457A4DFC1F259666569A9E4A79C817BDD5610E5200FCE894A358EC72858D50EF67545DA81C6FACE3D457BAF70367E1E6BDD9A952FB4F56247F58F523B97E640246051A72F79BE42FFA0B3187F63097F91C48B86
310
8586F714B0EBD5A00A8412C1236E1298F60C72BE6C96B82B404CADAA304AE9F303176B14BA53FBC2D5E86377E35542019E24D97B96A49B2C0E5006E7795954DEAF5DA58958839043C6C70BD3B1B33B6DC5C31316D8A6923F142E26F6711A2258AF977DDF1F970ECC4F1F2B434B96D81BEB6E89BF3BBB3C7C8CC80505070723
310
D6D7D7D3C8CA27CA164A26024FED94B12A86031867241DA53D929636DA600F050BC40CE48B8BA03D69224720DEE2ED2127390BDF5E6EA64527BBD4C4C63FA76BB801FEEC0E61218EC98A8A86CD8313781617877E66692839B9468CF4DB8E50A73986E558E309C0D6F676F921BE02F1185454DC75B111572FF9D27D85EA14C0
310
5AD7271225B391C4275659CA4A43759D0BA44639BE4C30A84DB7F67A41399FB95CBF923B1B1672ABC807C1590557FB18D811983FA97F5E609516D62281D38B1281F68FC75528C35E4CD7DF0F7DBB5E5DD69C414EBEA2F4A5B241B996BA77AE6C772E367408C633EA3E438B68563EA8BE7667F3A4C4FDEEA52ABD78A2820F44
310
3B7914A15F180018D231E64519C56A12F6CA7C8DAE18F06F6B769DBF92329EF6A5D18FBCE600F36BD8E8198DE5CDAA96181F3A756EBA5501CEE58F497EA4F418A2B82565B9BCC611713C0B708CCA1F398B78C5F7D03B3437CC18F13061F55C7BEDADD5ACB1DB0E36D3CE47FF6EA1A563A57E9649EA5D14D1A50EAA45746338
310
1C073777EF1600607BAF6428A7DDC079D47A204EF1E1F1F0589FB054D45E02CE623B3823C317C601E589E22B1E88B448524B86A82828E32345EC18AE17214B42F8C41C6D428016D9BA31DDCB47572561E5A402E5BA4FCE55F78AF7268524AA04130F3A20BA5D1E9F9948EA48FC8F5314FDB35E21898198060034ACE5E3E2BB
310
CA34092518F275190AF65F45867FF0900AA4B81F25427414C372BF51DC29AA855C5428EE1EEDD6B849AD60F6E73475C2D2523F8A2772C840A478DED18A8C5C91B085F255DC4F54EA7AA8947354FD17ECF8FB3B4A0DE7B483CAF3A1165EE05BBA413E5C1FEF3DE1D6B8F2F3F3251C17D9FCAB48A9AAF63AC773A0E413BBC46A
310
9ADF84A566FC920E4D8C52C9769EE3301CADEEEDD92B312E02E2A7E35B7F1E7D203FE5A7D75578B06E99D0E46FFADB8FDA17ED8880390DA29094202D6F645F76F6F96409CDA05495A96E84B04A00D1A6C6C81D7F3DE9376E828CCF144EE50E364ACCE7237EA0BFB5607ED1AC3CFE73794E5B61739D14DF1743441B1AC98F00
310
ECEDE9E7301FA29755FBEFA68C91EF2B314CF510537EF1ABFC9A762496280B546F5EDAAF8A5B387D469FC9A878A92828C88608453ACEC6094DCA54111E7AD5B2663DFE2DD151B7F123B9F4FEF8EE36AB125FD7AD52A59B1B765B3E3F73E3F73DEA93875004D2AFFE3CDE9493B87A9904DD052028949041A91DC0E1BA47BA71
310
4343FD5B25E0A6A09503AFC17C790058A836A324FE31D7893512E28230332F153181C1E018E1124EBE1BA262AA428A518237D1EA7275E48C5C561BD19ED6912EDD8367DA0F31E40EEAE9683DA9257525AEA7B632B97119E17145A90231768A4F3B9120FF32E8319B015E3CBE26F1A754177D8185345817C096B0CE443A955D
310
13AC15E1FB5DEEA0239EC32A3C92241A237B0B02FFCB4F93CF2B02570C8D192E2F2A68CEEB42F12E6F8CEEFF46C251E22B4341C56FB08CCE550E7A9D6F4D6564B9EA52A83D5BF2C6E03FA19D2775E15A8A7ACF30A13C259EE7F5EF2AC3BA354F1500E1A07FC63FB4686E2F12EC69719F9ECF5FE3F35598DF2CE944008CE78F
310
0911BA5BE5D0A34E0098FF038669C26030BA9B300303039852A8F6F496341737CA7E0D2E3AAA36DE0A70AA7D9CA0D54D9AD84B18A44C9E625475E1C97B93BEBB38DCE7D227E67A2D00F531436136355F243D1FC0D712C5765754FA22FCFFAE97919161F46D6E61ACB37D83777B385889770B50765B127768443A5C4D3A4E35
310
A3151111F146B7CA116F918A049F1C272F2CD7976C69A0068773451659A97E0F4A08FE604C3FF6CE7385DB19F4D3ABC8A0D80DA8A42096AC377DB49382B36E270B6FA7570188B4B7D1DDDDA82ACA487CCA5D38BD3BD039ADBAFA4ACFF27809239B722081E2EB9F145320553D183F28471C388BC8814E5045676767AB58A8E7
310
2D1CED2CA731379515D2E533E4CF0B39DFC625F97AC4836831A4DE330E87A8126FA17EBE583D614E71E22A8DBF2825599743E0640037303E8E1B1E8EA4E1ABFA4F62907B5E4E0E5DCFDAB417C36C6848A2B8D15F1E505434C0707E16B1CFC2A1C36A42BBF55734F8F4301DDC2A5110CEE8C0747F69519265012A2174BF4E95
310
5ECD4FDE095A3ABC70536B7AD0B9D7892F81287D667C108703C9B66A221E9A0929D030008F77FF6F5D2108EF5706FC87A3069B976F7C9FC3239D13D283CDEA83597461079FEEE049B0F392889898B7D87D31F8D60ED7B56B91823A8E4EDDB36C6172ECEE42BD42B12CD67994FA0F0DFAE9389356F4CD4425A4B8AA55CBF7EC
310
D585C6A2C2316791E43D5C06841ADBB226A87FD61515FFBB0167B74E56BD7F3E90A57A97FEDCBDF483A0D6699A8C0849CAEB4947FAA90D8E332D9DEBD9F4738C37DA0CAF9CF3DAA68BCB67C420459C7A64498D6E848E5CADE92BB6901F607AA331104A67F7CD650EE169B1DAE94D2C31C2F993632259B6957E246EFE4C5481
310
107B07118607700040E5812A2A2A38DA0076875258C753F60E0F2662C748EDD5F3F3686B8FC3BD6FE631ECCAA1E8B1C1E565AD117E54893E79F4672E32F9E46B2A183DFDCF3EECB4D4D077DBEA0DA254D256045109670050129E9B9B1A9E4A11344D61497A992778095151510C4BB7EF2009B63AA4360635312E4CF668B7E0
310
D3D85A8688E2BD83B569439892ADB63461930D428E0DE42E4AC57CE48DA5CC1449530D8BD3D6A0F08DF20C8E8F570F2CFFFCEA286E30969B4654D498A58D9DA782E19FE3F002181838925592C4A1EF0B332D88B61A92C644547BED490D3A42CFFAB70E36D961F694F6307F72FF15A1C79D5B1B5CEFD353D9E2B52566DEC8F8
310
F09CB3E8359C0F68EBBB7898243E34E12A015B2685AB303C04D3A9E00671FF3DFF0A184E4A2ABEB2B666AF5B3A209C73D8EF29DCDB069C9F391EEE9DD0F74C7BCDE16F8F02E3B8816122BBEB50665775B600549D8BB33A54A6BF940C028118BC6878C79958D6784F9DEAA6E26748386FFAF8D0D0101E2847B6563F5D8DC1D7
310
8F787BE00E2C941AE12148D4A81599FE8F68D4DA5CDED75530ADE138240300EE13B0FC13A1687FED6774662C05A2B7DFB186732F0D7A93545D8B0A6390AE5054D9CB582DA846D7A061B3358B45E2B52DDE63E114397EDB7E09233A579155D795BE76102CF277F4DF8B188C4F2879BEAE3C08347124BF9ED23B128259FE107D
310
31E34A652F090B30B39E0D9AF917B76A2806135621A8A60681F16AF216514BBD02711585B5B1AE823F4B2D0369EA5B6BCB863072727FFC871CA6C9AB79A814D989057E9470A3D238BC87CBB4A0EA49AFE2B86F22E499793CAA9047080450166BDC357524561E258C77CB697F1ABB32562CF87C3B7AA12F911EF19FB3E5C022
310
22E887D08202A60A17151F5E053A86B437771088B4FEE14D652C43E8D939995D34545E12E2FF93D4E366EAD25F10CB7DED141563C3D0C447AF06078A91135FD4B9611583CB4BF3BD167F2399CEAB0E0100F8FFC305F00F1711717173138B4B48C83022295DE657EFEDD97F238ECA80F528AFB4F8D67AD4E2594B9A3AA86D74
310
87EFC313BA95745C186F0CDD84CC12DC9CB0424B42203D351FD9C0A3AF10CC7F388E0329279087386421F194F4A29464C1DEF7EF8BE515E4A199DCD5B909342598D8FE6A231F71336248D5CEC5454455C7BE383B3BC7B260FED27F703FDC39A170F3827239102F59D4DEE7FEF82EAA1A5E4BA94DCC4CC44E7E2EDE20F24244
310
E4454369D2E87C3F823F193FD4FD27E1C23984B01898D15ABC20711A8A558054951A6AE280096BA36CBA439603B7B0B4C45F248C14B2383B4B5CD8ECECE4FF859AD4A6CA2326D020EF090F4041D28DB66E5256B56232CC52829DE8060BAE6BBF37D4B7469B822454FE93210A3E8D15E69FFCF01123222611C51C4FD0A041A0
310
CFA2471CF6BE38D2B20FA4C3525B5B8B586759475CF80ADFE67A284AC24651E52B8E683D24C2622642F27E7C3C22783BCF63648BC398BD6CD0D9C97E7E7E3EACB6126DB7A6C1FD9F1031302EE67ED96F22B77C7CA0239BB324207559B105E4693EB26EC46182A92C9C0DBD24F29B31C5C5AC1F84300E0E17CEEAC15F5736FA
310
4A98971E2F1423BFCD68D4BBD5F86E74B40A369F39507C88FCDB35D2DD8DEBEA4AF999E23CF2816D204200DF6E611781B9884C1AC8888B4DE397320472959434323A5A36B22A8E1F721A270DF3BD65E4A31C11FF048AFB0D8B7B6881423793963A23CFCE935FC189ED36FAE35C46DA3574C979E4394BE52084F3081837BE03
310
3396D2EBD80F1F691B273F660D2B32FA27A33B1DE4ADA5F0FA4651511102DFA410DDA86E065272CA314D5249DF91B06BB92807B28EFD54F08F7B525252782CD276DD02E6B0319B13DF87B1F6361AD6B28FC0D711CF445429B9E5A433CD493051C49A9E03DDB1B147D880253514A5DED88009018620EE229101C041950E2D8A
310
A8E1F5F5438E0C0C0C60EEDEE9E3E0C051948C69F84BB7B2A48A1F3C8EB9E6864687F4F4F6F6E2FA87608ADAF9C5E117B7C1A737E710769DA1D15ECE6A84502AA855398712D5FB51BE92E4EF824969CE18278798AC303C2C7980DD2500ADF8FB1E6D6C2FAAFF9987178923334A244758BAA01A9A1B70FA5097D01E1CC2A58D
310
AD0EC94CE6430AA9B0C10D75E3C6BAC670EFBADEE1607739CE0FC18A2587E3EC3058562014C64219C69BC269082D5C2F4A659278D585755912176D78A1B641719C2A394CED495A1AC5D583FD2F5EDD93308EA7EAE8A6DD396598BDBD3D4CFED62D18A5BDFDE0DD5C80D1A89BA62697B131AE7CE9A6594138582F1B37D68F17
310
49AC7CB67A70695D48A4A056AC1FBD4E82358CEAE38F54B95A9016F9000F9879C0D9D131768635CA798895F27D6F1614F11F2838A83611AA51C9A3DDB539D42979C29F10465655C17BEC3E2760B80DCBF609198C7B171A531905F3EC218D696025975E986C6B4C666666787271F202805577DD5A3EF0CAFAF91B62DC4B2DB4
310
217A7606282F31D8DDBC290593BAA93EA6353AFA9939B877978481E15CFC9F2755CDC00C538F63A4BA3E80AE009B73CA0185687D339A507D165B74290D6EE46D5C58148F020C3668ABE9EF2F7549170DC80DB41FFC1D678FF19AEB10C7133832B104B80F691B3138F97A92D26E551F1F110400D45AC71A9B9AC41A1A1B1DAE
310
ED0B0810638EFFB511D46B121C6FEA0F38CD00E03CFFEB9713FE1F9C263E4DDEC160D0497FA9A132BA608584057FB15380825DE6C7FC3C667EE947D488A09898D8E939C4953BF4EC9836344D2CC6B2971B2A21A572B06096F4982D2CC7232D46E8EA69DC83722E267754D777F97F96D5DA74E1E75178084D0E70F12AD33E5F
310
71EF2AFA599B2BEBF60A5BE475F444F240CBFE8143C334E7ED9150FEEFEF7EB020C4DBED388DD1D6A167A76F3CBF119B578AE8CFA7736ACAFA4440A1C47185638A0D2F3EB5BDDEFDA958FB13CE4AA4923D5BF840392D45544329525749734866684BF7F8D9D54D892E19BCA9F829A0F8BFCBEEA6CFDFC61D74EA1A645ED7A1
310
FF241739F15694BD835B66FEC5677E40FE69BD3F91AE402F036537218A401CB0828604AD189E575015C6F3F6BBC8AC79CF6C70653847254B31551EFCBEB5978B9DB85D58D0FA41A9DFE9C624834AA04949D24B5AE6D299E072D152D12097920F14AA92C31C3B97E28B6C2E6E9C23D63043ECBBC0A60FDF5BD0C33C127EA8A3
310
308B8B6AFFEB28B4455BF6E7AF4FC6222728357EB8E46E85053E6A8843AB23295BF838ABDA94658FEF3F832F147046B4ACD6F7D48E8FCC9618582961C898D1C7A253C91BFECBDA6BA18A1FCF70755DCCEE2222F41B76D23CA98D0CB3D95F0CF66D57FFF65E2A90F5DF40FC3187621E981BD0BC1D992787212688976B94A8F0
310
C6EF646624B570B78E068826F87CE27041A95C9A4871FF65CC17FCB1639629AD6A9517000D63AC231F3D741CB8430777E7ECF80CE7A3F73C0F162F7E56AA71F4DA80A33CD6ACEE78E2C11FAC03DAFCE929B106F8F6B3ED2DC71FF994BD9CEF4E9A94896EF1B6E2B7B4978168BCF0847A3D2A4F1B0500B926E634B174548E9F
310
BAD27153FB5FC36799B1E6C7C38A94E1F9E996796D7B485E635D5287A2AE76FBD11A341DB3F8F810385BB7296391973DC6C37C452A9305AEBBE0CDB6C566DB59FE60C8E94B1FD090354BF51439FFD1B48D725228FFA88C84F686F547107A7A235665A4593B7C34D748C1AC8D56DD5DA861EEFBADDECBBD65117E65851F9035
310
1AEB65F0EFCFF4BCFEF24CB7A5879699FAC437A7AF9099186CF006BB923A59E37D7A36A29FD8D2CBB914A5E9D0A8FD212FBF796AE9A67958FF1D5D8B85F78F96219D4714EB919929241B6C018AAE0C02069F8D919961EC5DDFBFB7573E3AC8E08BFB7C8534BE6DE045B3CD63DBD71F7638BA2309CAE398EA3A7D8F98BBBC7A
310
EB367EFA5CFA27A9F8F2F52FE878058E6209C026453F8E7E8A237DFC389E9590F6059B397CFD65183BBF936E86896612A5B5FEE49DAC8455D026218AFEBEC12B3523A45B57B82C9C97E02ACFA1184DB18E48CF615DBF39C3CC6F0B4AE6BBEEA2E39D944E290302FA3DE33FA7E40296E2EF7BF1CD855BBECFAD0FD622BEE974
310
6FC4FDFDE545AE6E3BC234CADF83A0FB76DFB145BF3828AE3436368AC24989454F8FF70A177672C711CAA1A76107218CF948CA01F873520E7A2B118EBB161ABAD432932029628B6761590C98AB590C8C8C79798CE9F715BA696E839E9131A4BB68BE923F1747FBFF165331FFDD4D05997ACD168F12CA75348DAC04C7F509FE
310
83898A8B421181AF492861CE81E4A2DD0A30850CFA95E05F097FF70F9E777310D584A75BA7018922E271DAB1D785671157685B7D383D3E074DDB4F1E44EF04B07BAAC75A062077C54B9752C738C9D804D402E02851F3F89605AF189738C18C021D2139EAF72513824E10DDD3047BACC8521ED7E98B257D1166903B1B08FA6F
310
918FD7E162913FEC7D0EF4787E29C35FBA8C6E2C9C20E9AB30AE42CA2A01A090E7D010C1B5BF9CEE2A304BF3A987FB40D836979B79E18D70F257DA61E808472DD85B82761825779D6B90CAEB0F23360C6F80A7D7D77545E95B3DFF0CF96A827F9B5BCECD2C9698718417EF80FEEDEE938AFF55859D0D540B7FE09435583A6F
310
04874A0C7E8CF234DF4879722000167F5872CEC6BF3EF7E5A8CC8121E6A359227C8A29C95212F9F735BC72A887D56B8F309FC525BFB4FD767AAEC4AEFF249CFBBD2DE1AB9969A6155C7D8DABC307E47324C1F916C7BCFF40ABA5644E9FFB9238D19ADADA49D9610F01ABBA57E4DFCBDCCBB2B93C8953206C91DE01B0E2651A
310
6D6C31721915B31F7B7CBCE55466F6D70402788FA91D73BE4ADCBA99A35F17D6B83383704917D6833F0FA3CD45C926ADB8BC17999A4A0AFBCE2541F7B8CF4C2F5FBA611B3E626D64407CB32C122DFF4EF8674D6EDBB86C8F7C6A16D50FA685E2CCA34F8F7D1D8265BB0042E9D7F1F666F7BE5FAA5184DF58E12122A42EF02F
310
461B3F369AC746F96528AD208512AB56844CF75B97F352DF7995024FB02855385854F3798670D01CAC771AC3E1889EC25F61A20C1F8CAB46898817F9C47E2CDA1F286BF2F358298709FE567C91133E2638C8B53975E753EA8BFD3578B5F7186B7BF084EBA3F77BAC3132A5779902EC22AF2D2E79F42D324E083386DAEE9810
310
D1B44A5DAA54513C7A71E52A4AB9257D975B621308FE4D2141CC3DCFE946C154A3C1DFCCA7629EC69ACFA831634ADDA93C0388D2A9A2DDAFCF957C6995BCE7FBB6DC4EBAE79E63EB08E9A25F52F67076F7093CA545CA3053B5BF576DEAD4E0017143C5F759F32B2D6F145B52B67B48909B7C7FCA6586EE385A2189C16932CB
310
6DDFD9152AE317C430492A578ED27B72D85D40C7C93C097939E1B50F4D67F05334FE9DC362C30B7FF561B95259138ECFD9274C8D695C31B14D4EAA9F3D7FA8DDF652F8C5DEFA23284C799B7D94416DEE81E05A866302DC70192A5368EA65E1CED8BF107A1E2D3119A71E85DC1A7B0C1E93274CE04DD0F2ABC8AC7C987FDB00
310
2B6F81757B43502EF7A0D92E416494FAEEA4C9C090CD9557AA4D532F4996A272B94355C5A0E4974EEA9627476F30809B94D8D8D860062E02204643BEC7D0438AF800FC7E2B26955D595421E83C69E1A07E0E3122285835F014AD538188CF9737CE76D464A353FA55A001AB2526B84E985083693BC76FE211CA1D000679C889
310
E3C009832C87E1AC2EDD05C302557422DF0800E316FCAC86978A371F025A6C7DAA9F333E7BD160403A1A06EA75AA9888FF01504B0304140006080800238A765751464CB48900000043010000360000006662782F35314230384537342D464530342D343035462D424536312D3633303934424536353631412F646972656374
310
6F72792E786D6C9D8F310EC2300C45AF127987122606C71DD918B841D4B851A43646695A717C52A85029031293A5A76FBF6FACEF7DA7264E43906840EF0FA03836E242F406C6DCEE4EA06AC22492573150D1F66C60C640E8938CB705396EEDD86DE9B5042FE27813D640EA63BB001C722AF6E55CB61E4863F58284D5D3F53D
310
D715CE1C3985E63FD7F1B7EBDD617E9F1E504B0304140006080800238A7657D5EA731D3C070000201C0000340000006662782F35314230384537342D464530342D343035462D424536312D3633303934424536353631412F6F626A656374732E786D6CDD59596FDB3810FE2B84F665F74197AFD885E322B693C228D21635BA
310
D837819669871BEA002525CEFEFA1D52A42C2AB2ADF400169B00B14293C3996FEED1F4FD2162E889F08C26F1B5E53B9E85481C265B1AEFAFAD22DFD9630BBD9FA1294F92BCB6CF42318EC8B52596ADD974CF9322554B5BB2C3056BAEDECDFF4259486262A190E12CBBB6B2F08144D8C1459E6C49F6E86C718E9DFDEEE0F84E
310
B9D124BBE7387D685C95624EE21C5885F518A8280E7CF35F10C99D4D5DB1C1D8D6EFB6AD77669B2B053719A57196E3387CC555E3BADE09AE1AD7F5FDC1F2B6379CD8C3C1A06F0F463DDF9EDFCD97B67FD5F716A3C56272733BB1D06CBA491256292025F116B4F862CDFCA92BBEA9C45728B4F11D26714C428566DB862D5174
310
29C99A9818C0FA52B49A424A596B0BFD8EC29FD8D609148325036D2D9CFEAC5B6FB2F91B40C8BA5829CF88B0F22CE7A06B857DE90FDED42D570DBDD00C4538279C628618DD70CC4141B0B554904146788B20850466528B9A5E9D5730ECCBBED4C6E5AE604CF8AF35939E16803F923C939CD17F083F725FBF0D7802690B1AE7
310
63256CFE920289C9D4958BE577FD9EFAB20412ED18DE83B580986253BFD7C06B2162C16A69CD3EDE6D0E6B111FDA2F4F7992129E0BCB93CEACFC4E6BB0665A607C1D40297135757744E52B40FF0990AF784153D01CA787C161A065E738CE76098F403BC843B6077F3C241E5F3D4DDDEAF00C2123569EC214DCF627616A8861
310
DC5D8374367D02A34F785F09B70E31039BBEA7B1F0733014C412588278BFDB1CACD90A82292CC229CC407AF89DBAE211C1474907E24D43436DE1B783A2B4C334FDECA8AB0F60339C8695AA0C194FE13BFC29F8DE2CD71FD705DFE190DC2BC75E921D8D690EC9B49D210374C3E5BFAD3E498FFCC0920D66C7D3C6A610AED927
310
226EB4A865ADD482A45E801391864BCDC8957B0ADECE188E4952646ABD2D4E85094B78B079094A176EBDEB4F6D03E565CA005A631924F790D3546062CD94B6AA40E8D404050BC35C59E0BED46AB029A234C05152C422D4BE36C5261F106784250255494D1BB6F65A4D764B77BB2283E0D54A726100A9FC59132E2D7C0071AC
310
8D5F4E761C43124DE280420E066769BDC1B8A002EF3CCF1961BB80325644C18E32C8234184D313F43B4A50CF5C8FE4E539E1DB5682A665699FD436240057C06A9074B62A63BED229274F549499329FE96C60EC5075A8351B9C48172253B400AA8D519AF9D81F0EAE6E6F96F6C81B2DEC81BF1CDBF3F97068DF8CBCF16DDF5F
310
0EAE46774D3E75B4AAE73B50A528730CFFCB1F8A681363CAE00B2136DEA6EFDECBEC79ED42687487FE1C2EB91AD877B7DEC01E78C33B7B7E3BF2ED51DF9B0CE06938F26F5C4EB2A4E021C9DC9EEB05DA24D3787F8A2BCDDDEB180A65CDE564A7F5D514E67F1C439B39C150E27F358856B1ABA520EC1A44C5D16608C5E1A348
310
514108555FABFB348268938FB638F7C6B8EC397D4FFEF8FEA4E74D7AE3C9A832F6B3815ADEF3C371AE4D8210FACE220F921487346F4FA80D5C3AC6E937E516A7EF0F11A053FDAD2E399F67D425018DF09E043B2CBA8496C0784982D61CB6674996D19864B2CB7B55FD35687A0E145366CE6D31429A0511C9F1F7D89F6C1B1A
310
360DB19905D08FE6622270B12AA80C5A7520A7288AEE1712B794FF25C87094B2B2D3BD8481DFD310E81EA7CDE204D3E28A27B0B700E781B725727071897AC5BEAE0F5AB5D6A43EF96EF227E0D175CD2F84475FD1BD747286FE44FC8C21A88C867EFF4A2BE21256FAAA5CF471AC80CE337C099E09DD3F742A34BBE9A456B295
310
45754E226863715EF04EFE3A1A7AAF2E5271A1E110B59BDE581CCAFE4D7770809E6CE04E95B7B56BA00EA531CCB93A09F24A8A561396BA90333D31BA7A835F9F55769DEA0FC7CB5F5E31D79D2F92C39FCB3840B55C0660157D8C9ABAB5EA36EAA1EC19E72104D2B5FCB4E7E0115BB23D366606B9B6125DD7A797AAE79508A8
310
114C6CB188B3F7E2817DC5A06AE89E33F74359B4B9E5FA4A24360786D3473E0CA64D5A9F3FAC1B5460A5F3E92F0223F2DCA0A05617A21B3E43EADBEAD8F337282889BEADCE1CFF4F74145A81B5311A4C83B3845118CA932DDA9304B2378C1D3A741B3C2299CCCA60BC2A48E937021D4E3F9533D51C6F983E1D3E60184C33D5
310
8B15210C4521635E5B6A1DFD066350318994C329E711DA3015C32C54707A6D81C5E614BA2D6703E32C393C94D41BE34A706C1CEF45BE2F4F55FF1F8F0974202A1DE5AAF674C1454966381314B6A97C4F00555FF9C56CFAFDA26B7610CEE17153E49530C785A3340A04FD42A0140EA67E8F0ADE031414E7E5F21DB9C780A4D3
310
64FEAC1D9454ED1CF3BD1CAFD7F0BE597E71C5647CF519A5ACD80B759EEB7E0D4AB6E8BA59514EA1A660184ACC148B1A72F1CEFDC21378C514A13B0A46807E3F8C477FB88B248A92B85C726FD48B2AB47E80D74E5B578FFCA08DF7FCA12BA7006AAC1F6C70461CBCCD1E610154CBA9988D96101B065045D39A01688D085DC0
310
3163FF6A89546D549B90D4C3AE8047CEF4113892789723DCA6BEA13680045F00AEE497C707BD3075390CC167FF02504B0304140006080800238A7657731E21B8DD000000530100003C0000006662782F35314230384537342D464530342D343035462D424536312D3633303934424536353631412F7265736F75726365732F
310
322F636E782E786D6C4D90CD6A042110845F45BC8FA393C386E0B82F91532E8B717A8DAC630FFE84DDB74FBB3110105AAA3E9AAAD6E7FB1ED937E41230AD5C09C91924875B487EE5AD5EA757CECE4667C4FA0FE32CD91D56DE656EB4CFD88E216D70B52D763586741BA2BC78489083BB1CC973E6A22D65E5C57DC16E856D15
310
372837B1D96A8512190AB6EC8056D4B0C358E132D80A1B378B5C5E26A5A6657957A7377AF2F4A1E74E1AFD8918071F52858C0773489F4479A49EBB6D74CB6130BD04197FE10485D333D946979AE90203AB8F83B0B05B0FF313F9758D9E7B451ACFFE34FB39CC0F504B0304140006080800238A7657FF15A4A45D0000008000
310
00003A0000006662782F35314230384537342D464530342D343035462D424536312D3633303934424536353631412F7265736F75726365732F636E782E786D6C4D8B3B0E80201005AF42B6F75B59F0390B113044D83508C6E30BC6C26AF226F3B8BA6360974DA7271430F523308B2B198F9B80925DB700539227A2FCCB80A1
310
8E5640D320F996A81C9F32D6E9129A0D1EF74FCE750E6D57BC7165FBCA07504B0304140006080800238A765771FABBFF3D01000046050000300000006662782F35314230384537342D464530342D343035462D424536312D3633303934424536353631412F636E782E786D6CCD94C14E032110865F85705FD85D0F3586A589
310
079FC083F1C6B2D315CBC2060663DF5EA8DBAA31351E9AB4090732FC24FF37F367C4FA7DB2E40D4234DE75B4613525E0B41F8C1B3B9A7053DD52B29622788FDF6494383541474B994A31069FE6A534C046255BAAD6B8ED525488C1F4092152A2AD8AB1A351BFC0A4984AE807885B362854AC6101A24F4143FE8F6682E5BF0E
310
A010062ADBBABDA99AA66ADBC76675974FBD7A16BC28A5E8BDB78BDE3884E067A27DBEB86CA616BC3C4B918259348580CA2F67AC374EF0FC2E45CC6EDDB8E8703717DD3C5BA315E63671AF11B0CA225093E09F622978E1FD41FD70FF747040061340A30FBB0B35A039D580A3319693F03FFEBDF06F6CDFBF66DC4B4DFB24EC
310
62EB6CA887B4C61CD7DFF3CF29526EB4D717FAA3B1F3673EAF1234FAFA900FBECE44CCF72B2F0FBD6C40F901504B0304140006080800238A765701BF1FFF7D000000A30000000B0000006662782F636E782E786D6C4D8CD10A832018855F45FE7B9B32750DD428B0F7886521330D97638F3F1D5DECEA3B7C9C7364F7D93C7A
310
DBF4723128A00D0164C323CE2EAC0AF2B1E01650A7658AF1F8AB010AD36615540D5AAE29E6FD54B35DA6ECABF52E3C4FC9E9405A73637834846146F88807232816577267257141FBB2B8D449C1EFAFB0DEEB2F504B0304140006080800238A7657A6D797065F0000008200000007000000636E782E786D6C4DCB3B0E802010
310
45D1AD90E9FD7516806B51190811670C8A61F982B1B0BAC9C97B72CA7B1037C6D3332918DA1E04D2CAC69353902EDB8C20262D23F3F59B81A079470595414B17391D1F19B4730A5583A7ED43BBE4025D9592775E5ADFFA01504B0304140006080800238A7657ECFD112DA800000026010000130000005B436F6E74656E745F
310
54797065735D2E786D6C7D4F4B0EC22010BD0A61DF525D18634ABB506FE00510A79458060253536F2FD89D5197F3FED3F68B9BD80362B21E25DFD40D6780DADF2C1AC9671AAA3D677DD75E9E0112CB5A4C928F44E12044D22338956A1F003333F8E814E5331A1194BE2B0362DB343BA13D122055543278D79E6050F344ECBC
310
6478EDCD76CE8EABAE5449AE4298AC56946789C28AAFBEABC53F3EAF09A84A1441B91F0101CD4780756578C173A578FFDDBD00504B0304140006080800238A76573DEE336E64000000790000001B0000006175746F6465736B2D64657369676E2D7061636B6167652E786D6C35CBC10E83200C00D05F21DCA56CA76D41FC96
310
062B120735B69A7DBE268BB7777961F8D5AF396893C2ADB70FE7ADA196782C2DF776D7A97B5933C430F15651E5469C55D70F80A4992A3ADC954792C525AE70A1E4D6AD9816CC044FEFDF01FE3FDE907802504B0304140006080800238A765767A2BF38F20000008E0100003D0000006662782F35314230384537342D464530
310
342D343035462D424536312D3633303934424536353631412F7265736F75726365732F322F636F72652E786D6C8550CB6EC32010FC156BEFD8809BD8AD30912DF70F7AEA0D01715162B07854FDFC42EC4AEDA9D24ABB1A6666D96197AFF55E7D6A1F8CB303901A43A5AD74CAD8658014AFA887EAC299772EFEA24165C5AA07
310
283070B67897B60392CE466D0B6A9DD2072842D0112A79CFC300417EE855D422C5CC08B77A13F226165D937AE77196925187D4A8EC66AE467BE033C5789A9E091A5FF1889EDA3345E379EAD109771D9DFB79ECC7136B8A98B368D69FEDD26B11B5024E316D112188D237D2BDE4C2DD3B6B0A93B3107DBEF9585AAECB74D6EC
310
E81FB7B4A9FFDD92B1B1A587DBAE08C049FEDCE381B3A6A493DB23BADC4B92FC1B504B0304140006080800238A7657A7F67AEDF8000000960100003B0000006662782F35314230384537342D464530342D343035462D424536312D3633303934424536353631412F7265736F75726365732F636F72652E786D6C8550CB6EC3
310
2010FC156BEFD8409AD8AD3091A3F40F7AEA0DC1C6458921E251F5F30BB12BB5A74A488B66676677471CBF965BF389215AEF46602D85069DF6C6BA79849C2E6480E62845F03EFDA241E3D482235418A49883CFF70DD2DE25741575DEE006AA183141A36FE53342D41FB8A856E55418F1DADE95BEAA195BD6AE3C2972B66693
310
5A53DCECC5620079E6949E4ECF8C4CAF74224FBB0327D3E134903DED7B7E1ECED330ED4557C55224BBFC4CD7015542039253BE238C11CEDF58FF521EEDDF45579952C414CACDDBD07A1DC880D1E7A0318A6EEDFE71CD77F3BF6BB62EEDF8E6BA2A224856967C34A4E86A4AA53C222CB5262ABF01504B030414000608080023
310
8A76575D0EC4A1F0000000B1010000310000006662782F35314230384537342D464530342D343035462D424536312D3633303934424536353631412F636F72652E786D6C8D50CB6EC32010FC156BEFD8E0675A61A24472BEA0A7DE10101725068B47D4CF2FC4AED4DE2221ED6A98D9995D7AFC5EEEC54339AFAD198194180A
310
658495DACC23C4704507288E8C3A6BC31F1A14862F6A840C03A3B3B371DD21614D5026A3C64AB583DC7B15A010F7D48CE0C5975A78C963480C7F2B572E6E7C562529371EA3412FBF52E1140F4A02AB71DD2042505D7F90E13D3D3C7CD22A33198D51CBDD4ACBE4AEAF5A39601D39E3C334B4E832E116B5B8BBA0F3D413D437
310
F8AD4D5DD79313ADB298511F5CDA791F92B77B55BE09FF658EAB7C21B336A1A977C34DE1819194E7F9C168950F98CAF3BAA9E663B31F504B0304140006080800238A76574B12824452010000DD0200000C0000006662782F636F72652E786D6C8D52CB6E833010FC15E4BBC1380FD2CA38224AFFA0A7DE1C70A815B091B151
310
3EBF6B1EA21CFA10085BB33BB33B23D8F9D936D1206DAF8CCE511A1314495D9A4AE93A47DEDDF1094567CEAC31EE5B1B8AB468658E028C38ABADF1DD0C95463BA903AA4D256750F4BD74282A1BB8E4A82F3F652B62E11D74F48FB813E543D4324EE3A98F33EF55355355056AEAAEA445FC4A09B95C5E525CBC9102EF77478A
310
8BE3E5840F24CBE8F5742D4EC5812581CC9953ED32BDB4523859214E09DDE134C594BEA7D92BBC24FB6049E8E4AC77163CCF43833BC4EFB7274B267CA3E7BBEA6F3DAFB4DBD1596F62F488A7B0DE58E02C09F9C03186B7CD1006437E4EDC9AC5C203A04196CED83D542AE3D7D2201A2F419A44E3C392A90ACAA3C04F3AF417
310
9DDF352028A16B584D38B8DEBC0BD3B73B75D2E2C13D236D6C2B9A75B969C5F5BB0EDA585AE8A5698CFD0F7BB1BA8499841F937F01504B0304140006080800238A76571ACEF62406010000B201000008000000636F72652E786D6C8D50416EC32010FC0ADA3B36E02676234C64CBFD414FBD51435C141B2CC051FBFB42E24A
310
EDAD12D2A299D99DD9E5E7CF654637ED8371B6055A1040DA8E4E193BB5B0C50B6E009D05F7CEC55F3240562EBA850C83E09377DBBA43A3B351DB8C5AA7F40ECA10740434CEE9D342183FF4220BB9C5A408D76295E3554EBAA0C543277834CB4FEBE8B58C5A816084559852CCD82BAD4FE991FA8D975929F8B619B55B1995DC
310
CDC5680F626084F4FD33C5DD0BE9F0537564B83BF60D3E90BA664333744D77E0656E163C449F76DE87A49C110579CBBEBC7C5082BF3B37EF82144A2167E72F10849799F8137A5BD53F421B1B2BB60F7C7404103405BA13C9385F3095FB7953CDD716DF504B01021400140006080800238A7657000000000000000000000000
310
3700000000000000000000000000000000006662782F35314230384537342D464530342D343035462D424536312D3633303934424536353631412F617474726962757465732E62696E504B01021400140006080800238A76570000000000000000000000003500000000000000000000000000550000006662782F35314230
310
384537342D464530342D343035462D424536312D3633303934424536353631412F76657274696365732E62696E504B01021400140006080800238A7657F270F13306000000040000003600000000000000000000000000A80000006662782F35314230384537342D464530342D343035462D424536312D3633303934424536
310
353631412F747269616E676C65732E62696E504B01021400140006080800238A765788E57597CD3F0000904100004200000000000000000000000000020100006662782F35314230384537342D464530342D343035462D424536312D3633303934424536353631412F7265736F75726365732F322F305F67656E657269632E
310
706E67504B01021400140006080800238A765751464CB4890000004301000036000000000000000000000000002F4100006662782F35314230384537342D464530342D343035462D424536312D3633303934424536353631412F6469726563746F72792E786D6C504B01021400140006080800238A7657D5EA731D3C070000
310
201C000034000000000000000000000000000C4200006662782F35314230384537342D464530342D343035462D424536312D3633303934424536353631412F6F626A656374732E786D6C504B01021400140006080800238A7657731E21B8DD000000530100003C000000000000000000000000009A4900006662782F353142
310
30384537342D464530342D343035462D424536312D3633303934424536353631412F7265736F75726365732F322F636E782E786D6C504B01021400140006080800238A7657FF15A4A45D000000800000003A00000000000000000000000000D14A00006662782F35314230384537342D464530342D343035462D424536312D
310
3633303934424536353631412F7265736F75726365732F636E782E786D6C504B01021400140006080800238A765771FABBFF3D010000460500003000000000000000000000000000864B00006662782F35314230384537342D464530342D343035462D424536312D3633303934424536353631412F636E782E786D6C504B01
310
021400140006080800238A765701BF1FFF7D000000A30000000B00000000000000000000000000114D00006662782F636E782E786D6C504B01021400140006080800238A7657A6D797065F000000820000000700000000000000000000000000B74D0000636E782E786D6C504B01021400140006080800238A7657ECFD112D
310
A80000002601000013000000000000000000000000003B4E00005B436F6E74656E745F54797065735D2E786D6C504B01021400140006080800238A76573DEE336E64000000790000001B00000000000000000000000000144F00006175746F6465736B2D64657369676E2D7061636B6167652E786D6C504B01021400140006
310
080800238A765767A2BF38F20000008E0100003D00000000000000000000000000B14F00006662782F35314230384537342D464530342D343035462D424536312D3633303934424536353631412F7265736F75726365732F322F636F72652E786D6C504B01021400140006080800238A7657A7F67AEDF8000000960100003B
310
00000000000000000000000000FE5000006662782F35314230384537342D464530342D343035462D424536312D3633303934424536353631412F7265736F75726365732F636F72652E786D6C504B01021400140006080800238A76575D0EC4A1F0000000B101000031000000000000000000000000004F5200006662782F35
310
314230384537342D464530342D343035462D424536312D3633303934424536353631412F636F72652E786D6C504B01021400140006080800238A76574B12824452010000DD0200000C000000000000000000000000008E5300006662782F636F72652E786D6C504B01021400140006080800238A76571ACEF62406010000B2
310
01000008000000000000000000000000000A550000636F72652E786D6C504B050600000000120012002D060000365600000000
  0
XRECORD
  5
816E
102
{ACAD_REACTORS
330
8169
102
}
330
8169
100
AcDbXrecord
280
     1
270
     1
271
     1
  0
XRECORD
  5
816D
102
{ACAD_REACTORS
330
8169
102
}
330
8169
100
AcDbXrecord
280
     1
270
     1
271
     1
  0
XRECORD
  5
816F
102
{ACAD_REACTORS
330
8169
102
}
330
8169
100
AcDbXrecord
280
     1
270
     1
271
     1
  0
XRECORD
  5
816C
102
{ACAD_REACTORS
330
8169
102
}
330
8169
100
AcDbXrecord
280
     1
270
     1
271
     1
  0
XRECORD
  5
82E8
102
{ACAD_REACTORS
330
82E7
102
}
330
82E7
100
AcDbXrecord
280
     1
102
DISPLAYNAME
  1
Imperial24
102
FLAGS
 90
        0
  0
CELLSTYLEMAP
  5
82AF
102
{ACAD_REACTORS
330
82AE
102
}
330
82AE
100
AcDbCellStyleMap
 90
        3
300
CELLSTYLE
  1
TABLEFORMAT_BEGIN
 90
        5
170
     1
 91
        0
 92
    32768
 62
   257
 93
        1
300
CONTENTFORMAT
  1
CONTENTFORMAT_BEGIN
 90
        0
 91
        0
 92
      512
 93
        0
300

 40
0.0
140
1.0
 94
        5
 62
     0
340
819C
144
0.25
309
CONTENTFORMAT_END
171
     0
 94
        0
309
TABLEFORMAT_END
  1
CELLSTYLE_BEGIN
 90
        1
 91
        1
300
_TITLE
309
CELLSTYLE_END
300
CELLSTYLE
  1
TABLEFORMAT_BEGIN
 90
        5
170
     1
 91
        0
 92
        0
 62
   257
 93
        1
300
CONTENTFORMAT
  1
CONTENTFORMAT_BEGIN
 90
        0
 91
        0
 92
      512
 93
        0
300

 40
0.0
140
1.0
 94
        5
 62
     0
340
819C
144
0.18
309
CONTENTFORMAT_END
171
     0
 94
        0
309
TABLEFORMAT_END
  1
CELLSTYLE_BEGIN
 90
        2
 91
        1
300
_HEADER
309
CELLSTYLE_END
300
CELLSTYLE
  1
TABLEFORMAT_BEGIN
 90
        5
170
     1
 91
        0
 92
        0
 62
   257
 93
        1
300
CONTENTFORMAT
  1
CONTENTFORMAT_BEGIN
 90
        0
 91
        0
 92
      512
 93
        0
300

 40
0.0
140
1.0
 94
        2
 62
     0
340
819C
144
0.18
309
CONTENTFORMAT_END
171
     0
 94
        0
309
TABLEFORMAT_END
  1
CELLSTYLE_BEGIN
 90
        3
 91
        2
300
_DATA
309
CELLSTYLE_END
  0
XRECORD
  5
82E5
102
{ACAD_REACTORS
330
82AE
102
}
330
82AE
100
AcDbXrecord
280
     1
102
ACAD_ROUNDTRIP_PRE2007_TABLESTYLE
 90
      512
 91
        0
  1

 92
      512
 93
        0
  2

 94
      512
 95
        0
  3

  0
XRECORD
  5
82C0
102
{ACAD_REACTORS
330
82BF
102
}
330
82BF
100
AcDbXrecord
280
     1
102
RTVSPost2010Prop28
280
     1
102
RTVSPost2010PropOp28
 70
     1
102
RTVSPost2010Prop29
280
     1
102
RTVSPost2010PropOp29
 70
     1
102
RTVSPost2010Prop30
280
     0
102
RTVSPost2010PropOp30
 70
     1
102
RTVSPost2010Prop31
280
     0
102
RTVSPost2010PropOp31
 70
     1
102
RTVSPost2010Prop32
280
     0
102
RTVSPost2010PropOp32
 70
     1
102
RTVSPost2010Prop33
280
     0
102
RTVSPost2010PropOp33
 70
     1
102
RTVSPost2010Prop34
280
     0
102
RTVSPost2010PropOp34
 70
     1
102
RTVSPost2010Prop35
280
     0
102
RTVSPost2010PropOp35
 70
     1
102
RTVSPost2010Prop36
280
     0
102
RTVSPost2010PropOp36
 70
     1
102
RTVSPost2010Prop37
 90
       50
102
RTVSPost2010PropOp37
 70
     1
102
RTVSPost2010Prop38
140
0.0
102
RTVSPost2010PropOp38
 70
     1
102
RTVSPost2010Prop39
140
1.0
102
RTVSPost2010PropOp39
 70
     1
102
RTVSPost2010Prop40
 90
        0
102
RTVSPost2010PropOp40
 70
     1
102
RTVSPost2010Prop41ColorIndex
 90
       18
102
RTVSPost2010Prop41ColorRGB
 90
        0
102
RTVSPost2010PropOp41
 70
     1
102
RTVSPost2010Prop42
 90
       50
102
RTVSPost2010PropOp42
 70
     1
102
RTVSPost2010Prop43
 90
        3
102
RTVSPost2010PropOp43
 70
     1
102
RTVSPost2010Prop44ColorIndex
 90
        5
102
RTVSPost2010Prop44ColorRGB
 90
      255
102
RTVSPost2010PropOp44
 70
     1
102
RTVSPost2010Prop45
280
     0
102
RTVSPost2010PropOp45
 70
     1
102
RTVSPost2010Prop46
 90
       50
102
RTVSPost2010PropOp46
 70
     1
102
RTVSPost2010Prop47
 90
       50
102
RTVSPost2010PropOp47
 70
     1
102
RTVSPost2010Prop48
 90
       50
102
RTVSPost2010PropOp48
 70
     1
102
RTVSPost2010Prop49
280
     0
102
RTVSPost2010PropOp49
 70
     1
102
RTVSPost2010Prop50
 90
       50
102
RTVSPost2010PropOp50
 70
     1
102
RTVSPost2010Prop51ColorIndex
 90
      256
102
RTVSPost2010Prop51ColorRGB
 90
-16777216
102
RTVSPost2010PropOp51
 70
     0
102
RTVSPost2010Prop52
140
1.0
102
RTVSPost2010PropOp52
 70
     0
102
RTVSPost2010Prop53
 90
        2
102
RTVSPost2010PropOp53
 70
     1
102
RTVSPost2010Prop54
  1
strokes_ogs.tif
102
RTVSPost2010PropOp54
 70
     1
102
RTVSPost2010Prop55
280
     0
102
RTVSPost2010PropOp55
 70
     1
102
RTVSPost2010Prop56
140
1.0
102
RTVSPost2010PropOp56
 70
     1
102
RTVSPost2010Prop57
140
1.0
102
RTVSPost2010PropOp57
 70
     1
102
RTVSPropertyOp0
 70
     1
102
RTVSPropertyOp1
 70
     1
102
RTVSPropertyOp2
 70
     1
102
RTVSPropertyOp3
 70
     1
102
RTVSPropertyOp4
 70
     1
102
RTVSPropertyOp5
 70
     1
102
RTVSPropertyOp6
 70
     1
102
RTVSPropertyOp7
 70
     1
102
RTVSPropertyOp8
 70
     1
102
RTVSPropertyOp9
 70
     1
102
RTVSPropertyOp10
 70
     1
102
RTVSPropertyOp11
 70
     1
102
RTVSPropertyOp12
 70
     1
102
RTVSPropertyOp13
 70
     1
102
RTVSPropertyOp14
 70
     1
102
RTVSPropertyOp15
 70
     1
102
RTVSPropertyOp16
 70
     1
102
RTVSPropertyOp17
 70
     1
102
RTVSPropertyOp18
 70
     1
102
RTVSPropertyOp19
 70
     1
102
RTVSPropertyOp20
 70
     1
102
RTVSPropertyOp21
 70
     1
102
RTVSPropertyOp22
 70
     1
102
RTVSPropertyOp23
 70
     1
102
RTVSPropertyOp24
 70
     1
102
RTVSPropertyOp25
 70
     1
102
RTVSPropertyOp26
 70
     1
102
RTVSPropertyOp27
 70
     1
102
RTVSPropertyOp28
 70
     1
102
RTVSPropertyOp29
 70
     1
102
RTVSPropertyOp30
 70
     1
102
RTVSPropertyOp31
 70
     1
102
RTVSPropertyOp32
 70
     1
102
RTVSPropertyOp33
 70
     1
102
RTVSPropertyOp34
 70
     1
102
RTVSPropertyOp35
 70
     1
102
RTVSPropertyOp36
 70
     1
102
RTVSPropertyOp37
 70
     1
102
RTVSPropertyOp38
 70
     1
102
RTVSPropertyOp39
 70
     1
102
RTVSPropertyOp40
 70
     1
102
RTVSPropertyOp41
 70
     1
102
RTVSPropertyOp42
 70
     1
102
RTVSPropertyOp43
 70
     1
102
RTVSPropertyOp44
 70
     1
102
RTVSPropertyOp45
 70
     1
102
RTVSPropertyOp46
 70
     1
102
RTVSPropertyOp47
 70
     1
102
RTVSPropertyOp48
 70
     1
102
RTVSPropertyOp49
 70
     1
102
RTVSPropertyOp50
 70
     1
102
RTVSPropertyOp51
 70
     0
102
RTVSPropertyOp52
 70
     0
102
RTVSPropertyOp53
 70
     1
102
RTVSPropertyOp54
 70
     1
102
RTVSPropertyOp55
 70
     1
102
RTVSPropertyOp56
 70
     1
102
RTVSPropertyOp57
 70
     1
102
RTVSPropertyOp58
 70
     1
102
RTVSPropertyOp59
 70
     1
102
RTVSPropertyOp60
 70
     1
102
RTVSPropertyOp61
 70
     1
102
RTVSPropertyOp62
 70
     1
  0
XRECORD
  5
82BE
102
{ACAD_REACTORS
330
82BD
102
}
330
82BD
100
AcDbXrecord
280
     1
102
RTVSPost2010Prop28
280
     0
102
RTVSPost2010PropOp28
 70
     1
102
RTVSPost2010Prop29
280
     1
102
RTVSPost2010PropOp29
 70
     1
102
RTVSPost2010Prop30
280
     1
102
RTVSPost2010PropOp30
 70
     1
102
RTVSPost2010Prop31
280
     0
102
RTVSPost2010PropOp31
 70
     1
102
RTVSPost2010Prop32
280
     0
102
RTVSPost2010PropOp32
 70
     1
102
RTVSPost2010Prop33
280
     0
102
RTVSPost2010PropOp33
 70
     1
102
RTVSPost2010Prop34
280
     0
102
RTVSPost2010PropOp34
 70
     1
102
RTVSPost2010Prop35
280
     0
102
RTVSPost2010PropOp35
 70
     1
102
RTVSPost2010Prop36
280
     0
102
RTVSPost2010PropOp36
 70
     1
102
RTVSPost2010Prop37
 90
       50
102
RTVSPost2010PropOp37
 70
     1
102
RTVSPost2010Prop38
140
0.0
102
RTVSPost2010PropOp38
 70
     1
102
RTVSPost2010Prop39
140
1.0
102
RTVSPost2010PropOp39
 70
     1
102
RTVSPost2010Prop40
 90
        0
102
RTVSPost2010PropOp40
 70
     1
102
RTVSPost2010Prop41ColorIndex
 90
       18
102
RTVSPost2010Prop41ColorRGB
 90
        0
102
RTVSPost2010PropOp41
 70
     1
102
RTVSPost2010Prop42
 90
       50
102
RTVSPost2010PropOp42
 70
     1
102
RTVSPost2010Prop43
 90
        3
102
RTVSPost2010PropOp43
 70
     1
102
RTVSPost2010Prop44ColorIndex
 90
        5
102
RTVSPost2010Prop44ColorRGB
 90
      255
102
RTVSPost2010PropOp44
 70
     1
102
RTVSPost2010Prop45
280
     0
102
RTVSPost2010PropOp45
 70
     1
102
RTVSPost2010Prop46
 90
       50
102
RTVSPost2010PropOp46
 70
     1
102
RTVSPost2010Prop47
 90
       50
102
RTVSPost2010PropOp47
 70
     1
102
RTVSPost2010Prop48
 90
       50
102
RTVSPost2010PropOp48
 70
     1
102
RTVSPost2010Prop49
280
     0
102
RTVSPost2010PropOp49
 70
     1
102
RTVSPost2010Prop50
 90
       50
102
RTVSPost2010PropOp50
 70
     1
102
RTVSPost2010Prop51ColorIndex
 90
      256
102
RTVSPost2010Prop51ColorRGB
 90
-16777216
102
RTVSPost2010PropOp51
 70
     0
102
RTVSPost2010Prop52
140
1.0
102
RTVSPost2010PropOp52
 70
     0
102
RTVSPost2010Prop53
 90
        2
102
RTVSPost2010PropOp53
 70
     1
102
RTVSPost2010Prop54
  1
strokes_ogs.tif
102
RTVSPost2010PropOp54
 70
     1
102
RTVSPost2010Prop55
280
     0
102
RTVSPost2010PropOp55
 70
     1
102
RTVSPost2010Prop56
140
1.0
102
RTVSPost2010PropOp56
 70
     1
102
RTVSPost2010Prop57
140
1.0
102
RTVSPost2010PropOp57
 70
     1
102
RTVSPropertyOp0
 70
     1
102
RTVSPropertyOp1
 70
     1
102
RTVSPropertyOp2
 70
     1
102
RTVSPropertyOp3
 70
     1
102
RTVSPropertyOp4
 70
     1
102
RTVSPropertyOp5
 70
     1
102
RTVSPropertyOp6
 70
     1
102
RTVSPropertyOp7
 70
     1
102
RTVSPropertyOp8
 70
     1
102
RTVSPropertyOp9
 70
     1
102
RTVSPropertyOp10
 70
     1
102
RTVSPropertyOp11
 70
     1
102
RTVSPropertyOp12
 70
     1
102
RTVSPropertyOp13
 70
     1
102
RTVSPropertyOp14
 70
     1
102
RTVSPropertyOp15
 70
     1
102
RTVSPropertyOp16
 70
     1
102
RTVSPropertyOp17
 70
     1
102
RTVSPropertyOp18
 70
     1
102
RTVSPropertyOp19
 70
     1
102
RTVSPropertyOp20
 70
     1
102
RTVSPropertyOp21
 70
     1
102
RTVSPropertyOp22
 70
     1
102
RTVSPropertyOp23
 70
     1
102
RTVSPropertyOp24
 70
     1
102
RTVSPropertyOp25
 70
     1
102
RTVSPropertyOp26
 70
     1
102
RTVSPropertyOp27
 70
     1
102
RTVSPropertyOp28
 70
     1
102
RTVSPropertyOp29
 70
     1
102
RTVSPropertyOp30
 70
     1
102
RTVSPropertyOp31
 70
     1
102
RTVSPropertyOp32
 70
     1
102
RTVSPropertyOp33
 70
     1
102
RTVSPropertyOp34
 70
     1
102
RTVSPropertyOp35
 70
     1
102
RTVSPropertyOp36
 70
     1
102
RTVSPropertyOp37
 70
     1
102
RTVSPropertyOp38
 70
     1
102
RTVSPropertyOp39
 70
     1
102
RTVSPropertyOp40
 70
     1
102
RTVSPropertyOp41
 70
     1
102
RTVSPropertyOp42
 70
     1
102
RTVSPropertyOp43
 70
     1
102
RTVSPropertyOp44
 70
     1
102
RTVSPropertyOp45
 70
     1
102
RTVSPropertyOp46
 70
     1
102
RTVSPropertyOp47
 70
     1
102
RTVSPropertyOp48
 70
     1
102
RTVSPropertyOp49
 70
     1
102
RTVSPropertyOp50
 70
     1
102
RTVSPropertyOp51
 70
     0
102
RTVSPropertyOp52
 70
     0
102
RTVSPropertyOp53
 70
     1
102
RTVSPropertyOp54
 70
     1
102
RTVSPropertyOp55
 70
     1
102
RTVSPropertyOp56
 70
     1
102
RTVSPropertyOp57
 70
     1
102
RTVSPropertyOp58
 70
     1
102
RTVSPropertyOp59
 70
     1
102
RTVSPropertyOp60
 70
     1
102
RTVSPropertyOp61
 70
     1
102
RTVSPropertyOp62
 70
     1
  0
XRECORD
  5
82CC
102
{ACAD_REACTORS
330
82CB
102
}
330
82CB
100
AcDbXrecord
280
     1
102
RTVSPost2010Prop28
280
     0
102
RTVSPost2010PropOp28
 70
     1
102
RTVSPost2010Prop29
280
     1
102
RTVSPost2010PropOp29
 70
     1
102
RTVSPost2010Prop30
280
     1
102
RTVSPost2010PropOp30
 70
     1
102
RTVSPost2010Prop31
280
     0
102
RTVSPost2010PropOp31
 70
     1
102
RTVSPost2010Prop32
280
     0
102
RTVSPost2010PropOp32
 70
     1
102
RTVSPost2010Prop33
280
     0
102
RTVSPost2010PropOp33
 70
     1
102
RTVSPost2010Prop34
280
     0
102
RTVSPost2010PropOp34
 70
     1
102
RTVSPost2010Prop35
280
     0
102
RTVSPost2010PropOp35
 70
     1
102
RTVSPost2010Prop36
280
     0
102
RTVSPost2010PropOp36
 70
     1
102
RTVSPost2010Prop37
 90
       50
102
RTVSPost2010PropOp37
 70
     1
102
RTVSPost2010Prop38
140
0.0
102
RTVSPost2010PropOp38
 70
     1
102
RTVSPost2010Prop39
140
1.0
102
RTVSPost2010PropOp39
 70
     1
102
RTVSPost2010Prop40
 90
        0
102
RTVSPost2010PropOp40
 70
     1
102
RTVSPost2010Prop41ColorIndex
 90
       18
102
RTVSPost2010Prop41ColorRGB
 90
        0
102
RTVSPost2010PropOp41
 70
     1
102
RTVSPost2010Prop42
 90
       50
102
RTVSPost2010PropOp42
 70
     1
102
RTVSPost2010Prop43
 90
        3
102
RTVSPost2010PropOp43
 70
     1
102
RTVSPost2010Prop44ColorIndex
 90
        5
102
RTVSPost2010Prop44ColorRGB
 90
      255
102
RTVSPost2010PropOp44
 70
     1
102
RTVSPost2010Prop45
280
     0
102
RTVSPost2010PropOp45
 70
     1
102
RTVSPost2010Prop46
 90
       50
102
RTVSPost2010PropOp46
 70
     1
102
RTVSPost2010Prop47
 90
       50
102
RTVSPost2010PropOp47
 70
     1
102
RTVSPost2010Prop48
 90
       50
102
RTVSPost2010PropOp48
 70
     1
102
RTVSPost2010Prop49
280
     0
102
RTVSPost2010PropOp49
 70
     1
102
RTVSPost2010Prop50
 90
       50
102
RTVSPost2010PropOp50
 70
     1
102
RTVSPost2010Prop51ColorIndex
 90
      256
102
RTVSPost2010Prop51ColorRGB
 90
-16777216
102
RTVSPost2010PropOp51
 70
     0
102
RTVSPost2010Prop52
140
1.0
102
RTVSPost2010PropOp52
 70
     0
102
RTVSPost2010Prop53
 90
        2
102
RTVSPost2010PropOp53
 70
     1
102
RTVSPost2010Prop54
  1
strokes_ogs.tif
102
RTVSPost2010PropOp54
 70
     1
102
RTVSPost2010Prop55
280
     0
102
RTVSPost2010PropOp55
 70
     1
102
RTVSPost2010Prop56
140
1.0
102
RTVSPost2010PropOp56
 70
     1
102
RTVSPost2010Prop57
140
1.0
102
RTVSPost2010PropOp57
 70
     1
102
RTVSPropertyOp0
 70
     1
102
RTVSPropertyOp1
 70
     1
102
RTVSPropertyOp2
 70
     1
102
RTVSPropertyOp3
 70
     1
102
RTVSPropertyOp4
 70
     1
102
RTVSPropertyOp5
 70
     1
102
RTVSPropertyOp6
 70
     1
102
RTVSPropertyOp7
 70
     1
102
RTVSPropertyOp8
 70
     1
102
RTVSPropertyOp9
 70
     1
102
RTVSPropertyOp10
 70
     1
102
RTVSPropertyOp11
 70
     1
102
RTVSPropertyOp12
 70
     1
102
RTVSPropertyOp13
 70
     1
102
RTVSPropertyOp14
 70
     1
102
RTVSPropertyOp15
 70
     1
102
RTVSPropertyOp16
 70
     1
102
RTVSPropertyOp17
 70
     1
102
RTVSPropertyOp18
 70
     1
102
RTVSPropertyOp19
 70
     1
102
RTVSPropertyOp20
 70
     1
102
RTVSPropertyOp21
 70
     1
102
RTVSPropertyOp22
 70
     1
102
RTVSPropertyOp23
 70
     1
102
RTVSPropertyOp24
 70
     1
102
RTVSPropertyOp25
 70
     1
102
RTVSPropertyOp26
 70
     1
102
RTVSPropertyOp27
 70
     1
102
RTVSPropertyOp28
 70
     1
102
RTVSPropertyOp29
 70
     1
102
RTVSPropertyOp30
 70
     1
102
RTVSPropertyOp31
 70
     1
102
RTVSPropertyOp32
 70
     1
102
RTVSPropertyOp33
 70
     1
102
RTVSPropertyOp34
 70
     1
102
RTVSPropertyOp35
 70
     1
102
RTVSPropertyOp36
 70
     1
102
RTVSPropertyOp37
 70
     1
102
RTVSPropertyOp38
 70
     1
102
RTVSPropertyOp39
 70
     1
102
RTVSPropertyOp40
 70
     1
102
RTVSPropertyOp41
 70
     1
102
RTVSPropertyOp42
 70
     1
102
RTVSPropertyOp43
 70
     1
102
RTVSPropertyOp44
 70
     1
102
RTVSPropertyOp45
 70
     1
102
RTVSPropertyOp46
 70
     1
102
RTVSPropertyOp47
 70
     1
102
RTVSPropertyOp48
 70
     1
102
RTVSPropertyOp49
 70
     1
102
RTVSPropertyOp50
 70
     1
102
RTVSPropertyOp51
 70
     0
102
RTVSPropertyOp52
 70
     0
102
RTVSPropertyOp53
 70
     1
102
RTVSPropertyOp54
 70
     1
102
RTVSPropertyOp55
 70
     1
102
RTVSPropertyOp56
 70
     1
102
RTVSPropertyOp57
 70
     1
102
RTVSPropertyOp58
 70
     1
102
RTVSPropertyOp59
 70
     1
102
RTVSPropertyOp60
 70
     1
102
RTVSPropertyOp61
 70
     1
102
RTVSPropertyOp62
 70
     1
  0
XRECORD
  5
82D4
102
{ACAD_REACTORS
330
82D3
102
}
330
82D3
100
AcDbXrecord
280
     1
102
RTVSPost2010Prop28
280
     0
102
RTVSPost2010PropOp28
 70
     1
102
RTVSPost2010Prop29
280
     1
102
RTVSPost2010PropOp29
 70
     1
102
RTVSPost2010Prop30
280
     1
102
RTVSPost2010PropOp30
 70
     1
102
RTVSPost2010Prop31
280
     0
102
RTVSPost2010PropOp31
 70
     1
102
RTVSPost2010Prop32
280
     0
102
RTVSPost2010PropOp32
 70
     1
102
RTVSPost2010Prop33
280
     0
102
RTVSPost2010PropOp33
 70
     1
102
RTVSPost2010Prop34
280
     0
102
RTVSPost2010PropOp34
 70
     1
102
RTVSPost2010Prop35
280
     0
102
RTVSPost2010PropOp35
 70
     1
102
RTVSPost2010Prop36
280
     0
102
RTVSPost2010PropOp36
 70
     1
102
RTVSPost2010Prop37
 90
       50
102
RTVSPost2010PropOp37
 70
     1
102
RTVSPost2010Prop38
140
0.0
102
RTVSPost2010PropOp38
 70
     1
102
RTVSPost2010Prop39
140
1.0
102
RTVSPost2010PropOp39
 70
     1
102
RTVSPost2010Prop40
 90
        0
102
RTVSPost2010PropOp40
 70
     1
102
RTVSPost2010Prop41ColorIndex
 90
       18
102
RTVSPost2010Prop41ColorRGB
 90
        0
102
RTVSPost2010PropOp41
 70
     1
102
RTVSPost2010Prop42
 90
       50
102
RTVSPost2010PropOp42
 70
     1
102
RTVSPost2010Prop43
 90
        3
102
RTVSPost2010PropOp43
 70
     1
102
RTVSPost2010Prop44ColorIndex
 90
        5
102
RTVSPost2010Prop44ColorRGB
 90
      255
102
RTVSPost2010PropOp44
 70
     1
102
RTVSPost2010Prop45
280
     0
102
RTVSPost2010PropOp45
 70
     1
102
RTVSPost2010Prop46
 90
       50
102
RTVSPost2010PropOp46
 70
     1
102
RTVSPost2010Prop47
 90
       50
102
RTVSPost2010PropOp47
 70
     1
102
RTVSPost2010Prop48
 90
       50
102
RTVSPost2010PropOp48
 70
     1
102
RTVSPost2010Prop49
280
     0
102
RTVSPost2010PropOp49
 70
     1
102
RTVSPost2010Prop50
 90
       50
102
RTVSPost2010PropOp50
 70
     1
102
RTVSPost2010Prop51ColorIndex
 90
      256
102
RTVSPost2010Prop51ColorRGB
 90
-16777216
102
RTVSPost2010PropOp51
 70
     0
102
RTVSPost2010Prop52
140
1.0
102
RTVSPost2010PropOp52
 70
     0
102
RTVSPost2010Prop53
 90
        2
102
RTVSPost2010PropOp53
 70
     1
102
RTVSPost2010Prop54
  1
strokes_ogs.tif
102
RTVSPost2010PropOp54
 70
     1
102
RTVSPost2010Prop55
280
     0
102
RTVSPost2010PropOp55
 70
     1
102
RTVSPost2010Prop56
140
1.0
102
RTVSPost2010PropOp56
 70
     1
102
RTVSPost2010Prop57
140
1.0
102
RTVSPost2010PropOp57
 70
     1
102
RTVSPropertyOp0
 70
     1
102
RTVSPropertyOp1
 70
     1
102
RTVSPropertyOp2
 70
     1
102
RTVSPropertyOp3
 70
     1
102
RTVSPropertyOp4
 70
     1
102
RTVSPropertyOp5
 70
     1
102
RTVSPropertyOp6
 70
     1
102
RTVSPropertyOp7
 70
     1
102
RTVSPropertyOp8
 70
     1
102
RTVSPropertyOp9
 70
     1
102
RTVSPropertyOp10
 70
     1
102
RTVSPropertyOp11
 70
     1
102
RTVSPropertyOp12
 70
     1
102
RTVSPropertyOp13
 70
     1
102
RTVSPropertyOp14
 70
     1
102
RTVSPropertyOp15
 70
     1
102
RTVSPropertyOp16
 70
     1
102
RTVSPropertyOp17
 70
     1
102
RTVSPropertyOp18
 70
     1
102
RTVSPropertyOp19
 70
     1
102
RTVSPropertyOp20
 70
     1
102
RTVSPropertyOp21
 70
     1
102
RTVSPropertyOp22
 70
     1
102
RTVSPropertyOp23
 70
     1
102
RTVSPropertyOp24
 70
     1
102
RTVSPropertyOp25
 70
     1
102
RTVSPropertyOp26
 70
     1
102
RTVSPropertyOp27
 70
     1
102
RTVSPropertyOp28
 70
     1
102
RTVSPropertyOp29
 70
     1
102
RTVSPropertyOp30
 70
     1
102
RTVSPropertyOp31
 70
     1
102
RTVSPropertyOp32
 70
     1
102
RTVSPropertyOp33
 70
     1
102
RTVSPropertyOp34
 70
     1
102
RTVSPropertyOp35
 70
     1
102
RTVSPropertyOp36
 70
     1
102
RTVSPropertyOp37
 70
     1
102
RTVSPropertyOp38
 70
     1
102
RTVSPropertyOp39
 70
     1
102
RTVSPropertyOp40
 70
     1
102
RTVSPropertyOp41
 70
     1
102
RTVSPropertyOp42
 70
     1
102
RTVSPropertyOp43
 70
     1
102
RTVSPropertyOp44
 70
     1
102
RTVSPropertyOp45
 70
     1
102
RTVSPropertyOp46
 70
     1
102
RTVSPropertyOp47
 70
     1
102
RTVSPropertyOp48
 70
     1
102
RTVSPropertyOp49
 70
     1
102
RTVSPropertyOp50
 70
     1
102
RTVSPropertyOp51
 70
     0
102
RTVSPropertyOp52
 70
     0
102
RTVSPropertyOp53
 70
     1
102
RTVSPropertyOp54
 70
     1
102
RTVSPropertyOp55
 70
     1
102
RTVSPropertyOp56
 70
     1
102
RTVSPropertyOp57
 70
     1
102
RTVSPropertyOp58
 70
     1
102
RTVSPropertyOp59
 70
     1
102
RTVSPropertyOp60
 70
     1
102
RTVSPropertyOp61
 70
     1
102
RTVSPropertyOp62
 70
     1
  0
XRECORD
  5
82C6
102
{ACAD_REACTORS
330
82C5
102
}
330
82C5
100
AcDbXrecord
280
     1
102
RTVSPost2010Prop28
280
     0
102
RTVSPost2010PropOp28
 70
     1
102
RTVSPost2010Prop29
280
     1
102
RTVSPost2010PropOp29
 70
     1
102
RTVSPost2010Prop30
280
     1
102
RTVSPost2010PropOp30
 70
     1
102
RTVSPost2010Prop31
280
     0
102
RTVSPost2010PropOp31
 70
     1
102
RTVSPost2010Prop32
280
     0
102
RTVSPost2010PropOp32
 70
     1
102
RTVSPost2010Prop33
280
     0
102
RTVSPost2010PropOp33
 70
     1
102
RTVSPost2010Prop34
280
     0
102
RTVSPost2010PropOp34
 70
     1
102
RTVSPost2010Prop35
280
     0
102
RTVSPost2010PropOp35
 70
     1
102
RTVSPost2010Prop36
280
     0
102
RTVSPost2010PropOp36
 70
     1
102
RTVSPost2010Prop37
 90
       50
102
RTVSPost2010PropOp37
 70
     1
102
RTVSPost2010Prop38
140
0.0
102
RTVSPost2010PropOp38
 70
     1
102
RTVSPost2010Prop39
140
1.0
102
RTVSPost2010PropOp39
 70
     1
102
RTVSPost2010Prop40
 90
        0
102
RTVSPost2010PropOp40
 70
     1
102
RTVSPost2010Prop41ColorIndex
 90
       18
102
RTVSPost2010Prop41ColorRGB
 90
        0
102
RTVSPost2010PropOp41
 70
     1
102
RTVSPost2010Prop42
 90
       50
102
RTVSPost2010PropOp42
 70
     1
102
RTVSPost2010Prop43
 90
        3
102
RTVSPost2010PropOp43
 70
     1
102
RTVSPost2010Prop44ColorIndex
 90
        5
102
RTVSPost2010Prop44ColorRGB
 90
      255
102
RTVSPost2010PropOp44
 70
     1
102
RTVSPost2010Prop45
280
     0
102
RTVSPost2010PropOp45
 70
     1
102
RTVSPost2010Prop46
 90
       50
102
RTVSPost2010PropOp46
 70
     1
102
RTVSPost2010Prop47
 90
       50
102
RTVSPost2010PropOp47
 70
     1
102
RTVSPost2010Prop48
 90
       50
102
RTVSPost2010PropOp48
 70
     1
102
RTVSPost2010Prop49
280
     0
102
RTVSPost2010PropOp49
 70
     1
102
RTVSPost2010Prop50
 90
       50
102
RTVSPost2010PropOp50
 70
     1
102
RTVSPost2010Prop51ColorIndex
 90
      256
102
RTVSPost2010Prop51ColorRGB
 90
-16777216
102
RTVSPost2010PropOp51
 70
     0
102
RTVSPost2010Prop52
140
1.0
102
RTVSPost2010PropOp52
 70
     0
102
RTVSPost2010Prop53
 90
        2
102
RTVSPost2010PropOp53
 70
     1
102
RTVSPost2010Prop54
  1
strokes_ogs.tif
102
RTVSPost2010PropOp54
 70
     1
102
RTVSPost2010Prop55
280
     0
102
RTVSPost2010PropOp55
 70
     1
102
RTVSPost2010Prop56
140
1.0
102
RTVSPost2010PropOp56
 70
     1
102
RTVSPost2010Prop57
140
1.0
102
RTVSPost2010PropOp57
 70
     1
102
RTVSPropertyOp0
 70
     1
102
RTVSPropertyOp1
 70
     1
102
RTVSPropertyOp2
 70
     1
102
RTVSPropertyOp3
 70
     1
102
RTVSPropertyOp4
 70
     1
102
RTVSPropertyOp5
 70
     1
102
RTVSPropertyOp6
 70
     1
102
RTVSPropertyOp7
 70
     1
102
RTVSPropertyOp8
 70
     1
102
RTVSPropertyOp9
 70
     1
102
RTVSPropertyOp10
 70
     1
102
RTVSPropertyOp11
 70
     1
102
RTVSPropertyOp12
 70
     1
102
RTVSPropertyOp13
 70
     1
102
RTVSPropertyOp14
 70
     1
102
RTVSPropertyOp15
 70
     1
102
RTVSPropertyOp16
 70
     1
102
RTVSPropertyOp17
 70
     1
102
RTVSPropertyOp18
 70
     1
102
RTVSPropertyOp19
 70
     1
102
RTVSPropertyOp20
 70
     1
102
RTVSPropertyOp21
 70
     1
102
RTVSPropertyOp22
 70
     1
102
RTVSPropertyOp23
 70
     1
102
RTVSPropertyOp24
 70
     1
102
RTVSPropertyOp25
 70
     1
102
RTVSPropertyOp26
 70
     1
102
RTVSPropertyOp27
 70
     1
102
RTVSPropertyOp28
 70
     1
102
RTVSPropertyOp29
 70
     1
102
RTVSPropertyOp30
 70
     1
102
RTVSPropertyOp31
 70
     1
102
RTVSPropertyOp32
 70
     1
102
RTVSPropertyOp33
 70
     1
102
RTVSPropertyOp34
 70
     1
102
RTVSPropertyOp35
 70
     1
102
RTVSPropertyOp36
 70
     1
102
RTVSPropertyOp37
 70
     1
102
RTVSPropertyOp38
 70
     1
102
RTVSPropertyOp39
 70
     1
102
RTVSPropertyOp40
 70
     1
102
RTVSPropertyOp41
 70
     1
102
RTVSPropertyOp42
 70
     1
102
RTVSPropertyOp43
 70
     1
102
RTVSPropertyOp44
 70
     1
102
RTVSPropertyOp45
 70
     1
102
RTVSPropertyOp46
 70
     1
102
RTVSPropertyOp47
 70
     1
102
RTVSPropertyOp48
 70
     1
102
RTVSPropertyOp49
 70
     1
102
RTVSPropertyOp50
 70
     1
102
RTVSPropertyOp51
 70
     0
102
RTVSPropertyOp52
 70
     0
102
RTVSPropertyOp53
 70
     1
102
RTVSPropertyOp54
 70
     1
102
RTVSPropertyOp55
 70
     1
102
RTVSPropertyOp56
 70
     1
102
RTVSPropertyOp57
 70
     1
102
RTVSPropertyOp58
 70
     1
102
RTVSPropertyOp59
 70
     1
102
RTVSPropertyOp60
 70
     1
102
RTVSPropertyOp61
 70
     1
102
RTVSPropertyOp62
 70
     1
  0
XRECORD
  5
82CA
102
{ACAD_REACTORS
330
82C9
102
}
330
82C9
100
AcDbXrecord
280
     1
102
RTVSPost2010Prop28
280
     0
102
RTVSPost2010PropOp28
 70
     1
102
RTVSPost2010Prop29
280
     1
102
RTVSPost2010PropOp29
 70
     1
102
RTVSPost2010Prop30
280
     1
102
RTVSPost2010PropOp30
 70
     1
102
RTVSPost2010Prop31
280
     0
102
RTVSPost2010PropOp31
 70
     1
102
RTVSPost2010Prop32
280
     0
102
RTVSPost2010PropOp32
 70
     1
102
RTVSPost2010Prop33
280
     0
102
RTVSPost2010PropOp33
 70
     1
102
RTVSPost2010Prop34
280
     0
102
RTVSPost2010PropOp34
 70
     1
102
RTVSPost2010Prop35
280
     0
102
RTVSPost2010PropOp35
 70
     1
102
RTVSPost2010Prop36
280
     0
102
RTVSPost2010PropOp36
 70
     1
102
RTVSPost2010Prop37
 90
       50
102
RTVSPost2010PropOp37
 70
     1
102
RTVSPost2010Prop38
140
0.0
102
RTVSPost2010PropOp38
 70
     1
102
RTVSPost2010Prop39
140
1.0
102
RTVSPost2010PropOp39
 70
     1
102
RTVSPost2010Prop40
 90
        0
102
RTVSPost2010PropOp40
 70
     1
102
RTVSPost2010Prop41ColorIndex
 90
       18
102
RTVSPost2010Prop41ColorRGB
 90
        0
102
RTVSPost2010PropOp41
 70
     1
102
RTVSPost2010Prop42
 90
       50
102
RTVSPost2010PropOp42
 70
     1
102
RTVSPost2010Prop43
 90
        3
102
RTVSPost2010PropOp43
 70
     1
102
RTVSPost2010Prop44ColorIndex
 90
        5
102
RTVSPost2010Prop44ColorRGB
 90
      255
102
RTVSPost2010PropOp44
 70
     1
102
RTVSPost2010Prop45
280
     0
102
RTVSPost2010PropOp45
 70
     1
102
RTVSPost2010Prop46
 90
       50
102
RTVSPost2010PropOp46
 70
     1
102
RTVSPost2010Prop47
 90
       50
102
RTVSPost2010PropOp47
 70
     1
102
RTVSPost2010Prop48
 90
       50
102
RTVSPost2010PropOp48
 70
     1
102
RTVSPost2010Prop49
280
     0
102
RTVSPost2010PropOp49
 70
     1
102
RTVSPost2010Prop50
 90
       50
102
RTVSPost2010PropOp50
 70
     1
102
RTVSPost2010Prop51ColorIndex
 90
      256
102
RTVSPost2010Prop51ColorRGB
 90
-16777216
102
RTVSPost2010PropOp51
 70
     0
102
RTVSPost2010Prop52
140
1.0
102
RTVSPost2010PropOp52
 70
     0
102
RTVSPost2010Prop53
 90
        2
102
RTVSPost2010PropOp53
 70
     1
102
RTVSPost2010Prop54
  1
strokes_ogs.tif
102
RTVSPost2010PropOp54
 70
     1
102
RTVSPost2010Prop55
280
     0
102
RTVSPost2010PropOp55
 70
     1
102
RTVSPost2010Prop56
140
1.0
102
RTVSPost2010PropOp56
 70
     1
102
RTVSPost2010Prop57
140
1.0
102
RTVSPost2010PropOp57
 70
     1
102
RTVSPropertyOp0
 70
     1
102
RTVSPropertyOp1
 70
     1
102
RTVSPropertyOp2
 70
     1
102
RTVSPropertyOp3
 70
     1
102
RTVSPropertyOp4
 70
     1
102
RTVSPropertyOp5
 70
     1
102
RTVSPropertyOp6
 70
     1
102
RTVSPropertyOp7
 70
     1
102
RTVSPropertyOp8
 70
     1
102
RTVSPropertyOp9
 70
     1
102
RTVSPropertyOp10
 70
     1
102
RTVSPropertyOp11
 70
     1
102
RTVSPropertyOp12
 70
     1
102
RTVSPropertyOp13
 70
     1
102
RTVSPropertyOp14
 70
     1
102
RTVSPropertyOp15
 70
     1
102
RTVSPropertyOp16
 70
     1
102
RTVSPropertyOp17
 70
     1
102
RTVSPropertyOp18
 70
     1
102
RTVSPropertyOp19
 70
     1
102
RTVSPropertyOp20
 70
     1
102
RTVSPropertyOp21
 70
     1
102
RTVSPropertyOp22
 70
     1
102
RTVSPropertyOp23
 70
     1
102
RTVSPropertyOp24
 70
     1
102
RTVSPropertyOp25
 70
     1
102
RTVSPropertyOp26
 70
     1
102
RTVSPropertyOp27
 70
     1
102
RTVSPropertyOp28
 70
     1
102
RTVSPropertyOp29
 70
     1
102
RTVSPropertyOp30
 70
     1
102
RTVSPropertyOp31
 70
     1
102
RTVSPropertyOp32
 70
     1
102
RTVSPropertyOp33
 70
     1
102
RTVSPropertyOp34
 70
     1
102
RTVSPropertyOp35
 70
     1
102
RTVSPropertyOp36
 70
     1
102
RTVSPropertyOp37
 70
     1
102
RTVSPropertyOp38
 70
     1
102
RTVSPropertyOp39
 70
     1
102
RTVSPropertyOp40
 70
     1
102
RTVSPropertyOp41
 70
     1
102
RTVSPropertyOp42
 70
     1
102
RTVSPropertyOp43
 70
     1
102
RTVSPropertyOp44
 70
     1
102
RTVSPropertyOp45
 70
     1
102
RTVSPropertyOp46
 70
     1
102
RTVSPropertyOp47
 70
     1
102
RTVSPropertyOp48
 70
     1
102
RTVSPropertyOp49
 70
     1
102
RTVSPropertyOp50
 70
     1
102
RTVSPropertyOp51
 70
     0
102
RTVSPropertyOp52
 70
     0
102
RTVSPropertyOp53
 70
     1
102
RTVSPropertyOp54
 70
     1
102
RTVSPropertyOp55
 70
     1
102
RTVSPropertyOp56
 70
     1
102
RTVSPropertyOp57
 70
     1
102
RTVSPropertyOp58
 70
     1
102
RTVSPropertyOp59
 70
     1
102
RTVSPropertyOp60
 70
     1
102
RTVSPropertyOp61
 70
     1
102
RTVSPropertyOp62
 70
     1
  0
XRECORD
  5
82E4
102
{ACAD_REACTORS
330
82E3
102
}
330
82E3
100
AcDbXrecord
280
     1
102
RTVSPost2010Prop28
280
     0
102
RTVSPost2010PropOp28
 70
     1
102
RTVSPost2010Prop29
280
     1
102
RTVSPost2010PropOp29
 70
     1
102
RTVSPost2010Prop30
280
     1
102
RTVSPost2010PropOp30
 70
     1
102
RTVSPost2010Prop31
280
     0
102
RTVSPost2010PropOp31
 70
     1
102
RTVSPost2010Prop32
280
     0
102
RTVSPost2010PropOp32
 70
     1
102
RTVSPost2010Prop33
280
     0
102
RTVSPost2010PropOp33
 70
     1
102
RTVSPost2010Prop34
280
     0
102
RTVSPost2010PropOp34
 70
     1
102
RTVSPost2010Prop35
280
     0
102
RTVSPost2010PropOp35
 70
     1
102
RTVSPost2010Prop36
280
     0
102
RTVSPost2010PropOp36
 70
     1
102
RTVSPost2010Prop37
 90
       50
102
RTVSPost2010PropOp37
 70
     0
102
RTVSPost2010Prop38
140
0.0
102
RTVSPost2010PropOp38
 70
     0
102
RTVSPost2010Prop39
140
1.0
102
RTVSPost2010PropOp39
 70
     0
102
RTVSPost2010Prop40
 90
        0
102
RTVSPost2010PropOp40
 70
     0
102
RTVSPost2010Prop41ColorIndex
 90
       18
102
RTVSPost2010Prop41ColorRGB
 90
        0
102
RTVSPost2010PropOp41
 70
     0
102
RTVSPost2010Prop42
 90
       50
102
RTVSPost2010PropOp42
 70
     0
102
RTVSPost2010Prop43
 90
        3
102
RTVSPost2010PropOp43
 70
     0
102
RTVSPost2010Prop44ColorIndex
 90
        5
102
RTVSPost2010Prop44ColorRGB
 90
      255
102
RTVSPost2010PropOp44
 70
     0
102
RTVSPost2010Prop45
280
     0
102
RTVSPost2010PropOp45
 70
     1
102
RTVSPost2010Prop46
 90
       50
102
RTVSPost2010PropOp46
 70
     0
102
RTVSPost2010Prop47
 90
       50
102
RTVSPost2010PropOp47
 70
     0
102
RTVSPost2010Prop48
 90
       50
102
RTVSPost2010PropOp48
 70
     0
102
RTVSPost2010Prop49
280
     0
102
RTVSPost2010PropOp49
 70
     1
102
RTVSPost2010Prop50
 90
       50
102
RTVSPost2010PropOp50
 70
     0
102
RTVSPost2010Prop51ColorIndex
 90
      256
102
RTVSPost2010Prop51ColorRGB
 90
-16777216
102
RTVSPost2010PropOp51
 70
     0
102
RTVSPost2010Prop52
140
1.0
102
RTVSPost2010PropOp52
 70
     0
102
RTVSPost2010Prop53
 90
        2
102
RTVSPost2010PropOp53
 70
     0
102
RTVSPost2010Prop54
  1
strokes_ogs.tif
102
RTVSPost2010PropOp54
 70
     0
102
RTVSPost2010Prop55
280
     0
102
RTVSPost2010PropOp55
 70
     1
102
RTVSPost2010Prop56
140
1.0
102
RTVSPost2010PropOp56
 70
     0
102
RTVSPost2010Prop57
140
1.0
102
RTVSPost2010PropOp57
 70
     0
102
RTVSPropertyOp0
 70
     0
102
RTVSPropertyOp1
 70
     0
102
RTVSPropertyOp2
 70
     0
102
RTVSPropertyOp3
 70
     0
102
RTVSPropertyOp4
 70
     0
102
RTVSPropertyOp5
 70
     0
102
RTVSPropertyOp6
 70
     0
102
RTVSPropertyOp7
 70
     0
102
RTVSPropertyOp8
 70
     0
102
RTVSPropertyOp9
 70
     0
102
RTVSPropertyOp10
 70
     0
102
RTVSPropertyOp11
 70
     0
102
RTVSPropertyOp12
 70
     0
102
RTVSPropertyOp13
 70
     0
102
RTVSPropertyOp14
 70
     2
102
RTVSPropertyOp15
 70
     0
102
RTVSPropertyOp16
 70
     0
102
RTVSPropertyOp17
 70
     0
102
RTVSPropertyOp18
 70
     0
102
RTVSPropertyOp19
 70
     0
102
RTVSPropertyOp20
 70
     0
102
RTVSPropertyOp21
 70
     0
102
RTVSPropertyOp22
 70
     0
102
RTVSPropertyOp23
 70
     0
102
RTVSPropertyOp24
 70
     0
102
RTVSPropertyOp25
 70
     0
102
RTVSPropertyOp26
 70
     0
102
RTVSPropertyOp27
 70
     0
102
RTVSPropertyOp28
 70
     1
102
RTVSPropertyOp29
 70
     1
102
RTVSPropertyOp30
 70
     1
102
RTVSPropertyOp31
 70
     1
102
RTVSPropertyOp32
 70
     1
102
RTVSPropertyOp33
 70
     1
102
RTVSPropertyOp34
 70
     1
102
RTVSPropertyOp35
 70
     1
102
RTVSPropertyOp36
 70
     1
102
RTVSPropertyOp37
 70
     0
102
RTVSPropertyOp38
 70
     0
102
RTVSPropertyOp39
 70
     0
102
RTVSPropertyOp40
 70
     0
102
RTVSPropertyOp41
 70
     0
102
RTVSPropertyOp42
 70
     0
102
RTVSPropertyOp43
 70
     0
102
RTVSPropertyOp44
 70
     0
102
RTVSPropertyOp45
 70
     1
102
RTVSPropertyOp46
 70
     0
102
RTVSPropertyOp47
 70
     0
102
RTVSPropertyOp48
 70
     0
102
RTVSPropertyOp49
 70
     1
102
RTVSPropertyOp50
 70
     0
102
RTVSPropertyOp51
 70
     0
102
RTVSPropertyOp52
 70
     0
102
RTVSPropertyOp53
 70
     0
102
RTVSPropertyOp54
 70
     0
102
RTVSPropertyOp55
 70
     1
102
RTVSPropertyOp56
 70
     0
102
RTVSPropertyOp57
 70
     0
102
RTVSPropertyOp58
 70
     0
102
RTVSPropertyOp59
 70
     0
102
RTVSPropertyOp60
 70
     0
102
RTVSPropertyOp61
 70
     0
102
RTVSPropertyOp62
 70
     0
  0
XRECORD
  5
82D2
102
{ACAD_REACTORS
330
82D1
102
}
330
82D1
100
AcDbXrecord
280
     1
102
RTVSPost2010Prop28
280
     0
102
RTVSPost2010PropOp28
 70
     1
102
RTVSPost2010Prop29
280
     1
102
RTVSPost2010PropOp29
 70
     1
102
RTVSPost2010Prop30
280
     1
102
RTVSPost2010PropOp30
 70
     1
102
RTVSPost2010Prop31
280
     0
102
RTVSPost2010PropOp31
 70
     1
102
RTVSPost2010Prop32
280
     0
102
RTVSPost2010PropOp32
 70
     1
102
RTVSPost2010Prop33
280
     0
102
RTVSPost2010PropOp33
 70
     1
102
RTVSPost2010Prop34
280
     0
102
RTVSPost2010PropOp34
 70
     1
102
RTVSPost2010Prop35
280
     0
102
RTVSPost2010PropOp35
 70
     1
102
RTVSPost2010Prop36
280
     0
102
RTVSPost2010PropOp36
 70
     1
102
RTVSPost2010Prop37
 90
       50
102
RTVSPost2010PropOp37
 70
     1
102
RTVSPost2010Prop38
140
0.0
102
RTVSPost2010PropOp38
 70
     1
102
RTVSPost2010Prop39
140
1.0
102
RTVSPost2010PropOp39
 70
     1
102
RTVSPost2010Prop40
 90
        0
102
RTVSPost2010PropOp40
 70
     1
102
RTVSPost2010Prop41ColorIndex
 90
       18
102
RTVSPost2010Prop41ColorRGB
 90
        0
102
RTVSPost2010PropOp41
 70
     1
102
RTVSPost2010Prop42
 90
       50
102
RTVSPost2010PropOp42
 70
     1
102
RTVSPost2010Prop43
 90
        3
102
RTVSPost2010PropOp43
 70
     1
102
RTVSPost2010Prop44ColorIndex
 90
        5
102
RTVSPost2010Prop44ColorRGB
 90
      255
102
RTVSPost2010PropOp44
 70
     1
102
RTVSPost2010Prop45
280
     0
102
RTVSPost2010PropOp45
 70
     1
102
RTVSPost2010Prop46
 90
       50
102
RTVSPost2010PropOp46
 70
     1
102
RTVSPost2010Prop47
 90
       50
102
RTVSPost2010PropOp47
 70
     1
102
RTVSPost2010Prop48
 90
       50
102
RTVSPost2010PropOp48
 70
     1
102
RTVSPost2010Prop49
280
     0
102
RTVSPost2010PropOp49
 70
     1
102
RTVSPost2010Prop50
 90
       50
102
RTVSPost2010PropOp50
 70
     1
102
RTVSPost2010Prop51ColorIndex
 90
      256
102
RTVSPost2010Prop51ColorRGB
 90
-16777216
102
RTVSPost2010PropOp51
 70
     0
102
RTVSPost2010Prop52
140
1.0
102
RTVSPost2010PropOp52
 70
     0
102
RTVSPost2010Prop53
 90
        2
102
RTVSPost2010PropOp53
 70
     1
102
RTVSPost2010Prop54
  1
strokes_ogs.tif
102
RTVSPost2010PropOp54
 70
     1
102
RTVSPost2010Prop55
280
     0
102
RTVSPost2010PropOp55
 70
     1
102
RTVSPost2010Prop56
140
1.0
102
RTVSPost2010PropOp56
 70
     1
102
RTVSPost2010Prop57
140
1.0
102
RTVSPost2010PropOp57
 70
     1
102
RTVSPropertyOp0
 70
     1
102
RTVSPropertyOp1
 70
     1
102
RTVSPropertyOp2
 70
     1
102
RTVSPropertyOp3
 70
     1
102
RTVSPropertyOp4
 70
     1
102
RTVSPropertyOp5
 70
     1
102
RTVSPropertyOp6
 70
     1
102
RTVSPropertyOp7
 70
     1
102
RTVSPropertyOp8
 70
     1
102
RTVSPropertyOp9
 70
     1
102
RTVSPropertyOp10
 70
     1
102
RTVSPropertyOp11
 70
     1
102
RTVSPropertyOp12
 70
     1
102
RTVSPropertyOp13
 70
     1
102
RTVSPropertyOp14
 70
     1
102
RTVSPropertyOp15
 70
     1
102
RTVSPropertyOp16
 70
     1
102
RTVSPropertyOp17
 70
     1
102
RTVSPropertyOp18
 70
     1
102
RTVSPropertyOp19
 70
     1
102
RTVSPropertyOp20
 70
     1
102
RTVSPropertyOp21
 70
     1
102
RTVSPropertyOp22
 70
     1
102
RTVSPropertyOp23
 70
     1
102
RTVSPropertyOp24
 70
     1
102
RTVSPropertyOp25
 70
     1
102
RTVSPropertyOp26
 70
     1
102
RTVSPropertyOp27
 70
     1
102
RTVSPropertyOp28
 70
     1
102
RTVSPropertyOp29
 70
     1
102
RTVSPropertyOp30
 70
     1
102
RTVSPropertyOp31
 70
     1
102
RTVSPropertyOp32
 70
     1
102
RTVSPropertyOp33
 70
     1
102
RTVSPropertyOp34
 70
     1
102
RTVSPropertyOp35
 70
     1
102
RTVSPropertyOp36
 70
     1
102
RTVSPropertyOp37
 70
     1
102
RTVSPropertyOp38
 70
     1
102
RTVSPropertyOp39
 70
     1
102
RTVSPropertyOp40
 70
     1
102
RTVSPropertyOp41
 70
     1
102
RTVSPropertyOp42
 70
     1
102
RTVSPropertyOp43
 70
     1
102
RTVSPropertyOp44
 70
     1
102
RTVSPropertyOp45
 70
     1
102
RTVSPropertyOp46
 70
     1
102
RTVSPropertyOp47
 70
     1
102
RTVSPropertyOp48
 70
     1
102
RTVSPropertyOp49
 70
     1
102
RTVSPropertyOp50
 70
     1
102
RTVSPropertyOp51
 70
     0
102
RTVSPropertyOp52
 70
     0
102
RTVSPropertyOp53
 70
     1
102
RTVSPropertyOp54
 70
     1
102
RTVSPropertyOp55
 70
     1
102
RTVSPropertyOp56
 70
     1
102
RTVSPropertyOp57
 70
     1
102
RTVSPropertyOp58
 70
     1
102
RTVSPropertyOp59
 70
     1
102
RTVSPropertyOp60
 70
     1
102
RTVSPropertyOp61
 70
     1
102
RTVSPropertyOp62
 70
     1
  0
XRECORD
  5
82B6
102
{ACAD_REACTORS
330
82B5
102
}
330
82B5
100
AcDbXrecord
280
     1
102
RTVSPost2010Prop28
280
     0
102
RTVSPost2010PropOp28
 70
     1
102
RTVSPost2010Prop29
280
     1
102
RTVSPost2010PropOp29
 70
     1
102
RTVSPost2010Prop30
280
     1
102
RTVSPost2010PropOp30
 70
     1
102
RTVSPost2010Prop31
280
     0
102
RTVSPost2010PropOp31
 70
     1
102
RTVSPost2010Prop32
280
     0
102
RTVSPost2010PropOp32
 70
     1
102
RTVSPost2010Prop33
280
     0
102
RTVSPost2010PropOp33
 70
     1
102
RTVSPost2010Prop34
280
     0
102
RTVSPost2010PropOp34
 70
     1
102
RTVSPost2010Prop35
280
     0
102
RTVSPost2010PropOp35
 70
     1
102
RTVSPost2010Prop36
280
     0
102
RTVSPost2010PropOp36
 70
     1
102
RTVSPost2010Prop37
 90
       50
102
RTVSPost2010PropOp37
 70
     1
102
RTVSPost2010Prop38
140
0.0
102
RTVSPost2010PropOp38
 70
     1
102
RTVSPost2010Prop39
140
1.0
102
RTVSPost2010PropOp39
 70
     1
102
RTVSPost2010Prop40
 90
        0
102
RTVSPost2010PropOp40
 70
     1
102
RTVSPost2010Prop41ColorIndex
 90
       18
102
RTVSPost2010Prop41ColorRGB
 90
        0
102
RTVSPost2010PropOp41
 70
     1
102
RTVSPost2010Prop42
 90
       50
102
RTVSPost2010PropOp42
 70
     1
102
RTVSPost2010Prop43
 90
        3
102
RTVSPost2010PropOp43
 70
     1
102
RTVSPost2010Prop44ColorIndex
 90
        5
102
RTVSPost2010Prop44ColorRGB
 90
      255
102
RTVSPost2010PropOp44
 70
     1
102
RTVSPost2010Prop45
280
     0
102
RTVSPost2010PropOp45
 70
     1
102
RTVSPost2010Prop46
 90
       50
102
RTVSPost2010PropOp46
 70
     1
102
RTVSPost2010Prop47
 90
       50
102
RTVSPost2010PropOp47
 70
     1
102
RTVSPost2010Prop48
 90
       50
102
RTVSPost2010PropOp48
 70
     1
102
RTVSPost2010Prop49
280
     0
102
RTVSPost2010PropOp49
 70
     1
102
RTVSPost2010Prop50
 90
       50
102
RTVSPost2010PropOp50
 70
     1
102
RTVSPost2010Prop51ColorIndex
 90
      256
102
RTVSPost2010Prop51ColorRGB
 90
-16777216
102
RTVSPost2010PropOp51
 70
     0
102
RTVSPost2010Prop52
140
1.0
102
RTVSPost2010PropOp52
 70
     0
102
RTVSPost2010Prop53
 90
        2
102
RTVSPost2010PropOp53
 70
     1
102
RTVSPost2010Prop54
  1
strokes_ogs.tif
102
RTVSPost2010PropOp54
 70
     1
102
RTVSPost2010Prop55
280
     0
102
RTVSPost2010PropOp55
 70
     1
102
RTVSPost2010Prop56
140
1.0
102
RTVSPost2010PropOp56
 70
     1
102
RTVSPost2010Prop57
140
1.0
102
RTVSPost2010PropOp57
 70
     1
102
RTVSPropertyOp0
 70
     1
102
RTVSPropertyOp1
 70
     1
102
RTVSPropertyOp2
 70
     1
102
RTVSPropertyOp3
 70
     1
102
RTVSPropertyOp4
 70
     1
102
RTVSPropertyOp5
 70
     1
102
RTVSPropertyOp6
 70
     1
102
RTVSPropertyOp7
 70
     1
102
RTVSPropertyOp8
 70
     1
102
RTVSPropertyOp9
 70
     1
102
RTVSPropertyOp10
 70
     1
102
RTVSPropertyOp11
 70
     1
102
RTVSPropertyOp12
 70
     1
102
RTVSPropertyOp13
 70
     1
102
RTVSPropertyOp14
 70
     1
102
RTVSPropertyOp15
 70
     1
102
RTVSPropertyOp16
 70
     1
102
RTVSPropertyOp17
 70
     1
102
RTVSPropertyOp18
 70
     1
102
RTVSPropertyOp19
 70
     1
102
RTVSPropertyOp20
 70
     1
102
RTVSPropertyOp21
 70
     1
102
RTVSPropertyOp22
 70
     1
102
RTVSPropertyOp23
 70
     1
102
RTVSPropertyOp24
 70
     1
102
RTVSPropertyOp25
 70
     1
102
RTVSPropertyOp26
 70
     1
102
RTVSPropertyOp27
 70
     1
102
RTVSPropertyOp28
 70
     1
102
RTVSPropertyOp29
 70
     1
102
RTVSPropertyOp30
 70
     1
102
RTVSPropertyOp31
 70
     1
102
RTVSPropertyOp32
 70
     1
102
RTVSPropertyOp33
 70
     1
102
RTVSPropertyOp34
 70
     1
102
RTVSPropertyOp35
 70
     1
102
RTVSPropertyOp36
 70
     1
102
RTVSPropertyOp37
 70
     1
102
RTVSPropertyOp38
 70
     1
102
RTVSPropertyOp39
 70
     1
102
RTVSPropertyOp40
 70
     1
102
RTVSPropertyOp41
 70
     1
102
RTVSPropertyOp42
 70
     1
102
RTVSPropertyOp43
 70
     1
102
RTVSPropertyOp44
 70
     1
102
RTVSPropertyOp45
 70
     1
102
RTVSPropertyOp46
 70
     1
102
RTVSPropertyOp47
 70
     1
102
RTVSPropertyOp48
 70
     1
102
RTVSPropertyOp49
 70
     1
102
RTVSPropertyOp50
 70
     1
102
RTVSPropertyOp51
 70
     0
102
RTVSPropertyOp52
 70
     0
102
RTVSPropertyOp53
 70
     1
102
RTVSPropertyOp54
 70
     1
102
RTVSPropertyOp55
 70
     1
102
RTVSPropertyOp56
 70
     1
102
RTVSPropertyOp57
 70
     1
102
RTVSPropertyOp58
 70
     1
102
RTVSPropertyOp59
 70
     1
102
RTVSPropertyOp60
 70
     1
102
RTVSPropertyOp61
 70
     1
102
RTVSPropertyOp62
 70
     1
  0
XRECORD
  5
82B8
102
{ACAD_REACTORS
330
82B7
102
}
330
82B7
100
AcDbXrecord
280
     1
102
RTVSPost2010Prop28
280
     0
102
RTVSPost2010PropOp28
 70
     1
102
RTVSPost2010Prop29
280
     1
102
RTVSPost2010PropOp29
 70
     1
102
RTVSPost2010Prop30
280
     1
102
RTVSPost2010PropOp30
 70
     1
102
RTVSPost2010Prop31
280
     0
102
RTVSPost2010PropOp31
 70
     1
102
RTVSPost2010Prop32
280
     0
102
RTVSPost2010PropOp32
 70
     1
102
RTVSPost2010Prop33
280
     0
102
RTVSPost2010PropOp33
 70
     1
102
RTVSPost2010Prop34
280
     0
102
RTVSPost2010PropOp34
 70
     1
102
RTVSPost2010Prop35
280
     0
102
RTVSPost2010PropOp35
 70
     1
102
RTVSPost2010Prop36
280
     0
102
RTVSPost2010PropOp36
 70
     1
102
RTVSPost2010Prop37
 90
       50
102
RTVSPost2010PropOp37
 70
     1
102
RTVSPost2010Prop38
140
0.0
102
RTVSPost2010PropOp38
 70
     1
102
RTVSPost2010Prop39
140
1.0
102
RTVSPost2010PropOp39
 70
     1
102
RTVSPost2010Prop40
 90
        0
102
RTVSPost2010PropOp40
 70
     1
102
RTVSPost2010Prop41ColorIndex
 90
       18
102
RTVSPost2010Prop41ColorRGB
 90
        0
102
RTVSPost2010PropOp41
 70
     1
102
RTVSPost2010Prop42
 90
       50
102
RTVSPost2010PropOp42
 70
     1
102
RTVSPost2010Prop43
 90
        3
102
RTVSPost2010PropOp43
 70
     1
102
RTVSPost2010Prop44ColorIndex
 90
        5
102
RTVSPost2010Prop44ColorRGB
 90
      255
102
RTVSPost2010PropOp44
 70
     1
102
RTVSPost2010Prop45
280
     0
102
RTVSPost2010PropOp45
 70
     1
102
RTVSPost2010Prop46
 90
       50
102
RTVSPost2010PropOp46
 70
     1
102
RTVSPost2010Prop47
 90
       50
102
RTVSPost2010PropOp47
 70
     1
102
RTVSPost2010Prop48
 90
       50
102
RTVSPost2010PropOp48
 70
     1
102
RTVSPost2010Prop49
280
     0
102
RTVSPost2010PropOp49
 70
     1
102
RTVSPost2010Prop50
 90
       50
102
RTVSPost2010PropOp50
 70
     1
102
RTVSPost2010Prop51ColorIndex
 90
      256
102
RTVSPost2010Prop51ColorRGB
 90
-16777216
102
RTVSPost2010PropOp51
 70
     0
102
RTVSPost2010Prop52
140
1.0
102
RTVSPost2010PropOp52
 70
     0
102
RTVSPost2010Prop53
 90
        2
102
RTVSPost2010PropOp53
 70
     1
102
RTVSPost2010Prop54
  1
strokes_ogs.tif
102
RTVSPost2010PropOp54
 70
     1
102
RTVSPost2010Prop55
280
     0
102
RTVSPost2010PropOp55
 70
     1
102
RTVSPost2010Prop56
140
1.0
102
RTVSPost2010PropOp56
 70
     1
102
RTVSPost2010Prop57
140
1.0
102
RTVSPost2010PropOp57
 70
     1
102
RTVSPropertyOp0
 70
     1
102
RTVSPropertyOp1
 70
     1
102
RTVSPropertyOp2
 70
     1
102
RTVSPropertyOp3
 70
     1
102
RTVSPropertyOp4
 70
     1
102
RTVSPropertyOp5
 70
     1
102
RTVSPropertyOp6
 70
     1
102
RTVSPropertyOp7
 70
     1
102
RTVSPropertyOp8
 70
     1
102
RTVSPropertyOp9
 70
     1
102
RTVSPropertyOp10
 70
     1
102
RTVSPropertyOp11
 70
     1
102
RTVSPropertyOp12
 70
     1
102
RTVSPropertyOp13
 70
     1
102
RTVSPropertyOp14
 70
     1
102
RTVSPropertyOp15
 70
     1
102
RTVSPropertyOp16
 70
     1
102
RTVSPropertyOp17
 70
     1
102
RTVSPropertyOp18
 70
     1
102
RTVSPropertyOp19
 70
     1
102
RTVSPropertyOp20
 70
     1
102
RTVSPropertyOp21
 70
     1
102
RTVSPropertyOp22
 70
     1
102
RTVSPropertyOp23
 70
     1
102
RTVSPropertyOp24
 70
     1
102
RTVSPropertyOp25
 70
     1
102
RTVSPropertyOp26
 70
     1
102
RTVSPropertyOp27
 70
     1
102
RTVSPropertyOp28
 70
     1
102
RTVSPropertyOp29
 70
     1
102
RTVSPropertyOp30
 70
     1
102
RTVSPropertyOp31
 70
     1
102
RTVSPropertyOp32
 70
     1
102
RTVSPropertyOp33
 70
     1
102
RTVSPropertyOp34
 70
     1
102
RTVSPropertyOp35
 70
     1
102
RTVSPropertyOp36
 70
     1
102
RTVSPropertyOp37
 70
     1
102
RTVSPropertyOp38
 70
     1
102
RTVSPropertyOp39
 70
     1
102
RTVSPropertyOp40
 70
     1
102
RTVSPropertyOp41
 70
     1
102
RTVSPropertyOp42
 70
     1
102
RTVSPropertyOp43
 70
     1
102
RTVSPropertyOp44
 70
     1
102
RTVSPropertyOp45
 70
     1
102
RTVSPropertyOp46
 70
     1
102
RTVSPropertyOp47
 70
     1
102
RTVSPropertyOp48
 70
     1
102
RTVSPropertyOp49
 70
     1
102
RTVSPropertyOp50
 70
     1
102
RTVSPropertyOp51
 70
     0
102
RTVSPropertyOp52
 70
     0
102
RTVSPropertyOp53
 70
     1
102
RTVSPropertyOp54
 70
     1
102
RTVSPropertyOp55
 70
     1
102
RTVSPropertyOp56
 70
     1
102
RTVSPropertyOp57
 70
     1
102
RTVSPropertyOp58
 70
     1
102
RTVSPropertyOp59
 70
     1
102
RTVSPropertyOp60
 70
     1
102
RTVSPropertyOp61
 70
     1
102
RTVSPropertyOp62
 70
     1
  0
XRECORD
  5
82BA
102
{ACAD_REACTORS
330
82B9
102
}
330
82B9
100
AcDbXrecord
280
     1
102
RTVSPost2010Prop28
280
     0
102
RTVSPost2010PropOp28
 70
     1
102
RTVSPost2010Prop29
280
     1
102
RTVSPost2010PropOp29
 70
     1
102
RTVSPost2010Prop30
280
     1
102
RTVSPost2010PropOp30
 70
     1
102
RTVSPost2010Prop31
280
     0
102
RTVSPost2010PropOp31
 70
     1
102
RTVSPost2010Prop32
280
     0
102
RTVSPost2010PropOp32
 70
     1
102
RTVSPost2010Prop33
280
     0
102
RTVSPost2010PropOp33
 70
     1
102
RTVSPost2010Prop34
280
     0
102
RTVSPost2010PropOp34
 70
     1
102
RTVSPost2010Prop35
280
     0
102
RTVSPost2010PropOp35
 70
     1
102
RTVSPost2010Prop36
280
     0
102
RTVSPost2010PropOp36
 70
     1
102
RTVSPost2010Prop37
 90
       50
102
RTVSPost2010PropOp37
 70
     1
102
RTVSPost2010Prop38
140
0.0
102
RTVSPost2010PropOp38
 70
     1
102
RTVSPost2010Prop39
140
1.0
102
RTVSPost2010PropOp39
 70
     1
102
RTVSPost2010Prop40
 90
        0
102
RTVSPost2010PropOp40
 70
     1
102
RTVSPost2010Prop41ColorIndex
 90
       18
102
RTVSPost2010Prop41ColorRGB
 90
        0
102
RTVSPost2010PropOp41
 70
     1
102
RTVSPost2010Prop42
 90
       50
102
RTVSPost2010PropOp42
 70
     1
102
RTVSPost2010Prop43
 90
        3
102
RTVSPost2010PropOp43
 70
     1
102
RTVSPost2010Prop44ColorIndex
 90
        5
102
RTVSPost2010Prop44ColorRGB
 90
      255
102
RTVSPost2010PropOp44
 70
     1
102
RTVSPost2010Prop45
280
     0
102
RTVSPost2010PropOp45
 70
     1
102
RTVSPost2010Prop46
 90
       50
102
RTVSPost2010PropOp46
 70
     1
102
RTVSPost2010Prop47
 90
       50
102
RTVSPost2010PropOp47
 70
     1
102
RTVSPost2010Prop48
 90
       50
102
RTVSPost2010PropOp48
 70
     1
102
RTVSPost2010Prop49
280
     0
102
RTVSPost2010PropOp49
 70
     1
102
RTVSPost2010Prop50
 90
       50
102
RTVSPost2010PropOp50
 70
     1
102
RTVSPost2010Prop51ColorIndex
 90
      256
102
RTVSPost2010Prop51ColorRGB
 90
-16777216
102
RTVSPost2010PropOp51
 70
     0
102
RTVSPost2010Prop52
140
1.0
102
RTVSPost2010PropOp52
 70
     0
102
RTVSPost2010Prop53
 90
        2
102
RTVSPost2010PropOp53
 70
     1
102
RTVSPost2010Prop54
  1
strokes_ogs.tif
102
RTVSPost2010PropOp54
 70
     1
102
RTVSPost2010Prop55
280
     0
102
RTVSPost2010PropOp55
 70
     1
102
RTVSPost2010Prop56
140
1.0
102
RTVSPost2010PropOp56
 70
     1
102
RTVSPost2010Prop57
140
1.0
102
RTVSPost2010PropOp57
 70
     1
102
RTVSPropertyOp0
 70
     1
102
RTVSPropertyOp1
 70
     1
102
RTVSPropertyOp2
 70
     1
102
RTVSPropertyOp3
 70
     1
102
RTVSPropertyOp4
 70
     1
102
RTVSPropertyOp5
 70
     1
102
RTVSPropertyOp6
 70
     1
102
RTVSPropertyOp7
 70
     1
102
RTVSPropertyOp8
 70
     1
102
RTVSPropertyOp9
 70
     1
102
RTVSPropertyOp10
 70
     1
102
RTVSPropertyOp11
 70
     1
102
RTVSPropertyOp12
 70
     1
102
RTVSPropertyOp13
 70
     1
102
RTVSPropertyOp14
 70
     1
102
RTVSPropertyOp15
 70
     1
102
RTVSPropertyOp16
 70
     1
102
RTVSPropertyOp17
 70
     1
102
RTVSPropertyOp18
 70
     1
102
RTVSPropertyOp19
 70
     1
102
RTVSPropertyOp20
 70
     1
102
RTVSPropertyOp21
 70
     1
102
RTVSPropertyOp22
 70
     1
102
RTVSPropertyOp23
 70
     1
102
RTVSPropertyOp24
 70
     1
102
RTVSPropertyOp25
 70
     1
102
RTVSPropertyOp26
 70
     1
102
RTVSPropertyOp27
 70
     1
102
RTVSPropertyOp28
 70
     1
102
RTVSPropertyOp29
 70
     1
102
RTVSPropertyOp30
 70
     1
102
RTVSPropertyOp31
 70
     1
102
RTVSPropertyOp32
 70
     1
102
RTVSPropertyOp33
 70
     1
102
RTVSPropertyOp34
 70
     1
102
RTVSPropertyOp35
 70
     1
102
RTVSPropertyOp36
 70
     1
102
RTVSPropertyOp37
 70
     1
102
RTVSPropertyOp38
 70
     1
102
RTVSPropertyOp39
 70
     1
102
RTVSPropertyOp40
 70
     1
102
RTVSPropertyOp41
 70
     1
102
RTVSPropertyOp42
 70
     1
102
RTVSPropertyOp43
 70
     1
102
RTVSPropertyOp44
 70
     1
102
RTVSPropertyOp45
 70
     1
102
RTVSPropertyOp46
 70
     1
102
RTVSPropertyOp47
 70
     1
102
RTVSPropertyOp48
 70
     1
102
RTVSPropertyOp49
 70
     1
102
RTVSPropertyOp50
 70
     1
102
RTVSPropertyOp51
 70
     0
102
RTVSPropertyOp52
 70
     0
102
RTVSPropertyOp53
 70
     1
102
RTVSPropertyOp54
 70
     1
102
RTVSPropertyOp55
 70
     1
102
RTVSPropertyOp56
 70
     1
102
RTVSPropertyOp57
 70
     1
102
RTVSPropertyOp58
 70
     1
102
RTVSPropertyOp59
 70
     1
102
RTVSPropertyOp60
 70
     1
102
RTVSPropertyOp61
 70
     1
102
RTVSPropertyOp62
 70
     1
  0
XRECORD
  5
82BC
102
{ACAD_REACTORS
330
82BB
102
}
330
82BB
100
AcDbXrecord
280
     1
102
RTVSPost2010Prop28
280
     0
102
RTVSPost2010PropOp28
 70
     1
102
RTVSPost2010Prop29
280
     1
102
RTVSPost2010PropOp29
 70
     1
102
RTVSPost2010Prop30
280
     1
102
RTVSPost2010PropOp30
 70
     1
102
RTVSPost2010Prop31
280
     0
102
RTVSPost2010PropOp31
 70
     1
102
RTVSPost2010Prop32
280
     0
102
RTVSPost2010PropOp32
 70
     1
102
RTVSPost2010Prop33
280
     0
102
RTVSPost2010PropOp33
 70
     1
102
RTVSPost2010Prop34
280
     0
102
RTVSPost2010PropOp34
 70
     1
102
RTVSPost2010Prop35
280
     0
102
RTVSPost2010PropOp35
 70
     1
102
RTVSPost2010Prop36
280
     0
102
RTVSPost2010PropOp36
 70
     1
102
RTVSPost2010Prop37
 90
       50
102
RTVSPost2010PropOp37
 70
     1
102
RTVSPost2010Prop38
140
0.0
102
RTVSPost2010PropOp38
 70
     1
102
RTVSPost2010Prop39
140
1.0
102
RTVSPost2010PropOp39
 70
     1
102
RTVSPost2010Prop40
 90
        0
102
RTVSPost2010PropOp40
 70
     1
102
RTVSPost2010Prop41ColorIndex
 90
       18
102
RTVSPost2010Prop41ColorRGB
 90
        0
102
RTVSPost2010PropOp41
 70
     1
102
RTVSPost2010Prop42
 90
       50
102
RTVSPost2010PropOp42
 70
     1
102
RTVSPost2010Prop43
 90
        3
102
RTVSPost2010PropOp43
 70
     1
102
RTVSPost2010Prop44ColorIndex
 90
        5
102
RTVSPost2010Prop44ColorRGB
 90
      255
102
RTVSPost2010PropOp44
 70
     1
102
RTVSPost2010Prop45
280
     0
102
RTVSPost2010PropOp45
 70
     1
102
RTVSPost2010Prop46
 90
       50
102
RTVSPost2010PropOp46
 70
     1
102
RTVSPost2010Prop47
 90
       50
102
RTVSPost2010PropOp47
 70
     1
102
RTVSPost2010Prop48
 90
       50
102
RTVSPost2010PropOp48
 70
     1
102
RTVSPost2010Prop49
280
     0
102
RTVSPost2010PropOp49
 70
     1
102
RTVSPost2010Prop50
 90
       50
102
RTVSPost2010PropOp50
 70
     1
102
RTVSPost2010Prop51ColorIndex
 90
      256
102
RTVSPost2010Prop51ColorRGB
 90
-16777216
102
RTVSPost2010PropOp51
 70
     0
102
RTVSPost2010Prop52
140
1.0
102
RTVSPost2010PropOp52
 70
     0
102
RTVSPost2010Prop53
 90
        2
102
RTVSPost2010PropOp53
 70
     1
102
RTVSPost2010Prop54
  1
strokes_ogs.tif
102
RTVSPost2010PropOp54
 70
     1
102
RTVSPost2010Prop55
280
     0
102
RTVSPost2010PropOp55
 70
     1
102
RTVSPost2010Prop56
140
1.0
102
RTVSPost2010PropOp56
 70
     1
102
RTVSPost2010Prop57
140
1.0
102
RTVSPost2010PropOp57
 70
     1
102
RTVSPropertyOp0
 70
     1
102
RTVSPropertyOp1
 70
     1
102
RTVSPropertyOp2
 70
     1
102
RTVSPropertyOp3
 70
     1
102
RTVSPropertyOp4
 70
     1
102
RTVSPropertyOp5
 70
     1
102
RTVSPropertyOp6
 70
     1
102
RTVSPropertyOp7
 70
     1
102
RTVSPropertyOp8
 70
     1
102
RTVSPropertyOp9
 70
     1
102
RTVSPropertyOp10
 70
     1
102
RTVSPropertyOp11
 70
     1
102
RTVSPropertyOp12
 70
     1
102
RTVSPropertyOp13
 70
     1
102
RTVSPropertyOp14
 70
     1
102
RTVSPropertyOp15
 70
     1
102
RTVSPropertyOp16
 70
     1
102
RTVSPropertyOp17
 70
     1
102
RTVSPropertyOp18
 70
     1
102
RTVSPropertyOp19
 70
     1
102
RTVSPropertyOp20
 70
     1
102
RTVSPropertyOp21
 70
     1
102
RTVSPropertyOp22
 70
     1
102
RTVSPropertyOp23
 70
     1
102
RTVSPropertyOp24
 70
     1
102
RTVSPropertyOp25
 70
     1
102
RTVSPropertyOp26
 70
     1
102
RTVSPropertyOp27
 70
     1
102
RTVSPropertyOp28
 70
     1
102
RTVSPropertyOp29
 70
     1
102
RTVSPropertyOp30
 70
     1
102
RTVSPropertyOp31
 70
     1
102
RTVSPropertyOp32
 70
     1
102
RTVSPropertyOp33
 70
     1
102
RTVSPropertyOp34
 70
     1
102
RTVSPropertyOp35
 70
     1
102
RTVSPropertyOp36
 70
     1
102
RTVSPropertyOp37
 70
     1
102
RTVSPropertyOp38
 70
     1
102
RTVSPropertyOp39
 70
     1
102
RTVSPropertyOp40
 70
     1
102
RTVSPropertyOp41
 70
     1
102
RTVSPropertyOp42
 70
     1
102
RTVSPropertyOp43
 70
     1
102
RTVSPropertyOp44
 70
     1
102
RTVSPropertyOp45
 70
     1
102
RTVSPropertyOp46
 70
     1
102
RTVSPropertyOp47
 70
     1
102
RTVSPropertyOp48
 70
     1
102
RTVSPropertyOp49
 70
     1
102
RTVSPropertyOp50
 70
     1
102
RTVSPropertyOp51
 70
     0
102
RTVSPropertyOp52
 70
     0
102
RTVSPropertyOp53
 70
     1
102
RTVSPropertyOp54
 70
     1
102
RTVSPropertyOp55
 70
     1
102
RTVSPropertyOp56
 70
     1
102
RTVSPropertyOp57
 70
     1
102
RTVSPropertyOp58
 70
     1
102
RTVSPropertyOp59
 70
     1
102
RTVSPropertyOp60
 70
     1
102
RTVSPropertyOp61
 70
     1
102
RTVSPropertyOp62
 70
     1
  0
XRECORD
  5
82C4
102
{ACAD_REACTORS
330
82C3
102
}
330
82C3
100
AcDbXrecord
280
     1
102
RTVSPost2010Prop28
280
     0
102
RTVSPost2010PropOp28
 70
     1
102
RTVSPost2010Prop29
280
     1
102
RTVSPost2010PropOp29
 70
     1
102
RTVSPost2010Prop30
280
     1
102
RTVSPost2010PropOp30
 70
     1
102
RTVSPost2010Prop31
280
     0
102
RTVSPost2010PropOp31
 70
     1
102
RTVSPost2010Prop32
280
     0
102
RTVSPost2010PropOp32
 70
     1
102
RTVSPost2010Prop33
280
     0
102
RTVSPost2010PropOp33
 70
     1
102
RTVSPost2010Prop34
280
     0
102
RTVSPost2010PropOp34
 70
     1
102
RTVSPost2010Prop35
280
     0
102
RTVSPost2010PropOp35
 70
     1
102
RTVSPost2010Prop36
280
     0
102
RTVSPost2010PropOp36
 70
     1
102
RTVSPost2010Prop37
 90
       50
102
RTVSPost2010PropOp37
 70
     1
102
RTVSPost2010Prop38
140
0.0
102
RTVSPost2010PropOp38
 70
     1
102
RTVSPost2010Prop39
140
1.0
102
RTVSPost2010PropOp39
 70
     1
102
RTVSPost2010Prop40
 90
        0
102
RTVSPost2010PropOp40
 70
     1
102
RTVSPost2010Prop41ColorIndex
 90
       18
102
RTVSPost2010Prop41ColorRGB
 90
        0
102
RTVSPost2010PropOp41
 70
     1
102
RTVSPost2010Prop42
 90
       50
102
RTVSPost2010PropOp42
 70
     1
102
RTVSPost2010Prop43
 90
        3
102
RTVSPost2010PropOp43
 70
     1
102
RTVSPost2010Prop44ColorIndex
 90
        5
102
RTVSPost2010Prop44ColorRGB
 90
      255
102
RTVSPost2010PropOp44
 70
     1
102
RTVSPost2010Prop45
280
     0
102
RTVSPost2010PropOp45
 70
     1
102
RTVSPost2010Prop46
 90
       50
102
RTVSPost2010PropOp46
 70
     1
102
RTVSPost2010Prop47
 90
       50
102
RTVSPost2010PropOp47
 70
     1
102
RTVSPost2010Prop48
 90
       50
102
RTVSPost2010PropOp48
 70
     1
102
RTVSPost2010Prop49
280
     0
102
RTVSPost2010PropOp49
 70
     1
102
RTVSPost2010Prop50
 90
       50
102
RTVSPost2010PropOp50
 70
     1
102
RTVSPost2010Prop51ColorIndex
 90
      256
102
RTVSPost2010Prop51ColorRGB
 90
-16777216
102
RTVSPost2010PropOp51
 70
     0
102
RTVSPost2010Prop52
140
1.0
102
RTVSPost2010PropOp52
 70
     0
102
RTVSPost2010Prop53
 90
        2
102
RTVSPost2010PropOp53
 70
     1
102
RTVSPost2010Prop54
  1
strokes_ogs.tif
102
RTVSPost2010PropOp54
 70
     1
102
RTVSPost2010Prop55
280
     0
102
RTVSPost2010PropOp55
 70
     1
102
RTVSPost2010Prop56
140
1.0
102
RTVSPost2010PropOp56
 70
     1
102
RTVSPost2010Prop57
140
1.0
102
RTVSPost2010PropOp57
 70
     1
102
RTVSPropertyOp0
 70
     1
102
RTVSPropertyOp1
 70
     1
102
RTVSPropertyOp2
 70
     1
102
RTVSPropertyOp3
 70
     1
102
RTVSPropertyOp4
 70
     1
102
RTVSPropertyOp5
 70
     1
102
RTVSPropertyOp6
 70
     1
102
RTVSPropertyOp7
 70
     1
102
RTVSPropertyOp8
 70
     1
102
RTVSPropertyOp9
 70
     1
102
RTVSPropertyOp10
 70
     1
102
RTVSPropertyOp11
 70
     1
102
RTVSPropertyOp12
 70
     1
102
RTVSPropertyOp13
 70
     1
102
RTVSPropertyOp14
 70
     1
102
RTVSPropertyOp15
 70
     1
102
RTVSPropertyOp16
 70
     1
102
RTVSPropertyOp17
 70
     1
102
RTVSPropertyOp18
 70
     1
102
RTVSPropertyOp19
 70
     1
102
RTVSPropertyOp20
 70
     1
102
RTVSPropertyOp21
 70
     1
102
RTVSPropertyOp22
 70
     1
102
RTVSPropertyOp23
 70
     1
102
RTVSPropertyOp24
 70
     1
102
RTVSPropertyOp25
 70
     1
102
RTVSPropertyOp26
 70
     1
102
RTVSPropertyOp27
 70
     1
102
RTVSPropertyOp28
 70
     1
102
RTVSPropertyOp29
 70
     1
102
RTVSPropertyOp30
 70
     1
102
RTVSPropertyOp31
 70
     1
102
RTVSPropertyOp32
 70
     1
102
RTVSPropertyOp33
 70
     1
102
RTVSPropertyOp34
 70
     1
102
RTVSPropertyOp35
 70
     1
102
RTVSPropertyOp36
 70
     1
102
RTVSPropertyOp37
 70
     1
102
RTVSPropertyOp38
 70
     1
102
RTVSPropertyOp39
 70
     1
102
RTVSPropertyOp40
 70
     1
102
RTVSPropertyOp41
 70
     1
102
RTVSPropertyOp42
 70
     1
102
RTVSPropertyOp43
 70
     1
102
RTVSPropertyOp44
 70
     1
102
RTVSPropertyOp45
 70
     1
102
RTVSPropertyOp46
 70
     1
102
RTVSPropertyOp47
 70
     1
102
RTVSPropertyOp48
 70
     1
102
RTVSPropertyOp49
 70
     1
102
RTVSPropertyOp50
 70
     1
102
RTVSPropertyOp51
 70
     0
102
RTVSPropertyOp52
 70
     0
102
RTVSPropertyOp53
 70
     1
102
RTVSPropertyOp54
 70
     1
102
RTVSPropertyOp55
 70
     1
102
RTVSPropertyOp56
 70
     1
102
RTVSPropertyOp57
 70
     1
102
RTVSPropertyOp58
 70
     1
102
RTVSPropertyOp59
 70
     1
102
RTVSPropertyOp60
 70
     1
102
RTVSPropertyOp61
 70
     1
102
RTVSPropertyOp62
 70
     1
  0
XRECORD
  5
82E0
102
{ACAD_REACTORS
330
82DF
102
}
330
82DF
100
AcDbXrecord
280
     1
102
RTVSPost2010Prop28
280
     0
102
RTVSPost2010PropOp28
 70
     1
102
RTVSPost2010Prop29
280
     1
102
RTVSPost2010PropOp29
 70
     1
102
RTVSPost2010Prop30
280
     1
102
RTVSPost2010PropOp30
 70
     1
102
RTVSPost2010Prop31
280
     0
102
RTVSPost2010PropOp31
 70
     1
102
RTVSPost2010Prop32
280
     0
102
RTVSPost2010PropOp32
 70
     1
102
RTVSPost2010Prop33
280
     0
102
RTVSPost2010PropOp33
 70
     1
102
RTVSPost2010Prop34
280
     0
102
RTVSPost2010PropOp34
 70
     1
102
RTVSPost2010Prop35
280
     0
102
RTVSPost2010PropOp35
 70
     1
102
RTVSPost2010Prop36
280
     0
102
RTVSPost2010PropOp36
 70
     1
102
RTVSPost2010Prop37
 90
       50
102
RTVSPost2010PropOp37
 70
     0
102
RTVSPost2010Prop38
140
0.0
102
RTVSPost2010PropOp38
 70
     0
102
RTVSPost2010Prop39
140
1.0
102
RTVSPost2010PropOp39
 70
     0
102
RTVSPost2010Prop40
 90
        0
102
RTVSPost2010PropOp40
 70
     0
102
RTVSPost2010Prop41ColorIndex
 90
       18
102
RTVSPost2010Prop41ColorRGB
 90
        0
102
RTVSPost2010PropOp41
 70
     0
102
RTVSPost2010Prop42
 90
       50
102
RTVSPost2010PropOp42
 70
     0
102
RTVSPost2010Prop43
 90
        3
102
RTVSPost2010PropOp43
 70
     0
102
RTVSPost2010Prop44ColorIndex
 90
        5
102
RTVSPost2010Prop44ColorRGB
 90
      255
102
RTVSPost2010PropOp44
 70
     0
102
RTVSPost2010Prop45
280
     0
102
RTVSPost2010PropOp45
 70
     1
102
RTVSPost2010Prop46
 90
       50
102
RTVSPost2010PropOp46
 70
     0
102
RTVSPost2010Prop47
 90
       50
102
RTVSPost2010PropOp47
 70
     0
102
RTVSPost2010Prop48
 90
       50
102
RTVSPost2010PropOp48
 70
     0
102
RTVSPost2010Prop49
280
     0
102
RTVSPost2010PropOp49
 70
     1
102
RTVSPost2010Prop50
 90
       50
102
RTVSPost2010PropOp50
 70
     0
102
RTVSPost2010Prop51ColorIndex
 90
      256
102
RTVSPost2010Prop51ColorRGB
 90
-16777216
102
RTVSPost2010PropOp51
 70
     0
102
RTVSPost2010Prop52
140
1.0
102
RTVSPost2010PropOp52
 70
     0
102
RTVSPost2010Prop53
 90
        2
102
RTVSPost2010PropOp53
 70
     0
102
RTVSPost2010Prop54
  1
strokes_ogs.tif
102
RTVSPost2010PropOp54
 70
     0
102
RTVSPost2010Prop55
280
     0
102
RTVSPost2010PropOp55
 70
     1
102
RTVSPost2010Prop56
140
1.0
102
RTVSPost2010PropOp56
 70
     0
102
RTVSPost2010Prop57
140
1.0
102
RTVSPost2010PropOp57
 70
     0
102
RTVSPropertyOp0
 70
     0
102
RTVSPropertyOp1
 70
     0
102
RTVSPropertyOp2
 70
     0
102
RTVSPropertyOp3
 70
     0
102
RTVSPropertyOp4
 70
     0
102
RTVSPropertyOp5
 70
     0
102
RTVSPropertyOp6
 70
     0
102
RTVSPropertyOp7
 70
     0
102
RTVSPropertyOp8
 70
     0
102
RTVSPropertyOp9
 70
     0
102
RTVSPropertyOp10
 70
     0
102
RTVSPropertyOp11
 70
     0
102
RTVSPropertyOp12
 70
     0
102
RTVSPropertyOp13
 70
     0
102
RTVSPropertyOp14
 70
     2
102
RTVSPropertyOp15
 70
     0
102
RTVSPropertyOp16
 70
     0
102
RTVSPropertyOp17
 70
     0
102
RTVSPropertyOp18
 70
     0
102
RTVSPropertyOp19
 70
     0
102
RTVSPropertyOp20
 70
     0
102
RTVSPropertyOp21
 70
     0
102
RTVSPropertyOp22
 70
     0
102
RTVSPropertyOp23
 70
     0
102
RTVSPropertyOp24
 70
     0
102
RTVSPropertyOp25
 70
     0
102
RTVSPropertyOp26
 70
     0
102
RTVSPropertyOp27
 70
     0
102
RTVSPropertyOp28
 70
     1
102
RTVSPropertyOp29
 70
     1
102
RTVSPropertyOp30
 70
     1
102
RTVSPropertyOp31
 70
     1
102
RTVSPropertyOp32
 70
     1
102
RTVSPropertyOp33
 70
     1
102
RTVSPropertyOp34
 70
     1
102
RTVSPropertyOp35
 70
     1
102
RTVSPropertyOp36
 70
     1
102
RTVSPropertyOp37
 70
     0
102
RTVSPropertyOp38
 70
     0
102
RTVSPropertyOp39
 70
     0
102
RTVSPropertyOp40
 70
     0
102
RTVSPropertyOp41
 70
     0
102
RTVSPropertyOp42
 70
     0
102
RTVSPropertyOp43
 70
     0
102
RTVSPropertyOp44
 70
     0
102
RTVSPropertyOp45
 70
     1
102
RTVSPropertyOp46
 70
     0
102
RTVSPropertyOp47
 70
     0
102
RTVSPropertyOp48
 70
     0
102
RTVSPropertyOp49
 70
     1
102
RTVSPropertyOp50
 70
     0
102
RTVSPropertyOp51
 70
     0
102
RTVSPropertyOp52
 70
     0
102
RTVSPropertyOp53
 70
     0
102
RTVSPropertyOp54
 70
     0
102
RTVSPropertyOp55
 70
     1
102
RTVSPropertyOp56
 70
     0
102
RTVSPropertyOp57
 70
     0
102
RTVSPropertyOp58
 70
     0
102
RTVSPropertyOp59
 70
     0
102
RTVSPropertyOp60
 70
     0
102
RTVSPropertyOp61
 70
     0
102
RTVSPropertyOp62
 70
     0
  0
XRECORD
  5
82D0
102
{ACAD_REACTORS
330
82CF
102
}
330
82CF
100
AcDbXrecord
280
     1
102
RTVSPost2010Prop28
280
     0
102
RTVSPost2010PropOp28
 70
     1
102
RTVSPost2010Prop29
280
     1
102
RTVSPost2010PropOp29
 70
     1
102
RTVSPost2010Prop30
280
     1
102
RTVSPost2010PropOp30
 70
     1
102
RTVSPost2010Prop31
280
     0
102
RTVSPost2010PropOp31
 70
     1
102
RTVSPost2010Prop32
280
     0
102
RTVSPost2010PropOp32
 70
     1
102
RTVSPost2010Prop33
280
     0
102
RTVSPost2010PropOp33
 70
     1
102
RTVSPost2010Prop34
280
     0
102
RTVSPost2010PropOp34
 70
     1
102
RTVSPost2010Prop35
280
     0
102
RTVSPost2010PropOp35
 70
     1
102
RTVSPost2010Prop36
280
     0
102
RTVSPost2010PropOp36
 70
     1
102
RTVSPost2010Prop37
 90
       50
102
RTVSPost2010PropOp37
 70
     1
102
RTVSPost2010Prop38
140
0.0
102
RTVSPost2010PropOp38
 70
     1
102
RTVSPost2010Prop39
140
1.0
102
RTVSPost2010PropOp39
 70
     1
102
RTVSPost2010Prop40
 90
        0
102
RTVSPost2010PropOp40
 70
     1
102
RTVSPost2010Prop41ColorIndex
 90
       18
102
RTVSPost2010Prop41ColorRGB
 90
        0
102
RTVSPost2010PropOp41
 70
     1
102
RTVSPost2010Prop42
 90
       50
102
RTVSPost2010PropOp42
 70
     1
102
RTVSPost2010Prop43
 90
        3
102
RTVSPost2010PropOp43
 70
     1
102
RTVSPost2010Prop44ColorIndex
 90
        5
102
RTVSPost2010Prop44ColorRGB
 90
      255
102
RTVSPost2010PropOp44
 70
     1
102
RTVSPost2010Prop45
280
     0
102
RTVSPost2010PropOp45
 70
     1
102
RTVSPost2010Prop46
 90
       50
102
RTVSPost2010PropOp46
 70
     1
102
RTVSPost2010Prop47
 90
       50
102
RTVSPost2010PropOp47
 70
     1
102
RTVSPost2010Prop48
 90
       50
102
RTVSPost2010PropOp48
 70
     1
102
RTVSPost2010Prop49
280
     0
102
RTVSPost2010PropOp49
 70
     1
102
RTVSPost2010Prop50
 90
       50
102
RTVSPost2010PropOp50
 70
     1
102
RTVSPost2010Prop51ColorIndex
 90
      256
102
RTVSPost2010Prop51ColorRGB
 90
-16777216
102
RTVSPost2010PropOp51
 70
     0
102
RTVSPost2010Prop52
140
1.0
102
RTVSPost2010PropOp52
 70
     0
102
RTVSPost2010Prop53
 90
        2
102
RTVSPost2010PropOp53
 70
     1
102
RTVSPost2010Prop54
  1
strokes_ogs.tif
102
RTVSPost2010PropOp54
 70
     1
102
RTVSPost2010Prop55
280
     0
102
RTVSPost2010PropOp55
 70
     1
102
RTVSPost2010Prop56
140
1.0
102
RTVSPost2010PropOp56
 70
     1
102
RTVSPost2010Prop57
140
1.0
102
RTVSPost2010PropOp57
 70
     1
102
RTVSPropertyOp0
 70
     1
102
RTVSPropertyOp1
 70
     1
102
RTVSPropertyOp2
 70
     1
102
RTVSPropertyOp3
 70
     1
102
RTVSPropertyOp4
 70
     1
102
RTVSPropertyOp5
 70
     1
102
RTVSPropertyOp6
 70
     1
102
RTVSPropertyOp7
 70
     1
102
RTVSPropertyOp8
 70
     1
102
RTVSPropertyOp9
 70
     1
102
RTVSPropertyOp10
 70
     1
102
RTVSPropertyOp11
 70
     1
102
RTVSPropertyOp12
 70
     1
102
RTVSPropertyOp13
 70
     1
102
RTVSPropertyOp14
 70
     1
102
RTVSPropertyOp15
 70
     1
102
RTVSPropertyOp16
 70
     1
102
RTVSPropertyOp17
 70
     1
102
RTVSPropertyOp18
 70
     1
102
RTVSPropertyOp19
 70
     1
102
RTVSPropertyOp20
 70
     1
102
RTVSPropertyOp21
 70
     1
102
RTVSPropertyOp22
 70
     1
102
RTVSPropertyOp23
 70
     1
102
RTVSPropertyOp24
 70
     1
102
RTVSPropertyOp25
 70
     1
102
RTVSPropertyOp26
 70
     1
102
RTVSPropertyOp27
 70
     1
102
RTVSPropertyOp28
 70
     1
102
RTVSPropertyOp29
 70
     1
102
RTVSPropertyOp30
 70
     1
102
RTVSPropertyOp31
 70
     1
102
RTVSPropertyOp32
 70
     1
102
RTVSPropertyOp33
 70
     1
102
RTVSPropertyOp34
 70
     1
102
RTVSPropertyOp35
 70
     1
102
RTVSPropertyOp36
 70
     1
102
RTVSPropertyOp37
 70
     1
102
RTVSPropertyOp38
 70
     1
102
RTVSPropertyOp39
 70
     1
102
RTVSPropertyOp40
 70
     1
102
RTVSPropertyOp41
 70
     1
102
RTVSPropertyOp42
 70
     1
102
RTVSPropertyOp43
 70
     1
102
RTVSPropertyOp44
 70
     1
102
RTVSPropertyOp45
 70
     1
102
RTVSPropertyOp46
 70
     1
102
RTVSPropertyOp47
 70
     1
102
RTVSPropertyOp48
 70
     1
102
RTVSPropertyOp49
 70
     1
102
RTVSPropertyOp50
 70
     1
102
RTVSPropertyOp51
 70
     0
102
RTVSPropertyOp52
 70
     0
102
RTVSPropertyOp53
 70
     1
102
RTVSPropertyOp54
 70
     1
102
RTVSPropertyOp55
 70
     1
102
RTVSPropertyOp56
 70
     1
102
RTVSPropertyOp57
 70
     1
102
RTVSPropertyOp58
 70
     1
102
RTVSPropertyOp59
 70
     1
102
RTVSPropertyOp60
 70
     1
102
RTVSPropertyOp61
 70
     1
102
RTVSPropertyOp62
 70
     1
  0
XRECORD
  5
82E2
102
{ACAD_REACTORS
330
82E1
102
}
330
82E1
100
AcDbXrecord
280
     1
102
RTVSPost2010Prop28
280
     0
102
RTVSPost2010PropOp28
 70
     1
102
RTVSPost2010Prop29
280
     1
102
RTVSPost2010PropOp29
 70
     1
102
RTVSPost2010Prop30
280
     1
102
RTVSPost2010PropOp30
 70
     1
102
RTVSPost2010Prop31
280
     0
102
RTVSPost2010PropOp31
 70
     1
102
RTVSPost2010Prop32
280
     0
102
RTVSPost2010PropOp32
 70
     1
102
RTVSPost2010Prop33
280
     0
102
RTVSPost2010PropOp33
 70
     1
102
RTVSPost2010Prop34
280
     0
102
RTVSPost2010PropOp34
 70
     1
102
RTVSPost2010Prop35
280
     0
102
RTVSPost2010PropOp35
 70
     1
102
RTVSPost2010Prop36
280
     0
102
RTVSPost2010PropOp36
 70
     1
102
RTVSPost2010Prop37
 90
       50
102
RTVSPost2010PropOp37
 70
     0
102
RTVSPost2010Prop38
140
0.0
102
RTVSPost2010PropOp38
 70
     0
102
RTVSPost2010Prop39
140
1.0
102
RTVSPost2010PropOp39
 70
     0
102
RTVSPost2010Prop40
 90
        0
102
RTVSPost2010PropOp40
 70
     0
102
RTVSPost2010Prop41ColorIndex
 90
       18
102
RTVSPost2010Prop41ColorRGB
 90
        0
102
RTVSPost2010PropOp41
 70
     0
102
RTVSPost2010Prop42
 90
       50
102
RTVSPost2010PropOp42
 70
     0
102
RTVSPost2010Prop43
 90
        3
102
RTVSPost2010PropOp43
 70
     0
102
RTVSPost2010Prop44ColorIndex
 90
        5
102
RTVSPost2010Prop44ColorRGB
 90
      255
102
RTVSPost2010PropOp44
 70
     0
102
RTVSPost2010Prop45
280
     0
102
RTVSPost2010PropOp45
 70
     1
102
RTVSPost2010Prop46
 90
       50
102
RTVSPost2010PropOp46
 70
     0
102
RTVSPost2010Prop47
 90
       50
102
RTVSPost2010PropOp47
 70
     0
102
RTVSPost2010Prop48
 90
       50
102
RTVSPost2010PropOp48
 70
     0
102
RTVSPost2010Prop49
280
     0
102
RTVSPost2010PropOp49
 70
     1
102
RTVSPost2010Prop50
 90
       50
102
RTVSPost2010PropOp50
 70
     0
102
RTVSPost2010Prop51ColorIndex
 90
      256
102
RTVSPost2010Prop51ColorRGB
 90
-16777216
102
RTVSPost2010PropOp51
 70
     0
102
RTVSPost2010Prop52
140
1.0
102
RTVSPost2010PropOp52
 70
     0
102
RTVSPost2010Prop53
 90
        2
102
RTVSPost2010PropOp53
 70
     0
102
RTVSPost2010Prop54
  1
strokes_ogs.tif
102
RTVSPost2010PropOp54
 70
     0
102
RTVSPost2010Prop55
280
     0
102
RTVSPost2010PropOp55
 70
     1
102
RTVSPost2010Prop56
140
1.0
102
RTVSPost2010PropOp56
 70
     0
102
RTVSPost2010Prop57
140
1.0
102
RTVSPost2010PropOp57
 70
     0
102
RTVSPropertyOp0
 70
     0
102
RTVSPropertyOp1
 70
     0
102
RTVSPropertyOp2
 70
     0
102
RTVSPropertyOp3
 70
     0
102
RTVSPropertyOp4
 70
     0
102
RTVSPropertyOp5
 70
     0
102
RTVSPropertyOp6
 70
     0
102
RTVSPropertyOp7
 70
     0
102
RTVSPropertyOp8
 70
     0
102
RTVSPropertyOp9
 70
     0
102
RTVSPropertyOp10
 70
     0
102
RTVSPropertyOp11
 70
     0
102
RTVSPropertyOp12
 70
     0
102
RTVSPropertyOp13
 70
     0
102
RTVSPropertyOp14
 70
     2
102
RTVSPropertyOp15
 70
     0
102
RTVSPropertyOp16
 70
     0
102
RTVSPropertyOp17
 70
     0
102
RTVSPropertyOp18
 70
     0
102
RTVSPropertyOp19
 70
     0
102
RTVSPropertyOp20
 70
     0
102
RTVSPropertyOp21
 70
     0
102
RTVSPropertyOp22
 70
     0
102
RTVSPropertyOp23
 70
     0
102
RTVSPropertyOp24
 70
     0
102
RTVSPropertyOp25
 70
     0
102
RTVSPropertyOp26
 70
     0
102
RTVSPropertyOp27
 70
     0
102
RTVSPropertyOp28
 70
     1
102
RTVSPropertyOp29
 70
     1
102
RTVSPropertyOp30
 70
     1
102
RTVSPropertyOp31
 70
     1
102
RTVSPropertyOp32
 70
     1
102
RTVSPropertyOp33
 70
     1
102
RTVSPropertyOp34
 70
     1
102
RTVSPropertyOp35
 70
     1
102
RTVSPropertyOp36
 70
     1
102
RTVSPropertyOp37
 70
     0
102
RTVSPropertyOp38
 70
     0
102
RTVSPropertyOp39
 70
     0
102
RTVSPropertyOp40
 70
     0
102
RTVSPropertyOp41
 70
     0
102
RTVSPropertyOp42
 70
     0
102
RTVSPropertyOp43
 70
     0
102
RTVSPropertyOp44
 70
     0
102
RTVSPropertyOp45
 70
     1
102
RTVSPropertyOp46
 70
     0
102
RTVSPropertyOp47
 70
     0
102
RTVSPropertyOp48
 70
     0
102
RTVSPropertyOp49
 70
     1
102
RTVSPropertyOp50
 70
     0
102
RTVSPropertyOp51
 70
     0
102
RTVSPropertyOp52
 70
     0
102
RTVSPropertyOp53
 70
     0
102
RTVSPropertyOp54
 70
     0
102
RTVSPropertyOp55
 70
     1
102
RTVSPropertyOp56
 70
     0
102
RTVSPropertyOp57
 70
     0
102
RTVSPropertyOp58
 70
     0
102
RTVSPropertyOp59
 70
     0
102
RTVSPropertyOp60
 70
     0
102
RTVSPropertyOp61
 70
     0
102
RTVSPropertyOp62
 70
     0
  0
XRECORD
  5
82C8
102
{ACAD_REACTORS
330
82C7
102
}
330
82C7
100
AcDbXrecord
280
     1
102
RTVSPost2010Prop28
280
     0
102
RTVSPost2010PropOp28
 70
     1
102
RTVSPost2010Prop29
280
     1
102
RTVSPost2010PropOp29
 70
     1
102
RTVSPost2010Prop30
280
     1
102
RTVSPost2010PropOp30
 70
     1
102
RTVSPost2010Prop31
280
     0
102
RTVSPost2010PropOp31
 70
     1
102
RTVSPost2010Prop32
280
     0
102
RTVSPost2010PropOp32
 70
     1
102
RTVSPost2010Prop33
280
     0
102
RTVSPost2010PropOp33
 70
     1
102
RTVSPost2010Prop34
280
     0
102
RTVSPost2010PropOp34
 70
     1
102
RTVSPost2010Prop35
280
     0
102
RTVSPost2010PropOp35
 70
     1
102
RTVSPost2010Prop36
280
     0
102
RTVSPost2010PropOp36
 70
     1
102
RTVSPost2010Prop37
 90
       50
102
RTVSPost2010PropOp37
 70
     1
102
RTVSPost2010Prop38
140
0.0
102
RTVSPost2010PropOp38
 70
     1
102
RTVSPost2010Prop39
140
1.0
102
RTVSPost2010PropOp39
 70
     1
102
RTVSPost2010Prop40
 90
        0
102
RTVSPost2010PropOp40
 70
     1
102
RTVSPost2010Prop41ColorIndex
 90
       18
102
RTVSPost2010Prop41ColorRGB
 90
        0
102
RTVSPost2010PropOp41
 70
     1
102
RTVSPost2010Prop42
 90
       50
102
RTVSPost2010PropOp42
 70
     1
102
RTVSPost2010Prop43
 90
        3
102
RTVSPost2010PropOp43
 70
     1
102
RTVSPost2010Prop44ColorIndex
 90
        5
102
RTVSPost2010Prop44ColorRGB
 90
      255
102
RTVSPost2010PropOp44
 70
     1
102
RTVSPost2010Prop45
280
     0
102
RTVSPost2010PropOp45
 70
     1
102
RTVSPost2010Prop46
 90
       50
102
RTVSPost2010PropOp46
 70
     1
102
RTVSPost2010Prop47
 90
       50
102
RTVSPost2010PropOp47
 70
     1
102
RTVSPost2010Prop48
 90
       50
102
RTVSPost2010PropOp48
 70
     1
102
RTVSPost2010Prop49
280
     0
102
RTVSPost2010PropOp49
 70
     1
102
RTVSPost2010Prop50
 90
       50
102
RTVSPost2010PropOp50
 70
     1
102
RTVSPost2010Prop51ColorIndex
 90
      256
102
RTVSPost2010Prop51ColorRGB
 90
-16777216
102
RTVSPost2010PropOp51
 70
     0
102
RTVSPost2010Prop52
140
1.0
102
RTVSPost2010PropOp52
 70
     0
102
RTVSPost2010Prop53
 90
        2
102
RTVSPost2010PropOp53
 70
     1
102
RTVSPost2010Prop54
  1
strokes_ogs.tif
102
RTVSPost2010PropOp54
 70
     1
102
RTVSPost2010Prop55
280
     0
102
RTVSPost2010PropOp55
 70
     1
102
RTVSPost2010Prop56
140
1.0
102
RTVSPost2010PropOp56
 70
     1
102
RTVSPost2010Prop57
140
1.0
102
RTVSPost2010PropOp57
 70
     1
102
RTVSPropertyOp0
 70
     1
102
RTVSPropertyOp1
 70
     1
102
RTVSPropertyOp2
 70
     1
102
RTVSPropertyOp3
 70
     1
102
RTVSPropertyOp4
 70
     1
102
RTVSPropertyOp5
 70
     1
102
RTVSPropertyOp6
 70
     1
102
RTVSPropertyOp7
 70
     1
102
RTVSPropertyOp8
 70
     1
102
RTVSPropertyOp9
 70
     1
102
RTVSPropertyOp10
 70
     1
102
RTVSPropertyOp11
 70
     1
102
RTVSPropertyOp12
 70
     1
102
RTVSPropertyOp13
 70
     1
102
RTVSPropertyOp14
 70
     1
102
RTVSPropertyOp15
 70
     1
102
RTVSPropertyOp16
 70
     1
102
RTVSPropertyOp17
 70
     1
102
RTVSPropertyOp18
 70
     1
102
RTVSPropertyOp19
 70
     1
102
RTVSPropertyOp20
 70
     1
102
RTVSPropertyOp21
 70
     1
102
RTVSPropertyOp22
 70
     1
102
RTVSPropertyOp23
 70
     1
102
RTVSPropertyOp24
 70
     1
102
RTVSPropertyOp25
 70
     1
102
RTVSPropertyOp26
 70
     1
102
RTVSPropertyOp27
 70
     1
102
RTVSPropertyOp28
 70
     1
102
RTVSPropertyOp29
 70
     1
102
RTVSPropertyOp30
 70
     1
102
RTVSPropertyOp31
 70
     1
102
RTVSPropertyOp32
 70
     1
102
RTVSPropertyOp33
 70
     1
102
RTVSPropertyOp34
 70
     1
102
RTVSPropertyOp35
 70
     1
102
RTVSPropertyOp36
 70
     1
102
RTVSPropertyOp37
 70
     1
102
RTVSPropertyOp38
 70
     1
102
RTVSPropertyOp39
 70
     1
102
RTVSPropertyOp40
 70
     1
102
RTVSPropertyOp41
 70
     1
102
RTVSPropertyOp42
 70
     1
102
RTVSPropertyOp43
 70
     1
102
RTVSPropertyOp44
 70
     1
102
RTVSPropertyOp45
 70
     1
102
RTVSPropertyOp46
 70
     1
102
RTVSPropertyOp47
 70
     1
102
RTVSPropertyOp48
 70
     1
102
RTVSPropertyOp49
 70
     1
102
RTVSPropertyOp50
 70
     1
102
RTVSPropertyOp51
 70
     0
102
RTVSPropertyOp52
 70
     0
102
RTVSPropertyOp53
 70
     1
102
RTVSPropertyOp54
 70
     1
102
RTVSPropertyOp55
 70
     1
102
RTVSPropertyOp56
 70
     1
102
RTVSPropertyOp57
 70
     1
102
RTVSPropertyOp58
 70
     1
102
RTVSPropertyOp59
 70
     1
102
RTVSPropertyOp60
 70
     1
102
RTVSPropertyOp61
 70
     1
102
RTVSPropertyOp62
 70
     1
  0
XRECORD
  5
82DE
102
{ACAD_REACTORS
330
82DD
102
}
330
82DD
100
AcDbXrecord
280
     1
102
RTVSPost2010Prop28
280
     0
102
RTVSPost2010PropOp28
 70
     1
102
RTVSPost2010Prop29
280
     1
102
RTVSPost2010PropOp29
 70
     1
102
RTVSPost2010Prop30
280
     1
102
RTVSPost2010PropOp30
 70
     1
102
RTVSPost2010Prop31
280
     0
102
RTVSPost2010PropOp31
 70
     1
102
RTVSPost2010Prop32
280
     0
102
RTVSPost2010PropOp32
 70
     1
102
RTVSPost2010Prop33
280
     0
102
RTVSPost2010PropOp33
 70
     1
102
RTVSPost2010Prop34
280
     0
102
RTVSPost2010PropOp34
 70
     1
102
RTVSPost2010Prop35
280
     0
102
RTVSPost2010PropOp35
 70
     1
102
RTVSPost2010Prop36
280
     0
102
RTVSPost2010PropOp36
 70
     1
102
RTVSPost2010Prop37
 90
       50
102
RTVSPost2010PropOp37
 70
     1
102
RTVSPost2010Prop38
140
0.0
102
RTVSPost2010PropOp38
 70
     1
102
RTVSPost2010Prop39
140
1.0
102
RTVSPost2010PropOp39
 70
     1
102
RTVSPost2010Prop40
 90
        0
102
RTVSPost2010PropOp40
 70
     1
102
RTVSPost2010Prop41ColorIndex
 90
       18
102
RTVSPost2010Prop41ColorRGB
 90
        0
102
RTVSPost2010PropOp41
 70
     1
102
RTVSPost2010Prop42
 90
       50
102
RTVSPost2010PropOp42
 70
     1
102
RTVSPost2010Prop43
 90
        3
102
RTVSPost2010PropOp43
 70
     1
102
RTVSPost2010Prop44ColorIndex
 90
        5
102
RTVSPost2010Prop44ColorRGB
 90
      255
102
RTVSPost2010PropOp44
 70
     1
102
RTVSPost2010Prop45
280
     0
102
RTVSPost2010PropOp45
 70
     1
102
RTVSPost2010Prop46
 90
       50
102
RTVSPost2010PropOp46
 70
     1
102
RTVSPost2010Prop47
 90
       50
102
RTVSPost2010PropOp47
 70
     1
102
RTVSPost2010Prop48
 90
       50
102
RTVSPost2010PropOp48
 70
     1
102
RTVSPost2010Prop49
280
     0
102
RTVSPost2010PropOp49
 70
     1
102
RTVSPost2010Prop50
 90
       50
102
RTVSPost2010PropOp50
 70
     1
102
RTVSPost2010Prop51ColorIndex
 90
      256
102
RTVSPost2010Prop51ColorRGB
 90
-16777216
102
RTVSPost2010PropOp51
 70
     0
102
RTVSPost2010Prop52
140
1.0
102
RTVSPost2010PropOp52
 70
     0
102
RTVSPost2010Prop53
 90
        2
102
RTVSPost2010PropOp53
 70
     1
102
RTVSPost2010Prop54
  1
strokes_ogs.tif
102
RTVSPost2010PropOp54
 70
     1
102
RTVSPost2010Prop55
280
     0
102
RTVSPost2010PropOp55
 70
     1
102
RTVSPost2010Prop56
140
1.0
102
RTVSPost2010PropOp56
 70
     1
102
RTVSPost2010Prop57
140
1.0
102
RTVSPost2010PropOp57
 70
     1
102
RTVSPropertyOp0
 70
     1
102
RTVSPropertyOp1
 70
     1
102
RTVSPropertyOp2
 70
     1
102
RTVSPropertyOp3
 70
     1
102
RTVSPropertyOp4
 70
     1
102
RTVSPropertyOp5
 70
     1
102
RTVSPropertyOp6
 70
     1
102
RTVSPropertyOp7
 70
     1
102
RTVSPropertyOp8
 70
     1
102
RTVSPropertyOp9
 70
     1
102
RTVSPropertyOp10
 70
     1
102
RTVSPropertyOp11
 70
     1
102
RTVSPropertyOp12
 70
     1
102
RTVSPropertyOp13
 70
     1
102
RTVSPropertyOp14
 70
     1
102
RTVSPropertyOp15
 70
     1
102
RTVSPropertyOp16
 70
     1
102
RTVSPropertyOp17
 70
     1
102
RTVSPropertyOp18
 70
     1
102
RTVSPropertyOp19
 70
     1
102
RTVSPropertyOp20
 70
     1
102
RTVSPropertyOp21
 70
     1
102
RTVSPropertyOp22
 70
     1
102
RTVSPropertyOp23
 70
     1
102
RTVSPropertyOp24
 70
     1
102
RTVSPropertyOp25
 70
     1
102
RTVSPropertyOp26
 70
     1
102
RTVSPropertyOp27
 70
     1
102
RTVSPropertyOp28
 70
     1
102
RTVSPropertyOp29
 70
     1
102
RTVSPropertyOp30
 70
     1
102
RTVSPropertyOp31
 70
     1
102
RTVSPropertyOp32
 70
     1
102
RTVSPropertyOp33
 70
     1
102
RTVSPropertyOp34
 70
     1
102
RTVSPropertyOp35
 70
     1
102
RTVSPropertyOp36
 70
     1
102
RTVSPropertyOp37
 70
     1
102
RTVSPropertyOp38
 70
     1
102
RTVSPropertyOp39
 70
     1
102
RTVSPropertyOp40
 70
     1
102
RTVSPropertyOp41
 70
     1
102
RTVSPropertyOp42
 70
     1
102
RTVSPropertyOp43
 70
     1
102
RTVSPropertyOp44
 70
     1
102
RTVSPropertyOp45
 70
     1
102
RTVSPropertyOp46
 70
     1
102
RTVSPropertyOp47
 70
     1
102
RTVSPropertyOp48
 70
     1
102
RTVSPropertyOp49
 70
     1
102
RTVSPropertyOp50
 70
     1
102
RTVSPropertyOp51
 70
     0
102
RTVSPropertyOp52
 70
     0
102
RTVSPropertyOp53
 70
     1
102
RTVSPropertyOp54
 70
     1
102
RTVSPropertyOp55
 70
     1
102
RTVSPropertyOp56
 70
     1
102
RTVSPropertyOp57
 70
     1
102
RTVSPropertyOp58
 70
     1
102
RTVSPropertyOp59
 70
     1
102
RTVSPropertyOp60
 70
     1
102
RTVSPropertyOp61
 70
     1
102
RTVSPropertyOp62
 70
     1
  0
XRECORD
  5
82DC
102
{ACAD_REACTORS
330
82DB
102
}
330
82DB
100
AcDbXrecord
280
     1
102
RTVSPost2010Prop28
280
     0
102
RTVSPost2010PropOp28
 70
     1
102
RTVSPost2010Prop29
280
     1
102
RTVSPost2010PropOp29
 70
     1
102
RTVSPost2010Prop30
280
     1
102
RTVSPost2010PropOp30
 70
     1
102
RTVSPost2010Prop31
280
     0
102
RTVSPost2010PropOp31
 70
     1
102
RTVSPost2010Prop32
280
     0
102
RTVSPost2010PropOp32
 70
     1
102
RTVSPost2010Prop33
280
     0
102
RTVSPost2010PropOp33
 70
     1
102
RTVSPost2010Prop34
280
     0
102
RTVSPost2010PropOp34
 70
     1
102
RTVSPost2010Prop35
280
     0
102
RTVSPost2010PropOp35
 70
     1
102
RTVSPost2010Prop36
280
     0
102
RTVSPost2010PropOp36
 70
     1
102
RTVSPost2010Prop37
 90
       50
102
RTVSPost2010PropOp37
 70
     1
102
RTVSPost2010Prop38
140
0.0
102
RTVSPost2010PropOp38
 70
     1
102
RTVSPost2010Prop39
140
1.0
102
RTVSPost2010PropOp39
 70
     1
102
RTVSPost2010Prop40
 90
        0
102
RTVSPost2010PropOp40
 70
     1
102
RTVSPost2010Prop41ColorIndex
 90
       18
102
RTVSPost2010Prop41ColorRGB
 90
        0
102
RTVSPost2010PropOp41
 70
     1
102
RTVSPost2010Prop42
 90
       50
102
RTVSPost2010PropOp42
 70
     1
102
RTVSPost2010Prop43
 90
        3
102
RTVSPost2010PropOp43
 70
     1
102
RTVSPost2010Prop44ColorIndex
 90
        5
102
RTVSPost2010Prop44ColorRGB
 90
      255
102
RTVSPost2010PropOp44
 70
     1
102
RTVSPost2010Prop45
280
     0
102
RTVSPost2010PropOp45
 70
     1
102
RTVSPost2010Prop46
 90
       50
102
RTVSPost2010PropOp46
 70
     1
102
RTVSPost2010Prop47
 90
       50
102
RTVSPost2010PropOp47
 70
     1
102
RTVSPost2010Prop48
 90
       50
102
RTVSPost2010PropOp48
 70
     1
102
RTVSPost2010Prop49
280
     0
102
RTVSPost2010PropOp49
 70
     1
102
RTVSPost2010Prop50
 90
       50
102
RTVSPost2010PropOp50
 70
     1
102
RTVSPost2010Prop51ColorIndex
 90
      256
102
RTVSPost2010Prop51ColorRGB
 90
-16777216
102
RTVSPost2010PropOp51
 70
     0
102
RTVSPost2010Prop52
140
1.0
102
RTVSPost2010PropOp52
 70
     0
102
RTVSPost2010Prop53
 90
        2
102
RTVSPost2010PropOp53
 70
     1
102
RTVSPost2010Prop54
  1
strokes_ogs.tif
102
RTVSPost2010PropOp54
 70
     1
102
RTVSPost2010Prop55
280
     0
102
RTVSPost2010PropOp55
 70
     1
102
RTVSPost2010Prop56
140
1.0
102
RTVSPost2010PropOp56
 70
     1
102
RTVSPost2010Prop57
140
1.0
102
RTVSPost2010PropOp57
 70
     1
102
RTVSPropertyOp0
 70
     1
102
RTVSPropertyOp1
 70
     1
102
RTVSPropertyOp2
 70
     1
102
RTVSPropertyOp3
 70
     1
102
RTVSPropertyOp4
 70
     1
102
RTVSPropertyOp5
 70
     1
102
RTVSPropertyOp6
 70
     1
102
RTVSPropertyOp7
 70
     1
102
RTVSPropertyOp8
 70
     1
102
RTVSPropertyOp9
 70
     1
102
RTVSPropertyOp10
 70
     1
102
RTVSPropertyOp11
 70
     1
102
RTVSPropertyOp12
 70
     1
102
RTVSPropertyOp13
 70
     1
102
RTVSPropertyOp14
 70
     1
102
RTVSPropertyOp15
 70
     1
102
RTVSPropertyOp16
 70
     1
102
RTVSPropertyOp17
 70
     1
102
RTVSPropertyOp18
 70
     1
102
RTVSPropertyOp19
 70
     1
102
RTVSPropertyOp20
 70
     1
102
RTVSPropertyOp21
 70
     1
102
RTVSPropertyOp22
 70
     1
102
RTVSPropertyOp23
 70
     1
102
RTVSPropertyOp24
 70
     1
102
RTVSPropertyOp25
 70
     1
102
RTVSPropertyOp26
 70
     1
102
RTVSPropertyOp27
 70
     1
102
RTVSPropertyOp28
 70
     1
102
RTVSPropertyOp29
 70
     1
102
RTVSPropertyOp30
 70
     1
102
RTVSPropertyOp31
 70
     1
102
RTVSPropertyOp32
 70
     1
102
RTVSPropertyOp33
 70
     1
102
RTVSPropertyOp34
 70
     1
102
RTVSPropertyOp35
 70
     1
102
RTVSPropertyOp36
 70
     1
102
RTVSPropertyOp37
 70
     1
102
RTVSPropertyOp38
 70
     1
102
RTVSPropertyOp39
 70
     1
102
RTVSPropertyOp40
 70
     1
102
RTVSPropertyOp41
 70
     1
102
RTVSPropertyOp42
 70
     1
102
RTVSPropertyOp43
 70
     1
102
RTVSPropertyOp44
 70
     1
102
RTVSPropertyOp45
 70
     1
102
RTVSPropertyOp46
 70
     1
102
RTVSPropertyOp47
 70
     1
102
RTVSPropertyOp48
 70
     1
102
RTVSPropertyOp49
 70
     1
102
RTVSPropertyOp50
 70
     1
102
RTVSPropertyOp51
 70
     0
102
RTVSPropertyOp52
 70
     0
102
RTVSPropertyOp53
 70
     1
102
RTVSPropertyOp54
 70
     1
102
RTVSPropertyOp55
 70
     1
102
RTVSPropertyOp56
 70
     1
102
RTVSPropertyOp57
 70
     1
102
RTVSPropertyOp58
 70
     1
102
RTVSPropertyOp59
 70
     1
102
RTVSPropertyOp60
 70
     1
102
RTVSPropertyOp61
 70
     1
102
RTVSPropertyOp62
 70
     1
  0
XRECORD
  5
82D6
102
{ACAD_REACTORS
330
82D5
102
}
330
82D5
100
AcDbXrecord
280
     1
102
RTVSPost2010Prop28
280
     0
102
RTVSPost2010PropOp28
 70
     1
102
RTVSPost2010Prop29
280
     1
102
RTVSPost2010PropOp29
 70
     1
102
RTVSPost2010Prop30
280
     1
102
RTVSPost2010PropOp30
 70
     1
102
RTVSPost2010Prop31
280
     0
102
RTVSPost2010PropOp31
 70
     1
102
RTVSPost2010Prop32
280
     0
102
RTVSPost2010PropOp32
 70
     1
102
RTVSPost2010Prop33
280
     0
102
RTVSPost2010PropOp33
 70
     1
102
RTVSPost2010Prop34
280
     0
102
RTVSPost2010PropOp34
 70
     1
102
RTVSPost2010Prop35
280
     0
102
RTVSPost2010PropOp35
 70
     1
102
RTVSPost2010Prop36
280
     0
102
RTVSPost2010PropOp36
 70
     1
102
RTVSPost2010Prop37
 90
       50
102
RTVSPost2010PropOp37
 70
     1
102
RTVSPost2010Prop38
140
0.0
102
RTVSPost2010PropOp38
 70
     1
102
RTVSPost2010Prop39
140
1.0
102
RTVSPost2010PropOp39
 70
     1
102
RTVSPost2010Prop40
 90
        0
102
RTVSPost2010PropOp40
 70
     1
102
RTVSPost2010Prop41ColorIndex
 90
       18
102
RTVSPost2010Prop41ColorRGB
 90
        0
102
RTVSPost2010PropOp41
 70
     1
102
RTVSPost2010Prop42
 90
       50
102
RTVSPost2010PropOp42
 70
     1
102
RTVSPost2010Prop43
 90
        3
102
RTVSPost2010PropOp43
 70
     1
102
RTVSPost2010Prop44ColorIndex
 90
        5
102
RTVSPost2010Prop44ColorRGB
 90
      255
102
RTVSPost2010PropOp44
 70
     1
102
RTVSPost2010Prop45
280
     0
102
RTVSPost2010PropOp45
 70
     1
102
RTVSPost2010Prop46
 90
       50
102
RTVSPost2010PropOp46
 70
     1
102
RTVSPost2010Prop47
 90
       50
102
RTVSPost2010PropOp47
 70
     1
102
RTVSPost2010Prop48
 90
       50
102
RTVSPost2010PropOp48
 70
     1
102
RTVSPost2010Prop49
280
     0
102
RTVSPost2010PropOp49
 70
     1
102
RTVSPost2010Prop50
 90
       50
102
RTVSPost2010PropOp50
 70
     1
102
RTVSPost2010Prop51ColorIndex
 90
      256
102
RTVSPost2010Prop51ColorRGB
 90
-16777216
102
RTVSPost2010PropOp51
 70
     0
102
RTVSPost2010Prop52
140
1.0
102
RTVSPost2010PropOp52
 70
     0
102
RTVSPost2010Prop53
 90
        2
102
RTVSPost2010PropOp53
 70
     1
102
RTVSPost2010Prop54
  1
strokes_ogs.tif
102
RTVSPost2010PropOp54
 70
     1
102
RTVSPost2010Prop55
280
     0
102
RTVSPost2010PropOp55
 70
     1
102
RTVSPost2010Prop56
140
1.0
102
RTVSPost2010PropOp56
 70
     1
102
RTVSPost2010Prop57
140
1.0
102
RTVSPost2010PropOp57
 70
     1
102
RTVSPropertyOp0
 70
     1
102
RTVSPropertyOp1
 70
     1
102
RTVSPropertyOp2
 70
     1
102
RTVSPropertyOp3
 70
     1
102
RTVSPropertyOp4
 70
     1
102
RTVSPropertyOp5
 70
     1
102
RTVSPropertyOp6
 70
     1
102
RTVSPropertyOp7
 70
     1
102
RTVSPropertyOp8
 70
     1
102
RTVSPropertyOp9
 70
     1
102
RTVSPropertyOp10
 70
     1
102
RTVSPropertyOp11
 70
     1
102
RTVSPropertyOp12
 70
     1
102
RTVSPropertyOp13
 70
     1
102
RTVSPropertyOp14
 70
     1
102
RTVSPropertyOp15
 70
     1
102
RTVSPropertyOp16
 70
     1
102
RTVSPropertyOp17
 70
     1
102
RTVSPropertyOp18
 70
     1
102
RTVSPropertyOp19
 70
     1
102
RTVSPropertyOp20
 70
     1
102
RTVSPropertyOp21
 70
     1
102
RTVSPropertyOp22
 70
     1
102
RTVSPropertyOp23
 70
     1
102
RTVSPropertyOp24
 70
     1
102
RTVSPropertyOp25
 70
     1
102
RTVSPropertyOp26
 70
     1
102
RTVSPropertyOp27
 70
     1
102
RTVSPropertyOp28
 70
     1
102
RTVSPropertyOp29
 70
     1
102
RTVSPropertyOp30
 70
     1
102
RTVSPropertyOp31
 70
     1
102
RTVSPropertyOp32
 70
     1
102
RTVSPropertyOp33
 70
     1
102
RTVSPropertyOp34
 70
     1
102
RTVSPropertyOp35
 70
     1
102
RTVSPropertyOp36
 70
     1
102
RTVSPropertyOp37
 70
     1
102
RTVSPropertyOp38
 70
     1
102
RTVSPropertyOp39
 70
     1
102
RTVSPropertyOp40
 70
     1
102
RTVSPropertyOp41
 70
     1
102
RTVSPropertyOp42
 70
     1
102
RTVSPropertyOp43
 70
     1
102
RTVSPropertyOp44
 70
     1
102
RTVSPropertyOp45
 70
     1
102
RTVSPropertyOp46
 70
     1
102
RTVSPropertyOp47
 70
     1
102
RTVSPropertyOp48
 70
     1
102
RTVSPropertyOp49
 70
     1
102
RTVSPropertyOp50
 70
     1
102
RTVSPropertyOp51
 70
     0
102
RTVSPropertyOp52
 70
     0
102
RTVSPropertyOp53
 70
     1
102
RTVSPropertyOp54
 70
     1
102
RTVSPropertyOp55
 70
     1
102
RTVSPropertyOp56
 70
     1
102
RTVSPropertyOp57
 70
     1
102
RTVSPropertyOp58
 70
     1
102
RTVSPropertyOp59
 70
     1
102
RTVSPropertyOp60
 70
     1
102
RTVSPropertyOp61
 70
     1
102
RTVSPropertyOp62
 70
     1
  0
XRECORD
  5
82D8
102
{ACAD_REACTORS
330
82D7
102
}
330
82D7
100
AcDbXrecord
280
     1
102
RTVSPost2010Prop28
280
     0
102
RTVSPost2010PropOp28
 70
     1
102
RTVSPost2010Prop29
280
     1
102
RTVSPost2010PropOp29
 70
     1
102
RTVSPost2010Prop30
280
     1
102
RTVSPost2010PropOp30
 70
     1
102
RTVSPost2010Prop31
280
     0
102
RTVSPost2010PropOp31
 70
     1
102
RTVSPost2010Prop32
280
     0
102
RTVSPost2010PropOp32
 70
     1
102
RTVSPost2010Prop33
280
     0
102
RTVSPost2010PropOp33
 70
     1
102
RTVSPost2010Prop34
280
     0
102
RTVSPost2010PropOp34
 70
     1
102
RTVSPost2010Prop35
280
     0
102
RTVSPost2010PropOp35
 70
     1
102
RTVSPost2010Prop36
280
     0
102
RTVSPost2010PropOp36
 70
     1
102
RTVSPost2010Prop37
 90
       50
102
RTVSPost2010PropOp37
 70
     1
102
RTVSPost2010Prop38
140
0.0
102
RTVSPost2010PropOp38
 70
     1
102
RTVSPost2010Prop39
140
1.0
102
RTVSPost2010PropOp39
 70
     1
102
RTVSPost2010Prop40
 90
        0
102
RTVSPost2010PropOp40
 70
     1
102
RTVSPost2010Prop41ColorIndex
 90
       18
102
RTVSPost2010Prop41ColorRGB
 90
        0
102
RTVSPost2010PropOp41
 70
     1
102
RTVSPost2010Prop42
 90
       50
102
RTVSPost2010PropOp42
 70
     1
102
RTVSPost2010Prop43
 90
        3
102
RTVSPost2010PropOp43
 70
     1
102
RTVSPost2010Prop44ColorIndex
 90
        5
102
RTVSPost2010Prop44ColorRGB
 90
      255
102
RTVSPost2010PropOp44
 70
     1
102
RTVSPost2010Prop45
280
     0
102
RTVSPost2010PropOp45
 70
     1
102
RTVSPost2010Prop46
 90
       50
102
RTVSPost2010PropOp46
 70
     1
102
RTVSPost2010Prop47
 90
       50
102
RTVSPost2010PropOp47
 70
     1
102
RTVSPost2010Prop48
 90
       50
102
RTVSPost2010PropOp48
 70
     1
102
RTVSPost2010Prop49
280
     0
102
RTVSPost2010PropOp49
 70
     1
102
RTVSPost2010Prop50
 90
       50
102
RTVSPost2010PropOp50
 70
     1
102
RTVSPost2010Prop51ColorIndex
 90
      256
102
RTVSPost2010Prop51ColorRGB
 90
-16777216
102
RTVSPost2010PropOp51
 70
     0
102
RTVSPost2010Prop52
140
1.0
102
RTVSPost2010PropOp52
 70
     0
102
RTVSPost2010Prop53
 90
        2
102
RTVSPost2010PropOp53
 70
     1
102
RTVSPost2010Prop54
  1
strokes_ogs.tif
102
RTVSPost2010PropOp54
 70
     1
102
RTVSPost2010Prop55
280
     0
102
RTVSPost2010PropOp55
 70
     1
102
RTVSPost2010Prop56
140
1.0
102
RTVSPost2010PropOp56
 70
     1
102
RTVSPost2010Prop57
140
1.0
102
RTVSPost2010PropOp57
 70
     1
102
RTVSPropertyOp0
 70
     1
102
RTVSPropertyOp1
 70
     1
102
RTVSPropertyOp2
 70
     1
102
RTVSPropertyOp3
 70
     1
102
RTVSPropertyOp4
 70
     1
102
RTVSPropertyOp5
 70
     1
102
RTVSPropertyOp6
 70
     1
102
RTVSPropertyOp7
 70
     1
102
RTVSPropertyOp8
 70
     1
102
RTVSPropertyOp9
 70
     1
102
RTVSPropertyOp10
 70
     1
102
RTVSPropertyOp11
 70
     1
102
RTVSPropertyOp12
 70
     1
102
RTVSPropertyOp13
 70
     1
102
RTVSPropertyOp14
 70
     1
102
RTVSPropertyOp15
 70
     1
102
RTVSPropertyOp16
 70
     1
102
RTVSPropertyOp17
 70
     1
102
RTVSPropertyOp18
 70
     1
102
RTVSPropertyOp19
 70
     1
102
RTVSPropertyOp20
 70
     1
102
RTVSPropertyOp21
 70
     1
102
RTVSPropertyOp22
 70
     1
102
RTVSPropertyOp23
 70
     1
102
RTVSPropertyOp24
 70
     1
102
RTVSPropertyOp25
 70
     1
102
RTVSPropertyOp26
 70
     1
102
RTVSPropertyOp27
 70
     1
102
RTVSPropertyOp28
 70
     1
102
RTVSPropertyOp29
 70
     1
102
RTVSPropertyOp30
 70
     1
102
RTVSPropertyOp31
 70
     1
102
RTVSPropertyOp32
 70
     1
102
RTVSPropertyOp33
 70
     1
102
RTVSPropertyOp34
 70
     1
102
RTVSPropertyOp35
 70
     1
102
RTVSPropertyOp36
 70
     1
102
RTVSPropertyOp37
 70
     1
102
RTVSPropertyOp38
 70
     1
102
RTVSPropertyOp39
 70
     1
102
RTVSPropertyOp40
 70
     1
102
RTVSPropertyOp41
 70
     1
102
RTVSPropertyOp42
 70
     1
102
RTVSPropertyOp43
 70
     1
102
RTVSPropertyOp44
 70
     1
102
RTVSPropertyOp45
 70
     1
102
RTVSPropertyOp46
 70
     1
102
RTVSPropertyOp47
 70
     1
102
RTVSPropertyOp48
 70
     1
102
RTVSPropertyOp49
 70
     1
102
RTVSPropertyOp50
 70
     1
102
RTVSPropertyOp51
 70
     0
102
RTVSPropertyOp52
 70
     0
102
RTVSPropertyOp53
 70
     1
102
RTVSPropertyOp54
 70
     1
102
RTVSPropertyOp55
 70
     1
102
RTVSPropertyOp56
 70
     1
102
RTVSPropertyOp57
 70
     1
102
RTVSPropertyOp58
 70
     1
102
RTVSPropertyOp59
 70
     1
102
RTVSPropertyOp60
 70
     1
102
RTVSPropertyOp61
 70
     1
102
RTVSPropertyOp62
 70
     1
  0
XRECORD
  5
82CE
102
{ACAD_REACTORS
330
82CD
102
}
330
82CD
100
AcDbXrecord
280
     1
102
RTVSPost2010Prop28
280
     0
102
RTVSPost2010PropOp28
 70
     1
102
RTVSPost2010Prop29
280
     1
102
RTVSPost2010PropOp29
 70
     1
102
RTVSPost2010Prop30
280
     1
102
RTVSPost2010PropOp30
 70
     1
102
RTVSPost2010Prop31
280
     0
102
RTVSPost2010PropOp31
 70
     1
102
RTVSPost2010Prop32
280
     0
102
RTVSPost2010PropOp32
 70
     1
102
RTVSPost2010Prop33
280
     0
102
RTVSPost2010PropOp33
 70
     1
102
RTVSPost2010Prop34
280
     0
102
RTVSPost2010PropOp34
 70
     1
102
RTVSPost2010Prop35
280
     0
102
RTVSPost2010PropOp35
 70
     1
102
RTVSPost2010Prop36
280
     0
102
RTVSPost2010PropOp36
 70
     1
102
RTVSPost2010Prop37
 90
       50
102
RTVSPost2010PropOp37
 70
     1
102
RTVSPost2010Prop38
140
0.0
102
RTVSPost2010PropOp38
 70
     1
102
RTVSPost2010Prop39
140
1.0
102
RTVSPost2010PropOp39
 70
     1
102
RTVSPost2010Prop40
 90
        0
102
RTVSPost2010PropOp40
 70
     1
102
RTVSPost2010Prop41ColorIndex
 90
       18
102
RTVSPost2010Prop41ColorRGB
 90
        0
102
RTVSPost2010PropOp41
 70
     1
102
RTVSPost2010Prop42
 90
       50
102
RTVSPost2010PropOp42
 70
     1
102
RTVSPost2010Prop43
 90
        3
102
RTVSPost2010PropOp43
 70
     1
102
RTVSPost2010Prop44ColorIndex
 90
        5
102
RTVSPost2010Prop44ColorRGB
 90
      255
102
RTVSPost2010PropOp44
 70
     1
102
RTVSPost2010Prop45
280
     0
102
RTVSPost2010PropOp45
 70
     1
102
RTVSPost2010Prop46
 90
       50
102
RTVSPost2010PropOp46
 70
     1
102
RTVSPost2010Prop47
 90
       50
102
RTVSPost2010PropOp47
 70
     1
102
RTVSPost2010Prop48
 90
       50
102
RTVSPost2010PropOp48
 70
     1
102
RTVSPost2010Prop49
280
     0
102
RTVSPost2010PropOp49
 70
     1
102
RTVSPost2010Prop50
 90
       50
102
RTVSPost2010PropOp50
 70
     1
102
RTVSPost2010Prop51ColorIndex
 90
      256
102
RTVSPost2010Prop51ColorRGB
 90
-16777216
102
RTVSPost2010PropOp51
 70
     0
102
RTVSPost2010Prop52
140
1.0
102
RTVSPost2010PropOp52
 70
     0
102
RTVSPost2010Prop53
 90
        2
102
RTVSPost2010PropOp53
 70
     1
102
RTVSPost2010Prop54
  1
strokes_ogs.tif
102
RTVSPost2010PropOp54
 70
     1
102
RTVSPost2010Prop55
280
     0
102
RTVSPost2010PropOp55
 70
     1
102
RTVSPost2010Prop56
140
1.0
102
RTVSPost2010PropOp56
 70
     1
102
RTVSPost2010Prop57
140
1.0
102
RTVSPost2010PropOp57
 70
     1
102
RTVSPropertyOp0
 70
     1
102
RTVSPropertyOp1
 70
     1
102
RTVSPropertyOp2
 70
     1
102
RTVSPropertyOp3
 70
     1
102
RTVSPropertyOp4
 70
     1
102
RTVSPropertyOp5
 70
     1
102
RTVSPropertyOp6
 70
     1
102
RTVSPropertyOp7
 70
     1
102
RTVSPropertyOp8
 70
     1
102
RTVSPropertyOp9
 70
     1
102
RTVSPropertyOp10
 70
     1
102
RTVSPropertyOp11
 70
     1
102
RTVSPropertyOp12
 70
     1
102
RTVSPropertyOp13
 70
     1
102
RTVSPropertyOp14
 70
     1
102
RTVSPropertyOp15
 70
     1
102
RTVSPropertyOp16
 70
     1
102
RTVSPropertyOp17
 70
     1
102
RTVSPropertyOp18
 70
     1
102
RTVSPropertyOp19
 70
     1
102
RTVSPropertyOp20
 70
     1
102
RTVSPropertyOp21
 70
     1
102
RTVSPropertyOp22
 70
     1
102
RTVSPropertyOp23
 70
     1
102
RTVSPropertyOp24
 70
     1
102
RTVSPropertyOp25
 70
     1
102
RTVSPropertyOp26
 70
     1
102
RTVSPropertyOp27
 70
     1
102
RTVSPropertyOp28
 70
     1
102
RTVSPropertyOp29
 70
     1
102
RTVSPropertyOp30
 70
     1
102
RTVSPropertyOp31
 70
     1
102
RTVSPropertyOp32
 70
     1
102
RTVSPropertyOp33
 70
     1
102
RTVSPropertyOp34
 70
     1
102
RTVSPropertyOp35
 70
     1
102
RTVSPropertyOp36
 70
     1
102
RTVSPropertyOp37
 70
     1
102
RTVSPropertyOp38
 70
     1
102
RTVSPropertyOp39
 70
     1
102
RTVSPropertyOp40
 70
     1
102
RTVSPropertyOp41
 70
     1
102
RTVSPropertyOp42
 70
     1
102
RTVSPropertyOp43
 70
     1
102
RTVSPropertyOp44
 70
     1
102
RTVSPropertyOp45
 70
     1
102
RTVSPropertyOp46
 70
     1
102
RTVSPropertyOp47
 70
     1
102
RTVSPropertyOp48
 70
     1
102
RTVSPropertyOp49
 70
     1
102
RTVSPropertyOp50
 70
     1
102
RTVSPropertyOp51
 70
     0
102
RTVSPropertyOp52
 70
     0
102
RTVSPropertyOp53
 70
     1
102
RTVSPropertyOp54
 70
     1
102
RTVSPropertyOp55
 70
     1
102
RTVSPropertyOp56
 70
     1
102
RTVSPropertyOp57
 70
     1
102
RTVSPropertyOp58
 70
     1
102
RTVSPropertyOp59
 70
     1
102
RTVSPropertyOp60
 70
     1
102
RTVSPropertyOp61
 70
     1
102
RTVSPropertyOp62
 70
     1
  0
XRECORD
  5
82C2
102
{ACAD_REACTORS
330
82C1
102
}
330
82C1
100
AcDbXrecord
280
     1
102
RTVSPost2010Prop28
280
     0
102
RTVSPost2010PropOp28
 70
     1
102
RTVSPost2010Prop29
280
     1
102
RTVSPost2010PropOp29
 70
     1
102
RTVSPost2010Prop30
280
     1
102
RTVSPost2010PropOp30
 70
     1
102
RTVSPost2010Prop31
280
     0
102
RTVSPost2010PropOp31
 70
     1
102
RTVSPost2010Prop32
280
     0
102
RTVSPost2010PropOp32
 70
     1
102
RTVSPost2010Prop33
280
     0
102
RTVSPost2010PropOp33
 70
     1
102
RTVSPost2010Prop34
280
     0
102
RTVSPost2010PropOp34
 70
     1
102
RTVSPost2010Prop35
280
     0
102
RTVSPost2010PropOp35
 70
     1
102
RTVSPost2010Prop36
280
     0
102
RTVSPost2010PropOp36
 70
     1
102
RTVSPost2010Prop37
 90
       50
102
RTVSPost2010PropOp37
 70
     1
102
RTVSPost2010Prop38
140
0.0
102
RTVSPost2010PropOp38
 70
     1
102
RTVSPost2010Prop39
140
1.0
102
RTVSPost2010PropOp39
 70
     1
102
RTVSPost2010Prop40
 90
        0
102
RTVSPost2010PropOp40
 70
     1
102
RTVSPost2010Prop41ColorIndex
 90
       18
102
RTVSPost2010Prop41ColorRGB
 90
        0
102
RTVSPost2010PropOp41
 70
     1
102
RTVSPost2010Prop42
 90
       50
102
RTVSPost2010PropOp42
 70
     1
102
RTVSPost2010Prop43
 90
        3
102
RTVSPost2010PropOp43
 70
     1
102
RTVSPost2010Prop44ColorIndex
 90
        5
102
RTVSPost2010Prop44ColorRGB
 90
      255
102
RTVSPost2010PropOp44
 70
     1
102
RTVSPost2010Prop45
280
     0
102
RTVSPost2010PropOp45
 70
     1
102
RTVSPost2010Prop46
 90
       50
102
RTVSPost2010PropOp46
 70
     1
102
RTVSPost2010Prop47
 90
       50
102
RTVSPost2010PropOp47
 70
     1
102
RTVSPost2010Prop48
 90
       50
102
RTVSPost2010PropOp48
 70
     1
102
RTVSPost2010Prop49
280
     0
102
RTVSPost2010PropOp49
 70
     1
102
RTVSPost2010Prop50
 90
       50
102
RTVSPost2010PropOp50
 70
     1
102
RTVSPost2010Prop51ColorIndex
 90
      256
102
RTVSPost2010Prop51ColorRGB
 90
-16777216
102
RTVSPost2010PropOp51
 70
     0
102
RTVSPost2010Prop52
140
1.0
102
RTVSPost2010PropOp52
 70
     0
102
RTVSPost2010Prop53
 90
        2
102
RTVSPost2010PropOp53
 70
     1
102
RTVSPost2010Prop54
  1
strokes_ogs.tif
102
RTVSPost2010PropOp54
 70
     1
102
RTVSPost2010Prop55
280
     0
102
RTVSPost2010PropOp55
 70
     1
102
RTVSPost2010Prop56
140
1.0
102
RTVSPost2010PropOp56
 70
     1
102
RTVSPost2010Prop57
140
1.0
102
RTVSPost2010PropOp57
 70
     1
102
RTVSPropertyOp0
 70
     1
102
RTVSPropertyOp1
 70
     1
102
RTVSPropertyOp2
 70
     1
102
RTVSPropertyOp3
 70
     1
102
RTVSPropertyOp4
 70
     1
102
RTVSPropertyOp5
 70
     1
102
RTVSPropertyOp6
 70
     1
102
RTVSPropertyOp7
 70
     1
102
RTVSPropertyOp8
 70
     1
102
RTVSPropertyOp9
 70
     1
102
RTVSPropertyOp10
 70
     1
102
RTVSPropertyOp11
 70
     1
102
RTVSPropertyOp12
 70
     1
102
RTVSPropertyOp13
 70
     1
102
RTVSPropertyOp14
 70
     1
102
RTVSPropertyOp15
 70
     1
102
RTVSPropertyOp16
 70
     1
102
RTVSPropertyOp17
 70
     1
102
RTVSPropertyOp18
 70
     1
102
RTVSPropertyOp19
 70
     1
102
RTVSPropertyOp20
 70
     1
102
RTVSPropertyOp21
 70
     1
102
RTVSPropertyOp22
 70
     1
102
RTVSPropertyOp23
 70
     1
102
RTVSPropertyOp24
 70
     1
102
RTVSPropertyOp25
 70
     1
102
RTVSPropertyOp26
 70
     1
102
RTVSPropertyOp27
 70
     1
102
RTVSPropertyOp28
 70
     1
102
RTVSPropertyOp29
 70
     1
102
RTVSPropertyOp30
 70
     1
102
RTVSPropertyOp31
 70
     1
102
RTVSPropertyOp32
 70
     1
102
RTVSPropertyOp33
 70
     1
102
RTVSPropertyOp34
 70
     1
102
RTVSPropertyOp35
 70
     1
102
RTVSPropertyOp36
 70
     1
102
RTVSPropertyOp37
 70
     1
102
RTVSPropertyOp38
 70
     1
102
RTVSPropertyOp39
 70
     1
102
RTVSPropertyOp40
 70
     1
102
RTVSPropertyOp41
 70
     1
102
RTVSPropertyOp42
 70
     1
102
RTVSPropertyOp43
 70
     1
102
RTVSPropertyOp44
 70
     1
102
RTVSPropertyOp45
 70
     1
102
RTVSPropertyOp46
 70
     1
102
RTVSPropertyOp47
 70
     1
102
RTVSPropertyOp48
 70
     1
102
RTVSPropertyOp49
 70
     1
102
RTVSPropertyOp50
 70
     1
102
RTVSPropertyOp51
 70
     0
102
RTVSPropertyOp52
 70
     0
102
RTVSPropertyOp53
 70
     1
102
RTVSPropertyOp54
 70
     1
102
RTVSPropertyOp55
 70
     1
102
RTVSPropertyOp56
 70
     1
102
RTVSPropertyOp57
 70
     1
102
RTVSPropertyOp58
 70
     1
102
RTVSPropertyOp59
 70
     1
102
RTVSPropertyOp60
 70
     1
102
RTVSPropertyOp61
 70
     1
102
RTVSPropertyOp62
 70
     1
  0
XRECORD
  5
82DA
102
{ACAD_REACTORS
330
82D9
102
}
330
82D9
100
AcDbXrecord
280
     1
102
RTVSPost2010Prop28
280
     0
102
RTVSPost2010PropOp28
 70
     1
102
RTVSPost2010Prop29
280
     1
102
RTVSPost2010PropOp29
 70
     1
102
RTVSPost2010Prop30
280
     1
102
RTVSPost2010PropOp30
 70
     1
102
RTVSPost2010Prop31
280
     0
102
RTVSPost2010PropOp31
 70
     1
102
RTVSPost2010Prop32
280
     0
102
RTVSPost2010PropOp32
 70
     1
102
RTVSPost2010Prop33
280
     0
102
RTVSPost2010PropOp33
 70
     1
102
RTVSPost2010Prop34
280
     0
102
RTVSPost2010PropOp34
 70
     1
102
RTVSPost2010Prop35
280
     0
102
RTVSPost2010PropOp35
 70
     1
102
RTVSPost2010Prop36
280
     0
102
RTVSPost2010PropOp36
 70
     1
102
RTVSPost2010Prop37
 90
       50
102
RTVSPost2010PropOp37
 70
     1
102
RTVSPost2010Prop38
140
0.0
102
RTVSPost2010PropOp38
 70
     1
102
RTVSPost2010Prop39
140
1.0
102
RTVSPost2010PropOp39
 70
     1
102
RTVSPost2010Prop40
 90
        0
102
RTVSPost2010PropOp40
 70
     1
102
RTVSPost2010Prop41ColorIndex
 90
       18
102
RTVSPost2010Prop41ColorRGB
 90
        0
102
RTVSPost2010PropOp41
 70
     1
102
RTVSPost2010Prop42
 90
       50
102
RTVSPost2010PropOp42
 70
     1
102
RTVSPost2010Prop43
 90
        3
102
RTVSPost2010PropOp43
 70
     1
102
RTVSPost2010Prop44ColorIndex
 90
        5
102
RTVSPost2010Prop44ColorRGB
 90
      255
102
RTVSPost2010PropOp44
 70
     1
102
RTVSPost2010Prop45
280
     0
102
RTVSPost2010PropOp45
 70
     1
102
RTVSPost2010Prop46
 90
       50
102
RTVSPost2010PropOp46
 70
     1
102
RTVSPost2010Prop47
 90
       50
102
RTVSPost2010PropOp47
 70
     1
102
RTVSPost2010Prop48
 90
       50
102
RTVSPost2010PropOp48
 70
     1
102
RTVSPost2010Prop49
280
     0
102
RTVSPost2010PropOp49
 70
     1
102
RTVSPost2010Prop50
 90
       50
102
RTVSPost2010PropOp50
 70
     1
102
RTVSPost2010Prop51ColorIndex
 90
      256
102
RTVSPost2010Prop51ColorRGB
 90
-16777216
102
RTVSPost2010PropOp51
 70
     0
102
RTVSPost2010Prop52
140
1.0
102
RTVSPost2010PropOp52
 70
     0
102
RTVSPost2010Prop53
 90
        2
102
RTVSPost2010PropOp53
 70
     1
102
RTVSPost2010Prop54
  1
strokes_ogs.tif
102
RTVSPost2010PropOp54
 70
     1
102
RTVSPost2010Prop55
280
     0
102
RTVSPost2010PropOp55
 70
     1
102
RTVSPost2010Prop56
140
1.0
102
RTVSPost2010PropOp56
 70
     1
102
RTVSPost2010Prop57
140
1.0
102
RTVSPost2010PropOp57
 70
     1
102
RTVSPropertyOp0
 70
     1
102
RTVSPropertyOp1
 70
     1
102
RTVSPropertyOp2
 70
     1
102
RTVSPropertyOp3
 70
     1
102
RTVSPropertyOp4
 70
     1
102
RTVSPropertyOp5
 70
     1
102
RTVSPropertyOp6
 70
     1
102
RTVSPropertyOp7
 70
     1
102
RTVSPropertyOp8
 70
     1
102
RTVSPropertyOp9
 70
     1
102
RTVSPropertyOp10
 70
     1
102
RTVSPropertyOp11
 70
     1
102
RTVSPropertyOp12
 70
     1
102
RTVSPropertyOp13
 70
     1
102
RTVSPropertyOp14
 70
     1
102
RTVSPropertyOp15
 70
     1
102
RTVSPropertyOp16
 70
     1
102
RTVSPropertyOp17
 70
     1
102
RTVSPropertyOp18
 70
     1
102
RTVSPropertyOp19
 70
     1
102
RTVSPropertyOp20
 70
     1
102
RTVSPropertyOp21
 70
     1
102
RTVSPropertyOp22
 70
     1
102
RTVSPropertyOp23
 70
     1
102
RTVSPropertyOp24
 70
     1
102
RTVSPropertyOp25
 70
     1
102
RTVSPropertyOp26
 70
     1
102
RTVSPropertyOp27
 70
     1
102
RTVSPropertyOp28
 70
     1
102
RTVSPropertyOp29
 70
     1
102
RTVSPropertyOp30
 70
     1
102
RTVSPropertyOp31
 70
     1
102
RTVSPropertyOp32
 70
     1
102
RTVSPropertyOp33
 70
     1
102
RTVSPropertyOp34
 70
     1
102
RTVSPropertyOp35
 70
     1
102
RTVSPropertyOp36
 70
     1
102
RTVSPropertyOp37
 70
     1
102
RTVSPropertyOp38
 70
     1
102
RTVSPropertyOp39
 70
     1
102
RTVSPropertyOp40
 70
     1
102
RTVSPropertyOp41
 70
     1
102
RTVSPropertyOp42
 70
     1
102
RTVSPropertyOp43
 70
     1
102
RTVSPropertyOp44
 70
     1
102
RTVSPropertyOp45
 70
     1
102
RTVSPropertyOp46
 70
     1
102
RTVSPropertyOp47
 70
     1
102
RTVSPropertyOp48
 70
     1
102
RTVSPropertyOp49
 70
     1
102
RTVSPropertyOp50
 70
     1
102
RTVSPropertyOp51
 70
     0
102
RTVSPropertyOp52
 70
     0
102
RTVSPropertyOp53
 70
     1
102
RTVSPropertyOp54
 70
     1
102
RTVSPropertyOp55
 70
     1
102
RTVSPropertyOp56
 70
     1
102
RTVSPropertyOp57
 70
     1
102
RTVSPropertyOp58
 70
     1
102
RTVSPropertyOp59
 70
     1
102
RTVSPropertyOp60
 70
     1
102
RTVSPropertyOp61
 70
     1
102
RTVSPropertyOp62
 70
     1
  0
ENDSEC
  0
EOF
