  0
SECTION
  2
HEADER
  9
$ACADVER
  1
AC1015
  9
$ACADMAINTVER
 70
    20
  9
$DWGCODEPAGE
  3
ANSI_932
  9
$INSBASE
 10
0.0
 20
0.0
 30
0.0
  9
$EXTMIN
 10
-0.1922460740788665
 20
-0.2700599612071528
 30
-0.0015258207003583
  9
$EXTMAX
 10
6300.192275410744
 20
8850.270101172235
 30
0.0000000349246037
  9
$LIMMIN
 10
0.0
 20
0.0
  9
$LIMMAX
 10
297.0
 20
210.0
  9
$ORTHOMODE
 70
     1
  9
$REGENMODE
 70
     1
  9
$FILLMODE
 70
     0
  9
$QTEXTMODE
 70
     0
  9
$MIRRTEXT
 70
     1
  9
$LTSCALE
 40
100.0
  9
$ATTMODE
 70
     1
  9
$TEXTSIZE
 40
180.0
  9
$TRACEWID
 40
0.05
  9
$TEXTSTYLE
  7
STANDARD
  9
$CLAYER
  8
3
  9
$CELTYPE
  6
ByLayer
  9
$CECOLOR
 62
   256
  9
$CELTSCALE
 40
1.0
  9
$DISPSILH
 70
     0
  9
$DIMSCALE
 40
30.0
  9
$DIMASZ
 40
2.0
  9
$DIMEXO
 40
1.0
  9
$DIMDLI
 40
10.0
  9
$DIMRND
 40
0.0
  9
$DIMDLE
 40
0.0
  9
$DIMEXE
 40
1.0
  9
$DIMTP
 40
1.0
  9
$DIMTM
 40
1.0
  9
$DIMTXT
 40
3.0
  9
$DIMCEN
 40
0.0
  9
$DIMTSZ
 40
0.0
  9
$DIMTOL
 70
     0
  9
$DIMLIM
 70
     0
  9
$DIMTIH
 70
     0
  9
$DIMTOH
 70
     0
  9
$DIMSE1
 70
     0
  9
$DIMSE2
 70
     0
  9
$DIMTAD
 70
     1
  9
$DIMZIN
 70
     8
  9
$DIMBLK
  1

  9
$DIMASO
 70
     1
  9
$DIMSHO
 70
     1
  9
$DIMPOST
  1

  9
$DIMAPOST
  1

  9
$DIMALT
 70
     0
  9
$DIMALTD
 70
     2
  9
$DIMALTF
 40
0.039
  9
$DIMLFAC
 40
1.0
  9
$DIMTOFL
 70
     1
  9
$DIMTVP
 40
0.0
  9
$DIMTIX
 70
     0
  9
$DIMSOXD
 70
     0
  9
$DIMSAH
 70
     1
  9
$DIMBLK1
  1
OPEN
  9
$DIMBLK2
  1
OPEN
  9
$DIMSTYLE
  2
IGA
  9
$DIMCLRD
 70
     0
  9
$DIMCLRE
 70
     0
  9
$DIMCLRT
 70
     0
  9
$DIMTFAC
 40
10.0
  9
$DIMGAP
 40
1.0
  9
$DIMJUST
 70
     0
  9
$DIMSD1
 70
     0
  9
$DIMSD2
 70
     0
  9
$DIMTOLJ
 70
     1
  9
$DIMTZIN
 70
     0
  9
$DIMALTZ
 70
     0
  9
$DIMALTTZ
 70
     0
  9
$DIMUPT
 70
     0
  9
$DIMDEC
 70
     4
  9
$DIMTDEC
 70
     4
  9
$DIMALTU
 70
     2
  9
$DIMALTTD
 70
     2
  9
$DIMTXSTY
  7
STANDARD
  9
$DIMAUNIT
 70
     0
  9
$DIMADEC
 70
     0
  9
$DIMALTRND
 40
0.0
  9
$DIMAZIN
 70
     0
  9
$DIMDSEP
 70
    46
  9
$DIMATFIT
 70
     3
  9
$DIMFRAC
 70
     0
  9
$DIMLDRBLK
  1
OPEN
  9
$DIMLUNIT
 70
     2
  9
$DIMLWD
 70
    -2
  9
$DIMLWE
 70
    -2
  9
$DIMTMOVE
 70
     0
  9
$LUNITS
 70
     2
  9
$LUPREC
 70
     3
  9
$SKETCHINC
 40
0.1
  9
$FILLETRAD
 40
50.0
  9
$AUNITS
 70
     0
  9
$AUPREC
 70
     0
  9
$MENU
  1
acad
  9
$ELEVATION
 40
0.0
  9
$PELEVATION
 40
0.0
  9
$THICKNESS
 40
0.0
  9
$LIMCHECK
 70
     0
  9
$CHAMFERA
 40
0.5
  9
$CHAMFERB
 40
0.5
  9
$CHAMFERC
 40
0.0
  9
$CHAMFERD
 40
0.0
  9
$SKPOLY
 70
     0
  9
$TDCREATE
 40
2451389.550088889
  9
$TDUCREATE
 40
2451389.175088889
  9
$TDUPDATE
 40
2460271.713393762
  9
$TDUUPDATE
 40
2460271.338393762
  9
$TDINDWG
 40
0.0311593981
  9
$TDUSRTIMER
 40
0.0311593519
  9
$USRTIMER
 70
     1
  9
$ANGBASE
 50
0.0
  9
$ANGDIR
 70
     0
  9
$PDMODE
 70
     0
  9
$PDSIZE
 40
0.0
  9
$PLINEWID
 40
0.0
  9
$SPLFRAME
 70
     0
  9
$SPLINETYPE
 70
     6
  9
$SPLINESEGS
 70
     8
  9
$HANDSEED
  5
83BF
  9
$SURFTAB1
 70
     6
  9
$SURFTAB2
 70
     6
  9
$SURFTYPE
 70
     6
  9
$SURFU
 70
     6
  9
$SURFV
 70
     6
  9
$UCSBASE
  2

  9
$UCSNAME
  2

  9
$UCSORG
 10
0.0
 20
0.0
 30
0.0
  9
$UCSXDIR
 10
1.0
 20
0.0
 30
0.0
  9
$UCSYDIR
 10
0.0
 20
1.0
 30
0.0
  9
$UCSORTHOREF
  2

  9
$UCSORTHOVIEW
 70
     0
  9
$UCSORGTOP
 10
0.0
 20
0.0
 30
0.0
  9
$UCSORGBOTTOM
 10
0.0
 20
0.0
 30
0.0
  9
$UCSORGLEFT
 10
0.0
 20
0.0
 30
0.0
  9
$UCSORGRIGHT
 10
0.0
 20
0.0
 30
0.0
  9
$UCSORGFRONT
 10
0.0
 20
0.0
 30
0.0
  9
$UCSORGBACK
 10
0.0
 20
0.0
 30
0.0
  9
$PUCSBASE
  2

  9
$PUCSNAME
  2

  9
$PUCSORG
 10
0.0
 20
0.0
 30
0.0
  9
$PUCSXDIR
 10
1.0
 20
0.0
 30
0.0
  9
$PUCSYDIR
 10
0.0
 20
1.0
 30
0.0
  9
$PUCSORTHOREF
  2

  9
$PUCSORTHOVIEW
 70
     0
  9
$PUCSORGTOP
 10
0.0
 20
0.0
 30
0.0
  9
$PUCSORGBOTTOM
 10
0.0
 20
0.0
 30
0.0
  9
$PUCSORGLEFT
 10
0.0
 20
0.0
 30
0.0
  9
$PUCSORGRIGHT
 10
0.0
 20
0.0
 30
0.0
  9
$PUCSORGFRONT
 10
0.0
 20
0.0
 30
0.0
  9
$PUCSORGBACK
 10
0.0
 20
0.0
 30
0.0
  9
$USERI1
 70
     0
  9
$USERI2
 70
     0
  9
$USERI3
 70
     0
  9
$USERI4
 70
     0
  9
$USERI5
 70
     0
  9
$USERR1
 40
0.0
  9
$USERR2
 40
0.0
  9
$USERR3
 40
0.0
  9
$USERR4
 40
0.0
  9
$USERR5
 40
0.0
  9
$WORLDVIEW
 70
     1
  9
$SHADEDGE
 70
     3
  9
$SHADEDIF
 70
    70
  9
$TILEMODE
 70
     1
  9
$MAXACTVP
 70
    16
  9
$PINSBASE
 10
0.0
 20
0.0
 30
0.0
  9
$PLIMCHECK
 70
     0
  9
$PEXTMIN
 10
1.000000000000000E+20
 20
1.000000000000000E+20
 30
1.000000000000000E+20
  9
$PEXTMAX
 10
-1.000000000000000E+20
 20
-1.000000000000000E+20
 30
-1.000000000000000E+20
  9
$PLIMMIN
 10
0.0
 20
0.0
  9
$PLIMMAX
 10
12.0
 20
9.0
  9
$UNITMODE
 70
     0
  9
$VISRETAIN
 70
     0
  9
$PLINEGEN
 70
     0
  9
$PSLTSCALE
 70
     1
  9
$TREEDEPTH
 70
  3020
  9
$CMLSTYLE
  2
Standard
  9
$CMLJUST
 70
     0
  9
$CMLSCALE
 40
1.0
  9
$PROXYGRAPHICS
 70
     1
  9
$MEASUREMENT
 70
     0
  9
$CELWEIGHT
370
    -1
  9
$ENDCAPS
280
     0
  9
$JOINSTYLE
280
     0
  9
$LWDISPLAY
290
     0
  9
$INSUNITS
 70
     0
  9
$HYPERLINKBASE
  1

  9
$STYLESHEET
  1

  9
$XEDIT
290
     1
  9
$CEPSNTYPE
380
     0
  9
$PSTYLEMODE
290
     1
  9
$FINGERPRINTGUID
  2
{E6D31252-4EB4-4459-AC80-CCE321F5BF8F}
  9
$VERSIONGUID
  2
{F508B9E0-FBDE-47D6-91AB-C23F4269735D}
  9
$EXTNAMES
290
     1
  9
$PSVPSCALE
 40
0.0
  9
$OLESTARTUP
290
     0
  0
ENDSEC
  0
SECTION
  2
CLASSES
  0
CLASS
  1
ACDBDICTIONARYWDFLT
  2
AcDbDictionaryWithDefault
  3
ObjectDBX Classes
 90
        0
280
     0
281
     0
  0
CLASS
  1
MATERIAL
  2
AcDbMaterial
  3
ObjectDBX Classes
 90
     1153
280
     0
281
     0
  0
CLASS
  1
VISUALSTYLE
  2
AcDbVisualStyle
  3
ObjectDBX Classes
 90
     4095
280
     0
281
     0
  0
CLASS
  1
SCALE
  2
AcDbScale
  3
ObjectDBX Classes
 90
     1153
280
     0
281
     0
  0
CLASS
  1
TABLESTYLE
  2
AcDbTableStyle
  3
ObjectDBX Classes
 90
     4095
280
     0
281
     0
  0
CLASS
  1
MLEADERSTYLE
  2
AcDbMLeaderStyle
  3
ACDB_MLEADERSTYLE_CLASS
 90
     4095
280
     0
281
     0
  0
CLASS
  1
ACDBSECTIONVIEWSTYLE
  2
AcDbSectionViewStyle
  3
ObjectDBX Classes
 90
     1025
280
     0
281
     0
  0
CLASS
  1
ACDBDETAILVIEWSTYLE
  2
AcDbDetailViewStyle
  3
ObjectDBX Classes
 90
     1025
280
     0
281
     0
  0
CLASS
  1
DICTIONARYVAR
  2
AcDbDictionaryVar
  3
ObjectDBX Classes
 90
        0
280
     0
281
     0
  0
CLASS
  1
CELLSTYLEMAP
  2
AcDbCellStyleMap
  3
ObjectDBX Classes
 90
     1152
280
     0
281
     0
  0
CLASS
  1
ACDBPLACEHOLDER
  2
AcDbPlaceHolder
  3
ObjectDBX Classes
 90
        0
280
     0
281
     0
  0
CLASS
  1
LAYOUT
  2
AcDbLayout
  3
ObjectDBX Classes
 90
        0
280
     0
281
     0
  0
ENDSEC
  0
SECTION
  2
TABLES
  0
TABLE
  2
VPORT
  5
8210
330
0
100
AcDbSymbolTable
 70
     1
  0
VPORT
  5
827C
330
8210
100
AcDbSymbolTableRecord
100
AcDbViewportTableRecord
  2
*ACTIVE
 70
     0
 10
0.0
 20
0.0
 11
1.0
 21
1.0
 12
3150.000014668333
 22
4425.000020605514
 13
0.0
 23
0.0
 14
10.0
 24
10.0
 15
10.0
 25
10.0
 16
0.0
 26
0.0
 36
1.0
 17
0.0
 27
0.0
 37
0.0
 40
8907.213844128961
 41
2.050213675213675
 42
50.0
 43
0.0
 44
0.0
 50
0.0
 51
0.0
 71
     0
 72
   100
 73
     1
 74
     0
 75
     0
 76
     0
 77
     0
 78
     0
281
     0
 65
     1
110
0.0
120
0.0
130
0.0
111
1.0
121
0.0
131
0.0
112
0.0
122
1.0
132
0.0
 79
     0
146
0.0
1001
ACAD_NAV_VCDISPLAY
1070
     3
  0
ENDTAB
  0
TABLE
  2
LTYPE
  5
820D
330
0
100
AcDbSymbolTable
 70
     3
  0
LTYPE
  5
8262
330
820D
100
AcDbSymbolTableRecord
100
AcDbLinetypeTableRecord
  2
ByBlock
 70
     0
  3

 72
    65
 73
     0
 40
0.0
  0
LTYPE
  5
8263
330
820D
100
AcDbSymbolTableRecord
100
AcDbLinetypeTableRecord
  2
ByLayer
 70
     0
  3

 72
    65
 73
     0
 40
0.0
  0
LTYPE
  5
8264
330
820D
100
AcDbSymbolTableRecord
100
AcDbLinetypeTableRecord
  2
CONTINUOUS
 70
     0
  3
Solid line
 72
    65
 73
     0
 40
0.0
  0
LTYPE
  5
827D
330
820D
100
AcDbSymbolTableRecord
100
AcDbLinetypeTableRecord
  2
CENTER
 70
     0
  3
____ _ ____ _ ____ _ ____ _ ____ _ ____ _ ____ 
 72
    65
 73
     4
 40
2.0
 49
1.25
 74
     0
 49
-0.25
 74
     0
 49
0.25
 74
     0
 49
-0.25
 74
     0
  0
ENDTAB
  0
TABLE
  2
LAYER
  5
820A
330
0
100
AcDbSymbolTable
 70
     6
  0
LAYER
  5
825C
102
{ACAD_XDICTIONARY
360
8369
102
}
330
820A
100
AcDbSymbolTableRecord
100
AcDbLayerTableRecord
  2
0
 70
     0
 62
     7
  6
CONTINUOUS
370
    -3
390
8217
  0
LAYER
  5
827B
102
{ACAD_XDICTIONARY
360
836B
102
}
330
820A
100
AcDbSymbolTableRecord
100
AcDbLayerTableRecord
  2
3
 70
     0
 62
     2
  6
CONTINUOUS
370
    -3
390
8217
  0
LAYER
  5
827E
102
{ACAD_XDICTIONARY
360
836D
102
}
330
820A
100
AcDbSymbolTableRecord
100
AcDbLayerTableRecord
  2
2
 70
     0
 62
     3
  6
CENTER
370
    -3
390
8217
  0
LAYER
  5
827F
102
{ACAD_XDICTIONARY
360
836F
102
}
330
820A
100
AcDbSymbolTableRecord
100
AcDbLayerTableRecord
  2
1
 70
     0
 62
     4
  6
CONTINUOUS
370
    -3
390
8217
  0
LAYER
  5
8280
102
{ACAD_XDICTIONARY
360
8371
102
}
330
820A
100
AcDbSymbolTableRecord
100
AcDbLayerTableRecord
  2
4
 70
     0
 62
     7
  6
CONTINUOUS
370
    -3
390
8217
  0
LAYER
  5
8281
330
820A
100
AcDbSymbolTableRecord
100
AcDbLayerTableRecord
  2
DEFPOINTS
 70
     0
 62
     7
  6
CONTINUOUS
290
     0
370
    -3
390
8217
  0
ENDTAB
  0
TABLE
  2
STYLE
  5
820B
330
0
100
AcDbSymbolTable
 70
     2
  0
STYLE
  5
825D
330
820B
100
AcDbSymbolTableRecord
100
AcDbTextStyleTableRecord
  2
STANDARD
 70
     0
 40
0.0
 41
1.0
 50
0.0
 71
     0
 42
180.0
  3
simplex.shx
  4
extfont.shx
  0
STYLE
  5
8261
330
820B
100
AcDbSymbolTableRecord
100
AcDbTextStyleTableRecord
  2
Annotative
 70
     0
 40
0.0
 41
1.0
 50
0.0
 71
     0
 42
0.2
  3
txt
  4

1001
AcadAnnotative
1000
AnnotativeData
1002
{
1070
     1
1070
     1
1002
}
  0
ENDTAB
  0
TABLE
  2
VIEW
  5
820E
330
0
100
AcDbSymbolTable
 70
     0
  0
ENDTAB
  0
TABLE
  2
UCS
  5
820F
330
0
100
AcDbSymbolTable
 70
     0
  0
ENDTAB
  0
TABLE
  2
APPID
  5
8211
330
0
100
AcDbSymbolTable
 70
     6
  0
APPID
  5
825E
330
8211
100
AcDbSymbolTableRecord
100
AcDbRegAppTableRecord
  2
ACAD
 70
     0
  0
APPID
  5
8265
330
8211
100
AcDbSymbolTableRecord
100
AcDbRegAppTableRecord
  2
AcadAnnotative
 70
     0
  0
APPID
  5
82FC
330
8211
100
AcDbSymbolTableRecord
100
AcDbRegAppTableRecord
  2
AcadAnnoMonitorAlertIconDisabled
 70
     0
  0
APPID
  5
82FD
330
8211
100
AcDbSymbolTableRecord
100
AcDbRegAppTableRecord
  2
ACAD_EXEMPT_FROM_CAD_STANDARDS
 70
     0
  0
APPID
  5
837D
330
8211
100
AcDbSymbolTableRecord
100
AcDbRegAppTableRecord
  2
ACAD_NAV_VCDISPLAY
 70
     0
  0
APPID
  5
83B6
330
8211
100
AcDbSymbolTableRecord
100
AcDbRegAppTableRecord
  2
ACAD_MLEADERVER
 70
     0
  0
ENDTAB
  0
TABLE
  2
DIMSTYLE
  5
8212
330
0
100
AcDbSymbolTable
 70
     4
100
AcDbDimStyleTable
 71
     1
340
8282
  0
DIMSTYLE
105
825F
102
{ACAD_REACTORS
330
7C7B
330
7C7C
330
7C80
330
7C81
330
7CC3
330
7CC5
330
7CC6
330
7CCA
330
7CCB
330
7CFA
330
7D08
330
8169
330
8176
330
8183
330
8190
330
819D
102
}
330
8212
100
AcDbSymbolTableRecord
100
AcDbDimStyleTableRecord
  2
Standard
 70
     0
340
825D
  0
DIMSTYLE
105
8260
330
8212
100
AcDbSymbolTableRecord
100
AcDbDimStyleTableRecord
  2
Annotative
 70
     0
340
825D
1001
AcadAnnotative
1000
AnnotativeData
1002
{
1070
     1
1070
     1
1002
}
  0
DIMSTYLE
105
8282
102
{ACAD_REACTORS
330
82BE
330
82CB
330
8346
330
8353
102
}
330
8212
100
AcDbSymbolTableRecord
100
AcDbDimStyleTableRecord
  2
IGA
 70
     0
 40
2.0
 41
2.0
 42
0.5
 43
10.0
 44
1.0
 47
1.0
 48
1.0
 73
     0
 74
     0
 77
     1
 78
     8
140
3.0
141
0.0
143
0.03937
146
10.0
147
1.0
173
     1
271
     3
272
     3
279
     2
284
     8
285
     8
286
     8
340
825D
  0
DIMSTYLE
105
8283
330
8212
100
AcDbSymbolTableRecord
100
AcDbDimStyleTableRecord
  2
MATSU
 70
     0
 41
2.0
 42
1.0
 43
10.0
 44
1.0
 73
     0
 74
     0
 77
     1
 78
     8
140
3.0
141
0.0
143
0.03937
147
0.5
172
     1
173
     1
176
   256
177
   256
178
   256
271
     3
272
     3
279
     2
284
     8
285
     8
286
     8
340
825D
  0
ENDTAB
  0
TABLE
  2
BLOCK_RECORD
  5
8209
330
0
100
AcDbSymbolTable
 70
    33
  0
BLOCK_RECORD
  5
8277
330
8209
100
AcDbSymbolTableRecord
100
AcDbBlockTableRecord
  2
*Model_Space
340
827A
  0
BLOCK_RECORD
  5
8273
330
8209
100
AcDbSymbolTableRecord
100
AcDbBlockTableRecord
  2
*Paper_Space
340
8276
  0
BLOCK_RECORD
  5
8287
330
8209
100
AcDbSymbolTableRecord
100
AcDbBlockTableRecord
  2
$MODEL_SPACE
340
0
  0
BLOCK_RECORD
  5
8289
330
8209
100
AcDbSymbolTableRecord
100
AcDbBlockTableRecord
  2
$PAPER_SPACE
340
0
  0
BLOCK_RECORD
  5
828B
330
8209
100
AcDbSymbolTableRecord
100
AcDbBlockTableRecord
  2
_OPEN
340
0
102
{BLKREFS
331
7EB0
331
7EB1
331
7EBB
331
7EBC
331
7EC6
331
7EC7
331
7ED1
331
7ED2
331
805C
331
805D
331
80CA
331
80CB
331
7EF2
331
7EF3
331
7EFD
331
7EFE
331
7F2D
331
7F2E
331
7F38
331
7F39
331
8162
331
8163
331
816F
331
7E37
331
7E38
331
7E42
331
7E43
331
81FA
331
81FB
331
7E58
331
7E59
331
7E63
331
7E64
331
8170
331
817C
331
817D
331
8189
331
818A
331
8196
331
8197
331
8340
331
8341
331
834D
331
834E
331
8363
331
8364
331
830B
331
830C
331
831D
331
831E
102
}
  0
BLOCK_RECORD
  5
828D
330
8209
100
AcDbSymbolTableRecord
100
AcDbBlockTableRecord
  2
YA_N
340
0
102
{BLKREFS
331
7C28
331
7C3E
331
7C79
331
7C9C
331
7CD3
331
7CD5
331
7CD7
331
7CD9
102
}
  0
BLOCK_RECORD
  5
828F
330
8209
100
AcDbSymbolTableRecord
100
AcDbBlockTableRecord
  2
*D4
340
0
  0
BLOCK_RECORD
  5
8291
330
8209
100
AcDbSymbolTableRecord
100
AcDbBlockTableRecord
  2
*D5
340
0
  0
BLOCK_RECORD
  5
8293
330
8209
100
AcDbSymbolTableRecord
100
AcDbBlockTableRecord
  2
*D6
340
0
  0
BLOCK_RECORD
  5
8295
330
8209
100
AcDbSymbolTableRecord
100
AcDbBlockTableRecord
  2
*D7
340
0
  0
BLOCK_RECORD
  5
8297
330
8209
100
AcDbSymbolTableRecord
100
AcDbBlockTableRecord
  2
*D8
340
0
  0
BLOCK_RECORD
  5
8299
330
8209
100
AcDbSymbolTableRecord
100
AcDbBlockTableRecord
  2
*D9
340
0
  0
BLOCK_RECORD
  5
829B
330
8209
100
AcDbSymbolTableRecord
100
AcDbBlockTableRecord
  2
*D10
340
0
  0
BLOCK_RECORD
  5
829D
330
8209
100
AcDbSymbolTableRecord
100
AcDbBlockTableRecord
  2
*D11
340
0
  0
BLOCK_RECORD
  5
829F
330
8209
100
AcDbSymbolTableRecord
100
AcDbBlockTableRecord
  2
*D12
340
0
  0
BLOCK_RECORD
  5
82A1
330
8209
100
AcDbSymbolTableRecord
100
AcDbBlockTableRecord
  2
*D13
340
0
  0
BLOCK_RECORD
  5
82A3
330
8209
100
AcDbSymbolTableRecord
100
AcDbBlockTableRecord
  2
*U14
340
0
102
{BLKREFS
331
805E
102
}
  0
BLOCK_RECORD
  5
82A4
330
8209
100
AcDbSymbolTableRecord
100
AcDbBlockTableRecord
  2
*D15
340
0
  0
BLOCK_RECORD
  5
82A6
330
8209
100
AcDbSymbolTableRecord
100
AcDbBlockTableRecord
  2
*D16
340
0
  0
BLOCK_RECORD
  5
82A8
330
8209
100
AcDbSymbolTableRecord
100
AcDbBlockTableRecord
  2
*D17
340
0
  0
BLOCK_RECORD
  5
82AA
330
8209
100
AcDbSymbolTableRecord
100
AcDbBlockTableRecord
  2
*D18
340
0
  0
BLOCK_RECORD
  5
82AC
330
8209
100
AcDbSymbolTableRecord
100
AcDbBlockTableRecord
  2
*D19
340
0
  0
BLOCK_RECORD
  5
82AE
330
8209
100
AcDbSymbolTableRecord
100
AcDbBlockTableRecord
  2
_DOT
340
0
  0
BLOCK_RECORD
  5
82B0
330
8209
100
AcDbSymbolTableRecord
100
AcDbBlockTableRecord
  2
_NONE
340
0
  0
BLOCK_RECORD
  5
82B2
330
8209
100
AcDbSymbolTableRecord
100
AcDbBlockTableRecord
  2
*D22
340
0
  0
BLOCK_RECORD
  5
82B4
330
8209
100
AcDbSymbolTableRecord
100
AcDbBlockTableRecord
  2
*D23
340
0
  0
BLOCK_RECORD
  5
82B6
330
8209
100
AcDbSymbolTableRecord
100
AcDbBlockTableRecord
  2
*D24
340
0
  0
BLOCK_RECORD
  5
82B8
330
8209
100
AcDbSymbolTableRecord
100
AcDbBlockTableRecord
  2
*D25
340
0
  0
BLOCK_RECORD
  5
82BA
330
8209
100
AcDbSymbolTableRecord
100
AcDbBlockTableRecord
  2
*D26
340
0
  0
BLOCK_RECORD
  5
82BF
330
8209
100
AcDbSymbolTableRecord
100
AcDbBlockTableRecord
  2
*D27
340
0
  0
BLOCK_RECORD
  5
82CC
330
8209
100
AcDbSymbolTableRecord
100
AcDbBlockTableRecord
  2
*D28
340
0
  0
BLOCK_RECORD
  5
8324
330
8209
100
AcDbSymbolTableRecord
100
AcDbBlockTableRecord
  2
*D29
340
0
  0
BLOCK_RECORD
  5
8330
330
8209
100
AcDbSymbolTableRecord
100
AcDbBlockTableRecord
  2
*D30
340
0
  0
BLOCK_RECORD
  5
8347
330
8209
100
AcDbSymbolTableRecord
100
AcDbBlockTableRecord
  2
*D31
340
0
  0
BLOCK_RECORD
  5
8354
330
8209
100
AcDbSymbolTableRecord
100
AcDbBlockTableRecord
  2
*D32
340
0
  0
ENDTAB
  0
ENDSEC
  0
SECTION
  2
BLOCKS
  0
BLOCK
  5
8278
330
8277
100
AcDbEntity
  8
0
100
AcDbBlockBegin
  2
*Model_Space
 70
     0
 10
0.0
 20
0.0
 30
0.0
  3
*Model_Space
  1

  0
ENDBLK
  5
8279
330
8277
100
AcDbEntity
  8
0
100
AcDbBlockEnd
  0
BLOCK
  5
8274
330
8273
100
AcDbEntity
 67
     1
  8
0
100
AcDbBlockBegin
  2
*Paper_Space
 70
     0
 10
0.0
 20
0.0
 30
0.0
  3
*Paper_Space
  1

  0
ENDBLK
  5
8275
330
8273
100
AcDbEntity
 67
     1
  8
0
100
AcDbBlockEnd
  0
BLOCK
  5
8288
330
8287
100
AcDbEntity
  8
0
100
AcDbBlockBegin
  2
$MODEL_SPACE
 70
     0
 10
0.0
 20
0.0
 30
0.0
  3
$MODEL_SPACE
  1

  0
ENDBLK
  5
1B
330
8287
100
AcDbEntity
  8
0
100
AcDbBlockEnd
  0
BLOCK
  5
828A
330
8289
100
AcDbEntity
  8
0
100
AcDbBlockBegin
  2
$PAPER_SPACE
 70
     0
 10
0.0
 20
0.0
 30
0.0
  3
$PAPER_SPACE
  1

  0
ENDBLK
  5
18
330
8289
100
AcDbEntity
  8
0
100
AcDbBlockEnd
  0
BLOCK
  5
828C
330
828B
100
AcDbEntity
  8
0
100
AcDbBlockBegin
  2
_OPEN
 70
     0
 10
0.0
 20
0.0
 30
0.0
  3
_OPEN
  1

  0
LINE
  5
79FD
330
828B
100
AcDbEntity
  8
0
  6
ByBlock
 62
     0
100
AcDbLine
 10
-1.0
 20
0.1666666666666666
 30
0.0
 11
0.0
 21
0.0
 31
0.0
  0
LINE
  5
79FE
330
828B
100
AcDbEntity
  8
0
  6
ByBlock
 62
     0
100
AcDbLine
 10
0.0
 20
0.0
 30
0.0
 11
-1.0
 21
-0.1666666666666666
 31
0.0
  0
LINE
  5
79FF
330
828B
100
AcDbEntity
  8
0
  6
ByBlock
 62
     0
100
AcDbLine
 10
0.0
 20
0.0
 30
0.0
 11
-1.0
 21
0.0
 31
0.0
  0
ENDBLK
  5
7A01
330
828B
100
AcDbEntity
  8
0
100
AcDbBlockEnd
  0
BLOCK
  5
828E
330
828D
100
AcDbEntity
  8
0
100
AcDbBlockBegin
  2
YA_N
 70
     0
 10
0.0
 20
0.0
 30
0.0
  3
YA_N
  1

  0
ENDBLK
  5
7A04
330
828D
100
AcDbEntity
  8
0
100
AcDbBlockEnd
  0
BLOCK
  5
8290
330
828F
100
AcDbEntity
  8
0
100
AcDbBlockBegin
  2
*D4
 70
     1
 10
0.0
 20
0.0
 30
0.0
  3
*D4
  1

  0
LINE
  5
7E34
330
828F
100
AcDbEntity
  8
0
  6
ByBlock
100
AcDbLine
 10
2197.625114976839
 20
1702.060302835745
 30
0.0
 11
2398.785211970981
 21
1702.060302835745
 31
0.0
  0
LINE
  5
7E35
330
828F
100
AcDbEntity
  8
0
  6
ByBlock
100
AcDbLine
 10
2197.625114976839
 20
672.0603028357458
 30
0.0
 11
2398.785211970981
 21
672.0603028357458
 31
0.0
  0
LINE
  5
7E36
330
828F
100
AcDbEntity
  8
0
  6
ByBlock
100
AcDbLine
 10
2368.785211970982
 20
1642.060302835745
 30
0.0
 11
2368.785211970982
 21
732.0603028357457
 31
0.0
  0
INSERT
  5
7E37
330
828F
100
AcDbEntity
  8
0
  6
ByBlock
100
AcDbBlockReference
  2
_OPEN
 10
2368.785211970982
 20
1702.060302835745
 30
0.0
 41
60.0
 42
60.0
 43
60.0
 50
90.0
  0
INSERT
  5
7E38
330
828F
100
AcDbEntity
  8
0
  6
ByBlock
100
AcDbBlockReference
  2
_OPEN
 10
2368.785211970982
 20
672.0603028357458
 30
0.0
 41
60.0
 42
60.0
 43
60.0
 50
270.0
  0
TEXT
  5
7E39
330
828F
100
AcDbEntity
  8
3
100
AcDbText
 10
2353.785211970981
 20
1037.060302835745
 30
0.0
 40
90.0
  1
1030
 50
90.0
100
AcDbText
  0
POINT
  5
7E3A
330
828F
100
AcDbEntity
  8
DEFPOINTS
  6
ByBlock
 62
     0
100
AcDbPoint
 10
2167.625114976839
 20
1702.060302835745
 30
0.0
  0
POINT
  5
7E3B
330
828F
100
AcDbEntity
  8
DEFPOINTS
  6
ByBlock
 62
     0
100
AcDbPoint
 10
2167.625114976839
 20
672.0603028357458
 30
0.0
  0
POINT
  5
7E3C
330
828F
100
AcDbEntity
  8
DEFPOINTS
  6
ByBlock
 62
     0
100
AcDbPoint
 10
2368.785211970982
 20
672.0603028357458
 30
0.0
  0
ENDBLK
  5
7E3D
330
828F
100
AcDbEntity
  8
0
100
AcDbBlockEnd
  0
BLOCK
  5
8292
330
8291
100
AcDbEntity
  8
0
100
AcDbBlockBegin
  2
*D5
 70
     1
 10
0.0
 20
0.0
 30
0.0
  3
*D5
  1

  0
LINE
  5
7E3F
330
8291
100
AcDbEntity
  8
0
  6
ByBlock
100
AcDbLine
 10
2197.625114976839
 20
1702.060302835745
 30
0.0
 11
2599.587257430135
 21
1702.060302835745
 31
0.0
  0
LINE
  5
7E40
330
8291
100
AcDbEntity
  8
0
  6
ByBlock
100
AcDbLine
 10
2257.241097474467
 20
628.0603028357453
 30
0.0
 11
2599.587257430135
 21
628.0603028357453
 31
0.0
  0
LINE
  5
7E41
330
8291
100
AcDbEntity
  8
0
  6
ByBlock
100
AcDbLine
 10
2569.587257430136
 20
1642.060302835745
 30
0.0
 11
2569.587257430136
 21
688.0603028357453
 31
0.0
  0
INSERT
  5
7E42
330
8291
100
AcDbEntity
  8
0
  6
ByBlock
100
AcDbBlockReference
  2
_OPEN
 10
2569.587257430136
 20
1702.060302835745
 30
0.0
 41
60.0
 42
60.0
 43
60.0
 50
90.0
  0
INSERT
  5
7E43
330
8291
100
AcDbEntity
  8
0
  6
ByBlock
100
AcDbBlockReference
  2
_OPEN
 10
2569.587257430136
 20
628.0603028357453
 30
0.0
 41
60.0
 42
60.0
 43
60.0
 50
270.0
  0
TEXT
  5
7E44
330
8291
100
AcDbEntity
  8
3
100
AcDbText
 10
2554.587257430135
 20
1012.917445692888
 30
0.0
 40
90.0
  1
1074
 50
90.0
100
AcDbText
  0
POINT
  5
7E45
330
8291
100
AcDbEntity
  8
DEFPOINTS
  6
ByBlock
 62
     0
100
AcDbPoint
 10
2167.625114976839
 20
1702.060302835745
 30
0.0
  0
POINT
  5
7E46
330
8291
100
AcDbEntity
  8
DEFPOINTS
  6
ByBlock
 62
     0
100
AcDbPoint
 10
2227.241097474466
 20
628.0603028357453
 30
0.0
  0
POINT
  5
7E47
330
8291
100
AcDbEntity
  8
DEFPOINTS
  6
ByBlock
 62
     0
100
AcDbPoint
 10
2569.587257430136
 20
628.0603028357453
 30
0.0
  0
ENDBLK
  5
7E48
330
8291
100
AcDbEntity
  8
0
100
AcDbBlockEnd
  0
BLOCK
  5
8294
330
8293
100
AcDbEntity
  8
0
100
AcDbBlockBegin
  2
*D6
 70
     1
 10
0.0
 20
0.0
 30
0.0
  3
*D6
  1

  0
LINE
  5
81F7
330
8293
100
AcDbEntity
  8
3
 62
     0
100
AcDbLine
 10
3021.883246267807
 20
2938.588409321162
 30
0.0
 11
3379.229406223476
 21
2938.588409321162
 31
0.0
  0
LINE
  5
81F8
330
8293
100
AcDbEntity
  8
3
 62
     0
100
AcDbLine
 10
2907.267263770179
 20
2188.588409321164
 30
0.0
 11
3379.229406223476
 21
2188.588409321164
 31
0.0
  0
LINE
  5
81F9
330
8293
100
AcDbEntity
  8
3
 62
     0
100
AcDbLine
 10
3349.229406223476
 20
2878.588409321162
 30
0.0
 11
3349.229406223476
 21
2248.588409321163
 31
0.0
  0
INSERT
  5
81FA
330
8293
100
AcDbEntity
  8
3
 62
     0
100
AcDbBlockReference
  2
_OPEN
 10
3349.229406223476
 20
2938.588409321162
 30
0.0
 41
60.0
 42
60.0
 43
60.0
 50
90.0
  0
INSERT
  5
81FB
330
8293
100
AcDbEntity
  8
3
 62
     0
100
AcDbBlockReference
  2
_OPEN
 10
3349.229406223476
 20
2188.588409321164
 30
0.0
 41
60.0
 42
60.0
 43
60.0
 50
270.0
  0
TEXT
  5
8208
330
8293
100
AcDbEntity
  8
3
 62
     0
100
AcDbText
 10
3094.23
 20
2404.29
 30
0.0
 40
90.0
  1
750
100
AcDbText
  0
POINT
  5
81FD
330
8293
100
AcDbEntity
  8
DEFPOINTS
 62
     0
100
AcDbPoint
 10
3006.883246267807
 20
2938.588409321162
 30
0.0
  0
POINT
  5
81FE
330
8293
100
AcDbEntity
  8
DEFPOINTS
 62
     0
100
AcDbPoint
 10
2892.267263770179
 20
2188.588409321164
 30
0.0
  0
POINT
  5
81FF
330
8293
100
AcDbEntity
  8
DEFPOINTS
 62
     0
100
AcDbPoint
 10
3349.229406223476
 20
2188.588409321164
 30
0.0
  0
ENDBLK
  5
7F68
330
8293
100
AcDbEntity
  8
0
100
AcDbBlockEnd
  0
BLOCK
  5
8296
330
8295
100
AcDbEntity
  8
0
100
AcDbBlockBegin
  2
*D7
 70
     1
 10
0.0
 20
0.0
 30
0.0
  3
*D7
  1

  0
LINE
  5
7E55
330
8295
100
AcDbEntity
  8
0
  6
ByBlock
100
AcDbLine
 10
2167.625114976839
 20
1785.060302835745
 30
0.0
 11
2167.625114976839
 21
1985.834976178721
 31
0.0
  0
LINE
  5
7E56
330
8295
100
AcDbEntity
  8
0
  6
ByBlock
100
AcDbLine
 10
1487.625114976837
 20
1822.976195176186
 30
0.0
 11
1487.625114976837
 21
1985.834976178721
 31
0.0
  0
LINE
  5
7E57
330
8295
100
AcDbEntity
  8
0
  6
ByBlock
100
AcDbLine
 10
2107.625114976839
 20
1955.834976178721
 30
0.0
 11
1547.625114976837
 21
1955.834976178721
 31
0.0
  0
INSERT
  5
7E58
330
8295
100
AcDbEntity
  8
0
  6
ByBlock
100
AcDbBlockReference
  2
_OPEN
 10
2167.625114976839
 20
1955.834976178721
 30
0.0
 41
60.0
 42
60.0
 43
60.0
  0
INSERT
  5
7E59
330
8295
100
AcDbEntity
  8
0
  6
ByBlock
100
AcDbBlockReference
  2
_OPEN
 10
1487.625114976837
 20
1955.834976178721
 30
0.0
 41
60.0
 42
60.0
 43
60.0
 50
180.0
  0
TEXT
  5
7E5A
330
8295
100
AcDbEntity
  8
3
100
AcDbText
 10
1711.910829262553
 20
1970.834976178721
 30
0.0
 40
90.0
  1
680
100
AcDbText
  0
POINT
  5
7E5B
330
8295
100
AcDbEntity
  8
DEFPOINTS
  6
ByBlock
 62
     0
100
AcDbPoint
 10
2167.625114976839
 20
1755.060302835746
 30
0.0
  0
POINT
  5
7E5C
330
8295
100
AcDbEntity
  8
DEFPOINTS
  6
ByBlock
 62
     0
100
AcDbPoint
 10
1487.625114976837
 20
1792.976195176187
 30
0.0
  0
POINT
  5
7E5D
330
8295
100
AcDbEntity
  8
DEFPOINTS
  6
ByBlock
 62
     0
100
AcDbPoint
 10
1487.625114976837
 20
1955.834976178721
 30
0.0
  0
ENDBLK
  5
7E5E
330
8295
100
AcDbEntity
  8
0
100
AcDbBlockEnd
  0
BLOCK
  5
8298
330
8297
100
AcDbEntity
  8
0
100
AcDbBlockBegin
  2
*D8
 70
     1
 10
0.0
 20
0.0
 30
0.0
  3
*D8
  1

  0
LINE
  5
7E60
330
8297
100
AcDbEntity
  8
0
  6
ByBlock
100
AcDbLine
 10
1487.625114976837
 20
1822.976195176186
 30
0.0
 11
1487.625114976837
 21
1985.377276243805
 31
0.0
  0
LINE
  5
7E61
330
8297
100
AcDbEntity
  8
0
  6
ByBlock
100
AcDbLine
 10
623.0809985608106
 20
658.0603028357444
 30
0.0
 11
623.0809985608106
 21
1985.377276243805
 31
0.0
  0
LINE
  5
7E62
330
8297
100
AcDbEntity
  8
0
  6
ByBlock
100
AcDbLine
 10
1427.625114976837
 20
1955.377276243805
 30
0.0
 11
683.0809985608108
 21
1955.377276243805
 31
0.0
  0
INSERT
  5
7E63
330
8297
100
AcDbEntity
  8
0
  6
ByBlock
100
AcDbBlockReference
  2
_OPEN
 10
1487.625114976837
 20
1955.377276243805
 30
0.0
 41
60.0
 42
60.0
 43
60.0
  0
INSERT
  5
7E64
330
8297
100
AcDbEntity
  8
0
  6
ByBlock
100
AcDbBlockReference
  2
_OPEN
 10
623.0809985608106
 20
1955.377276243805
 30
0.0
 41
60.0
 42
60.0
 43
60.0
 50
180.0
  0
TEXT
  5
7E65
330
8297
100
AcDbEntity
  8
3
100
AcDbText
 10
939.6387710545385
 20
1970.377276243805
 30
0.0
 40
90.0
  1
868
100
AcDbText
  0
POINT
  5
7E66
330
8297
100
AcDbEntity
  8
DEFPOINTS
  6
ByBlock
 62
     0
100
AcDbPoint
 10
1487.625114976837
 20
1792.976195176187
 30
0.0
  0
POINT
  5
7E67
330
8297
100
AcDbEntity
  8
DEFPOINTS
  6
ByBlock
 62
     0
100
AcDbPoint
 10
623.0809985608106
 20
628.0603028357444
 30
0.0
  0
POINT
  5
7E68
330
8297
100
AcDbEntity
  8
DEFPOINTS
  6
ByBlock
 62
     0
100
AcDbPoint
 10
623.0809985608106
 20
1955.377276243805
 30
0.0
  0
ENDBLK
  5
7E69
330
8297
100
AcDbEntity
  8
0
100
AcDbBlockEnd
  0
BLOCK
  5
829A
330
8299
100
AcDbEntity
  8
0
100
AcDbBlockBegin
  2
*D9
 70
     1
 10
0.0
 20
0.0
 30
0.0
  3
*D9
  1

  0
LINE
  5
7EAD
330
8299
100
AcDbEntity
  8
0
  6
ByBlock
100
AcDbLine
 10
862.6251149768394
 20
4406.031599361241
 30
0.0
 11
862.6251149768394
 21
4627.335536588958
 31
0.0
  0
LINE
  5
7EAE
330
8299
100
AcDbEntity
  8
0
  6
ByBlock
100
AcDbLine
 10
2112.625114976839
 20
4406.031599361237
 30
0.0
 11
2112.625114976839
 21
4627.335536588958
 31
0.0
  0
LINE
  5
7EAF
330
8299
100
AcDbEntity
  8
0
  6
ByBlock
100
AcDbLine
 10
922.6251149768396
 20
4597.335536588958
 30
0.0
 11
2052.625114976839
 21
4597.335536588958
 31
0.0
  0
INSERT
  5
7EB0
330
8299
100
AcDbEntity
  8
0
  6
ByBlock
100
AcDbBlockReference
  2
_OPEN
 10
862.6251149768394
 20
4597.335536588958
 30
0.0
 41
60.0
 42
60.0
 43
60.0
 50
180.0
  0
INSERT
  5
7EB1
330
8299
100
AcDbEntity
  8
0
  6
ByBlock
100
AcDbBlockReference
  2
_OPEN
 10
2112.625114976839
 20
4597.335536588958
 30
0.0
 41
60.0
 42
60.0
 43
60.0
  0
TEXT
  5
7EB2
330
8299
100
AcDbEntity
  8
3
100
AcDbText
 10
1337.625114976839
 20
4612.335536588958
 30
0.0
 40
90.0
  1
1250
100
AcDbText
  0
POINT
  5
7EB3
330
8299
100
AcDbEntity
  8
DEFPOINTS
  6
ByBlock
 62
     0
100
AcDbPoint
 10
862.6251149768394
 20
4376.031599361239
 30
0.0
  0
POINT
  5
7EB4
330
8299
100
AcDbEntity
  8
DEFPOINTS
  6
ByBlock
 62
     0
100
AcDbPoint
 10
2112.625114976839
 20
4376.031599361239
 30
0.0
  0
POINT
  5
7EB5
330
8299
100
AcDbEntity
  8
DEFPOINTS
  6
ByBlock
 62
     0
100
AcDbPoint
 10
2112.625114976839
 20
4597.335536588958
 30
0.0
  0
ENDBLK
  5
7EB6
330
8299
100
AcDbEntity
  8
0
100
AcDbBlockEnd
  0
BLOCK
  5
829C
330
829B
100
AcDbEntity
  8
0
100
AcDbBlockBegin
  2
*D10
 70
     1
 10
0.0
 20
0.0
 30
0.0
  3
*D10
  1

  0
LINE
  5
7EB8
330
829B
100
AcDbEntity
  8
0
  6
ByBlock
100
AcDbLine
 10
62.62511497683954
 20
2841.031599361241
 30
0.0
 11
62.62511497683954
 21
2552.481475534663
 31
0.0
  0
LINE
  5
7EB9
330
829B
100
AcDbEntity
  8
0
  6
ByBlock
100
AcDbLine
 10
2112.625114976839
 20
2841.031599361238
 30
0.0
 11
2112.625114976839
 21
2552.481475534663
 31
0.0
  0
LINE
  5
7EBA
330
829B
100
AcDbEntity
  8
0
  6
ByBlock
100
AcDbLine
 10
122.6251149768395
 20
2582.481475534663
 30
0.0
 11
2052.625114976839
 21
2582.481475534663
 31
0.0
  0
INSERT
  5
7EBB
330
829B
100
AcDbEntity
  8
0
  6
ByBlock
100
AcDbBlockReference
  2
_OPEN
 10
62.62511497683954
 20
2582.481475534663
 30
0.0
 41
60.0
 42
60.0
 43
60.0
 50
180.0
  0
INSERT
  5
7EBC
330
829B
100
AcDbEntity
  8
0
  6
ByBlock
100
AcDbBlockReference
  2
_OPEN
 10
2112.625114976839
 20
2582.481475534663
 30
0.0
 41
60.0
 42
60.0
 43
60.0
  0
TEXT
  5
7EBD
330
829B
100
AcDbEntity
  8
3
100
AcDbText
 10
929.0536864054109
 20
2597.481475534663
 30
0.0
 40
90.0
  1
2050
100
AcDbText
  0
POINT
  5
7EBE
330
829B
100
AcDbEntity
  8
DEFPOINTS
  6
ByBlock
 62
     0
100
AcDbPoint
 10
62.62511497683954
 20
2871.03159936124
 30
0.0
  0
POINT
  5
7EBF
330
829B
100
AcDbEntity
  8
DEFPOINTS
  6
ByBlock
 62
     0
100
AcDbPoint
 10
2112.625114976839
 20
2871.031599361238
 30
0.0
  0
POINT
  5
7EC0
330
829B
100
AcDbEntity
  8
DEFPOINTS
  6
ByBlock
 62
     0
100
AcDbPoint
 10
2112.625114976839
 20
2582.481475534663
 30
0.0
  0
ENDBLK
  5
7EC1
330
829B
100
AcDbEntity
  8
0
100
AcDbBlockEnd
  0
BLOCK
  5
829E
330
829D
100
AcDbEntity
  8
0
100
AcDbBlockBegin
  2
*D11
 70
     1
 10
0.0
 20
0.0
 30
0.0
  3
*D11
  1

  0
LINE
  5
7EC3
330
829D
100
AcDbEntity
  8
0
  6
ByBlock
100
AcDbLine
 10
32.62511497683954
 20
3721.031599361241
 30
0.0
 11
-189.4229525237715
 21
3721.031599361241
 31
0.0
  0
LINE
  5
7EC4
330
829D
100
AcDbEntity
  8
0
  6
ByBlock
100
AcDbLine
 10
32.62511497683954
 20
2871.03159936124
 30
0.0
 11
-189.4229525237715
 21
2871.03159936124
 31
0.0
  0
LINE
  5
7EC5
330
829D
100
AcDbEntity
  8
0
  6
ByBlock
100
AcDbLine
 10
-159.4229525237715
 20
3661.031599361241
 30
0.0
 11
-159.4229525237715
 21
2931.03159936124
 31
0.0
  0
INSERT
  5
7EC6
330
829D
100
AcDbEntity
  8
0
  6
ByBlock
100
AcDbBlockReference
  2
_OPEN
 10
-159.4229525237715
 20
3721.031599361241
 30
0.0
 41
60.0
 42
60.0
 43
60.0
 50
90.0
  0
INSERT
  5
7EC7
330
829D
100
AcDbEntity
  8
0
  6
ByBlock
100
AcDbBlockReference
  2
_OPEN
 10
-159.4229525237715
 20
2871.03159936124
 30
0.0
 41
60.0
 42
60.0
 43
60.0
 50
270.0
  0
TEXT
  5
7EC8
330
829D
100
AcDbEntity
  8
3
100
AcDbText
 10
-174.4229525237715
 20
3180.317313646954
 30
0.0
 40
90.0
  1
850
 50
90.0
100
AcDbText
  0
POINT
  5
7EC9
330
829D
100
AcDbEntity
  8
DEFPOINTS
  6
ByBlock
 62
     0
100
AcDbPoint
 10
62.62511497683954
 20
3721.031599361241
 30
0.0
  0
POINT
  5
7ECA
330
829D
100
AcDbEntity
  8
DEFPOINTS
  6
ByBlock
 62
     0
100
AcDbPoint
 10
62.62511497683954
 20
2871.03159936124
 30
0.0
  0
POINT
  5
7ECB
330
829D
100
AcDbEntity
  8
DEFPOINTS
  6
ByBlock
 62
     0
100
AcDbPoint
 10
-159.4229525237715
 20
2871.03159936124
 30
0.0
  0
ENDBLK
  5
7ECC
330
829D
100
AcDbEntity
  8
0
100
AcDbBlockEnd
  0
BLOCK
  5
82A0
330
829F
100
AcDbEntity
  8
0
100
AcDbBlockBegin
  2
*D12
 70
     1
 10
0.0
 20
0.0
 30
0.0
  3
*D12
  1

  0
LINE
  5
7ECE
330
829F
100
AcDbEntity
  8
0
  6
ByBlock
100
AcDbLine
 10
2142.625114976839
 20
4376.031599361239
 30
0.0
 11
2541.269252985774
 21
4376.031599361239
 31
0.0
  0
LINE
  5
7ECF
330
829F
100
AcDbEntity
  8
0
  6
ByBlock
100
AcDbLine
 10
2142.625114976839
 20
2871.031599361238
 30
0.0
 11
2541.269252985774
 21
2871.031599361238
 31
0.0
  0
LINE
  5
7ED0
330
829F
100
AcDbEntity
  8
0
  6
ByBlock
100
AcDbLine
 10
2511.269252985774
 20
4316.031599361237
 30
0.0
 11
2511.269252985774
 21
2931.031599361238
 31
0.0
  0
INSERT
  5
7ED1
330
829F
100
AcDbEntity
  8
0
  6
ByBlock
100
AcDbBlockReference
  2
_OPEN
 10
2511.269252985774
 20
4376.031599361239
 30
0.0
 41
60.0
 42
60.0
 43
60.0
 50
90.0
  0
INSERT
  5
7ED2
330
829F
100
AcDbEntity
  8
0
  6
ByBlock
100
AcDbBlockReference
  2
_OPEN
 10
2511.269252985774
 20
2871.031599361238
 30
0.0
 41
60.0
 42
60.0
 43
60.0
 50
270.0
  0
TEXT
  5
7ED3
330
829F
100
AcDbEntity
  8
3
100
AcDbText
 10
2496.269252985774
 20
3473.531599361239
 30
0.0
 40
90.0
  1
1505
 50
90.0
100
AcDbText
  0
POINT
  5
7ED4
330
829F
100
AcDbEntity
  8
DEFPOINTS
  6
ByBlock
 62
     0
100
AcDbPoint
 10
2112.625114976839
 20
4376.031599361239
 30
0.0
  0
POINT
  5
7ED5
330
829F
100
AcDbEntity
  8
DEFPOINTS
  6
ByBlock
 62
     0
100
AcDbPoint
 10
2112.625114976839
 20
2871.031599361238
 30
0.0
  0
POINT
  5
7ED6
330
829F
100
AcDbEntity
  8
DEFPOINTS
  6
ByBlock
 62
     0
100
AcDbPoint
 10
2511.269252985774
 20
2871.031599361238
 30
0.0
  0
ENDBLK
  5
7ED7
330
829F
100
AcDbEntity
  8
0
100
AcDbBlockEnd
  0
BLOCK
  5
82A2
330
82A1
100
AcDbEntity
  8
0
100
AcDbBlockBegin
  2
*D13
 70
     1
 10
0.0
 20
0.0
 30
0.0
  3
*D13
  1

  0
LINE
  5
8059
330
82A1
100
AcDbEntity
  8
0
  6
ByBlock
100
AcDbLine
 10
3793.292027154091
 20
3248.588409321162
 30
0.0
 11
3793.292027154091
 21
4496.111043789638
 31
0.0
  0
LINE
  5
805A
330
82A1
100
AcDbEntity
  8
0
  6
ByBlock
100
AcDbLine
 10
4760.792027154096
 20
4433.056541435838
 30
0.0
 11
4760.792027154096
 21
4496.111043789638
 31
0.0
  0
LINE
  5
805B
330
82A1
100
AcDbEntity
  8
0
  6
ByBlock
100
AcDbLine
 10
3853.292027154092
 20
4466.11104378964
 30
0.0
 11
4700.792027154096
 21
4466.11104378964
 31
0.0
  0
INSERT
  5
805C
330
82A1
100
AcDbEntity
  8
0
  6
ByBlock
100
AcDbBlockReference
  2
_OPEN
 10
3793.292027154091
 20
4466.11104378964
 30
0.0
 41
60.0
 42
60.0
 43
60.0
 50
180.0
  0
INSERT
  5
805D
330
82A1
100
AcDbEntity
  8
0
  6
ByBlock
100
AcDbBlockReference
  2
_OPEN
 10
4760.792027154096
 20
4466.11104378964
 30
0.0
 41
60.0
 42
60.0
 43
60.0
  0
INSERT
  5
805E
330
82A1
100
AcDbEntity
  8
3
100
AcDbBlockReference
  2
*U14
 10
0.0
 20
0.0
 30
0.0
  0
POINT
  5
805F
330
82A1
100
AcDbEntity
  8
DEFPOINTS
  6
ByBlock
 62
     0
100
AcDbPoint
 10
3793.292027154091
 20
3218.588409321163
 30
0.0
  0
POINT
  5
8060
330
82A1
100
AcDbEntity
  8
DEFPOINTS
  6
ByBlock
 62
     0
100
AcDbPoint
 10
4760.792027154096
 20
4403.056541435839
 30
0.0
  0
POINT
  5
8061
330
82A1
100
AcDbEntity
  8
DEFPOINTS
  6
ByBlock
 62
     0
100
AcDbPoint
 10
4760.792027154096
 20
4466.11104378964
 30
0.0
  0
ENDBLK
  5
8062
330
82A1
100
AcDbEntity
  8
0
100
AcDbBlockEnd
  0
BLOCK
  5
82BC
330
82A3
100
AcDbEntity
  8
0
100
AcDbBlockBegin
  2
*U14
 70
     1
 10
0.0
 20
0.0
 30
0.0
  3
*U14
  1

  0
TEXT
  5
8204
330
82A3
100
AcDbEntity
  8
3
100
AcDbText
 10
4148.470598582664
 20
4631.11104378964
 30
0.0
 40
90.0
  1
MAX
100
AcDbText
  0
TEXT
  5
8205
330
82A3
100
AcDbEntity
  8
3
100
AcDbText
 10
4127.042027154093
 20
4481.111043789637
 30
0.0
 40
90.0
  1
1020
100
AcDbText
  0
ENDBLK
  5
8207
330
82A3
100
AcDbEntity
  8
0
100
AcDbBlockEnd
  0
BLOCK
  5
82A5
330
82A4
100
AcDbEntity
  8
0
100
AcDbBlockBegin
  2
*D15
 70
     1
 10
0.0
 20
0.0
 30
0.0
  3
*D15
  1

  0
LINE
  5
80C7
330
82A4
100
AcDbEntity
  8
0
  6
ByBlock
100
AcDbLine
 10
4760.792027154096
 20
4433.056541435838
 30
0.0
 11
4760.792027154096
 21
4496.111043789638
 31
0.0
  0
LINE
  5
80C8
330
82A4
100
AcDbEntity
  8
0
  6
ByBlock
100
AcDbLine
 10
5528.7920271541
 20
2932.788409321163
 30
0.0
 11
5528.7920271541
 21
4496.111043789638
 31
0.0
  0
LINE
  5
80C9
330
82A4
100
AcDbEntity
  8
0
  6
ByBlock
100
AcDbLine
 10
4820.792027154096
 20
4466.11104378964
 30
0.0
 11
5468.792027154098
 21
4466.11104378964
 31
0.0
  0
INSERT
  5
80CA
330
82A4
100
AcDbEntity
  8
0
  6
ByBlock
100
AcDbBlockReference
  2
_OPEN
 10
4760.792027154096
 20
4466.11104378964
 30
0.0
 41
60.0
 42
60.0
 43
60.0
 50
180.0
  0
INSERT
  5
80CB
330
82A4
100
AcDbEntity
  8
0
  6
ByBlock
100
AcDbBlockReference
  2
_OPEN
 10
5528.7920271541
 20
4466.11104378964
 30
0.0
 41
60.0
 42
60.0
 43
60.0
  0
TEXT
  5
80CC
330
82A4
100
AcDbEntity
  8
3
100
AcDbText
 10
4971.220598582671
 20
4519.682472361068
 30
0.0
 40
90.0
  1
(780)
100
AcDbText
  0
POINT
  5
80CD
330
82A4
100
AcDbEntity
  8
DEFPOINTS
  6
ByBlock
 62
     0
100
AcDbPoint
 10
4760.792027154096
 20
4403.056541435839
 30
0.0
  0
POINT
  5
80CE
330
82A4
100
AcDbEntity
  8
DEFPOINTS
  6
ByBlock
 62
     0
100
AcDbPoint
 10
5528.7920271541
 20
2902.788409321163
 30
0.0
  0
POINT
  5
80CF
330
82A4
100
AcDbEntity
  8
DEFPOINTS
  6
ByBlock
 62
     0
100
AcDbPoint
 10
5528.7920271541
 20
4466.11104378964
 30
0.0
  0
ENDBLK
  5
80D0
330
82A4
100
AcDbEntity
  8
0
100
AcDbBlockEnd
  0
BLOCK
  5
82A7
330
82A6
100
AcDbEntity
  8
0
100
AcDbBlockBegin
  2
*D16
 70
     1
 10
0.0
 20
0.0
 30
0.0
  3
*D16
  1

  0
LINE
  5
7EEF
330
82A6
100
AcDbEntity
  8
0
  6
ByBlock
100
AcDbLine
 10
4259.104621073492
 20
1706.374620489382
 30
0.0
 11
4259.104621073492
 21
1986.055054257675
 31
0.0
  0
LINE
  5
7EF0
330
82A6
100
AcDbEntity
  8
0
  6
ByBlock
100
AcDbLine
 10
5509.104621073492
 20
1703.096068293924
 30
0.0
 11
5509.104621073492
 21
1986.055054257675
 31
0.0
  0
LINE
  5
7EF1
330
82A6
100
AcDbEntity
  8
0
  6
ByBlock
100
AcDbLine
 10
4319.104621073492
 20
1956.055054257674
 30
0.0
 11
5449.104621073495
 21
1956.055054257674
 31
0.0
  0
INSERT
  5
7EF2
330
82A6
100
AcDbEntity
  8
0
  6
ByBlock
100
AcDbBlockReference
  2
_OPEN
 10
4259.104621073492
 20
1956.055054257674
 30
0.0
 41
60.0
 42
60.0
 43
60.0
 50
180.0
  0
INSERT
  5
7EF3
330
82A6
100
AcDbEntity
  8
0
  6
ByBlock
100
AcDbBlockReference
  2
_OPEN
 10
5509.104621073492
 20
1956.055054257674
 30
0.0
 41
60.0
 42
60.0
 43
60.0
  0
TEXT
  5
7EF4
330
82A6
100
AcDbEntity
  8
3
100
AcDbText
 10
4734.104621073493
 20
1971.055054257674
 30
0.0
 40
90.0
  1
1250
100
AcDbText
  0
POINT
  5
7EF5
330
82A6
100
AcDbEntity
  8
DEFPOINTS
  6
ByBlock
 62
     0
100
AcDbPoint
 10
4259.104621073492
 20
1676.374620489382
 30
0.0
  0
POINT
  5
7EF6
330
82A6
100
AcDbEntity
  8
DEFPOINTS
  6
ByBlock
 62
     0
100
AcDbPoint
 10
5509.104621073492
 20
1673.096068293924
 30
0.0
  0
POINT
  5
7EF7
330
82A6
100
AcDbEntity
  8
DEFPOINTS
  6
ByBlock
 62
     0
100
AcDbPoint
 10
5509.104621073492
 20
1956.055054257674
 30
0.0
  0
ENDBLK
  5
7EF8
330
82A6
100
AcDbEntity
  8
0
100
AcDbBlockEnd
  0
BLOCK
  5
82A9
330
82A8
100
AcDbEntity
  8
0
100
AcDbBlockBegin
  2
*D17
 70
     1
 10
0.0
 20
0.0
 30
0.0
  3
*D17
  1

  0
LINE
  5
7EFA
330
82A8
100
AcDbEntity
  8
0
  6
ByBlock
100
AcDbLine
 10
5544.604621073492
 20
98.06030283574637
 30
0.0
 11
5883.472841444802
 21
98.06030283574637
 31
0.0
  0
LINE
  5
7EFB
330
82A8
100
AcDbEntity
  8
0
  6
ByBlock
100
AcDbLine
 10
5544.604621073492
 20
1158.060302835746
 30
0.0
 11
5883.472841444802
 21
1158.060302835746
 31
0.0
  0
LINE
  5
7EFC
330
82A8
100
AcDbEntity
  8
0
  6
ByBlock
100
AcDbLine
 10
5853.472841444804
 20
158.0603028357463
 30
0.0
 11
5853.472841444804
 21
1098.060302835746
 31
0.0
  0
INSERT
  5
7EFD
330
82A8
100
AcDbEntity
  8
0
  6
ByBlock
100
AcDbBlockReference
  2
_OPEN
 10
5853.472841444804
 20
98.06030283574637
 30
0.0
 41
60.0
 42
60.0
 43
60.0
 50
270.0
  0
INSERT
  5
7EFE
330
82A8
100
AcDbEntity
  8
0
  6
ByBlock
100
AcDbBlockReference
  2
_OPEN
 10
5853.472841444804
 20
1158.060302835746
 30
0.0
 41
60.0
 42
60.0
 43
60.0
 50
90.0
  0
TEXT
  5
7EFF
330
82A8
100
AcDbEntity
  8
3
100
AcDbText
 10
5838.472841444802
 20
433.0603028357463
 30
0.0
 40
90.0
  1
\U+03C61060
 50
90.0
100
AcDbText
  0
POINT
  5
7F00
330
82A8
100
AcDbEntity
  8
DEFPOINTS
  6
ByBlock
 62
     0
100
AcDbPoint
 10
5514.604621073492
 20
98.06030283574637
 30
0.0
  0
POINT
  5
7F01
330
82A8
100
AcDbEntity
  8
DEFPOINTS
  6
ByBlock
 62
     0
100
AcDbPoint
 10
5514.604621073492
 20
1158.060302835746
 30
0.0
  0
POINT
  5
7F02
330
82A8
100
AcDbEntity
  8
DEFPOINTS
  6
ByBlock
 62
     0
100
AcDbPoint
 10
5853.472841444804
 20
1158.060302835746
 30
0.0
  0
ENDBLK
  5
7F03
330
82A8
100
AcDbEntity
  8
0
100
AcDbBlockEnd
  0
BLOCK
  5
82AB
330
82AA
100
AcDbEntity
  8
0
100
AcDbBlockBegin
  2
*D18
 70
     1
 10
0.0
 20
0.0
 30
0.0
  3
*D18
  1

  0
LINE
  5
7F2A
330
82AA
100
AcDbEntity
  8
0
  6
ByBlock
100
AcDbLine
 10
2167.625114976839
 20
1785.060302835745
 30
0.0
 11
2167.625114976839
 21
2165.221479554626
 31
0.0
  0
LINE
  5
7F2B
330
82AA
100
AcDbEntity
  8
0
  6
ByBlock
100
AcDbLine
 10
62.62511497683954
 20
8.060302835745584
 30
0.0
 11
62.62511497683954
 21
2165.221479554626
 31
0.0
  0
LINE
  5
7F2C
330
82AA
100
AcDbEntity
  8
0
  6
ByBlock
100
AcDbLine
 10
2107.625114976839
 20
2135.221479554626
 30
0.0
 11
122.6251149768395
 21
2135.221479554626
 31
0.0
  0
INSERT
  5
7F2D
330
82AA
100
AcDbEntity
  8
0
  6
ByBlock
100
AcDbBlockReference
  2
_OPEN
 10
2167.625114976839
 20
2135.221479554626
 30
0.0
 41
60.0
 42
60.0
 43
60.0
  0
INSERT
  5
7F2E
330
82AA
100
AcDbEntity
  8
0
  6
ByBlock
100
AcDbBlockReference
  2
_OPEN
 10
62.62511497683954
 20
2135.221479554626
 30
0.0
 41
60.0
 42
60.0
 43
60.0
 50
180.0
  0
TEXT
  5
7F2F
330
82AA
100
AcDbEntity
  8
3
100
AcDbText
 10
965.1251149768397
 20
2150.221479554626
 30
0.0
 40
90.0
  1
2105
100
AcDbText
  0
POINT
  5
7F30
330
82AA
100
AcDbEntity
  8
DEFPOINTS
  6
ByBlock
 62
     0
100
AcDbPoint
 10
2167.625114976839
 20
1755.060302835746
 30
0.0
  0
POINT
  5
7F31
330
82AA
100
AcDbEntity
  8
DEFPOINTS
  6
ByBlock
 62
     0
100
AcDbPoint
 10
62.62511497683954
 20
-21.93969716425441
 30
0.0
  0
POINT
  5
7F32
330
82AA
100
AcDbEntity
  8
DEFPOINTS
  6
ByBlock
 62
     0
100
AcDbPoint
 10
62.62511497683954
 20
2135.221479554626
 30
0.0
  0
ENDBLK
  5
7F33
330
82AA
100
AcDbEntity
  8
0
100
AcDbBlockEnd
  0
BLOCK
  5
82AD
330
82AC
100
AcDbEntity
  8
0
100
AcDbBlockBegin
  2
*D19
 70
     1
 10
0.0
 20
0.0
 30
0.0
  3
*D19
  1

  0
LINE
  5
7F35
330
82AC
100
AcDbEntity
  8
0
  6
ByBlock
100
AcDbLine
 10
862.6251149768394
 20
4406.031599361241
 30
0.0
 11
862.6251149768394
 21
4627.335536588958
 31
0.0
  0
LINE
  5
7F36
330
82AC
100
AcDbEntity
  8
0
  6
ByBlock
100
AcDbLine
 10
62.62511497683954
 20
3751.03159936124
 30
0.0
 11
62.62511497683954
 21
4627.335536588958
 31
0.0
  0
LINE
  5
7F37
330
82AC
100
AcDbEntity
  8
0
  6
ByBlock
100
AcDbLine
 10
802.6251149768395
 20
4597.335536588958
 30
0.0
 11
122.6251149768395
 21
4597.335536588958
 31
0.0
  0
INSERT
  5
7F38
330
82AC
100
AcDbEntity
  8
0
  6
ByBlock
100
AcDbBlockReference
  2
_OPEN
 10
862.6251149768394
 20
4597.335536588958
 30
0.0
 41
60.0
 42
60.0
 43
60.0
  0
INSERT
  5
7F39
330
82AC
100
AcDbEntity
  8
0
  6
ByBlock
100
AcDbBlockReference
  2
_OPEN
 10
62.62511497683954
 20
4597.335536588958
 30
0.0
 41
60.0
 42
60.0
 43
60.0
 50
180.0
  0
TEXT
  5
7F3A
330
82AC
100
AcDbEntity
  8
3
100
AcDbText
 10
346.9108292625538
 20
4612.335536588958
 30
0.0
 40
90.0
  1
800
100
AcDbText
  0
POINT
  5
7F3B
330
82AC
100
AcDbEntity
  8
DEFPOINTS
  6
ByBlock
 62
     0
100
AcDbPoint
 10
862.6251149768394
 20
4376.031599361239
 30
0.0
  0
POINT
  5
7F3C
330
82AC
100
AcDbEntity
  8
DEFPOINTS
  6
ByBlock
 62
     0
100
AcDbPoint
 10
62.62511497683954
 20
3721.031599361241
 30
0.0
  0
POINT
  5
7F3D
330
82AC
100
AcDbEntity
  8
DEFPOINTS
  6
ByBlock
 62
     0
100
AcDbPoint
 10
62.62511497683954
 20
4597.335536588958
 30
0.0
  0
ENDBLK
  5
7F3E
330
82AC
100
AcDbEntity
  8
0
100
AcDbBlockEnd
  0
BLOCK
  5
82AF
330
82AE
100
AcDbEntity
  8
0
100
AcDbBlockBegin
  2
_DOT
 70
     0
 10
0.0
 20
0.0
 30
0.0
  3
_DOT
  1

  0
LWPOLYLINE
  5
8010
330
82AE
100
AcDbEntity
  8
0
  6
ByBlock
 62
     0
100
AcDbPolyline
 90
        2
 70
     1
 43
0.25
 10
-0.125
 20
0.0
 42
1.0
 10
0.125
 20
0.0
 42
1.0
  0
LINE
  5
8014
330
82AE
100
AcDbEntity
  8
0
  6
ByBlock
 62
     0
100
AcDbLine
 10
-0.25
 20
0.0
 30
0.0
 11
-1.0
 21
0.0
 31
0.0
  0
ENDBLK
  5
7FF3
330
82AE
100
AcDbEntity
  8
0
100
AcDbBlockEnd
  0
BLOCK
  5
82B1
330
82B0
100
AcDbEntity
  8
0
100
AcDbBlockBegin
  2
_NONE
 70
     0
 10
0.0
 20
0.0
 30
0.0
  3
_NONE
  1

  0
CIRCLE
  5
810F
330
82B0
100
AcDbEntity
  8
0
  6
ByBlock
 62
     0
100
AcDbCircle
 10
0.0
 20
0.0
 30
0.0
 40
0.25
  0
ENDBLK
  5
8110
330
82B0
100
AcDbEntity
  8
0
100
AcDbBlockEnd
  0
BLOCK
  5
82B3
330
82B2
100
AcDbEntity
  8
0
100
AcDbBlockBegin
  2
*D22
 70
     1
 10
0.0
 20
0.0
 30
0.0
  3
*D22
  1

  0
LINE
  5
815F
330
82B2
100
AcDbEntity
  8
0
  6
ByBlock
 62
     0
100
AcDbLine
 10
842.2672637701799
 20
2158.588409321164
 30
0.0
 11
842.2672637701799
 21
1964.298153400224
 31
0.0
  0
LINE
  5
8160
330
82B2
100
AcDbEntity
  8
0
  6
ByBlock
 62
     0
100
AcDbLine
 10
2267.267263770178
 20
2158.588409321164
 30
0.0
 11
2267.267263770178
 21
1964.298153400224
 31
0.0
  0
LINE
  5
8161
330
82B2
100
AcDbEntity
  8
0
  6
ByBlock
 62
     0
100
AcDbLine
 10
902.2672637701798
 20
1994.298153400224
 30
0.0
 11
2207.267263770178
 21
1994.298153400224
 31
0.0
  0
INSERT
  5
8162
330
82B2
100
AcDbEntity
  8
0
  6
ByBlock
 62
     0
100
AcDbBlockReference
  2
_OPEN
 10
842.2672637701799
 20
1994.298153400224
 30
0.0
 41
60.0
 42
60.0
 43
60.0
 50
180.0
  0
INSERT
  5
8163
330
82B2
100
AcDbEntity
  8
0
  6
ByBlock
 62
     0
100
AcDbBlockReference
  2
_OPEN
 10
2267.267263770178
 20
1994.298153400224
 30
0.0
 41
60.0
 42
60.0
 43
60.0
  0
TEXT
  5
8164
330
82B2
100
AcDbEntity
  8
3
 62
     0
100
AcDbText
 10
1404.767263770179
 20
2024.298153400224
 30
0.0
 40
90.0
  1
1425
100
AcDbText
  0
POINT
  5
8165
330
82B2
100
AcDbEntity
  8
DEFPOINTS
  6
ByBlock
 62
     0
100
AcDbPoint
 10
842.2672637701799
 20
2188.588409321164
 30
0.0
  0
POINT
  5
8166
330
82B2
100
AcDbEntity
  8
DEFPOINTS
  6
ByBlock
 62
     0
100
AcDbPoint
 10
2267.267263770178
 20
2188.588409321164
 30
0.0
  0
POINT
  5
8167
330
82B2
100
AcDbEntity
  8
DEFPOINTS
  6
ByBlock
 62
     0
100
AcDbPoint
 10
2267.267263770178
 20
1994.298153400224
 30
0.0
  0
ENDBLK
  5
8168
330
82B2
100
AcDbEntity
  8
0
100
AcDbBlockEnd
  0
BLOCK
  5
82B5
330
82B4
100
AcDbEntity
  8
0
100
AcDbBlockBegin
  2
*D23
 70
     1
 10
0.0
 20
0.0
 30
0.0
  3
*D23
  1

  0
LINE
  5
816C
330
82B4
100
AcDbEntity
  8
0
  6
ByBlock
 62
     0
100
AcDbLine
 10
2267.267263770178
 20
2158.588409321164
 30
0.0
 11
2267.267263770178
 21
1964.298153400224
 31
0.0
  0
LINE
  5
816D
330
82B4
100
AcDbEntity
  8
0
  6
ByBlock
 62
     0
100
AcDbLine
 10
2892.267263770179
 20
2158.588409321164
 30
0.0
 11
2892.267263770179
 21
1964.298153400224
 31
0.0
  0
LINE
  5
816E
330
82B4
100
AcDbEntity
  8
0
  6
ByBlock
 62
     0
100
AcDbLine
 10
2327.267263770178
 20
1994.298153400224
 30
0.0
 11
2832.26726377018
 21
1994.298153400224
 31
0.0
  0
INSERT
  5
816F
330
82B4
100
AcDbEntity
  8
0
  6
ByBlock
 62
     0
100
AcDbBlockReference
  2
_OPEN
 10
2267.267263770178
 20
1994.298153400224
 30
0.0
 41
60.0
 42
60.0
 43
60.0
 50
180.0
  0
INSERT
  5
8170
330
82B4
100
AcDbEntity
  8
0
  6
ByBlock
 62
     0
100
AcDbBlockReference
  2
_OPEN
 10
2892.267263770179
 20
1994.298153400224
 30
0.0
 41
60.0
 42
60.0
 43
60.0
  0
TEXT
  5
8171
330
82B4
100
AcDbEntity
  8
3
 62
     0
100
AcDbText
 10
2464.052978055893
 20
2024.298153400224
 30
0.0
 40
90.0
  1
625
100
AcDbText
  0
POINT
  5
8172
330
82B4
100
AcDbEntity
  8
DEFPOINTS
  6
ByBlock
 62
     0
100
AcDbPoint
 10
2267.267263770178
 20
2188.588409321164
 30
0.0
  0
POINT
  5
8173
330
82B4
100
AcDbEntity
  8
DEFPOINTS
  6
ByBlock
 62
     0
100
AcDbPoint
 10
2892.267263770179
 20
2188.588409321164
 30
0.0
  0
POINT
  5
8174
330
82B4
100
AcDbEntity
  8
DEFPOINTS
  6
ByBlock
 62
     0
100
AcDbPoint
 10
2892.267263770179
 20
1994.298153400224
 30
0.0
  0
ENDBLK
  5
8175
330
82B4
100
AcDbEntity
  8
0
100
AcDbBlockEnd
  0
BLOCK
  5
82B7
330
82B6
100
AcDbEntity
  8
0
100
AcDbBlockBegin
  2
*D24
 70
     1
 10
0.0
 20
0.0
 30
0.0
  3
*D24
  1

  0
LINE
  5
8179
330
82B6
100
AcDbEntity
  8
0
  6
ByBlock
 62
     0
100
AcDbLine
 10
3933.792027154096
 20
2158.588409321163
 30
0.0
 11
3933.792027154096
 21
1964.298153400224
 31
0.0
  0
LINE
  5
817A
330
82B6
100
AcDbEntity
  8
0
  6
ByBlock
 62
     0
100
AcDbLine
 10
4760.792027154097
 20
2158.588409321163
 30
0.0
 11
4760.792027154097
 21
1964.298153400224
 31
0.0
  0
LINE
  5
817B
330
82B6
100
AcDbEntity
  8
0
  6
ByBlock
 62
     0
100
AcDbLine
 10
3993.792027154096
 20
1994.298153400224
 30
0.0
 11
4700.792027154096
 21
1994.298153400224
 31
0.0
  0
INSERT
  5
817C
330
82B6
100
AcDbEntity
  8
0
  6
ByBlock
 62
     0
100
AcDbBlockReference
  2
_OPEN
 10
3933.792027154096
 20
1994.298153400224
 30
0.0
 41
60.0
 42
60.0
 43
60.0
 50
180.0
  0
INSERT
  5
817D
330
82B6
100
AcDbEntity
  8
0
  6
ByBlock
 62
     0
100
AcDbBlockReference
  2
_OPEN
 10
4760.792027154097
 20
1994.298153400224
 30
0.0
 41
60.0
 42
60.0
 43
60.0
  0
TEXT
  5
817E
330
82B6
100
AcDbEntity
  8
3
 62
     0
100
AcDbText
 10
4231.577741439812
 20
2024.298153400224
 30
0.0
 40
90.0
  1
827
100
AcDbText
  0
POINT
  5
817F
330
82B6
100
AcDbEntity
  8
DEFPOINTS
  6
ByBlock
 62
     0
100
AcDbPoint
 10
3933.792027154096
 20
2188.588409321163
 30
0.0
  0
POINT
  5
8180
330
82B6
100
AcDbEntity
  8
DEFPOINTS
  6
ByBlock
 62
     0
100
AcDbPoint
 10
4760.792027154097
 20
2188.588409321163
 30
0.0
  0
POINT
  5
8181
330
82B6
100
AcDbEntity
  8
DEFPOINTS
  6
ByBlock
 62
     0
100
AcDbPoint
 10
4760.792027154097
 20
1994.298153400224
 30
0.0
  0
ENDBLK
  5
8182
330
82B6
100
AcDbEntity
  8
0
100
AcDbBlockEnd
  0
BLOCK
  5
82B9
330
82B8
100
AcDbEntity
  8
0
100
AcDbBlockBegin
  2
*D25
 70
     1
 10
0.0
 20
0.0
 30
0.0
  3
*D25
  1

  0
LINE
  5
8186
330
82B8
100
AcDbEntity
  8
0
  6
ByBlock
 62
     0
100
AcDbLine
 10
4760.792027154097
 20
2158.588409321163
 30
0.0
 11
4760.792027154097
 21
1964.298153400224
 31
0.0
  0
LINE
  5
8187
330
82B8
100
AcDbEntity
  8
0
  6
ByBlock
 62
     0
100
AcDbLine
 10
5438.792027154097
 20
2158.588409321163
 30
0.0
 11
5438.792027154097
 21
1964.298153400224
 31
0.0
  0
LINE
  5
8188
330
82B8
100
AcDbEntity
  8
0
  6
ByBlock
 62
     0
100
AcDbLine
 10
4820.792027154097
 20
1994.298153400224
 30
0.0
 11
5378.792027154097
 21
1994.298153400224
 31
0.0
  0
INSERT
  5
8189
330
82B8
100
AcDbEntity
  8
0
  6
ByBlock
 62
     0
100
AcDbBlockReference
  2
_OPEN
 10
4760.792027154097
 20
1994.298153400224
 30
0.0
 41
60.0
 42
60.0
 43
60.0
 50
180.0
  0
INSERT
  5
818A
330
82B8
100
AcDbEntity
  8
0
  6
ByBlock
 62
     0
100
AcDbBlockReference
  2
_OPEN
 10
5438.792027154097
 20
1994.298153400224
 30
0.0
 41
60.0
 42
60.0
 43
60.0
  0
TEXT
  5
818B
330
82B8
100
AcDbEntity
  8
3
 62
     0
100
AcDbText
 10
4984.07774143981
 20
2024.298153400224
 30
0.0
 40
90.0
  1
678
100
AcDbText
  0
POINT
  5
818C
330
82B8
100
AcDbEntity
  8
DEFPOINTS
  6
ByBlock
 62
     0
100
AcDbPoint
 10
4760.792027154097
 20
2188.588409321163
 30
0.0
  0
POINT
  5
818D
330
82B8
100
AcDbEntity
  8
DEFPOINTS
  6
ByBlock
 62
     0
100
AcDbPoint
 10
5438.792027154097
 20
2188.588409321163
 30
0.0
  0
POINT
  5
818E
330
82B8
100
AcDbEntity
  8
DEFPOINTS
  6
ByBlock
 62
     0
100
AcDbPoint
 10
5438.792027154097
 20
1994.298153400224
 30
0.0
  0
ENDBLK
  5
818F
330
82B8
100
AcDbEntity
  8
0
100
AcDbBlockEnd
  0
BLOCK
  5
82BB
330
82BA
100
AcDbEntity
  8
0
100
AcDbBlockBegin
  2
*D26
 70
     1
 10
0.0
 20
0.0
 30
0.0
  3
*D26
  1

  0
LINE
  5
8193
330
82BA
100
AcDbEntity
  8
0
  6
ByBlock
 62
     0
100
AcDbLine
 10
2922.26726377018
 20
2188.588409321164
 30
0.0
 11
3567.653600346766
 21
2188.588409321164
 31
0.0
  0
LINE
  5
8194
330
82BA
100
AcDbEntity
  8
0
  6
ByBlock
 62
     0
100
AcDbLine
 10
3007.26726377018
 20
4012.588409321161
 30
0.0
 11
3567.653600346766
 21
4012.588409321161
 31
0.0
  0
LINE
  5
8195
330
82BA
100
AcDbEntity
  8
0
  6
ByBlock
 62
     0
100
AcDbLine
 10
3537.653600346766
 20
2248.588409321164
 30
0.0
 11
3537.653600346766
 21
3952.588409321162
 31
0.0
  0
INSERT
  5
8196
330
82BA
100
AcDbEntity
  8
0
  6
ByBlock
 62
     0
100
AcDbBlockReference
  2
_OPEN
 10
3537.653600346766
 20
2188.588409321164
 30
0.0
 41
60.0
 42
60.0
 43
60.0
 50
270.0
  0
INSERT
  5
8197
330
82BA
100
AcDbEntity
  8
0
  6
ByBlock
 62
     0
100
AcDbBlockReference
  2
_OPEN
 10
3537.653600346766
 20
4012.588409321161
 30
0.0
 41
60.0
 42
60.0
 43
60.0
 50
90.0
  0
TEXT
  5
8198
330
82BA
100
AcDbEntity
  8
3
 62
     0
100
AcDbText
 10
3507.653600346766
 20
2948.445552178306
 30
0.0
 40
90.0
  1
1824
 50
90.0
100
AcDbText
  0
POINT
  5
8199
330
82BA
100
AcDbEntity
  8
DEFPOINTS
  6
ByBlock
 62
     0
100
AcDbPoint
 10
2892.267263770179
 20
2188.588409321164
 30
0.0
  0
POINT
  5
819A
330
82BA
100
AcDbEntity
  8
DEFPOINTS
  6
ByBlock
 62
     0
100
AcDbPoint
 10
2977.26726377018
 20
4012.588409321161
 30
0.0
  0
POINT
  5
819B
330
82BA
100
AcDbEntity
  8
DEFPOINTS
  6
ByBlock
 62
     0
100
AcDbPoint
 10
3537.653600346766
 20
4012.588409321161
 30
0.0
  0
ENDBLK
  5
819C
330
82BA
100
AcDbEntity
  8
0
100
AcDbBlockEnd
  0
BLOCK
  5
82C0
330
82BF
100
AcDbEntity
  8
0
100
AcDbBlockBegin
  2
*D27
 70
     1
 10
0.0
 20
0.0
 30
0.0
  3
*D27
  1

  0
LINE
  5
8308
330
82BF
100
AcDbEntity
  8
3
 62
     0
370
    -2
100
AcDbLine
 10
3700.792027154091
 20
3248.588409321162
 30
0.0
 11
3700.792027154091
 21
4497.516311046715
 31
0.0
  0
LINE
  5
8309
330
82BF
100
AcDbEntity
  8
3
 62
     0
370
    -2
100
AcDbLine
 10
4760.792027154097
 20
4401.583160743091
 30
0.0
 11
4760.792027154097
 21
4497.516311046715
 31
0.0
  0
LINE
  5
830A
330
82BF
100
AcDbEntity
  8
3
 62
     0
370
    -2
100
AcDbLine
 10
3760.792027154091
 20
4467.516311046714
 30
0.0
 11
4700.792027154096
 21
4467.516311046714
 31
0.0
  0
INSERT
  5
830B
330
82BF
100
AcDbEntity
  8
3
 62
     0
370
    -2
100
AcDbBlockReference
  2
_OPEN
 10
3700.792027154091
 20
4467.516311046714
 30
0.0
 41
60.0
 42
60.0
 43
60.0
 50
180.0
  0
INSERT
  5
830C
330
82BF
100
AcDbEntity
  8
3
 62
     0
370
    -2
100
AcDbBlockReference
  2
_OPEN
 10
4760.792027154097
 20
4467.516311046714
 30
0.0
 41
60.0
 42
60.0
 43
60.0
  0
MTEXT
  5
830D
330
82BF
100
AcDbEntity
  8
3
 62
     0
100
AcDbMText
 10
4230.792027154094
 20
4566.087739618143
 30
0.0
 40
90.0
 41
0.0
 71
     5
 72
     1
  1
\A1;(1060)
 73
     1
 44
1.0
1001
ACAD
1000
MTEXTBEGIN
1070
    73
1070
     1
1070
    44
1040
1.0
1070
    74
1070
     0
1000
MTEXTEND
  0
POINT
  5
830E
330
82BF
100
AcDbEntity
  8
DEFPOINTS
 62
     0
100
AcDbPoint
 10
3700.792027154091
 20
3218.588409321163
 30
0.0
  0
POINT
  5
830F
330
82BF
100
AcDbEntity
  8
DEFPOINTS
 62
     0
100
AcDbPoint
 10
4760.792027154097
 20
4371.583160743091
 30
0.0
  0
POINT
  5
8310
330
82BF
100
AcDbEntity
  8
DEFPOINTS
 62
     0
100
AcDbPoint
 10
4760.792027154097
 20
4467.516311046714
 30
0.0
  0
ENDBLK
  5
82C1
330
82BF
100
AcDbEntity
  8
0
100
AcDbBlockEnd
  0
BLOCK
  5
82CD
330
82CC
100
AcDbEntity
  8
0
100
AcDbBlockBegin
  2
*D28
 70
     1
 10
0.0
 20
0.0
 30
0.0
  3
*D28
  1

  0
LINE
  5
831A
330
82CC
100
AcDbEntity
  8
3
 62
     0
370
    -2
100
AcDbLine
 10
4760.792027154097
 20
4401.583160743091
 30
0.0
 11
4760.792027154097
 21
4497.516311046715
 31
0.0
  0
LINE
  5
831B
330
82CC
100
AcDbEntity
  8
3
 62
     0
370
    -2
100
AcDbLine
 10
5540.792027154095
 20
2932.788409321163
 30
0.0
 11
5540.792027154095
 21
4497.516311046715
 31
0.0
  0
LINE
  5
831C
330
82CC
100
AcDbEntity
  8
3
 62
     0
370
    -2
100
AcDbLine
 10
4820.792027154097
 20
4467.516311046714
 30
0.0
 11
5480.792027154095
 21
4467.516311046714
 31
0.0
  0
INSERT
  5
831D
330
82CC
100
AcDbEntity
  8
3
 62
     0
370
    -2
100
AcDbBlockReference
  2
_OPEN
 10
4760.792027154097
 20
4467.516311046714
 30
0.0
 41
60.0
 42
60.0
 43
60.0
 50
180.0
  0
INSERT
  5
831E
330
82CC
100
AcDbEntity
  8
3
 62
     0
370
    -2
100
AcDbBlockReference
  2
_OPEN
 10
5540.792027154095
 20
4467.516311046714
 30
0.0
 41
60.0
 42
60.0
 43
60.0
  0
MTEXT
  5
831F
330
82CC
100
AcDbEntity
  8
3
 62
     0
100
AcDbMText
 10
5150.792027154096
 20
4566.087739618143
 30
0.0
 40
90.0
 41
0.0
 71
     5
 72
     1
  1
\A1;(780)
 73
     1
 44
1.0
1001
ACAD
1000
MTEXTBEGIN
1070
    73
1070
     1
1070
    44
1040
1.0
1070
    74
1070
     0
1000
MTEXTEND
  0
POINT
  5
8320
330
82CC
100
AcDbEntity
  8
DEFPOINTS
 62
     0
100
AcDbPoint
 10
4760.792027154097
 20
4371.583160743091
 30
0.0
  0
POINT
  5
8321
330
82CC
100
AcDbEntity
  8
DEFPOINTS
 62
     0
100
AcDbPoint
 10
5540.792027154095
 20
2902.788409321163
 30
0.0
  0
POINT
  5
8322
330
82CC
100
AcDbEntity
  8
DEFPOINTS
 62
     0
100
AcDbPoint
 10
5540.792027154095
 20
4467.516311046714
 30
0.0
  0
ENDBLK
  5
82CE
330
82CC
100
AcDbEntity
  8
0
100
AcDbBlockEnd
  0
BLOCK
  5
8325
330
8324
100
AcDbEntity
  8
0
100
AcDbBlockBegin
  2
*D29
 70
     1
 10
0.0
 20
0.0
 30
0.0
  3
*D29
  1

  0
LINE
  5
833D
330
8324
100
AcDbEntity
  8
3
 62
     0
370
    -2
100
AcDbLine
 10
2776.192454152766
 20
5850.241293846764
 30
0.0
 11
3857.349386728748
 21
5850.241293846764
 31
0.0
  0
LINE
  5
833E
330
8324
100
AcDbEntity
  8
3
 62
     0
370
    -2
100
AcDbLine
 10
2577.267263770178
 20
4790.241293846764
 30
0.0
 11
3857.349386728747
 21
4790.241293846764
 31
0.0
  0
LINE
  5
833F
330
8324
100
AcDbEntity
  8
3
 62
     0
370
    -2
100
AcDbLine
 10
3827.349386728747
 20
5790.241293846764
 30
0.0
 11
3827.349386728747
 21
4850.241293846764
 31
0.0
  0
INSERT
  5
8340
330
8324
100
AcDbEntity
  8
3
 62
     0
370
    -2
100
AcDbBlockReference
  2
_OPEN
 10
3827.349386728747
 20
5850.241293846764
 30
0.0
 41
60.0
 42
60.0
 43
60.0
 50
90.0
  0
INSERT
  5
8341
330
8324
100
AcDbEntity
  8
3
 62
     0
370
    -2
100
AcDbBlockReference
  2
_OPEN
 10
3827.349386728747
 20
4790.241293846764
 30
0.0
 41
60.0
 42
60.0
 43
60.0
 50
270.0
  0
MTEXT
  5
8342
330
8324
100
AcDbEntity
  8
3
 62
     0
100
AcDbMText
 10
3752.349386728746
 20
5320.241293846765
 30
0.0
 40
90.0
 41
0.0
 71
     5
 72
     1
  1
\A1;1060
 11
0.0000000000000001
 21
1.0
 31
0.0
 73
     1
 44
1.0
1001
ACAD
1000
MTEXTBEGIN
1070
    73
1070
     1
1070
    44
1040
1.0
1070
    74
1070
     0
1000
MTEXTEND
  0
POINT
  5
8343
330
8324
100
AcDbEntity
  8
DEFPOINTS
 62
     0
100
AcDbPoint
 10
2746.192454152766
 20
5850.241293846764
 30
0.0
  0
POINT
  5
8344
330
8324
100
AcDbEntity
  8
DEFPOINTS
 62
     0
100
AcDbPoint
 10
2547.267263770178
 20
4790.241293846764
 30
0.0
  0
POINT
  5
8345
330
8324
100
AcDbEntity
  8
DEFPOINTS
 62
     0
100
AcDbPoint
 10
3827.349386728747
 20
4790.241293846764
 30
0.0
  0
ENDBLK
  5
8326
330
8324
100
AcDbEntity
  8
0
100
AcDbBlockEnd
  0
BLOCK
  5
8331
330
8330
100
AcDbEntity
  8
0
100
AcDbBlockBegin
  2
*D30
 70
     1
 10
0.0
 20
0.0
 30
0.0
  3
*D30
  1

  0
LINE
  5
8333
330
8330
100
AcDbEntity
  8
3
 62
     0
370
    -2
100
AcDbLine
 10
842.2672637701799
 20
5021.366293846766
 30
0.0
 11
842.2672637701799
 21
4609.291170020189
 31
0.0
  0
LINE
  5
8334
330
8330
100
AcDbEntity
  8
3
 62
     0
370
    -2
100
AcDbLine
 10
2892.267263770179
 20
5021.366293846764
 30
0.0
 11
2892.267263770179
 21
4609.291170020189
 31
0.0
  0
LINE
  5
8335
330
8330
100
AcDbEntity
  8
3
 62
     0
370
    -2
100
AcDbLine
 10
847.6672637701797
 20
4614.691170020189
 30
0.0
 11
1843.481549484465
 21
4614.691170020189
 31
0.0
  0
LINE
  5
8336
330
8330
100
AcDbEntity
  8
3
 62
     0
370
    -2
100
AcDbLine
 10
2886.867263770179
 20
4614.691170020189
 30
0.0
 11
1891.052978055893
 21
4614.691170020189
 31
0.0
  0
SOLID
  5
8337
330
8330
100
AcDbEntity
  8
3
 62
     0
100
AcDbTrace
 10
847.6672637701797
 20
4615.591170020189
 30
0.0
 11
847.6672637701797
 21
4613.791170020189
 31
0.0
 12
842.2672637701799
 22
4614.691170020189
 32
0.0
 13
842.2672637701799
 23
4614.691170020189
 33
0.0
  0
SOLID
  5
8338
330
8330
100
AcDbEntity
  8
3
 62
     0
100
AcDbTrace
 10
2886.867263770179
 20
4615.591170020189
 30
0.0
 11
2886.867263770179
 21
4613.791170020189
 31
0.0
 12
2892.267263770179
 22
4614.691170020189
 32
0.0
 13
2892.267263770179
 23
4614.691170020189
 33
0.0
  0
MTEXT
  5
8339
330
8330
100
AcDbEntity
  8
3
 62
     0
100
AcDbMText
 10
1867.267263770179
 20
4614.691170020189
 30
0.0
 40
5.399999999999999
 41
0.0
 71
     5
 72
     1
  1
\A1;2050.0000
 73
     1
 44
1.0
1001
ACAD
1000
MTEXTBEGIN
1070
    73
1070
     1
1070
    44
1040
1.0
1070
    74
1070
     0
1000
MTEXTEND
  0
POINT
  5
833A
330
8330
100
AcDbEntity
  8
DEFPOINTS
 62
     0
100
AcDbPoint
 10
842.2672637701799
 20
5023.241293846766
 30
0.0
  0
POINT
  5
833B
330
8330
100
AcDbEntity
  8
DEFPOINTS
 62
     0
100
AcDbPoint
 10
2892.267263770179
 20
5023.241293846764
 30
0.0
  0
POINT
  5
833C
330
8330
100
AcDbEntity
  8
DEFPOINTS
 62
     0
100
AcDbPoint
 10
2892.267263770179
 20
4614.691170020189
 30
0.0
  0
ENDBLK
  5
8332
330
8330
100
AcDbEntity
  8
0
100
AcDbBlockEnd
  0
BLOCK
  5
8348
330
8347
100
AcDbEntity
  8
0
100
AcDbBlockBegin
  2
*D31
 70
     1
 10
0.0
 20
0.0
 30
0.0
  3
*D31
  1

  0
LINE
  5
834A
330
8347
100
AcDbEntity
  8
3
 62
     0
370
    -2
100
AcDbLine
 10
842.2672637701799
 20
4993.241293846766
 30
0.0
 11
842.2672637701799
 21
4592.798823399386
 31
0.0
  0
LINE
  5
834B
330
8347
100
AcDbEntity
  8
3
 62
     0
370
    -2
100
AcDbLine
 10
2892.267263770179
 20
4993.241293846764
 30
0.0
 11
2892.267263770179
 21
4592.798823399386
 31
0.0
  0
LINE
  5
834C
330
8347
100
AcDbEntity
  8
3
 62
     0
370
    -2
100
AcDbLine
 10
902.2672637701798
 20
4622.798823399385
 30
0.0
 11
2832.267263770179
 21
4622.798823399385
 31
0.0
  0
INSERT
  5
834D
330
8347
100
AcDbEntity
  8
3
 62
     0
370
    -2
100
AcDbBlockReference
  2
_OPEN
 10
842.2672637701799
 20
4622.798823399385
 30
0.0
 41
60.0
 42
60.0
 43
60.0
 50
180.0
  0
INSERT
  5
834E
330
8347
100
AcDbEntity
  8
3
 62
     0
370
    -2
100
AcDbBlockReference
  2
_OPEN
 10
2892.267263770179
 20
4622.798823399385
 30
0.0
 41
60.0
 42
60.0
 43
60.0
  0
MTEXT
  5
834F
330
8347
100
AcDbEntity
  8
3
 62
     0
100
AcDbMText
 10
1867.267263770179
 20
4697.798823399385
 30
0.0
 40
90.0
 41
0.0
 71
     5
 72
     1
  1
\A1;2050
 73
     1
 44
1.0
1001
ACAD
1000
MTEXTBEGIN
1070
    73
1070
     1
1070
    44
1040
1.0
1070
    74
1070
     0
1000
MTEXTEND
  0
POINT
  5
8350
330
8347
100
AcDbEntity
  8
DEFPOINTS
 62
     0
100
AcDbPoint
 10
842.2672637701799
 20
5023.241293846766
 30
0.0
  0
POINT
  5
8351
330
8347
100
AcDbEntity
  8
DEFPOINTS
 62
     0
100
AcDbPoint
 10
2892.267263770179
 20
5023.241293846764
 30
0.0
  0
POINT
  5
8352
330
8347
100
AcDbEntity
  8
DEFPOINTS
 62
     0
100
AcDbPoint
 10
2892.267263770179
 20
4622.798823399385
 30
0.0
  0
ENDBLK
  5
8349
330
8347
100
AcDbEntity
  8
0
100
AcDbBlockEnd
  0
BLOCK
  5
8355
330
8354
100
AcDbEntity
  8
0
100
AcDbBlockBegin
  2
*D32
 70
     1
 10
0.0
 20
0.0
 30
0.0
  3
*D32
  1

  0
LINE
  5
8360
330
8354
100
AcDbEntity
  8
3
 62
     0
370
    -2
100
AcDbLine
 10
3036.883246267807
 20
2938.588409321162
 30
0.0
 11
3379.229406223477
 21
2938.588409321162
 31
0.0
  0
LINE
  5
8361
330
8354
100
AcDbEntity
  8
3
 62
     0
370
    -2
100
AcDbLine
 10
2922.267263770179
 20
2188.588409321164
 30
0.0
 11
3379.229406223477
 21
2188.588409321164
 31
0.0
  0
LINE
  5
8362
330
8354
100
AcDbEntity
  8
3
 62
     0
370
    -2
100
AcDbLine
 10
3349.229406223476
 20
2878.588409321162
 30
0.0
 11
3349.229406223476
 21
2248.588409321163
 31
0.0
  0
INSERT
  5
8363
330
8354
100
AcDbEntity
  8
3
 62
     0
370
    -2
100
AcDbBlockReference
  2
_OPEN
 10
3349.229406223476
 20
2938.588409321162
 30
0.0
 41
60.0
 42
60.0
 43
60.0
 50
90.0
  0
INSERT
  5
8364
330
8354
100
AcDbEntity
  8
3
 62
     0
370
    -2
100
AcDbBlockReference
  2
_OPEN
 10
3349.229406223476
 20
2188.588409321164
 30
0.0
 41
60.0
 42
60.0
 43
60.0
 50
270.0
  0
MTEXT
  5
8365
330
8354
100
AcDbEntity
  8
3
 62
     0
100
AcDbMText
 10
3274.229406223476
 20
2563.588409321164
 30
0.0
 40
90.0
 41
0.0
 71
     5
 72
     1
  1
\A1;750
 11
0.0000000000000001
 21
1.0
 31
0.0
 73
     1
 44
1.0
1001
ACAD
1000
MTEXTBEGIN
1070
    73
1070
     1
1070
    44
1040
1.0
1070
    74
1070
     0
1000
MTEXTEND
  0
POINT
  5
8366
330
8354
100
AcDbEntity
  8
DEFPOINTS
 62
     0
100
AcDbPoint
 10
3006.883246267807
 20
2938.588409321162
 30
0.0
  0
POINT
  5
8367
330
8354
100
AcDbEntity
  8
DEFPOINTS
 62
     0
100
AcDbPoint
 10
2892.267263770179
 20
2188.588409321164
 30
0.0
  0
POINT
  5
8368
330
8354
100
AcDbEntity
  8
DEFPOINTS
 62
     0
100
AcDbPoint
 10
3349.229406223476
 20
2188.588409321164
 30
0.0
  0
ENDBLK
  5
8356
330
8354
100
AcDbEntity
  8
0
100
AcDbBlockEnd
  0
ENDSEC
  0
SECTION
  2
ENTITIES
  0
INSERT
  5
7C28
330
8277
100
AcDbEntity
  8
0
100
AcDbBlockReference
  2
YA_N
 10
6.0
 20
5.0
 30
0.0
  0
ARC
  5
7C2A
330
8277
100
AcDbEntity
  8
1
100
AcDbCircle
 10
2341.26726377018
 20
3012.588409321162
 30
0.0
 40
942.0
100
AcDbArc
 50
94.50558452664441
 51
184.5055845266444
  0
ARC
  5
7C2B
330
8277
100
AcDbEntity
  8
1
100
AcDbCircle
 10
2193.267263770179
 20
3012.588409321162
 30
0.0
 40
794.0
100
AcDbArc
 50
185.3476697498386
 51
245.7607085709266
  0
ARC
  5
7C2C
330
8277
100
AcDbEntity
  8
1
100
AcDbCircle
 10
2206.76726377018
 20
2878.088409321162
 30
0.0
 40
659.4999999999998
100
AcDbArc
 50
296.6377560511194
 51
5.263495203066971
  0
LINE
  5
7C2D
330
8277
100
AcDbEntity
  8
1
100
AcDbLine
 10
2864.649051239465
 20
2982.588409321163
 30
0.0
 11
2947.26726377018
 21
2982.588409321163
 31
0.0
  0
LINE
  5
7C2E
330
8277
100
AcDbEntity
  8
1
100
AcDbLine
 10
2947.26726377018
 20
4065.588409321161
 30
0.0
 11
2947.26726377018
 21
2929.588409321162
 31
0.0
  0
LINE
  5
7C2F
330
8277
100
AcDbEntity
  8
1
100
AcDbLine
 10
2947.26726377018
 20
4012.588409321161
 30
0.0
 11
2267.267263770179
 21
3951.677329498586
 31
0.0
  0
LINE
  5
7C30
330
8277
100
AcDbEntity
  8
1
100
AcDbLine
 10
2943.267263770178
 20
4065.588409321161
 30
0.0
 11
2947.26726377018
 21
4065.588409321161
 31
0.0
  0
LINE
  5
7C31
330
8277
100
AcDbEntity
  8
1
100
AcDbLine
 10
2943.267263770181
 20
2929.588409321162
 30
0.0
 11
2947.26726377018
 21
2929.588409321162
 31
0.0
  0
LINE
  5
7C32
330
8277
100
AcDbEntity
  8
1
100
AcDbLine
 10
2897.26726377018
 20
4008.109653451855
 30
0.0
 11
2897.26726377018
 21
2982.588409321163
 31
0.0
  0
LINE
  5
7C33
330
8277
100
AcDbEntity
  8
1
100
AcDbLine
 10
2943.267263770178
 20
4065.588409321161
 30
0.0
 11
2943.267263770181
 21
2929.588409321162
 31
0.0
  0
LINE
  5
7C34
330
8277
100
AcDbEntity
  8
1
100
AcDbLine
 10
842.2672637701799
 20
2288.588409321162
 30
0.0
 11
2892.267263770179
 21
2288.588409321164
 31
0.0
  0
LINE
  5
7C35
330
8277
100
AcDbEntity
  8
1
100
AcDbLine
 10
2892.267263770179
 20
2288.588409321164
 30
0.0
 11
2892.267263770179
 21
2188.588409321164
 31
0.0
  0
LINE
  5
7C36
330
8277
100
AcDbEntity
  8
2
100
AcDbLine
 10
3675.792027154095
 20
2938.588409321163
 30
0.0
 11
5566.868658703398
 21
2938.588409321163
 31
0.0
  0
LINE
  5
7C37
330
8277
100
AcDbEntity
  8
2
100
AcDbLine
 10
4760.792027154097
 20
4243.637280669833
 30
0.0
 11
4760.792027154097
 21
2188.588409321163
 31
0.0
  0
LINE
  5
7C38
330
8277
100
AcDbEntity
  8
1
100
AcDbLine
 10
3933.792027154096
 20
2188.588409321163
 30
0.0
 11
5438.792027154097
 21
2188.588409321163
 31
0.0
1001
ACAD
1000
ASC_BOUNDS
1002
{
1070
    19
1005
0
1005
0
1002
}
  0
LINE
  5
7C39
330
8277
100
AcDbEntity
  8
1
100
AcDbLine
 10
3933.792027154098
 20
2288.588409321163
 30
0.0
 11
5438.792027154097
 21
2288.588409321163
 31
0.0
  0
LINE
  5
7C3A
330
8277
100
AcDbEntity
  8
1
100
AcDbLine
 10
5385.792027154098
 20
4012.588409321162
 30
0.0
 11
5385.792027154098
 21
2938.588409321163
 31
0.0
  0
LINE
  5
7C3B
330
8277
100
AcDbEntity
  8
2
100
AcDbLine
 10
2267.267263770178
 20
4103.504301661604
 30
0.0
 11
2267.267263770178
 21
2188.588409321164
 31
0.0
  0
LINE
  5
7C3C
330
8277
100
AcDbEntity
  8
2
100
AcDbLine
 10
3006.883246267807
 20
2938.588409321162
 30
0.0
 11
1334.752347713971
 21
2938.588409321163
 31
0.0
  0
LINE
  5
7C3D
330
8277
100
AcDbEntity
  8
1
100
AcDbLine
 10
842.2672637701799
 20
2188.588409321164
 30
0.0
 11
2892.267263770179
 21
2188.588409321164
 31
0.0
1001
ACAD
1000
ASC_BOUNDS
1002
{
1070
    19
1005
0
1002
}
  0
INSERT
  5
7C3E
330
8277
100
AcDbEntity
  8
0
100
AcDbBlockReference
  2
YA_N
 10
-1637.209838160516
 20
-1405.432827243363
 30
0.0
 41
25.0
 42
25.0
 43
25.0
  0
ARC
  5
7C40
330
8277
100
AcDbEntity
  8
1
100
AcDbCircle
 10
1117.267263770179
 20
2523.588409321163
 30
0.0
 40
185.0
100
AcDbArc
 50
287.9452509999999
 51
252.054749
  0
LINE
  5
7C41
330
8277
100
AcDbEntity
  8
2
100
AcDbLine
 10
1117.267263770179
 20
2787.404083321163
 30
0.0
 11
1117.267263770179
 21
2188.588409321164
 31
0.0
  0
LINE
  5
7C42
330
8277
100
AcDbEntity
  8
1
100
AcDbLine
 10
1174.267278770179
 20
2347.588409321163
 30
0.0
 11
1060.267263770178
 21
2347.588409321163
 31
0.0
  0
LINE
  5
7C43
330
8277
100
AcDbEntity
  8
1
100
AcDbLine
 10
1279.267278770179
 20
2418.847442321163
 30
0.0
 11
1279.267278770179
 21
2343.588409321163
 31
0.0
  0
LINE
  5
7C47
330
8277
100
AcDbEntity
  8
1
100
AcDbLine
 10
1219.767278770179
 20
2348.736968321163
 30
0.0
 11
1210.260564770179
 21
2363.659576321163
 31
0.0
  0
LINE
  5
7C48
330
8277
100
AcDbEntity
  8
1
100
AcDbLine
 10
1219.767278770179
 20
2360.588409321163
 30
0.0
 11
1219.767278770179
 21
2343.588409321163
 31
0.0
  0
LINE
  5
7C4A
330
8277
100
AcDbEntity
  8
1
100
AcDbLine
 10
1276.267278770179
 20
2363.588409321163
 30
0.0
 11
1222.767278770179
 21
2363.588409321163
 31
0.0
  0
ARC
  5
7C4C
330
8277
100
AcDbEntity
  8
1
100
AcDbCircle
 10
1276.267278770179
 20
2360.588409321163
 30
0.0
 40
3.0
100
AcDbArc
 50
0.0
 51
90.0
  0
LINE
  5
7C4E
330
8277
100
AcDbEntity
  8
1
100
AcDbLine
 10
1228.091192770179
 20
2363.588409321163
 30
0.0
 11
1222.911443770178
 21
2371.719009321163
 31
0.0
  0
ARC
  5
7C4F
330
8277
100
AcDbEntity
  8
1
100
AcDbCircle
 10
1222.767278770179
 20
2360.588409321163
 30
0.0
 40
3.0
100
AcDbArc
 50
90.0
 51
180.0
  0
LINE
  5
7C52
330
8277
100
AcDbEntity
  8
1
100
AcDbLine
 10
1279.267278770179
 20
2418.847442321163
 30
0.0
 11
1272.883306770179
 21
2423.545196321163
 31
0.0
  0
LINE
  5
7C55
330
8277
100
AcDbEntity
  8
1
100
AcDbLine
 10
955.2672637701787
 20
2418.847442321163
 30
0.0
 11
955.2672637701787
 21
2343.588409321163
 31
0.0
  0
LINE
  5
7C56
330
8277
100
AcDbEntity
  8
1
100
AcDbLine
 10
958.2672637701788
 20
2363.588409321163
 30
0.0
 11
1011.767263770178
 21
2363.588409321163
 31
0.0
  0
LINE
  5
7C57
330
8277
100
AcDbEntity
  8
1
100
AcDbLine
 10
1014.767263770179
 20
2348.736968321163
 30
0.0
 11
1024.273977770179
 21
2363.659576321163
 31
0.0
  0
LINE
  5
7C5A
330
8277
100
AcDbEntity
  8
1
100
AcDbLine
 10
1014.767263770179
 20
2343.588409321163
 30
0.0
 11
1014.767263770179
 21
2360.588409321163
 31
0.0
  0
LINE
  5
7C5D
330
8277
100
AcDbEntity
  8
1
100
AcDbLine
 10
1006.443349770179
 20
2363.588409321163
 30
0.0
 11
1011.623098770179
 21
2371.719009321163
 31
0.0
  0
ARC
  5
7C5E
330
8277
100
AcDbEntity
  8
1
100
AcDbCircle
 10
1011.767263770178
 20
2360.588409321163
 30
0.0
 40
3.0
100
AcDbArc
 50
0.0
 51
90.0
  0
ARC
  5
7C61
330
8277
100
AcDbEntity
  8
1
100
AcDbCircle
 10
958.2672637701788
 20
2360.588409321163
 30
0.0
 40
3.0
100
AcDbArc
 50
90.0
 51
180.0
  0
LINE
  5
7C62
330
8277
100
AcDbEntity
  8
1
100
AcDbLine
 10
955.2672637701787
 20
2418.847442321163
 30
0.0
 11
961.6512357701795
 21
2423.545196321163
 31
0.0
  0
LINE
  5
7C63
330
8277
100
AcDbEntity
  8
2
100
AcDbLine
 10
866.8408496446353
 20
2523.588409321163
 30
0.0
 11
1333.346796416135
 21
2523.588409321163
 31
0.0
  0
LINE
  5
7C64
330
8277
100
AcDbEntity
  8
1
100
AcDbLine
 10
906.8512507444138
 20
2343.588409321162
 30
0.0
 11
1047.267263770178
 21
2343.588409321162
 31
0.0
  0
LINE
  5
7C65
330
8277
100
AcDbEntity
  8
1
100
AcDbLine
 10
1342.267263770178
 20
2288.588409321162
 30
0.0
 11
1327.482514983845
 21
2343.588409321162
 31
0.0
  0
LINE
  5
7C66
330
8277
100
AcDbEntity
  8
1
100
AcDbLine
 10
892.267263770179
 20
2288.588409321162
 30
0.0
 11
906.8512507444138
 21
2343.588409321162
 31
0.0
  0
LINE
  5
7C68
330
8277
100
AcDbEntity
  8
1
100
AcDbLine
 10
1047.267263770178
 20
2333.588409321162
 30
0.0
 11
1187.267263770179
 21
2333.588409321162
 31
0.0
  0
LINE
  5
7C69
330
8277
100
AcDbEntity
  8
1
100
AcDbLine
 10
1047.267263770178
 20
2343.588409321162
 30
0.0
 11
1047.267263770178
 21
2333.588409321162
 31
0.0
  0
LINE
  5
7C6A
330
8277
100
AcDbEntity
  8
1
100
AcDbLine
 10
1187.26726377018
 20
2343.588409321162
 30
0.0
 11
1187.26726377018
 21
2333.588409321162
 31
0.0
  0
LINE
  5
7C6B
330
8277
100
AcDbEntity
  8
1
100
AcDbLine
 10
1187.267263770179
 20
2343.588409321162
 30
0.0
 11
1327.482514983845
 21
2343.588409321162
 31
0.0
  0
CIRCLE
  5
7C6E
330
8277
100
AcDbEntity
  8
1
100
AcDbCircle
 10
2267.267263770178
 20
2938.588409321162
 30
0.0
 40
165.0999999999999
  0
CIRCLE
  5
7C6F
330
8277
100
AcDbEntity
  8
1
100
AcDbCircle
 10
1117.267263770179
 20
2523.588409321163
 30
0.0
 40
114.3
  0
LINE
  5
7C78
330
8277
100
AcDbEntity
  8
1
100
AcDbLine
 10
4760.792027154097
 20
4012.588409321162
 30
0.0
 11
5385.792027154098
 21
4012.588409321162
 31
0.0
  0
INSERT
  5
7C79
330
8277
100
AcDbEntity
  8
0
100
AcDbBlockReference
  2
YA_N
 10
-1144.893563079054
 20
-989.0222135336152
 30
0.0
 41
25.0
 42
25.0
 43
25.0
  0
DIMENSION
  5
7C7B
330
8277
100
AcDbEntity
  8
3
100
AcDbDimension
  2
*D4
 10
3148.427360764323
 20
2982.588409321163
 30
0.0
 11
3088.427360764323
 21
3497.588409321162
 31
0.0
 12
779.6421487933403
 22
2310.528106485417
 32
0.0
 71
     5
 42
-1.0
  3
Standard
100
AcDbAlignedDimension
 13
2947.26726377018
 23
4012.588409321161
 33
0.0
 14
2947.26726377018
 24
2982.588409321163
 34
0.0
 50
270.0
100
AcDbRotatedDimension
1001
ACAD
1000
DSTYLE
1002
{
1070
    40
1040
30.0
1002
}
  0
DIMENSION
  5
7C7C
330
8277
100
AcDbEntity
  8
3
100
AcDbDimension
  2
*D5
 10
3349.229406223476
 20
2938.588409321162
 30
0.0
 11
3289.229406223476
 21
3475.588409321162
 31
0.0
 12
779.6421487933403
 22
2310.528106485417
 32
0.0
 71
     5
 42
-1.0
  3
Standard
100
AcDbAlignedDimension
 13
2947.26726377018
 23
4012.588409321161
 33
0.0
 14
3006.883246267807
 24
2938.588409321162
 34
0.0
 50
270.0
100
AcDbRotatedDimension
1001
ACAD
1000
DSTYLE
1002
{
1070
    40
1040
30.0
1002
}
  0
DIMENSION
  5
7C80
330
8277
100
AcDbEntity
  8
3
100
AcDbDimension
  2
*D7
 10
2267.267263770178
 20
4266.363082664137
 30
0.0
 11
2607.267263770179
 21
4326.363082664137
 31
0.0
 12
779.6421487933403
 22
2310.528106485417
 32
0.0
 71
     5
 42
-1.0
  3
Standard
100
AcDbAlignedDimension
 13
2947.26726377018
 23
4065.588409321161
 33
0.0
 14
2267.267263770178
 24
4103.504301661604
 34
0.0
100
AcDbRotatedDimension
1001
ACAD
1000
DSTYLE
1002
{
1070
    40
1040
30.0
1002
}
  0
DIMENSION
  5
7C81
330
8277
100
AcDbEntity
  8
3
100
AcDbDimension
  2
*D8
 10
1402.72314735415
 20
4265.905382729221
 30
0.0
 11
1834.995205562164
 21
4325.905382729223
 31
0.0
 12
779.6421487933403
 22
2310.528106485417
 32
0.0
  1
868
 71
     5
 42
-1.0
  3
Standard
100
AcDbAlignedDimension
 13
2267.267263770178
 23
4103.504301661604
 33
0.0
 14
1402.72314735415
 24
2938.588409321161
 34
0.0
100
AcDbRotatedDimension
1001
ACAD
1000
DSTYLE
1002
{
1070
    40
1040
30.0
1002
}
  0
LINE
  5
7C82
330
8277
100
AcDbEntity
  8
1
100
AcDbLine
 10
5385.792027154098
 20
2938.588409321163
 30
0.0
 11
5385.792027154098
 21
2288.588409321163
 31
0.0
  0
LINE
  5
7C83
330
8277
100
AcDbEntity
  8
1
100
AcDbLine
 10
4135.792027154096
 20
4012.588409321163
 30
0.0
 11
4135.792027154096
 21
2938.588409321163
 31
0.0
  0
LINE
  5
7C84
330
8277
100
AcDbEntity
  8
1
100
AcDbLine
 10
4760.792027154097
 20
4012.588409321162
 30
0.0
 11
4135.792027154097
 21
4012.588409321162
 31
0.0
  0
LINE
  5
7C85
330
8277
100
AcDbEntity
  8
1
100
AcDbLine
 10
4135.792027154096
 20
2938.588409321163
 30
0.0
 11
4135.792027154096
 21
2288.588409321163
 31
0.0
  0
LINE
  5
7C86
330
8277
100
AcDbEntity
  8
1
100
AcDbLine
 10
5540.792027154095
 20
2902.788409321163
 30
0.0
 11
5540.792027154095
 21
2772.788409321163
 31
0.0
  0
LINE
  5
7C87
330
8277
100
AcDbEntity
  8
1
100
AcDbLine
 10
5403.792027154098
 20
2912.788409321163
 30
0.0
 11
5403.792027154096
 21
2762.788409321163
 31
0.0
  0
LINE
  5
7C88
330
8277
100
AcDbEntity
  8
1
100
AcDbLine
 10
5403.792027154096
 20
2912.788409321163
 30
0.0
 11
5453.092027154097
 21
2912.788409321163
 31
0.0
  0
LINE
  5
7C89
330
8277
100
AcDbEntity
  8
1
100
AcDbLine
 10
5403.792027154096
 20
2762.788409321163
 30
0.0
 11
5453.092027154097
 21
2762.788409321163
 31
0.0
  0
ARC
  5
7C8A
330
8277
100
AcDbEntity
  8
1
100
AcDbCircle
 10
5530.792027154098
 20
2902.788409321163
 30
0.0
 40
10.0
100
AcDbArc
 50
0.0000000000006514
 51
90.0
  0
ARC
  5
7C8B
330
8277
100
AcDbEntity
  8
1
100
AcDbCircle
 10
5530.792027154098
 20
2772.788409321163
 30
0.0
 40
10.0
100
AcDbArc
 50
270.0
 51
0.0000000000006514
  0
LINE
  5
7C8C
330
8277
100
AcDbEntity
  8
1
100
AcDbLine
 10
5453.092027154096
 20
2912.788409321163
 30
0.0
 11
5530.792027154095
 21
2912.788409321163
 31
0.0
  0
LINE
  5
7C8D
330
8277
100
AcDbEntity
  8
1
100
AcDbLine
 10
5453.092027154097
 20
2762.788409321163
 30
0.0
 11
5530.792027154098
 21
2762.788409321163
 31
0.0
  0
LINE
  5
7C8E
330
8277
100
AcDbEntity
  8
1
100
AcDbLine
 10
3837.792027154097
 20
3103.688409321163
 30
0.0
 11
3947.792027154097
 21
3103.688409321163
 31
0.0
  0
LINE
  5
7C8F
330
8277
100
AcDbEntity
  8
1
100
AcDbLine
 10
3837.792027154097
 20
2773.488409321163
 30
0.0
 11
3947.792027154097
 21
2773.488409321163
 31
0.0
  0
LINE
  5
7C90
330
8277
100
AcDbEntity
  8
1
100
AcDbLine
 10
3837.792027154097
 20
2637.888409321163
 30
0.0
 11
3947.792027154097
 21
2637.888409321163
 31
0.0
  0
LINE
  5
7C91
330
8277
100
AcDbEntity
  8
1
100
AcDbLine
 10
3837.792027154097
 20
2409.288409321163
 30
0.0
 11
3947.792027154097
 21
2409.288409321163
 31
0.0
  0
LINE
  5
7C92
330
8277
100
AcDbEntity
  8
1
100
AcDbLine
 10
3837.792027154097
 20
3103.688409321163
 30
0.0
 11
3837.792027154097
 21
2409.288409321163
 31
0.0
  0
LINE
  5
7C93
330
8277
100
AcDbEntity
  8
1
100
AcDbLine
 10
3947.792027154097
 20
3103.688409321163
 30
0.0
 11
3947.792027154097
 21
2409.288409321163
 31
0.0
  0
LINE
  5
7C94
330
8277
100
AcDbEntity
  8
1
100
AcDbLine
 10
3700.792027154091
 20
3218.588409321163
 30
0.0
 11
3700.792027154101
 21
2303.588409321163
 31
0.0
  0
LINE
  5
7C95
330
8277
100
AcDbEntity
  8
1
100
AcDbLine
 10
3700.792027154091
 20
3218.588409321163
 30
0.0
 11
3993.292027154092
 21
3218.588409321163
 31
0.0
  0
LINE
  5
7C96
330
8277
100
AcDbEntity
  8
1
100
AcDbLine
 10
3700.7920271541
 20
2303.588409321163
 30
0.0
 11
3993.292027154101
 21
2303.588409321163
 31
0.0
  0
LINE
  5
7C97
330
8277
100
AcDbEntity
  8
1
100
AcDbLine
 10
3993.292027154092
 20
3218.588409321166
 30
0.0
 11
3993.292027154092
 21
3198.588409321163
 31
0.0
  0
LINE
  5
7C98
330
8277
100
AcDbEntity
  8
1
100
AcDbLine
 10
3993.292027154101
 20
2323.588409321163
 30
0.0
 11
3993.292027154101
 21
2303.588409321166
 31
0.0
  0
POINT
  5
7C99
330
8277
100
AcDbEntity
  8
1
100
AcDbPoint
 10
5540.7920271541
 20
2902.788409321163
 30
0.0
  0
LINE
  5
7C9A
330
8277
100
AcDbEntity
  8
2
100
AcDbLine
 10
2267.267263770179
 20
6444.156855695948
 30
0.0
 11
2267.267263770179
 21
4756.169048125389
 31
0.0
  0
LINE
  5
7C9B
330
8277
100
AcDbEntity
  8
2
100
AcDbLine
 10
1781.6126981179
 20
5850.241293846765
 30
0.0
 11
2746.192454152766
 21
5850.241293846764
 31
0.0
  0
INSERT
  5
7C9C
330
8277
100
AcDbEntity
  8
0
100
AcDbBlockReference
  2
YA_N
 10
3439.312525519781
 20
-2261.498311600258
 30
0.0
  0
LINE
  5
7C9F
330
8277
100
AcDbEntity
  8
1
100
AcDbLine
 10
5438.792027154097
 20
2288.588409321163
 30
0.0
 11
5438.792027154097
 21
2188.588409321163
 31
0.0
  0
LINE
  5
7CA0
330
8277
100
AcDbEntity
  8
1
100
AcDbLine
 10
3933.792027154096
 20
2288.588409321163
 30
0.0
 11
3933.792027154096
 21
2188.588409321163
 31
0.0
  0
LINE
  5
7CA1
330
8277
100
AcDbEntity
  8
1
100
AcDbLine
 10
4068.492027154097
 20
2906.388409321163
 30
0.0
 11
4002.792027154097
 21
2906.388409321163
 31
0.0
  0
LINE
  5
7CA2
330
8277
100
AcDbEntity
  8
1
100
AcDbLine
 10
4068.492027154095
 20
2756.388409321163
 30
0.0
 11
4002.792027154095
 21
2756.388409321163
 31
0.0
  0
LINE
  5
7CA3
330
8277
100
AcDbEntity
  8
1
100
AcDbLine
 10
4117.792027154096
 20
2906.388409321163
 30
0.0
 11
4117.792027154097
 21
2756.388409321163
 31
0.0
  0
LINE
  5
7CA4
330
8277
100
AcDbEntity
  8
1
100
AcDbLine
 10
4117.792027154097
 20
2756.388409321163
 30
0.0
 11
4068.492027154095
 21
2756.388409321163
 31
0.0
  0
LINE
  5
7CA5
330
8277
100
AcDbEntity
  8
1
100
AcDbLine
 10
4117.792027154097
 20
2906.388409321163
 30
0.0
 11
4068.492027154095
 21
2906.388409321163
 31
0.0
  0
LINE
  5
7CA6
330
8277
100
AcDbEntity
  8
1
100
AcDbLine
 10
3992.792027154098
 20
2896.388409321163
 30
0.0
 11
3992.792027154098
 21
2766.388409321163
 31
0.0
  0
ARC
  5
7CA7
330
8277
100
AcDbEntity
  8
1
100
AcDbCircle
 10
4002.792027154095
 20
2766.388409321163
 30
0.0
 40
10.0
100
AcDbArc
 50
179.9999999999992
 51
270.0
  0
ARC
  5
7CA8
330
8277
100
AcDbEntity
  8
1
100
AcDbCircle
 10
4002.792027154094
 20
2896.388409321163
 30
0.0
 40
10.0
100
AcDbArc
 50
90.0
 51
179.9999999999992
  0
POINT
  5
7CA9
330
8277
100
AcDbEntity
  8
1
100
AcDbPoint
 10
3992.792027154094
 20
2896.388409321163
 30
0.0
  0
LINE
  5
7CAA
330
8277
100
AcDbEntity
  8
1
100
AcDbLine
 10
3957.792027154098
 20
2971.088409321162
 30
0.0
 11
4135.792027154096
 21
2971.088409321163
 31
0.0
  0
LINE
  5
7CAB
330
8277
100
AcDbEntity
  8
1
100
AcDbLine
 10
3957.792027154098
 20
2906.088409321163
 30
0.0
 11
4000.360977997865
 21
2906.088409321163
 31
0.0
  0
LINE
  5
7CAC
330
8277
100
AcDbEntity
  8
1
100
AcDbLine
 10
3957.792027154098
 20
2971.088409321162
 30
0.0
 11
3957.792027154098
 21
2906.088409321163
 31
0.0
  0
LINE
  5
7CAD
330
8277
100
AcDbEntity
  8
1
100
AcDbLine
 10
3947.792027154097
 20
2968.588409321163
 30
0.0
 11
3957.792027154098
 21
2968.588409321163
 31
0.0
  0
LINE
  5
7CAE
330
8277
100
AcDbEntity
  8
1
100
AcDbLine
 10
3947.792027154097
 20
2908.588409321163
 30
0.0
 11
3957.792027154098
 21
2908.588409321163
 31
0.0
  0
LINE
  5
7CB2
330
8277
100
AcDbEntity
  8
1
100
AcDbLine
 10
842.2672637701799
 20
2288.588409321164
 30
0.0
 11
842.2672637701799
 21
2188.588409321164
 31
0.0
  0
POINT
  5
7CB5
330
8277
100
AcDbEntity
  8
1
100
AcDbPoint
 10
2892.267263770179
 20
2188.588409321164
 30
0.0
  0
LINE
  5
7CBC
330
8277
100
AcDbEntity
  8
1
100
AcDbLine
 10
842.2672637701799
 20
5023.241293846766
 30
0.0
 11
2892.267263770179
 21
5023.241293846764
 31
0.0
  0
LINE
  5
7CBD
330
8277
100
AcDbEntity
  8
1
100
AcDbLine
 10
1642.267263770179
 20
6528.241293846765
 30
0.0
 11
2892.267263770179
 21
6528.241293846765
 31
0.0
  0
LINE
  5
7CBE
330
8277
100
AcDbEntity
  8
1
100
AcDbLine
 10
2892.267263770179
 20
6528.241293846765
 30
0.0
 11
2892.267263770179
 21
5023.241293846764
 31
0.0
  0
LINE
  5
7CBF
330
8277
100
AcDbEntity
  8
1
100
AcDbLine
 10
842.2672637701799
 20
5873.241293846768
 30
0.0
 11
842.2672637701799
 21
5023.241293846766
 31
0.0
  0
LINE
  5
7CC0
330
8277
100
AcDbEntity
  8
1
100
AcDbLine
 10
1642.267263770179
 20
6528.241293846765
 30
0.0
 11
1642.267263770179
 21
6475.241293846766
 31
0.0
  0
LINE
  5
7CC1
330
8277
100
AcDbEntity
  8
1
100
AcDbLine
 10
842.2672637701799
 20
5873.241293846766
 30
0.0
 11
1399.267263770179
 21
5873.241293846766
 31
0.0
  0
LINE
  5
7CC2
330
8277
100
AcDbEntity
  8
2
100
AcDbLine
 10
1117.267263770179
 20
5767.276657535138
 30
0.0
 11
1117.267263770179
 21
4758.543412756458
 31
0.0
  0
DIMENSION
  5
7CC3
330
8277
100
AcDbEntity
  8
3
100
AcDbDimension
  2
*D9
 10
2892.267263770179
 20
6749.545231074484
 30
0.0
 11
2267.267263770179
 21
6749.545231074484
 31
0.0
 12
779.6421487933403
 22
2152.209694485525
 32
0.0
 70
   128
 71
     5
 42
-1.0
  3
Standard
100
AcDbAlignedDimension
 13
1642.267263770179
 23
6528.241293846765
 33
0.0
 14
2892.267263770179
 24
6528.241293846765
 34
0.0
100
AcDbRotatedDimension
1001
ACAD
1000
DSTYLE
1002
{
1070
    40
1040
30.0
1002
}
  0
DIMENSION
  5
7CC5
330
8277
100
AcDbEntity
  8
3
100
AcDbDimension
  2
*D11
 10
620.2191962695687
 20
5023.241293846766
 30
0.0
 11
620.2191962695687
 21
5448.241293846766
 31
0.0
 12
779.6421487933403
 22
2152.209694485525
 32
0.0
 70
   128
 71
     5
 42
-1.0
  3
Standard
100
AcDbAlignedDimension
 13
842.2672637701799
 23
5873.241293846768
 33
0.0
 14
842.2672637701799
 24
5023.241293846766
 34
0.0
 50
90.0
100
AcDbRotatedDimension
1001
ACAD
1000
DSTYLE
1002
{
1070
    40
1040
30.0
1002
}
  0
DIMENSION
  5
7CC6
330
8277
100
AcDbEntity
  8
3
100
AcDbDimension
  2
*D12
 10
3290.911401779114
 20
5023.241293846764
 30
0.0
 11
3230.911401779114
 21
5775.741293846764
 31
0.0
 12
779.6421487933403
 22
2152.209694485525
 32
0.0
 71
     5
 42
-1.0
  3
Standard
100
AcDbAlignedDimension
 13
2892.267263770179
 23
6528.241293846765
 33
0.0
 14
2892.267263770179
 24
5023.241293846764
 34
0.0
 50
90.0
100
AcDbRotatedDimension
1001
ACAD
1000
DSTYLE
1002
{
1070
    40
1040
30.0
1002
}
  0
DIMENSION
  5
7CCA
330
8277
100
AcDbEntity
  8
3
100
AcDbDimension
  2
*D16
 10
5385.792027154098
 20
4266.583160743091
 30
0.0
 11
4760.792027154097
 21
4326.583160743092
 31
0.0
 12
-123.312593919396
 22
2310.528106485417
 32
0.0
 71
     5
 42
-1.0
  3
Standard
100
AcDbAlignedDimension
 13
4135.792027154096
 23
3986.9027269748
 33
0.0
 14
5385.792027154098
 24
3983.624174779342
 34
0.0
100
AcDbRotatedDimension
1001
ACAD
1000
DSTYLE
1002
{
1070
    40
1040
30.0
1002
}
  0
DIMENSION
  5
7CCB
330
8277
100
AcDbEntity
  8
3
100
AcDbDimension
  2
*D17
 10
5730.160247525407
 20
3468.588409321163
 30
0.0
 11
5670.160247525408
 21
2938.588409321163
 31
0.0
 12
-123.312593919396
 22
2310.528106485417
 32
0.0
  1
\U+03C6<>
 71
     5
 42
-1.0
  3
Standard
100
AcDbAlignedDimension
 13
5391.292027154097
 23
2408.588409321164
 33
0.0
 14
5391.292027154097
 24
3468.588409321163
 34
0.0
 50
90.0
100
AcDbRotatedDimension
1001
ACAD
1000
DSTYLE
1002
{
1070
    40
1040
30.0
1002
}
  0
LINE
  5
7CCC
330
8277
100
AcDbEntity
  8
2
100
AcDbLine
 10
3671.268115984322
 20
2523.588409321163
 30
0.0
 11
4276.162505125602
 21
2523.588409321163
 31
0.0
  0
ARC
  5
7CCD
330
8277
100
AcDbEntity
  8
1
100
AcDbCircle
 10
2267.267263770178
 20
2938.588409321162
 30
0.0
 40
280.0
100
AcDbArc
 50
287.0299834154885
 51
112.6559573314276
  0
ARC
  5
7CCE
330
8277
100
AcDbEntity
  8
1
100
AcDbCircle
 10
1117.267263770179
 20
2523.588409321163
 30
0.0
 40
220.0
100
AcDbArc
 50
112.6559573314276
 51
287.0299834154885
  0
LINE
  5
7CCF
330
8277
100
AcDbEntity
  8
1
100
AcDbLine
 10
2159.412164539489
 20
3196.982057791744
 30
0.0
 11
1032.523971517495
 21
2726.611990262334
 31
0.0
  0
LINE
  5
7CD0
330
8277
100
AcDbEntity
  8
1
100
AcDbLine
 10
2349.271453970776
 20
2670.865954548419
 30
0.0
 11
1181.69912749922
 21
2313.235051999722
 31
0.0
  0
LINE
  5
7CD1
330
8277
100
AcDbEntity
  8
1
100
AcDbLine
 10
2204.820760514075
 20
3091.423105091087
 30
0.0
 11
1074.035069208261
 21
2629.397044854188
 31
0.0
  0
LINE
  5
7CD2
330
8277
100
AcDbEntity
  8
1
100
AcDbLine
 10
2316.808193091276
 20
2781.096484696432
 30
0.0
 11
1151.564830223247
 21
2414.55553842712
 31
0.0
  0
INSERT
  5
7CD3
330
8277
100
AcDbEntity
  8
0
100
AcDbBlockReference
  2
YA_N
 10
742.6405419924267
 20
-7350.772430041375
 30
0.0
  0
INSERT
  5
7CD5
330
8277
100
AcDbEntity
  8
0
100
AcDbBlockReference
  2
YA_N
 10
2.995684825677016
 20
-7626.802696743742
 30
0.0
 41
20.0
 42
20.0
 43
20.0
  0
INSERT
  5
7CD7
330
8277
100
AcDbEntity
  8
0
100
AcDbBlockReference
  2
YA_N
 10
699.9059132844049
 20
-7054.118742438055
 30
0.0
 41
20.0
 42
20.0
 43
20.0
  0
INSERT
  5
7CD9
330
8277
100
AcDbEntity
  8
0
100
AcDbBlockReference
  2
YA_N
 10
814.1254386385663
 20
-7130.460452277301
 30
0.0
 41
20.0
 42
20.0
 43
20.0
  0
ARC
  5
7CDB
330
8277
100
AcDbEntity
  8
1
100
AcDbCircle
 10
2267.267263770178
 20
2938.588409321162
 30
0.0
 40
599.0
100
AcDbArc
 50
359.9999999999998
 51
4.212499077914481
  0
CIRCLE
  5
7CDC
330
8277
100
AcDbEntity
  8
1
100
AcDbCircle
 10
2267.267263770178
 20
2938.588409321162
 30
0.0
 40
530.0
  0
CIRCLE
  5
7CDD
330
8277
100
AcDbEntity
  8
1
100
AcDbCircle
 10
2267.267263770178
 20
2938.588409321162
 30
0.0
 40
580.0
  0
LINE
  5
7CE3
330
8277
100
AcDbEntity
  8
1
100
AcDbLine
 10
897.2672637701789
 20
4790.241293846766
 30
0.0
 11
2547.267263770178
 21
4790.241293846764
 31
0.0
  0
LINE
  5
7CE4
330
8277
100
AcDbEntity
  8
1
100
AcDbLine
 10
897.2672637701789
 20
5110.241293846765
 30
0.0
 11
2547.267263770178
 21
5110.241293846764
 31
0.0
  0
LINE
  5
7CE5
330
8277
100
AcDbEntity
  8
1
100
AcDbLine
 10
2547.267263770178
 20
4790.241293846764
 30
0.0
 11
2547.267263770178
 21
5110.241293846764
 31
0.0
  0
LINE
  5
7CE6
330
8277
100
AcDbEntity
  8
1
100
AcDbLine
 10
897.2672637701789
 20
4790.241293846766
 30
0.0
 11
897.2672637701789
 21
5110.241293846765
 31
0.0
  0
LINE
  5
7CE7
330
8277
100
AcDbEntity
  8
1
100
AcDbLine
 10
1002.967263770178
 20
4955.241293846766
 30
0.0
 11
1002.967263770178
 21
5065.241293846766
 31
0.0
  0
LINE
  5
7CE8
330
8277
100
AcDbEntity
  8
1
100
AcDbLine
 10
1231.567263770179
 20
4955.241293846764
 30
0.0
 11
1231.567263770179
 21
5065.241293846765
 31
0.0
  0
LINE
  5
7CE9
330
8277
100
AcDbEntity
  8
1
100
AcDbLine
 10
2432.367263770178
 20
4955.241293846764
 30
0.0
 11
2432.367263770178
 21
5065.241293846764
 31
0.0
  0
LINE
  5
7CEA
330
8277
100
AcDbEntity
  8
1
100
AcDbLine
 10
2102.167263770177
 20
4955.241293846764
 30
0.0
 11
2102.167263770177
 21
5065.241293846764
 31
0.0
  0
LINE
  5
7CEB
330
8277
100
AcDbEntity
  8
1
100
AcDbLine
 10
1002.967263770178
 20
5065.241293846766
 30
0.0
 11
1231.567263770179
 21
5065.241293846766
 31
0.0
  0
LINE
  5
7CEC
330
8277
100
AcDbEntity
  8
1
100
AcDbLine
 10
1002.967263770178
 20
4955.241293846766
 30
0.0
 11
1231.567263770179
 21
4955.241293846766
 31
0.0
  0
LINE
  5
7CED
330
8277
100
AcDbEntity
  8
1
100
AcDbLine
 10
2102.167263770177
 20
4955.241293846764
 30
0.0
 11
2432.367263770178
 21
4955.241293846764
 31
0.0
  0
LINE
  5
7CEE
330
8277
100
AcDbEntity
  8
1
100
AcDbLine
 10
2102.167263770177
 20
5065.241293846764
 30
0.0
 11
2432.367263770178
 21
5065.241293846764
 31
0.0
  0
LINE
  5
7CEF
330
8277
100
AcDbEntity
  8
1
100
AcDbLine
 10
1299.767263770179
 20
5631.741293846768
 30
0.0
 11
1299.767263770179
 21
5070.241293846766
 31
0.0
  0
LINE
  5
7CF0
330
8277
100
AcDbEntity
  8
1
100
AcDbLine
 10
934.7672637701789
 20
5631.741293846768
 30
0.0
 11
934.7672637701789
 21
5070.241293846766
 31
0.0
  0
LINE
  5
7CF1
330
8277
100
AcDbEntity
  8
1
100
AcDbLine
 10
934.7672637701789
 20
5631.741293846766
 30
0.0
 11
1299.767263770179
 21
5631.741293846766
 31
0.0
  0
LINE
  5
7CF2
330
8277
100
AcDbEntity
  8
1
100
AcDbLine
 10
934.7672637701789
 20
5070.241293846766
 30
0.0
 11
1299.767263770179
 21
5070.241293846766
 31
0.0
  0
LINE
  5
7CF3
330
8277
100
AcDbEntity
  8
1
100
AcDbLine
 10
1141.267263770178
 20
5070.241293846766
 30
0.0
 11
1141.267263770178
 21
5065.241293846766
 31
0.0
  0
LINE
  5
7CF4
330
8277
100
AcDbEntity
  8
1
100
AcDbLine
 10
1093.267263770179
 20
5070.241293846766
 30
0.0
 11
1093.267263770179
 21
5065.241293846766
 31
0.0
  0
LINE
  5
7CF5
330
8277
100
AcDbEntity
  8
1
100
AcDbLine
 10
4135.792027154096
 20
2706.088409321164
 30
0.0
 11
3952.792027154099
 21
2706.088409321164
 31
0.0
  0
LINE
  5
7CF6
330
8277
100
AcDbEntity
  8
1
100
AcDbLine
 10
4135.792027154096
 20
2341.088409321164
 30
0.0
 11
3952.792027154099
 21
2341.088409321164
 31
0.0
  0
LINE
  5
7CF7
330
8277
100
AcDbEntity
  8
1
100
AcDbLine
 10
3952.792027154098
 20
2706.088409321164
 30
0.0
 11
3952.792027154098
 21
2341.088409321164
 31
0.0
  0
LINE
  5
7CF8
330
8277
100
AcDbEntity
  8
1
100
AcDbLine
 10
3952.792027154099
 20
2547.588409321164
 30
0.0
 11
3947.792027154097
 21
2547.588409321164
 31
0.0
  0
LINE
  5
7CF9
330
8277
100
AcDbEntity
  8
1
100
AcDbLine
 10
3952.792027154099
 20
2499.588409321164
 30
0.0
 11
3947.792027154097
 21
2499.588409321164
 31
0.0
  0
DIMENSION
  5
7CFA
330
8277
100
AcDbEntity
  8
3
100
AcDbDimension
  2
*D18
 10
842.2672637701799
 20
4445.749586040043
 30
0.0
 11
1894.767263770179
 21
4505.749586040042
 31
0.0
 12
779.6421487933403
 22
2310.528106485417
 32
0.0
 71
     5
 42
-1.0
  3
Standard
100
AcDbAlignedDimension
 13
2947.26726377018
 23
4065.588409321161
 33
0.0
 14
842.2672637701799
 24
2288.588409321162
 34
0.0
100
AcDbRotatedDimension
1001
ACAD
1000
DSTYLE
1002
{
1070
    40
1040
30.0
1002
}
  0
LINE
  5
7CFB
330
8277
100
AcDbEntity
  8
1
100
AcDbLine
 10
2947.26726377018
 20
6525.241293846763
 30
0.0
 11
2947.26726377018
 21
5175.241293846764
 31
0.0
  0
LINE
  5
7CFC
330
8277
100
AcDbEntity
  8
1
100
AcDbLine
 10
1399.267263770179
 20
6475.241293846766
 30
0.0
 11
1399.267263770179
 21
5225.241293846764
 31
0.0
  0
LINE
  5
7CFD
330
8277
100
AcDbEntity
  8
1
100
AcDbLine
 10
1399.267263770179
 20
5225.241293846764
 30
0.0
 11
2947.26726377018
 21
5225.241293846764
 31
0.0
  0
LINE
  5
7CFE
330
8277
100
AcDbEntity
  8
1
100
AcDbLine
 10
1399.267263770179
 20
6475.241293846766
 30
0.0
 11
2947.26726377018
 21
6475.241293846763
 31
0.0
  0
LINE
  5
7CFF
330
8277
100
AcDbEntity
  8
1
100
AcDbLine
 10
2943.267263770179
 20
6525.241293846764
 30
0.0
 11
2947.26726377018
 21
6525.241293846763
 31
0.0
  0
LINE
  5
7D00
330
8277
100
AcDbEntity
  8
1
100
AcDbLine
 10
2943.267263770179
 20
5175.241293846764
 30
0.0
 11
2947.26726377018
 21
5175.241293846764
 31
0.0
  0
LINE
  5
7D01
330
8277
100
AcDbEntity
  8
1
100
AcDbLine
 10
2943.267263770179
 20
6525.241293846763
 30
0.0
 11
2943.267263770179
 21
5175.241293846764
 31
0.0
  0
LINE
  5
7D02
330
8277
100
AcDbEntity
  8
1
100
AcDbLine
 10
5385.792027154098
 20
2982.588409321163
 30
0.0
 11
4135.792027154097
 21
2982.588409321163
 31
0.0
  0
LINE
  5
7D03
330
8277
100
AcDbEntity
  8
1
100
AcDbLine
 10
5385.792027154098
 20
4012.588409321162
 30
0.0
 11
4135.792027154096
 21
2982.588409321163
 31
0.0
  0
LINE
  5
7D04
330
8277
100
AcDbEntity
  8
1
100
AcDbLine
 10
4135.792027154096
 20
4012.588409321162
 30
0.0
 11
5385.792027154098
 21
2982.588409321163
 31
0.0
  0
LINE
  5
7D05
330
8277
100
AcDbEntity
  8
1
100
AcDbLine
 10
2299.76726377018
 20
5225.241293846765
 30
0.0
 11
2299.76726377018
 21
5065.241293846765
 31
0.0
  0
LINE
  5
7D06
330
8277
100
AcDbEntity
  8
1
100
AcDbLine
 10
2234.76726377018
 20
5225.241293846765
 30
0.0
 11
2234.76726377018
 21
5065.241293846765
 31
0.0
  0
LINE
  5
7D07
330
8277
100
AcDbEntity
  8
1
100
AcDbLine
 10
4117.792027154096
 20
2906.088409321163
 30
0.0
 11
4135.792027154096
 21
2906.088409321163
 31
0.0
  0
DIMENSION
  5
7D08
330
8277
100
AcDbEntity
  8
3
100
AcDbDimension
  2
*D19
 10
842.2672637701799
 20
6749.545231074484
 30
0.0
 11
1242.267263770179
 21
6809.545231074484
 31
0.0
 12
779.6421487933403
 22
2152.209694485525
 32
0.0
 71
     5
 42
-1.0
  3
Standard
100
AcDbAlignedDimension
 13
1642.267263770179
 23
6528.241293846765
 33
0.0
 14
842.2672637701799
 24
5873.241293846766
 34
0.0
100
AcDbRotatedDimension
1001
ACAD
1000
DSTYLE
1002
{
1070
    40
1040
30.0
1002
}
  0
LINE
  5
7F3F
330
8277
100
AcDbEntity
  8
4
100
AcDbLine
 10
5550.0
 20
1193.063590389734
 30
0.0
 11
5550.0
 21
593.0635903897345
 31
0.0
  0
LINE
  5
7F40
330
8277
100
AcDbEntity
  8
4
100
AcDbLine
 10
3450.0
 20
1193.063590389734
 30
0.0
 11
3450.0
 21
593.0635903897345
 31
0.0
  0
LINE
  5
7F41
330
8277
100
AcDbEntity
  8
4
100
AcDbLine
 10
1950.0
 20
1193.063590389734
 30
0.0
 11
1950.0
 21
593.0635903897345
 31
0.0
  0
LINE
  5
7F44
330
8277
100
AcDbEntity
  8
4
100
AcDbLine
 10
1950.0
 20
593.0635903897345
 30
0.0
 11
5550.0
 21
593.0635903897345
 31
0.0
  0
LINE
  5
7F45
330
8277
100
AcDbEntity
  8
4
100
AcDbLine
 10
1950.0
 20
893.0635903897346
 30
0.0
 11
5550.0
 21
893.0635903897346
 31
0.0
  0
TEXT
  5
7F46
330
8277
100
AcDbEntity
  8
4
100
AcDbText
 10
2065.506242540704
 20
987.692667989573
 30
0.0
 40
150.0
  1
機器名称
100
AcDbText
  0
TEXT
  5
7F47
330
8277
100
AcDbEntity
  8
4
100
AcDbText
 10
2058.774318074392
 20
657.9990605857673
 30
0.0
 40
150.0
  1
機器型番
100
AcDbText
  0
TEXT
  5
7F48
330
8277
100
AcDbEntity
  8
4
100
AcDbText
 10
3533.036236462995
 20
960.7788972624403
 30
0.0
 40
150.0
  1
ミツヤ多翼送風機
100
AcDbText
  0
TEXT
  5
7F49
330
8277
100
AcDbEntity
  8
4
100
AcDbText
 10
3559.963486756442
 20
644.5423432295647
 30
0.0
 40
150.0
  1
MF#6-5
100
AcDbText
  0
TEXT
  5
7F4B
330
8277
100
AcDbEntity
  8
4
100
AcDbText
 10
2397.531064137263
 20
7150.286523997547
 30
0.0
 40
161.9999999999998
  1
床置ベット
100
AcDbText
  0
TEXT
  5
7F4C
330
8277
100
AcDbEntity
  8
4
100
AcDbText
 10
948.5027799883393
 20
7601.642928597894
 30
0.0
 40
216.0
  1
遠心式両吸込両持多翼ファン
100
AcDbText
  0
LINE
  5
7F4D
330
8277
100
AcDbEntity
  8
4
100
AcDbLine
 10
750.0
 20
7408.226262794413
 30
0.0
 11
5550.0
 21
7408.226262794413
 31
0.0
  0
LINE
  5
7F4E
330
8277
100
AcDbEntity
  8
4
100
AcDbLine
 10
750.0
 20
8008.226262794414
 30
0.0
 11
5550.0
 21
8008.226262794414
 31
0.0
  0
LINE
  5
7F4F
330
8277
100
AcDbEntity
  8
4
100
AcDbLine
 10
1950.0
 20
1193.063590389734
 30
0.0
 11
5550.0
 21
1193.063590389734
 31
0.0
  0
LINE
  5
7F50
330
8277
100
AcDbEntity
  8
4
100
AcDbLine
 10
750.0
 20
8008.226262794414
 30
0.0
 11
750.0
 21
7408.226262794413
 31
0.0
  0
TEXT
  5
7F51
330
8277
100
AcDbEntity
  8
4
100
AcDbText
 10
1089.954567409156
 20
7146.958432639029
 30
0.0
 40
161.9999999999998
  1
右回転右横向
100
AcDbText
  0
TEXT
  5
7F52
330
8277
100
AcDbEntity
  8
4
100
AcDbText
 10
4406.908677747869
 20
8118.183244485924
 30
0.0
 40
168.0
  1
No.
100
AcDbText
  0
TEXT
  5
7F53
330
8277
100
AcDbEntity
  8
4
100
AcDbText
 10
3933.888187800039
 20
7150.286523997547
 30
0.0
 40
161.9999999999998
  1
縮尺：1/30
100
AcDbText
  0
LINE
  5
7F54
330
8277
100
AcDbEntity
  8
4
100
AcDbLine
 10
5550.0
 20
8008.226262794414
 30
0.0
 11
5550.0
 21
7408.226262794413
 31
0.0
  0
LINE
  5
7F55
330
8277
100
AcDbEntity
  8
4
100
AcDbLine
 10
6300.0
 20
8850.0
 30
0.0
 11
6300.0
 21
8850.0
 31
0.0
  0
LINE
  5
7F56
330
8277
100
AcDbEntity
  8
4
100
AcDbLine
 10
4321.852267079594
 20
8043.790749376205
 30
0.0
 11
4321.852267079594
 21
8359.956784649257
 31
0.0
  0
LINE
  5
7F57
330
8277
100
AcDbEntity
  8
4
100
AcDbLine
 10
4321.852267079594
 20
8359.956784649257
 30
0.0
 11
5550.0
 21
8359.956784649257
 31
0.0
  0
LINE
  5
7F58
330
8277
100
AcDbEntity
  8
4
100
AcDbLine
 10
5550.0
 20
8359.956784649257
 30
0.0
 11
5550.0
 21
8043.790749376205
 31
0.0
  0
LINE
  5
7F59
330
8277
100
AcDbEntity
  8
4
100
AcDbLine
 10
5550.0
 20
8043.790749376205
 30
0.0
 11
4321.852267079594
 21
8043.790749376205
 31
0.0
  0
LINE
  5
7F5A
330
8277
100
AcDbEntity
  8
4
100
AcDbLine
 10
0.0
 20
0.0
 30
0.0
 11
0.0
 21
8850.0
 31
0.0
  0
LINE
  5
7F5B
330
8277
100
AcDbEntity
  8
4
100
AcDbLine
 10
0.0
 20
8850.0
 30
0.0
 11
6300.0
 21
8850.0
 31
0.0
  0
LINE
  5
7F5C
330
8277
100
AcDbEntity
  8
4
100
AcDbLine
 10
6300.0
 20
8850.0
 30
0.0
 11
6300.0
 21
0.0
 31
0.0
  0
LINE
  5
7F5D
330
8277
100
AcDbEntity
  8
4
100
AcDbLine
 10
6300.0
 20
0.0
 30
0.0
 11
0.0
 21
0.0
 31
0.0
  0
DIMENSION
  5
8169
330
8277
100
AcDbEntity
  8
3
100
AcDbDimension
  2
*D22
 10
2267.267263770178
 20
1994.298153400224
 30
0.0
 11
1554.767263770179
 21
2069.298153400224
 31
0.0
 71
     5
 42
-1.0
  3
Standard
100
AcDbAlignedDimension
 13
842.2672637701799
 23
2188.588409321164
 33
0.0
 14
2267.267263770178
 24
2188.588409321164
 34
0.0
100
AcDbRotatedDimension
1001
ACAD
1000
DSTYLE
1002
{
1070
   172
1070
     1
1070
    40
1040
30.0
1070
    42
1040
1.0
1070
   271
1070
     0
1070
   143
1040
0.039
1002
}
  0
DIMENSION
  5
8176
330
8277
100
AcDbEntity
  8
3
100
AcDbDimension
  2
*D23
 10
2892.267263770179
 20
1994.298153400224
 30
0.0
 11
2579.767263770179
 21
2069.298153400224
 31
0.0
 71
     5
 42
-1.0
  3
Standard
100
AcDbAlignedDimension
 13
2267.267263770178
 23
2188.588409321164
 33
0.0
 14
2892.267263770179
 24
2188.588409321164
 34
0.0
100
AcDbRotatedDimension
1001
ACAD
1000
DSTYLE
1002
{
1070
   172
1070
     1
1070
    40
1040
30.0
1070
    42
1040
1.0
1070
   271
1070
     0
1070
   143
1040
0.039
1002
}
  0
DIMENSION
  5
8183
330
8277
100
AcDbEntity
  8
3
100
AcDbDimension
  2
*D24
 10
4760.792027154097
 20
1994.298153400224
 30
0.0
 11
4347.292027154097
 21
2069.298153400224
 31
0.0
 71
     5
 42
-1.0
  3
Standard
100
AcDbAlignedDimension
 13
3933.792027154096
 23
2188.588409321163
 33
0.0
 14
4760.792027154097
 24
2188.588409321163
 34
0.0
100
AcDbRotatedDimension
1001
ACAD
1000
DSTYLE
1002
{
1070
   172
1070
     1
1070
    40
1040
30.0
1070
    42
1040
1.0
1070
   271
1070
     0
1070
   143
1040
0.039
1002
}
  0
DIMENSION
  5
8190
330
8277
100
AcDbEntity
  8
3
100
AcDbDimension
  2
*D25
 10
5438.792027154097
 20
1994.298153400224
 30
0.0
 11
5099.792027154097
 21
2069.298153400224
 31
0.0
 71
     5
 42
-1.0
  3
Standard
100
AcDbAlignedDimension
 13
4760.792027154097
 23
2188.588409321163
 33
0.0
 14
5438.792027154097
 24
2188.588409321163
 34
0.0
100
AcDbRotatedDimension
1001
ACAD
1000
DSTYLE
1002
{
1070
   172
1070
     1
1070
    40
1040
30.0
1070
    42
1040
1.0
1070
   271
1070
     0
1070
   143
1040
0.039
1002
}
  0
DIMENSION
  5
819D
330
8277
100
AcDbEntity
  8
3
100
AcDbDimension
  2
*D26
 10
3537.653600346766
 20
4012.588409321161
 30
0.0
 11
3462.653600346766
 21
3100.588409321163
 31
0.0
 71
     5
 42
-1.0
  3
Standard
100
AcDbAlignedDimension
 13
2892.267263770179
 23
2188.588409321164
 33
0.0
 14
2977.26726377018
 24
4012.588409321161
 34
0.0
 50
90.0
100
AcDbRotatedDimension
1001
ACAD
1000
DSTYLE
1002
{
1070
   172
1070
     1
1070
    40
1040
30.0
1070
    42
1040
1.0
1070
   271
1070
     0
1070
   143
1040
0.039
1002
}
  0
DIMENSION
  5
82BE
330
8277
100
AcDbEntity
  8
3
100
AcDbDimension
  2
*D27
 10
4760.792027154097
 20
4467.516311046714
 30
0.0
 11
4230.792027154094
 21
4566.087739618143
 31
0.0
 70
    32
  1
(<>)
 71
     5
 42
1060.000000000006
  3
IGA
100
AcDbAlignedDimension
 13
3700.792027154091
 23
3218.588409321163
 33
0.0
 14
4760.792027154097
 24
4371.583160743091
 34
0.0
100
AcDbRotatedDimension
1001
ACAD
1000
DSTYLE
1002
{
1070
    40
1040
30.0
1070
    42
1040
1.0
1070
   143
1040
0.039
1070
   172
1070
     1
1070
   271
1070
     4
1070
   272
1070
     4
1070
   279
1070
     0
1070
   284
1070
     0
1070
   285
1070
     0
1070
   286
1070
     0
1070
   341
1005
828B
1070
   343
1005
828B
1070
   344
1005
828B
1002
}
  0
DIMENSION
  5
82CB
330
8277
100
AcDbEntity
  8
3
100
AcDbDimension
  2
*D28
 10
5540.792027154095
 20
4467.516311046714
 30
0.0
 11
5150.792027154096
 21
4566.087739618143
 31
0.0
 70
    32
  1
(<>)
 71
     5
 42
779.9999999999982
  3
IGA
100
AcDbAlignedDimension
 13
4760.792027154097
 23
4371.583160743091
 33
0.0
 14
5540.792027154095
 24
2902.788409321163
 34
0.0
100
AcDbRotatedDimension
1001
ACAD
1000
DSTYLE
1002
{
1070
    40
1040
30.0
1070
    42
1040
1.0
1070
   143
1040
0.039
1070
   172
1070
     1
1070
   271
1070
     4
1070
   272
1070
     4
1070
   279
1070
     1
1070
   284
1070
     0
1070
   285
1070
     0
1070
   286
1070
     0
1070
   341
1005
828B
1070
   343
1005
828B
1070
   344
1005
828B
1002
}
  0
DIMENSION
  5
8346
330
8277
100
AcDbEntity
  8
3
100
AcDbDimension
  2
*D31
 10
2892.267263770179
 20
4622.798823399385
 30
0.0
 11
1867.267263770179
 21
4697.798823399385
 31
0.0
 70
    32
 71
     5
 42
2049.999999999999
  3
IGA
100
AcDbAlignedDimension
 13
842.2672637701799
 23
5023.241293846766
 33
0.0
 14
2892.267263770179
 24
5023.241293846764
 34
0.0
100
AcDbRotatedDimension
1001
ACAD
1000
DSTYLE
1002
{
1070
    40
1040
30.0
1070
    42
1040
1.0
1070
   143
1040
0.039
1070
   172
1070
     1
1070
   271
1070
     4
1070
   272
1070
     4
1070
   279
1070
     0
1070
   284
1070
     0
1070
   285
1070
     0
1070
   286
1070
     0
1070
   341
1005
828B
1070
   343
1005
828B
1070
   344
1005
828B
1002
}
  0
DIMENSION
  5
8353
330
8277
100
AcDbEntity
  8
3
100
AcDbDimension
  2
*D32
 10
3349.229406223476
 20
2188.588409321164
 30
0.0
 11
3274.229406223476
 21
2563.588409321164
 31
0.0
 70
    32
 71
     5
 42
749.9999999999982
  3
IGA
100
AcDbAlignedDimension
 13
3006.883246267807
 23
2938.588409321162
 33
0.0
 14
2892.267263770179
 24
2188.588409321164
 34
0.0
 50
90.0
100
AcDbRotatedDimension
1001
ACAD
1000
DSTYLE
1002
{
1070
    40
1040
30.0
1070
    42
1040
1.0
1070
   143
1040
0.039
1070
   172
1070
     1
1070
   271
1070
     4
1070
   272
1070
     4
1070
   279
1070
     0
1070
   284
1070
     0
1070
   285
1070
     0
1070
   286
1070
     0
1070
   341
1005
828B
1070
   343
1005
828B
1070
   344
1005
828B
1002
}
  0
ENDSEC
  0
SECTION
  2
OBJECTS
  0
DICTIONARY
  5
8214
330
0
100
AcDbDictionary
281
     1
  3
ACAD_CIP_PREVIOUS_PRODUCT_INFO
350
82BD
  3
ACAD_COLOR
350
826A
  3
ACAD_DETAILVIEWSTYLE
350
8271
  3
ACAD_GROUP
350
8215
  3
ACAD_LAYOUT
350
8269
  3
ACAD_MATERIAL
350
8218
  3
ACAD_MLEADERSTYLE
350
826D
  3
ACAD_MLINESTYLE
350
8266
  3
ACAD_PLOTSETTINGS
350
8268
  3
ACAD_PLOTSTYLENAME
350
8216
  3
ACAD_SCALELIST
350
824A
  3
ACAD_SECTIONVIEWSTYLE
350
826F
  3
ACAD_TABLESTYLE
350
826B
  3
ACAD_VISUALSTYLE
350
8231
  3
ACDB_RECOMPOSE_DATA
350
8380
  3
AcDbVariableDictionary
350
8373
  3
DWGPROPS
350
8381
  0
DICTIONARY
  5
8369
330
825C
100
AcDbDictionary
280
     1
281
     1
  3
ADSK_XREC_LAYER_RECONCILED
360
836A
  0
DICTIONARY
  5
836B
330
827B
100
AcDbDictionary
280
     1
281
     1
  3
ADSK_XREC_LAYER_RECONCILED
360
836C
  0
DICTIONARY
  5
836D
330
827E
100
AcDbDictionary
280
     1
281
     1
  3
ADSK_XREC_LAYER_RECONCILED
360
836E
  0
DICTIONARY
  5
836F
330
827F
100
AcDbDictionary
280
     1
281
     1
  3
ADSK_XREC_LAYER_RECONCILED
360
8370
  0
DICTIONARY
  5
8371
330
8280
100
AcDbDictionary
280
     1
281
     1
  3
ADSK_XREC_LAYER_RECONCILED
360
8372
  0
XRECORD
  5
82BD
102
{ACAD_REACTORS
330
8214
102
}
330
8214
100
AcDbXrecord
280
     1
300
ACDLT
300
2015
300
INVLTS_F_S
  0
DICTIONARY
  5
826A
102
{ACAD_REACTORS
330
8214
102
}
330
8214
100
AcDbDictionary
281
     1
  0
DICTIONARY
  5
8271
102
{ACAD_REACTORS
330
8214
102
}
330
8214
100
AcDbDictionary
281
     1
  3
Imperial24
350
8272
  0
DICTIONARY
  5
8215
102
{ACAD_REACTORS
330
8214
102
}
330
8214
100
AcDbDictionary
281
     1
  0
DICTIONARY
  5
8269
102
{ACAD_REACTORS
330
8214
102
}
330
8214
100
AcDbDictionary
281
     1
  3
Model
350
827A
  3
レイアウト1
350
8276
  0
DICTIONARY
  5
8218
102
{ACAD_REACTORS
330
8214
102
}
330
8214
100
AcDbDictionary
281
     1
  3
ByBlock
350
8221
  3
ByLayer
350
8219
  3
Global
350
8229
  0
DICTIONARY
  5
826D
102
{ACAD_REACTORS
330
8214
102
}
330
8214
100
AcDbDictionary
281
     1
  3
Standard
350
826E
  0
DICTIONARY
  5
8266
102
{ACAD_REACTORS
330
8214
102
}
330
8214
100
AcDbDictionary
281
     1
  3
Standard
350
8267
  0
DICTIONARY
  5
8268
102
{ACAD_REACTORS
330
8214
102
}
330
8214
100
AcDbDictionary
281
     1
  0
ACDBDICTIONARYWDFLT
  5
8216
102
{ACAD_REACTORS
330
8214
102
}
330
8214
100
AcDbDictionary
281
     1
  3
Normal
350
8217
100
AcDbDictionaryWithDefault
340
8217
  0
DICTIONARY
  5
824A
102
{ACAD_REACTORS
330
8214
102
}
330
8214
100
AcDbDictionary
281
     1
  3
A0
350
824B
  3
A1
350
824C
  3
A2
350
824D
  3
A3
350
824E
  3
A4
350
824F
  3
A5
350
8250
  3
A6
350
8251
  3
A7
350
8252
  3
A8
350
8253
  3
A9
350
8254
  3
B0
350
8255
  3
B1
350
8256
  3
B2
350
8257
  3
B3
350
8258
  3
B4
350
8259
  3
B5
350
825A
  3
B6
350
825B
  0
DICTIONARY
  5
826F
102
{ACAD_REACTORS
330
8214
102
}
330
8214
100
AcDbDictionary
281
     1
  3
Imperial24
350
8270
  0
DICTIONARY
  5
826B
102
{ACAD_REACTORS
330
8214
102
}
330
8214
100
AcDbDictionary
281
     1
  3
Standard
350
826C
  0
DICTIONARY
  5
8231
102
{ACAD_REACTORS
330
8214
102
}
330
8214
100
AcDbDictionary
281
     1
  3
2dWireframe
350
8237
  3
Basic
350
8236
  3
Brighten
350
823D
  3
ColorChange
350
8241
  3
Conceptual
350
823A
  3
Dim
350
823C
  3
EdgeColorOff
350
8249
  3
Facepattern
350
8240
  3
Flat
350
8232
  3
FlatWithEdges
350
8233
  3
Gouraud
350
8234
  3
GouraudWithEdges
350
8235
  3
Hidden
350
8239
  3
JitterOff
350
8247
  3
Linepattern
350
823F
  3
OverhangOff
350
8248
  3
Realistic
350
823B
  3
Shaded
350
8246
  3
Shaded with edges
350
8245
  3
Shades of Gray
350
8242
  3
Sketchy
350
8243
  3
Thicken
350
823E
  3
Wireframe
350
8238
  3
X-Ray
350
8244
  0
XRECORD
  5
8380
102
{ACAD_REACTORS
330
8214
102
}
330
8214
100
AcDbXrecord
280
     1
 90
        1
330
826C
  0
DICTIONARY
  5
8373
102
{ACAD_REACTORS
330
8214
102
}
330
8214
100
AcDbDictionary
281
     1
  3
CANNOSCALE
350
8378
  3
CMLEADERSTYLE
350
8375
  3
CTABLESTYLE
350
8374
  3
CVIEWDETAILSTYLE
350
8376
  3
CVIEWSECTIONSTYLE
350
8377
  3
DIMASSOC
350
837B
  3
INDEXCTL
350
837A
  3
SORTENTS
350
8379
  3
XCLIPFRAME
350
837C
  0
XRECORD
  5
8381
102
{ACAD_REACTORS
330
8214
102
}
330
8214
100
AcDbXrecord
280
     1
  1
DWGPROPS COOKIE
  2

  3

  4

  6

  7

  8
yasukiyo.ogawa
  9

300
=
301
=
302
=
303
=
304
=
305
=
306
=
307
=
308
=
309
=
 40
0.0311584953703704
 41
2451389.550088889
 42
2460271.713393762
  1

 90
        0
  0
XRECORD
  5
836A
102
{ACAD_REACTORS
330
8369
102
}
330
8369
100
AcDbXrecord
280
     1
290
     1
  0
XRECORD
  5
836C
102
{ACAD_REACTORS
330
836B
102
}
330
836B
100
AcDbXrecord
280
     1
290
     1
  0
XRECORD
  5
836E
102
{ACAD_REACTORS
330
836D
102
}
330
836D
100
AcDbXrecord
280
     1
290
     1
  0
XRECORD
  5
8370
102
{ACAD_REACTORS
330
836F
102
}
330
836F
100
AcDbXrecord
280
     1
290
     1
  0
XRECORD
  5
8372
102
{ACAD_REACTORS
330
8371
102
}
330
8371
100
AcDbXrecord
280
     1
290
     1
  0
ACDBDETAILVIEWSTYLE
  5
8272
102
{ACAD_XDICTIONARY
360
83B9
102
}
102
{ACAD_REACTORS
330
8271
102
}
330
8271
100
AcDbModelDocViewStyle
 70
     0
  3
Imperial24
290
     0
100
AcDbDetailViewStyle
 70
     0
 71
     0
 90
        3
 71
     1
340
825D
 40
0.24
340
0
 40
0.24
300

 40
0.36
280
     3
 71
     2
340
8264
 90
       25
 71
     3
340
825D
 40
0.24
 90
        1
 40
0.75
 90
        1
300
%<\AcVar ViewType \f "%tc1">% %<\AcVar ViewDetailId>%\PSCALE %<\AcVar ViewScale \f "%sn">%
 71
     4
340
8264
 90
       25
340
8264
 90
       25
280
     0
  0
LAYOUT
  5
827A
102
{ACAD_XDICTIONARY
360
83BD
102
}
102
{ACAD_REACTORS
330
8269
102
}
330
8269
100
AcDbPlotSettings
  1

  2
RICOH imagio MP W3600 RPCS
  4

  6

 40
0.0
 41
0.0
 42
0.0
 43
0.0
 44
0.0
 45
0.0
 46
0.0
 47
0.0
 48
0.0
 49
0.0
140
0.0
141
0.0
142
1.0
143
1.0
 70
  1712
 72
     0
 73
     0
 74
     0
  7

 75
     0
147
1.0
148
0.0
149
0.0
100
AcDbLayout
  1
Model
 70
     1
 71
     0
 10
0.0
 20
0.0
 11
12.0
 21
9.0
 12
0.0
 22
0.0
 32
0.0
 14
0.0
 24
0.0
 34
0.0
 15
0.0
 25
0.0
 35
0.0
146
0.0
 13
0.0
 23
0.0
 33
0.0
 16
1.0
 26
0.0
 36
0.0
 17
0.0
 27
1.0
 37
0.0
 76
     0
330
8277
331
827C
  0
LAYOUT
  5
8276
102
{ACAD_XDICTIONARY
360
83BB
102
}
102
{ACAD_REACTORS
330
8269
102
}
330
8269
100
AcDbPlotSettings
  1

  2
RICOH imagio MP W3600 RPCS
  4

  6

 40
0.0
 41
0.0
 42
0.0
 43
0.0
 44
0.0
 45
0.0
 46
0.0
 47
0.0
 48
0.0
 49
0.0
140
0.0
141
0.0
142
1.0
143
1.0
 70
   688
 72
     0
 73
     0
 74
     5
  7

 75
    16
147
1.0
148
0.0
149
0.0
100
AcDbLayout
  1
レイアウト1
 70
     1
 71
     1
 10
0.0
 20
0.0
 11
12.0
 21
9.0
 12
0.0
 22
0.0
 32
0.0
 14
1.000000000000000E+20
 24
1.000000000000000E+20
 34
1.000000000000000E+20
 15
-1.000000000000000E+20
 25
-1.000000000000000E+20
 35
-1.000000000000000E+20
146
0.0
 13
0.0
 23
0.0
 33
0.0
 16
1.0
 26
0.0
 36
0.0
 17
0.0
 27
1.0
 37
0.0
 76
     0
330
8273
  0
MATERIAL
  5
8221
102
{ACAD_XDICTIONARY
360
8222
102
}
102
{ACAD_REACTORS
330
8218
102
}
330
8218
100
AcDbMaterial
  1
ByBlock
 72
     0
 43
0.0208333333333333
 43
0.0
 43
0.0
 43
0.0
 43
0.0
 43
0.0208333333333333
 43
0.0
 43
0.0
 43
0.0
 43
0.0
 43
1.0
 43
0.0
 43
0.0
 43
0.0
 43
0.0
 43
1.0
 77
     0
 47
0.0208333333333333
 47
0.0
 47
0.0
 47
0.0
 47
0.0
 47
0.0208333333333333
 47
0.0
 47
0.0
 47
0.0
 47
0.0
 47
1.0
 47
0.0
 47
0.0
 47
0.0
 47
0.0
 47
1.0
171
     0
 49
0.0208333333333333
 49
0.0
 49
0.0
 49
0.0
 49
0.0
 49
0.0208333333333333
 49
0.0
 49
0.0
 49
0.0
 49
0.0
 49
1.0
 49
0.0
 49
0.0
 49
0.0
 49
0.0
 49
1.0
175
     0
142
0.0208333333333333
142
0.0
142
0.0
142
0.0
142
0.0
142
0.0208333333333333
142
0.0
142
0.0
142
0.0
142
0.0
142
1.0
142
0.0
142
0.0
142
0.0
142
0.0
142
1.0
179
     0
144
0.0208333333333333
144
0.0
144
0.0
144
0.0
144
0.0
144
0.0208333333333333
144
0.0
144
0.0
144
0.0
144
0.0
144
1.0
144
0.0
144
0.0
144
0.0
144
0.0
144
1.0
147
0.0208333333333333
147
0.0
147
0.0
147
0.0
147
0.0
147
0.0208333333333333
147
0.0
147
0.0
147
0.0
147
0.0
147
1.0
147
0.0
147
0.0
147
0.0
147
0.0
147
1.0
  0
MATERIAL
  5
8219
102
{ACAD_XDICTIONARY
360
821A
102
}
102
{ACAD_REACTORS
330
8218
102
}
330
8218
100
AcDbMaterial
  1
ByLayer
 72
     0
 43
0.0208333333333333
 43
0.0
 43
0.0
 43
0.0
 43
0.0
 43
0.0208333333333333
 43
0.0
 43
0.0
 43
0.0
 43
0.0
 43
1.0
 43
0.0
 43
0.0
 43
0.0
 43
0.0
 43
1.0
 77
     0
 47
0.0208333333333333
 47
0.0
 47
0.0
 47
0.0
 47
0.0
 47
0.0208333333333333
 47
0.0
 47
0.0
 47
0.0
 47
0.0
 47
1.0
 47
0.0
 47
0.0
 47
0.0
 47
0.0
 47
1.0
171
     0
 49
0.0208333333333333
 49
0.0
 49
0.0
 49
0.0
 49
0.0
 49
0.0208333333333333
 49
0.0
 49
0.0
 49
0.0
 49
0.0
 49
1.0
 49
0.0
 49
0.0
 49
0.0
 49
0.0
 49
1.0
175
     0
142
0.0208333333333333
142
0.0
142
0.0
142
0.0
142
0.0
142
0.0208333333333333
142
0.0
142
0.0
142
0.0
142
0.0
142
1.0
142
0.0
142
0.0
142
0.0
142
0.0
142
1.0
179
     0
144
0.0208333333333333
144
0.0
144
0.0
144
0.0
144
0.0
144
0.0208333333333333
144
0.0
144
0.0
144
0.0
144
0.0
144
1.0
144
0.0
144
0.0
144
0.0
144
0.0
144
1.0
147
0.0208333333333333
147
0.0
147
0.0
147
0.0
147
0.0
147
0.0208333333333333
147
0.0
147
0.0
147
0.0
147
0.0
147
1.0
147
0.0
147
0.0
147
0.0
147
0.0
147
1.0
  0
MATERIAL
  5
8229
102
{ACAD_XDICTIONARY
360
822A
102
}
102
{ACAD_REACTORS
330
8218
102
}
330
8218
100
AcDbMaterial
  1
Global
 72
     0
 43
0.0208333333333333
 43
0.0
 43
0.0
 43
0.0
 43
0.0
 43
0.0208333333333333
 43
0.0
 43
0.0
 43
0.0
 43
0.0
 43
1.0
 43
0.0
 43
0.0
 43
0.0
 43
0.0
 43
1.0
 77
     0
 47
0.0208333333333333
 47
0.0
 47
0.0
 47
0.0
 47
0.0
 47
0.0208333333333333
 47
0.0
 47
0.0
 47
0.0
 47
0.0
 47
1.0
 47
0.0
 47
0.0
 47
0.0
 47
0.0
 47
1.0
171
     0
 49
0.0208333333333333
 49
0.0
 49
0.0
 49
0.0
 49
0.0
 49
0.0208333333333333
 49
0.0
 49
0.0
 49
0.0
 49
0.0
 49
1.0
 49
0.0
 49
0.0
 49
0.0
 49
0.0
 49
1.0
175
     0
142
0.0208333333333333
142
0.0
142
0.0
142
0.0
142
0.0
142
0.0208333333333333
142
0.0
142
0.0
142
0.0
142
0.0
142
1.0
142
0.0
142
0.0
142
0.0
142
0.0
142
1.0
179
     0
144
0.0208333333333333
144
0.0
144
0.0
144
0.0
144
0.0
144
0.0208333333333333
144
0.0
144
0.0
144
0.0
144
0.0
144
1.0
144
0.0
144
0.0
144
0.0
144
0.0
144
1.0
147
0.0208333333333333
147
0.0
147
0.0
147
0.0
147
0.0
147
0.0208333333333333
147
0.0
147
0.0
147
0.0
147
0.0
147
1.0
147
0.0
147
0.0
147
0.0
147
0.0
147
1.0
  0
MLEADERSTYLE
  5
826E
102
{ACAD_REACTORS
330
826D
102
}
330
826D
100
AcDbMLeaderStyle
170
     2
171
     1
172
     0
 90
        2
 40
0.0
 41
0.0
173
     1
 91
-1056964608
340
8262
 92
       -2
290
     1
 42
0.09
291
     1
 43
0.36
  3
Standard
 44
0.18
300

342
825D
174
     1
178
     6
175
     1
176
     0
 93
-1056964608
 45
0.18
292
     0
297
     0
 46
0.18
 94
-1056964608
 47
1.0
 49
1.0
140
1.0
293
     1
141
0.0
294
     1
177
     0
142
1.0
295
     0
296
     0
143
0.125
1001
ACAD_MLEADERVER
1070
     2
  0
MLINESTYLE
  5
8267
102
{ACAD_REACTORS
330
8266
102
}
330
8266
100
AcDbMlineStyle
  2
STANDARD
 70
     0
  3

 62
   256
 51
90.0
 52
90.0
 71
     2
 49
0.5
 62
   256
  6
BYLAYER
 49
-0.5
 62
   256
  6
BYLAYER
  0
ACDBPLACEHOLDER
  5
8217
102
{ACAD_REACTORS
330
8216
102
}
330
8216
  0
SCALE
  5
824B
102
{ACAD_REACTORS
330
824A
102
}
330
824A
100
AcDbScale
 70
     0
300
1:1
140
1.0
141
1.0
290
     1
  0
SCALE
  5
824C
102
{ACAD_REACTORS
330
824A
102
}
330
824A
100
AcDbScale
 70
     0
300
1/128" = 1'-0"
140
0.0078125
141
12.0
290
     0
  0
SCALE
  5
824D
102
{ACAD_REACTORS
330
824A
102
}
330
824A
100
AcDbScale
 70
     0
300
1/64" = 1'-0"
140
0.015625
141
12.0
290
     0
  0
SCALE
  5
824E
102
{ACAD_REACTORS
330
824A
102
}
330
824A
100
AcDbScale
 70
     0
300
1/32" = 1'-0"
140
0.03125
141
12.0
290
     0
  0
SCALE
  5
824F
102
{ACAD_REACTORS
330
824A
102
}
330
824A
100
AcDbScale
 70
     0
300
1/16" = 1'-0"
140
0.0625
141
12.0
290
     0
  0
SCALE
  5
8250
102
{ACAD_REACTORS
330
824A
102
}
330
824A
100
AcDbScale
 70
     0
300
3/32" = 1'-0"
140
0.09375
141
12.0
290
     0
  0
SCALE
  5
8251
102
{ACAD_REACTORS
330
824A
102
}
330
824A
100
AcDbScale
 70
     0
300
1/8" = 1'-0"
140
0.125
141
12.0
290
     0
  0
SCALE
  5
8252
102
{ACAD_REACTORS
330
824A
102
}
330
824A
100
AcDbScale
 70
     0
300
3/16" = 1'-0"
140
0.1875
141
12.0
290
     0
  0
SCALE
  5
8253
102
{ACAD_REACTORS
330
824A
102
}
330
824A
100
AcDbScale
 70
     0
300
1/4" = 1'-0"
140
0.25
141
12.0
290
     0
  0
SCALE
  5
8254
102
{ACAD_REACTORS
330
824A
102
}
330
824A
100
AcDbScale
 70
     0
300
3/8" = 1'-0"
140
0.375
141
12.0
290
     0
  0
SCALE
  5
8255
102
{ACAD_REACTORS
330
824A
102
}
330
824A
100
AcDbScale
 70
     0
300
1/2" = 1'-0"
140
0.5
141
12.0
290
     0
  0
SCALE
  5
8256
102
{ACAD_REACTORS
330
824A
102
}
330
824A
100
AcDbScale
 70
     0
300
3/4" = 1'-0"
140
0.75
141
12.0
290
     0
  0
SCALE
  5
8257
102
{ACAD_REACTORS
330
824A
102
}
330
824A
100
AcDbScale
 70
     0
300
1" = 1'-0"
140
1.0
141
12.0
290
     0
  0
SCALE
  5
8258
102
{ACAD_REACTORS
330
824A
102
}
330
824A
100
AcDbScale
 70
     0
300
1-1/2" = 1'-0"
140
1.5
141
12.0
290
     0
  0
SCALE
  5
8259
102
{ACAD_REACTORS
330
824A
102
}
330
824A
100
AcDbScale
 70
     0
300
3" = 1'-0"
140
3.0
141
12.0
290
     0
  0
SCALE
  5
825A
102
{ACAD_REACTORS
330
824A
102
}
330
824A
100
AcDbScale
 70
     0
300
6" = 1'-0"
140
6.0
141
12.0
290
     0
  0
SCALE
  5
825B
102
{ACAD_REACTORS
330
824A
102
}
330
824A
100
AcDbScale
 70
     0
300
1'-0" = 1'-0"
140
12.0
141
12.0
290
     0
  0
ACDBSECTIONVIEWSTYLE
  5
8270
102
{ACAD_XDICTIONARY
360
83B7
102
}
102
{ACAD_REACTORS
330
826F
102
}
330
826F
100
AcDbModelDocViewStyle
 70
     0
  3
Imperial24
290
     0
100
AcDbSectionViewStyle
 70
     0
 71
     0
 90
       78
 71
     1
340
825D
 40
0.24
340
0
340
0
 40
0.24
300
I, O, Q, S, X, Z
 40
0.48
 90
        3
 40
0.18
 90
        1
 71
     2
340
8264
 90
       25
340
8264
 90
       50
 40
0.24
 40
0.0
 40
0.24
 71
     3
340
825D
 40
0.24
 90
        1
 40
0.75
 90
        1
300
%<\AcVar ViewType \f "%tc1">% %<\AcVar ViewSectionStartId>%-%<\AcVar ViewSectionEndId>%\PSCALE %<\AcVar ViewScale \f "%sn">%
 71
     4
300
ANSI31
 40
1.0
 90
        0
290
     0
290
     0
 90
        6
 40
0.0
 40
1.570796326794896
 40
0.2617993877991494
 40
1.308996938995747
 40
-0.2617993877991494
 40
1.832595714594046
  0
TABLESTYLE
  5
826C
102
{ACAD_XDICTIONARY
360
837E
102
}
102
{ACAD_REACTORS
330
826B
102
}
330
826B
100
AcDbTableStyle
  3
Standard
 70
     0
 71
     0
 40
0.06
 41
0.06
280
     0
281
     0
  7
STANDARD
140
0.18
170
     2
 62
     0
 63
     7
283
     0
274
    -2
284
     1
 64
     0
275
    -2
285
     1
 65
     0
276
    -2
286
     1
 66
     0
277
    -2
287
     1
 67
     0
278
    -2
288
     1
 68
     0
279
    -2
289
     1
 69
     0
  7
STANDARD
140
0.25
170
     5
 62
     0
 63
     7
283
     0
274
    -2
284
     1
 64
     0
275
    -2
285
     1
 65
     0
276
    -2
286
     1
 66
     0
277
    -2
287
     1
 67
     0
278
    -2
288
     1
 68
     0
279
    -2
289
     1
 69
     0
  7
STANDARD
140
0.18
170
     5
 62
     0
 63
     7
283
     0
274
    -2
284
     1
 64
     0
275
    -2
285
     1
 65
     0
276
    -2
286
     1
 66
     0
277
    -2
287
     1
 67
     0
278
    -2
288
     1
 68
     0
279
    -2
289
     1
 69
     0
  0
VISUALSTYLE
  5
8237
102
{ACAD_XDICTIONARY
360
838F
102
}
102
{ACAD_REACTORS
330
8231
102
}
330
8231
100
AcDbVisualStyle
  2
2dWireframe
 70
     4
 71
     0
 72
     2
 73
     0
 90
        0
 40
-0.6
 41
-30.0
 62
     5
 63
     7
 74
     1
 91
        4
 64
     7
 65
   257
 75
     1
175
     1
 42
1.0
 92
        0
 66
   257
 43
1.0
 76
     1
 77
     6
 78
     2
 67
     7
 79
     5
170
     0
171
     0
290
     0
174
     0
 93
        1
 44
0.0
173
     0
291
     0
 45
0.0
1001
ACAD
1000
AcDbSavedByObjectVersion
1070
     0
  0
VISUALSTYLE
  5
8236
102
{ACAD_XDICTIONARY
360
838D
102
}
102
{ACAD_REACTORS
330
8231
102
}
330
8231
100
AcDbVisualStyle
  2
Basic
 70
     7
 71
     1
 72
     0
 73
     1
 90
        0
 40
-0.6
 41
-30.0
 62
     5
 63
     7
 74
     0
 91
        4
 64
     7
 65
   257
 75
     1
175
     1
 42
1.0
 92
        8
 66
     7
 43
1.0
 76
     1
 77
     6
 78
     2
 67
     7
 79
     5
170
     0
171
     0
290
     0
174
     0
 93
        1
 44
0.0
173
     0
291
     1
 45
0.0
1001
ACAD
1000
AcDbSavedByObjectVersion
1070
     0
  0
VISUALSTYLE
  5
823D
102
{ACAD_XDICTIONARY
360
839B
102
}
102
{ACAD_REACTORS
330
8231
102
}
330
8231
100
AcDbVisualStyle
  2
Brighten
 70
    12
 71
     2
 72
     2
 73
     0
 90
        0
 40
-0.6
 41
-30.0
 62
     5
 63
     7
 74
     1
 91
        4
 64
     7
 65
   257
 75
     1
175
     1
 42
1.0
 92
        8
 66
     7
 43
1.0
 76
     1
 77
     6
 78
     2
 67
     7
 79
     5
170
     0
171
     0
290
     0
174
     0
 93
        1
 44
50.0
173
     0
291
     1
 45
0.0
1001
ACAD
1000
AcDbSavedByObjectVersion
1070
     0
  0
VISUALSTYLE
  5
8241
102
{ACAD_XDICTIONARY
360
83A3
102
}
102
{ACAD_REACTORS
330
8231
102
}
330
8231
100
AcDbVisualStyle
  2
ColorChange
 70
    16
 71
     2
 72
     2
 73
     3
 90
        0
 40
-0.6
 41
-30.0
 62
     5
 63
     8
 74
     1
 91
        4
 64
     7
 65
   257
 75
     1
175
     1
 42
1.0
 92
        8
 66
     8
 43
1.0
 76
     1
 77
     6
 78
     2
 67
     7
 79
     5
170
     0
171
     0
290
     0
174
     0
 93
        1
 44
0.0
173
     0
291
     1
 45
0.0
1001
ACAD
1000
AcDbSavedByObjectVersion
1070
     0
  0
VISUALSTYLE
  5
823A
102
{ACAD_XDICTIONARY
360
8395
102
}
102
{ACAD_REACTORS
330
8231
102
}
330
8231
100
AcDbVisualStyle
  2
Conceptual
 70
     9
 71
     3
 72
     2
 73
     0
 90
        0
 40
-0.6
 41
-30.0
 62
     5
 63
     7
 74
     2
 91
        2
 64
     7
 65
   257
 75
     1
175
     1
 42
179.0
 92
        8
 66
     7
 43
1.0
 76
     1
 77
     6
 78
     2
 67
     7
 79
     3
170
     0
171
     0
290
     0
174
     0
 93
        1
 44
0.0
173
     0
291
     0
 45
0.0
1001
ACAD
1000
AcDbSavedByObjectVersion
1070
     0
  0
VISUALSTYLE
  5
823C
102
{ACAD_XDICTIONARY
360
8399
102
}
102
{ACAD_REACTORS
330
8231
102
}
330
8231
100
AcDbVisualStyle
  2
Dim
 70
    11
 71
     2
 72
     2
 73
     0
 90
        0
 40
-0.6
 41
-30.0
 62
     5
 63
     7
 74
     1
 91
        4
 64
     7
 65
   257
 75
     1
175
     1
 42
1.0
 92
        8
 66
     7
 43
1.0
 76
     1
 77
     6
 78
     2
 67
     7
 79
     5
170
     0
171
     0
290
     0
174
     0
 93
        1
 44
-50.0
173
     0
291
     1
 45
0.0
1001
ACAD
1000
AcDbSavedByObjectVersion
1070
     0
  0
VISUALSTYLE
  5
8249
102
{ACAD_XDICTIONARY
360
83B3
102
}
102
{ACAD_REACTORS
330
8231
102
}
330
8231
100
AcDbVisualStyle
  2
EdgeColorOff
 70
    22
 71
     2
 72
     2
 73
     0
 90
        0
 40
-0.6
 41
-30.0
 62
     5
 63
     7
 74
     1
 91
        4
 64
     7
 65
   257
 75
     1
175
     1
 42
1.0
 92
        8
 66
     7
 43
1.0
 76
     1
 77
     6
 78
     2
 67
     7
 79
     5
170
     0
171
     0
290
     0
174
     0
 93
        1
 44
0.0
173
     0
291
     1
 45
0.0
1001
ACAD
1000
AcDbSavedByObjectVersion
1070
     0
  0
VISUALSTYLE
  5
8240
102
{ACAD_XDICTIONARY
360
83A1
102
}
102
{ACAD_REACTORS
330
8231
102
}
330
8231
100
AcDbVisualStyle
  2
Facepattern
 70
    15
 71
     2
 72
     2
 73
     0
 90
        0
 40
-0.6
 41
-30.0
 62
     5
 63
     7
 74
     1
 91
        4
 64
     7
 65
   257
 75
     1
175
     1
 42
1.0
 92
        8
 66
     7
 43
1.0
 76
     1
 77
     6
 78
     2
 67
     7
 79
     5
170
     0
171
     0
290
     0
174
     0
 93
        1
 44
0.0
173
     0
291
     1
 45
0.0
1001
ACAD
1000
AcDbSavedByObjectVersion
1070
     0
  0
VISUALSTYLE
  5
8232
102
{ACAD_XDICTIONARY
360
8385
102
}
102
{ACAD_REACTORS
330
8231
102
}
330
8231
100
AcDbVisualStyle
  2
Flat
 70
     0
 71
     2
 72
     1
 73
     1
 90
        2
 40
-0.6
 41
30.0
 62
     5
 63
     7
 74
     0
 91
        0
 64
     7
 65
   257
 75
     1
175
     1
 42
1.0
 92
        8
 66
     7
 43
1.0
 76
     1
 77
     6
 78
     2
 67
     7
 79
     5
170
     0
171
     0
290
     0
174
     0
 93
       13
 44
0.0
173
     0
291
     1
 45
0.0
1001
ACAD
1000
AcDbSavedByObjectVersion
1070
     0
  0
VISUALSTYLE
  5
8233
102
{ACAD_XDICTIONARY
360
8387
102
}
102
{ACAD_REACTORS
330
8231
102
}
330
8231
100
AcDbVisualStyle
  2
FlatWithEdges
 70
     1
 71
     2
 72
     1
 73
     1
 90
        2
 40
-0.6
 41
30.0
 62
     5
 63
     7
 74
     1
 91
        0
 64
     7
 65
   257
 75
     1
175
     1
 42
1.0
 92
        0
 66
   257
 43
1.0
 76
     1
 77
     6
 78
     2
 67
     7
 79
     5
170
     0
171
     0
290
     0
174
     0
 93
       13
 44
0.0
173
     0
291
     1
 45
0.0
1001
ACAD
1000
AcDbSavedByObjectVersion
1070
     0
  0
VISUALSTYLE
  5
8234
102
{ACAD_XDICTIONARY
360
8389
102
}
102
{ACAD_REACTORS
330
8231
102
}
330
8231
100
AcDbVisualStyle
  2
Gouraud
 70
     2
 71
     2
 72
     2
 73
     1
 90
        2
 40
-0.6
 41
30.0
 62
     5
 63
     7
 74
     0
 91
        0
 64
     7
 65
   257
 75
     1
175
     1
 42
1.0
 92
        0
 66
     7
 43
1.0
 76
     1
 77
     6
 78
     2
 67
     7
 79
     5
170
     0
171
     0
290
     0
174
     0
 93
       13
 44
0.0
173
     0
291
     1
 45
0.0
1001
ACAD
1000
AcDbSavedByObjectVersion
1070
     0
  0
VISUALSTYLE
  5
8235
102
{ACAD_XDICTIONARY
360
838B
102
}
102
{ACAD_REACTORS
330
8231
102
}
330
8231
100
AcDbVisualStyle
  2
GouraudWithEdges
 70
     3
 71
     2
 72
     2
 73
     1
 90
        2
 40
-0.6
 41
30.0
 62
     5
 63
     7
 74
     1
 91
        0
 64
     7
 65
   257
 75
     1
175
     1
 42
1.0
 92
        0
 66
   257
 43
1.0
 76
     1
 77
     6
 78
     2
 67
     7
 79
     5
170
     0
171
     0
290
     0
174
     0
 93
       13
 44
0.0
173
     0
291
     1
 45
0.0
1001
ACAD
1000
AcDbSavedByObjectVersion
1070
     0
  0
VISUALSTYLE
  5
8239
102
{ACAD_XDICTIONARY
360
8393
102
}
102
{ACAD_REACTORS
330
8231
102
}
330
8231
100
AcDbVisualStyle
  2
Hidden
 70
     6
 71
     1
 72
     2
 73
     2
 90
        0
 40
-0.6
 41
-30.0
 62
     5
 63
     7
 74
     2
 91
        2
 64
     7
 65
   257
 75
     2
175
     1
 42
40.0
 92
        0
 66
   257
 43
1.0
 76
     1
 77
     6
 78
     2
 67
     7
 79
     3
170
     0
171
     0
290
     0
174
     0
 93
        1
 44
0.0
173
     0
291
     0
 45
0.0
1001
ACAD
1000
AcDbSavedByObjectVersion
1070
     0
  0
VISUALSTYLE
  5
8247
102
{ACAD_XDICTIONARY
360
83AF
102
}
102
{ACAD_REACTORS
330
8231
102
}
330
8231
100
AcDbVisualStyle
  2
JitterOff
 70
    20
 71
     2
 72
     2
 73
     0
 90
        0
 40
-0.6
 41
-30.0
 62
     5
 63
     7
 74
     1
 91
        4
 64
     7
 65
   257
 75
     1
175
     1
 42
1.0
 92
       10
 66
     7
 43
1.0
 76
     1
 77
     6
 78
     2
 67
     7
 79
     5
170
     0
171
     0
290
     0
174
     0
 93
        1
 44
0.0
173
     0
291
     1
 45
0.0
1001
ACAD
1000
AcDbSavedByObjectVersion
1070
     0
  0
VISUALSTYLE
  5
823F
102
{ACAD_XDICTIONARY
360
839F
102
}
102
{ACAD_REACTORS
330
8231
102
}
330
8231
100
AcDbVisualStyle
  2
Linepattern
 70
    14
 71
     2
 72
     2
 73
     0
 90
        0
 40
-0.6
 41
-30.0
 62
     5
 63
     7
 74
     1
 91
        4
 64
     7
 65
   257
 75
     7
175
     7
 42
1.0
 92
        8
 66
     7
 43
1.0
 76
     1
 77
     6
 78
     2
 67
     7
 79
     5
170
     0
171
     0
290
     0
174
     0
 93
        1
 44
0.0
173
     0
291
     1
 45
0.0
1001
ACAD
1000
AcDbSavedByObjectVersion
1070
     0
  0
VISUALSTYLE
  5
8248
102
{ACAD_XDICTIONARY
360
83B1
102
}
102
{ACAD_REACTORS
330
8231
102
}
330
8231
100
AcDbVisualStyle
  2
OverhangOff
 70
    21
 71
     2
 72
     2
 73
     0
 90
        0
 40
-0.6
 41
-30.0
 62
     5
 63
     7
 74
     1
 91
        4
 64
     7
 65
   257
 75
     1
175
     1
 42
1.0
 92
        9
 66
     7
 43
1.0
 76
     1
 77
     6
 78
     2
 67
     7
 79
     5
170
     0
171
     0
290
     0
174
     0
 93
        1
 44
0.0
173
     0
291
     1
 45
0.0
1001
ACAD
1000
AcDbSavedByObjectVersion
1070
     0
  0
VISUALSTYLE
  5
823B
102
{ACAD_XDICTIONARY
360
8397
102
}
102
{ACAD_REACTORS
330
8231
102
}
330
8231
100
AcDbVisualStyle
  2
Realistic
 70
     8
 71
     2
 72
     3
 73
     0
 90
        2
 40
-0.6
 41
30.0
 62
     5
 63
     7
 74
     0
 91
        0
 64
     7
 65
   257
 75
     1
175
     1
 42
1.0
 92
        8
 66
   257
 43
1.0
 76
     1
 77
     6
 78
     2
 67
     7
 79
     3
170
     0
171
     0
290
     0
174
     0
 93
       13
 44
0.0
173
     0
291
     0
 45
0.0
1001
ACAD
1000
AcDbSavedByObjectVersion
1070
     0
  0
VISUALSTYLE
  5
8246
102
{ACAD_XDICTIONARY
360
83AD
102
}
102
{ACAD_REACTORS
330
8231
102
}
330
8231
100
AcDbVisualStyle
  2
Shaded
 70
    27
 71
     2
 72
     2
 73
     1
 90
        2
 40
-0.6
 41
30.0
 62
     5
 63
     7
 74
     0
 91
        4
 64
     7
 65
   257
 75
     1
175
     1
 42
1.0
 92
        8
 66
   257
 43
1.0
 76
     1
 77
     6
 78
     2
 67
     8
 79
     3
170
     0
171
     0
290
     0
174
     0
 93
        5
 44
0.0
173
     0
291
     0
 45
0.0
1001
ACAD
1000
AcDbSavedByObjectVersion
1070
     0
  0
VISUALSTYLE
  5
8245
102
{ACAD_XDICTIONARY
360
83AB
102
}
102
{ACAD_REACTORS
330
8231
102
}
330
8231
100
AcDbVisualStyle
  2
Shaded with edges
 70
    26
 71
     2
 72
     2
 73
     1
 90
        2
 40
-0.6
 41
30.0
 62
     5
 63
     7
 74
     1
 91
       10
 64
     7
 65
   257
 75
     2
175
     1
 42
1.0
 92
        8
 66
   257
 43
1.0
 76
     1
 77
     6
 78
     2
 67
     7
 79
     3
170
     0
171
     0
290
     0
174
     0
 93
        5
 44
0.0
173
     0
291
     0
 45
0.0
1001
ACAD
1000
AcDbSavedByObjectVersion
1070
     0
  0
VISUALSTYLE
  5
8242
102
{ACAD_XDICTIONARY
360
83A5
102
}
102
{ACAD_REACTORS
330
8231
102
}
330
8231
100
AcDbVisualStyle
  2
Shades of Gray
 70
    23
 71
     2
 72
     2
 73
     3
 90
        0
 40
-0.6
 41
-30.0
 62
     5
 63
     7
 74
     2
 91
        2
 64
     7
 65
     7
 75
     1
175
     1
 42
40.0
 92
        8
 66
     7
 43
1.0
 76
     1
 77
     6
 78
     2
 67
     7
 79
     3
170
     0
171
     0
290
     0
174
     0
 93
        1
 44
0.0
173
     0
291
     0
 45
0.0
1001
ACAD
1000
AcDbSavedByObjectVersion
1070
     0
  0
VISUALSTYLE
  5
8243
102
{ACAD_XDICTIONARY
360
83A7
102
}
102
{ACAD_REACTORS
330
8231
102
}
330
8231
100
AcDbVisualStyle
  2
Sketchy
 70
    24
 71
     1
 72
     2
 73
     2
 90
        0
 40
-0.6
 41
-30.0
 62
     5
 63
     7
 74
     2
 91
        2
 64
     7
 65
     7
 75
     1
175
     1
 42
40.0
 92
       11
 66
     7
 43
1.0
 76
     1
 77
     6
 78
     2
 67
     7
 79
     6
170
     0
171
     0
290
     0
174
     0
 93
        1
 44
0.0
173
     0
291
     0
 45
0.0
1001
ACAD
1000
AcDbSavedByObjectVersion
1070
     0
  0
VISUALSTYLE
  5
823E
102
{ACAD_XDICTIONARY
360
839D
102
}
102
{ACAD_REACTORS
330
8231
102
}
330
8231
100
AcDbVisualStyle
  2
Thicken
 70
    13
 71
     2
 72
     2
 73
     0
 90
        0
 40
-0.6
 41
-30.0
 62
     5
 63
     7
 74
     1
 91
        4
 64
     7
 65
   257
 75
     1
175
     1
 42
1.0
 92
       12
 66
     7
 43
1.0
 76
     1
 77
     6
 78
     2
 67
     7
 79
     5
170
     0
171
     0
290
     0
174
     0
 93
        1
 44
0.0
173
     0
291
     1
 45
0.0
1001
ACAD
1000
AcDbSavedByObjectVersion
1070
     0
  0
VISUALSTYLE
  5
8238
102
{ACAD_XDICTIONARY
360
8391
102
}
102
{ACAD_REACTORS
330
8231
102
}
330
8231
100
AcDbVisualStyle
  2
Wireframe
 70
     5
 71
     0
 72
     2
 73
     0
 90
        0
 40
-0.6
 41
-30.0
 62
     5
 63
     7
 74
     1
 91
        4
 64
     7
 65
   257
 75
     1
175
     1
 42
1.0
 92
        0
 66
   257
 43
1.0
 76
     1
 77
     6
 78
     2
 67
     7
 79
     3
170
     0
171
     0
290
     0
174
     0
 93
        1
 44
0.0
173
     0
291
     0
 45
0.0
1001
ACAD
1000
AcDbSavedByObjectVersion
1070
     0
  0
VISUALSTYLE
  5
8244
102
{ACAD_XDICTIONARY
360
83A9
102
}
102
{ACAD_REACTORS
330
8231
102
}
330
8231
100
AcDbVisualStyle
  2
X-Ray
 70
    25
 71
     2
 72
     2
 73
     1
 90
        1
 40
0.5
 41
-30.0
 62
     5
 63
     7
 74
     1
 91
        0
 64
     7
 65
   257
 75
     1
175
     1
 42
1.0
 92
        8
 66
     7
 43
1.0
 76
     1
 77
     6
 78
     2
 67
     7
 79
     3
170
     0
171
     0
290
     0
174
     0
 93
       13
 44
0.0
173
     0
291
     0
 45
0.0
1001
ACAD
1000
AcDbSavedByObjectVersion
1070
     0
  0
DICTIONARYVAR
  5
8378
102
{ACAD_REACTORS
330
8373
102
}
330
8373
100
DictionaryVariables
280
     0
  1
1:1
  0
DICTIONARYVAR
  5
8375
102
{ACAD_REACTORS
330
8373
102
}
330
8373
100
DictionaryVariables
280
     0
  1
STANDARD
  0
DICTIONARYVAR
  5
8374
102
{ACAD_REACTORS
330
8373
102
}
330
8373
100
DictionaryVariables
280
     0
  1
STANDARD
  0
DICTIONARYVAR
  5
8376
102
{ACAD_REACTORS
330
8373
102
}
330
8373
100
DictionaryVariables
280
     0
  1
Imperial24
  0
DICTIONARYVAR
  5
8377
102
{ACAD_REACTORS
330
8373
102
}
330
8373
100
DictionaryVariables
280
     0
  1
Imperial24
  0
DICTIONARYVAR
  5
837B
102
{ACAD_REACTORS
330
8373
102
}
330
8373
100
DictionaryVariables
280
     0
  1
1
  0
DICTIONARYVAR
  5
837A
102
{ACAD_REACTORS
330
8373
102
}
330
8373
100
DictionaryVariables
280
     0
  1
0
  0
DICTIONARYVAR
  5
8379
102
{ACAD_REACTORS
330
8373
102
}
330
8373
100
DictionaryVariables
280
     0
  1
127
  0
DICTIONARYVAR
  5
837C
102
{ACAD_REACTORS
330
8373
102
}
330
8373
100
DictionaryVariables
280
     0
  1
2
  0
DICTIONARY
  5
83B9
330
8272
100
AcDbDictionary
280
     1
281
     1
  3
ACAD_XREC_ROUNDTRIP
360
83BA
  0
DICTIONARY
  5
83BD
330
827A
100
AcDbDictionary
280
     1
281
     1
  3
ACAD_XREC_ROUNDTRIP
360
83BE
  0
DICTIONARY
  5
83BB
330
8276
100
AcDbDictionary
280
     1
281
     1
  3
ACAD_XREC_ROUNDTRIP
360
83BC
  0
DICTIONARY
  5
8222
330
8221
100
AcDbDictionary
280
     1
281
     1
  3
ACAD_XREC_ROUNDTRIP
360
8383
  3
BUMPTILE
360
8224
  3
DIFFUSETILE
360
8223
  3
OPACITYTILE
360
8227
  3
REFLECTIONTILE
360
8226
  3
REFRACTIONTILE
360
8228
  3
SPECULARTILE
360
8225
  0
DICTIONARY
  5
821A
330
8219
100
AcDbDictionary
280
     1
281
     1
  3
ACAD_XREC_ROUNDTRIP
360
8382
  3
BUMPTILE
360
821C
  3
DIFFUSETILE
360
821B
  3
OPACITYTILE
360
821F
  3
REFLECTIONTILE
360
821E
  3
REFRACTIONTILE
360
8220
  3
SPECULARTILE
360
821D
  0
DICTIONARY
  5
822A
330
8229
100
AcDbDictionary
280
     1
281
     1
  3
ACAD_XREC_ROUNDTRIP
360
8384
  3
BUMPTILE
360
822C
  3
DIFFUSETILE
360
822B
  3
OPACITYTILE
360
822F
  3
REFLECTIONTILE
360
822E
  3
REFRACTIONTILE
360
8230
  3
SPECULARTILE
360
822D
  0
DICTIONARY
  5
83B7
330
8270
100
AcDbDictionary
280
     1
281
     1
  3
ACAD_XREC_ROUNDTRIP
360
83B8
  0
DICTIONARY
  5
837E
330
826C
100
AcDbDictionary
280
     1
281
     1
  3
ACAD_ROUNDTRIP_2008_TABLESTYLE_CELLSTYLEMAP
360
837F
  3
ACAD_XREC_ROUNDTRIP
360
83B5
  0
DICTIONARY
  5
838F
330
8237
100
AcDbDictionary
280
     1
281
     1
  3
ACAD_XREC_ROUNDTRIP
360
8390
  0
DICTIONARY
  5
838D
330
8236
100
AcDbDictionary
280
     1
281
     1
  3
ACAD_XREC_ROUNDTRIP
360
838E
  0
DICTIONARY
  5
839B
330
823D
100
AcDbDictionary
280
     1
281
     1
  3
ACAD_XREC_ROUNDTRIP
360
839C
  0
DICTIONARY
  5
83A3
330
8241
100
AcDbDictionary
280
     1
281
     1
  3
ACAD_XREC_ROUNDTRIP
360
83A4
  0
DICTIONARY
  5
8395
330
823A
100
AcDbDictionary
280
     1
281
     1
  3
ACAD_XREC_ROUNDTRIP
360
8396
  0
DICTIONARY
  5
8399
330
823C
100
AcDbDictionary
280
     1
281
     1
  3
ACAD_XREC_ROUNDTRIP
360
839A
  0
DICTIONARY
  5
83B3
330
8249
100
AcDbDictionary
280
     1
281
     1
  3
ACAD_XREC_ROUNDTRIP
360
83B4
  0
DICTIONARY
  5
83A1
330
8240
100
AcDbDictionary
280
     1
281
     1
  3
ACAD_XREC_ROUNDTRIP
360
83A2
  0
DICTIONARY
  5
8385
330
8232
100
AcDbDictionary
280
     1
281
     1
  3
ACAD_XREC_ROUNDTRIP
360
8386
  0
DICTIONARY
  5
8387
330
8233
100
AcDbDictionary
280
     1
281
     1
  3
ACAD_XREC_ROUNDTRIP
360
8388
  0
DICTIONARY
  5
8389
330
8234
100
AcDbDictionary
280
     1
281
     1
  3
ACAD_XREC_ROUNDTRIP
360
838A
  0
DICTIONARY
  5
838B
330
8235
100
AcDbDictionary
280
     1
281
     1
  3
ACAD_XREC_ROUNDTRIP
360
838C
  0
DICTIONARY
  5
8393
330
8239
100
AcDbDictionary
280
     1
281
     1
  3
ACAD_XREC_ROUNDTRIP
360
8394
  0
DICTIONARY
  5
83AF
330
8247
100
AcDbDictionary
280
     1
281
     1
  3
ACAD_XREC_ROUNDTRIP
360
83B0
  0
DICTIONARY
  5
839F
330
823F
100
AcDbDictionary
280
     1
281
     1
  3
ACAD_XREC_ROUNDTRIP
360
83A0
  0
DICTIONARY
  5
83B1
330
8248
100
AcDbDictionary
280
     1
281
     1
  3
ACAD_XREC_ROUNDTRIP
360
83B2
  0
DICTIONARY
  5
8397
330
823B
100
AcDbDictionary
280
     1
281
     1
  3
ACAD_XREC_ROUNDTRIP
360
8398
  0
DICTIONARY
  5
83AD
330
8246
100
AcDbDictionary
280
     1
281
     1
  3
ACAD_XREC_ROUNDTRIP
360
83AE
  0
DICTIONARY
  5
83AB
330
8245
100
AcDbDictionary
280
     1
281
     1
  3
ACAD_XREC_ROUNDTRIP
360
83AC
  0
DICTIONARY
  5
83A5
330
8242
100
AcDbDictionary
280
     1
281
     1
  3
ACAD_XREC_ROUNDTRIP
360
83A6
  0
DICTIONARY
  5
83A7
330
8243
100
AcDbDictionary
280
     1
281
     1
  3
ACAD_XREC_ROUNDTRIP
360
83A8
  0
DICTIONARY
  5
839D
330
823E
100
AcDbDictionary
280
     1
281
     1
  3
ACAD_XREC_ROUNDTRIP
360
839E
  0
DICTIONARY
  5
8391
330
8238
100
AcDbDictionary
280
     1
281
     1
  3
ACAD_XREC_ROUNDTRIP
360
8392
  0
DICTIONARY
  5
83A9
330
8244
100
AcDbDictionary
280
     1
281
     1
  3
ACAD_XREC_ROUNDTRIP
360
83AA
  0
XRECORD
  5
83BA
102
{ACAD_REACTORS
330
83B9
102
}
330
83B9
100
AcDbXrecord
280
     1
102
DISPLAYNAME
  1
Imperial24
102
FLAGS
 90
        0
  0
XRECORD
  5
83BE
102
{ACAD_REACTORS
330
83BD
102
}
330
83BD
100
AcDbXrecord
280
     1
102
SHADEPLOT
 70
     0
102
SHADEPLOTRESLEVEL
 70
     2
102
SHADEPLOTCUSTOMDPI
 70
   300
  0
XRECORD
  5
83BC
102
{ACAD_REACTORS
330
83BB
102
}
330
83BB
100
AcDbXrecord
280
     1
102
SHADEPLOT
 70
     0
102
SHADEPLOTRESLEVEL
 70
     2
102
SHADEPLOTCUSTOMDPI
 70
   300
  0
XRECORD
  5
8383
102
{ACAD_REACTORS
330
8222
102
}
330
8222
100
AcDbXrecord
280
     1
102
MATERIAL
148
0.0
149
0.0
149
0.0
 93
        0
 94
      127
282
     0
 72
     0
 77
     0
171
     0
175
     0
179
     0
273
     0
  0
XRECORD
  5
8224
102
{ACAD_REACTORS
330
8222
102
}
330
8222
100
AcDbXrecord
280
     1
270
     1
271
     1
  0
XRECORD
  5
8223
102
{ACAD_REACTORS
330
8222
102
}
330
8222
100
AcDbXrecord
280
     1
270
     1
271
     1
  0
XRECORD
  5
8227
102
{ACAD_REACTORS
330
8222
102
}
330
8222
100
AcDbXrecord
280
     1
270
     1
271
     1
  0
XRECORD
  5
8226
102
{ACAD_REACTORS
330
8222
102
}
330
8222
100
AcDbXrecord
280
     1
270
     1
271
     1
  0
XRECORD
  5
8228
102
{ACAD_REACTORS
330
8222
102
}
330
8222
100
AcDbXrecord
280
     1
270
     1
271
     1
  0
XRECORD
  5
8225
102
{ACAD_REACTORS
330
8222
102
}
330
8222
100
AcDbXrecord
280
     1
270
     1
271
     1
  0
XRECORD
  5
8382
102
{ACAD_REACTORS
330
821A
102
}
330
821A
100
AcDbXrecord
280
     1
102
MATERIAL
148
0.0
149
0.0
149
0.0
 93
        0
 94
      127
282
     0
 72
     0
 77
     0
171
     0
175
     0
179
     0
273
     0
  0
XRECORD
  5
821C
102
{ACAD_REACTORS
330
821A
102
}
330
821A
100
AcDbXrecord
280
     1
270
     1
271
     1
  0
XRECORD
  5
821B
102
{ACAD_REACTORS
330
821A
102
}
330
821A
100
AcDbXrecord
280
     1
270
     1
271
     1
  0
XRECORD
  5
821F
102
{ACAD_REACTORS
330
821A
102
}
330
821A
100
AcDbXrecord
280
     1
270
     1
271
     1
  0
XRECORD
  5
821E
102
{ACAD_REACTORS
330
821A
102
}
330
821A
100
AcDbXrecord
280
     1
270
     1
271
     1
  0
XRECORD
  5
8220
102
{ACAD_REACTORS
330
821A
102
}
330
821A
100
AcDbXrecord
280
     1
270
     1
271
     1
  0
XRECORD
  5
821D
102
{ACAD_REACTORS
330
821A
102
}
330
821A
100
AcDbXrecord
280
     1
270
     1
271
     1
  0
XRECORD
  5
8384
102
{ACAD_REACTORS
330
822A
102
}
330
822A
100
AcDbXrecord
280
     1
102
MATERIAL
148
0.0
149
0.0
149
0.0
 93
        0
 94
      127
282
     0
 72
     0
 77
     0
171
     0
175
     0
179
     0
273
     0
  0
XRECORD
  5
822C
102
{ACAD_REACTORS
330
822A
102
}
330
822A
100
AcDbXrecord
280
     1
270
     1
271
     1
  0
XRECORD
  5
822B
102
{ACAD_REACTORS
330
822A
102
}
330
822A
100
AcDbXrecord
280
     1
270
     1
271
     1
  0
XRECORD
  5
822F
102
{ACAD_REACTORS
330
822A
102
}
330
822A
100
AcDbXrecord
280
     1
270
     1
271
     1
  0
XRECORD
  5
822E
102
{ACAD_REACTORS
330
822A
102
}
330
822A
100
AcDbXrecord
280
     1
270
     1
271
     1
  0
XRECORD
  5
8230
102
{ACAD_REACTORS
330
822A
102
}
330
822A
100
AcDbXrecord
280
     1
270
     1
271
     1
  0
XRECORD
  5
822D
102
{ACAD_REACTORS
330
822A
102
}
330
822A
100
AcDbXrecord
280
     1
270
     1
271
     1
  0
XRECORD
  5
83B8
102
{ACAD_REACTORS
330
83B7
102
}
330
83B7
100
AcDbXrecord
280
     1
102
DISPLAYNAME
  1
Imperial24
102
FLAGS
 90
        0
  0
CELLSTYLEMAP
  5
837F
102
{ACAD_REACTORS
330
837E
102
}
330
837E
100
AcDbCellStyleMap
 90
        3
300
CELLSTYLE
  1
TABLEFORMAT_BEGIN
 90
        5
170
     1
 91
        0
 92
    32768
 62
   257
 93
        1
300
CONTENTFORMAT
  1
CONTENTFORMAT_BEGIN
 90
        0
 91
        0
 92
      512
 93
        0
300

 40
0.0
140
1.0
 94
        5
 62
     0
340
825D
144
0.25
309
CONTENTFORMAT_END
171
     0
 94
        0
309
TABLEFORMAT_END
  1
CELLSTYLE_BEGIN
 90
        1
 91
        1
300
_TITLE
309
CELLSTYLE_END
300
CELLSTYLE
  1
TABLEFORMAT_BEGIN
 90
        5
170
     1
 91
        0
 92
        0
 62
   257
 93
        1
300
CONTENTFORMAT
  1
CONTENTFORMAT_BEGIN
 90
        0
 91
        0
 92
      512
 93
        0
300

 40
0.0
140
1.0
 94
        5
 62
     0
340
825D
144
0.18
309
CONTENTFORMAT_END
171
     0
 94
        0
309
TABLEFORMAT_END
  1
CELLSTYLE_BEGIN
 90
        2
 91
        1
300
_HEADER
309
CELLSTYLE_END
300
CELLSTYLE
  1
TABLEFORMAT_BEGIN
 90
        5
170
     1
 91
        0
 92
        0
 62
   257
 93
        1
300
CONTENTFORMAT
  1
CONTENTFORMAT_BEGIN
 90
        0
 91
        0
 92
      512
 93
        0
300

 40
0.0
140
1.0
 94
        2
 62
     0
340
825D
144
0.18
309
CONTENTFORMAT_END
171
     0
 94
        0
309
TABLEFORMAT_END
  1
CELLSTYLE_BEGIN
 90
        3
 91
        2
300
_DATA
309
CELLSTYLE_END
  0
XRECORD
  5
83B5
102
{ACAD_REACTORS
330
837E
102
}
330
837E
100
AcDbXrecord
280
     1
102
ACAD_ROUNDTRIP_PRE2007_TABLESTYLE
 90
      512
 91
        0
  1

 92
      512
 93
        0
  2

 94
      512
 95
        0
  3

  0
XRECORD
  5
8390
102
{ACAD_REACTORS
330
838F
102
}
330
838F
100
AcDbXrecord
280
     1
102
RTVSPost2010Prop28
280
     1
102
RTVSPost2010PropOp28
 70
     1
102
RTVSPost2010Prop29
280
     1
102
RTVSPost2010PropOp29
 70
     1
102
RTVSPost2010Prop30
280
     0
102
RTVSPost2010PropOp30
 70
     1
102
RTVSPost2010Prop31
280
     0
102
RTVSPost2010PropOp31
 70
     1
102
RTVSPost2010Prop32
280
     0
102
RTVSPost2010PropOp32
 70
     1
102
RTVSPost2010Prop33
280
     0
102
RTVSPost2010PropOp33
 70
     1
102
RTVSPost2010Prop34
280
     0
102
RTVSPost2010PropOp34
 70
     1
102
RTVSPost2010Prop35
280
     0
102
RTVSPost2010PropOp35
 70
     1
102
RTVSPost2010Prop36
280
     0
102
RTVSPost2010PropOp36
 70
     1
102
RTVSPost2010Prop37
 90
       50
102
RTVSPost2010PropOp37
 70
     1
102
RTVSPost2010Prop38
140
0.0
102
RTVSPost2010PropOp38
 70
     1
102
RTVSPost2010Prop39
140
1.0
102
RTVSPost2010PropOp39
 70
     1
102
RTVSPost2010Prop40
 90
        0
102
RTVSPost2010PropOp40
 70
     1
102
RTVSPost2010Prop41ColorIndex
 90
       18
102
RTVSPost2010Prop41ColorRGB
 90
        0
102
RTVSPost2010PropOp41
 70
     1
102
RTVSPost2010Prop42
 90
       50
102
RTVSPost2010PropOp42
 70
     1
102
RTVSPost2010Prop43
 90
        3
102
RTVSPost2010PropOp43
 70
     1
102
RTVSPost2010Prop44ColorIndex
 90
        5
102
RTVSPost2010Prop44ColorRGB
 90
      255
102
RTVSPost2010PropOp44
 70
     1
102
RTVSPost2010Prop45
280
     0
102
RTVSPost2010PropOp45
 70
     1
102
RTVSPost2010Prop46
 90
       50
102
RTVSPost2010PropOp46
 70
     1
102
RTVSPost2010Prop47
 90
       50
102
RTVSPost2010PropOp47
 70
     1
102
RTVSPost2010Prop48
 90
       50
102
RTVSPost2010PropOp48
 70
     1
102
RTVSPost2010Prop49
280
     0
102
RTVSPost2010PropOp49
 70
     1
102
RTVSPost2010Prop50
 90
       50
102
RTVSPost2010PropOp50
 70
     1
102
RTVSPost2010Prop51ColorIndex
 90
      256
102
RTVSPost2010Prop51ColorRGB
 90
-16777216
102
RTVSPost2010PropOp51
 70
     0
102
RTVSPost2010Prop52
140
1.0
102
RTVSPost2010PropOp52
 70
     0
102
RTVSPost2010Prop53
 90
        2
102
RTVSPost2010PropOp53
 70
     1
102
RTVSPost2010Prop54
  1
strokes_ogs.tif
102
RTVSPost2010PropOp54
 70
     1
102
RTVSPost2010Prop55
280
     0
102
RTVSPost2010PropOp55
 70
     1
102
RTVSPost2010Prop56
140
1.0
102
RTVSPost2010PropOp56
 70
     1
102
RTVSPost2010Prop57
140
1.0
102
RTVSPost2010PropOp57
 70
     1
102
RTVSPropertyOp0
 70
     1
102
RTVSPropertyOp1
 70
     1
102
RTVSPropertyOp2
 70
     1
102
RTVSPropertyOp3
 70
     1
102
RTVSPropertyOp4
 70
     1
102
RTVSPropertyOp5
 70
     1
102
RTVSPropertyOp6
 70
     1
102
RTVSPropertyOp7
 70
     1
102
RTVSPropertyOp8
 70
     1
102
RTVSPropertyOp9
 70
     1
102
RTVSPropertyOp10
 70
     1
102
RTVSPropertyOp11
 70
     1
102
RTVSPropertyOp12
 70
     1
102
RTVSPropertyOp13
 70
     1
102
RTVSPropertyOp14
 70
     1
102
RTVSPropertyOp15
 70
     1
102
RTVSPropertyOp16
 70
     1
102
RTVSPropertyOp17
 70
     1
102
RTVSPropertyOp18
 70
     1
102
RTVSPropertyOp19
 70
     1
102
RTVSPropertyOp20
 70
     1
102
RTVSPropertyOp21
 70
     1
102
RTVSPropertyOp22
 70
     1
102
RTVSPropertyOp23
 70
     1
102
RTVSPropertyOp24
 70
     1
102
RTVSPropertyOp25
 70
     1
102
RTVSPropertyOp26
 70
     1
102
RTVSPropertyOp27
 70
     1
102
RTVSPropertyOp28
 70
     1
102
RTVSPropertyOp29
 70
     1
102
RTVSPropertyOp30
 70
     1
102
RTVSPropertyOp31
 70
     1
102
RTVSPropertyOp32
 70
     1
102
RTVSPropertyOp33
 70
     1
102
RTVSPropertyOp34
 70
     1
102
RTVSPropertyOp35
 70
     1
102
RTVSPropertyOp36
 70
     1
102
RTVSPropertyOp37
 70
     1
102
RTVSPropertyOp38
 70
     1
102
RTVSPropertyOp39
 70
     1
102
RTVSPropertyOp40
 70
     1
102
RTVSPropertyOp41
 70
     1
102
RTVSPropertyOp42
 70
     1
102
RTVSPropertyOp43
 70
     1
102
RTVSPropertyOp44
 70
     1
102
RTVSPropertyOp45
 70
     1
102
RTVSPropertyOp46
 70
     1
102
RTVSPropertyOp47
 70
     1
102
RTVSPropertyOp48
 70
     1
102
RTVSPropertyOp49
 70
     1
102
RTVSPropertyOp50
 70
     1
102
RTVSPropertyOp51
 70
     0
102
RTVSPropertyOp52
 70
     0
102
RTVSPropertyOp53
 70
     1
102
RTVSPropertyOp54
 70
     1
102
RTVSPropertyOp55
 70
     1
102
RTVSPropertyOp56
 70
     1
102
RTVSPropertyOp57
 70
     1
102
RTVSPropertyOp58
 70
     1
102
RTVSPropertyOp59
 70
     1
102
RTVSPropertyOp60
 70
     1
102
RTVSPropertyOp61
 70
     1
102
RTVSPropertyOp62
 70
     1
  0
XRECORD
  5
838E
102
{ACAD_REACTORS
330
838D
102
}
330
838D
100
AcDbXrecord
280
     1
102
RTVSPost2010Prop28
280
     0
102
RTVSPost2010PropOp28
 70
     1
102
RTVSPost2010Prop29
280
     1
102
RTVSPost2010PropOp29
 70
     1
102
RTVSPost2010Prop30
280
     1
102
RTVSPost2010PropOp30
 70
     1
102
RTVSPost2010Prop31
280
     0
102
RTVSPost2010PropOp31
 70
     1
102
RTVSPost2010Prop32
280
     0
102
RTVSPost2010PropOp32
 70
     1
102
RTVSPost2010Prop33
280
     0
102
RTVSPost2010PropOp33
 70
     1
102
RTVSPost2010Prop34
280
     0
102
RTVSPost2010PropOp34
 70
     1
102
RTVSPost2010Prop35
280
     0
102
RTVSPost2010PropOp35
 70
     1
102
RTVSPost2010Prop36
280
     0
102
RTVSPost2010PropOp36
 70
     1
102
RTVSPost2010Prop37
 90
       50
102
RTVSPost2010PropOp37
 70
     1
102
RTVSPost2010Prop38
140
0.0
102
RTVSPost2010PropOp38
 70
     1
102
RTVSPost2010Prop39
140
1.0
102
RTVSPost2010PropOp39
 70
     1
102
RTVSPost2010Prop40
 90
        0
102
RTVSPost2010PropOp40
 70
     1
102
RTVSPost2010Prop41ColorIndex
 90
       18
102
RTVSPost2010Prop41ColorRGB
 90
        0
102
RTVSPost2010PropOp41
 70
     1
102
RTVSPost2010Prop42
 90
       50
102
RTVSPost2010PropOp42
 70
     1
102
RTVSPost2010Prop43
 90
        3
102
RTVSPost2010PropOp43
 70
     1
102
RTVSPost2010Prop44ColorIndex
 90
        5
102
RTVSPost2010Prop44ColorRGB
 90
      255
102
RTVSPost2010PropOp44
 70
     1
102
RTVSPost2010Prop45
280
     0
102
RTVSPost2010PropOp45
 70
     1
102
RTVSPost2010Prop46
 90
       50
102
RTVSPost2010PropOp46
 70
     1
102
RTVSPost2010Prop47
 90
       50
102
RTVSPost2010PropOp47
 70
     1
102
RTVSPost2010Prop48
 90
       50
102
RTVSPost2010PropOp48
 70
     1
102
RTVSPost2010Prop49
280
     0
102
RTVSPost2010PropOp49
 70
     1
102
RTVSPost2010Prop50
 90
       50
102
RTVSPost2010PropOp50
 70
     1
102
RTVSPost2010Prop51ColorIndex
 90
      256
102
RTVSPost2010Prop51ColorRGB
 90
-16777216
102
RTVSPost2010PropOp51
 70
     0
102
RTVSPost2010Prop52
140
1.0
102
RTVSPost2010PropOp52
 70
     0
102
RTVSPost2010Prop53
 90
        2
102
RTVSPost2010PropOp53
 70
     1
102
RTVSPost2010Prop54
  1
strokes_ogs.tif
102
RTVSPost2010PropOp54
 70
     1
102
RTVSPost2010Prop55
280
     0
102
RTVSPost2010PropOp55
 70
     1
102
RTVSPost2010Prop56
140
1.0
102
RTVSPost2010PropOp56
 70
     1
102
RTVSPost2010Prop57
140
1.0
102
RTVSPost2010PropOp57
 70
     1
102
RTVSPropertyOp0
 70
     1
102
RTVSPropertyOp1
 70
     1
102
RTVSPropertyOp2
 70
     1
102
RTVSPropertyOp3
 70
     1
102
RTVSPropertyOp4
 70
     1
102
RTVSPropertyOp5
 70
     1
102
RTVSPropertyOp6
 70
     1
102
RTVSPropertyOp7
 70
     1
102
RTVSPropertyOp8
 70
     1
102
RTVSPropertyOp9
 70
     1
102
RTVSPropertyOp10
 70
     1
102
RTVSPropertyOp11
 70
     1
102
RTVSPropertyOp12
 70
     1
102
RTVSPropertyOp13
 70
     1
102
RTVSPropertyOp14
 70
     1
102
RTVSPropertyOp15
 70
     1
102
RTVSPropertyOp16
 70
     1
102
RTVSPropertyOp17
 70
     1
102
RTVSPropertyOp18
 70
     1
102
RTVSPropertyOp19
 70
     1
102
RTVSPropertyOp20
 70
     1
102
RTVSPropertyOp21
 70
     1
102
RTVSPropertyOp22
 70
     1
102
RTVSPropertyOp23
 70
     1
102
RTVSPropertyOp24
 70
     1
102
RTVSPropertyOp25
 70
     1
102
RTVSPropertyOp26
 70
     1
102
RTVSPropertyOp27
 70
     1
102
RTVSPropertyOp28
 70
     1
102
RTVSPropertyOp29
 70
     1
102
RTVSPropertyOp30
 70
     1
102
RTVSPropertyOp31
 70
     1
102
RTVSPropertyOp32
 70
     1
102
RTVSPropertyOp33
 70
     1
102
RTVSPropertyOp34
 70
     1
102
RTVSPropertyOp35
 70
     1
102
RTVSPropertyOp36
 70
     1
102
RTVSPropertyOp37
 70
     1
102
RTVSPropertyOp38
 70
     1
102
RTVSPropertyOp39
 70
     1
102
RTVSPropertyOp40
 70
     1
102
RTVSPropertyOp41
 70
     1
102
RTVSPropertyOp42
 70
     1
102
RTVSPropertyOp43
 70
     1
102
RTVSPropertyOp44
 70
     1
102
RTVSPropertyOp45
 70
     1
102
RTVSPropertyOp46
 70
     1
102
RTVSPropertyOp47
 70
     1
102
RTVSPropertyOp48
 70
     1
102
RTVSPropertyOp49
 70
     1
102
RTVSPropertyOp50
 70
     1
102
RTVSPropertyOp51
 70
     0
102
RTVSPropertyOp52
 70
     0
102
RTVSPropertyOp53
 70
     1
102
RTVSPropertyOp54
 70
     1
102
RTVSPropertyOp55
 70
     1
102
RTVSPropertyOp56
 70
     1
102
RTVSPropertyOp57
 70
     1
102
RTVSPropertyOp58
 70
     1
102
RTVSPropertyOp59
 70
     1
102
RTVSPropertyOp60
 70
     1
102
RTVSPropertyOp61
 70
     1
102
RTVSPropertyOp62
 70
     1
  0
XRECORD
  5
839C
102
{ACAD_REACTORS
330
839B
102
}
330
839B
100
AcDbXrecord
280
     1
102
RTVSPost2010Prop28
280
     0
102
RTVSPost2010PropOp28
 70
     1
102
RTVSPost2010Prop29
280
     1
102
RTVSPost2010PropOp29
 70
     1
102
RTVSPost2010Prop30
280
     1
102
RTVSPost2010PropOp30
 70
     1
102
RTVSPost2010Prop31
280
     0
102
RTVSPost2010PropOp31
 70
     1
102
RTVSPost2010Prop32
280
     0
102
RTVSPost2010PropOp32
 70
     1
102
RTVSPost2010Prop33
280
     0
102
RTVSPost2010PropOp33
 70
     1
102
RTVSPost2010Prop34
280
     0
102
RTVSPost2010PropOp34
 70
     1
102
RTVSPost2010Prop35
280
     0
102
RTVSPost2010PropOp35
 70
     1
102
RTVSPost2010Prop36
280
     0
102
RTVSPost2010PropOp36
 70
     1
102
RTVSPost2010Prop37
 90
       50
102
RTVSPost2010PropOp37
 70
     1
102
RTVSPost2010Prop38
140
0.0
102
RTVSPost2010PropOp38
 70
     1
102
RTVSPost2010Prop39
140
1.0
102
RTVSPost2010PropOp39
 70
     1
102
RTVSPost2010Prop40
 90
        0
102
RTVSPost2010PropOp40
 70
     1
102
RTVSPost2010Prop41ColorIndex
 90
       18
102
RTVSPost2010Prop41ColorRGB
 90
        0
102
RTVSPost2010PropOp41
 70
     1
102
RTVSPost2010Prop42
 90
       50
102
RTVSPost2010PropOp42
 70
     1
102
RTVSPost2010Prop43
 90
        3
102
RTVSPost2010PropOp43
 70
     1
102
RTVSPost2010Prop44ColorIndex
 90
        5
102
RTVSPost2010Prop44ColorRGB
 90
      255
102
RTVSPost2010PropOp44
 70
     1
102
RTVSPost2010Prop45
280
     0
102
RTVSPost2010PropOp45
 70
     1
102
RTVSPost2010Prop46
 90
       50
102
RTVSPost2010PropOp46
 70
     1
102
RTVSPost2010Prop47
 90
       50
102
RTVSPost2010PropOp47
 70
     1
102
RTVSPost2010Prop48
 90
       50
102
RTVSPost2010PropOp48
 70
     1
102
RTVSPost2010Prop49
280
     0
102
RTVSPost2010PropOp49
 70
     1
102
RTVSPost2010Prop50
 90
       50
102
RTVSPost2010PropOp50
 70
     1
102
RTVSPost2010Prop51ColorIndex
 90
      256
102
RTVSPost2010Prop51ColorRGB
 90
-16777216
102
RTVSPost2010PropOp51
 70
     0
102
RTVSPost2010Prop52
140
1.0
102
RTVSPost2010PropOp52
 70
     0
102
RTVSPost2010Prop53
 90
        2
102
RTVSPost2010PropOp53
 70
     1
102
RTVSPost2010Prop54
  1
strokes_ogs.tif
102
RTVSPost2010PropOp54
 70
     1
102
RTVSPost2010Prop55
280
     0
102
RTVSPost2010PropOp55
 70
     1
102
RTVSPost2010Prop56
140
1.0
102
RTVSPost2010PropOp56
 70
     1
102
RTVSPost2010Prop57
140
1.0
102
RTVSPost2010PropOp57
 70
     1
102
RTVSPropertyOp0
 70
     1
102
RTVSPropertyOp1
 70
     1
102
RTVSPropertyOp2
 70
     1
102
RTVSPropertyOp3
 70
     1
102
RTVSPropertyOp4
 70
     1
102
RTVSPropertyOp5
 70
     1
102
RTVSPropertyOp6
 70
     1
102
RTVSPropertyOp7
 70
     1
102
RTVSPropertyOp8
 70
     1
102
RTVSPropertyOp9
 70
     1
102
RTVSPropertyOp10
 70
     1
102
RTVSPropertyOp11
 70
     1
102
RTVSPropertyOp12
 70
     1
102
RTVSPropertyOp13
 70
     1
102
RTVSPropertyOp14
 70
     1
102
RTVSPropertyOp15
 70
     1
102
RTVSPropertyOp16
 70
     1
102
RTVSPropertyOp17
 70
     1
102
RTVSPropertyOp18
 70
     1
102
RTVSPropertyOp19
 70
     1
102
RTVSPropertyOp20
 70
     1
102
RTVSPropertyOp21
 70
     1
102
RTVSPropertyOp22
 70
     1
102
RTVSPropertyOp23
 70
     1
102
RTVSPropertyOp24
 70
     1
102
RTVSPropertyOp25
 70
     1
102
RTVSPropertyOp26
 70
     1
102
RTVSPropertyOp27
 70
     1
102
RTVSPropertyOp28
 70
     1
102
RTVSPropertyOp29
 70
     1
102
RTVSPropertyOp30
 70
     1
102
RTVSPropertyOp31
 70
     1
102
RTVSPropertyOp32
 70
     1
102
RTVSPropertyOp33
 70
     1
102
RTVSPropertyOp34
 70
     1
102
RTVSPropertyOp35
 70
     1
102
RTVSPropertyOp36
 70
     1
102
RTVSPropertyOp37
 70
     1
102
RTVSPropertyOp38
 70
     1
102
RTVSPropertyOp39
 70
     1
102
RTVSPropertyOp40
 70
     1
102
RTVSPropertyOp41
 70
     1
102
RTVSPropertyOp42
 70
     1
102
RTVSPropertyOp43
 70
     1
102
RTVSPropertyOp44
 70
     1
102
RTVSPropertyOp45
 70
     1
102
RTVSPropertyOp46
 70
     1
102
RTVSPropertyOp47
 70
     1
102
RTVSPropertyOp48
 70
     1
102
RTVSPropertyOp49
 70
     1
102
RTVSPropertyOp50
 70
     1
102
RTVSPropertyOp51
 70
     0
102
RTVSPropertyOp52
 70
     0
102
RTVSPropertyOp53
 70
     1
102
RTVSPropertyOp54
 70
     1
102
RTVSPropertyOp55
 70
     1
102
RTVSPropertyOp56
 70
     1
102
RTVSPropertyOp57
 70
     1
102
RTVSPropertyOp58
 70
     1
102
RTVSPropertyOp59
 70
     1
102
RTVSPropertyOp60
 70
     1
102
RTVSPropertyOp61
 70
     1
102
RTVSPropertyOp62
 70
     1
  0
XRECORD
  5
83A4
102
{ACAD_REACTORS
330
83A3
102
}
330
83A3
100
AcDbXrecord
280
     1
102
RTVSPost2010Prop28
280
     0
102
RTVSPost2010PropOp28
 70
     1
102
RTVSPost2010Prop29
280
     1
102
RTVSPost2010PropOp29
 70
     1
102
RTVSPost2010Prop30
280
     1
102
RTVSPost2010PropOp30
 70
     1
102
RTVSPost2010Prop31
280
     0
102
RTVSPost2010PropOp31
 70
     1
102
RTVSPost2010Prop32
280
     0
102
RTVSPost2010PropOp32
 70
     1
102
RTVSPost2010Prop33
280
     0
102
RTVSPost2010PropOp33
 70
     1
102
RTVSPost2010Prop34
280
     0
102
RTVSPost2010PropOp34
 70
     1
102
RTVSPost2010Prop35
280
     0
102
RTVSPost2010PropOp35
 70
     1
102
RTVSPost2010Prop36
280
     0
102
RTVSPost2010PropOp36
 70
     1
102
RTVSPost2010Prop37
 90
       50
102
RTVSPost2010PropOp37
 70
     1
102
RTVSPost2010Prop38
140
0.0
102
RTVSPost2010PropOp38
 70
     1
102
RTVSPost2010Prop39
140
1.0
102
RTVSPost2010PropOp39
 70
     1
102
RTVSPost2010Prop40
 90
        0
102
RTVSPost2010PropOp40
 70
     1
102
RTVSPost2010Prop41ColorIndex
 90
       18
102
RTVSPost2010Prop41ColorRGB
 90
        0
102
RTVSPost2010PropOp41
 70
     1
102
RTVSPost2010Prop42
 90
       50
102
RTVSPost2010PropOp42
 70
     1
102
RTVSPost2010Prop43
 90
        3
102
RTVSPost2010PropOp43
 70
     1
102
RTVSPost2010Prop44ColorIndex
 90
        5
102
RTVSPost2010Prop44ColorRGB
 90
      255
102
RTVSPost2010PropOp44
 70
     1
102
RTVSPost2010Prop45
280
     0
102
RTVSPost2010PropOp45
 70
     1
102
RTVSPost2010Prop46
 90
       50
102
RTVSPost2010PropOp46
 70
     1
102
RTVSPost2010Prop47
 90
       50
102
RTVSPost2010PropOp47
 70
     1
102
RTVSPost2010Prop48
 90
       50
102
RTVSPost2010PropOp48
 70
     1
102
RTVSPost2010Prop49
280
     0
102
RTVSPost2010PropOp49
 70
     1
102
RTVSPost2010Prop50
 90
       50
102
RTVSPost2010PropOp50
 70
     1
102
RTVSPost2010Prop51ColorIndex
 90
      256
102
RTVSPost2010Prop51ColorRGB
 90
-16777216
102
RTVSPost2010PropOp51
 70
     0
102
RTVSPost2010Prop52
140
1.0
102
RTVSPost2010PropOp52
 70
     0
102
RTVSPost2010Prop53
 90
        2
102
RTVSPost2010PropOp53
 70
     1
102
RTVSPost2010Prop54
  1
strokes_ogs.tif
102
RTVSPost2010PropOp54
 70
     1
102
RTVSPost2010Prop55
280
     0
102
RTVSPost2010PropOp55
 70
     1
102
RTVSPost2010Prop56
140
1.0
102
RTVSPost2010PropOp56
 70
     1
102
RTVSPost2010Prop57
140
1.0
102
RTVSPost2010PropOp57
 70
     1
102
RTVSPropertyOp0
 70
     1
102
RTVSPropertyOp1
 70
     1
102
RTVSPropertyOp2
 70
     1
102
RTVSPropertyOp3
 70
     1
102
RTVSPropertyOp4
 70
     1
102
RTVSPropertyOp5
 70
     1
102
RTVSPropertyOp6
 70
     1
102
RTVSPropertyOp7
 70
     1
102
RTVSPropertyOp8
 70
     1
102
RTVSPropertyOp9
 70
     1
102
RTVSPropertyOp10
 70
     1
102
RTVSPropertyOp11
 70
     1
102
RTVSPropertyOp12
 70
     1
102
RTVSPropertyOp13
 70
     1
102
RTVSPropertyOp14
 70
     1
102
RTVSPropertyOp15
 70
     1
102
RTVSPropertyOp16
 70
     1
102
RTVSPropertyOp17
 70
     1
102
RTVSPropertyOp18
 70
     1
102
RTVSPropertyOp19
 70
     1
102
RTVSPropertyOp20
 70
     1
102
RTVSPropertyOp21
 70
     1
102
RTVSPropertyOp22
 70
     1
102
RTVSPropertyOp23
 70
     1
102
RTVSPropertyOp24
 70
     1
102
RTVSPropertyOp25
 70
     1
102
RTVSPropertyOp26
 70
     1
102
RTVSPropertyOp27
 70
     1
102
RTVSPropertyOp28
 70
     1
102
RTVSPropertyOp29
 70
     1
102
RTVSPropertyOp30
 70
     1
102
RTVSPropertyOp31
 70
     1
102
RTVSPropertyOp32
 70
     1
102
RTVSPropertyOp33
 70
     1
102
RTVSPropertyOp34
 70
     1
102
RTVSPropertyOp35
 70
     1
102
RTVSPropertyOp36
 70
     1
102
RTVSPropertyOp37
 70
     1
102
RTVSPropertyOp38
 70
     1
102
RTVSPropertyOp39
 70
     1
102
RTVSPropertyOp40
 70
     1
102
RTVSPropertyOp41
 70
     1
102
RTVSPropertyOp42
 70
     1
102
RTVSPropertyOp43
 70
     1
102
RTVSPropertyOp44
 70
     1
102
RTVSPropertyOp45
 70
     1
102
RTVSPropertyOp46
 70
     1
102
RTVSPropertyOp47
 70
     1
102
RTVSPropertyOp48
 70
     1
102
RTVSPropertyOp49
 70
     1
102
RTVSPropertyOp50
 70
     1
102
RTVSPropertyOp51
 70
     0
102
RTVSPropertyOp52
 70
     0
102
RTVSPropertyOp53
 70
     1
102
RTVSPropertyOp54
 70
     1
102
RTVSPropertyOp55
 70
     1
102
RTVSPropertyOp56
 70
     1
102
RTVSPropertyOp57
 70
     1
102
RTVSPropertyOp58
 70
     1
102
RTVSPropertyOp59
 70
     1
102
RTVSPropertyOp60
 70
     1
102
RTVSPropertyOp61
 70
     1
102
RTVSPropertyOp62
 70
     1
  0
XRECORD
  5
8396
102
{ACAD_REACTORS
330
8395
102
}
330
8395
100
AcDbXrecord
280
     1
102
RTVSPost2010Prop28
280
     0
102
RTVSPost2010PropOp28
 70
     1
102
RTVSPost2010Prop29
280
     1
102
RTVSPost2010PropOp29
 70
     1
102
RTVSPost2010Prop30
280
     1
102
RTVSPost2010PropOp30
 70
     1
102
RTVSPost2010Prop31
280
     0
102
RTVSPost2010PropOp31
 70
     1
102
RTVSPost2010Prop32
280
     0
102
RTVSPost2010PropOp32
 70
     1
102
RTVSPost2010Prop33
280
     0
102
RTVSPost2010PropOp33
 70
     1
102
RTVSPost2010Prop34
280
     0
102
RTVSPost2010PropOp34
 70
     1
102
RTVSPost2010Prop35
280
     0
102
RTVSPost2010PropOp35
 70
     1
102
RTVSPost2010Prop36
280
     0
102
RTVSPost2010PropOp36
 70
     1
102
RTVSPost2010Prop37
 90
       50
102
RTVSPost2010PropOp37
 70
     1
102
RTVSPost2010Prop38
140
0.0
102
RTVSPost2010PropOp38
 70
     1
102
RTVSPost2010Prop39
140
1.0
102
RTVSPost2010PropOp39
 70
     1
102
RTVSPost2010Prop40
 90
        0
102
RTVSPost2010PropOp40
 70
     1
102
RTVSPost2010Prop41ColorIndex
 90
       18
102
RTVSPost2010Prop41ColorRGB
 90
        0
102
RTVSPost2010PropOp41
 70
     1
102
RTVSPost2010Prop42
 90
       50
102
RTVSPost2010PropOp42
 70
     1
102
RTVSPost2010Prop43
 90
        3
102
RTVSPost2010PropOp43
 70
     1
102
RTVSPost2010Prop44ColorIndex
 90
        5
102
RTVSPost2010Prop44ColorRGB
 90
      255
102
RTVSPost2010PropOp44
 70
     1
102
RTVSPost2010Prop45
280
     0
102
RTVSPost2010PropOp45
 70
     1
102
RTVSPost2010Prop46
 90
       50
102
RTVSPost2010PropOp46
 70
     1
102
RTVSPost2010Prop47
 90
       50
102
RTVSPost2010PropOp47
 70
     1
102
RTVSPost2010Prop48
 90
       50
102
RTVSPost2010PropOp48
 70
     1
102
RTVSPost2010Prop49
280
     0
102
RTVSPost2010PropOp49
 70
     1
102
RTVSPost2010Prop50
 90
       50
102
RTVSPost2010PropOp50
 70
     1
102
RTVSPost2010Prop51ColorIndex
 90
      256
102
RTVSPost2010Prop51ColorRGB
 90
-16777216
102
RTVSPost2010PropOp51
 70
     0
102
RTVSPost2010Prop52
140
1.0
102
RTVSPost2010PropOp52
 70
     0
102
RTVSPost2010Prop53
 90
        2
102
RTVSPost2010PropOp53
 70
     1
102
RTVSPost2010Prop54
  1
strokes_ogs.tif
102
RTVSPost2010PropOp54
 70
     1
102
RTVSPost2010Prop55
280
     0
102
RTVSPost2010PropOp55
 70
     1
102
RTVSPost2010Prop56
140
1.0
102
RTVSPost2010PropOp56
 70
     1
102
RTVSPost2010Prop57
140
1.0
102
RTVSPost2010PropOp57
 70
     1
102
RTVSPropertyOp0
 70
     1
102
RTVSPropertyOp1
 70
     1
102
RTVSPropertyOp2
 70
     1
102
RTVSPropertyOp3
 70
     1
102
RTVSPropertyOp4
 70
     1
102
RTVSPropertyOp5
 70
     1
102
RTVSPropertyOp6
 70
     1
102
RTVSPropertyOp7
 70
     1
102
RTVSPropertyOp8
 70
     1
102
RTVSPropertyOp9
 70
     1
102
RTVSPropertyOp10
 70
     1
102
RTVSPropertyOp11
 70
     1
102
RTVSPropertyOp12
 70
     1
102
RTVSPropertyOp13
 70
     1
102
RTVSPropertyOp14
 70
     1
102
RTVSPropertyOp15
 70
     1
102
RTVSPropertyOp16
 70
     1
102
RTVSPropertyOp17
 70
     1
102
RTVSPropertyOp18
 70
     1
102
RTVSPropertyOp19
 70
     1
102
RTVSPropertyOp20
 70
     1
102
RTVSPropertyOp21
 70
     1
102
RTVSPropertyOp22
 70
     1
102
RTVSPropertyOp23
 70
     1
102
RTVSPropertyOp24
 70
     1
102
RTVSPropertyOp25
 70
     1
102
RTVSPropertyOp26
 70
     1
102
RTVSPropertyOp27
 70
     1
102
RTVSPropertyOp28
 70
     1
102
RTVSPropertyOp29
 70
     1
102
RTVSPropertyOp30
 70
     1
102
RTVSPropertyOp31
 70
     1
102
RTVSPropertyOp32
 70
     1
102
RTVSPropertyOp33
 70
     1
102
RTVSPropertyOp34
 70
     1
102
RTVSPropertyOp35
 70
     1
102
RTVSPropertyOp36
 70
     1
102
RTVSPropertyOp37
 70
     1
102
RTVSPropertyOp38
 70
     1
102
RTVSPropertyOp39
 70
     1
102
RTVSPropertyOp40
 70
     1
102
RTVSPropertyOp41
 70
     1
102
RTVSPropertyOp42
 70
     1
102
RTVSPropertyOp43
 70
     1
102
RTVSPropertyOp44
 70
     1
102
RTVSPropertyOp45
 70
     1
102
RTVSPropertyOp46
 70
     1
102
RTVSPropertyOp47
 70
     1
102
RTVSPropertyOp48
 70
     1
102
RTVSPropertyOp49
 70
     1
102
RTVSPropertyOp50
 70
     1
102
RTVSPropertyOp51
 70
     0
102
RTVSPropertyOp52
 70
     0
102
RTVSPropertyOp53
 70
     1
102
RTVSPropertyOp54
 70
     1
102
RTVSPropertyOp55
 70
     1
102
RTVSPropertyOp56
 70
     1
102
RTVSPropertyOp57
 70
     1
102
RTVSPropertyOp58
 70
     1
102
RTVSPropertyOp59
 70
     1
102
RTVSPropertyOp60
 70
     1
102
RTVSPropertyOp61
 70
     1
102
RTVSPropertyOp62
 70
     1
  0
XRECORD
  5
839A
102
{ACAD_REACTORS
330
8399
102
}
330
8399
100
AcDbXrecord
280
     1
102
RTVSPost2010Prop28
280
     0
102
RTVSPost2010PropOp28
 70
     1
102
RTVSPost2010Prop29
280
     1
102
RTVSPost2010PropOp29
 70
     1
102
RTVSPost2010Prop30
280
     1
102
RTVSPost2010PropOp30
 70
     1
102
RTVSPost2010Prop31
280
     0
102
RTVSPost2010PropOp31
 70
     1
102
RTVSPost2010Prop32
280
     0
102
RTVSPost2010PropOp32
 70
     1
102
RTVSPost2010Prop33
280
     0
102
RTVSPost2010PropOp33
 70
     1
102
RTVSPost2010Prop34
280
     0
102
RTVSPost2010PropOp34
 70
     1
102
RTVSPost2010Prop35
280
     0
102
RTVSPost2010PropOp35
 70
     1
102
RTVSPost2010Prop36
280
     0
102
RTVSPost2010PropOp36
 70
     1
102
RTVSPost2010Prop37
 90
       50
102
RTVSPost2010PropOp37
 70
     1
102
RTVSPost2010Prop38
140
0.0
102
RTVSPost2010PropOp38
 70
     1
102
RTVSPost2010Prop39
140
1.0
102
RTVSPost2010PropOp39
 70
     1
102
RTVSPost2010Prop40
 90
        0
102
RTVSPost2010PropOp40
 70
     1
102
RTVSPost2010Prop41ColorIndex
 90
       18
102
RTVSPost2010Prop41ColorRGB
 90
        0
102
RTVSPost2010PropOp41
 70
     1
102
RTVSPost2010Prop42
 90
       50
102
RTVSPost2010PropOp42
 70
     1
102
RTVSPost2010Prop43
 90
        3
102
RTVSPost2010PropOp43
 70
     1
102
RTVSPost2010Prop44ColorIndex
 90
        5
102
RTVSPost2010Prop44ColorRGB
 90
      255
102
RTVSPost2010PropOp44
 70
     1
102
RTVSPost2010Prop45
280
     0
102
RTVSPost2010PropOp45
 70
     1
102
RTVSPost2010Prop46
 90
       50
102
RTVSPost2010PropOp46
 70
     1
102
RTVSPost2010Prop47
 90
       50
102
RTVSPost2010PropOp47
 70
     1
102
RTVSPost2010Prop48
 90
       50
102
RTVSPost2010PropOp48
 70
     1
102
RTVSPost2010Prop49
280
     0
102
RTVSPost2010PropOp49
 70
     1
102
RTVSPost2010Prop50
 90
       50
102
RTVSPost2010PropOp50
 70
     1
102
RTVSPost2010Prop51ColorIndex
 90
      256
102
RTVSPost2010Prop51ColorRGB
 90
-16777216
102
RTVSPost2010PropOp51
 70
     0
102
RTVSPost2010Prop52
140
1.0
102
RTVSPost2010PropOp52
 70
     0
102
RTVSPost2010Prop53
 90
        2
102
RTVSPost2010PropOp53
 70
     1
102
RTVSPost2010Prop54
  1
strokes_ogs.tif
102
RTVSPost2010PropOp54
 70
     1
102
RTVSPost2010Prop55
280
     0
102
RTVSPost2010PropOp55
 70
     1
102
RTVSPost2010Prop56
140
1.0
102
RTVSPost2010PropOp56
 70
     1
102
RTVSPost2010Prop57
140
1.0
102
RTVSPost2010PropOp57
 70
     1
102
RTVSPropertyOp0
 70
     1
102
RTVSPropertyOp1
 70
     1
102
RTVSPropertyOp2
 70
     1
102
RTVSPropertyOp3
 70
     1
102
RTVSPropertyOp4
 70
     1
102
RTVSPropertyOp5
 70
     1
102
RTVSPropertyOp6
 70
     1
102
RTVSPropertyOp7
 70
     1
102
RTVSPropertyOp8
 70
     1
102
RTVSPropertyOp9
 70
     1
102
RTVSPropertyOp10
 70
     1
102
RTVSPropertyOp11
 70
     1
102
RTVSPropertyOp12
 70
     1
102
RTVSPropertyOp13
 70
     1
102
RTVSPropertyOp14
 70
     1
102
RTVSPropertyOp15
 70
     1
102
RTVSPropertyOp16
 70
     1
102
RTVSPropertyOp17
 70
     1
102
RTVSPropertyOp18
 70
     1
102
RTVSPropertyOp19
 70
     1
102
RTVSPropertyOp20
 70
     1
102
RTVSPropertyOp21
 70
     1
102
RTVSPropertyOp22
 70
     1
102
RTVSPropertyOp23
 70
     1
102
RTVSPropertyOp24
 70
     1
102
RTVSPropertyOp25
 70
     1
102
RTVSPropertyOp26
 70
     1
102
RTVSPropertyOp27
 70
     1
102
RTVSPropertyOp28
 70
     1
102
RTVSPropertyOp29
 70
     1
102
RTVSPropertyOp30
 70
     1
102
RTVSPropertyOp31
 70
     1
102
RTVSPropertyOp32
 70
     1
102
RTVSPropertyOp33
 70
     1
102
RTVSPropertyOp34
 70
     1
102
RTVSPropertyOp35
 70
     1
102
RTVSPropertyOp36
 70
     1
102
RTVSPropertyOp37
 70
     1
102
RTVSPropertyOp38
 70
     1
102
RTVSPropertyOp39
 70
     1
102
RTVSPropertyOp40
 70
     1
102
RTVSPropertyOp41
 70
     1
102
RTVSPropertyOp42
 70
     1
102
RTVSPropertyOp43
 70
     1
102
RTVSPropertyOp44
 70
     1
102
RTVSPropertyOp45
 70
     1
102
RTVSPropertyOp46
 70
     1
102
RTVSPropertyOp47
 70
     1
102
RTVSPropertyOp48
 70
     1
102
RTVSPropertyOp49
 70
     1
102
RTVSPropertyOp50
 70
     1
102
RTVSPropertyOp51
 70
     0
102
RTVSPropertyOp52
 70
     0
102
RTVSPropertyOp53
 70
     1
102
RTVSPropertyOp54
 70
     1
102
RTVSPropertyOp55
 70
     1
102
RTVSPropertyOp56
 70
     1
102
RTVSPropertyOp57
 70
     1
102
RTVSPropertyOp58
 70
     1
102
RTVSPropertyOp59
 70
     1
102
RTVSPropertyOp60
 70
     1
102
RTVSPropertyOp61
 70
     1
102
RTVSPropertyOp62
 70
     1
  0
XRECORD
  5
83B4
102
{ACAD_REACTORS
330
83B3
102
}
330
83B3
100
AcDbXrecord
280
     1
102
RTVSPost2010Prop28
280
     0
102
RTVSPost2010PropOp28
 70
     1
102
RTVSPost2010Prop29
280
     1
102
RTVSPost2010PropOp29
 70
     1
102
RTVSPost2010Prop30
280
     1
102
RTVSPost2010PropOp30
 70
     1
102
RTVSPost2010Prop31
280
     0
102
RTVSPost2010PropOp31
 70
     1
102
RTVSPost2010Prop32
280
     0
102
RTVSPost2010PropOp32
 70
     1
102
RTVSPost2010Prop33
280
     0
102
RTVSPost2010PropOp33
 70
     1
102
RTVSPost2010Prop34
280
     0
102
RTVSPost2010PropOp34
 70
     1
102
RTVSPost2010Prop35
280
     0
102
RTVSPost2010PropOp35
 70
     1
102
RTVSPost2010Prop36
280
     0
102
RTVSPost2010PropOp36
 70
     1
102
RTVSPost2010Prop37
 90
       50
102
RTVSPost2010PropOp37
 70
     0
102
RTVSPost2010Prop38
140
0.0
102
RTVSPost2010PropOp38
 70
     0
102
RTVSPost2010Prop39
140
1.0
102
RTVSPost2010PropOp39
 70
     0
102
RTVSPost2010Prop40
 90
        0
102
RTVSPost2010PropOp40
 70
     0
102
RTVSPost2010Prop41ColorIndex
 90
       18
102
RTVSPost2010Prop41ColorRGB
 90
        0
102
RTVSPost2010PropOp41
 70
     0
102
RTVSPost2010Prop42
 90
       50
102
RTVSPost2010PropOp42
 70
     0
102
RTVSPost2010Prop43
 90
        3
102
RTVSPost2010PropOp43
 70
     0
102
RTVSPost2010Prop44ColorIndex
 90
        5
102
RTVSPost2010Prop44ColorRGB
 90
      255
102
RTVSPost2010PropOp44
 70
     0
102
RTVSPost2010Prop45
280
     0
102
RTVSPost2010PropOp45
 70
     1
102
RTVSPost2010Prop46
 90
       50
102
RTVSPost2010PropOp46
 70
     0
102
RTVSPost2010Prop47
 90
       50
102
RTVSPost2010PropOp47
 70
     0
102
RTVSPost2010Prop48
 90
       50
102
RTVSPost2010PropOp48
 70
     0
102
RTVSPost2010Prop49
280
     0
102
RTVSPost2010PropOp49
 70
     1
102
RTVSPost2010Prop50
 90
       50
102
RTVSPost2010PropOp50
 70
     0
102
RTVSPost2010Prop51ColorIndex
 90
      256
102
RTVSPost2010Prop51ColorRGB
 90
-16777216
102
RTVSPost2010PropOp51
 70
     0
102
RTVSPost2010Prop52
140
1.0
102
RTVSPost2010PropOp52
 70
     0
102
RTVSPost2010Prop53
 90
        2
102
RTVSPost2010PropOp53
 70
     0
102
RTVSPost2010Prop54
  1
strokes_ogs.tif
102
RTVSPost2010PropOp54
 70
     0
102
RTVSPost2010Prop55
280
     0
102
RTVSPost2010PropOp55
 70
     1
102
RTVSPost2010Prop56
140
1.0
102
RTVSPost2010PropOp56
 70
     0
102
RTVSPost2010Prop57
140
1.0
102
RTVSPost2010PropOp57
 70
     0
102
RTVSPropertyOp0
 70
     0
102
RTVSPropertyOp1
 70
     0
102
RTVSPropertyOp2
 70
     0
102
RTVSPropertyOp3
 70
     0
102
RTVSPropertyOp4
 70
     0
102
RTVSPropertyOp5
 70
     0
102
RTVSPropertyOp6
 70
     0
102
RTVSPropertyOp7
 70
     0
102
RTVSPropertyOp8
 70
     0
102
RTVSPropertyOp9
 70
     0
102
RTVSPropertyOp10
 70
     0
102
RTVSPropertyOp11
 70
     0
102
RTVSPropertyOp12
 70
     0
102
RTVSPropertyOp13
 70
     0
102
RTVSPropertyOp14
 70
     2
102
RTVSPropertyOp15
 70
     0
102
RTVSPropertyOp16
 70
     0
102
RTVSPropertyOp17
 70
     0
102
RTVSPropertyOp18
 70
     0
102
RTVSPropertyOp19
 70
     0
102
RTVSPropertyOp20
 70
     0
102
RTVSPropertyOp21
 70
     0
102
RTVSPropertyOp22
 70
     0
102
RTVSPropertyOp23
 70
     0
102
RTVSPropertyOp24
 70
     0
102
RTVSPropertyOp25
 70
     0
102
RTVSPropertyOp26
 70
     0
102
RTVSPropertyOp27
 70
     0
102
RTVSPropertyOp28
 70
     1
102
RTVSPropertyOp29
 70
     1
102
RTVSPropertyOp30
 70
     1
102
RTVSPropertyOp31
 70
     1
102
RTVSPropertyOp32
 70
     1
102
RTVSPropertyOp33
 70
     1
102
RTVSPropertyOp34
 70
     1
102
RTVSPropertyOp35
 70
     1
102
RTVSPropertyOp36
 70
     1
102
RTVSPropertyOp37
 70
     0
102
RTVSPropertyOp38
 70
     0
102
RTVSPropertyOp39
 70
     0
102
RTVSPropertyOp40
 70
     0
102
RTVSPropertyOp41
 70
     0
102
RTVSPropertyOp42
 70
     0
102
RTVSPropertyOp43
 70
     0
102
RTVSPropertyOp44
 70
     0
102
RTVSPropertyOp45
 70
     1
102
RTVSPropertyOp46
 70
     0
102
RTVSPropertyOp47
 70
     0
102
RTVSPropertyOp48
 70
     0
102
RTVSPropertyOp49
 70
     1
102
RTVSPropertyOp50
 70
     0
102
RTVSPropertyOp51
 70
     0
102
RTVSPropertyOp52
 70
     0
102
RTVSPropertyOp53
 70
     0
102
RTVSPropertyOp54
 70
     0
102
RTVSPropertyOp55
 70
     1
102
RTVSPropertyOp56
 70
     0
102
RTVSPropertyOp57
 70
     0
102
RTVSPropertyOp58
 70
     0
102
RTVSPropertyOp59
 70
     0
102
RTVSPropertyOp60
 70
     0
102
RTVSPropertyOp61
 70
     0
102
RTVSPropertyOp62
 70
     0
  0
XRECORD
  5
83A2
102
{ACAD_REACTORS
330
83A1
102
}
330
83A1
100
AcDbXrecord
280
     1
102
RTVSPost2010Prop28
280
     0
102
RTVSPost2010PropOp28
 70
     1
102
RTVSPost2010Prop29
280
     1
102
RTVSPost2010PropOp29
 70
     1
102
RTVSPost2010Prop30
280
     1
102
RTVSPost2010PropOp30
 70
     1
102
RTVSPost2010Prop31
280
     0
102
RTVSPost2010PropOp31
 70
     1
102
RTVSPost2010Prop32
280
     0
102
RTVSPost2010PropOp32
 70
     1
102
RTVSPost2010Prop33
280
     0
102
RTVSPost2010PropOp33
 70
     1
102
RTVSPost2010Prop34
280
     0
102
RTVSPost2010PropOp34
 70
     1
102
RTVSPost2010Prop35
280
     0
102
RTVSPost2010PropOp35
 70
     1
102
RTVSPost2010Prop36
280
     0
102
RTVSPost2010PropOp36
 70
     1
102
RTVSPost2010Prop37
 90
       50
102
RTVSPost2010PropOp37
 70
     1
102
RTVSPost2010Prop38
140
0.0
102
RTVSPost2010PropOp38
 70
     1
102
RTVSPost2010Prop39
140
1.0
102
RTVSPost2010PropOp39
 70
     1
102
RTVSPost2010Prop40
 90
        0
102
RTVSPost2010PropOp40
 70
     1
102
RTVSPost2010Prop41ColorIndex
 90
       18
102
RTVSPost2010Prop41ColorRGB
 90
        0
102
RTVSPost2010PropOp41
 70
     1
102
RTVSPost2010Prop42
 90
       50
102
RTVSPost2010PropOp42
 70
     1
102
RTVSPost2010Prop43
 90
        3
102
RTVSPost2010PropOp43
 70
     1
102
RTVSPost2010Prop44ColorIndex
 90
        5
102
RTVSPost2010Prop44ColorRGB
 90
      255
102
RTVSPost2010PropOp44
 70
     1
102
RTVSPost2010Prop45
280
     0
102
RTVSPost2010PropOp45
 70
     1
102
RTVSPost2010Prop46
 90
       50
102
RTVSPost2010PropOp46
 70
     1
102
RTVSPost2010Prop47
 90
       50
102
RTVSPost2010PropOp47
 70
     1
102
RTVSPost2010Prop48
 90
       50
102
RTVSPost2010PropOp48
 70
     1
102
RTVSPost2010Prop49
280
     0
102
RTVSPost2010PropOp49
 70
     1
102
RTVSPost2010Prop50
 90
       50
102
RTVSPost2010PropOp50
 70
     1
102
RTVSPost2010Prop51ColorIndex
 90
      256
102
RTVSPost2010Prop51ColorRGB
 90
-16777216
102
RTVSPost2010PropOp51
 70
     0
102
RTVSPost2010Prop52
140
1.0
102
RTVSPost2010PropOp52
 70
     0
102
RTVSPost2010Prop53
 90
        2
102
RTVSPost2010PropOp53
 70
     1
102
RTVSPost2010Prop54
  1
strokes_ogs.tif
102
RTVSPost2010PropOp54
 70
     1
102
RTVSPost2010Prop55
280
     0
102
RTVSPost2010PropOp55
 70
     1
102
RTVSPost2010Prop56
140
1.0
102
RTVSPost2010PropOp56
 70
     1
102
RTVSPost2010Prop57
140
1.0
102
RTVSPost2010PropOp57
 70
     1
102
RTVSPropertyOp0
 70
     1
102
RTVSPropertyOp1
 70
     1
102
RTVSPropertyOp2
 70
     1
102
RTVSPropertyOp3
 70
     1
102
RTVSPropertyOp4
 70
     1
102
RTVSPropertyOp5
 70
     1
102
RTVSPropertyOp6
 70
     1
102
RTVSPropertyOp7
 70
     1
102
RTVSPropertyOp8
 70
     1
102
RTVSPropertyOp9
 70
     1
102
RTVSPropertyOp10
 70
     1
102
RTVSPropertyOp11
 70
     1
102
RTVSPropertyOp12
 70
     1
102
RTVSPropertyOp13
 70
     1
102
RTVSPropertyOp14
 70
     1
102
RTVSPropertyOp15
 70
     1
102
RTVSPropertyOp16
 70
     1
102
RTVSPropertyOp17
 70
     1
102
RTVSPropertyOp18
 70
     1
102
RTVSPropertyOp19
 70
     1
102
RTVSPropertyOp20
 70
     1
102
RTVSPropertyOp21
 70
     1
102
RTVSPropertyOp22
 70
     1
102
RTVSPropertyOp23
 70
     1
102
RTVSPropertyOp24
 70
     1
102
RTVSPropertyOp25
 70
     1
102
RTVSPropertyOp26
 70
     1
102
RTVSPropertyOp27
 70
     1
102
RTVSPropertyOp28
 70
     1
102
RTVSPropertyOp29
 70
     1
102
RTVSPropertyOp30
 70
     1
102
RTVSPropertyOp31
 70
     1
102
RTVSPropertyOp32
 70
     1
102
RTVSPropertyOp33
 70
     1
102
RTVSPropertyOp34
 70
     1
102
RTVSPropertyOp35
 70
     1
102
RTVSPropertyOp36
 70
     1
102
RTVSPropertyOp37
 70
     1
102
RTVSPropertyOp38
 70
     1
102
RTVSPropertyOp39
 70
     1
102
RTVSPropertyOp40
 70
     1
102
RTVSPropertyOp41
 70
     1
102
RTVSPropertyOp42
 70
     1
102
RTVSPropertyOp43
 70
     1
102
RTVSPropertyOp44
 70
     1
102
RTVSPropertyOp45
 70
     1
102
RTVSPropertyOp46
 70
     1
102
RTVSPropertyOp47
 70
     1
102
RTVSPropertyOp48
 70
     1
102
RTVSPropertyOp49
 70
     1
102
RTVSPropertyOp50
 70
     1
102
RTVSPropertyOp51
 70
     0
102
RTVSPropertyOp52
 70
     0
102
RTVSPropertyOp53
 70
     1
102
RTVSPropertyOp54
 70
     1
102
RTVSPropertyOp55
 70
     1
102
RTVSPropertyOp56
 70
     1
102
RTVSPropertyOp57
 70
     1
102
RTVSPropertyOp58
 70
     1
102
RTVSPropertyOp59
 70
     1
102
RTVSPropertyOp60
 70
     1
102
RTVSPropertyOp61
 70
     1
102
RTVSPropertyOp62
 70
     1
  0
XRECORD
  5
8386
102
{ACAD_REACTORS
330
8385
102
}
330
8385
100
AcDbXrecord
280
     1
102
RTVSPost2010Prop28
280
     0
102
RTVSPost2010PropOp28
 70
     1
102
RTVSPost2010Prop29
280
     1
102
RTVSPost2010PropOp29
 70
     1
102
RTVSPost2010Prop30
280
     1
102
RTVSPost2010PropOp30
 70
     1
102
RTVSPost2010Prop31
280
     0
102
RTVSPost2010PropOp31
 70
     1
102
RTVSPost2010Prop32
280
     0
102
RTVSPost2010PropOp32
 70
     1
102
RTVSPost2010Prop33
280
     0
102
RTVSPost2010PropOp33
 70
     1
102
RTVSPost2010Prop34
280
     0
102
RTVSPost2010PropOp34
 70
     1
102
RTVSPost2010Prop35
280
     0
102
RTVSPost2010PropOp35
 70
     1
102
RTVSPost2010Prop36
280
     0
102
RTVSPost2010PropOp36
 70
     1
102
RTVSPost2010Prop37
 90
       50
102
RTVSPost2010PropOp37
 70
     1
102
RTVSPost2010Prop38
140
0.0
102
RTVSPost2010PropOp38
 70
     1
102
RTVSPost2010Prop39
140
1.0
102
RTVSPost2010PropOp39
 70
     1
102
RTVSPost2010Prop40
 90
        0
102
RTVSPost2010PropOp40
 70
     1
102
RTVSPost2010Prop41ColorIndex
 90
       18
102
RTVSPost2010Prop41ColorRGB
 90
        0
102
RTVSPost2010PropOp41
 70
     1
102
RTVSPost2010Prop42
 90
       50
102
RTVSPost2010PropOp42
 70
     1
102
RTVSPost2010Prop43
 90
        3
102
RTVSPost2010PropOp43
 70
     1
102
RTVSPost2010Prop44ColorIndex
 90
        5
102
RTVSPost2010Prop44ColorRGB
 90
      255
102
RTVSPost2010PropOp44
 70
     1
102
RTVSPost2010Prop45
280
     0
102
RTVSPost2010PropOp45
 70
     1
102
RTVSPost2010Prop46
 90
       50
102
RTVSPost2010PropOp46
 70
     1
102
RTVSPost2010Prop47
 90
       50
102
RTVSPost2010PropOp47
 70
     1
102
RTVSPost2010Prop48
 90
       50
102
RTVSPost2010PropOp48
 70
     1
102
RTVSPost2010Prop49
280
     0
102
RTVSPost2010PropOp49
 70
     1
102
RTVSPost2010Prop50
 90
       50
102
RTVSPost2010PropOp50
 70
     1
102
RTVSPost2010Prop51ColorIndex
 90
      256
102
RTVSPost2010Prop51ColorRGB
 90
-16777216
102
RTVSPost2010PropOp51
 70
     0
102
RTVSPost2010Prop52
140
1.0
102
RTVSPost2010PropOp52
 70
     0
102
RTVSPost2010Prop53
 90
        2
102
RTVSPost2010PropOp53
 70
     1
102
RTVSPost2010Prop54
  1
strokes_ogs.tif
102
RTVSPost2010PropOp54
 70
     1
102
RTVSPost2010Prop55
280
     0
102
RTVSPost2010PropOp55
 70
     1
102
RTVSPost2010Prop56
140
1.0
102
RTVSPost2010PropOp56
 70
     1
102
RTVSPost2010Prop57
140
1.0
102
RTVSPost2010PropOp57
 70
     1
102
RTVSPropertyOp0
 70
     1
102
RTVSPropertyOp1
 70
     1
102
RTVSPropertyOp2
 70
     1
102
RTVSPropertyOp3
 70
     1
102
RTVSPropertyOp4
 70
     1
102
RTVSPropertyOp5
 70
     1
102
RTVSPropertyOp6
 70
     1
102
RTVSPropertyOp7
 70
     1
102
RTVSPropertyOp8
 70
     1
102
RTVSPropertyOp9
 70
     1
102
RTVSPropertyOp10
 70
     1
102
RTVSPropertyOp11
 70
     1
102
RTVSPropertyOp12
 70
     1
102
RTVSPropertyOp13
 70
     1
102
RTVSPropertyOp14
 70
     1
102
RTVSPropertyOp15
 70
     1
102
RTVSPropertyOp16
 70
     1
102
RTVSPropertyOp17
 70
     1
102
RTVSPropertyOp18
 70
     1
102
RTVSPropertyOp19
 70
     1
102
RTVSPropertyOp20
 70
     1
102
RTVSPropertyOp21
 70
     1
102
RTVSPropertyOp22
 70
     1
102
RTVSPropertyOp23
 70
     1
102
RTVSPropertyOp24
 70
     1
102
RTVSPropertyOp25
 70
     1
102
RTVSPropertyOp26
 70
     1
102
RTVSPropertyOp27
 70
     1
102
RTVSPropertyOp28
 70
     1
102
RTVSPropertyOp29
 70
     1
102
RTVSPropertyOp30
 70
     1
102
RTVSPropertyOp31
 70
     1
102
RTVSPropertyOp32
 70
     1
102
RTVSPropertyOp33
 70
     1
102
RTVSPropertyOp34
 70
     1
102
RTVSPropertyOp35
 70
     1
102
RTVSPropertyOp36
 70
     1
102
RTVSPropertyOp37
 70
     1
102
RTVSPropertyOp38
 70
     1
102
RTVSPropertyOp39
 70
     1
102
RTVSPropertyOp40
 70
     1
102
RTVSPropertyOp41
 70
     1
102
RTVSPropertyOp42
 70
     1
102
RTVSPropertyOp43
 70
     1
102
RTVSPropertyOp44
 70
     1
102
RTVSPropertyOp45
 70
     1
102
RTVSPropertyOp46
 70
     1
102
RTVSPropertyOp47
 70
     1
102
RTVSPropertyOp48
 70
     1
102
RTVSPropertyOp49
 70
     1
102
RTVSPropertyOp50
 70
     1
102
RTVSPropertyOp51
 70
     0
102
RTVSPropertyOp52
 70
     0
102
RTVSPropertyOp53
 70
     1
102
RTVSPropertyOp54
 70
     1
102
RTVSPropertyOp55
 70
     1
102
RTVSPropertyOp56
 70
     1
102
RTVSPropertyOp57
 70
     1
102
RTVSPropertyOp58
 70
     1
102
RTVSPropertyOp59
 70
     1
102
RTVSPropertyOp60
 70
     1
102
RTVSPropertyOp61
 70
     1
102
RTVSPropertyOp62
 70
     1
  0
XRECORD
  5
8388
102
{ACAD_REACTORS
330
8387
102
}
330
8387
100
AcDbXrecord
280
     1
102
RTVSPost2010Prop28
280
     0
102
RTVSPost2010PropOp28
 70
     1
102
RTVSPost2010Prop29
280
     1
102
RTVSPost2010PropOp29
 70
     1
102
RTVSPost2010Prop30
280
     1
102
RTVSPost2010PropOp30
 70
     1
102
RTVSPost2010Prop31
280
     0
102
RTVSPost2010PropOp31
 70
     1
102
RTVSPost2010Prop32
280
     0
102
RTVSPost2010PropOp32
 70
     1
102
RTVSPost2010Prop33
280
     0
102
RTVSPost2010PropOp33
 70
     1
102
RTVSPost2010Prop34
280
     0
102
RTVSPost2010PropOp34
 70
     1
102
RTVSPost2010Prop35
280
     0
102
RTVSPost2010PropOp35
 70
     1
102
RTVSPost2010Prop36
280
     0
102
RTVSPost2010PropOp36
 70
     1
102
RTVSPost2010Prop37
 90
       50
102
RTVSPost2010PropOp37
 70
     1
102
RTVSPost2010Prop38
140
0.0
102
RTVSPost2010PropOp38
 70
     1
102
RTVSPost2010Prop39
140
1.0
102
RTVSPost2010PropOp39
 70
     1
102
RTVSPost2010Prop40
 90
        0
102
RTVSPost2010PropOp40
 70
     1
102
RTVSPost2010Prop41ColorIndex
 90
       18
102
RTVSPost2010Prop41ColorRGB
 90
        0
102
RTVSPost2010PropOp41
 70
     1
102
RTVSPost2010Prop42
 90
       50
102
RTVSPost2010PropOp42
 70
     1
102
RTVSPost2010Prop43
 90
        3
102
RTVSPost2010PropOp43
 70
     1
102
RTVSPost2010Prop44ColorIndex
 90
        5
102
RTVSPost2010Prop44ColorRGB
 90
      255
102
RTVSPost2010PropOp44
 70
     1
102
RTVSPost2010Prop45
280
     0
102
RTVSPost2010PropOp45
 70
     1
102
RTVSPost2010Prop46
 90
       50
102
RTVSPost2010PropOp46
 70
     1
102
RTVSPost2010Prop47
 90
       50
102
RTVSPost2010PropOp47
 70
     1
102
RTVSPost2010Prop48
 90
       50
102
RTVSPost2010PropOp48
 70
     1
102
RTVSPost2010Prop49
280
     0
102
RTVSPost2010PropOp49
 70
     1
102
RTVSPost2010Prop50
 90
       50
102
RTVSPost2010PropOp50
 70
     1
102
RTVSPost2010Prop51ColorIndex
 90
      256
102
RTVSPost2010Prop51ColorRGB
 90
-16777216
102
RTVSPost2010PropOp51
 70
     0
102
RTVSPost2010Prop52
140
1.0
102
RTVSPost2010PropOp52
 70
     0
102
RTVSPost2010Prop53
 90
        2
102
RTVSPost2010PropOp53
 70
     1
102
RTVSPost2010Prop54
  1
strokes_ogs.tif
102
RTVSPost2010PropOp54
 70
     1
102
RTVSPost2010Prop55
280
     0
102
RTVSPost2010PropOp55
 70
     1
102
RTVSPost2010Prop56
140
1.0
102
RTVSPost2010PropOp56
 70
     1
102
RTVSPost2010Prop57
140
1.0
102
RTVSPost2010PropOp57
 70
     1
102
RTVSPropertyOp0
 70
     1
102
RTVSPropertyOp1
 70
     1
102
RTVSPropertyOp2
 70
     1
102
RTVSPropertyOp3
 70
     1
102
RTVSPropertyOp4
 70
     1
102
RTVSPropertyOp5
 70
     1
102
RTVSPropertyOp6
 70
     1
102
RTVSPropertyOp7
 70
     1
102
RTVSPropertyOp8
 70
     1
102
RTVSPropertyOp9
 70
     1
102
RTVSPropertyOp10
 70
     1
102
RTVSPropertyOp11
 70
     1
102
RTVSPropertyOp12
 70
     1
102
RTVSPropertyOp13
 70
     1
102
RTVSPropertyOp14
 70
     1
102
RTVSPropertyOp15
 70
     1
102
RTVSPropertyOp16
 70
     1
102
RTVSPropertyOp17
 70
     1
102
RTVSPropertyOp18
 70
     1
102
RTVSPropertyOp19
 70
     1
102
RTVSPropertyOp20
 70
     1
102
RTVSPropertyOp21
 70
     1
102
RTVSPropertyOp22
 70
     1
102
RTVSPropertyOp23
 70
     1
102
RTVSPropertyOp24
 70
     1
102
RTVSPropertyOp25
 70
     1
102
RTVSPropertyOp26
 70
     1
102
RTVSPropertyOp27
 70
     1
102
RTVSPropertyOp28
 70
     1
102
RTVSPropertyOp29
 70
     1
102
RTVSPropertyOp30
 70
     1
102
RTVSPropertyOp31
 70
     1
102
RTVSPropertyOp32
 70
     1
102
RTVSPropertyOp33
 70
     1
102
RTVSPropertyOp34
 70
     1
102
RTVSPropertyOp35
 70
     1
102
RTVSPropertyOp36
 70
     1
102
RTVSPropertyOp37
 70
     1
102
RTVSPropertyOp38
 70
     1
102
RTVSPropertyOp39
 70
     1
102
RTVSPropertyOp40
 70
     1
102
RTVSPropertyOp41
 70
     1
102
RTVSPropertyOp42
 70
     1
102
RTVSPropertyOp43
 70
     1
102
RTVSPropertyOp44
 70
     1
102
RTVSPropertyOp45
 70
     1
102
RTVSPropertyOp46
 70
     1
102
RTVSPropertyOp47
 70
     1
102
RTVSPropertyOp48
 70
     1
102
RTVSPropertyOp49
 70
     1
102
RTVSPropertyOp50
 70
     1
102
RTVSPropertyOp51
 70
     0
102
RTVSPropertyOp52
 70
     0
102
RTVSPropertyOp53
 70
     1
102
RTVSPropertyOp54
 70
     1
102
RTVSPropertyOp55
 70
     1
102
RTVSPropertyOp56
 70
     1
102
RTVSPropertyOp57
 70
     1
102
RTVSPropertyOp58
 70
     1
102
RTVSPropertyOp59
 70
     1
102
RTVSPropertyOp60
 70
     1
102
RTVSPropertyOp61
 70
     1
102
RTVSPropertyOp62
 70
     1
  0
XRECORD
  5
838A
102
{ACAD_REACTORS
330
8389
102
}
330
8389
100
AcDbXrecord
280
     1
102
RTVSPost2010Prop28
280
     0
102
RTVSPost2010PropOp28
 70
     1
102
RTVSPost2010Prop29
280
     1
102
RTVSPost2010PropOp29
 70
     1
102
RTVSPost2010Prop30
280
     1
102
RTVSPost2010PropOp30
 70
     1
102
RTVSPost2010Prop31
280
     0
102
RTVSPost2010PropOp31
 70
     1
102
RTVSPost2010Prop32
280
     0
102
RTVSPost2010PropOp32
 70
     1
102
RTVSPost2010Prop33
280
     0
102
RTVSPost2010PropOp33
 70
     1
102
RTVSPost2010Prop34
280
     0
102
RTVSPost2010PropOp34
 70
     1
102
RTVSPost2010Prop35
280
     0
102
RTVSPost2010PropOp35
 70
     1
102
RTVSPost2010Prop36
280
     0
102
RTVSPost2010PropOp36
 70
     1
102
RTVSPost2010Prop37
 90
       50
102
RTVSPost2010PropOp37
 70
     1
102
RTVSPost2010Prop38
140
0.0
102
RTVSPost2010PropOp38
 70
     1
102
RTVSPost2010Prop39
140
1.0
102
RTVSPost2010PropOp39
 70
     1
102
RTVSPost2010Prop40
 90
        0
102
RTVSPost2010PropOp40
 70
     1
102
RTVSPost2010Prop41ColorIndex
 90
       18
102
RTVSPost2010Prop41ColorRGB
 90
        0
102
RTVSPost2010PropOp41
 70
     1
102
RTVSPost2010Prop42
 90
       50
102
RTVSPost2010PropOp42
 70
     1
102
RTVSPost2010Prop43
 90
        3
102
RTVSPost2010PropOp43
 70
     1
102
RTVSPost2010Prop44ColorIndex
 90
        5
102
RTVSPost2010Prop44ColorRGB
 90
      255
102
RTVSPost2010PropOp44
 70
     1
102
RTVSPost2010Prop45
280
     0
102
RTVSPost2010PropOp45
 70
     1
102
RTVSPost2010Prop46
 90
       50
102
RTVSPost2010PropOp46
 70
     1
102
RTVSPost2010Prop47
 90
       50
102
RTVSPost2010PropOp47
 70
     1
102
RTVSPost2010Prop48
 90
       50
102
RTVSPost2010PropOp48
 70
     1
102
RTVSPost2010Prop49
280
     0
102
RTVSPost2010PropOp49
 70
     1
102
RTVSPost2010Prop50
 90
       50
102
RTVSPost2010PropOp50
 70
     1
102
RTVSPost2010Prop51ColorIndex
 90
      256
102
RTVSPost2010Prop51ColorRGB
 90
-16777216
102
RTVSPost2010PropOp51
 70
     0
102
RTVSPost2010Prop52
140
1.0
102
RTVSPost2010PropOp52
 70
     0
102
RTVSPost2010Prop53
 90
        2
102
RTVSPost2010PropOp53
 70
     1
102
RTVSPost2010Prop54
  1
strokes_ogs.tif
102
RTVSPost2010PropOp54
 70
     1
102
RTVSPost2010Prop55
280
     0
102
RTVSPost2010PropOp55
 70
     1
102
RTVSPost2010Prop56
140
1.0
102
RTVSPost2010PropOp56
 70
     1
102
RTVSPost2010Prop57
140
1.0
102
RTVSPost2010PropOp57
 70
     1
102
RTVSPropertyOp0
 70
     1
102
RTVSPropertyOp1
 70
     1
102
RTVSPropertyOp2
 70
     1
102
RTVSPropertyOp3
 70
     1
102
RTVSPropertyOp4
 70
     1
102
RTVSPropertyOp5
 70
     1
102
RTVSPropertyOp6
 70
     1
102
RTVSPropertyOp7
 70
     1
102
RTVSPropertyOp8
 70
     1
102
RTVSPropertyOp9
 70
     1
102
RTVSPropertyOp10
 70
     1
102
RTVSPropertyOp11
 70
     1
102
RTVSPropertyOp12
 70
     1
102
RTVSPropertyOp13
 70
     1
102
RTVSPropertyOp14
 70
     1
102
RTVSPropertyOp15
 70
     1
102
RTVSPropertyOp16
 70
     1
102
RTVSPropertyOp17
 70
     1
102
RTVSPropertyOp18
 70
     1
102
RTVSPropertyOp19
 70
     1
102
RTVSPropertyOp20
 70
     1
102
RTVSPropertyOp21
 70
     1
102
RTVSPropertyOp22
 70
     1
102
RTVSPropertyOp23
 70
     1
102
RTVSPropertyOp24
 70
     1
102
RTVSPropertyOp25
 70
     1
102
RTVSPropertyOp26
 70
     1
102
RTVSPropertyOp27
 70
     1
102
RTVSPropertyOp28
 70
     1
102
RTVSPropertyOp29
 70
     1
102
RTVSPropertyOp30
 70
     1
102
RTVSPropertyOp31
 70
     1
102
RTVSPropertyOp32
 70
     1
102
RTVSPropertyOp33
 70
     1
102
RTVSPropertyOp34
 70
     1
102
RTVSPropertyOp35
 70
     1
102
RTVSPropertyOp36
 70
     1
102
RTVSPropertyOp37
 70
     1
102
RTVSPropertyOp38
 70
     1
102
RTVSPropertyOp39
 70
     1
102
RTVSPropertyOp40
 70
     1
102
RTVSPropertyOp41
 70
     1
102
RTVSPropertyOp42
 70
     1
102
RTVSPropertyOp43
 70
     1
102
RTVSPropertyOp44
 70
     1
102
RTVSPropertyOp45
 70
     1
102
RTVSPropertyOp46
 70
     1
102
RTVSPropertyOp47
 70
     1
102
RTVSPropertyOp48
 70
     1
102
RTVSPropertyOp49
 70
     1
102
RTVSPropertyOp50
 70
     1
102
RTVSPropertyOp51
 70
     0
102
RTVSPropertyOp52
 70
     0
102
RTVSPropertyOp53
 70
     1
102
RTVSPropertyOp54
 70
     1
102
RTVSPropertyOp55
 70
     1
102
RTVSPropertyOp56
 70
     1
102
RTVSPropertyOp57
 70
     1
102
RTVSPropertyOp58
 70
     1
102
RTVSPropertyOp59
 70
     1
102
RTVSPropertyOp60
 70
     1
102
RTVSPropertyOp61
 70
     1
102
RTVSPropertyOp62
 70
     1
  0
XRECORD
  5
838C
102
{ACAD_REACTORS
330
838B
102
}
330
838B
100
AcDbXrecord
280
     1
102
RTVSPost2010Prop28
280
     0
102
RTVSPost2010PropOp28
 70
     1
102
RTVSPost2010Prop29
280
     1
102
RTVSPost2010PropOp29
 70
     1
102
RTVSPost2010Prop30
280
     1
102
RTVSPost2010PropOp30
 70
     1
102
RTVSPost2010Prop31
280
     0
102
RTVSPost2010PropOp31
 70
     1
102
RTVSPost2010Prop32
280
     0
102
RTVSPost2010PropOp32
 70
     1
102
RTVSPost2010Prop33
280
     0
102
RTVSPost2010PropOp33
 70
     1
102
RTVSPost2010Prop34
280
     0
102
RTVSPost2010PropOp34
 70
     1
102
RTVSPost2010Prop35
280
     0
102
RTVSPost2010PropOp35
 70
     1
102
RTVSPost2010Prop36
280
     0
102
RTVSPost2010PropOp36
 70
     1
102
RTVSPost2010Prop37
 90
       50
102
RTVSPost2010PropOp37
 70
     1
102
RTVSPost2010Prop38
140
0.0
102
RTVSPost2010PropOp38
 70
     1
102
RTVSPost2010Prop39
140
1.0
102
RTVSPost2010PropOp39
 70
     1
102
RTVSPost2010Prop40
 90
        0
102
RTVSPost2010PropOp40
 70
     1
102
RTVSPost2010Prop41ColorIndex
 90
       18
102
RTVSPost2010Prop41ColorRGB
 90
        0
102
RTVSPost2010PropOp41
 70
     1
102
RTVSPost2010Prop42
 90
       50
102
RTVSPost2010PropOp42
 70
     1
102
RTVSPost2010Prop43
 90
        3
102
RTVSPost2010PropOp43
 70
     1
102
RTVSPost2010Prop44ColorIndex
 90
        5
102
RTVSPost2010Prop44ColorRGB
 90
      255
102
RTVSPost2010PropOp44
 70
     1
102
RTVSPost2010Prop45
280
     0
102
RTVSPost2010PropOp45
 70
     1
102
RTVSPost2010Prop46
 90
       50
102
RTVSPost2010PropOp46
 70
     1
102
RTVSPost2010Prop47
 90
       50
102
RTVSPost2010PropOp47
 70
     1
102
RTVSPost2010Prop48
 90
       50
102
RTVSPost2010PropOp48
 70
     1
102
RTVSPost2010Prop49
280
     0
102
RTVSPost2010PropOp49
 70
     1
102
RTVSPost2010Prop50
 90
       50
102
RTVSPost2010PropOp50
 70
     1
102
RTVSPost2010Prop51ColorIndex
 90
      256
102
RTVSPost2010Prop51ColorRGB
 90
-16777216
102
RTVSPost2010PropOp51
 70
     0
102
RTVSPost2010Prop52
140
1.0
102
RTVSPost2010PropOp52
 70
     0
102
RTVSPost2010Prop53
 90
        2
102
RTVSPost2010PropOp53
 70
     1
102
RTVSPost2010Prop54
  1
strokes_ogs.tif
102
RTVSPost2010PropOp54
 70
     1
102
RTVSPost2010Prop55
280
     0
102
RTVSPost2010PropOp55
 70
     1
102
RTVSPost2010Prop56
140
1.0
102
RTVSPost2010PropOp56
 70
     1
102
RTVSPost2010Prop57
140
1.0
102
RTVSPost2010PropOp57
 70
     1
102
RTVSPropertyOp0
 70
     1
102
RTVSPropertyOp1
 70
     1
102
RTVSPropertyOp2
 70
     1
102
RTVSPropertyOp3
 70
     1
102
RTVSPropertyOp4
 70
     1
102
RTVSPropertyOp5
 70
     1
102
RTVSPropertyOp6
 70
     1
102
RTVSPropertyOp7
 70
     1
102
RTVSPropertyOp8
 70
     1
102
RTVSPropertyOp9
 70
     1
102
RTVSPropertyOp10
 70
     1
102
RTVSPropertyOp11
 70
     1
102
RTVSPropertyOp12
 70
     1
102
RTVSPropertyOp13
 70
     1
102
RTVSPropertyOp14
 70
     1
102
RTVSPropertyOp15
 70
     1
102
RTVSPropertyOp16
 70
     1
102
RTVSPropertyOp17
 70
     1
102
RTVSPropertyOp18
 70
     1
102
RTVSPropertyOp19
 70
     1
102
RTVSPropertyOp20
 70
     1
102
RTVSPropertyOp21
 70
     1
102
RTVSPropertyOp22
 70
     1
102
RTVSPropertyOp23
 70
     1
102
RTVSPropertyOp24
 70
     1
102
RTVSPropertyOp25
 70
     1
102
RTVSPropertyOp26
 70
     1
102
RTVSPropertyOp27
 70
     1
102
RTVSPropertyOp28
 70
     1
102
RTVSPropertyOp29
 70
     1
102
RTVSPropertyOp30
 70
     1
102
RTVSPropertyOp31
 70
     1
102
RTVSPropertyOp32
 70
     1
102
RTVSPropertyOp33
 70
     1
102
RTVSPropertyOp34
 70
     1
102
RTVSPropertyOp35
 70
     1
102
RTVSPropertyOp36
 70
     1
102
RTVSPropertyOp37
 70
     1
102
RTVSPropertyOp38
 70
     1
102
RTVSPropertyOp39
 70
     1
102
RTVSPropertyOp40
 70
     1
102
RTVSPropertyOp41
 70
     1
102
RTVSPropertyOp42
 70
     1
102
RTVSPropertyOp43
 70
     1
102
RTVSPropertyOp44
 70
     1
102
RTVSPropertyOp45
 70
     1
102
RTVSPropertyOp46
 70
     1
102
RTVSPropertyOp47
 70
     1
102
RTVSPropertyOp48
 70
     1
102
RTVSPropertyOp49
 70
     1
102
RTVSPropertyOp50
 70
     1
102
RTVSPropertyOp51
 70
     0
102
RTVSPropertyOp52
 70
     0
102
RTVSPropertyOp53
 70
     1
102
RTVSPropertyOp54
 70
     1
102
RTVSPropertyOp55
 70
     1
102
RTVSPropertyOp56
 70
     1
102
RTVSPropertyOp57
 70
     1
102
RTVSPropertyOp58
 70
     1
102
RTVSPropertyOp59
 70
     1
102
RTVSPropertyOp60
 70
     1
102
RTVSPropertyOp61
 70
     1
102
RTVSPropertyOp62
 70
     1
  0
XRECORD
  5
8394
102
{ACAD_REACTORS
330
8393
102
}
330
8393
100
AcDbXrecord
280
     1
102
RTVSPost2010Prop28
280
     0
102
RTVSPost2010PropOp28
 70
     1
102
RTVSPost2010Prop29
280
     1
102
RTVSPost2010PropOp29
 70
     1
102
RTVSPost2010Prop30
280
     1
102
RTVSPost2010PropOp30
 70
     1
102
RTVSPost2010Prop31
280
     0
102
RTVSPost2010PropOp31
 70
     1
102
RTVSPost2010Prop32
280
     0
102
RTVSPost2010PropOp32
 70
     1
102
RTVSPost2010Prop33
280
     0
102
RTVSPost2010PropOp33
 70
     1
102
RTVSPost2010Prop34
280
     0
102
RTVSPost2010PropOp34
 70
     1
102
RTVSPost2010Prop35
280
     0
102
RTVSPost2010PropOp35
 70
     1
102
RTVSPost2010Prop36
280
     0
102
RTVSPost2010PropOp36
 70
     1
102
RTVSPost2010Prop37
 90
       50
102
RTVSPost2010PropOp37
 70
     1
102
RTVSPost2010Prop38
140
0.0
102
RTVSPost2010PropOp38
 70
     1
102
RTVSPost2010Prop39
140
1.0
102
RTVSPost2010PropOp39
 70
     1
102
RTVSPost2010Prop40
 90
        0
102
RTVSPost2010PropOp40
 70
     1
102
RTVSPost2010Prop41ColorIndex
 90
       18
102
RTVSPost2010Prop41ColorRGB
 90
        0
102
RTVSPost2010PropOp41
 70
     1
102
RTVSPost2010Prop42
 90
       50
102
RTVSPost2010PropOp42
 70
     1
102
RTVSPost2010Prop43
 90
        3
102
RTVSPost2010PropOp43
 70
     1
102
RTVSPost2010Prop44ColorIndex
 90
        5
102
RTVSPost2010Prop44ColorRGB
 90
      255
102
RTVSPost2010PropOp44
 70
     1
102
RTVSPost2010Prop45
280
     0
102
RTVSPost2010PropOp45
 70
     1
102
RTVSPost2010Prop46
 90
       50
102
RTVSPost2010PropOp46
 70
     1
102
RTVSPost2010Prop47
 90
       50
102
RTVSPost2010PropOp47
 70
     1
102
RTVSPost2010Prop48
 90
       50
102
RTVSPost2010PropOp48
 70
     1
102
RTVSPost2010Prop49
280
     0
102
RTVSPost2010PropOp49
 70
     1
102
RTVSPost2010Prop50
 90
       50
102
RTVSPost2010PropOp50
 70
     1
102
RTVSPost2010Prop51ColorIndex
 90
      256
102
RTVSPost2010Prop51ColorRGB
 90
-16777216
102
RTVSPost2010PropOp51
 70
     0
102
RTVSPost2010Prop52
140
1.0
102
RTVSPost2010PropOp52
 70
     0
102
RTVSPost2010Prop53
 90
        2
102
RTVSPost2010PropOp53
 70
     1
102
RTVSPost2010Prop54
  1
strokes_ogs.tif
102
RTVSPost2010PropOp54
 70
     1
102
RTVSPost2010Prop55
280
     0
102
RTVSPost2010PropOp55
 70
     1
102
RTVSPost2010Prop56
140
1.0
102
RTVSPost2010PropOp56
 70
     1
102
RTVSPost2010Prop57
140
1.0
102
RTVSPost2010PropOp57
 70
     1
102
RTVSPropertyOp0
 70
     1
102
RTVSPropertyOp1
 70
     1
102
RTVSPropertyOp2
 70
     1
102
RTVSPropertyOp3
 70
     1
102
RTVSPropertyOp4
 70
     1
102
RTVSPropertyOp5
 70
     1
102
RTVSPropertyOp6
 70
     1
102
RTVSPropertyOp7
 70
     1
102
RTVSPropertyOp8
 70
     1
102
RTVSPropertyOp9
 70
     1
102
RTVSPropertyOp10
 70
     1
102
RTVSPropertyOp11
 70
     1
102
RTVSPropertyOp12
 70
     1
102
RTVSPropertyOp13
 70
     1
102
RTVSPropertyOp14
 70
     1
102
RTVSPropertyOp15
 70
     1
102
RTVSPropertyOp16
 70
     1
102
RTVSPropertyOp17
 70
     1
102
RTVSPropertyOp18
 70
     1
102
RTVSPropertyOp19
 70
     1
102
RTVSPropertyOp20
 70
     1
102
RTVSPropertyOp21
 70
     1
102
RTVSPropertyOp22
 70
     1
102
RTVSPropertyOp23
 70
     1
102
RTVSPropertyOp24
 70
     1
102
RTVSPropertyOp25
 70
     1
102
RTVSPropertyOp26
 70
     1
102
RTVSPropertyOp27
 70
     1
102
RTVSPropertyOp28
 70
     1
102
RTVSPropertyOp29
 70
     1
102
RTVSPropertyOp30
 70
     1
102
RTVSPropertyOp31
 70
     1
102
RTVSPropertyOp32
 70
     1
102
RTVSPropertyOp33
 70
     1
102
RTVSPropertyOp34
 70
     1
102
RTVSPropertyOp35
 70
     1
102
RTVSPropertyOp36
 70
     1
102
RTVSPropertyOp37
 70
     1
102
RTVSPropertyOp38
 70
     1
102
RTVSPropertyOp39
 70
     1
102
RTVSPropertyOp40
 70
     1
102
RTVSPropertyOp41
 70
     1
102
RTVSPropertyOp42
 70
     1
102
RTVSPropertyOp43
 70
     1
102
RTVSPropertyOp44
 70
     1
102
RTVSPropertyOp45
 70
     1
102
RTVSPropertyOp46
 70
     1
102
RTVSPropertyOp47
 70
     1
102
RTVSPropertyOp48
 70
     1
102
RTVSPropertyOp49
 70
     1
102
RTVSPropertyOp50
 70
     1
102
RTVSPropertyOp51
 70
     0
102
RTVSPropertyOp52
 70
     0
102
RTVSPropertyOp53
 70
     1
102
RTVSPropertyOp54
 70
     1
102
RTVSPropertyOp55
 70
     1
102
RTVSPropertyOp56
 70
     1
102
RTVSPropertyOp57
 70
     1
102
RTVSPropertyOp58
 70
     1
102
RTVSPropertyOp59
 70
     1
102
RTVSPropertyOp60
 70
     1
102
RTVSPropertyOp61
 70
     1
102
RTVSPropertyOp62
 70
     1
  0
XRECORD
  5
83B0
102
{ACAD_REACTORS
330
83AF
102
}
330
83AF
100
AcDbXrecord
280
     1
102
RTVSPost2010Prop28
280
     0
102
RTVSPost2010PropOp28
 70
     1
102
RTVSPost2010Prop29
280
     1
102
RTVSPost2010PropOp29
 70
     1
102
RTVSPost2010Prop30
280
     1
102
RTVSPost2010PropOp30
 70
     1
102
RTVSPost2010Prop31
280
     0
102
RTVSPost2010PropOp31
 70
     1
102
RTVSPost2010Prop32
280
     0
102
RTVSPost2010PropOp32
 70
     1
102
RTVSPost2010Prop33
280
     0
102
RTVSPost2010PropOp33
 70
     1
102
RTVSPost2010Prop34
280
     0
102
RTVSPost2010PropOp34
 70
     1
102
RTVSPost2010Prop35
280
     0
102
RTVSPost2010PropOp35
 70
     1
102
RTVSPost2010Prop36
280
     0
102
RTVSPost2010PropOp36
 70
     1
102
RTVSPost2010Prop37
 90
       50
102
RTVSPost2010PropOp37
 70
     0
102
RTVSPost2010Prop38
140
0.0
102
RTVSPost2010PropOp38
 70
     0
102
RTVSPost2010Prop39
140
1.0
102
RTVSPost2010PropOp39
 70
     0
102
RTVSPost2010Prop40
 90
        0
102
RTVSPost2010PropOp40
 70
     0
102
RTVSPost2010Prop41ColorIndex
 90
       18
102
RTVSPost2010Prop41ColorRGB
 90
        0
102
RTVSPost2010PropOp41
 70
     0
102
RTVSPost2010Prop42
 90
       50
102
RTVSPost2010PropOp42
 70
     0
102
RTVSPost2010Prop43
 90
        3
102
RTVSPost2010PropOp43
 70
     0
102
RTVSPost2010Prop44ColorIndex
 90
        5
102
RTVSPost2010Prop44ColorRGB
 90
      255
102
RTVSPost2010PropOp44
 70
     0
102
RTVSPost2010Prop45
280
     0
102
RTVSPost2010PropOp45
 70
     1
102
RTVSPost2010Prop46
 90
       50
102
RTVSPost2010PropOp46
 70
     0
102
RTVSPost2010Prop47
 90
       50
102
RTVSPost2010PropOp47
 70
     0
102
RTVSPost2010Prop48
 90
       50
102
RTVSPost2010PropOp48
 70
     0
102
RTVSPost2010Prop49
280
     0
102
RTVSPost2010PropOp49
 70
     1
102
RTVSPost2010Prop50
 90
       50
102
RTVSPost2010PropOp50
 70
     0
102
RTVSPost2010Prop51ColorIndex
 90
      256
102
RTVSPost2010Prop51ColorRGB
 90
-16777216
102
RTVSPost2010PropOp51
 70
     0
102
RTVSPost2010Prop52
140
1.0
102
RTVSPost2010PropOp52
 70
     0
102
RTVSPost2010Prop53
 90
        2
102
RTVSPost2010PropOp53
 70
     0
102
RTVSPost2010Prop54
  1
strokes_ogs.tif
102
RTVSPost2010PropOp54
 70
     0
102
RTVSPost2010Prop55
280
     0
102
RTVSPost2010PropOp55
 70
     1
102
RTVSPost2010Prop56
140
1.0
102
RTVSPost2010PropOp56
 70
     0
102
RTVSPost2010Prop57
140
1.0
102
RTVSPost2010PropOp57
 70
     0
102
RTVSPropertyOp0
 70
     0
102
RTVSPropertyOp1
 70
     0
102
RTVSPropertyOp2
 70
     0
102
RTVSPropertyOp3
 70
     0
102
RTVSPropertyOp4
 70
     0
102
RTVSPropertyOp5
 70
     0
102
RTVSPropertyOp6
 70
     0
102
RTVSPropertyOp7
 70
     0
102
RTVSPropertyOp8
 70
     0
102
RTVSPropertyOp9
 70
     0
102
RTVSPropertyOp10
 70
     0
102
RTVSPropertyOp11
 70
     0
102
RTVSPropertyOp12
 70
     0
102
RTVSPropertyOp13
 70
     0
102
RTVSPropertyOp14
 70
     2
102
RTVSPropertyOp15
 70
     0
102
RTVSPropertyOp16
 70
     0
102
RTVSPropertyOp17
 70
     0
102
RTVSPropertyOp18
 70
     0
102
RTVSPropertyOp19
 70
     0
102
RTVSPropertyOp20
 70
     0
102
RTVSPropertyOp21
 70
     0
102
RTVSPropertyOp22
 70
     0
102
RTVSPropertyOp23
 70
     0
102
RTVSPropertyOp24
 70
     0
102
RTVSPropertyOp25
 70
     0
102
RTVSPropertyOp26
 70
     0
102
RTVSPropertyOp27
 70
     0
102
RTVSPropertyOp28
 70
     1
102
RTVSPropertyOp29
 70
     1
102
RTVSPropertyOp30
 70
     1
102
RTVSPropertyOp31
 70
     1
102
RTVSPropertyOp32
 70
     1
102
RTVSPropertyOp33
 70
     1
102
RTVSPropertyOp34
 70
     1
102
RTVSPropertyOp35
 70
     1
102
RTVSPropertyOp36
 70
     1
102
RTVSPropertyOp37
 70
     0
102
RTVSPropertyOp38
 70
     0
102
RTVSPropertyOp39
 70
     0
102
RTVSPropertyOp40
 70
     0
102
RTVSPropertyOp41
 70
     0
102
RTVSPropertyOp42
 70
     0
102
RTVSPropertyOp43
 70
     0
102
RTVSPropertyOp44
 70
     0
102
RTVSPropertyOp45
 70
     1
102
RTVSPropertyOp46
 70
     0
102
RTVSPropertyOp47
 70
     0
102
RTVSPropertyOp48
 70
     0
102
RTVSPropertyOp49
 70
     1
102
RTVSPropertyOp50
 70
     0
102
RTVSPropertyOp51
 70
     0
102
RTVSPropertyOp52
 70
     0
102
RTVSPropertyOp53
 70
     0
102
RTVSPropertyOp54
 70
     0
102
RTVSPropertyOp55
 70
     1
102
RTVSPropertyOp56
 70
     0
102
RTVSPropertyOp57
 70
     0
102
RTVSPropertyOp58
 70
     0
102
RTVSPropertyOp59
 70
     0
102
RTVSPropertyOp60
 70
     0
102
RTVSPropertyOp61
 70
     0
102
RTVSPropertyOp62
 70
     0
  0
XRECORD
  5
83A0
102
{ACAD_REACTORS
330
839F
102
}
330
839F
100
AcDbXrecord
280
     1
102
RTVSPost2010Prop28
280
     0
102
RTVSPost2010PropOp28
 70
     1
102
RTVSPost2010Prop29
280
     1
102
RTVSPost2010PropOp29
 70
     1
102
RTVSPost2010Prop30
280
     1
102
RTVSPost2010PropOp30
 70
     1
102
RTVSPost2010Prop31
280
     0
102
RTVSPost2010PropOp31
 70
     1
102
RTVSPost2010Prop32
280
     0
102
RTVSPost2010PropOp32
 70
     1
102
RTVSPost2010Prop33
280
     0
102
RTVSPost2010PropOp33
 70
     1
102
RTVSPost2010Prop34
280
     0
102
RTVSPost2010PropOp34
 70
     1
102
RTVSPost2010Prop35
280
     0
102
RTVSPost2010PropOp35
 70
     1
102
RTVSPost2010Prop36
280
     0
102
RTVSPost2010PropOp36
 70
     1
102
RTVSPost2010Prop37
 90
       50
102
RTVSPost2010PropOp37
 70
     1
102
RTVSPost2010Prop38
140
0.0
102
RTVSPost2010PropOp38
 70
     1
102
RTVSPost2010Prop39
140
1.0
102
RTVSPost2010PropOp39
 70
     1
102
RTVSPost2010Prop40
 90
        0
102
RTVSPost2010PropOp40
 70
     1
102
RTVSPost2010Prop41ColorIndex
 90
       18
102
RTVSPost2010Prop41ColorRGB
 90
        0
102
RTVSPost2010PropOp41
 70
     1
102
RTVSPost2010Prop42
 90
       50
102
RTVSPost2010PropOp42
 70
     1
102
RTVSPost2010Prop43
 90
        3
102
RTVSPost2010PropOp43
 70
     1
102
RTVSPost2010Prop44ColorIndex
 90
        5
102
RTVSPost2010Prop44ColorRGB
 90
      255
102
RTVSPost2010PropOp44
 70
     1
102
RTVSPost2010Prop45
280
     0
102
RTVSPost2010PropOp45
 70
     1
102
RTVSPost2010Prop46
 90
       50
102
RTVSPost2010PropOp46
 70
     1
102
RTVSPost2010Prop47
 90
       50
102
RTVSPost2010PropOp47
 70
     1
102
RTVSPost2010Prop48
 90
       50
102
RTVSPost2010PropOp48
 70
     1
102
RTVSPost2010Prop49
280
     0
102
RTVSPost2010PropOp49
 70
     1
102
RTVSPost2010Prop50
 90
       50
102
RTVSPost2010PropOp50
 70
     1
102
RTVSPost2010Prop51ColorIndex
 90
      256
102
RTVSPost2010Prop51ColorRGB
 90
-16777216
102
RTVSPost2010PropOp51
 70
     0
102
RTVSPost2010Prop52
140
1.0
102
RTVSPost2010PropOp52
 70
     0
102
RTVSPost2010Prop53
 90
        2
102
RTVSPost2010PropOp53
 70
     1
102
RTVSPost2010Prop54
  1
strokes_ogs.tif
102
RTVSPost2010PropOp54
 70
     1
102
RTVSPost2010Prop55
280
     0
102
RTVSPost2010PropOp55
 70
     1
102
RTVSPost2010Prop56
140
1.0
102
RTVSPost2010PropOp56
 70
     1
102
RTVSPost2010Prop57
140
1.0
102
RTVSPost2010PropOp57
 70
     1
102
RTVSPropertyOp0
 70
     1
102
RTVSPropertyOp1
 70
     1
102
RTVSPropertyOp2
 70
     1
102
RTVSPropertyOp3
 70
     1
102
RTVSPropertyOp4
 70
     1
102
RTVSPropertyOp5
 70
     1
102
RTVSPropertyOp6
 70
     1
102
RTVSPropertyOp7
 70
     1
102
RTVSPropertyOp8
 70
     1
102
RTVSPropertyOp9
 70
     1
102
RTVSPropertyOp10
 70
     1
102
RTVSPropertyOp11
 70
     1
102
RTVSPropertyOp12
 70
     1
102
RTVSPropertyOp13
 70
     1
102
RTVSPropertyOp14
 70
     1
102
RTVSPropertyOp15
 70
     1
102
RTVSPropertyOp16
 70
     1
102
RTVSPropertyOp17
 70
     1
102
RTVSPropertyOp18
 70
     1
102
RTVSPropertyOp19
 70
     1
102
RTVSPropertyOp20
 70
     1
102
RTVSPropertyOp21
 70
     1
102
RTVSPropertyOp22
 70
     1
102
RTVSPropertyOp23
 70
     1
102
RTVSPropertyOp24
 70
     1
102
RTVSPropertyOp25
 70
     1
102
RTVSPropertyOp26
 70
     1
102
RTVSPropertyOp27
 70
     1
102
RTVSPropertyOp28
 70
     1
102
RTVSPropertyOp29
 70
     1
102
RTVSPropertyOp30
 70
     1
102
RTVSPropertyOp31
 70
     1
102
RTVSPropertyOp32
 70
     1
102
RTVSPropertyOp33
 70
     1
102
RTVSPropertyOp34
 70
     1
102
RTVSPropertyOp35
 70
     1
102
RTVSPropertyOp36
 70
     1
102
RTVSPropertyOp37
 70
     1
102
RTVSPropertyOp38
 70
     1
102
RTVSPropertyOp39
 70
     1
102
RTVSPropertyOp40
 70
     1
102
RTVSPropertyOp41
 70
     1
102
RTVSPropertyOp42
 70
     1
102
RTVSPropertyOp43
 70
     1
102
RTVSPropertyOp44
 70
     1
102
RTVSPropertyOp45
 70
     1
102
RTVSPropertyOp46
 70
     1
102
RTVSPropertyOp47
 70
     1
102
RTVSPropertyOp48
 70
     1
102
RTVSPropertyOp49
 70
     1
102
RTVSPropertyOp50
 70
     1
102
RTVSPropertyOp51
 70
     0
102
RTVSPropertyOp52
 70
     0
102
RTVSPropertyOp53
 70
     1
102
RTVSPropertyOp54
 70
     1
102
RTVSPropertyOp55
 70
     1
102
RTVSPropertyOp56
 70
     1
102
RTVSPropertyOp57
 70
     1
102
RTVSPropertyOp58
 70
     1
102
RTVSPropertyOp59
 70
     1
102
RTVSPropertyOp60
 70
     1
102
RTVSPropertyOp61
 70
     1
102
RTVSPropertyOp62
 70
     1
  0
XRECORD
  5
83B2
102
{ACAD_REACTORS
330
83B1
102
}
330
83B1
100
AcDbXrecord
280
     1
102
RTVSPost2010Prop28
280
     0
102
RTVSPost2010PropOp28
 70
     1
102
RTVSPost2010Prop29
280
     1
102
RTVSPost2010PropOp29
 70
     1
102
RTVSPost2010Prop30
280
     1
102
RTVSPost2010PropOp30
 70
     1
102
RTVSPost2010Prop31
280
     0
102
RTVSPost2010PropOp31
 70
     1
102
RTVSPost2010Prop32
280
     0
102
RTVSPost2010PropOp32
 70
     1
102
RTVSPost2010Prop33
280
     0
102
RTVSPost2010PropOp33
 70
     1
102
RTVSPost2010Prop34
280
     0
102
RTVSPost2010PropOp34
 70
     1
102
RTVSPost2010Prop35
280
     0
102
RTVSPost2010PropOp35
 70
     1
102
RTVSPost2010Prop36
280
     0
102
RTVSPost2010PropOp36
 70
     1
102
RTVSPost2010Prop37
 90
       50
102
RTVSPost2010PropOp37
 70
     0
102
RTVSPost2010Prop38
140
0.0
102
RTVSPost2010PropOp38
 70
     0
102
RTVSPost2010Prop39
140
1.0
102
RTVSPost2010PropOp39
 70
     0
102
RTVSPost2010Prop40
 90
        0
102
RTVSPost2010PropOp40
 70
     0
102
RTVSPost2010Prop41ColorIndex
 90
       18
102
RTVSPost2010Prop41ColorRGB
 90
        0
102
RTVSPost2010PropOp41
 70
     0
102
RTVSPost2010Prop42
 90
       50
102
RTVSPost2010PropOp42
 70
     0
102
RTVSPost2010Prop43
 90
        3
102
RTVSPost2010PropOp43
 70
     0
102
RTVSPost2010Prop44ColorIndex
 90
        5
102
RTVSPost2010Prop44ColorRGB
 90
      255
102
RTVSPost2010PropOp44
 70
     0
102
RTVSPost2010Prop45
280
     0
102
RTVSPost2010PropOp45
 70
     1
102
RTVSPost2010Prop46
 90
       50
102
RTVSPost2010PropOp46
 70
     0
102
RTVSPost2010Prop47
 90
       50
102
RTVSPost2010PropOp47
 70
     0
102
RTVSPost2010Prop48
 90
       50
102
RTVSPost2010PropOp48
 70
     0
102
RTVSPost2010Prop49
280
     0
102
RTVSPost2010PropOp49
 70
     1
102
RTVSPost2010Prop50
 90
       50
102
RTVSPost2010PropOp50
 70
     0
102
RTVSPost2010Prop51ColorIndex
 90
      256
102
RTVSPost2010Prop51ColorRGB
 90
-16777216
102
RTVSPost2010PropOp51
 70
     0
102
RTVSPost2010Prop52
140
1.0
102
RTVSPost2010PropOp52
 70
     0
102
RTVSPost2010Prop53
 90
        2
102
RTVSPost2010PropOp53
 70
     0
102
RTVSPost2010Prop54
  1
strokes_ogs.tif
102
RTVSPost2010PropOp54
 70
     0
102
RTVSPost2010Prop55
280
     0
102
RTVSPost2010PropOp55
 70
     1
102
RTVSPost2010Prop56
140
1.0
102
RTVSPost2010PropOp56
 70
     0
102
RTVSPost2010Prop57
140
1.0
102
RTVSPost2010PropOp57
 70
     0
102
RTVSPropertyOp0
 70
     0
102
RTVSPropertyOp1
 70
     0
102
RTVSPropertyOp2
 70
     0
102
RTVSPropertyOp3
 70
     0
102
RTVSPropertyOp4
 70
     0
102
RTVSPropertyOp5
 70
     0
102
RTVSPropertyOp6
 70
     0
102
RTVSPropertyOp7
 70
     0
102
RTVSPropertyOp8
 70
     0
102
RTVSPropertyOp9
 70
     0
102
RTVSPropertyOp10
 70
     0
102
RTVSPropertyOp11
 70
     0
102
RTVSPropertyOp12
 70
     0
102
RTVSPropertyOp13
 70
     0
102
RTVSPropertyOp14
 70
     2
102
RTVSPropertyOp15
 70
     0
102
RTVSPropertyOp16
 70
     0
102
RTVSPropertyOp17
 70
     0
102
RTVSPropertyOp18
 70
     0
102
RTVSPropertyOp19
 70
     0
102
RTVSPropertyOp20
 70
     0
102
RTVSPropertyOp21
 70
     0
102
RTVSPropertyOp22
 70
     0
102
RTVSPropertyOp23
 70
     0
102
RTVSPropertyOp24
 70
     0
102
RTVSPropertyOp25
 70
     0
102
RTVSPropertyOp26
 70
     0
102
RTVSPropertyOp27
 70
     0
102
RTVSPropertyOp28
 70
     1
102
RTVSPropertyOp29
 70
     1
102
RTVSPropertyOp30
 70
     1
102
RTVSPropertyOp31
 70
     1
102
RTVSPropertyOp32
 70
     1
102
RTVSPropertyOp33
 70
     1
102
RTVSPropertyOp34
 70
     1
102
RTVSPropertyOp35
 70
     1
102
RTVSPropertyOp36
 70
     1
102
RTVSPropertyOp37
 70
     0
102
RTVSPropertyOp38
 70
     0
102
RTVSPropertyOp39
 70
     0
102
RTVSPropertyOp40
 70
     0
102
RTVSPropertyOp41
 70
     0
102
RTVSPropertyOp42
 70
     0
102
RTVSPropertyOp43
 70
     0
102
RTVSPropertyOp44
 70
     0
102
RTVSPropertyOp45
 70
     1
102
RTVSPropertyOp46
 70
     0
102
RTVSPropertyOp47
 70
     0
102
RTVSPropertyOp48
 70
     0
102
RTVSPropertyOp49
 70
     1
102
RTVSPropertyOp50
 70
     0
102
RTVSPropertyOp51
 70
     0
102
RTVSPropertyOp52
 70
     0
102
RTVSPropertyOp53
 70
     0
102
RTVSPropertyOp54
 70
     0
102
RTVSPropertyOp55
 70
     1
102
RTVSPropertyOp56
 70
     0
102
RTVSPropertyOp57
 70
     0
102
RTVSPropertyOp58
 70
     0
102
RTVSPropertyOp59
 70
     0
102
RTVSPropertyOp60
 70
     0
102
RTVSPropertyOp61
 70
     0
102
RTVSPropertyOp62
 70
     0
  0
XRECORD
  5
8398
102
{ACAD_REACTORS
330
8397
102
}
330
8397
100
AcDbXrecord
280
     1
102
RTVSPost2010Prop28
280
     0
102
RTVSPost2010PropOp28
 70
     1
102
RTVSPost2010Prop29
280
     1
102
RTVSPost2010PropOp29
 70
     1
102
RTVSPost2010Prop30
280
     1
102
RTVSPost2010PropOp30
 70
     1
102
RTVSPost2010Prop31
280
     0
102
RTVSPost2010PropOp31
 70
     1
102
RTVSPost2010Prop32
280
     0
102
RTVSPost2010PropOp32
 70
     1
102
RTVSPost2010Prop33
280
     0
102
RTVSPost2010PropOp33
 70
     1
102
RTVSPost2010Prop34
280
     0
102
RTVSPost2010PropOp34
 70
     1
102
RTVSPost2010Prop35
280
     0
102
RTVSPost2010PropOp35
 70
     1
102
RTVSPost2010Prop36
280
     0
102
RTVSPost2010PropOp36
 70
     1
102
RTVSPost2010Prop37
 90
       50
102
RTVSPost2010PropOp37
 70
     1
102
RTVSPost2010Prop38
140
0.0
102
RTVSPost2010PropOp38
 70
     1
102
RTVSPost2010Prop39
140
1.0
102
RTVSPost2010PropOp39
 70
     1
102
RTVSPost2010Prop40
 90
        0
102
RTVSPost2010PropOp40
 70
     1
102
RTVSPost2010Prop41ColorIndex
 90
       18
102
RTVSPost2010Prop41ColorRGB
 90
        0
102
RTVSPost2010PropOp41
 70
     1
102
RTVSPost2010Prop42
 90
       50
102
RTVSPost2010PropOp42
 70
     1
102
RTVSPost2010Prop43
 90
        3
102
RTVSPost2010PropOp43
 70
     1
102
RTVSPost2010Prop44ColorIndex
 90
        5
102
RTVSPost2010Prop44ColorRGB
 90
      255
102
RTVSPost2010PropOp44
 70
     1
102
RTVSPost2010Prop45
280
     0
102
RTVSPost2010PropOp45
 70
     1
102
RTVSPost2010Prop46
 90
       50
102
RTVSPost2010PropOp46
 70
     1
102
RTVSPost2010Prop47
 90
       50
102
RTVSPost2010PropOp47
 70
     1
102
RTVSPost2010Prop48
 90
       50
102
RTVSPost2010PropOp48
 70
     1
102
RTVSPost2010Prop49
280
     0
102
RTVSPost2010PropOp49
 70
     1
102
RTVSPost2010Prop50
 90
       50
102
RTVSPost2010PropOp50
 70
     1
102
RTVSPost2010Prop51ColorIndex
 90
      256
102
RTVSPost2010Prop51ColorRGB
 90
-16777216
102
RTVSPost2010PropOp51
 70
     0
102
RTVSPost2010Prop52
140
1.0
102
RTVSPost2010PropOp52
 70
     0
102
RTVSPost2010Prop53
 90
        2
102
RTVSPost2010PropOp53
 70
     1
102
RTVSPost2010Prop54
  1
strokes_ogs.tif
102
RTVSPost2010PropOp54
 70
     1
102
RTVSPost2010Prop55
280
     0
102
RTVSPost2010PropOp55
 70
     1
102
RTVSPost2010Prop56
140
1.0
102
RTVSPost2010PropOp56
 70
     1
102
RTVSPost2010Prop57
140
1.0
102
RTVSPost2010PropOp57
 70
     1
102
RTVSPropertyOp0
 70
     1
102
RTVSPropertyOp1
 70
     1
102
RTVSPropertyOp2
 70
     1
102
RTVSPropertyOp3
 70
     1
102
RTVSPropertyOp4
 70
     1
102
RTVSPropertyOp5
 70
     1
102
RTVSPropertyOp6
 70
     1
102
RTVSPropertyOp7
 70
     1
102
RTVSPropertyOp8
 70
     1
102
RTVSPropertyOp9
 70
     1
102
RTVSPropertyOp10
 70
     1
102
RTVSPropertyOp11
 70
     1
102
RTVSPropertyOp12
 70
     1
102
RTVSPropertyOp13
 70
     1
102
RTVSPropertyOp14
 70
     1
102
RTVSPropertyOp15
 70
     1
102
RTVSPropertyOp16
 70
     1
102
RTVSPropertyOp17
 70
     1
102
RTVSPropertyOp18
 70
     1
102
RTVSPropertyOp19
 70
     1
102
RTVSPropertyOp20
 70
     1
102
RTVSPropertyOp21
 70
     1
102
RTVSPropertyOp22
 70
     1
102
RTVSPropertyOp23
 70
     1
102
RTVSPropertyOp24
 70
     1
102
RTVSPropertyOp25
 70
     1
102
RTVSPropertyOp26
 70
     1
102
RTVSPropertyOp27
 70
     1
102
RTVSPropertyOp28
 70
     1
102
RTVSPropertyOp29
 70
     1
102
RTVSPropertyOp30
 70
     1
102
RTVSPropertyOp31
 70
     1
102
RTVSPropertyOp32
 70
     1
102
RTVSPropertyOp33
 70
     1
102
RTVSPropertyOp34
 70
     1
102
RTVSPropertyOp35
 70
     1
102
RTVSPropertyOp36
 70
     1
102
RTVSPropertyOp37
 70
     1
102
RTVSPropertyOp38
 70
     1
102
RTVSPropertyOp39
 70
     1
102
RTVSPropertyOp40
 70
     1
102
RTVSPropertyOp41
 70
     1
102
RTVSPropertyOp42
 70
     1
102
RTVSPropertyOp43
 70
     1
102
RTVSPropertyOp44
 70
     1
102
RTVSPropertyOp45
 70
     1
102
RTVSPropertyOp46
 70
     1
102
RTVSPropertyOp47
 70
     1
102
RTVSPropertyOp48
 70
     1
102
RTVSPropertyOp49
 70
     1
102
RTVSPropertyOp50
 70
     1
102
RTVSPropertyOp51
 70
     0
102
RTVSPropertyOp52
 70
     0
102
RTVSPropertyOp53
 70
     1
102
RTVSPropertyOp54
 70
     1
102
RTVSPropertyOp55
 70
     1
102
RTVSPropertyOp56
 70
     1
102
RTVSPropertyOp57
 70
     1
102
RTVSPropertyOp58
 70
     1
102
RTVSPropertyOp59
 70
     1
102
RTVSPropertyOp60
 70
     1
102
RTVSPropertyOp61
 70
     1
102
RTVSPropertyOp62
 70
     1
  0
XRECORD
  5
83AE
102
{ACAD_REACTORS
330
83AD
102
}
330
83AD
100
AcDbXrecord
280
     1
102
RTVSPost2010Prop28
280
     0
102
RTVSPost2010PropOp28
 70
     1
102
RTVSPost2010Prop29
280
     1
102
RTVSPost2010PropOp29
 70
     1
102
RTVSPost2010Prop30
280
     1
102
RTVSPost2010PropOp30
 70
     1
102
RTVSPost2010Prop31
280
     0
102
RTVSPost2010PropOp31
 70
     1
102
RTVSPost2010Prop32
280
     0
102
RTVSPost2010PropOp32
 70
     1
102
RTVSPost2010Prop33
280
     0
102
RTVSPost2010PropOp33
 70
     1
102
RTVSPost2010Prop34
280
     0
102
RTVSPost2010PropOp34
 70
     1
102
RTVSPost2010Prop35
280
     0
102
RTVSPost2010PropOp35
 70
     1
102
RTVSPost2010Prop36
280
     0
102
RTVSPost2010PropOp36
 70
     1
102
RTVSPost2010Prop37
 90
       50
102
RTVSPost2010PropOp37
 70
     1
102
RTVSPost2010Prop38
140
0.0
102
RTVSPost2010PropOp38
 70
     1
102
RTVSPost2010Prop39
140
1.0
102
RTVSPost2010PropOp39
 70
     1
102
RTVSPost2010Prop40
 90
        0
102
RTVSPost2010PropOp40
 70
     1
102
RTVSPost2010Prop41ColorIndex
 90
       18
102
RTVSPost2010Prop41ColorRGB
 90
        0
102
RTVSPost2010PropOp41
 70
     1
102
RTVSPost2010Prop42
 90
       50
102
RTVSPost2010PropOp42
 70
     1
102
RTVSPost2010Prop43
 90
        3
102
RTVSPost2010PropOp43
 70
     1
102
RTVSPost2010Prop44ColorIndex
 90
        5
102
RTVSPost2010Prop44ColorRGB
 90
      255
102
RTVSPost2010PropOp44
 70
     1
102
RTVSPost2010Prop45
280
     0
102
RTVSPost2010PropOp45
 70
     1
102
RTVSPost2010Prop46
 90
       50
102
RTVSPost2010PropOp46
 70
     1
102
RTVSPost2010Prop47
 90
       50
102
RTVSPost2010PropOp47
 70
     1
102
RTVSPost2010Prop48
 90
       50
102
RTVSPost2010PropOp48
 70
     1
102
RTVSPost2010Prop49
280
     0
102
RTVSPost2010PropOp49
 70
     1
102
RTVSPost2010Prop50
 90
       50
102
RTVSPost2010PropOp50
 70
     1
102
RTVSPost2010Prop51ColorIndex
 90
      256
102
RTVSPost2010Prop51ColorRGB
 90
-16777216
102
RTVSPost2010PropOp51
 70
     0
102
RTVSPost2010Prop52
140
1.0
102
RTVSPost2010PropOp52
 70
     0
102
RTVSPost2010Prop53
 90
        2
102
RTVSPost2010PropOp53
 70
     1
102
RTVSPost2010Prop54
  1
strokes_ogs.tif
102
RTVSPost2010PropOp54
 70
     1
102
RTVSPost2010Prop55
280
     0
102
RTVSPost2010PropOp55
 70
     1
102
RTVSPost2010Prop56
140
1.0
102
RTVSPost2010PropOp56
 70
     1
102
RTVSPost2010Prop57
140
1.0
102
RTVSPost2010PropOp57
 70
     1
102
RTVSPropertyOp0
 70
     1
102
RTVSPropertyOp1
 70
     1
102
RTVSPropertyOp2
 70
     1
102
RTVSPropertyOp3
 70
     1
102
RTVSPropertyOp4
 70
     1
102
RTVSPropertyOp5
 70
     1
102
RTVSPropertyOp6
 70
     1
102
RTVSPropertyOp7
 70
     1
102
RTVSPropertyOp8
 70
     1
102
RTVSPropertyOp9
 70
     1
102
RTVSPropertyOp10
 70
     1
102
RTVSPropertyOp11
 70
     1
102
RTVSPropertyOp12
 70
     1
102
RTVSPropertyOp13
 70
     1
102
RTVSPropertyOp14
 70
     1
102
RTVSPropertyOp15
 70
     1
102
RTVSPropertyOp16
 70
     1
102
RTVSPropertyOp17
 70
     1
102
RTVSPropertyOp18
 70
     1
102
RTVSPropertyOp19
 70
     1
102
RTVSPropertyOp20
 70
     1
102
RTVSPropertyOp21
 70
     1
102
RTVSPropertyOp22
 70
     1
102
RTVSPropertyOp23
 70
     1
102
RTVSPropertyOp24
 70
     1
102
RTVSPropertyOp25
 70
     1
102
RTVSPropertyOp26
 70
     1
102
RTVSPropertyOp27
 70
     1
102
RTVSPropertyOp28
 70
     1
102
RTVSPropertyOp29
 70
     1
102
RTVSPropertyOp30
 70
     1
102
RTVSPropertyOp31
 70
     1
102
RTVSPropertyOp32
 70
     1
102
RTVSPropertyOp33
 70
     1
102
RTVSPropertyOp34
 70
     1
102
RTVSPropertyOp35
 70
     1
102
RTVSPropertyOp36
 70
     1
102
RTVSPropertyOp37
 70
     1
102
RTVSPropertyOp38
 70
     1
102
RTVSPropertyOp39
 70
     1
102
RTVSPropertyOp40
 70
     1
102
RTVSPropertyOp41
 70
     1
102
RTVSPropertyOp42
 70
     1
102
RTVSPropertyOp43
 70
     1
102
RTVSPropertyOp44
 70
     1
102
RTVSPropertyOp45
 70
     1
102
RTVSPropertyOp46
 70
     1
102
RTVSPropertyOp47
 70
     1
102
RTVSPropertyOp48
 70
     1
102
RTVSPropertyOp49
 70
     1
102
RTVSPropertyOp50
 70
     1
102
RTVSPropertyOp51
 70
     0
102
RTVSPropertyOp52
 70
     0
102
RTVSPropertyOp53
 70
     1
102
RTVSPropertyOp54
 70
     1
102
RTVSPropertyOp55
 70
     1
102
RTVSPropertyOp56
 70
     1
102
RTVSPropertyOp57
 70
     1
102
RTVSPropertyOp58
 70
     1
102
RTVSPropertyOp59
 70
     1
102
RTVSPropertyOp60
 70
     1
102
RTVSPropertyOp61
 70
     1
102
RTVSPropertyOp62
 70
     1
  0
XRECORD
  5
83AC
102
{ACAD_REACTORS
330
83AB
102
}
330
83AB
100
AcDbXrecord
280
     1
102
RTVSPost2010Prop28
280
     0
102
RTVSPost2010PropOp28
 70
     1
102
RTVSPost2010Prop29
280
     1
102
RTVSPost2010PropOp29
 70
     1
102
RTVSPost2010Prop30
280
     1
102
RTVSPost2010PropOp30
 70
     1
102
RTVSPost2010Prop31
280
     0
102
RTVSPost2010PropOp31
 70
     1
102
RTVSPost2010Prop32
280
     0
102
RTVSPost2010PropOp32
 70
     1
102
RTVSPost2010Prop33
280
     0
102
RTVSPost2010PropOp33
 70
     1
102
RTVSPost2010Prop34
280
     0
102
RTVSPost2010PropOp34
 70
     1
102
RTVSPost2010Prop35
280
     0
102
RTVSPost2010PropOp35
 70
     1
102
RTVSPost2010Prop36
280
     0
102
RTVSPost2010PropOp36
 70
     1
102
RTVSPost2010Prop37
 90
       50
102
RTVSPost2010PropOp37
 70
     1
102
RTVSPost2010Prop38
140
0.0
102
RTVSPost2010PropOp38
 70
     1
102
RTVSPost2010Prop39
140
1.0
102
RTVSPost2010PropOp39
 70
     1
102
RTVSPost2010Prop40
 90
        0
102
RTVSPost2010PropOp40
 70
     1
102
RTVSPost2010Prop41ColorIndex
 90
       18
102
RTVSPost2010Prop41ColorRGB
 90
        0
102
RTVSPost2010PropOp41
 70
     1
102
RTVSPost2010Prop42
 90
       50
102
RTVSPost2010PropOp42
 70
     1
102
RTVSPost2010Prop43
 90
        3
102
RTVSPost2010PropOp43
 70
     1
102
RTVSPost2010Prop44ColorIndex
 90
        5
102
RTVSPost2010Prop44ColorRGB
 90
      255
102
RTVSPost2010PropOp44
 70
     1
102
RTVSPost2010Prop45
280
     0
102
RTVSPost2010PropOp45
 70
     1
102
RTVSPost2010Prop46
 90
       50
102
RTVSPost2010PropOp46
 70
     1
102
RTVSPost2010Prop47
 90
       50
102
RTVSPost2010PropOp47
 70
     1
102
RTVSPost2010Prop48
 90
       50
102
RTVSPost2010PropOp48
 70
     1
102
RTVSPost2010Prop49
280
     0
102
RTVSPost2010PropOp49
 70
     1
102
RTVSPost2010Prop50
 90
       50
102
RTVSPost2010PropOp50
 70
     1
102
RTVSPost2010Prop51ColorIndex
 90
      256
102
RTVSPost2010Prop51ColorRGB
 90
-16777216
102
RTVSPost2010PropOp51
 70
     0
102
RTVSPost2010Prop52
140
1.0
102
RTVSPost2010PropOp52
 70
     0
102
RTVSPost2010Prop53
 90
        2
102
RTVSPost2010PropOp53
 70
     1
102
RTVSPost2010Prop54
  1
strokes_ogs.tif
102
RTVSPost2010PropOp54
 70
     1
102
RTVSPost2010Prop55
280
     0
102
RTVSPost2010PropOp55
 70
     1
102
RTVSPost2010Prop56
140
1.0
102
RTVSPost2010PropOp56
 70
     1
102
RTVSPost2010Prop57
140
1.0
102
RTVSPost2010PropOp57
 70
     1
102
RTVSPropertyOp0
 70
     1
102
RTVSPropertyOp1
 70
     1
102
RTVSPropertyOp2
 70
     1
102
RTVSPropertyOp3
 70
     1
102
RTVSPropertyOp4
 70
     1
102
RTVSPropertyOp5
 70
     1
102
RTVSPropertyOp6
 70
     1
102
RTVSPropertyOp7
 70
     1
102
RTVSPropertyOp8
 70
     1
102
RTVSPropertyOp9
 70
     1
102
RTVSPropertyOp10
 70
     1
102
RTVSPropertyOp11
 70
     1
102
RTVSPropertyOp12
 70
     1
102
RTVSPropertyOp13
 70
     1
102
RTVSPropertyOp14
 70
     1
102
RTVSPropertyOp15
 70
     1
102
RTVSPropertyOp16
 70
     1
102
RTVSPropertyOp17
 70
     1
102
RTVSPropertyOp18
 70
     1
102
RTVSPropertyOp19
 70
     1
102
RTVSPropertyOp20
 70
     1
102
RTVSPropertyOp21
 70
     1
102
RTVSPropertyOp22
 70
     1
102
RTVSPropertyOp23
 70
     1
102
RTVSPropertyOp24
 70
     1
102
RTVSPropertyOp25
 70
     1
102
RTVSPropertyOp26
 70
     1
102
RTVSPropertyOp27
 70
     1
102
RTVSPropertyOp28
 70
     1
102
RTVSPropertyOp29
 70
     1
102
RTVSPropertyOp30
 70
     1
102
RTVSPropertyOp31
 70
     1
102
RTVSPropertyOp32
 70
     1
102
RTVSPropertyOp33
 70
     1
102
RTVSPropertyOp34
 70
     1
102
RTVSPropertyOp35
 70
     1
102
RTVSPropertyOp36
 70
     1
102
RTVSPropertyOp37
 70
     1
102
RTVSPropertyOp38
 70
     1
102
RTVSPropertyOp39
 70
     1
102
RTVSPropertyOp40
 70
     1
102
RTVSPropertyOp41
 70
     1
102
RTVSPropertyOp42
 70
     1
102
RTVSPropertyOp43
 70
     1
102
RTVSPropertyOp44
 70
     1
102
RTVSPropertyOp45
 70
     1
102
RTVSPropertyOp46
 70
     1
102
RTVSPropertyOp47
 70
     1
102
RTVSPropertyOp48
 70
     1
102
RTVSPropertyOp49
 70
     1
102
RTVSPropertyOp50
 70
     1
102
RTVSPropertyOp51
 70
     0
102
RTVSPropertyOp52
 70
     0
102
RTVSPropertyOp53
 70
     1
102
RTVSPropertyOp54
 70
     1
102
RTVSPropertyOp55
 70
     1
102
RTVSPropertyOp56
 70
     1
102
RTVSPropertyOp57
 70
     1
102
RTVSPropertyOp58
 70
     1
102
RTVSPropertyOp59
 70
     1
102
RTVSPropertyOp60
 70
     1
102
RTVSPropertyOp61
 70
     1
102
RTVSPropertyOp62
 70
     1
  0
XRECORD
  5
83A6
102
{ACAD_REACTORS
330
83A5
102
}
330
83A5
100
AcDbXrecord
280
     1
102
RTVSPost2010Prop28
280
     0
102
RTVSPost2010PropOp28
 70
     1
102
RTVSPost2010Prop29
280
     1
102
RTVSPost2010PropOp29
 70
     1
102
RTVSPost2010Prop30
280
     1
102
RTVSPost2010PropOp30
 70
     1
102
RTVSPost2010Prop31
280
     0
102
RTVSPost2010PropOp31
 70
     1
102
RTVSPost2010Prop32
280
     0
102
RTVSPost2010PropOp32
 70
     1
102
RTVSPost2010Prop33
280
     0
102
RTVSPost2010PropOp33
 70
     1
102
RTVSPost2010Prop34
280
     0
102
RTVSPost2010PropOp34
 70
     1
102
RTVSPost2010Prop35
280
     0
102
RTVSPost2010PropOp35
 70
     1
102
RTVSPost2010Prop36
280
     0
102
RTVSPost2010PropOp36
 70
     1
102
RTVSPost2010Prop37
 90
       50
102
RTVSPost2010PropOp37
 70
     1
102
RTVSPost2010Prop38
140
0.0
102
RTVSPost2010PropOp38
 70
     1
102
RTVSPost2010Prop39
140
1.0
102
RTVSPost2010PropOp39
 70
     1
102
RTVSPost2010Prop40
 90
        0
102
RTVSPost2010PropOp40
 70
     1
102
RTVSPost2010Prop41ColorIndex
 90
       18
102
RTVSPost2010Prop41ColorRGB
 90
        0
102
RTVSPost2010PropOp41
 70
     1
102
RTVSPost2010Prop42
 90
       50
102
RTVSPost2010PropOp42
 70
     1
102
RTVSPost2010Prop43
 90
        3
102
RTVSPost2010PropOp43
 70
     1
102
RTVSPost2010Prop44ColorIndex
 90
        5
102
RTVSPost2010Prop44ColorRGB
 90
      255
102
RTVSPost2010PropOp44
 70
     1
102
RTVSPost2010Prop45
280
     0
102
RTVSPost2010PropOp45
 70
     1
102
RTVSPost2010Prop46
 90
       50
102
RTVSPost2010PropOp46
 70
     1
102
RTVSPost2010Prop47
 90
       50
102
RTVSPost2010PropOp47
 70
     1
102
RTVSPost2010Prop48
 90
       50
102
RTVSPost2010PropOp48
 70
     1
102
RTVSPost2010Prop49
280
     0
102
RTVSPost2010PropOp49
 70
     1
102
RTVSPost2010Prop50
 90
       50
102
RTVSPost2010PropOp50
 70
     1
102
RTVSPost2010Prop51ColorIndex
 90
      256
102
RTVSPost2010Prop51ColorRGB
 90
-16777216
102
RTVSPost2010PropOp51
 70
     0
102
RTVSPost2010Prop52
140
1.0
102
RTVSPost2010PropOp52
 70
     0
102
RTVSPost2010Prop53
 90
        2
102
RTVSPost2010PropOp53
 70
     1
102
RTVSPost2010Prop54
  1
strokes_ogs.tif
102
RTVSPost2010PropOp54
 70
     1
102
RTVSPost2010Prop55
280
     0
102
RTVSPost2010PropOp55
 70
     1
102
RTVSPost2010Prop56
140
1.0
102
RTVSPost2010PropOp56
 70
     1
102
RTVSPost2010Prop57
140
1.0
102
RTVSPost2010PropOp57
 70
     1
102
RTVSPropertyOp0
 70
     1
102
RTVSPropertyOp1
 70
     1
102
RTVSPropertyOp2
 70
     1
102
RTVSPropertyOp3
 70
     1
102
RTVSPropertyOp4
 70
     1
102
RTVSPropertyOp5
 70
     1
102
RTVSPropertyOp6
 70
     1
102
RTVSPropertyOp7
 70
     1
102
RTVSPropertyOp8
 70
     1
102
RTVSPropertyOp9
 70
     1
102
RTVSPropertyOp10
 70
     1
102
RTVSPropertyOp11
 70
     1
102
RTVSPropertyOp12
 70
     1
102
RTVSPropertyOp13
 70
     1
102
RTVSPropertyOp14
 70
     1
102
RTVSPropertyOp15
 70
     1
102
RTVSPropertyOp16
 70
     1
102
RTVSPropertyOp17
 70
     1
102
RTVSPropertyOp18
 70
     1
102
RTVSPropertyOp19
 70
     1
102
RTVSPropertyOp20
 70
     1
102
RTVSPropertyOp21
 70
     1
102
RTVSPropertyOp22
 70
     1
102
RTVSPropertyOp23
 70
     1
102
RTVSPropertyOp24
 70
     1
102
RTVSPropertyOp25
 70
     1
102
RTVSPropertyOp26
 70
     1
102
RTVSPropertyOp27
 70
     1
102
RTVSPropertyOp28
 70
     1
102
RTVSPropertyOp29
 70
     1
102
RTVSPropertyOp30
 70
     1
102
RTVSPropertyOp31
 70
     1
102
RTVSPropertyOp32
 70
     1
102
RTVSPropertyOp33
 70
     1
102
RTVSPropertyOp34
 70
     1
102
RTVSPropertyOp35
 70
     1
102
RTVSPropertyOp36
 70
     1
102
RTVSPropertyOp37
 70
     1
102
RTVSPropertyOp38
 70
     1
102
RTVSPropertyOp39
 70
     1
102
RTVSPropertyOp40
 70
     1
102
RTVSPropertyOp41
 70
     1
102
RTVSPropertyOp42
 70
     1
102
RTVSPropertyOp43
 70
     1
102
RTVSPropertyOp44
 70
     1
102
RTVSPropertyOp45
 70
     1
102
RTVSPropertyOp46
 70
     1
102
RTVSPropertyOp47
 70
     1
102
RTVSPropertyOp48
 70
     1
102
RTVSPropertyOp49
 70
     1
102
RTVSPropertyOp50
 70
     1
102
RTVSPropertyOp51
 70
     0
102
RTVSPropertyOp52
 70
     0
102
RTVSPropertyOp53
 70
     1
102
RTVSPropertyOp54
 70
     1
102
RTVSPropertyOp55
 70
     1
102
RTVSPropertyOp56
 70
     1
102
RTVSPropertyOp57
 70
     1
102
RTVSPropertyOp58
 70
     1
102
RTVSPropertyOp59
 70
     1
102
RTVSPropertyOp60
 70
     1
102
RTVSPropertyOp61
 70
     1
102
RTVSPropertyOp62
 70
     1
  0
XRECORD
  5
83A8
102
{ACAD_REACTORS
330
83A7
102
}
330
83A7
100
AcDbXrecord
280
     1
102
RTVSPost2010Prop28
280
     0
102
RTVSPost2010PropOp28
 70
     1
102
RTVSPost2010Prop29
280
     1
102
RTVSPost2010PropOp29
 70
     1
102
RTVSPost2010Prop30
280
     1
102
RTVSPost2010PropOp30
 70
     1
102
RTVSPost2010Prop31
280
     0
102
RTVSPost2010PropOp31
 70
     1
102
RTVSPost2010Prop32
280
     0
102
RTVSPost2010PropOp32
 70
     1
102
RTVSPost2010Prop33
280
     0
102
RTVSPost2010PropOp33
 70
     1
102
RTVSPost2010Prop34
280
     0
102
RTVSPost2010PropOp34
 70
     1
102
RTVSPost2010Prop35
280
     0
102
RTVSPost2010PropOp35
 70
     1
102
RTVSPost2010Prop36
280
     0
102
RTVSPost2010PropOp36
 70
     1
102
RTVSPost2010Prop37
 90
       50
102
RTVSPost2010PropOp37
 70
     1
102
RTVSPost2010Prop38
140
0.0
102
RTVSPost2010PropOp38
 70
     1
102
RTVSPost2010Prop39
140
1.0
102
RTVSPost2010PropOp39
 70
     1
102
RTVSPost2010Prop40
 90
        0
102
RTVSPost2010PropOp40
 70
     1
102
RTVSPost2010Prop41ColorIndex
 90
       18
102
RTVSPost2010Prop41ColorRGB
 90
        0
102
RTVSPost2010PropOp41
 70
     1
102
RTVSPost2010Prop42
 90
       50
102
RTVSPost2010PropOp42
 70
     1
102
RTVSPost2010Prop43
 90
        3
102
RTVSPost2010PropOp43
 70
     1
102
RTVSPost2010Prop44ColorIndex
 90
        5
102
RTVSPost2010Prop44ColorRGB
 90
      255
102
RTVSPost2010PropOp44
 70
     1
102
RTVSPost2010Prop45
280
     0
102
RTVSPost2010PropOp45
 70
     1
102
RTVSPost2010Prop46
 90
       50
102
RTVSPost2010PropOp46
 70
     1
102
RTVSPost2010Prop47
 90
       50
102
RTVSPost2010PropOp47
 70
     1
102
RTVSPost2010Prop48
 90
       50
102
RTVSPost2010PropOp48
 70
     1
102
RTVSPost2010Prop49
280
     0
102
RTVSPost2010PropOp49
 70
     1
102
RTVSPost2010Prop50
 90
       50
102
RTVSPost2010PropOp50
 70
     1
102
RTVSPost2010Prop51ColorIndex
 90
      256
102
RTVSPost2010Prop51ColorRGB
 90
-16777216
102
RTVSPost2010PropOp51
 70
     0
102
RTVSPost2010Prop52
140
1.0
102
RTVSPost2010PropOp52
 70
     0
102
RTVSPost2010Prop53
 90
        2
102
RTVSPost2010PropOp53
 70
     1
102
RTVSPost2010Prop54
  1
strokes_ogs.tif
102
RTVSPost2010PropOp54
 70
     1
102
RTVSPost2010Prop55
280
     0
102
RTVSPost2010PropOp55
 70
     1
102
RTVSPost2010Prop56
140
1.0
102
RTVSPost2010PropOp56
 70
     1
102
RTVSPost2010Prop57
140
1.0
102
RTVSPost2010PropOp57
 70
     1
102
RTVSPropertyOp0
 70
     1
102
RTVSPropertyOp1
 70
     1
102
RTVSPropertyOp2
 70
     1
102
RTVSPropertyOp3
 70
     1
102
RTVSPropertyOp4
 70
     1
102
RTVSPropertyOp5
 70
     1
102
RTVSPropertyOp6
 70
     1
102
RTVSPropertyOp7
 70
     1
102
RTVSPropertyOp8
 70
     1
102
RTVSPropertyOp9
 70
     1
102
RTVSPropertyOp10
 70
     1
102
RTVSPropertyOp11
 70
     1
102
RTVSPropertyOp12
 70
     1
102
RTVSPropertyOp13
 70
     1
102
RTVSPropertyOp14
 70
     1
102
RTVSPropertyOp15
 70
     1
102
RTVSPropertyOp16
 70
     1
102
RTVSPropertyOp17
 70
     1
102
RTVSPropertyOp18
 70
     1
102
RTVSPropertyOp19
 70
     1
102
RTVSPropertyOp20
 70
     1
102
RTVSPropertyOp21
 70
     1
102
RTVSPropertyOp22
 70
     1
102
RTVSPropertyOp23
 70
     1
102
RTVSPropertyOp24
 70
     1
102
RTVSPropertyOp25
 70
     1
102
RTVSPropertyOp26
 70
     1
102
RTVSPropertyOp27
 70
     1
102
RTVSPropertyOp28
 70
     1
102
RTVSPropertyOp29
 70
     1
102
RTVSPropertyOp30
 70
     1
102
RTVSPropertyOp31
 70
     1
102
RTVSPropertyOp32
 70
     1
102
RTVSPropertyOp33
 70
     1
102
RTVSPropertyOp34
 70
     1
102
RTVSPropertyOp35
 70
     1
102
RTVSPropertyOp36
 70
     1
102
RTVSPropertyOp37
 70
     1
102
RTVSPropertyOp38
 70
     1
102
RTVSPropertyOp39
 70
     1
102
RTVSPropertyOp40
 70
     1
102
RTVSPropertyOp41
 70
     1
102
RTVSPropertyOp42
 70
     1
102
RTVSPropertyOp43
 70
     1
102
RTVSPropertyOp44
 70
     1
102
RTVSPropertyOp45
 70
     1
102
RTVSPropertyOp46
 70
     1
102
RTVSPropertyOp47
 70
     1
102
RTVSPropertyOp48
 70
     1
102
RTVSPropertyOp49
 70
     1
102
RTVSPropertyOp50
 70
     1
102
RTVSPropertyOp51
 70
     0
102
RTVSPropertyOp52
 70
     0
102
RTVSPropertyOp53
 70
     1
102
RTVSPropertyOp54
 70
     1
102
RTVSPropertyOp55
 70
     1
102
RTVSPropertyOp56
 70
     1
102
RTVSPropertyOp57
 70
     1
102
RTVSPropertyOp58
 70
     1
102
RTVSPropertyOp59
 70
     1
102
RTVSPropertyOp60
 70
     1
102
RTVSPropertyOp61
 70
     1
102
RTVSPropertyOp62
 70
     1
  0
XRECORD
  5
839E
102
{ACAD_REACTORS
330
839D
102
}
330
839D
100
AcDbXrecord
280
     1
102
RTVSPost2010Prop28
280
     0
102
RTVSPost2010PropOp28
 70
     1
102
RTVSPost2010Prop29
280
     1
102
RTVSPost2010PropOp29
 70
     1
102
RTVSPost2010Prop30
280
     1
102
RTVSPost2010PropOp30
 70
     1
102
RTVSPost2010Prop31
280
     0
102
RTVSPost2010PropOp31
 70
     1
102
RTVSPost2010Prop32
280
     0
102
RTVSPost2010PropOp32
 70
     1
102
RTVSPost2010Prop33
280
     0
102
RTVSPost2010PropOp33
 70
     1
102
RTVSPost2010Prop34
280
     0
102
RTVSPost2010PropOp34
 70
     1
102
RTVSPost2010Prop35
280
     0
102
RTVSPost2010PropOp35
 70
     1
102
RTVSPost2010Prop36
280
     0
102
RTVSPost2010PropOp36
 70
     1
102
RTVSPost2010Prop37
 90
       50
102
RTVSPost2010PropOp37
 70
     1
102
RTVSPost2010Prop38
140
0.0
102
RTVSPost2010PropOp38
 70
     1
102
RTVSPost2010Prop39
140
1.0
102
RTVSPost2010PropOp39
 70
     1
102
RTVSPost2010Prop40
 90
        0
102
RTVSPost2010PropOp40
 70
     1
102
RTVSPost2010Prop41ColorIndex
 90
       18
102
RTVSPost2010Prop41ColorRGB
 90
        0
102
RTVSPost2010PropOp41
 70
     1
102
RTVSPost2010Prop42
 90
       50
102
RTVSPost2010PropOp42
 70
     1
102
RTVSPost2010Prop43
 90
        3
102
RTVSPost2010PropOp43
 70
     1
102
RTVSPost2010Prop44ColorIndex
 90
        5
102
RTVSPost2010Prop44ColorRGB
 90
      255
102
RTVSPost2010PropOp44
 70
     1
102
RTVSPost2010Prop45
280
     0
102
RTVSPost2010PropOp45
 70
     1
102
RTVSPost2010Prop46
 90
       50
102
RTVSPost2010PropOp46
 70
     1
102
RTVSPost2010Prop47
 90
       50
102
RTVSPost2010PropOp47
 70
     1
102
RTVSPost2010Prop48
 90
       50
102
RTVSPost2010PropOp48
 70
     1
102
RTVSPost2010Prop49
280
     0
102
RTVSPost2010PropOp49
 70
     1
102
RTVSPost2010Prop50
 90
       50
102
RTVSPost2010PropOp50
 70
     1
102
RTVSPost2010Prop51ColorIndex
 90
      256
102
RTVSPost2010Prop51ColorRGB
 90
-16777216
102
RTVSPost2010PropOp51
 70
     0
102
RTVSPost2010Prop52
140
1.0
102
RTVSPost2010PropOp52
 70
     0
102
RTVSPost2010Prop53
 90
        2
102
RTVSPost2010PropOp53
 70
     1
102
RTVSPost2010Prop54
  1
strokes_ogs.tif
102
RTVSPost2010PropOp54
 70
     1
102
RTVSPost2010Prop55
280
     0
102
RTVSPost2010PropOp55
 70
     1
102
RTVSPost2010Prop56
140
1.0
102
RTVSPost2010PropOp56
 70
     1
102
RTVSPost2010Prop57
140
1.0
102
RTVSPost2010PropOp57
 70
     1
102
RTVSPropertyOp0
 70
     1
102
RTVSPropertyOp1
 70
     1
102
RTVSPropertyOp2
 70
     1
102
RTVSPropertyOp3
 70
     1
102
RTVSPropertyOp4
 70
     1
102
RTVSPropertyOp5
 70
     1
102
RTVSPropertyOp6
 70
     1
102
RTVSPropertyOp7
 70
     1
102
RTVSPropertyOp8
 70
     1
102
RTVSPropertyOp9
 70
     1
102
RTVSPropertyOp10
 70
     1
102
RTVSPropertyOp11
 70
     1
102
RTVSPropertyOp12
 70
     1
102
RTVSPropertyOp13
 70
     1
102
RTVSPropertyOp14
 70
     1
102
RTVSPropertyOp15
 70
     1
102
RTVSPropertyOp16
 70
     1
102
RTVSPropertyOp17
 70
     1
102
RTVSPropertyOp18
 70
     1
102
RTVSPropertyOp19
 70
     1
102
RTVSPropertyOp20
 70
     1
102
RTVSPropertyOp21
 70
     1
102
RTVSPropertyOp22
 70
     1
102
RTVSPropertyOp23
 70
     1
102
RTVSPropertyOp24
 70
     1
102
RTVSPropertyOp25
 70
     1
102
RTVSPropertyOp26
 70
     1
102
RTVSPropertyOp27
 70
     1
102
RTVSPropertyOp28
 70
     1
102
RTVSPropertyOp29
 70
     1
102
RTVSPropertyOp30
 70
     1
102
RTVSPropertyOp31
 70
     1
102
RTVSPropertyOp32
 70
     1
102
RTVSPropertyOp33
 70
     1
102
RTVSPropertyOp34
 70
     1
102
RTVSPropertyOp35
 70
     1
102
RTVSPropertyOp36
 70
     1
102
RTVSPropertyOp37
 70
     1
102
RTVSPropertyOp38
 70
     1
102
RTVSPropertyOp39
 70
     1
102
RTVSPropertyOp40
 70
     1
102
RTVSPropertyOp41
 70
     1
102
RTVSPropertyOp42
 70
     1
102
RTVSPropertyOp43
 70
     1
102
RTVSPropertyOp44
 70
     1
102
RTVSPropertyOp45
 70
     1
102
RTVSPropertyOp46
 70
     1
102
RTVSPropertyOp47
 70
     1
102
RTVSPropertyOp48
 70
     1
102
RTVSPropertyOp49
 70
     1
102
RTVSPropertyOp50
 70
     1
102
RTVSPropertyOp51
 70
     0
102
RTVSPropertyOp52
 70
     0
102
RTVSPropertyOp53
 70
     1
102
RTVSPropertyOp54
 70
     1
102
RTVSPropertyOp55
 70
     1
102
RTVSPropertyOp56
 70
     1
102
RTVSPropertyOp57
 70
     1
102
RTVSPropertyOp58
 70
     1
102
RTVSPropertyOp59
 70
     1
102
RTVSPropertyOp60
 70
     1
102
RTVSPropertyOp61
 70
     1
102
RTVSPropertyOp62
 70
     1
  0
XRECORD
  5
8392
102
{ACAD_REACTORS
330
8391
102
}
330
8391
100
AcDbXrecord
280
     1
102
RTVSPost2010Prop28
280
     0
102
RTVSPost2010PropOp28
 70
     1
102
RTVSPost2010Prop29
280
     1
102
RTVSPost2010PropOp29
 70
     1
102
RTVSPost2010Prop30
280
     1
102
RTVSPost2010PropOp30
 70
     1
102
RTVSPost2010Prop31
280
     0
102
RTVSPost2010PropOp31
 70
     1
102
RTVSPost2010Prop32
280
     0
102
RTVSPost2010PropOp32
 70
     1
102
RTVSPost2010Prop33
280
     0
102
RTVSPost2010PropOp33
 70
     1
102
RTVSPost2010Prop34
280
     0
102
RTVSPost2010PropOp34
 70
     1
102
RTVSPost2010Prop35
280
     0
102
RTVSPost2010PropOp35
 70
     1
102
RTVSPost2010Prop36
280
     0
102
RTVSPost2010PropOp36
 70
     1
102
RTVSPost2010Prop37
 90
       50
102
RTVSPost2010PropOp37
 70
     1
102
RTVSPost2010Prop38
140
0.0
102
RTVSPost2010PropOp38
 70
     1
102
RTVSPost2010Prop39
140
1.0
102
RTVSPost2010PropOp39
 70
     1
102
RTVSPost2010Prop40
 90
        0
102
RTVSPost2010PropOp40
 70
     1
102
RTVSPost2010Prop41ColorIndex
 90
       18
102
RTVSPost2010Prop41ColorRGB
 90
        0
102
RTVSPost2010PropOp41
 70
     1
102
RTVSPost2010Prop42
 90
       50
102
RTVSPost2010PropOp42
 70
     1
102
RTVSPost2010Prop43
 90
        3
102
RTVSPost2010PropOp43
 70
     1
102
RTVSPost2010Prop44ColorIndex
 90
        5
102
RTVSPost2010Prop44ColorRGB
 90
      255
102
RTVSPost2010PropOp44
 70
     1
102
RTVSPost2010Prop45
280
     0
102
RTVSPost2010PropOp45
 70
     1
102
RTVSPost2010Prop46
 90
       50
102
RTVSPost2010PropOp46
 70
     1
102
RTVSPost2010Prop47
 90
       50
102
RTVSPost2010PropOp47
 70
     1
102
RTVSPost2010Prop48
 90
       50
102
RTVSPost2010PropOp48
 70
     1
102
RTVSPost2010Prop49
280
     0
102
RTVSPost2010PropOp49
 70
     1
102
RTVSPost2010Prop50
 90
       50
102
RTVSPost2010PropOp50
 70
     1
102
RTVSPost2010Prop51ColorIndex
 90
      256
102
RTVSPost2010Prop51ColorRGB
 90
-16777216
102
RTVSPost2010PropOp51
 70
     0
102
RTVSPost2010Prop52
140
1.0
102
RTVSPost2010PropOp52
 70
     0
102
RTVSPost2010Prop53
 90
        2
102
RTVSPost2010PropOp53
 70
     1
102
RTVSPost2010Prop54
  1
strokes_ogs.tif
102
RTVSPost2010PropOp54
 70
     1
102
RTVSPost2010Prop55
280
     0
102
RTVSPost2010PropOp55
 70
     1
102
RTVSPost2010Prop56
140
1.0
102
RTVSPost2010PropOp56
 70
     1
102
RTVSPost2010Prop57
140
1.0
102
RTVSPost2010PropOp57
 70
     1
102
RTVSPropertyOp0
 70
     1
102
RTVSPropertyOp1
 70
     1
102
RTVSPropertyOp2
 70
     1
102
RTVSPropertyOp3
 70
     1
102
RTVSPropertyOp4
 70
     1
102
RTVSPropertyOp5
 70
     1
102
RTVSPropertyOp6
 70
     1
102
RTVSPropertyOp7
 70
     1
102
RTVSPropertyOp8
 70
     1
102
RTVSPropertyOp9
 70
     1
102
RTVSPropertyOp10
 70
     1
102
RTVSPropertyOp11
 70
     1
102
RTVSPropertyOp12
 70
     1
102
RTVSPropertyOp13
 70
     1
102
RTVSPropertyOp14
 70
     1
102
RTVSPropertyOp15
 70
     1
102
RTVSPropertyOp16
 70
     1
102
RTVSPropertyOp17
 70
     1
102
RTVSPropertyOp18
 70
     1
102
RTVSPropertyOp19
 70
     1
102
RTVSPropertyOp20
 70
     1
102
RTVSPropertyOp21
 70
     1
102
RTVSPropertyOp22
 70
     1
102
RTVSPropertyOp23
 70
     1
102
RTVSPropertyOp24
 70
     1
102
RTVSPropertyOp25
 70
     1
102
RTVSPropertyOp26
 70
     1
102
RTVSPropertyOp27
 70
     1
102
RTVSPropertyOp28
 70
     1
102
RTVSPropertyOp29
 70
     1
102
RTVSPropertyOp30
 70
     1
102
RTVSPropertyOp31
 70
     1
102
RTVSPropertyOp32
 70
     1
102
RTVSPropertyOp33
 70
     1
102
RTVSPropertyOp34
 70
     1
102
RTVSPropertyOp35
 70
     1
102
RTVSPropertyOp36
 70
     1
102
RTVSPropertyOp37
 70
     1
102
RTVSPropertyOp38
 70
     1
102
RTVSPropertyOp39
 70
     1
102
RTVSPropertyOp40
 70
     1
102
RTVSPropertyOp41
 70
     1
102
RTVSPropertyOp42
 70
     1
102
RTVSPropertyOp43
 70
     1
102
RTVSPropertyOp44
 70
     1
102
RTVSPropertyOp45
 70
     1
102
RTVSPropertyOp46
 70
     1
102
RTVSPropertyOp47
 70
     1
102
RTVSPropertyOp48
 70
     1
102
RTVSPropertyOp49
 70
     1
102
RTVSPropertyOp50
 70
     1
102
RTVSPropertyOp51
 70
     0
102
RTVSPropertyOp52
 70
     0
102
RTVSPropertyOp53
 70
     1
102
RTVSPropertyOp54
 70
     1
102
RTVSPropertyOp55
 70
     1
102
RTVSPropertyOp56
 70
     1
102
RTVSPropertyOp57
 70
     1
102
RTVSPropertyOp58
 70
     1
102
RTVSPropertyOp59
 70
     1
102
RTVSPropertyOp60
 70
     1
102
RTVSPropertyOp61
 70
     1
102
RTVSPropertyOp62
 70
     1
  0
XRECORD
  5
83AA
102
{ACAD_REACTORS
330
83A9
102
}
330
83A9
100
AcDbXrecord
280
     1
102
RTVSPost2010Prop28
280
     0
102
RTVSPost2010PropOp28
 70
     1
102
RTVSPost2010Prop29
280
     1
102
RTVSPost2010PropOp29
 70
     1
102
RTVSPost2010Prop30
280
     1
102
RTVSPost2010PropOp30
 70
     1
102
RTVSPost2010Prop31
280
     0
102
RTVSPost2010PropOp31
 70
     1
102
RTVSPost2010Prop32
280
     0
102
RTVSPost2010PropOp32
 70
     1
102
RTVSPost2010Prop33
280
     0
102
RTVSPost2010PropOp33
 70
     1
102
RTVSPost2010Prop34
280
     0
102
RTVSPost2010PropOp34
 70
     1
102
RTVSPost2010Prop35
280
     0
102
RTVSPost2010PropOp35
 70
     1
102
RTVSPost2010Prop36
280
     0
102
RTVSPost2010PropOp36
 70
     1
102
RTVSPost2010Prop37
 90
       50
102
RTVSPost2010PropOp37
 70
     1
102
RTVSPost2010Prop38
140
0.0
102
RTVSPost2010PropOp38
 70
     1
102
RTVSPost2010Prop39
140
1.0
102
RTVSPost2010PropOp39
 70
     1
102
RTVSPost2010Prop40
 90
        0
102
RTVSPost2010PropOp40
 70
     1
102
RTVSPost2010Prop41ColorIndex
 90
       18
102
RTVSPost2010Prop41ColorRGB
 90
        0
102
RTVSPost2010PropOp41
 70
     1
102
RTVSPost2010Prop42
 90
       50
102
RTVSPost2010PropOp42
 70
     1
102
RTVSPost2010Prop43
 90
        3
102
RTVSPost2010PropOp43
 70
     1
102
RTVSPost2010Prop44ColorIndex
 90
        5
102
RTVSPost2010Prop44ColorRGB
 90
      255
102
RTVSPost2010PropOp44
 70
     1
102
RTVSPost2010Prop45
280
     0
102
RTVSPost2010PropOp45
 70
     1
102
RTVSPost2010Prop46
 90
       50
102
RTVSPost2010PropOp46
 70
     1
102
RTVSPost2010Prop47
 90
       50
102
RTVSPost2010PropOp47
 70
     1
102
RTVSPost2010Prop48
 90
       50
102
RTVSPost2010PropOp48
 70
     1
102
RTVSPost2010Prop49
280
     0
102
RTVSPost2010PropOp49
 70
     1
102
RTVSPost2010Prop50
 90
       50
102
RTVSPost2010PropOp50
 70
     1
102
RTVSPost2010Prop51ColorIndex
 90
      256
102
RTVSPost2010Prop51ColorRGB
 90
-16777216
102
RTVSPost2010PropOp51
 70
     0
102
RTVSPost2010Prop52
140
1.0
102
RTVSPost2010PropOp52
 70
     0
102
RTVSPost2010Prop53
 90
        2
102
RTVSPost2010PropOp53
 70
     1
102
RTVSPost2010Prop54
  1
strokes_ogs.tif
102
RTVSPost2010PropOp54
 70
     1
102
RTVSPost2010Prop55
280
     0
102
RTVSPost2010PropOp55
 70
     1
102
RTVSPost2010Prop56
140
1.0
102
RTVSPost2010PropOp56
 70
     1
102
RTVSPost2010Prop57
140
1.0
102
RTVSPost2010PropOp57
 70
     1
102
RTVSPropertyOp0
 70
     1
102
RTVSPropertyOp1
 70
     1
102
RTVSPropertyOp2
 70
     1
102
RTVSPropertyOp3
 70
     1
102
RTVSPropertyOp4
 70
     1
102
RTVSPropertyOp5
 70
     1
102
RTVSPropertyOp6
 70
     1
102
RTVSPropertyOp7
 70
     1
102
RTVSPropertyOp8
 70
     1
102
RTVSPropertyOp9
 70
     1
102
RTVSPropertyOp10
 70
     1
102
RTVSPropertyOp11
 70
     1
102
RTVSPropertyOp12
 70
     1
102
RTVSPropertyOp13
 70
     1
102
RTVSPropertyOp14
 70
     1
102
RTVSPropertyOp15
 70
     1
102
RTVSPropertyOp16
 70
     1
102
RTVSPropertyOp17
 70
     1
102
RTVSPropertyOp18
 70
     1
102
RTVSPropertyOp19
 70
     1
102
RTVSPropertyOp20
 70
     1
102
RTVSPropertyOp21
 70
     1
102
RTVSPropertyOp22
 70
     1
102
RTVSPropertyOp23
 70
     1
102
RTVSPropertyOp24
 70
     1
102
RTVSPropertyOp25
 70
     1
102
RTVSPropertyOp26
 70
     1
102
RTVSPropertyOp27
 70
     1
102
RTVSPropertyOp28
 70
     1
102
RTVSPropertyOp29
 70
     1
102
RTVSPropertyOp30
 70
     1
102
RTVSPropertyOp31
 70
     1
102
RTVSPropertyOp32
 70
     1
102
RTVSPropertyOp33
 70
     1
102
RTVSPropertyOp34
 70
     1
102
RTVSPropertyOp35
 70
     1
102
RTVSPropertyOp36
 70
     1
102
RTVSPropertyOp37
 70
     1
102
RTVSPropertyOp38
 70
     1
102
RTVSPropertyOp39
 70
     1
102
RTVSPropertyOp40
 70
     1
102
RTVSPropertyOp41
 70
     1
102
RTVSPropertyOp42
 70
     1
102
RTVSPropertyOp43
 70
     1
102
RTVSPropertyOp44
 70
     1
102
RTVSPropertyOp45
 70
     1
102
RTVSPropertyOp46
 70
     1
102
RTVSPropertyOp47
 70
     1
102
RTVSPropertyOp48
 70
     1
102
RTVSPropertyOp49
 70
     1
102
RTVSPropertyOp50
 70
     1
102
RTVSPropertyOp51
 70
     0
102
RTVSPropertyOp52
 70
     0
102
RTVSPropertyOp53
 70
     1
102
RTVSPropertyOp54
 70
     1
102
RTVSPropertyOp55
 70
     1
102
RTVSPropertyOp56
 70
     1
102
RTVSPropertyOp57
 70
     1
102
RTVSPropertyOp58
 70
     1
102
RTVSPropertyOp59
 70
     1
102
RTVSPropertyOp60
 70
     1
102
RTVSPropertyOp61
 70
     1
102
RTVSPropertyOp62
 70
     1
  0
ENDSEC
  0
EOF
