  0
SECTION
  2
HEADER
  9
$ACADVER
  1
AC1015
  9
$ACADMAINTVER
 70
    20
  9
$DWGCODEPAGE
  3
ANSI_932
  9
$INSBASE
 10
0.0
 20
0.0
 30
0.0
  9
$EXTMIN
 10
-0.1922460740788665
 20
-0.2700599612071528
 30
-0.0015258207003583
  9
$EXTMAX
 10
6300.192275410744
 20
8850.270101172235
 30
0.0000000349246037
  9
$LIMMIN
 10
0.0
 20
0.0
  9
$LIMMAX
 10
297.0
 20
210.0
  9
$ORTHOMODE
 70
     1
  9
$REGENMODE
 70
     1
  9
$FILLMODE
 70
     0
  9
$QTEXTMODE
 70
     0
  9
$MIRRTEXT
 70
     1
  9
$LTSCALE
 40
100.0
  9
$ATTMODE
 70
     1
  9
$TEXTSIZE
 40
180.0
  9
$TRACEWID
 40
0.05
  9
$TEXTSTYLE
  7
STANDARD
  9
$CLAYER
  8
3
  9
$CELTYPE
  6
ByLayer
  9
$CECOLOR
 62
   256
  9
$CELTSCALE
 40
1.0
  9
$DISPSILH
 70
     0
  9
$DIMSCALE
 40
30.0
  9
$DIMASZ
 40
2.0
  9
$DIMEXO
 40
1.0
  9
$DIMDLI
 40
10.0
  9
$DIMRND
 40
0.0
  9
$DIMDLE
 40
0.0
  9
$DIMEXE
 40
1.0
  9
$DIMTP
 40
1.0
  9
$DIMTM
 40
1.0
  9
$DIMTXT
 40
3.0
  9
$DIMCEN
 40
0.0
  9
$DIMTSZ
 40
0.0
  9
$DIMTOL
 70
     0
  9
$DIMLIM
 70
     0
  9
$DIMTIH
 70
     0
  9
$DIMTOH
 70
     0
  9
$DIMSE1
 70
     0
  9
$DIMSE2
 70
     0
  9
$DIMTAD
 70
     1
  9
$DIMZIN
 70
     8
  9
$DIMBLK
  1

  9
$DIMASO
 70
     1
  9
$DIMSHO
 70
     1
  9
$DIMPOST
  1

  9
$DIMAPOST
  1

  9
$DIMALT
 70
     0
  9
$DIMALTD
 70
     2
  9
$DIMALTF
 40
0.039
  9
$DIMLFAC
 40
1.0
  9
$DIMTOFL
 70
     1
  9
$DIMTVP
 40
0.0
  9
$DIMTIX
 70
     0
  9
$DIMSOXD
 70
     0
  9
$DIMSAH
 70
     1
  9
$DIMBLK1
  1
OPEN
  9
$DIMBLK2
  1
OPEN
  9
$DIMSTYLE
  2
IGA
  9
$DIMCLRD
 70
     0
  9
$DIMCLRE
 70
     0
  9
$DIMCLRT
 70
     0
  9
$DIMTFAC
 40
10.0
  9
$DIMGAP
 40
1.0
  9
$DIMJUST
 70
     0
  9
$DIMSD1
 70
     0
  9
$DIMSD2
 70
     0
  9
$DIMTOLJ
 70
     1
  9
$DIMTZIN
 70
     0
  9
$DIMALTZ
 70
     0
  9
$DIMALTTZ
 70
     0
  9
$DIMUPT
 70
     0
  9
$DIMDEC
 70
     4
  9
$DIMTDEC
 70
     4
  9
$DIMALTU
 70
     2
  9
$DIMALTTD
 70
     2
  9
$DIMTXSTY
  7
STANDARD
  9
$DIMAUNIT
 70
     0
  9
$DIMADEC
 70
     0
  9
$DIMALTRND
 40
0.0
  9
$DIMAZIN
 70
     0
  9
$DIMDSEP
 70
    46
  9
$DIMATFIT
 70
     3
  9
$DIMFRAC
 70
     0
  9
$DIMLDRBLK
  1
OPEN
  9
$DIMLUNIT
 70
     2
  9
$DIMLWD
 70
    -2
  9
$DIMLWE
 70
    -2
  9
$DIMTMOVE
 70
     0
  9
$LUNITS
 70
     2
  9
$LUPREC
 70
     3
  9
$SKETCHINC
 40
0.1
  9
$FILLETRAD
 40
50.0
  9
$AUNITS
 70
     0
  9
$AUPREC
 70
     0
  9
$MENU
  1
acad
  9
$ELEVATION
 40
0.0
  9
$PELEVATION
 40
0.0
  9
$THICKNESS
 40
0.0
  9
$LIMCHECK
 70
     0
  9
$CHAMFERA
 40
0.5
  9
$CHAMFERB
 40
0.5
  9
$CHAMFERC
 40
0.0
  9
$CHAMFERD
 40
0.0
  9
$SKPOLY
 70
     0
  9
$TDCREATE
 40
2451389.585626505
  9
$TDUCREATE
 40
2451389.210626505
  9
$TDUPDATE
 40
2460271.710108958
  9
$TDUUPDATE
 40
2460271.335108958
  9
$TDINDWG
 40
0.0961814236
  9
$TDUSRTIMER
 40
0.0961814120
  9
$USRTIMER
 70
     1
  9
$ANGBASE
 50
0.0
  9
$ANGDIR
 70
     0
  9
$PDMODE
 70
     0
  9
$PDSIZE
 40
0.0
  9
$PLINEWID
 40
0.0
  9
$SPLFRAME
 70
     0
  9
$SPLINETYPE
 70
     6
  9
$SPLINESEGS
 70
     8
  9
$HANDSEED
  5
8326
  9
$SURFTAB1
 70
     6
  9
$SURFTAB2
 70
     6
  9
$SURFTYPE
 70
     6
  9
$SURFU
 70
     6
  9
$SURFV
 70
     6
  9
$UCSBASE
  2

  9
$UCSNAME
  2

  9
$UCSORG
 10
0.0
 20
0.0
 30
0.0
  9
$UCSXDIR
 10
1.0
 20
0.0
 30
0.0
  9
$UCSYDIR
 10
0.0
 20
1.0
 30
0.0
  9
$UCSORTHOREF
  2

  9
$UCSORTHOVIEW
 70
     0
  9
$UCSORGTOP
 10
0.0
 20
0.0
 30
0.0
  9
$UCSORGBOTTOM
 10
0.0
 20
0.0
 30
0.0
  9
$UCSORGLEFT
 10
0.0
 20
0.0
 30
0.0
  9
$UCSORGRIGHT
 10
0.0
 20
0.0
 30
0.0
  9
$UCSORGFRONT
 10
0.0
 20
0.0
 30
0.0
  9
$UCSORGBACK
 10
0.0
 20
0.0
 30
0.0
  9
$PUCSBASE
  2

  9
$PUCSNAME
  2

  9
$PUCSORG
 10
0.0
 20
0.0
 30
0.0
  9
$PUCSXDIR
 10
1.0
 20
0.0
 30
0.0
  9
$PUCSYDIR
 10
0.0
 20
1.0
 30
0.0
  9
$PUCSORTHOREF
  2

  9
$PUCSORTHOVIEW
 70
     0
  9
$PUCSORGTOP
 10
0.0
 20
0.0
 30
0.0
  9
$PUCSORGBOTTOM
 10
0.0
 20
0.0
 30
0.0
  9
$PUCSORGLEFT
 10
0.0
 20
0.0
 30
0.0
  9
$PUCSORGRIGHT
 10
0.0
 20
0.0
 30
0.0
  9
$PUCSORGFRONT
 10
0.0
 20
0.0
 30
0.0
  9
$PUCSORGBACK
 10
0.0
 20
0.0
 30
0.0
  9
$USERI1
 70
     0
  9
$USERI2
 70
     0
  9
$USERI3
 70
     0
  9
$USERI4
 70
     0
  9
$USERI5
 70
     0
  9
$USERR1
 40
0.0
  9
$USERR2
 40
0.0
  9
$USERR3
 40
0.0
  9
$USERR4
 40
0.0
  9
$USERR5
 40
0.0
  9
$WORLDVIEW
 70
     1
  9
$SHADEDGE
 70
     3
  9
$SHADEDIF
 70
    70
  9
$TILEMODE
 70
     1
  9
$MAXACTVP
 70
    16
  9
$PINSBASE
 10
0.0
 20
0.0
 30
0.0
  9
$PLIMCHECK
 70
     0
  9
$PEXTMIN
 10
1.000000000000000E+20
 20
1.000000000000000E+20
 30
1.000000000000000E+20
  9
$PEXTMAX
 10
-1.000000000000000E+20
 20
-1.000000000000000E+20
 30
-1.000000000000000E+20
  9
$PLIMMIN
 10
0.0
 20
0.0
  9
$PLIMMAX
 10
12.0
 20
9.0
  9
$UNITMODE
 70
     0
  9
$VISRETAIN
 70
     0
  9
$PLINEGEN
 70
     0
  9
$PSLTSCALE
 70
     1
  9
$TREEDEPTH
 70
  3020
  9
$CMLSTYLE
  2
Standard
  9
$CMLJUST
 70
     0
  9
$CMLSCALE
 40
1.0
  9
$PROXYGRAPHICS
 70
     1
  9
$MEASUREMENT
 70
     0
  9
$CELWEIGHT
370
    -1
  9
$ENDCAPS
280
     0
  9
$JOINSTYLE
280
     0
  9
$LWDISPLAY
290
     0
  9
$INSUNITS
 70
     0
  9
$HYPERLINKBASE
  1

  9
$STYLESHEET
  1

  9
$XEDIT
290
     1
  9
$CEPSNTYPE
380
     0
  9
$PSTYLEMODE
290
     1
  9
$FINGERPRINTGUID
  2
{5724B525-17B4-4297-BAF1-9645089B7E85}
  9
$VERSIONGUID
  2
{3EB4D978-A4CD-42FD-B887-601491ABDF77}
  9
$EXTNAMES
290
     1
  9
$PSVPSCALE
 40
0.0
  9
$OLESTARTUP
290
     0
  0
ENDSEC
  0
SECTION
  2
CLASSES
  0
CLASS
  1
ACDBDICTIONARYWDFLT
  2
AcDbDictionaryWithDefault
  3
ObjectDBX Classes
 90
        0
280
     0
281
     0
  0
CLASS
  1
MATERIAL
  2
AcDbMaterial
  3
ObjectDBX Classes
 90
     1153
280
     0
281
     0
  0
CLASS
  1
VISUALSTYLE
  2
AcDbVisualStyle
  3
ObjectDBX Classes
 90
     4095
280
     0
281
     0
  0
CLASS
  1
SCALE
  2
AcDbScale
  3
ObjectDBX Classes
 90
     1153
280
     0
281
     0
  0
CLASS
  1
TABLESTYLE
  2
AcDbTableStyle
  3
ObjectDBX Classes
 90
     4095
280
     0
281
     0
  0
CLASS
  1
MLEADERSTYLE
  2
AcDbMLeaderStyle
  3
ACDB_MLEADERSTYLE_CLASS
 90
     4095
280
     0
281
     0
  0
CLASS
  1
ACDBSECTIONVIEWSTYLE
  2
AcDbSectionViewStyle
  3
ObjectDBX Classes
 90
     1025
280
     0
281
     0
  0
CLASS
  1
ACDBDETAILVIEWSTYLE
  2
AcDbDetailViewStyle
  3
ObjectDBX Classes
 90
     1025
280
     0
281
     0
  0
CLASS
  1
DICTIONARYVAR
  2
AcDbDictionaryVar
  3
ObjectDBX Classes
 90
        0
280
     0
281
     0
  0
CLASS
  1
CELLSTYLEMAP
  2
AcDbCellStyleMap
  3
ObjectDBX Classes
 90
     1152
280
     0
281
     0
  0
CLASS
  1
ACDBPLACEHOLDER
  2
AcDbPlaceHolder
  3
ObjectDBX Classes
 90
        0
280
     0
281
     0
  0
CLASS
  1
LAYOUT
  2
AcDbLayout
  3
ObjectDBX Classes
 90
        0
280
     0
281
     0
  0
ENDSEC
  0
SECTION
  2
TABLES
  0
TABLE
  2
VPORT
  5
8175
330
0
100
AcDbSymbolTable
 70
     1
  0
VPORT
  5
81E1
330
8175
100
AcDbSymbolTableRecord
100
AcDbViewportTableRecord
  2
*ACTIVE
 70
     0
 10
0.0
 20
0.0
 11
1.0
 21
1.0
 12
3150.000014668333
 22
4425.000020605514
 13
0.0
 23
0.0
 14
10.0
 24
10.0
 15
10.0
 25
10.0
 16
0.0
 26
0.0
 36
1.0
 17
0.0
 27
0.0
 37
0.0
 40
8907.213844128961
 41
2.050213675213675
 42
50.0
 43
0.0
 44
0.0
 50
0.0
 51
0.0
 71
     0
 72
   100
 73
     1
 74
     0
 75
     0
 76
     0
 77
     0
 78
     0
281
     0
 65
     1
110
0.0
120
0.0
130
0.0
111
1.0
121
0.0
131
0.0
112
0.0
122
1.0
132
0.0
 79
     0
146
0.0
1001
ACAD_NAV_VCDISPLAY
1070
     3
  0
ENDTAB
  0
TABLE
  2
LTYPE
  5
8172
330
0
100
AcDbSymbolTable
 70
     3
  0
LTYPE
  5
81C7
330
8172
100
AcDbSymbolTableRecord
100
AcDbLinetypeTableRecord
  2
ByBlock
 70
     0
  3

 72
    65
 73
     0
 40
0.0
  0
LTYPE
  5
81C8
330
8172
100
AcDbSymbolTableRecord
100
AcDbLinetypeTableRecord
  2
ByLayer
 70
     0
  3

 72
    65
 73
     0
 40
0.0
  0
LTYPE
  5
81C9
330
8172
100
AcDbSymbolTableRecord
100
AcDbLinetypeTableRecord
  2
CONTINUOUS
 70
     0
  3
Solid line
 72
    65
 73
     0
 40
0.0
  0
LTYPE
  5
81E2
330
8172
100
AcDbSymbolTableRecord
100
AcDbLinetypeTableRecord
  2
CENTER
 70
     0
  3
____ _ ____ _ ____ _ ____ _ ____ _ ____ _ ____ 
 72
    65
 73
     4
 40
2.0
 49
1.25
 74
     0
 49
-0.25
 74
     0
 49
0.25
 74
     0
 49
-0.25
 74
     0
  0
ENDTAB
  0
TABLE
  2
LAYER
  5
816F
330
0
100
AcDbSymbolTable
 70
     6
  0
LAYER
  5
81C1
102
{ACAD_XDICTIONARY
360
82D0
102
}
330
816F
100
AcDbSymbolTableRecord
100
AcDbLayerTableRecord
  2
0
 70
     0
 62
     7
  6
CONTINUOUS
370
    -3
390
817C
  0
LAYER
  5
81E0
102
{ACAD_XDICTIONARY
360
82D2
102
}
330
816F
100
AcDbSymbolTableRecord
100
AcDbLayerTableRecord
  2
3
 70
     0
 62
     2
  6
CONTINUOUS
370
    -3
390
817C
  0
LAYER
  5
81E3
102
{ACAD_XDICTIONARY
360
82D4
102
}
330
816F
100
AcDbSymbolTableRecord
100
AcDbLayerTableRecord
  2
2
 70
     0
 62
     3
  6
CENTER
370
    -3
390
817C
  0
LAYER
  5
81E4
102
{ACAD_XDICTIONARY
360
82D6
102
}
330
816F
100
AcDbSymbolTableRecord
100
AcDbLayerTableRecord
  2
1
 70
     0
 62
     4
  6
CONTINUOUS
370
    -3
390
817C
  0
LAYER
  5
81E5
102
{ACAD_XDICTIONARY
360
82D8
102
}
330
816F
100
AcDbSymbolTableRecord
100
AcDbLayerTableRecord
  2
4
 70
     0
 62
     7
  6
CONTINUOUS
370
    -3
390
817C
  0
LAYER
  5
81E6
330
816F
100
AcDbSymbolTableRecord
100
AcDbLayerTableRecord
  2
DEFPOINTS
 70
     0
 62
     7
  6
CONTINUOUS
290
     0
370
    -3
390
817C
  0
ENDTAB
  0
TABLE
  2
STYLE
  5
8170
330
0
100
AcDbSymbolTable
 70
     2
  0
STYLE
  5
81C2
330
8170
100
AcDbSymbolTableRecord
100
AcDbTextStyleTableRecord
  2
STANDARD
 70
     0
 40
0.0
 41
1.0
 50
0.0
 71
     0
 42
180.0
  3
simplex.shx
  4
extfont.shx
  0
STYLE
  5
81C6
330
8170
100
AcDbSymbolTableRecord
100
AcDbTextStyleTableRecord
  2
Annotative
 70
     0
 40
0.0
 41
1.0
 50
0.0
 71
     0
 42
0.2
  3
txt
  4

1001
AcadAnnotative
1000
AnnotativeData
1002
{
1070
     1
1070
     1
1002
}
  0
ENDTAB
  0
TABLE
  2
VIEW
  5
8173
330
0
100
AcDbSymbolTable
 70
     0
  0
ENDTAB
  0
TABLE
  2
UCS
  5
8174
330
0
100
AcDbSymbolTable
 70
     0
  0
ENDTAB
  0
TABLE
  2
APPID
  5
8176
330
0
100
AcDbSymbolTable
 70
     6
  0
APPID
  5
81C3
330
8176
100
AcDbSymbolTableRecord
100
AcDbRegAppTableRecord
  2
ACAD
 70
     0
  0
APPID
  5
81CA
330
8176
100
AcDbSymbolTableRecord
100
AcDbRegAppTableRecord
  2
AcadAnnotative
 70
     0
  0
APPID
  5
825E
330
8176
100
AcDbSymbolTableRecord
100
AcDbRegAppTableRecord
  2
AcadAnnoMonitorAlertIconDisabled
 70
     0
  0
APPID
  5
825F
330
8176
100
AcDbSymbolTableRecord
100
AcDbRegAppTableRecord
  2
ACAD_EXEMPT_FROM_CAD_STANDARDS
 70
     0
  0
APPID
  5
82E4
330
8176
100
AcDbSymbolTableRecord
100
AcDbRegAppTableRecord
  2
ACAD_NAV_VCDISPLAY
 70
     0
  0
APPID
  5
831D
330
8176
100
AcDbSymbolTableRecord
100
AcDbRegAppTableRecord
  2
ACAD_MLEADERVER
 70
     0
  0
ENDTAB
  0
TABLE
  2
DIMSTYLE
  5
8177
330
0
100
AcDbSymbolTable
 70
     4
100
AcDbDimStyleTable
 71
     1
340
81E7
  0
DIMSTYLE
105
81C4
102
{ACAD_REACTORS
330
7C7B
330
7C7C
330
7C7F
330
7C80
330
7CBF
330
7CC1
330
7CC2
330
7CC6
330
7CC7
330
7CF3
330
7CFE
330
7D0A
330
80D4
330
80E1
330
80EE
330
80FB
330
8108
102
}
330
8177
100
AcDbSymbolTableRecord
100
AcDbDimStyleTableRecord
  2
Standard
 70
     0
340
81C2
  0
DIMSTYLE
105
81C5
330
8177
100
AcDbSymbolTableRecord
100
AcDbDimStyleTableRecord
  2
Annotative
 70
     0
340
81C2
1001
AcadAnnotative
1000
AnnotativeData
1002
{
1070
     1
1070
     1
1002
}
  0
DIMSTYLE
105
81E7
102
{ACAD_REACTORS
330
8232
330
823F
330
82AD
330
82BA
102
}
330
8177
100
AcDbSymbolTableRecord
100
AcDbDimStyleTableRecord
  2
IGA
 70
     0
 40
2.0
 41
2.0
 42
0.5
 43
10.0
 44
1.0
 47
1.0
 48
1.0
 73
     0
 74
     0
 77
     1
 78
     8
140
3.0
141
0.0
143
0.03937
146
10.0
147
1.0
173
     1
271
     3
272
     3
279
     2
284
     8
285
     8
286
     8
340
81C2
  0
DIMSTYLE
105
81E8
330
8177
100
AcDbSymbolTableRecord
100
AcDbDimStyleTableRecord
  2
MATSU
 70
     0
 41
2.0
 42
1.0
 43
10.0
 44
1.0
 73
     0
 74
     0
 77
     1
 78
     8
140
3.0
141
0.0
143
0.03937
147
0.5
172
     1
173
     1
176
   256
177
   256
178
   256
271
     3
272
     3
279
     2
284
     8
285
     8
286
     8
340
81C2
  0
ENDTAB
  0
TABLE
  2
BLOCK_RECORD
  5
816E
330
0
100
AcDbSymbolTable
 70
    34
  0
BLOCK_RECORD
  5
81DC
330
816E
100
AcDbSymbolTableRecord
100
AcDbBlockTableRecord
  2
*Model_Space
340
81DF
  0
BLOCK_RECORD
  5
81D8
330
816E
100
AcDbSymbolTableRecord
100
AcDbBlockTableRecord
  2
*Paper_Space
340
81DB
  0
BLOCK_RECORD
  5
81EC
330
816E
100
AcDbSymbolTableRecord
100
AcDbBlockTableRecord
  2
$MODEL_SPACE
340
0
  0
BLOCK_RECORD
  5
81EE
330
816E
100
AcDbSymbolTableRecord
100
AcDbBlockTableRecord
  2
$PAPER_SPACE
340
0
  0
BLOCK_RECORD
  5
81F0
330
816E
100
AcDbSymbolTableRecord
100
AcDbBlockTableRecord
  2
_OPEN
340
0
102
{BLKREFS
331
82CA
331
82CB
331
7E41
331
7E42
331
7E4C
331
7E4D
331
7E57
331
7E58
331
7E62
331
7E63
331
7EAF
331
7EB0
331
7EBA
331
7EBB
331
7FCA
331
7FCB
331
7ED0
331
7ED1
331
801B
331
801C
331
8026
331
8027
331
7EF1
331
7EF2
331
7EFC
331
7EFD
331
7F07
331
7F08
331
7F12
331
7F13
331
7F1D
331
7F1E
331
815F
331
8160
331
80CD
331
80CE
331
80DA
331
80DB
331
80E7
331
80E8
331
80F4
331
80F5
331
8101
331
8102
331
8288
331
8289
331
8291
331
8292
331
829A
331
829B
331
82B4
331
82B5
102
}
  0
BLOCK_RECORD
  5
81F2
330
816E
100
AcDbSymbolTableRecord
100
AcDbBlockTableRecord
  2
YA_N
340
0
102
{BLKREFS
331
7C29
331
7C3F
331
7C79
331
7C9A
331
7CCF
331
7CD1
331
7CD3
331
7CD5
102
}
  0
BLOCK_RECORD
  5
81F4
330
816E
100
AcDbSymbolTableRecord
100
AcDbBlockTableRecord
  2
*D4
340
0
  0
BLOCK_RECORD
  5
81F6
330
816E
100
AcDbSymbolTableRecord
100
AcDbBlockTableRecord
  2
*D5
340
0
  0
BLOCK_RECORD
  5
81F8
330
816E
100
AcDbSymbolTableRecord
100
AcDbBlockTableRecord
  2
*D6
340
0
  0
BLOCK_RECORD
  5
81FA
330
816E
100
AcDbSymbolTableRecord
100
AcDbBlockTableRecord
  2
*D7
340
0
  0
BLOCK_RECORD
  5
81FC
330
816E
100
AcDbSymbolTableRecord
100
AcDbBlockTableRecord
  2
*D8
340
0
  0
BLOCK_RECORD
  5
81FE
330
816E
100
AcDbSymbolTableRecord
100
AcDbBlockTableRecord
  2
*D9
340
0
  0
BLOCK_RECORD
  5
8200
330
816E
100
AcDbSymbolTableRecord
100
AcDbBlockTableRecord
  2
*D10
340
0
  0
BLOCK_RECORD
  5
8202
330
816E
100
AcDbSymbolTableRecord
100
AcDbBlockTableRecord
  2
*D11
340
0
  0
BLOCK_RECORD
  5
8204
330
816E
100
AcDbSymbolTableRecord
100
AcDbBlockTableRecord
  2
*D12
340
0
  0
BLOCK_RECORD
  5
8206
330
816E
100
AcDbSymbolTableRecord
100
AcDbBlockTableRecord
  2
*U13
340
0
102
{BLKREFS
331
801D
102
}
  0
BLOCK_RECORD
  5
8207
330
816E
100
AcDbSymbolTableRecord
100
AcDbBlockTableRecord
  2
*D14
340
0
  0
BLOCK_RECORD
  5
8209
330
816E
100
AcDbSymbolTableRecord
100
AcDbBlockTableRecord
  2
*D15
340
0
  0
BLOCK_RECORD
  5
820B
330
816E
100
AcDbSymbolTableRecord
100
AcDbBlockTableRecord
  2
*D16
340
0
  0
BLOCK_RECORD
  5
820D
330
816E
100
AcDbSymbolTableRecord
100
AcDbBlockTableRecord
  2
*D17
340
0
  0
BLOCK_RECORD
  5
820F
330
816E
100
AcDbSymbolTableRecord
100
AcDbBlockTableRecord
  2
*D18
340
0
  0
BLOCK_RECORD
  5
8211
330
816E
100
AcDbSymbolTableRecord
100
AcDbBlockTableRecord
  2
*D19
340
0
  0
BLOCK_RECORD
  5
8213
330
816E
100
AcDbSymbolTableRecord
100
AcDbBlockTableRecord
  2
*D20
340
0
  0
BLOCK_RECORD
  5
8215
330
816E
100
AcDbSymbolTableRecord
100
AcDbBlockTableRecord
  2
_DOT
340
0
  0
BLOCK_RECORD
  5
8217
330
816E
100
AcDbSymbolTableRecord
100
AcDbBlockTableRecord
  2
_NONE
340
0
  0
BLOCK_RECORD
  5
8219
330
816E
100
AcDbSymbolTableRecord
100
AcDbBlockTableRecord
  2
*D23
340
0
  0
BLOCK_RECORD
  5
821B
330
816E
100
AcDbSymbolTableRecord
100
AcDbBlockTableRecord
  2
*D24
340
0
  0
BLOCK_RECORD
  5
821D
330
816E
100
AcDbSymbolTableRecord
100
AcDbBlockTableRecord
  2
*D25
340
0
  0
BLOCK_RECORD
  5
821F
330
816E
100
AcDbSymbolTableRecord
100
AcDbBlockTableRecord
  2
*D26
340
0
  0
BLOCK_RECORD
  5
8221
330
816E
100
AcDbSymbolTableRecord
100
AcDbBlockTableRecord
  2
*D27
340
0
  0
BLOCK_RECORD
  5
8226
330
816E
100
AcDbSymbolTableRecord
100
AcDbBlockTableRecord
  2
*D28
340
0
  0
BLOCK_RECORD
  5
8233
330
816E
100
AcDbSymbolTableRecord
100
AcDbBlockTableRecord
  2
*D29
340
0
  0
BLOCK_RECORD
  5
8240
330
816E
100
AcDbSymbolTableRecord
100
AcDbBlockTableRecord
  2
*D30
340
0
  0
BLOCK_RECORD
  5
82A0
330
816E
100
AcDbSymbolTableRecord
100
AcDbBlockTableRecord
  2
*D31
340
0
  0
BLOCK_RECORD
  5
82AE
330
816E
100
AcDbSymbolTableRecord
100
AcDbBlockTableRecord
  2
*D32
340
0
  0
BLOCK_RECORD
  5
82BB
330
816E
100
AcDbSymbolTableRecord
100
AcDbBlockTableRecord
  2
*D33
340
0
  0
ENDTAB
  0
ENDSEC
  0
SECTION
  2
BLOCKS
  0
BLOCK
  5
81DD
330
81DC
100
AcDbEntity
  8
0
100
AcDbBlockBegin
  2
*Model_Space
 70
     0
 10
0.0
 20
0.0
 30
0.0
  3
*Model_Space
  1

  0
ENDBLK
  5
81DE
330
81DC
100
AcDbEntity
  8
0
100
AcDbBlockEnd
  0
BLOCK
  5
81D9
330
81D8
100
AcDbEntity
 67
     1
  8
0
100
AcDbBlockBegin
  2
*Paper_Space
 70
     0
 10
0.0
 20
0.0
 30
0.0
  3
*Paper_Space
  1

  0
ENDBLK
  5
81DA
330
81D8
100
AcDbEntity
 67
     1
  8
0
100
AcDbBlockEnd
  0
BLOCK
  5
81ED
330
81EC
100
AcDbEntity
  8
0
100
AcDbBlockBegin
  2
$MODEL_SPACE
 70
     0
 10
0.0
 20
0.0
 30
0.0
  3
$MODEL_SPACE
  1

  0
ENDBLK
  5
1B
330
81EC
100
AcDbEntity
  8
0
100
AcDbBlockEnd
  0
BLOCK
  5
81EF
330
81EE
100
AcDbEntity
  8
0
100
AcDbBlockBegin
  2
$PAPER_SPACE
 70
     0
 10
0.0
 20
0.0
 30
0.0
  3
$PAPER_SPACE
  1

  0
ENDBLK
  5
18
330
81EE
100
AcDbEntity
  8
0
100
AcDbBlockEnd
  0
BLOCK
  5
81F1
330
81F0
100
AcDbEntity
  8
0
100
AcDbBlockBegin
  2
_OPEN
 70
     0
 10
0.0
 20
0.0
 30
0.0
  3
_OPEN
  1

  0
LINE
  5
79FD
330
81F0
100
AcDbEntity
  8
0
  6
ByBlock
 62
     0
100
AcDbLine
 10
-1.0
 20
0.1666666666666666
 30
0.0
 11
0.0
 21
0.0
 31
0.0
  0
LINE
  5
79FE
330
81F0
100
AcDbEntity
  8
0
  6
ByBlock
 62
     0
100
AcDbLine
 10
0.0
 20
0.0
 30
0.0
 11
-1.0
 21
-0.1666666666666666
 31
0.0
  0
LINE
  5
79FF
330
81F0
100
AcDbEntity
  8
0
  6
ByBlock
 62
     0
100
AcDbLine
 10
0.0
 20
0.0
 30
0.0
 11
-1.0
 21
0.0
 31
0.0
  0
ENDBLK
  5
7A01
330
81F0
100
AcDbEntity
  8
0
100
AcDbBlockEnd
  0
BLOCK
  5
81F3
330
81F2
100
AcDbEntity
  8
0
100
AcDbBlockBegin
  2
YA_N
 70
     0
 10
0.0
 20
0.0
 30
0.0
  3
YA_N
  1

  0
ENDBLK
  5
7A04
330
81F2
100
AcDbEntity
  8
0
100
AcDbBlockEnd
  0
BLOCK
  5
81F5
330
81F4
100
AcDbEntity
  8
0
100
AcDbBlockBegin
  2
*D4
 70
     1
 10
0.0
 20
0.0
 30
0.0
  3
*D4
  1

  0
LINE
  5
7E3E
330
81F4
100
AcDbEntity
  8
0
  6
ByBlock
100
AcDbLine
 10
2197.625114976839
 20
-445.9396971642539
 30
0.0
 11
2398.785211970981
 21
-445.9396971642539
 31
0.0
  0
LINE
  5
7E3F
330
81F4
100
AcDbEntity
  8
0
  6
ByBlock
100
AcDbLine
 10
2197.625114976839
 20
584.0603028357447
 30
0.0
 11
2398.785211970981
 21
584.0603028357447
 31
0.0
  0
LINE
  5
7E40
330
81F4
100
AcDbEntity
  8
0
  6
ByBlock
100
AcDbLine
 10
2368.785211970982
 20
-385.939697164254
 30
0.0
 11
2368.785211970982
 21
524.0603028357448
 31
0.0
  0
INSERT
  5
7E41
330
81F4
100
AcDbEntity
  8
0
  6
ByBlock
100
AcDbBlockReference
  2
_OPEN
 10
2368.785211970982
 20
-445.9396971642539
 30
0.0
 41
60.0
 42
60.0
 43
60.0
 50
270.0
  0
INSERT
  5
7E42
330
81F4
100
AcDbEntity
  8
0
  6
ByBlock
100
AcDbBlockReference
  2
_OPEN
 10
2368.785211970982
 20
584.0603028357447
 30
0.0
 41
60.0
 42
60.0
 43
60.0
 50
90.0
  0
TEXT
  5
7E43
330
81F4
100
AcDbEntity
  8
3
100
AcDbText
 10
2353.785211970981
 20
-80.93969716425453
 30
0.0
 40
90.0
  1
1030
 50
90.0
100
AcDbText
  0
POINT
  5
7E44
330
81F4
100
AcDbEntity
  8
DEFPOINTS
  6
ByBlock
 62
     0
100
AcDbPoint
 10
2167.625114976838
 20
-445.9396971642539
 30
0.0
  0
POINT
  5
7E45
330
81F4
100
AcDbEntity
  8
DEFPOINTS
  6
ByBlock
 62
     0
100
AcDbPoint
 10
2167.625114976839
 20
584.0603028357447
 30
0.0
  0
POINT
  5
7E46
330
81F4
100
AcDbEntity
  8
DEFPOINTS
  6
ByBlock
 62
     0
100
AcDbPoint
 10
2368.785211970982
 20
584.0603028357447
 30
0.0
  0
ENDBLK
  5
7E47
330
81F4
100
AcDbEntity
  8
0
100
AcDbBlockEnd
  0
BLOCK
  5
81F7
330
81F6
100
AcDbEntity
  8
0
100
AcDbBlockBegin
  2
*D5
 70
     1
 10
0.0
 20
0.0
 30
0.0
  3
*D5
  1

  0
LINE
  5
7E49
330
81F6
100
AcDbEntity
  8
0
  6
ByBlock
100
AcDbLine
 10
2197.625114976839
 20
-445.9396971642539
 30
0.0
 11
2599.587257430135
 21
-445.9396971642539
 31
0.0
  0
LINE
  5
7E4A
330
81F6
100
AcDbEntity
  8
0
  6
ByBlock
100
AcDbLine
 10
2257.241097474467
 20
628.0603028357453
 30
0.0
 11
2599.587257430135
 21
628.0603028357453
 31
0.0
  0
LINE
  5
7E4B
330
81F6
100
AcDbEntity
  8
0
  6
ByBlock
100
AcDbLine
 10
2569.587257430136
 20
-385.939697164254
 30
0.0
 11
2569.587257430136
 21
568.0603028357453
 31
0.0
  0
INSERT
  5
7E4C
330
81F6
100
AcDbEntity
  8
0
  6
ByBlock
100
AcDbBlockReference
  2
_OPEN
 10
2569.587257430136
 20
-445.9396971642539
 30
0.0
 41
60.0
 42
60.0
 43
60.0
 50
270.0
  0
INSERT
  5
7E4D
330
81F6
100
AcDbEntity
  8
0
  6
ByBlock
100
AcDbBlockReference
  2
_OPEN
 10
2569.587257430136
 20
628.0603028357453
 30
0.0
 41
60.0
 42
60.0
 43
60.0
 50
90.0
  0
TEXT
  5
7E4E
330
81F6
100
AcDbEntity
  8
3
100
AcDbText
 10
2554.587257430135
 20
-61.08255430711147
 30
0.0
 40
90.0
  1
1074
 50
90.0
100
AcDbText
  0
POINT
  5
7E4F
330
81F6
100
AcDbEntity
  8
DEFPOINTS
  6
ByBlock
 62
     0
100
AcDbPoint
 10
2167.625114976838
 20
-445.9396971642539
 30
0.0
  0
POINT
  5
7E50
330
81F6
100
AcDbEntity
  8
DEFPOINTS
  6
ByBlock
 62
     0
100
AcDbPoint
 10
2227.241097474466
 20
628.0603028357453
 30
0.0
  0
POINT
  5
7E51
330
81F6
100
AcDbEntity
  8
DEFPOINTS
  6
ByBlock
 62
     0
100
AcDbPoint
 10
2569.587257430136
 20
628.0603028357453
 30
0.0
  0
ENDBLK
  5
7E52
330
81F6
100
AcDbEntity
  8
0
100
AcDbBlockEnd
  0
BLOCK
  5
81F9
330
81F8
100
AcDbEntity
  8
0
100
AcDbBlockBegin
  2
*D6
 70
     1
 10
0.0
 20
0.0
 30
0.0
  3
*D6
  1

  0
LINE
  5
7E54
330
81F8
100
AcDbEntity
  8
0
  6
ByBlock
100
AcDbLine
 10
2167.625114976839
 20
633.9398566882286
 30
0.0
 11
2167.625114976839
 21
1583.964519529796
 31
0.0
  0
LINE
  5
7E55
330
81F8
100
AcDbEntity
  8
0
  6
ByBlock
100
AcDbLine
 10
1487.625114976837
 20
1421.105738527262
 30
0.0
 11
1487.625114976837
 21
1583.964519529796
 31
0.0
  0
LINE
  5
7E56
330
81F8
100
AcDbEntity
  8
0
  6
ByBlock
100
AcDbLine
 10
2107.625114976839
 20
1553.964519529796
 30
0.0
 11
1547.625114976837
 21
1553.964519529796
 31
0.0
  0
INSERT
  5
7E57
330
81F8
100
AcDbEntity
  8
0
  6
ByBlock
100
AcDbBlockReference
  2
_OPEN
 10
2167.625114976839
 20
1553.964519529796
 30
0.0
 41
60.0
 42
60.0
 43
60.0
  0
INSERT
  5
7E58
330
81F8
100
AcDbEntity
  8
0
  6
ByBlock
100
AcDbBlockReference
  2
_OPEN
 10
1487.625114976837
 20
1553.964519529796
 30
0.0
 41
60.0
 42
60.0
 43
60.0
 50
180.0
  0
TEXT
  5
7E59
330
81F8
100
AcDbEntity
  8
3
100
AcDbText
 10
1711.910829262553
 20
1568.964519529796
 30
0.0
 40
90.0
  1
680
100
AcDbText
  0
POINT
  5
7E5A
330
81F8
100
AcDbEntity
  8
DEFPOINTS
  6
ByBlock
 62
     0
100
AcDbPoint
 10
2167.625114976839
 20
603.9398566882288
 30
0.0
  0
POINT
  5
7E5B
330
81F8
100
AcDbEntity
  8
DEFPOINTS
  6
ByBlock
 62
     0
100
AcDbPoint
 10
1487.625114976837
 20
1391.105738527262
 30
0.0
  0
POINT
  5
7E5C
330
81F8
100
AcDbEntity
  8
DEFPOINTS
  6
ByBlock
 62
     0
100
AcDbPoint
 10
1487.625114976837
 20
1553.964519529796
 30
0.0
  0
ENDBLK
  5
7E5D
330
81F8
100
AcDbEntity
  8
0
100
AcDbBlockEnd
  0
BLOCK
  5
81FB
330
81FA
100
AcDbEntity
  8
0
100
AcDbBlockBegin
  2
*D7
 70
     1
 10
0.0
 20
0.0
 30
0.0
  3
*D7
  1

  0
LINE
  5
7E5F
330
81FA
100
AcDbEntity
  8
0
  6
ByBlock
100
AcDbLine
 10
1487.625114976837
 20
1421.105738527262
 30
0.0
 11
1487.625114976837
 21
1583.50681959488
 31
0.0
  0
LINE
  5
7E60
330
81FA
100
AcDbEntity
  8
0
  6
ByBlock
100
AcDbLine
 10
623.0809985608106
 20
658.0603028357444
 30
0.0
 11
623.0809985608106
 21
1583.50681959488
 31
0.0
  0
LINE
  5
7E61
330
81FA
100
AcDbEntity
  8
0
  6
ByBlock
100
AcDbLine
 10
1427.625114976837
 20
1553.50681959488
 30
0.0
 11
683.0809985608108
 21
1553.50681959488
 31
0.0
  0
INSERT
  5
7E62
330
81FA
100
AcDbEntity
  8
0
  6
ByBlock
100
AcDbBlockReference
  2
_OPEN
 10
1487.625114976837
 20
1553.50681959488
 30
0.0
 41
60.0
 42
60.0
 43
60.0
  0
INSERT
  5
7E63
330
81FA
100
AcDbEntity
  8
0
  6
ByBlock
100
AcDbBlockReference
  2
_OPEN
 10
623.0809985608106
 20
1553.50681959488
 30
0.0
 41
60.0
 42
60.0
 43
60.0
 50
180.0
  0
TEXT
  5
7E64
330
81FA
100
AcDbEntity
  8
3
100
AcDbText
 10
939.6387710545385
 20
1568.50681959488
 30
0.0
 40
90.0
  1
868
100
AcDbText
  0
POINT
  5
7E65
330
81FA
100
AcDbEntity
  8
DEFPOINTS
  6
ByBlock
 62
     0
100
AcDbPoint
 10
1487.625114976837
 20
1391.105738527262
 30
0.0
  0
POINT
  5
7E66
330
81FA
100
AcDbEntity
  8
DEFPOINTS
  6
ByBlock
 62
     0
100
AcDbPoint
 10
623.0809985608106
 20
628.0603028357444
 30
0.0
  0
POINT
  5
7E67
330
81FA
100
AcDbEntity
  8
DEFPOINTS
  6
ByBlock
 62
     0
100
AcDbPoint
 10
623.0809985608106
 20
1553.50681959488
 30
0.0
  0
ENDBLK
  5
7E68
330
81FA
100
AcDbEntity
  8
0
100
AcDbBlockEnd
  0
BLOCK
  5
81FD
330
81FC
100
AcDbEntity
  8
0
100
AcDbBlockBegin
  2
*D8
 70
     1
 10
0.0
 20
0.0
 30
0.0
  3
*D8
  1

  0
LINE
  5
7EAC
330
81FC
100
AcDbEntity
  8
0
  6
ByBlock
100
AcDbLine
 10
862.6251149768394
 20
4406.031599361241
 30
0.0
 11
862.6251149768394
 21
4627.335536588958
 31
0.0
  0
LINE
  5
7EAD
330
81FC
100
AcDbEntity
  8
0
  6
ByBlock
100
AcDbLine
 10
2112.625114976839
 20
4406.031599361237
 30
0.0
 11
2112.625114976839
 21
4627.335536588958
 31
0.0
  0
LINE
  5
7EAE
330
81FC
100
AcDbEntity
  8
0
  6
ByBlock
100
AcDbLine
 10
922.6251149768396
 20
4597.335536588958
 30
0.0
 11
2052.625114976839
 21
4597.335536588958
 31
0.0
  0
INSERT
  5
7EAF
330
81FC
100
AcDbEntity
  8
0
  6
ByBlock
100
AcDbBlockReference
  2
_OPEN
 10
862.6251149768394
 20
4597.335536588958
 30
0.0
 41
60.0
 42
60.0
 43
60.0
 50
180.0
  0
INSERT
  5
7EB0
330
81FC
100
AcDbEntity
  8
0
  6
ByBlock
100
AcDbBlockReference
  2
_OPEN
 10
2112.625114976839
 20
4597.335536588958
 30
0.0
 41
60.0
 42
60.0
 43
60.0
  0
TEXT
  5
7EB1
330
81FC
100
AcDbEntity
  8
3
100
AcDbText
 10
1337.625114976839
 20
4612.335536588958
 30
0.0
 40
90.0
  1
1250
100
AcDbText
  0
POINT
  5
7EB2
330
81FC
100
AcDbEntity
  8
DEFPOINTS
  6
ByBlock
 62
     0
100
AcDbPoint
 10
862.6251149768394
 20
4376.031599361239
 30
0.0
  0
POINT
  5
7EB3
330
81FC
100
AcDbEntity
  8
DEFPOINTS
  6
ByBlock
 62
     0
100
AcDbPoint
 10
2112.625114976839
 20
4376.031599361239
 30
0.0
  0
POINT
  5
7EB4
330
81FC
100
AcDbEntity
  8
DEFPOINTS
  6
ByBlock
 62
     0
100
AcDbPoint
 10
2112.625114976839
 20
4597.335536588958
 30
0.0
  0
ENDBLK
  5
7EB5
330
81FC
100
AcDbEntity
  8
0
100
AcDbBlockEnd
  0
BLOCK
  5
81FF
330
81FE
100
AcDbEntity
  8
0
100
AcDbBlockBegin
  2
*D9
 70
     1
 10
0.0
 20
0.0
 30
0.0
  3
*D9
  1

  0
LINE
  5
7EB7
330
81FE
100
AcDbEntity
  8
0
  6
ByBlock
100
AcDbLine
 10
62.62511497683954
 20
2841.031599361241
 30
0.0
 11
62.62511497683954
 21
2552.481475534663
 31
0.0
  0
LINE
  5
7EB8
330
81FE
100
AcDbEntity
  8
0
  6
ByBlock
100
AcDbLine
 10
2112.625114976839
 20
2841.031599361238
 30
0.0
 11
2112.625114976839
 21
2552.481475534663
 31
0.0
  0
LINE
  5
7EB9
330
81FE
100
AcDbEntity
  8
0
  6
ByBlock
100
AcDbLine
 10
122.6251149768395
 20
2582.481475534663
 30
0.0
 11
2052.625114976839
 21
2582.481475534663
 31
0.0
  0
INSERT
  5
7EBA
330
81FE
100
AcDbEntity
  8
0
  6
ByBlock
100
AcDbBlockReference
  2
_OPEN
 10
62.62511497683954
 20
2582.481475534663
 30
0.0
 41
60.0
 42
60.0
 43
60.0
 50
180.0
  0
INSERT
  5
7EBB
330
81FE
100
AcDbEntity
  8
0
  6
ByBlock
100
AcDbBlockReference
  2
_OPEN
 10
2112.625114976839
 20
2582.481475534663
 30
0.0
 41
60.0
 42
60.0
 43
60.0
  0
TEXT
  5
7EBC
330
81FE
100
AcDbEntity
  8
3
100
AcDbText
 10
929.0536864054109
 20
2597.481475534663
 30
0.0
 40
90.0
  1
2050
100
AcDbText
  0
POINT
  5
7EBD
330
81FE
100
AcDbEntity
  8
DEFPOINTS
  6
ByBlock
 62
     0
100
AcDbPoint
 10
62.62511497683954
 20
2871.03159936124
 30
0.0
  0
POINT
  5
7EBE
330
81FE
100
AcDbEntity
  8
DEFPOINTS
  6
ByBlock
 62
     0
100
AcDbPoint
 10
2112.625114976839
 20
2871.031599361238
 30
0.0
  0
POINT
  5
7EBF
330
81FE
100
AcDbEntity
  8
DEFPOINTS
  6
ByBlock
 62
     0
100
AcDbPoint
 10
2112.625114976839
 20
2582.481475534663
 30
0.0
  0
ENDBLK
  5
7EC0
330
81FE
100
AcDbEntity
  8
0
100
AcDbBlockEnd
  0
BLOCK
  5
8201
330
8200
100
AcDbEntity
  8
0
100
AcDbBlockBegin
  2
*D10
 70
     1
 10
0.0
 20
0.0
 30
0.0
  3
*D10
  1

  0
LINE
  5
7FC7
330
8200
100
AcDbEntity
  8
0
  6
ByBlock
100
AcDbLine
 10
640.1508127990999
 20
5948.670042865877
 30
0.0
 11
481.4679841412834
 21
5948.670042865877
 31
0.0
  0
LINE
  5
7FC8
330
8200
100
AcDbEntity
  8
0
  6
ByBlock
100
AcDbLine
 10
640.1508127990999
 20
5098.670042865875
 30
0.0
 11
481.4679841412834
 21
5098.670042865875
 31
0.0
  0
LINE
  5
7FC9
330
8200
100
AcDbEntity
  8
0
  6
ByBlock
100
AcDbLine
 10
511.4679841412835
 20
5888.670042865877
 30
0.0
 11
511.4679841412835
 21
5158.670042865875
 31
0.0
  0
INSERT
  5
7FCA
330
8200
100
AcDbEntity
  8
0
  6
ByBlock
100
AcDbBlockReference
  2
_OPEN
 10
511.4679841412835
 20
5948.670042865877
 30
0.0
 41
60.0
 42
60.0
 43
60.0
 50
90.0
  0
INSERT
  5
7FCB
330
8200
100
AcDbEntity
  8
0
  6
ByBlock
100
AcDbBlockReference
  2
_OPEN
 10
511.4679841412835
 20
5098.670042865875
 30
0.0
 41
60.0
 42
60.0
 43
60.0
 50
270.0
  0
TEXT
  5
7FCC
330
8200
100
AcDbEntity
  8
3
100
AcDbText
 10
496.4679841412834
 20
5407.95575715159
 30
0.0
 40
90.0
  1
850
 50
90.0
100
AcDbText
  0
POINT
  5
7FCD
330
8200
100
AcDbEntity
  8
DEFPOINTS
  6
ByBlock
 62
     0
100
AcDbPoint
 10
670.1508127991001
 20
5948.670042865877
 30
0.0
  0
POINT
  5
7FCE
330
8200
100
AcDbEntity
  8
DEFPOINTS
  6
ByBlock
 62
     0
100
AcDbPoint
 10
670.1508127991001
 20
5098.670042865875
 30
0.0
  0
POINT
  5
7FCF
330
8200
100
AcDbEntity
  8
DEFPOINTS
  6
ByBlock
 62
     0
100
AcDbPoint
 10
511.4679841412835
 20
5098.670042865875
 30
0.0
  0
ENDBLK
  5
7FD0
330
8200
100
AcDbEntity
  8
0
100
AcDbBlockEnd
  0
BLOCK
  5
8203
330
8202
100
AcDbEntity
  8
0
100
AcDbBlockBegin
  2
*D11
 70
     1
 10
0.0
 20
0.0
 30
0.0
  3
*D11
  1

  0
LINE
  5
7ECD
330
8202
100
AcDbEntity
  8
0
  6
ByBlock
100
AcDbLine
 10
2142.625114976839
 20
4376.031599361239
 30
0.0
 11
2541.269252985774
 21
4376.031599361239
 31
0.0
  0
LINE
  5
7ECE
330
8202
100
AcDbEntity
  8
0
  6
ByBlock
100
AcDbLine
 10
2142.625114976839
 20
2871.031599361238
 30
0.0
 11
2541.269252985774
 21
2871.031599361238
 31
0.0
  0
LINE
  5
7ECF
330
8202
100
AcDbEntity
  8
0
  6
ByBlock
100
AcDbLine
 10
2511.269252985774
 20
4316.031599361237
 30
0.0
 11
2511.269252985774
 21
2931.031599361238
 31
0.0
  0
INSERT
  5
7ED0
330
8202
100
AcDbEntity
  8
0
  6
ByBlock
100
AcDbBlockReference
  2
_OPEN
 10
2511.269252985774
 20
4376.031599361239
 30
0.0
 41
60.0
 42
60.0
 43
60.0
 50
90.0
  0
INSERT
  5
7ED1
330
8202
100
AcDbEntity
  8
0
  6
ByBlock
100
AcDbBlockReference
  2
_OPEN
 10
2511.269252985774
 20
2871.031599361238
 30
0.0
 41
60.0
 42
60.0
 43
60.0
 50
270.0
  0
TEXT
  5
7ED2
330
8202
100
AcDbEntity
  8
3
100
AcDbText
 10
2496.269252985774
 20
3473.531599361239
 30
0.0
 40
90.0
  1
1505
 50
90.0
100
AcDbText
  0
POINT
  5
7ED3
330
8202
100
AcDbEntity
  8
DEFPOINTS
  6
ByBlock
 62
     0
100
AcDbPoint
 10
2112.625114976839
 20
4376.031599361239
 30
0.0
  0
POINT
  5
7ED4
330
8202
100
AcDbEntity
  8
DEFPOINTS
  6
ByBlock
 62
     0
100
AcDbPoint
 10
2112.625114976839
 20
2871.031599361238
 30
0.0
  0
POINT
  5
7ED5
330
8202
100
AcDbEntity
  8
DEFPOINTS
  6
ByBlock
 62
     0
100
AcDbPoint
 10
2511.269252985774
 20
2871.031599361238
 30
0.0
  0
ENDBLK
  5
7ED6
330
8202
100
AcDbEntity
  8
0
100
AcDbBlockEnd
  0
BLOCK
  5
8205
330
8204
100
AcDbEntity
  8
0
100
AcDbBlockBegin
  2
*D12
 70
     1
 10
0.0
 20
0.0
 30
0.0
  3
*D12
  1

  0
LINE
  5
8018
330
8204
100
AcDbEntity
  8
0
  6
ByBlock
100
AcDbLine
 10
3953.843106282491
 20
3688.149543488601
 30
0.0
 11
3953.843106282491
 21
4581.672177957076
 31
0.0
  0
LINE
  5
8019
330
8204
100
AcDbEntity
  8
0
  6
ByBlock
100
AcDbLine
 10
4921.343106282495
 20
4509.943146563347
 30
0.0
 11
4921.343106282495
 21
4581.672177957076
 31
0.0
  0
LINE
  5
801A
330
8204
100
AcDbEntity
  8
0
  6
ByBlock
100
AcDbLine
 10
4013.84310628249
 20
4551.672177957076
 30
0.0
 11
4861.343106282496
 21
4551.672177957076
 31
0.0
  0
INSERT
  5
801B
330
8204
100
AcDbEntity
  8
0
  6
ByBlock
100
AcDbBlockReference
  2
_OPEN
 10
3953.843106282491
 20
4551.672177957076
 30
0.0
 41
60.0
 42
60.0
 43
60.0
 50
180.0
  0
INSERT
  5
801C
330
8204
100
AcDbEntity
  8
0
  6
ByBlock
100
AcDbBlockReference
  2
_OPEN
 10
4921.343106282495
 20
4551.672177957076
 30
0.0
 41
60.0
 42
60.0
 43
60.0
  0
INSERT
  5
801D
330
8204
100
AcDbEntity
  8
3
100
AcDbBlockReference
  2
*U13
 10
0.0
 20
0.0
 30
0.0
  0
POINT
  5
801E
330
8204
100
AcDbEntity
  8
DEFPOINTS
  6
ByBlock
 62
     0
100
AcDbPoint
 10
3953.843106282491
 20
3658.149543488601
 30
0.0
  0
POINT
  5
801F
330
8204
100
AcDbEntity
  8
DEFPOINTS
  6
ByBlock
 62
     0
100
AcDbPoint
 10
4921.343106282495
 20
4479.943146563345
 30
0.0
  0
POINT
  5
8020
330
8204
100
AcDbEntity
  8
DEFPOINTS
  6
ByBlock
 62
     0
100
AcDbPoint
 10
4921.343106282495
 20
4551.672177957076
 30
0.0
  0
ENDBLK
  5
8021
330
8204
100
AcDbEntity
  8
0
100
AcDbBlockEnd
  0
BLOCK
  5
8223
330
8206
100
AcDbEntity
  8
0
100
AcDbBlockBegin
  2
*U13
 70
     1
 10
0.0
 20
0.0
 30
0.0
  3
*U13
  1

  0
TEXT
  5
8169
330
8206
100
AcDbEntity
  8
3
100
AcDbText
 10
4309.021677711063
 20
4716.672177957076
 30
0.0
 40
90.0
  1
MAX
100
AcDbText
  0
TEXT
  5
816A
330
8206
100
AcDbEntity
  8
3
100
AcDbText
 10
4287.593106282493
 20
4566.672177957076
 30
0.0
 40
90.0
  1
1020
100
AcDbText
  0
ENDBLK
  5
816C
330
8206
100
AcDbEntity
  8
0
100
AcDbBlockEnd
  0
BLOCK
  5
8208
330
8207
100
AcDbEntity
  8
0
100
AcDbBlockBegin
  2
*D14
 70
     1
 10
0.0
 20
0.0
 30
0.0
  3
*D14
  1

  0
LINE
  5
8023
330
8207
100
AcDbEntity
  8
0
  6
ByBlock
100
AcDbLine
 10
4921.343106282495
 20
4509.943146563347
 30
0.0
 11
4921.343106282495
 21
4581.672177957076
 31
0.0
  0
LINE
  5
8024
330
8207
100
AcDbEntity
  8
0
  6
ByBlock
100
AcDbLine
 10
5689.3431062825
 20
3372.349543488601
 30
0.0
 11
5689.3431062825
 21
4581.672177957076
 31
0.0
  0
LINE
  5
8025
330
8207
100
AcDbEntity
  8
0
  6
ByBlock
100
AcDbLine
 10
4981.343106282496
 20
4551.672177957076
 30
0.0
 11
5629.343106282498
 21
4551.672177957076
 31
0.0
  0
INSERT
  5
8026
330
8207
100
AcDbEntity
  8
0
  6
ByBlock
100
AcDbBlockReference
  2
_OPEN
 10
4921.343106282495
 20
4551.672177957076
 30
0.0
 41
60.0
 42
60.0
 43
60.0
 50
180.0
  0
INSERT
  5
8027
330
8207
100
AcDbEntity
  8
0
  6
ByBlock
100
AcDbBlockReference
  2
_OPEN
 10
5689.3431062825
 20
4551.672177957076
 30
0.0
 41
60.0
 42
60.0
 43
60.0
  0
TEXT
  5
8028
330
8207
100
AcDbEntity
  8
3
100
AcDbText
 10
5131.771677711069
 20
4605.243606528506
 30
0.0
 40
90.0
  1
(780)
100
AcDbText
  0
POINT
  5
8029
330
8207
100
AcDbEntity
  8
DEFPOINTS
  6
ByBlock
 62
     0
100
AcDbPoint
 10
4921.343106282495
 20
4479.943146563345
 30
0.0
  0
POINT
  5
802A
330
8207
100
AcDbEntity
  8
DEFPOINTS
  6
ByBlock
 62
     0
100
AcDbPoint
 10
5689.3431062825
 20
3342.349543488602
 30
0.0
  0
POINT
  5
802B
330
8207
100
AcDbEntity
  8
DEFPOINTS
  6
ByBlock
 62
     0
100
AcDbPoint
 10
5689.3431062825
 20
4551.672177957076
 30
0.0
  0
ENDBLK
  5
802C
330
8207
100
AcDbEntity
  8
0
100
AcDbBlockEnd
  0
BLOCK
  5
820A
330
8209
100
AcDbEntity
  8
0
100
AcDbBlockBegin
  2
*D15
 70
     1
 10
0.0
 20
0.0
 30
0.0
  3
*D15
  1

  0
LINE
  5
7EEE
330
8209
100
AcDbEntity
  8
0
  6
ByBlock
100
AcDbLine
 10
4259.104621073492
 20
1352.374620489381
 30
0.0
 11
4259.104621073492
 21
1632.055054257674
 31
0.0
  0
LINE
  5
7EEF
330
8209
100
AcDbEntity
  8
0
  6
ByBlock
100
AcDbLine
 10
5509.104621073492
 20
1349.096068293924
 30
0.0
 11
5509.104621073492
 21
1632.055054257674
 31
0.0
  0
LINE
  5
7EF0
330
8209
100
AcDbEntity
  8
0
  6
ByBlock
100
AcDbLine
 10
4319.104621073492
 20
1602.055054257674
 30
0.0
 11
5449.104621073495
 21
1602.055054257674
 31
0.0
  0
INSERT
  5
7EF1
330
8209
100
AcDbEntity
  8
0
  6
ByBlock
100
AcDbBlockReference
  2
_OPEN
 10
4259.104621073492
 20
1602.055054257674
 30
0.0
 41
60.0
 42
60.0
 43
60.0
 50
180.0
  0
INSERT
  5
7EF2
330
8209
100
AcDbEntity
  8
0
  6
ByBlock
100
AcDbBlockReference
  2
_OPEN
 10
5509.104621073492
 20
1602.055054257674
 30
0.0
 41
60.0
 42
60.0
 43
60.0
  0
TEXT
  5
7EF3
330
8209
100
AcDbEntity
  8
3
100
AcDbText
 10
4734.104621073493
 20
1617.055054257674
 30
0.0
 40
90.0
  1
1250
100
AcDbText
  0
POINT
  5
7EF4
330
8209
100
AcDbEntity
  8
DEFPOINTS
  6
ByBlock
 62
     0
100
AcDbPoint
 10
4259.104621073492
 20
1322.374620489382
 30
0.0
  0
POINT
  5
7EF5
330
8209
100
AcDbEntity
  8
DEFPOINTS
  6
ByBlock
 62
     0
100
AcDbPoint
 10
5509.104621073492
 20
1319.096068293924
 30
0.0
  0
POINT
  5
7EF6
330
8209
100
AcDbEntity
  8
DEFPOINTS
  6
ByBlock
 62
     0
100
AcDbPoint
 10
5509.104621073492
 20
1602.055054257674
 30
0.0
  0
ENDBLK
  5
7EF7
330
8209
100
AcDbEntity
  8
0
100
AcDbBlockEnd
  0
BLOCK
  5
820C
330
820B
100
AcDbEntity
  8
0
100
AcDbBlockBegin
  2
*D16
 70
     1
 10
0.0
 20
0.0
 30
0.0
  3
*D16
  1

  0
LINE
  5
7EF9
330
820B
100
AcDbEntity
  8
0
  6
ByBlock
100
AcDbLine
 10
5544.604621073492
 20
98.06030283574637
 30
0.0
 11
5883.472841444802
 21
98.06030283574637
 31
0.0
  0
LINE
  5
7EFA
330
820B
100
AcDbEntity
  8
0
  6
ByBlock
100
AcDbLine
 10
5544.604621073492
 20
1158.060302835746
 30
0.0
 11
5883.472841444802
 21
1158.060302835746
 31
0.0
  0
LINE
  5
7EFB
330
820B
100
AcDbEntity
  8
0
  6
ByBlock
100
AcDbLine
 10
5853.472841444804
 20
158.0603028357463
 30
0.0
 11
5853.472841444804
 21
1098.060302835746
 31
0.0
  0
INSERT
  5
7EFC
330
820B
100
AcDbEntity
  8
0
  6
ByBlock
100
AcDbBlockReference
  2
_OPEN
 10
5853.472841444804
 20
98.06030283574637
 30
0.0
 41
60.0
 42
60.0
 43
60.0
 50
270.0
  0
INSERT
  5
7EFD
330
820B
100
AcDbEntity
  8
0
  6
ByBlock
100
AcDbBlockReference
  2
_OPEN
 10
5853.472841444804
 20
1158.060302835746
 30
0.0
 41
60.0
 42
60.0
 43
60.0
 50
90.0
  0
TEXT
  5
7EFE
330
820B
100
AcDbEntity
  8
3
100
AcDbText
 10
5838.472841444802
 20
433.0603028357463
 30
0.0
 40
90.0
  1
\U+03C61060
 50
90.0
100
AcDbText
  0
POINT
  5
7EFF
330
820B
100
AcDbEntity
  8
DEFPOINTS
  6
ByBlock
 62
     0
100
AcDbPoint
 10
5514.604621073492
 20
98.06030283574637
 30
0.0
  0
POINT
  5
7F00
330
820B
100
AcDbEntity
  8
DEFPOINTS
  6
ByBlock
 62
     0
100
AcDbPoint
 10
5514.604621073492
 20
1158.060302835746
 30
0.0
  0
POINT
  5
7F01
330
820B
100
AcDbEntity
  8
DEFPOINTS
  6
ByBlock
 62
     0
100
AcDbPoint
 10
5853.472841444804
 20
1158.060302835746
 30
0.0
  0
ENDBLK
  5
7F02
330
820B
100
AcDbEntity
  8
0
100
AcDbBlockEnd
  0
BLOCK
  5
820E
330
820D
100
AcDbEntity
  8
0
100
AcDbBlockBegin
  2
*D17
 70
     1
 10
0.0
 20
0.0
 30
0.0
  3
*D17
  1

  0
LINE
  5
7F04
330
820D
100
AcDbEntity
  8
0
  6
ByBlock
100
AcDbLine
 10
2167.625114976839
 20
633.9398566882286
 30
0.0
 11
2167.625114976839
 21
1763.351022905701
 31
0.0
  0
LINE
  5
7F05
330
820D
100
AcDbEntity
  8
0
  6
ByBlock
100
AcDbLine
 10
62.62511497683928
 20
-451.9396971642548
 30
0.0
 11
62.62511497683928
 21
1763.351022905701
 31
0.0
  0
LINE
  5
7F06
330
820D
100
AcDbEntity
  8
0
  6
ByBlock
100
AcDbLine
 10
2107.625114976839
 20
1733.351022905701
 30
0.0
 11
122.6251149768392
 21
1733.351022905701
 31
0.0
  0
INSERT
  5
7F07
330
820D
100
AcDbEntity
  8
0
  6
ByBlock
100
AcDbBlockReference
  2
_OPEN
 10
2167.625114976839
 20
1733.351022905701
 30
0.0
 41
60.0
 42
60.0
 43
60.0
  0
INSERT
  5
7F08
330
820D
100
AcDbEntity
  8
0
  6
ByBlock
100
AcDbBlockReference
  2
_OPEN
 10
62.62511497683928
 20
1733.351022905701
 30
0.0
 41
60.0
 42
60.0
 43
60.0
 50
180.0
  0
TEXT
  5
7F09
330
820D
100
AcDbEntity
  8
3
100
AcDbText
 10
965.1251149768393
 20
1748.351022905701
 30
0.0
 40
90.0
  1
2105
100
AcDbText
  0
POINT
  5
7F0A
330
820D
100
AcDbEntity
  8
DEFPOINTS
  6
ByBlock
 62
     0
100
AcDbPoint
 10
2167.625114976839
 20
603.9398566882288
 30
0.0
  0
POINT
  5
7F0B
330
820D
100
AcDbEntity
  8
DEFPOINTS
  6
ByBlock
 62
     0
100
AcDbPoint
 10
62.62511497683928
 20
-481.9396971642547
 30
0.0
  0
POINT
  5
7F0C
330
820D
100
AcDbEntity
  8
DEFPOINTS
  6
ByBlock
 62
     0
100
AcDbPoint
 10
62.62511497683928
 20
1733.351022905701
 30
0.0
  0
ENDBLK
  5
7F0D
330
820D
100
AcDbEntity
  8
0
100
AcDbBlockEnd
  0
BLOCK
  5
8210
330
820F
100
AcDbEntity
  8
0
100
AcDbBlockBegin
  2
*D18
 70
     1
 10
0.0
 20
0.0
 30
0.0
  3
*D18
  1

  0
LINE
  5
7F0F
330
820F
100
AcDbEntity
  8
0
  6
ByBlock
100
AcDbLine
 10
862.6251149768394
 20
4406.031599361241
 30
0.0
 11
862.6251149768394
 21
4627.335536588958
 31
0.0
  0
LINE
  5
7F10
330
820F
100
AcDbEntity
  8
0
  6
ByBlock
100
AcDbLine
 10
62.62511497683954
 20
3751.03159936124
 30
0.0
 11
62.62511497683954
 21
4627.335536588958
 31
0.0
  0
LINE
  5
7F11
330
820F
100
AcDbEntity
  8
0
  6
ByBlock
100
AcDbLine
 10
802.6251149768395
 20
4597.335536588958
 30
0.0
 11
122.6251149768395
 21
4597.335536588958
 31
0.0
  0
INSERT
  5
7F12
330
820F
100
AcDbEntity
  8
0
  6
ByBlock
100
AcDbBlockReference
  2
_OPEN
 10
862.6251149768394
 20
4597.335536588958
 30
0.0
 41
60.0
 42
60.0
 43
60.0
  0
INSERT
  5
7F13
330
820F
100
AcDbEntity
  8
0
  6
ByBlock
100
AcDbBlockReference
  2
_OPEN
 10
62.62511497683954
 20
4597.335536588958
 30
0.0
 41
60.0
 42
60.0
 43
60.0
 50
180.0
  0
TEXT
  5
7F14
330
820F
100
AcDbEntity
  8
3
100
AcDbText
 10
346.9108292625538
 20
4612.335536588958
 30
0.0
 40
90.0
  1
800
100
AcDbText
  0
POINT
  5
7F15
330
820F
100
AcDbEntity
  8
DEFPOINTS
  6
ByBlock
 62
     0
100
AcDbPoint
 10
862.6251149768394
 20
4376.031599361239
 30
0.0
  0
POINT
  5
7F16
330
820F
100
AcDbEntity
  8
DEFPOINTS
  6
ByBlock
 62
     0
100
AcDbPoint
 10
62.62511497683954
 20
3721.031599361241
 30
0.0
  0
POINT
  5
7F17
330
820F
100
AcDbEntity
  8
DEFPOINTS
  6
ByBlock
 62
     0
100
AcDbPoint
 10
62.62511497683954
 20
4597.335536588958
 30
0.0
  0
ENDBLK
  5
7F18
330
820F
100
AcDbEntity
  8
0
100
AcDbBlockEnd
  0
BLOCK
  5
8212
330
8211
100
AcDbEntity
  8
0
100
AcDbBlockBegin
  2
*D19
 70
     1
 10
0.0
 20
0.0
 30
0.0
  3
*D19
  1

  0
LINE
  5
7F1A
330
8211
100
AcDbEntity
  8
0
  6
ByBlock
100
AcDbLine
 10
1443.625114976839
 20
1348.060302835746
 30
0.0
 11
2838.796582735678
 21
1348.060302835746
 31
0.0
  0
LINE
  5
7F1B
330
8211
100
AcDbEntity
  8
0
  6
ByBlock
100
AcDbLine
 10
2257.241097474467
 20
628.0603028357453
 30
0.0
 11
2838.796582735678
 21
628.0603028357453
 31
0.0
  0
LINE
  5
7F1C
330
8211
100
AcDbEntity
  8
0
  6
ByBlock
100
AcDbLine
 10
2808.796582735677
 20
1288.060302835746
 30
0.0
 11
2808.796582735677
 21
688.0603028357453
 31
0.0
  0
INSERT
  5
7F1D
330
8211
100
AcDbEntity
  8
0
  6
ByBlock
100
AcDbBlockReference
  2
_OPEN
 10
2808.796582735677
 20
1348.060302835746
 30
0.0
 41
60.0
 42
60.0
 43
60.0
 50
90.0
  0
INSERT
  5
7F1E
330
8211
100
AcDbEntity
  8
0
  6
ByBlock
100
AcDbBlockReference
  2
_OPEN
 10
2808.796582735677
 20
628.0603028357453
 30
0.0
 41
60.0
 42
60.0
 43
60.0
 50
270.0
  0
TEXT
  5
7F1F
330
8211
100
AcDbEntity
  8
3
100
AcDbText
 10
2793.796582735678
 20
872.3460171214604
 30
0.0
 40
90.0
  1
720
 50
90.0
100
AcDbText
  0
POINT
  5
7F20
330
8211
100
AcDbEntity
  8
DEFPOINTS
  6
ByBlock
 62
     0
100
AcDbPoint
 10
1413.62511497684
 20
1348.060302835746
 30
0.0
  0
POINT
  5
7F21
330
8211
100
AcDbEntity
  8
DEFPOINTS
  6
ByBlock
 62
     0
100
AcDbPoint
 10
2227.241097474466
 20
628.0603028357453
 30
0.0
  0
POINT
  5
7F22
330
8211
100
AcDbEntity
  8
DEFPOINTS
  6
ByBlock
 62
     0
100
AcDbPoint
 10
2808.796582735677
 20
628.0603028357453
 30
0.0
  0
ENDBLK
  5
7F23
330
8211
100
AcDbEntity
  8
0
100
AcDbBlockEnd
  0
BLOCK
  5
8214
330
8213
100
AcDbEntity
  8
0
100
AcDbBlockBegin
  2
*D20
 70
     1
 10
0.0
 20
0.0
 30
0.0
  3
*D20
  1

  0
LINE
  5
815D
330
8213
100
AcDbEntity
  8
3
100
AcDbLine
 10
2750.1508127991
 20
2168.149543488601
 30
0.0
 11
3446.322280557939
 21
2168.1495434886
 31
0.0
  0
LINE
  5
815E
330
8213
100
AcDbEntity
  8
3
100
AcDbLine
 10
3416.322280557939
 20
3318.1495434886
 30
0.0
 11
3416.322280557938
 21
2228.149543488601
 31
0.0
  0
INSERT
  5
815F
330
8213
100
AcDbEntity
  8
3
100
AcDbBlockReference
  2
_OPEN
 10
3416.322280557939
 20
3378.149543488599
 30
0.0
 41
60.0
 42
60.0
 43
60.0
 50
90.0
  0
INSERT
  5
8160
330
8213
100
AcDbEntity
  8
3
100
AcDbBlockReference
  2
_OPEN
 10
3416.322280557938
 20
2168.1495434886
 30
0.0
 41
60.0
 42
60.0
 43
60.0
 50
270.0
  0
TEXT
  5
816D
330
8213
100
AcDbEntity
  8
3
100
AcDbText
 10
3176.32
 20
2613.85
 30
0.0
 40
90.0
  1
1210
100
AcDbText
  0
POINT
  5
8162
330
8213
100
AcDbEntity
  8
DEFPOINTS
 62
     0
100
AcDbPoint
 10
2834.766795296728
 20
3378.1495434886
 30
0.0
  0
POINT
  5
8163
330
8213
100
AcDbEntity
  8
DEFPOINTS
 62
     0
100
AcDbPoint
 10
2720.150812799099
 20
2168.149543488601
 30
0.0
  0
POINT
  5
8164
330
8213
100
AcDbEntity
  8
DEFPOINTS
 62
     0
100
AcDbPoint
 10
3416.322280557938
 20
2168.1495434886
 30
0.0
  0
ENDBLK
  5
7F2D
330
8213
100
AcDbEntity
  8
0
100
AcDbBlockEnd
  0
BLOCK
  5
8216
330
8215
100
AcDbEntity
  8
0
100
AcDbBlockBegin
  2
_DOT
 70
     0
 10
0.0
 20
0.0
 30
0.0
  3
_DOT
  1

  0
LWPOLYLINE
  5
7FB9
330
8215
100
AcDbEntity
  8
0
  6
ByBlock
 62
     0
100
AcDbPolyline
 90
        2
 70
     1
 43
0.25
 10
-0.125
 20
0.0
 42
1.0
 10
0.125
 20
0.0
 42
1.0
  0
LINE
  5
7FBD
330
8215
100
AcDbEntity
  8
0
  6
ByBlock
 62
     0
100
AcDbLine
 10
-0.25
 20
0.0
 30
0.0
 11
-1.0
 21
0.0
 31
0.0
  0
ENDBLK
  5
7F85
330
8215
100
AcDbEntity
  8
0
100
AcDbBlockEnd
  0
BLOCK
  5
8218
330
8217
100
AcDbEntity
  8
0
100
AcDbBlockBegin
  2
_NONE
 70
     0
 10
0.0
 20
0.0
 30
0.0
  3
_NONE
  1

  0
CIRCLE
  5
806F
330
8217
100
AcDbEntity
  8
0
  6
ByBlock
 62
     0
100
AcDbCircle
 10
0.0
 20
0.0
 30
0.0
 40
0.25
  0
ENDBLK
  5
8070
330
8217
100
AcDbEntity
  8
0
100
AcDbBlockEnd
  0
BLOCK
  5
821A
330
8219
100
AcDbEntity
  8
0
100
AcDbBlockBegin
  2
*D23
 70
     1
 10
0.0
 20
0.0
 30
0.0
  3
*D23
  1

  0
LINE
  5
80CA
330
8219
100
AcDbEntity
  8
0
  6
ByBlock
 62
     0
100
AcDbLine
 10
670.1508127990997
 20
2138.149543488601
 30
0.0
 11
670.1508127990997
 21
1921.158845018268
 31
0.0
  0
LINE
  5
80CB
330
8219
100
AcDbEntity
  8
0
  6
ByBlock
 62
     0
100
AcDbLine
 10
2095.150812799097
 20
2138.149543488601
 30
0.0
 11
2095.150812799097
 21
1921.158845018268
 31
0.0
  0
LINE
  5
80CC
330
8219
100
AcDbEntity
  8
0
  6
ByBlock
 62
     0
100
AcDbLine
 10
730.1508127990999
 20
1951.158845018268
 30
0.0
 11
2035.150812799097
 21
1951.158845018268
 31
0.0
  0
INSERT
  5
80CD
330
8219
100
AcDbEntity
  8
0
  6
ByBlock
 62
     0
100
AcDbBlockReference
  2
_OPEN
 10
670.1508127990997
 20
1951.158845018268
 30
0.0
 41
60.0
 42
60.0
 43
60.0
 50
180.0
  0
INSERT
  5
80CE
330
8219
100
AcDbEntity
  8
0
  6
ByBlock
 62
     0
100
AcDbBlockReference
  2
_OPEN
 10
2095.150812799097
 20
1951.158845018268
 30
0.0
 41
60.0
 42
60.0
 43
60.0
  0
TEXT
  5
80CF
330
8219
100
AcDbEntity
  8
3
 62
     0
100
AcDbText
 10
1232.650812799098
 20
1981.158845018267
 30
0.0
 40
90.0
  1
1425
100
AcDbText
  0
POINT
  5
80D0
330
8219
100
AcDbEntity
  8
DEFPOINTS
  6
ByBlock
 62
     0
100
AcDbPoint
 10
670.1508127990997
 20
2168.149543488601
 30
0.0
  0
POINT
  5
80D1
330
8219
100
AcDbEntity
  8
DEFPOINTS
  6
ByBlock
 62
     0
100
AcDbPoint
 10
2095.150812799097
 20
2168.1495434886
 30
0.0
  0
POINT
  5
80D2
330
8219
100
AcDbEntity
  8
DEFPOINTS
  6
ByBlock
 62
     0
100
AcDbPoint
 10
2095.150812799097
 20
1951.158845018268
 30
0.0
  0
ENDBLK
  5
80D3
330
8219
100
AcDbEntity
  8
0
100
AcDbBlockEnd
  0
BLOCK
  5
821C
330
821B
100
AcDbEntity
  8
0
100
AcDbBlockBegin
  2
*D24
 70
     1
 10
0.0
 20
0.0
 30
0.0
  3
*D24
  1

  0
LINE
  5
80D7
330
821B
100
AcDbEntity
  8
0
  6
ByBlock
 62
     0
100
AcDbLine
 10
2095.150812799097
 20
2138.149543488601
 30
0.0
 11
2095.150812799097
 21
1921.158845018268
 31
0.0
  0
LINE
  5
80D8
330
821B
100
AcDbEntity
  8
0
  6
ByBlock
 62
     0
100
AcDbLine
 10
2720.150812799099
 20
2138.149543488601
 30
0.0
 11
2720.150812799099
 21
1921.158845018268
 31
0.0
  0
LINE
  5
80D9
330
821B
100
AcDbEntity
  8
0
  6
ByBlock
 62
     0
100
AcDbLine
 10
2155.150812799096
 20
1951.158845018268
 30
0.0
 11
2660.150812799099
 21
1951.158845018268
 31
0.0
  0
INSERT
  5
80DA
330
821B
100
AcDbEntity
  8
0
  6
ByBlock
 62
     0
100
AcDbBlockReference
  2
_OPEN
 10
2095.150812799097
 20
1951.158845018268
 30
0.0
 41
60.0
 42
60.0
 43
60.0
 50
180.0
  0
INSERT
  5
80DB
330
821B
100
AcDbEntity
  8
0
  6
ByBlock
 62
     0
100
AcDbBlockReference
  2
_OPEN
 10
2720.150812799099
 20
1951.158845018268
 30
0.0
 41
60.0
 42
60.0
 43
60.0
  0
TEXT
  5
80DC
330
821B
100
AcDbEntity
  8
3
 62
     0
100
AcDbText
 10
2291.936527084812
 20
1981.158845018267
 30
0.0
 40
90.0
  1
625
100
AcDbText
  0
POINT
  5
80DD
330
821B
100
AcDbEntity
  8
DEFPOINTS
  6
ByBlock
 62
     0
100
AcDbPoint
 10
2095.150812799097
 20
2168.1495434886
 30
0.0
  0
POINT
  5
80DE
330
821B
100
AcDbEntity
  8
DEFPOINTS
  6
ByBlock
 62
     0
100
AcDbPoint
 10
2720.150812799099
 20
2168.149543488601
 30
0.0
  0
POINT
  5
80DF
330
821B
100
AcDbEntity
  8
DEFPOINTS
  6
ByBlock
 62
     0
100
AcDbPoint
 10
2720.150812799099
 20
1951.158845018268
 30
0.0
  0
ENDBLK
  5
80E0
330
821B
100
AcDbEntity
  8
0
100
AcDbBlockEnd
  0
BLOCK
  5
821E
330
821D
100
AcDbEntity
  8
0
100
AcDbBlockBegin
  2
*D25
 70
     1
 10
0.0
 20
0.0
 30
0.0
  3
*D25
  1

  0
LINE
  5
80E4
330
821D
100
AcDbEntity
  8
0
  6
ByBlock
 62
     0
100
AcDbLine
 10
4094.343106282495
 20
2138.149543488601
 30
0.0
 11
4094.343106282495
 21
1921.158845018268
 31
0.0
  0
LINE
  5
80E5
330
821D
100
AcDbEntity
  8
0
  6
ByBlock
 62
     0
100
AcDbLine
 10
4921.343106282495
 20
2138.149543488601
 30
0.0
 11
4921.343106282495
 21
1921.158845018268
 31
0.0
  0
LINE
  5
80E6
330
821D
100
AcDbEntity
  8
0
  6
ByBlock
 62
     0
100
AcDbLine
 10
4154.343106282495
 20
1951.158845018268
 30
0.0
 11
4861.343106282495
 21
1951.158845018268
 31
0.0
  0
INSERT
  5
80E7
330
821D
100
AcDbEntity
  8
0
  6
ByBlock
 62
     0
100
AcDbBlockReference
  2
_OPEN
 10
4094.343106282495
 20
1951.158845018268
 30
0.0
 41
60.0
 42
60.0
 43
60.0
 50
180.0
  0
INSERT
  5
80E8
330
821D
100
AcDbEntity
  8
0
  6
ByBlock
 62
     0
100
AcDbBlockReference
  2
_OPEN
 10
4921.343106282495
 20
1951.158845018268
 30
0.0
 41
60.0
 42
60.0
 43
60.0
  0
TEXT
  5
80E9
330
821D
100
AcDbEntity
  8
3
 62
     0
100
AcDbText
 10
4392.128820568209
 20
1981.158845018267
 30
0.0
 40
90.0
  1
827
100
AcDbText
  0
POINT
  5
80EA
330
821D
100
AcDbEntity
  8
DEFPOINTS
  6
ByBlock
 62
     0
100
AcDbPoint
 10
4094.343106282495
 20
2168.1495434886
 30
0.0
  0
POINT
  5
80EB
330
821D
100
AcDbEntity
  8
DEFPOINTS
  6
ByBlock
 62
     0
100
AcDbPoint
 10
4921.343106282495
 20
2168.1495434886
 30
0.0
  0
POINT
  5
80EC
330
821D
100
AcDbEntity
  8
DEFPOINTS
  6
ByBlock
 62
     0
100
AcDbPoint
 10
4921.343106282495
 20
1951.158845018268
 30
0.0
  0
ENDBLK
  5
80ED
330
821D
100
AcDbEntity
  8
0
100
AcDbBlockEnd
  0
BLOCK
  5
8220
330
821F
100
AcDbEntity
  8
0
100
AcDbBlockBegin
  2
*D26
 70
     1
 10
0.0
 20
0.0
 30
0.0
  3
*D26
  1

  0
LINE
  5
80F1
330
821F
100
AcDbEntity
  8
0
  6
ByBlock
 62
     0
100
AcDbLine
 10
4921.343106282495
 20
2138.149543488601
 30
0.0
 11
4921.343106282495
 21
1921.158845018268
 31
0.0
  0
LINE
  5
80F2
330
821F
100
AcDbEntity
  8
0
  6
ByBlock
 62
     0
100
AcDbLine
 10
5599.343106282496
 20
2138.149543488601
 30
0.0
 11
5599.343106282496
 21
1921.158845018268
 31
0.0
  0
LINE
  5
80F3
330
821F
100
AcDbEntity
  8
0
  6
ByBlock
 62
     0
100
AcDbLine
 10
4981.343106282494
 20
1951.158845018268
 30
0.0
 11
5539.343106282498
 21
1951.158845018268
 31
0.0
  0
INSERT
  5
80F4
330
821F
100
AcDbEntity
  8
0
  6
ByBlock
 62
     0
100
AcDbBlockReference
  2
_OPEN
 10
4921.343106282495
 20
1951.158845018268
 30
0.0
 41
60.0
 42
60.0
 43
60.0
 50
180.0
  0
INSERT
  5
80F5
330
821F
100
AcDbEntity
  8
0
  6
ByBlock
 62
     0
100
AcDbBlockReference
  2
_OPEN
 10
5599.343106282496
 20
1951.158845018268
 30
0.0
 41
60.0
 42
60.0
 43
60.0
  0
TEXT
  5
80F6
330
821F
100
AcDbEntity
  8
3
 62
     0
100
AcDbText
 10
5144.628820568209
 20
1981.158845018267
 30
0.0
 40
90.0
  1
678
100
AcDbText
  0
POINT
  5
80F7
330
821F
100
AcDbEntity
  8
DEFPOINTS
  6
ByBlock
 62
     0
100
AcDbPoint
 10
4921.343106282495
 20
2168.1495434886
 30
0.0
  0
POINT
  5
80F8
330
821F
100
AcDbEntity
  8
DEFPOINTS
  6
ByBlock
 62
     0
100
AcDbPoint
 10
5599.343106282496
 20
2168.1495434886
 30
0.0
  0
POINT
  5
80F9
330
821F
100
AcDbEntity
  8
DEFPOINTS
  6
ByBlock
 62
     0
100
AcDbPoint
 10
5599.343106282496
 20
1951.158845018268
 30
0.0
  0
ENDBLK
  5
80FA
330
821F
100
AcDbEntity
  8
0
100
AcDbBlockEnd
  0
BLOCK
  5
8222
330
8221
100
AcDbEntity
  8
0
100
AcDbBlockBegin
  2
*D27
 70
     1
 10
0.0
 20
0.0
 30
0.0
  3
*D27
  1

  0
LINE
  5
80FE
330
8221
100
AcDbEntity
  8
0
  6
ByBlock
 62
     0
100
AcDbLine
 10
2750.1508127991
 20
2168.149543488601
 30
0.0
 11
3659.624865627669
 21
2168.149543488601
 31
0.0
  0
LINE
  5
80FF
330
8221
100
AcDbEntity
  8
0
  6
ByBlock
 62
     0
100
AcDbLine
 10
2081.1508127991
 20
4098.149543488601
 30
0.0
 11
3659.624865627669
 21
4098.149543488601
 31
0.0
  0
LINE
  5
8100
330
8221
100
AcDbEntity
  8
0
  6
ByBlock
 62
     0
100
AcDbLine
 10
3629.624865627669
 20
2228.149543488601
 30
0.0
 11
3629.624865627669
 21
4038.149543488601
 31
0.0
  0
INSERT
  5
8101
330
8221
100
AcDbEntity
  8
0
  6
ByBlock
 62
     0
100
AcDbBlockReference
  2
_OPEN
 10
3629.624865627669
 20
2168.149543488601
 30
0.0
 41
60.0
 42
60.0
 43
60.0
 50
270.0
  0
INSERT
  5
8102
330
8221
100
AcDbEntity
  8
0
  6
ByBlock
 62
     0
100
AcDbBlockReference
  2
_OPEN
 10
3629.624865627669
 20
4098.149543488601
 30
0.0
 41
60.0
 42
60.0
 43
60.0
 50
90.0
  0
TEXT
  5
8103
330
8221
100
AcDbEntity
  8
3
 62
     0
100
AcDbText
 10
3599.624865627669
 20
2983.149543488601
 30
0.0
 40
90.0
  1
1930
 50
90.0
100
AcDbText
  0
POINT
  5
8104
330
8221
100
AcDbEntity
  8
DEFPOINTS
  6
ByBlock
 62
     0
100
AcDbPoint
 10
2720.150812799099
 20
2168.149543488601
 30
0.0
  0
POINT
  5
8105
330
8221
100
AcDbEntity
  8
DEFPOINTS
  6
ByBlock
 62
     0
100
AcDbPoint
 10
2051.1508127991
 20
4098.149543488601
 30
0.0
  0
POINT
  5
8106
330
8221
100
AcDbEntity
  8
DEFPOINTS
  6
ByBlock
 62
     0
100
AcDbPoint
 10
3629.624865627669
 20
4098.149543488601
 30
0.0
  0
ENDBLK
  5
8107
330
8221
100
AcDbEntity
  8
0
100
AcDbBlockEnd
  0
BLOCK
  5
8227
330
8226
100
AcDbEntity
  8
0
100
AcDbBlockBegin
  2
*D28
 70
     1
 10
0.0
 20
0.0
 30
0.0
  3
*D28
  1

  0
LINE
  5
8297
330
8226
100
AcDbEntity
  8
3
 62
     0
370
    -2
100
AcDbLine
 10
2604.076003181686
 20
5925.670042865873
 30
0.0
 11
3439.887190823531
 21
5925.670042865873
 31
0.0
  0
LINE
  5
8298
330
8226
100
AcDbEntity
  8
3
 62
     0
370
    -2
100
AcDbLine
 10
2405.150812799098
 20
4865.670042865873
 30
0.0
 11
3439.88719082353
 21
4865.670042865873
 31
0.0
  0
LINE
  5
8299
330
8226
100
AcDbEntity
  8
3
 62
     0
370
    -2
100
AcDbLine
 10
3409.887190823531
 20
5865.670042865873
 30
0.0
 11
3409.887190823531
 21
4925.670042865873
 31
0.0
  0
INSERT
  5
829A
330
8226
100
AcDbEntity
  8
3
 62
     0
370
    -2
100
AcDbBlockReference
  2
_OPEN
 10
3409.887190823531
 20
5925.670042865873
 30
0.0
 41
60.0
 42
60.0
 43
60.0
 50
90.0
  0
INSERT
  5
829B
330
8226
100
AcDbEntity
  8
3
 62
     0
370
    -2
100
AcDbBlockReference
  2
_OPEN
 10
3409.887190823531
 20
4865.670042865873
 30
0.0
 41
60.0
 42
60.0
 43
60.0
 50
270.0
  0
MTEXT
  5
829C
330
8226
100
AcDbEntity
  8
3
 62
     0
100
AcDbMText
 10
3334.88719082353
 20
5395.670042865874
 30
0.0
 40
90.0
 41
0.0
 71
     5
 72
     1
  1
\A1;1060
 11
0.0000000000000001
 21
1.0
 31
0.0
 73
     1
 44
1.0
1001
ACAD
1000
MTEXTBEGIN
1070
    73
1070
     1
1070
    44
1040
1.0
1070
    74
1070
     0
1000
MTEXTEND
  0
POINT
  5
829D
330
8226
100
AcDbEntity
  8
DEFPOINTS
 62
     0
100
AcDbPoint
 10
2574.076003181686
 20
5925.670042865873
 30
0.0
  0
POINT
  5
829E
330
8226
100
AcDbEntity
  8
DEFPOINTS
 62
     0
100
AcDbPoint
 10
2375.150812799098
 20
4865.670042865873
 30
0.0
  0
POINT
  5
829F
330
8226
100
AcDbEntity
  8
DEFPOINTS
 62
     0
100
AcDbPoint
 10
3409.887190823531
 20
4865.670042865873
 30
0.0
  0
ENDBLK
  5
8228
330
8226
100
AcDbEntity
  8
0
100
AcDbBlockEnd
  0
BLOCK
  5
8234
330
8233
100
AcDbEntity
  8
0
100
AcDbBlockBegin
  2
*D29
 70
     1
 10
0.0
 20
0.0
 30
0.0
  3
*D29
  1

  0
LINE
  5
8285
330
8233
100
AcDbEntity
  8
3
 62
     0
370
    -2
100
AcDbLine
 10
3861.343106282491
 20
3688.149543488601
 30
0.0
 11
3861.343106282491
 21
4601.491438949204
 31
0.0
  0
LINE
  5
8286
330
8233
100
AcDbEntity
  8
3
 62
     0
370
    -2
100
AcDbLine
 10
4921.343106282495
 20
4516.026754975927
 30
0.0
 11
4921.343106282495
 21
4601.491438949204
 31
0.0
  0
LINE
  5
8287
330
8233
100
AcDbEntity
  8
3
 62
     0
370
    -2
100
AcDbLine
 10
3921.343106282491
 20
4571.491438949204
 30
0.0
 11
4861.343106282496
 21
4571.491438949204
 31
0.0
  0
INSERT
  5
8288
330
8233
100
AcDbEntity
  8
3
 62
     0
370
    -2
100
AcDbBlockReference
  2
_OPEN
 10
3861.343106282491
 20
4571.491438949204
 30
0.0
 41
60.0
 42
60.0
 43
60.0
 50
180.0
  0
INSERT
  5
8289
330
8233
100
AcDbEntity
  8
3
 62
     0
370
    -2
100
AcDbBlockReference
  2
_OPEN
 10
4921.343106282495
 20
4571.491438949204
 30
0.0
 41
60.0
 42
60.0
 43
60.0
  0
MTEXT
  5
828A
330
8233
100
AcDbEntity
  8
3
 62
     0
100
AcDbMText
 10
4391.343106282493
 20
4670.062867520632
 30
0.0
 40
90.0
 41
0.0
 71
     5
 72
     1
  1
\A1;(1060)
 73
     1
 44
1.0
1001
ACAD
1000
MTEXTBEGIN
1070
    73
1070
     1
1070
    44
1040
1.0
1070
    74
1070
     0
1000
MTEXTEND
  0
POINT
  5
828B
330
8233
100
AcDbEntity
  8
DEFPOINTS
 62
     0
100
AcDbPoint
 10
3861.343106282491
 20
3658.149543488601
 30
0.0
  0
POINT
  5
828C
330
8233
100
AcDbEntity
  8
DEFPOINTS
 62
     0
100
AcDbPoint
 10
4921.343106282495
 20
4486.026754975926
 30
0.0
  0
POINT
  5
828D
330
8233
100
AcDbEntity
  8
DEFPOINTS
 62
     0
100
AcDbPoint
 10
4921.343106282495
 20
4571.491438949204
 30
0.0
  0
ENDBLK
  5
8235
330
8233
100
AcDbEntity
  8
0
100
AcDbBlockEnd
  0
BLOCK
  5
8241
330
8240
100
AcDbEntity
  8
0
100
AcDbBlockBegin
  2
*D30
 70
     1
 10
0.0
 20
0.0
 30
0.0
  3
*D30
  1

  0
LINE
  5
828E
330
8240
100
AcDbEntity
  8
3
 62
     0
370
    -2
100
AcDbLine
 10
4921.343106282495
 20
4516.026754975927
 30
0.0
 11
4921.343106282495
 21
4601.491438949204
 31
0.0
  0
LINE
  5
828F
330
8240
100
AcDbEntity
  8
3
 62
     0
370
    -2
100
AcDbLine
 10
5701.343106282497
 20
3372.349543488601
 30
0.0
 11
5701.343106282497
 21
4601.491438949204
 31
0.0
  0
LINE
  5
8290
330
8240
100
AcDbEntity
  8
3
 62
     0
370
    -2
100
AcDbLine
 10
4981.343106282496
 20
4571.491438949204
 30
0.0
 11
5641.343106282497
 21
4571.491438949204
 31
0.0
  0
INSERT
  5
8291
330
8240
100
AcDbEntity
  8
3
 62
     0
370
    -2
100
AcDbBlockReference
  2
_OPEN
 10
4921.343106282495
 20
4571.491438949204
 30
0.0
 41
60.0
 42
60.0
 43
60.0
 50
180.0
  0
INSERT
  5
8292
330
8240
100
AcDbEntity
  8
3
 62
     0
370
    -2
100
AcDbBlockReference
  2
_OPEN
 10
5701.343106282497
 20
4571.491438949204
 30
0.0
 41
60.0
 42
60.0
 43
60.0
  0
MTEXT
  5
8293
330
8240
100
AcDbEntity
  8
3
 62
     0
100
AcDbMText
 10
5311.343106282496
 20
4670.062867520632
 30
0.0
 40
90.0
 41
0.0
 71
     5
 72
     1
  1
\A1;(780)
 73
     1
 44
1.0
1001
ACAD
1000
MTEXTBEGIN
1070
    73
1070
     1
1070
    44
1040
1.0
1070
    74
1070
     0
1000
MTEXTEND
  0
POINT
  5
8294
330
8240
100
AcDbEntity
  8
DEFPOINTS
 62
     0
100
AcDbPoint
 10
4921.343106282495
 20
4486.026754975926
 30
0.0
  0
POINT
  5
8295
330
8240
100
AcDbEntity
  8
DEFPOINTS
 62
     0
100
AcDbPoint
 10
5701.343106282497
 20
3342.349543488602
 30
0.0
  0
POINT
  5
8296
330
8240
100
AcDbEntity
  8
DEFPOINTS
 62
     0
100
AcDbPoint
 10
5701.343106282497
 20
4571.491438949204
 30
0.0
  0
ENDBLK
  5
8242
330
8240
100
AcDbEntity
  8
0
100
AcDbBlockEnd
  0
BLOCK
  5
82A1
330
82A0
100
AcDbEntity
  8
0
100
AcDbBlockBegin
  2
*D31
 70
     1
 10
0.0
 20
0.0
 30
0.0
  3
*D31
  1

  0
LINE
  5
82A3
330
82A0
100
AcDbEntity
  8
3
 62
     0
370
    -2
100
AcDbLine
 10
670.1508127991001
 20
5096.795042865875
 30
0.0
 11
670.1508127991001
 21
4684.719919039298
 31
0.0
  0
LINE
  5
82A4
330
82A0
100
AcDbEntity
  8
3
 62
     0
370
    -2
100
AcDbLine
 10
2720.1508127991
 20
5096.795042865873
 30
0.0
 11
2720.1508127991
 21
4684.719919039298
 31
0.0
  0
LINE
  5
82A5
330
82A0
100
AcDbEntity
  8
3
 62
     0
370
    -2
100
AcDbLine
 10
675.5508127991
 20
4690.119919039298
 30
0.0
 11
1671.365098513386
 21
4690.119919039298
 31
0.0
  0
LINE
  5
82A6
330
82A0
100
AcDbEntity
  8
3
 62
     0
370
    -2
100
AcDbLine
 10
2714.7508127991
 20
4690.119919039298
 30
0.0
 11
1718.936527084814
 21
4690.119919039298
 31
0.0
  0
SOLID
  5
82A7
330
82A0
100
AcDbEntity
  8
3
 62
     0
100
AcDbTrace
 10
675.5508127991
 20
4691.019919039297
 30
0.0
 11
675.5508127991
 21
4689.219919039298
 31
0.0
 12
670.1508127991001
 22
4690.119919039298
 32
0.0
 13
670.1508127991001
 23
4690.119919039298
 33
0.0
  0
SOLID
  5
82A8
330
82A0
100
AcDbEntity
  8
3
 62
     0
100
AcDbTrace
 10
2714.7508127991
 20
4691.019919039297
 30
0.0
 11
2714.7508127991
 21
4689.219919039298
 31
0.0
 12
2720.1508127991
 22
4690.119919039298
 32
0.0
 13
2720.1508127991
 23
4690.119919039298
 33
0.0
  0
MTEXT
  5
82A9
330
82A0
100
AcDbEntity
  8
3
 62
     0
100
AcDbMText
 10
1695.1508127991
 20
4690.119919039298
 30
0.0
 40
5.399999999999999
 41
0.0
 71
     5
 72
     1
  1
\A1;2050.0000
 73
     1
 44
1.0
1001
ACAD
1000
MTEXTBEGIN
1070
    73
1070
     1
1070
    44
1040
1.0
1070
    74
1070
     0
1000
MTEXTEND
  0
POINT
  5
82AA
330
82A0
100
AcDbEntity
  8
DEFPOINTS
 62
     0
100
AcDbPoint
 10
670.1508127991001
 20
5098.670042865875
 30
0.0
  0
POINT
  5
82AB
330
82A0
100
AcDbEntity
  8
DEFPOINTS
 62
     0
100
AcDbPoint
 10
2720.1508127991
 20
5098.670042865873
 30
0.0
  0
POINT
  5
82AC
330
82A0
100
AcDbEntity
  8
DEFPOINTS
 62
     0
100
AcDbPoint
 10
2720.1508127991
 20
4690.119919039298
 30
0.0
  0
ENDBLK
  5
82A2
330
82A0
100
AcDbEntity
  8
0
100
AcDbBlockEnd
  0
BLOCK
  5
82AF
330
82AE
100
AcDbEntity
  8
0
100
AcDbBlockBegin
  2
*D32
 70
     1
 10
0.0
 20
0.0
 30
0.0
  3
*D32
  1

  0
LINE
  5
82B1
330
82AE
100
AcDbEntity
  8
3
 62
     0
370
    -2
100
AcDbLine
 10
670.1508127991001
 20
5068.670042865875
 30
0.0
 11
670.1508127991001
 21
4670.106643017006
 31
0.0
  0
LINE
  5
82B2
330
82AE
100
AcDbEntity
  8
3
 62
     0
370
    -2
100
AcDbLine
 10
2720.1508127991
 20
5068.670042865873
 30
0.0
 11
2720.1508127991
 21
4670.106643017006
 31
0.0
  0
LINE
  5
82B3
330
82AE
100
AcDbEntity
  8
3
 62
     0
370
    -2
100
AcDbLine
 10
730.1508127991001
 20
4700.106643017007
 30
0.0
 11
2660.1508127991
 21
4700.106643017007
 31
0.0
  0
INSERT
  5
82B4
330
82AE
100
AcDbEntity
  8
3
 62
     0
370
    -2
100
AcDbBlockReference
  2
_OPEN
 10
670.1508127991001
 20
4700.106643017007
 30
0.0
 41
60.0
 42
60.0
 43
60.0
 50
180.0
  0
INSERT
  5
82B5
330
82AE
100
AcDbEntity
  8
3
 62
     0
370
    -2
100
AcDbBlockReference
  2
_OPEN
 10
2720.1508127991
 20
4700.106643017007
 30
0.0
 41
60.0
 42
60.0
 43
60.0
  0
MTEXT
  5
82B6
330
82AE
100
AcDbEntity
  8
3
 62
     0
100
AcDbMText
 10
1695.1508127991
 20
4775.106643017006
 30
0.0
 40
90.0
 41
0.0
 71
     5
 72
     1
  1
\A1;2050
 73
     1
 44
1.0
1001
ACAD
1000
MTEXTBEGIN
1070
    73
1070
     1
1070
    44
1040
1.0
1070
    74
1070
     0
1000
MTEXTEND
  0
POINT
  5
82B7
330
82AE
100
AcDbEntity
  8
DEFPOINTS
 62
     0
100
AcDbPoint
 10
670.1508127991001
 20
5098.670042865875
 30
0.0
  0
POINT
  5
82B8
330
82AE
100
AcDbEntity
  8
DEFPOINTS
 62
     0
100
AcDbPoint
 10
2720.1508127991
 20
5098.670042865873
 30
0.0
  0
POINT
  5
82B9
330
82AE
100
AcDbEntity
  8
DEFPOINTS
 62
     0
100
AcDbPoint
 10
2720.1508127991
 20
4700.106643017007
 30
0.0
  0
ENDBLK
  5
82B0
330
82AE
100
AcDbEntity
  8
0
100
AcDbBlockEnd
  0
BLOCK
  5
82BC
330
82BB
100
AcDbEntity
  8
0
100
AcDbBlockBegin
  2
*D33
 70
     1
 10
0.0
 20
0.0
 30
0.0
  3
*D33
  1

  0
LINE
  5
82C7
330
82BB
100
AcDbEntity
  8
3
 62
     0
370
    -2
100
AcDbLine
 10
2864.766795296728
 20
3378.1495434886
 30
0.0
 11
3446.322280557938
 21
3378.149543488599
 31
0.0
  0
LINE
  5
82C8
330
82BB
100
AcDbEntity
  8
3
 62
     0
370
    -2
100
AcDbLine
 10
2750.150812799099
 20
2168.149543488601
 30
0.0
 11
3446.322280557938
 21
2168.149543488601
 31
0.0
  0
LINE
  5
82C9
330
82BB
100
AcDbEntity
  8
3
 62
     0
370
    -2
100
AcDbLine
 10
3416.322280557939
 20
3318.1495434886
 30
0.0
 11
3416.322280557938
 21
2228.149543488601
 31
0.0
  0
INSERT
  5
82CA
330
82BB
100
AcDbEntity
  8
3
 62
     0
370
    -2
100
AcDbBlockReference
  2
_OPEN
 10
3416.322280557939
 20
3378.149543488599
 30
0.0
 41
60.0
 42
60.0
 43
60.0
 50
90.0
  0
INSERT
  5
82CB
330
82BB
100
AcDbEntity
  8
3
 62
     0
370
    -2
100
AcDbBlockReference
  2
_OPEN
 10
3416.322280557938
 20
2168.149543488601
 30
0.0
 41
60.0
 42
60.0
 43
60.0
 50
270.0
  0
MTEXT
  5
82CC
330
82BB
100
AcDbEntity
  8
3
 62
     0
100
AcDbMText
 10
3341.322280557938
 20
2773.149543488601
 30
0.0
 40
90.0
 41
0.0
 71
     5
 72
     1
  1
\A1;1210
 11
0.0000000000000001
 21
1.0
 31
0.0
 73
     1
 44
1.0
1001
ACAD
1000
MTEXTBEGIN
1070
    73
1070
     1
1070
    44
1040
1.0
1070
    74
1070
     0
1000
MTEXTEND
  0
POINT
  5
82CD
330
82BB
100
AcDbEntity
  8
DEFPOINTS
 62
     0
100
AcDbPoint
 10
2834.766795296728
 20
3378.1495434886
 30
0.0
  0
POINT
  5
82CE
330
82BB
100
AcDbEntity
  8
DEFPOINTS
 62
     0
100
AcDbPoint
 10
2720.150812799099
 20
2168.149543488601
 30
0.0
  0
POINT
  5
82CF
330
82BB
100
AcDbEntity
  8
DEFPOINTS
 62
     0
100
AcDbPoint
 10
3416.322280557938
 20
2168.149543488601
 30
0.0
  0
ENDBLK
  5
82BD
330
82BB
100
AcDbEntity
  8
0
100
AcDbBlockEnd
  0
ENDSEC
  0
SECTION
  2
ENTITIES
  0
INSERT
  5
7C29
330
81DC
100
AcDbEntity
  8
0
100
AcDbBlockReference
  2
YA_N
 10
6.0
 20
5.0
 30
0.0
  0
ARC
  5
7C2B
330
81DC
100
AcDbEntity
  8
1
100
AcDbCircle
 10
2169.1508127991
 20
3304.149543488601
 30
0.0
 40
942.0
100
AcDbArc
 50
175.4944154733554
 51
265.4944154733555
  0
ARC
  5
7C2C
330
81DC
100
AcDbEntity
  8
1
100
AcDbCircle
 10
2021.1508127991
 20
3304.149543488601
 30
0.0
 40
794.0
100
AcDbArc
 50
84.65233025016116
 51
174.6523302501611
  0
ARC
  5
7C2D
330
81DC
100
AcDbEntity
  8
1
100
AcDbCircle
 10
2034.6508127991
 20
3438.649543488601
 30
0.0
 40
659.4999999999998
100
AcDbArc
 50
354.7365047969329
 51
84.73650479693297
  0
LINE
  5
7C2E
330
81DC
100
AcDbEntity
  8
1
100
AcDbLine
 10
2692.532600268385
 20
3334.149543488599
 30
0.0
 11
2775.1508127991
 21
3334.149543488599
 31
0.0
  0
LINE
  5
7C2F
330
81DC
100
AcDbEntity
  8
1
100
AcDbLine
 10
2775.150812799099
 20
2251.149543488599
 30
0.0
 11
2775.1508127991
 21
3387.1495434886
 31
0.0
  0
LINE
  5
7C30
330
81DC
100
AcDbEntity
  8
1
100
AcDbLine
 10
2775.150812799099
 20
2304.1495434886
 30
0.0
 11
2095.150812799098
 21
2365.060623311177
 31
0.0
  0
LINE
  5
7C31
330
81DC
100
AcDbEntity
  8
1
100
AcDbLine
 10
2771.150812799098
 20
2251.1495434886
 30
0.0
 11
2775.150812799099
 21
2251.149543488599
 31
0.0
  0
LINE
  5
7C32
330
81DC
100
AcDbEntity
  8
1
100
AcDbLine
 10
2771.150812799101
 20
3387.1495434886
 30
0.0
 11
2775.1508127991
 21
3387.1495434886
 31
0.0
  0
LINE
  5
7C33
330
81DC
100
AcDbEntity
  8
1
100
AcDbLine
 10
2725.150812799099
 20
2308.628299357907
 30
0.0
 11
2725.1508127991
 21
3334.149543488599
 31
0.0
  0
LINE
  5
7C34
330
81DC
100
AcDbEntity
  8
1
100
AcDbLine
 10
2771.150812799098
 20
2251.149543488599
 30
0.0
 11
2771.150812799101
 21
3387.1495434886
 31
0.0
  0
LINE
  5
7C35
330
81DC
100
AcDbEntity
  8
1
100
AcDbLine
 10
670.1508127990997
 20
2268.149543488599
 30
0.0
 11
2720.150812799099
 21
2268.149543488601
 31
0.0
  0
LINE
  5
7C36
330
81DC
100
AcDbEntity
  8
1
100
AcDbLine
 10
2720.150812799099
 20
2268.149543488601
 30
0.0
 11
2720.150812799099
 21
2168.149543488601
 31
0.0
  0
LINE
  5
7C37
330
81DC
100
AcDbEntity
  8
2
100
AcDbLine
 10
3836.343106282494
 20
3378.149543488601
 30
0.0
 11
5727.419737831798
 21
3378.149543488601
 31
0.0
  0
LINE
  5
7C38
330
81DC
100
AcDbEntity
  8
2
100
AcDbLine
 10
4921.343106282495
 20
4329.198414837271
 30
0.0
 11
4921.343106282495
 21
2168.1495434886
 31
0.0
  0
LINE
  5
7C39
330
81DC
100
AcDbEntity
  8
1
100
AcDbLine
 10
4094.343106282495
 20
2168.1495434886
 30
0.0
 11
5599.343106282496
 21
2168.1495434886
 31
0.0
1001
ACAD
1000
ASC_BOUNDS
1002
{
1070
    19
1005
0
1005
0
1002
}
  0
LINE
  5
7C3A
330
81DC
100
AcDbEntity
  8
1
100
AcDbLine
 10
4094.343106282495
 20
2268.1495434886
 30
0.0
 11
5599.343106282497
 21
2268.1495434886
 31
0.0
  0
LINE
  5
7C3B
330
81DC
100
AcDbEntity
  8
1
100
AcDbLine
 10
5546.343106282497
 20
4098.1495434886
 30
0.0
 11
5546.343106282499
 21
3378.149543488601
 31
0.0
  0
LINE
  5
7C3C
330
81DC
100
AcDbEntity
  8
2
100
AcDbLine
 10
2095.150812799098
 20
4141.194979180116
 30
0.0
 11
2095.150812799097
 21
2168.1495434886
 31
0.0
  0
LINE
  5
7C3D
330
81DC
100
AcDbEntity
  8
2
100
AcDbLine
 10
2834.766795296728
 20
3378.1495434886
 30
0.0
 11
1162.635896742891
 21
3378.149543488601
 31
0.0
  0
LINE
  5
7C3E
330
81DC
100
AcDbEntity
  8
1
100
AcDbLine
 10
670.1508127990997
 20
2168.149543488601
 30
0.0
 11
2720.150812799099
 21
2168.149543488601
 31
0.0
1001
ACAD
1000
ASC_BOUNDS
1002
{
1070
    19
1005
0
1002
}
  0
INSERT
  5
7C3F
330
81DC
100
AcDbEntity
  8
0
100
AcDbBlockReference
  2
YA_N
 10
-1637.209838160516
 20
-1405.432827243363
 30
0.0
 41
25.0
 42
25.0
 43
25.0
  0
ARC
  5
7C41
330
81DC
100
AcDbEntity
  8
1
100
AcDbCircle
 10
945.1508127990994
 20
2503.1495434886
 30
0.0
 40
185.0
100
AcDbArc
 50
287.9452509999999
 51
252.054749
  0
LINE
  5
7C42
330
81DC
100
AcDbEntity
  8
2
100
AcDbLine
 10
945.1508127990994
 20
2766.965217488601
 30
0.0
 11
945.1508127990994
 21
2168.149543488601
 31
0.0
  0
LINE
  5
7C43
330
81DC
100
AcDbEntity
  8
1
100
AcDbLine
 10
1002.1508277991
 20
2327.1495434886
 30
0.0
 11
888.1508127990993
 21
2327.1495434886
 31
0.0
  0
LINE
  5
7C44
330
81DC
100
AcDbEntity
  8
1
100
AcDbLine
 10
1107.1508277991
 20
2398.4085764886
 30
0.0
 11
1107.1508277991
 21
2323.1495434886
 31
0.0
  0
LINE
  5
7C48
330
81DC
100
AcDbEntity
  8
1
100
AcDbLine
 10
1047.6508277991
 20
2328.2981024886
 30
0.0
 11
1038.1441137991
 21
2343.2207104886
 31
0.0
  0
LINE
  5
7C49
330
81DC
100
AcDbEntity
  8
1
100
AcDbLine
 10
1047.6508277991
 20
2340.1495434886
 30
0.0
 11
1047.6508277991
 21
2323.1495434886
 31
0.0
  0
LINE
  5
7C4B
330
81DC
100
AcDbEntity
  8
1
100
AcDbLine
 10
1104.1508277991
 20
2343.1495434886
 30
0.0
 11
1050.6508277991
 21
2343.1495434886
 31
0.0
  0
ARC
  5
7C4D
330
81DC
100
AcDbEntity
  8
1
100
AcDbCircle
 10
1104.1508277991
 20
2340.1495434886
 30
0.0
 40
3.0
100
AcDbArc
 50
0.0
 51
90.0
  0
LINE
  5
7C4F
330
81DC
100
AcDbEntity
  8
1
100
AcDbLine
 10
1055.974741799099
 20
2343.1495434886
 30
0.0
 11
1050.7949927991
 21
2351.2801434886
 31
0.0
  0
ARC
  5
7C50
330
81DC
100
AcDbEntity
  8
1
100
AcDbCircle
 10
1050.6508277991
 20
2340.1495434886
 30
0.0
 40
3.0
100
AcDbArc
 50
90.0
 51
180.0
  0
LINE
  5
7C53
330
81DC
100
AcDbEntity
  8
1
100
AcDbLine
 10
1107.1508277991
 20
2398.4085764886
 30
0.0
 11
1100.766855799099
 21
2403.106330488601
 31
0.0
  0
LINE
  5
7C56
330
81DC
100
AcDbEntity
  8
1
100
AcDbLine
 10
783.1508127990994
 20
2398.4085764886
 30
0.0
 11
783.1508127990994
 21
2323.1495434886
 31
0.0
  0
LINE
  5
7C57
330
81DC
100
AcDbEntity
  8
1
100
AcDbLine
 10
786.1508127990994
 20
2343.1495434886
 30
0.0
 11
839.6508127990994
 21
2343.1495434886
 31
0.0
  0
LINE
  5
7C58
330
81DC
100
AcDbEntity
  8
1
100
AcDbLine
 10
842.6508127990993
 20
2328.2981024886
 30
0.0
 11
852.1575267990993
 21
2343.2207104886
 31
0.0
  0
LINE
  5
7C5B
330
81DC
100
AcDbEntity
  8
1
100
AcDbLine
 10
842.6508127990993
 20
2323.1495434886
 30
0.0
 11
842.6508127990993
 21
2340.1495434886
 31
0.0
  0
LINE
  5
7C5E
330
81DC
100
AcDbEntity
  8
1
100
AcDbLine
 10
834.3268987991001
 20
2343.1495434886
 30
0.0
 11
839.5066477990999
 21
2351.2801434886
 31
0.0
  0
ARC
  5
7C5F
330
81DC
100
AcDbEntity
  8
1
100
AcDbCircle
 10
839.6508127990994
 20
2340.1495434886
 30
0.0
 40
3.0
100
AcDbArc
 50
0.0
 51
90.0
  0
ARC
  5
7C62
330
81DC
100
AcDbEntity
  8
1
100
AcDbCircle
 10
786.1508127990994
 20
2340.1495434886
 30
0.0
 40
3.0
100
AcDbArc
 50
90.0
 51
180.0
  0
LINE
  5
7C63
330
81DC
100
AcDbEntity
  8
1
100
AcDbLine
 10
783.1508127990994
 20
2398.4085764886
 30
0.0
 11
789.5347847991001
 21
2403.106330488601
 31
0.0
  0
LINE
  5
7C64
330
81DC
100
AcDbEntity
  8
2
100
AcDbLine
 10
694.724398673556
 20
2503.1495434886
 30
0.0
 11
1161.230345445056
 21
2503.1495434886
 31
0.0
  0
LINE
  5
7C65
330
81DC
100
AcDbEntity
  8
1
100
AcDbLine
 10
734.7347997733343
 20
2323.149543488599
 30
0.0
 11
875.1508127990994
 21
2323.149543488599
 31
0.0
  0
LINE
  5
7C66
330
81DC
100
AcDbEntity
  8
1
100
AcDbLine
 10
1170.150812799099
 20
2268.149543488599
 30
0.0
 11
1155.366064012766
 21
2323.149543488599
 31
0.0
  0
LINE
  5
7C67
330
81DC
100
AcDbEntity
  8
1
100
AcDbLine
 10
720.1508127990994
 20
2268.149543488599
 30
0.0
 11
734.7347997733343
 21
2323.149543488599
 31
0.0
  0
LINE
  5
7C69
330
81DC
100
AcDbEntity
  8
1
100
AcDbLine
 10
875.1508127990994
 20
2313.1495434886
 30
0.0
 11
1015.150812799099
 21
2313.1495434886
 31
0.0
  0
LINE
  5
7C6A
330
81DC
100
AcDbEntity
  8
1
100
AcDbLine
 10
875.1508127990994
 20
2323.149543488599
 30
0.0
 11
875.1508127990994
 21
2313.1495434886
 31
0.0
  0
LINE
  5
7C6B
330
81DC
100
AcDbEntity
  8
1
100
AcDbLine
 10
1015.1508127991
 20
2323.149543488599
 30
0.0
 11
1015.1508127991
 21
2313.1495434886
 31
0.0
  0
LINE
  5
7C6C
330
81DC
100
AcDbEntity
  8
1
100
AcDbLine
 10
1015.150812799099
 20
2323.149543488599
 30
0.0
 11
1155.366064012766
 21
2323.149543488599
 31
0.0
  0
CIRCLE
  5
7C6F
330
81DC
100
AcDbEntity
  8
1
100
AcDbCircle
 10
2095.150812799098
 20
3378.1495434886
 30
0.0
 40
165.0999999999999
  0
CIRCLE
  5
7C70
330
81DC
100
AcDbEntity
  8
1
100
AcDbCircle
 10
945.1508127990994
 20
2503.1495434886
 30
0.0
 40
114.3
  0
INSERT
  5
7C79
330
81DC
100
AcDbEntity
  8
0
100
AcDbBlockReference
  2
YA_N
 10
-1144.893563079054
 20
-989.0222135336152
 30
0.0
 41
25.0
 42
25.0
 43
25.0
  0
DIMENSION
  5
7C7B
330
81DC
100
AcDbEntity
  8
3
100
AcDbDimension
  2
*D4
 10
2976.310909793243
 20
3334.149543488599
 30
0.0
 11
2916.310909793243
 21
2819.1495434886
 31
0.0
 12
607.5256978222605
 22
2750.089240652855
 32
0.0
 71
     5
 42
-1.0
  3
Standard
100
AcDbAlignedDimension
 13
2775.150812799099
 23
2304.1495434886
 33
0.0
 14
2775.1508127991
 24
3334.149543488599
 34
0.0
 50
269.9999999999999
100
AcDbRotatedDimension
1001
ACAD
1000
DSTYLE
1002
{
1070
    40
1040
30.0
1002
}
  0
DIMENSION
  5
7C7C
330
81DC
100
AcDbEntity
  8
3
100
AcDbDimension
  2
*D5
 10
3177.112955252396
 20
3378.1495434886
 30
0.0
 11
3117.112955252396
 21
2841.149543488599
 31
0.0
 12
607.5256978222605
 22
2750.089240652855
 32
0.0
 71
     5
 42
-1.0
  3
Standard
100
AcDbAlignedDimension
 13
2775.150812799099
 23
2304.1495434886
 33
0.0
 14
2834.766795296728
 24
3378.1495434886
 34
0.0
 50
269.9999999999999
100
AcDbRotatedDimension
1001
ACAD
1000
DSTYLE
1002
{
1070
    40
1040
30.0
1002
}
  0
DIMENSION
  5
7C7F
330
81DC
100
AcDbEntity
  8
3
100
AcDbDimension
  2
*D6
 10
2095.150812799098
 20
4304.053760182649
 30
0.0
 11
2435.150812799099
 21
4364.053760182651
 31
0.0
 12
607.5256978222605
 22
2750.089240652855
 32
0.0
 71
     5
 42
-1.0
  3
Standard
100
AcDbAlignedDimension
 13
2775.1508127991
 23
3354.029097341083
 33
0.0
 14
2095.150812799098
 24
4141.194979180116
 34
0.0
100
AcDbRotatedDimension
1001
ACAD
1000
DSTYLE
1002
{
1070
    40
1040
30.0
1002
}
  0
DIMENSION
  5
7C80
330
81DC
100
AcDbEntity
  8
3
100
AcDbDimension
  2
*D7
 10
1230.606696383071
 20
4303.596060247735
 30
0.0
 11
1662.878754591084
 21
4363.596060247735
 31
0.0
 12
607.5256978222605
 22
2750.089240652855
 32
0.0
  1
868
 71
     5
 42
-1.0
  3
Standard
100
AcDbAlignedDimension
 13
2095.150812799098
 23
4141.194979180116
 33
0.0
 14
1230.606696383071
 24
3378.149543488599
 34
0.0
100
AcDbRotatedDimension
1001
ACAD
1000
DSTYLE
1002
{
1070
    40
1040
30.0
1002
}
  0
LINE
  5
7C81
330
81DC
100
AcDbEntity
  8
1
100
AcDbLine
 10
5546.343106282497
 20
3378.149543488601
 30
0.0
 11
5546.343106282496
 21
2304.149543488601
 31
0.0
  0
LINE
  5
7C82
330
81DC
100
AcDbEntity
  8
1
100
AcDbLine
 10
4296.343106282495
 20
4098.149543488601
 30
0.0
 11
4296.343106282495
 21
3378.149543488601
 31
0.0
  0
LINE
  5
7C83
330
81DC
100
AcDbEntity
  8
1
100
AcDbLine
 10
4296.343106282495
 20
3378.149543488601
 30
0.0
 11
4296.343106282495
 21
2304.149543488601
 31
0.0
  0
LINE
  5
7C84
330
81DC
100
AcDbEntity
  8
1
100
AcDbLine
 10
5701.343106282497
 20
3342.349543488602
 30
0.0
 11
5701.343106282497
 21
3212.349543488601
 31
0.0
  0
LINE
  5
7C85
330
81DC
100
AcDbEntity
  8
1
100
AcDbLine
 10
5564.343106282497
 20
3352.349543488602
 30
0.0
 11
5564.343106282496
 21
3202.349543488602
 31
0.0
  0
LINE
  5
7C86
330
81DC
100
AcDbEntity
  8
1
100
AcDbLine
 10
5564.343106282496
 20
3352.349543488602
 30
0.0
 11
5613.643106282498
 21
3352.349543488602
 31
0.0
  0
LINE
  5
7C87
330
81DC
100
AcDbEntity
  8
1
100
AcDbLine
 10
5564.343106282496
 20
3202.349543488602
 30
0.0
 11
5613.643106282498
 21
3202.349543488602
 31
0.0
  0
ARC
  5
7C88
330
81DC
100
AcDbEntity
  8
1
100
AcDbCircle
 10
5691.343106282499
 20
3342.349543488602
 30
0.0
 40
10.0
100
AcDbArc
 50
0.0000000000006514
 51
90.0
  0
ARC
  5
7C89
330
81DC
100
AcDbEntity
  8
1
100
AcDbCircle
 10
5691.343106282498
 20
3212.349543488601
 30
0.0
 40
10.0
100
AcDbArc
 50
270.0
 51
0.0000000000006514
  0
LINE
  5
7C8A
330
81DC
100
AcDbEntity
  8
1
100
AcDbLine
 10
5613.643106282497
 20
3352.349543488602
 30
0.0
 11
5691.343106282495
 21
3352.349543488602
 31
0.0
  0
LINE
  5
7C8B
330
81DC
100
AcDbEntity
  8
1
100
AcDbLine
 10
5613.643106282498
 20
3202.349543488602
 30
0.0
 11
5691.343106282498
 21
3202.349543488602
 31
0.0
  0
LINE
  5
7C8C
330
81DC
100
AcDbEntity
  8
1
100
AcDbLine
 10
3998.343106282497
 20
3543.249543488601
 30
0.0
 11
4108.343106282496
 21
3543.249543488601
 31
0.0
  0
LINE
  5
7C8D
330
81DC
100
AcDbEntity
  8
1
100
AcDbLine
 10
3998.343106282497
 20
3213.049543488601
 30
0.0
 11
4108.343106282496
 21
3213.049543488601
 31
0.0
  0
LINE
  5
7C8E
330
81DC
100
AcDbEntity
  8
1
100
AcDbLine
 10
3998.343106282497
 20
2617.4495434886
 30
0.0
 11
4108.343106282496
 21
2617.4495434886
 31
0.0
  0
LINE
  5
7C8F
330
81DC
100
AcDbEntity
  8
1
100
AcDbLine
 10
3998.343106282497
 20
2388.8495434886
 30
0.0
 11
4108.343106282496
 21
2388.8495434886
 31
0.0
  0
LINE
  5
7C90
330
81DC
100
AcDbEntity
  8
1
100
AcDbLine
 10
3998.343106282497
 20
3543.249543488601
 30
0.0
 11
3998.343106282497
 21
2388.8495434886
 31
0.0
  0
LINE
  5
7C91
330
81DC
100
AcDbEntity
  8
1
100
AcDbLine
 10
4108.343106282496
 20
3543.249543488601
 30
0.0
 11
4108.343106282495
 21
2388.8495434886
 31
0.0
  0
LINE
  5
7C92
330
81DC
100
AcDbEntity
  8
1
100
AcDbLine
 10
3861.343106282491
 20
3658.149543488601
 30
0.0
 11
3861.343106282506
 21
2283.1495434886
 31
0.0
  0
LINE
  5
7C93
330
81DC
100
AcDbEntity
  8
1
100
AcDbLine
 10
3861.343106282491
 20
3658.149543488601
 30
0.0
 11
4153.843106282491
 21
3658.149543488601
 31
0.0
  0
LINE
  5
7C94
330
81DC
100
AcDbEntity
  8
1
100
AcDbLine
 10
3861.3431062825
 20
2283.1495434886
 30
0.0
 11
4153.8431062825
 21
2283.1495434886
 31
0.0
  0
LINE
  5
7C95
330
81DC
100
AcDbEntity
  8
1
100
AcDbLine
 10
4153.843106282491
 20
3658.149543488602
 30
0.0
 11
4153.843106282491
 21
3638.149543488601
 31
0.0
  0
LINE
  5
7C96
330
81DC
100
AcDbEntity
  8
1
100
AcDbLine
 10
4153.8431062825
 20
2303.1495434886
 30
0.0
 11
4153.8431062825
 21
2283.149543488601
 31
0.0
  0
POINT
  5
7C97
330
81DC
100
AcDbEntity
  8
1
100
AcDbPoint
 10
5701.3431062825
 20
3342.349543488602
 30
0.0
  0
LINE
  5
7C98
330
81DC
100
AcDbEntity
  8
2
100
AcDbLine
 10
2095.1508127991
 20
6519.585604715054
 30
0.0
 11
2095.1508127991
 21
4831.5977971445
 31
0.0
  0
LINE
  5
7C99
330
81DC
100
AcDbEntity
  8
2
100
AcDbLine
 10
1609.49624714682
 20
5925.670042865874
 30
0.0
 11
2574.076003181686
 21
5925.670042865873
 31
0.0
  0
INSERT
  5
7C9A
330
81DC
100
AcDbEntity
  8
0
100
AcDbBlockReference
  2
YA_N
 10
3439.312525519781
 20
-2261.498311600258
 30
0.0
  0
LINE
  5
7C9D
330
81DC
100
AcDbEntity
  8
1
100
AcDbLine
 10
5599.343106282497
 20
2268.1495434886
 30
0.0
 11
5599.343106282496
 21
2168.1495434886
 31
0.0
  0
LINE
  5
7C9E
330
81DC
100
AcDbEntity
  8
1
100
AcDbLine
 10
4094.343106282495
 20
2268.1495434886
 30
0.0
 11
4094.343106282495
 21
2168.1495434886
 31
0.0
  0
LINE
  5
7C9F
330
81DC
100
AcDbEntity
  8
1
100
AcDbLine
 10
4229.043106282497
 20
3345.949543488602
 30
0.0
 11
4163.343106282496
 21
3345.949543488602
 31
0.0
  0
LINE
  5
7CA0
330
81DC
100
AcDbEntity
  8
1
100
AcDbLine
 10
4229.043106282495
 20
3195.949543488601
 30
0.0
 11
4163.343106282495
 21
3195.949543488601
 31
0.0
  0
LINE
  5
7CA1
330
81DC
100
AcDbEntity
  8
1
100
AcDbLine
 10
4278.343106282496
 20
3345.949543488602
 30
0.0
 11
4278.343106282497
 21
3195.949543488601
 31
0.0
  0
LINE
  5
7CA2
330
81DC
100
AcDbEntity
  8
1
100
AcDbLine
 10
4278.343106282497
 20
3195.949543488601
 30
0.0
 11
4229.043106282495
 21
3195.949543488601
 31
0.0
  0
LINE
  5
7CA3
330
81DC
100
AcDbEntity
  8
1
100
AcDbLine
 10
4278.343106282497
 20
3345.9495434886
 30
0.0
 11
4229.043106282495
 21
3345.949543488602
 31
0.0
  0
LINE
  5
7CA4
330
81DC
100
AcDbEntity
  8
1
100
AcDbLine
 10
4153.343106282497
 20
3335.949543488601
 30
0.0
 11
4153.343106282497
 21
3205.949543488601
 31
0.0
  0
ARC
  5
7CA5
330
81DC
100
AcDbEntity
  8
1
100
AcDbCircle
 10
4163.343106282495
 20
3205.949543488601
 30
0.0
 40
10.0
100
AcDbArc
 50
179.9999999999992
 51
270.0
  0
ARC
  5
7CA6
330
81DC
100
AcDbEntity
  8
1
100
AcDbCircle
 10
4163.343106282493
 20
3335.949543488601
 30
0.0
 40
10.0
100
AcDbArc
 50
90.0
 51
179.9999999999992
  0
POINT
  5
7CA7
330
81DC
100
AcDbEntity
  8
1
100
AcDbPoint
 10
4153.343106282493
 20
3335.949543488601
 30
0.0
  0
LINE
  5
7CA8
330
81DC
100
AcDbEntity
  8
1
100
AcDbLine
 10
4118.343106282496
 20
3410.649543488601
 30
0.0
 11
4296.343106282495
 21
3410.649543488601
 31
0.0
  0
LINE
  5
7CA9
330
81DC
100
AcDbEntity
  8
1
100
AcDbLine
 10
4118.343106282496
 20
3345.649543488601
 30
0.0
 11
4160.912057126266
 21
3345.649543488601
 31
0.0
  0
LINE
  5
7CAA
330
81DC
100
AcDbEntity
  8
1
100
AcDbLine
 10
4118.343106282496
 20
3410.649543488601
 30
0.0
 11
4118.343106282496
 21
3345.649543488601
 31
0.0
  0
LINE
  5
7CAB
330
81DC
100
AcDbEntity
  8
1
100
AcDbLine
 10
4108.343106282496
 20
3408.149543488601
 30
0.0
 11
4118.343106282496
 21
3408.149543488601
 31
0.0
  0
LINE
  5
7CAC
330
81DC
100
AcDbEntity
  8
1
100
AcDbLine
 10
4108.343106282496
 20
3348.149543488601
 30
0.0
 11
4118.343106282496
 21
3348.149543488601
 31
0.0
  0
LINE
  5
7CB0
330
81DC
100
AcDbEntity
  8
1
100
AcDbLine
 10
670.1508127990997
 20
2268.149543488601
 30
0.0
 11
670.1508127990997
 21
2168.149543488601
 31
0.0
  0
POINT
  5
7CB3
330
81DC
100
AcDbEntity
  8
1
100
AcDbPoint
 10
2720.150812799099
 20
2168.149543488601
 30
0.0
  0
LINE
  5
7CB8
330
81DC
100
AcDbEntity
  8
1
100
AcDbLine
 10
670.1508127991001
 20
5098.670042865875
 30
0.0
 11
2720.1508127991
 21
5098.670042865873
 31
0.0
  0
LINE
  5
7CB9
330
81DC
100
AcDbEntity
  8
1
100
AcDbLine
 10
1470.1508127991
 20
6603.670042865875
 30
0.0
 11
2720.1508127991
 21
6603.670042865873
 31
0.0
  0
LINE
  5
7CBA
330
81DC
100
AcDbEntity
  8
1
100
AcDbLine
 10
2720.1508127991
 20
6603.670042865873
 30
0.0
 11
2720.1508127991
 21
5098.670042865873
 31
0.0
  0
LINE
  5
7CBB
330
81DC
100
AcDbEntity
  8
1
100
AcDbLine
 10
670.1508127991001
 20
5948.670042865877
 30
0.0
 11
670.1508127991001
 21
5098.670042865875
 31
0.0
  0
LINE
  5
7CBC
330
81DC
100
AcDbEntity
  8
1
100
AcDbLine
 10
1470.1508127991
 20
6603.670042865875
 30
0.0
 11
1470.1508127991
 21
6550.670042865874
 31
0.0
  0
LINE
  5
7CBD
330
81DC
100
AcDbEntity
  8
1
100
AcDbLine
 10
670.1508127991001
 20
5948.670042865875
 30
0.0
 11
1227.1508127991
 21
5948.670042865875
 31
0.0
  0
LINE
  5
7CBE
330
81DC
100
AcDbEntity
  8
2
100
AcDbLine
 10
945.1508127990994
 20
5842.705406554247
 30
0.0
 11
945.1508127990994
 21
4833.972161775567
 31
0.0
  0
DIMENSION
  5
7CBF
330
81DC
100
AcDbEntity
  8
3
100
AcDbDimension
  2
*D8
 10
2720.1508127991
 20
6824.973980093592
 30
0.0
 11
2095.1508127991
 21
6824.973980093592
 31
0.0
 12
607.5256978222605
 22
2227.638443504635
 32
0.0
 70
   128
 71
     5
 42
-1.0
  3
Standard
100
AcDbAlignedDimension
 13
1470.1508127991
 23
6603.670042865875
 33
0.0
 14
2720.1508127991
 24
6603.670042865873
 34
0.0
100
AcDbRotatedDimension
1001
ACAD
1000
DSTYLE
1002
{
1070
    40
1040
30.0
1002
}
  0
DIMENSION
  5
7CC1
330
81DC
100
AcDbEntity
  8
3
100
AcDbDimension
  2
*D10
 10
511.4679841412835
 20
5098.670042865875
 30
0.0
 11
511.4679841412835
 21
5523.670042865875
 31
0.0
 70
   128
 71
     5
 42
-1.0
  3
Standard
100
AcDbAlignedDimension
 13
670.1508127991001
 23
5948.670042865877
 33
0.0
 14
670.1508127991001
 24
5098.670042865875
 34
0.0
 50
90.0
100
AcDbRotatedDimension
1001
ACAD
1000
DSTYLE
1002
{
1070
    40
1040
30.0
1002
}
  0
DIMENSION
  5
7CC2
330
81DC
100
AcDbEntity
  8
3
100
AcDbDimension
  2
*D11
 10
3118.794950808035
 20
5098.670042865873
 30
0.0
 11
3058.794950808035
 21
5851.170042865874
 31
0.0
 12
607.5256978222605
 22
2227.638443504635
 32
0.0
 71
     5
 42
-1.0
  3
Standard
100
AcDbAlignedDimension
 13
2720.1508127991
 23
6603.670042865873
 33
0.0
 14
2720.1508127991
 24
5098.670042865873
 34
0.0
 50
90.0
100
AcDbRotatedDimension
1001
ACAD
1000
DSTYLE
1002
{
1070
    40
1040
30.0
1002
}
  0
DIMENSION
  5
7CC6
330
81DC
100
AcDbEntity
  8
3
100
AcDbDimension
  2
*D15
 10
5546.343106282497
 20
4352.144294910529
 30
0.0
 11
4921.343106282495
 21
4412.144294910529
 31
0.0
 12
37.23848520900356
 22
2750.089240652855
 32
0.0
 71
     5
 42
-1.0
  3
Standard
100
AcDbAlignedDimension
 13
4296.343106282495
 23
4072.463861142235
 33
0.0
 14
5546.343106282497
 24
4069.185308946779
 34
0.0
100
AcDbRotatedDimension
1001
ACAD
1000
DSTYLE
1002
{
1070
    40
1040
30.0
1002
}
  0
DIMENSION
  5
7CC7
330
81DC
100
AcDbEntity
  8
3
100
AcDbDimension
  2
*D16
 10
5890.711326653807
 20
3908.149543488601
 30
0.0
 11
5830.711326653807
 21
3378.149543488601
 31
0.0
 12
37.23848520900356
 22
2750.089240652855
 32
0.0
  1
\U+03C6<>
 71
     5
 42
-1.0
  3
Standard
100
AcDbAlignedDimension
 13
5551.843106282497
 23
2848.149543488601
 33
0.0
 14
5551.843106282497
 24
3908.149543488601
 34
0.0
 50
90.0
100
AcDbRotatedDimension
1001
ACAD
1000
DSTYLE
1002
{
1070
    40
1040
30.0
1002
}
  0
LINE
  5
7CC8
330
81DC
100
AcDbEntity
  8
2
100
AcDbLine
 10
3831.819195112722
 20
2503.1495434886
 30
0.0
 11
4436.713584253999
 21
2503.1495434886
 31
0.0
  0
ARC
  5
7CC9
330
81DC
100
AcDbEntity
  8
1
100
AcDbCircle
 10
2095.150812799098
 20
3378.1495434886
 30
0.0
 40
280.0
100
AcDbArc
 50
287.0299834154885
 51
112.6559573314276
  0
ARC
  5
7CCA
330
81DC
100
AcDbEntity
  8
1
100
AcDbCircle
 10
945.1508127990994
 20
2503.1495434886
 30
0.0
 40
220.0
100
AcDbArc
 50
112.6559573314276
 51
287.0299834154885
  0
LINE
  5
7CCB
330
81DC
100
AcDbEntity
  8
1
100
AcDbLine
 10
1987.29571356841
 20
3636.543191959182
 30
0.0
 11
860.4075205464162
 21
2706.173124429771
 31
0.0
  0
LINE
  5
7CCC
330
81DC
100
AcDbEntity
  8
1
100
AcDbLine
 10
2177.155002999696
 20
3110.427088715856
 30
0.0
 11
1009.582676528141
 21
2292.796186167157
 31
0.0
  0
LINE
  5
7CCD
330
81DC
100
AcDbEntity
  8
1
100
AcDbLine
 10
2032.704309542995
 20
3530.984239258525
 30
0.0
 11
901.9186182371822
 21
2608.958179021625
 31
0.0
  0
LINE
  5
7CCE
330
81DC
100
AcDbEntity
  8
1
100
AcDbLine
 10
2144.691742120197
 20
3220.65761886387
 30
0.0
 11
979.4483792521678
 21
2394.116672594555
 31
0.0
  0
INSERT
  5
7CCF
330
81DC
100
AcDbEntity
  8
0
100
AcDbBlockReference
  2
YA_N
 10
742.6405419924267
 20
-7350.772430041375
 30
0.0
  0
INSERT
  5
7CD1
330
81DC
100
AcDbEntity
  8
0
100
AcDbBlockReference
  2
YA_N
 10
2.995684825677016
 20
-7626.802696743742
 30
0.0
 41
20.0
 42
20.0
 43
20.0
  0
INSERT
  5
7CD3
330
81DC
100
AcDbEntity
  8
0
100
AcDbBlockReference
  2
YA_N
 10
699.9059132844049
 20
-7054.118742438055
 30
0.0
 41
20.0
 42
20.0
 43
20.0
  0
INSERT
  5
7CD5
330
81DC
100
AcDbEntity
  8
0
100
AcDbBlockReference
  2
YA_N
 10
814.1254386385663
 20
-7130.460452277301
 30
0.0
 41
20.0
 42
20.0
 43
20.0
  0
ARC
  5
7CD7
330
81DC
100
AcDbEntity
  8
1
100
AcDbCircle
 10
2095.150812799098
 20
3378.1495434886
 30
0.0
 40
599.0
100
AcDbArc
 50
355.7875009220854
 51
0.0
  0
CIRCLE
  5
7CD8
330
81DC
100
AcDbEntity
  8
1
100
AcDbCircle
 10
2095.150812799098
 20
3378.1495434886
 30
0.0
 40
530.0
  0
CIRCLE
  5
7CD9
330
81DC
100
AcDbEntity
  8
1
100
AcDbCircle
 10
2095.150812799098
 20
3378.1495434886
 30
0.0
 40
580.0
  0
LINE
  5
7CDC
330
81DC
100
AcDbEntity
  8
1
100
AcDbLine
 10
725.1508127990993
 20
4865.670042865875
 30
0.0
 11
2375.150812799098
 21
4865.670042865873
 31
0.0
  0
LINE
  5
7CDD
330
81DC
100
AcDbEntity
  8
1
100
AcDbLine
 10
725.1508127990993
 20
5185.670042865876
 30
0.0
 11
2375.150812799098
 21
5185.670042865873
 31
0.0
  0
LINE
  5
7CDE
330
81DC
100
AcDbEntity
  8
1
100
AcDbLine
 10
2375.150812799098
 20
4865.670042865873
 30
0.0
 11
2375.150812799098
 21
5185.670042865873
 31
0.0
  0
LINE
  5
7CDF
330
81DC
100
AcDbEntity
  8
1
100
AcDbLine
 10
725.1508127990993
 20
4865.670042865875
 30
0.0
 11
725.1508127990993
 21
5185.670042865876
 31
0.0
  0
LINE
  5
7CE0
330
81DC
100
AcDbEntity
  8
1
100
AcDbLine
 10
830.850812799099
 20
5030.670042865875
 30
0.0
 11
830.850812799099
 21
5140.670042865875
 31
0.0
  0
LINE
  5
7CE1
330
81DC
100
AcDbEntity
  8
1
100
AcDbLine
 10
1059.450812799099
 20
5030.670042865875
 30
0.0
 11
1059.450812799099
 21
5140.670042865874
 31
0.0
  0
LINE
  5
7CE2
330
81DC
100
AcDbEntity
  8
1
100
AcDbLine
 10
2260.250812799099
 20
5030.670042865875
 30
0.0
 11
2260.250812799099
 21
5140.670042865873
 31
0.0
  0
LINE
  5
7CE3
330
81DC
100
AcDbEntity
  8
1
100
AcDbLine
 10
1930.050812799098
 20
5030.670042865875
 30
0.0
 11
1930.050812799098
 21
5140.670042865873
 31
0.0
  0
LINE
  5
7CE4
330
81DC
100
AcDbEntity
  8
1
100
AcDbLine
 10
830.850812799099
 20
5140.670042865875
 30
0.0
 11
1059.450812799099
 21
5140.670042865875
 31
0.0
  0
LINE
  5
7CE5
330
81DC
100
AcDbEntity
  8
1
100
AcDbLine
 10
830.850812799099
 20
5030.670042865875
 30
0.0
 11
1059.450812799099
 21
5030.670042865875
 31
0.0
  0
LINE
  5
7CE6
330
81DC
100
AcDbEntity
  8
1
100
AcDbLine
 10
1930.050812799098
 20
5030.670042865875
 30
0.0
 11
2260.250812799099
 21
5030.670042865875
 31
0.0
  0
LINE
  5
7CE7
330
81DC
100
AcDbEntity
  8
1
100
AcDbLine
 10
1930.050812799098
 20
5140.670042865873
 30
0.0
 11
2260.250812799099
 21
5140.670042865873
 31
0.0
  0
LINE
  5
7CE8
330
81DC
100
AcDbEntity
  8
1
100
AcDbLine
 10
1127.650812799099
 20
5707.170042865875
 30
0.0
 11
1127.650812799099
 21
5145.670042865875
 31
0.0
  0
LINE
  5
7CE9
330
81DC
100
AcDbEntity
  8
1
100
AcDbLine
 10
762.6508127990993
 20
5707.170042865875
 30
0.0
 11
762.6508127990993
 21
5145.670042865875
 31
0.0
  0
LINE
  5
7CEA
330
81DC
100
AcDbEntity
  8
1
100
AcDbLine
 10
762.6508127990993
 20
5707.170042865875
 30
0.0
 11
1127.650812799099
 21
5707.170042865875
 31
0.0
  0
LINE
  5
7CEB
330
81DC
100
AcDbEntity
  8
1
100
AcDbLine
 10
762.6508127990993
 20
5145.670042865875
 30
0.0
 11
1127.650812799099
 21
5145.670042865875
 31
0.0
  0
LINE
  5
7CEC
330
81DC
100
AcDbEntity
  8
1
100
AcDbLine
 10
969.1508127990994
 20
5145.670042865875
 30
0.0
 11
969.1508127990994
 21
5140.670042865875
 31
0.0
  0
LINE
  5
7CED
330
81DC
100
AcDbEntity
  8
1
100
AcDbLine
 10
921.1508127990994
 20
5145.670042865875
 30
0.0
 11
921.1508127990994
 21
5140.670042865875
 31
0.0
  0
LINE
  5
7CEE
330
81DC
100
AcDbEntity
  8
1
100
AcDbLine
 10
4296.343106282495
 20
2685.649543488601
 30
0.0
 11
4113.343106282497
 21
2685.649543488601
 31
0.0
  0
LINE
  5
7CEF
330
81DC
100
AcDbEntity
  8
1
100
AcDbLine
 10
4296.343106282495
 20
2320.649543488601
 30
0.0
 11
4113.343106282497
 21
2320.649543488601
 31
0.0
  0
LINE
  5
7CF0
330
81DC
100
AcDbEntity
  8
1
100
AcDbLine
 10
4113.343106282496
 20
2685.649543488601
 30
0.0
 11
4113.343106282496
 21
2320.649543488601
 31
0.0
  0
LINE
  5
7CF1
330
81DC
100
AcDbEntity
  8
1
100
AcDbLine
 10
4113.343106282497
 20
2527.149543488601
 30
0.0
 11
4108.343106282496
 21
2527.149543488601
 31
0.0
  0
LINE
  5
7CF2
330
81DC
100
AcDbEntity
  8
1
100
AcDbLine
 10
4113.343106282497
 20
2479.149543488601
 30
0.0
 11
4108.343106282496
 21
2479.149543488601
 31
0.0
  0
DIMENSION
  5
7CF3
330
81DC
100
AcDbEntity
  8
3
100
AcDbDimension
  2
*D17
 10
670.1508127990997
 20
4483.440263558555
 30
0.0
 11
1722.650812799099
 21
4543.440263558554
 31
0.0
 12
607.5256978222605
 22
2750.089240652855
 32
0.0
 71
     5
 42
-1.0
  3
Standard
100
AcDbAlignedDimension
 13
2775.1508127991
 23
3354.029097341083
 33
0.0
 14
670.1508127990997
 24
2268.149543488599
 34
0.0
100
AcDbRotatedDimension
1001
ACAD
1000
DSTYLE
1002
{
1070
    40
1040
30.0
1002
}
  0
LINE
  5
7CF4
330
81DC
100
AcDbEntity
  8
1
100
AcDbLine
 10
2775.1508127991
 20
6600.670042865871
 30
0.0
 11
2775.1508127991
 21
5250.670042865873
 31
0.0
  0
LINE
  5
7CF5
330
81DC
100
AcDbEntity
  8
1
100
AcDbLine
 10
1227.1508127991
 20
6550.670042865874
 30
0.0
 11
1227.1508127991
 21
5300.670042865873
 31
0.0
  0
LINE
  5
7CF6
330
81DC
100
AcDbEntity
  8
1
100
AcDbLine
 10
1227.1508127991
 20
5300.670042865873
 30
0.0
 11
2775.1508127991
 21
5300.670042865873
 31
0.0
  0
LINE
  5
7CF7
330
81DC
100
AcDbEntity
  8
1
100
AcDbLine
 10
1227.1508127991
 20
6550.670042865874
 30
0.0
 11
2775.1508127991
 21
6550.670042865871
 31
0.0
  0
LINE
  5
7CF8
330
81DC
100
AcDbEntity
  8
1
100
AcDbLine
 10
2771.1508127991
 20
6600.670042865873
 30
0.0
 11
2775.1508127991
 21
6600.670042865871
 31
0.0
  0
LINE
  5
7CF9
330
81DC
100
AcDbEntity
  8
1
100
AcDbLine
 10
2771.1508127991
 20
5250.670042865873
 30
0.0
 11
2775.1508127991
 21
5250.670042865873
 31
0.0
  0
LINE
  5
7CFA
330
81DC
100
AcDbEntity
  8
1
100
AcDbLine
 10
2771.1508127991
 20
6600.670042865871
 30
0.0
 11
2771.1508127991
 21
5250.670042865873
 31
0.0
  0
LINE
  5
7CFB
330
81DC
100
AcDbEntity
  8
1
100
AcDbLine
 10
2127.6508127991
 20
5300.670042865874
 30
0.0
 11
2127.6508127991
 21
5140.670042865874
 31
0.0
  0
LINE
  5
7CFC
330
81DC
100
AcDbEntity
  8
1
100
AcDbLine
 10
2062.6508127991
 20
5300.670042865874
 30
0.0
 11
2062.6508127991
 21
5140.670042865874
 31
0.0
  0
LINE
  5
7CFD
330
81DC
100
AcDbEntity
  8
1
100
AcDbLine
 10
4278.343106282496
 20
3345.649543488601
 30
0.0
 11
4296.343106282495
 21
3345.649543488601
 31
0.0
  0
DIMENSION
  5
7CFE
330
81DC
100
AcDbEntity
  8
3
100
AcDbDimension
  2
*D18
 10
670.1508127991001
 20
6824.973980093592
 30
0.0
 11
1070.1508127991
 21
6884.973980093594
 31
0.0
 12
607.5256978222605
 22
2227.638443504635
 32
0.0
 71
     5
 42
-1.0
  3
Standard
100
AcDbAlignedDimension
 13
1470.1508127991
 23
6603.670042865875
 33
0.0
 14
670.1508127991001
 24
5948.670042865875
 34
0.0
100
AcDbRotatedDimension
1001
ACAD
1000
DSTYLE
1002
{
1070
    40
1040
30.0
1002
}
  0
LINE
  5
7D05
330
81DC
100
AcDbEntity
  8
1
100
AcDbLine
 10
4296.343106282495
 20
4098.149543488601
 30
0.0
 11
5546.343106282497
 21
4098.149543488601
 31
0.0
  0
LINE
  5
7D06
330
81DC
100
AcDbEntity
  8
1
100
AcDbLine
 10
4296.343106282495
 20
2304.149543488601
 30
0.0
 11
5546.343106282497
 21
2304.149543488601
 31
0.0
  0
LINE
  5
7D07
330
81DC
100
AcDbEntity
  8
1
100
AcDbLine
 10
4296.343106282495
 20
3334.149543488602
 30
0.0
 11
5546.343106282497
 21
3334.149543488602
 31
0.0
  0
LINE
  5
7D08
330
81DC
100
AcDbEntity
  8
1
100
AcDbLine
 10
5546.343106282497
 20
3334.149543488602
 30
0.0
 11
4296.343106282495
 21
2304.149543488601
 31
0.0
  0
LINE
  5
7D09
330
81DC
100
AcDbEntity
  8
1
100
AcDbLine
 10
4296.343106282495
 20
3334.149543488602
 30
0.0
 11
5546.343106282496
 21
2304.149543488601
 31
0.0
  0
DIMENSION
  5
7D0A
330
81DC
100
AcDbEntity
  8
3
100
AcDbDimension
  2
*D19
 10
3416.322280557938
 20
3378.1495434886
 30
0.0
 11
3356.32228055794
 21
3738.1495434886
 31
0.0
 12
607.5256978222605
 22
2750.089240652855
 32
0.0
 71
     5
 42
-1.0
  3
Standard
100
AcDbAlignedDimension
 13
2021.1508127991
 23
4098.149543488601
 33
0.0
 14
2834.766795296728
 24
3378.1495434886
 34
0.0
 50
90.0
100
AcDbRotatedDimension
1001
ACAD
1000
DSTYLE
1002
{
1070
    40
1040
30.0
1002
}
  0
LINE
  5
7F53
330
81DC
100
AcDbEntity
  8
4
100
AcDbLine
 10
5550.0
 20
1210.115599408851
 30
0.0
 11
5550.0
 21
610.1155994088513
 31
0.0
  0
LINE
  5
7F54
330
81DC
100
AcDbEntity
  8
4
100
AcDbLine
 10
3450.0
 20
1210.115599408851
 30
0.0
 11
3450.0
 21
610.1155994088513
 31
0.0
  0
LINE
  5
7F55
330
81DC
100
AcDbEntity
  8
4
100
AcDbLine
 10
1950.0
 20
1210.115599408851
 30
0.0
 11
1950.0
 21
610.1155994088513
 31
0.0
  0
LINE
  5
7F58
330
81DC
100
AcDbEntity
  8
4
100
AcDbLine
 10
1950.0
 20
610.1155994088513
 30
0.0
 11
5550.0
 21
610.1155994088513
 31
0.0
  0
LINE
  5
7F59
330
81DC
100
AcDbEntity
  8
4
100
AcDbLine
 10
1950.0
 20
910.1155994088513
 30
0.0
 11
5550.0
 21
910.1155994088513
 31
0.0
  0
TEXT
  5
7F5A
330
81DC
100
AcDbEntity
  8
4
100
AcDbText
 10
2065.506242540704
 20
1004.74467700869
 30
0.0
 40
150.0
  1
機器名称
100
AcDbText
  0
TEXT
  5
7F5B
330
81DC
100
AcDbEntity
  8
4
100
AcDbText
 10
2058.774318074392
 20
675.0510696048841
 30
0.0
 40
150.0
  1
機器型番
100
AcDbText
  0
TEXT
  5
7F5C
330
81DC
100
AcDbEntity
  8
4
100
AcDbText
 10
3533.036236462995
 20
977.8309062815567
 30
0.0
 40
150.0
  1
ミツヤ多翼送風機
100
AcDbText
  0
TEXT
  5
7F5D
330
81DC
100
AcDbEntity
  8
4
100
AcDbText
 10
3559.963486756442
 20
661.5943522486814
 30
0.0
 40
150.0
  1
MF#6-5
100
AcDbText
  0
TEXT
  5
7F5F
330
81DC
100
AcDbEntity
  8
4
100
AcDbText
 10
2397.53107104676
 20
7150.286523997547
 30
0.0
 40
161.9999999999998
  1
床置ベット
100
AcDbText
  0
TEXT
  5
7F60
330
81DC
100
AcDbEntity
  8
4
100
AcDbText
 10
948.5027799883393
 20
7601.642928597894
 30
0.0
 40
216.0
  1
遠心式両吸込両持多翼ファン
100
AcDbText
  0
LINE
  5
7F61
330
81DC
100
AcDbEntity
  8
4
100
AcDbLine
 10
750.0
 20
7408.226262794413
 30
0.0
 11
5550.0
 21
7408.226262794413
 31
0.0
  0
LINE
  5
7F62
330
81DC
100
AcDbEntity
  8
4
100
AcDbLine
 10
750.0
 20
8008.226262794414
 30
0.0
 11
5550.0
 21
8008.226262794414
 31
0.0
  0
LINE
  5
7F63
330
81DC
100
AcDbEntity
  8
4
100
AcDbLine
 10
1950.0
 20
1210.115599408851
 30
0.0
 11
5550.0
 21
1210.115599408851
 31
0.0
  0
LINE
  5
7F64
330
81DC
100
AcDbEntity
  8
4
100
AcDbLine
 10
750.0
 20
8008.226262794414
 30
0.0
 11
750.0
 21
7408.226262794413
 31
0.0
  0
TEXT
  5
7F65
330
81DC
100
AcDbEntity
  8
4
100
AcDbText
 10
1089.954574318652
 20
7146.958432639029
 30
0.0
 40
161.9999999999998
  1
左回転右横向
100
AcDbText
  0
TEXT
  5
7F66
330
81DC
100
AcDbEntity
  8
4
100
AcDbText
 10
4406.908677747869
 20
8118.183244485924
 30
0.0
 40
168.0
  1
No.
100
AcDbText
  0
TEXT
  5
7F67
330
81DC
100
AcDbEntity
  8
4
100
AcDbText
 10
3933.888187800039
 20
7150.286523997547
 30
0.0
 40
161.9999999999998
  1
縮尺：1/30
100
AcDbText
  0
LINE
  5
7F68
330
81DC
100
AcDbEntity
  8
4
100
AcDbLine
 10
5550.0
 20
8008.226262794414
 30
0.0
 11
5550.0
 21
7408.226262794413
 31
0.0
  0
LINE
  5
7F69
330
81DC
100
AcDbEntity
  8
4
100
AcDbLine
 10
6300.0
 20
8850.0
 30
0.0
 11
6300.0
 21
8850.0
 31
0.0
  0
LINE
  5
7F6A
330
81DC
100
AcDbEntity
  8
4
100
AcDbLine
 10
4321.852267079594
 20
8043.790749376205
 30
0.0
 11
4321.852267079594
 21
8359.956784649257
 31
0.0
  0
LINE
  5
7F6B
330
81DC
100
AcDbEntity
  8
4
100
AcDbLine
 10
4321.852267079594
 20
8359.956784649257
 30
0.0
 11
5550.0
 21
8359.956784649257
 31
0.0
  0
LINE
  5
7F6C
330
81DC
100
AcDbEntity
  8
4
100
AcDbLine
 10
5550.0
 20
8359.956784649257
 30
0.0
 11
5550.0
 21
8043.790749376205
 31
0.0
  0
LINE
  5
7F6D
330
81DC
100
AcDbEntity
  8
4
100
AcDbLine
 10
5550.0
 20
8043.790749376205
 30
0.0
 11
4321.852267079594
 21
8043.790749376205
 31
0.0
  0
LINE
  5
7F6E
330
81DC
100
AcDbEntity
  8
4
100
AcDbLine
 10
0.0
 20
0.0
 30
0.0
 11
0.0
 21
8850.0
 31
0.0
  0
LINE
  5
7F6F
330
81DC
100
AcDbEntity
  8
4
100
AcDbLine
 10
0.0
 20
8850.0
 30
0.0
 11
6300.0
 21
8850.0
 31
0.0
  0
LINE
  5
7F70
330
81DC
100
AcDbEntity
  8
4
100
AcDbLine
 10
6300.0
 20
8850.0
 30
0.0
 11
6300.0
 21
0.0
 31
0.0
  0
LINE
  5
7F71
330
81DC
100
AcDbEntity
  8
4
100
AcDbLine
 10
6300.0
 20
0.0
 30
0.0
 11
0.0
 21
0.0
 31
0.0
  0
DIMENSION
  5
80D4
330
81DC
100
AcDbEntity
  8
3
100
AcDbDimension
  2
*D23
 10
2095.150812799097
 20
1951.158845018268
 30
0.0
 11
1382.650812799098
 21
2026.158845018268
 31
0.0
 71
     5
 42
-1.0
  3
Standard
100
AcDbAlignedDimension
 13
670.1508127990997
 23
2168.149543488601
 33
0.0
 14
2095.150812799097
 24
2168.1495434886
 34
0.0
100
AcDbRotatedDimension
1001
ACAD
1000
DSTYLE
1002
{
1070
   172
1070
     1
1070
    40
1040
30.0
1070
    42
1040
1.0
1070
   271
1070
     0
1070
   143
1040
0.039
1002
}
  0
DIMENSION
  5
80E1
330
81DC
100
AcDbEntity
  8
3
100
AcDbDimension
  2
*D24
 10
2720.150812799099
 20
1951.158845018268
 30
0.0
 11
2407.650812799098
 21
2026.158845018268
 31
0.0
 71
     5
 42
-1.0
  3
Standard
100
AcDbAlignedDimension
 13
2095.150812799097
 23
2168.1495434886
 33
0.0
 14
2720.150812799099
 24
2168.149543488601
 34
0.0
100
AcDbRotatedDimension
1001
ACAD
1000
DSTYLE
1002
{
1070
   172
1070
     1
1070
    40
1040
30.0
1070
    42
1040
1.0
1070
   271
1070
     0
1070
   143
1040
0.039
1002
}
  0
DIMENSION
  5
80EE
330
81DC
100
AcDbEntity
  8
3
100
AcDbDimension
  2
*D25
 10
4921.343106282495
 20
1951.158845018268
 30
0.0
 11
4507.843106282495
 21
2026.158845018268
 31
0.0
 71
     5
 42
-1.0
  3
Standard
100
AcDbAlignedDimension
 13
4094.343106282495
 23
2168.1495434886
 33
0.0
 14
4921.343106282495
 24
2168.1495434886
 34
0.0
100
AcDbRotatedDimension
1001
ACAD
1000
DSTYLE
1002
{
1070
   172
1070
     1
1070
    40
1040
30.0
1070
    42
1040
1.0
1070
   271
1070
     0
1070
   143
1040
0.039
1002
}
  0
DIMENSION
  5
80FB
330
81DC
100
AcDbEntity
  8
3
100
AcDbDimension
  2
*D26
 10
5599.343106282496
 20
1951.158845018268
 30
0.0
 11
5260.343106282496
 21
2026.158845018268
 31
0.0
 71
     5
 42
-1.0
  3
Standard
100
AcDbAlignedDimension
 13
4921.343106282495
 23
2168.1495434886
 33
0.0
 14
5599.343106282496
 24
2168.1495434886
 34
0.0
100
AcDbRotatedDimension
1001
ACAD
1000
DSTYLE
1002
{
1070
   172
1070
     1
1070
    40
1040
30.0
1070
    42
1040
1.0
1070
   271
1070
     0
1070
   143
1040
0.039
1002
}
  0
DIMENSION
  5
8108
330
81DC
100
AcDbEntity
  8
3
100
AcDbDimension
  2
*D27
 10
3629.624865627669
 20
4098.149543488601
 30
0.0
 11
3554.624865627669
 21
3133.149543488601
 31
0.0
 71
     5
 42
-1.0
  3
Standard
100
AcDbAlignedDimension
 13
2720.150812799099
 23
2168.149543488601
 33
0.0
 14
2051.1508127991
 24
4098.149543488601
 34
0.0
 50
90.0
100
AcDbRotatedDimension
1001
ACAD
1000
DSTYLE
1002
{
1070
   172
1070
     1
1070
    40
1040
30.0
1070
    42
1040
1.0
1070
   271
1070
     0
1070
   143
1040
0.039
1002
}
  0
DIMENSION
  5
8232
330
81DC
100
AcDbEntity
  8
3
100
AcDbDimension
  2
*D29
 10
4921.343106282495
 20
4571.491438949204
 30
0.0
 11
4391.343106282493
 21
4670.062867520632
 31
0.0
 70
    32
  1
(<>)
 71
     5
 42
1060.000000000005
  3
IGA
100
AcDbAlignedDimension
 13
3861.343106282491
 23
3658.149543488601
 33
0.0
 14
4921.343106282495
 24
4486.026754975926
 34
0.0
100
AcDbRotatedDimension
1001
ACAD
1000
DSTYLE
1002
{
1070
    40
1040
30.0
1070
    42
1040
1.0
1070
   143
1040
0.039
1070
   172
1070
     1
1070
   271
1070
     4
1070
   272
1070
     4
1070
   279
1070
     0
1070
   284
1070
     0
1070
   285
1070
     0
1070
   286
1070
     0
1070
   341
1005
81F0
1070
   343
1005
81F0
1070
   344
1005
81F0
1002
}
  0
DIMENSION
  5
823F
330
81DC
100
AcDbEntity
  8
3
100
AcDbDimension
  2
*D30
 10
5701.343106282497
 20
4571.491438949204
 30
0.0
 11
5311.343106282496
 21
4670.062867520632
 31
0.0
 70
    32
  1
(<>)
 71
     5
 42
780.0000000000009
  3
IGA
100
AcDbAlignedDimension
 13
4921.343106282495
 23
4486.026754975926
 33
0.0
 14
5701.343106282497
 24
3342.349543488602
 34
0.0
100
AcDbRotatedDimension
1001
ACAD
1000
DSTYLE
1002
{
1070
    40
1040
30.0
1070
    42
1040
1.0
1070
   143
1040
0.039
1070
   172
1070
     1
1070
   271
1070
     4
1070
   272
1070
     4
1070
   279
1070
     1
1070
   284
1070
     0
1070
   285
1070
     0
1070
   286
1070
     0
1070
   341
1005
81F0
1070
   343
1005
81F0
1070
   344
1005
81F0
1002
}
  0
DIMENSION
  5
82AD
330
81DC
100
AcDbEntity
  8
3
100
AcDbDimension
  2
*D32
 10
2720.1508127991
 20
4700.106643017007
 30
0.0
 11
1695.1508127991
 21
4775.106643017006
 31
0.0
 70
    32
 71
     5
 42
2050.0
  3
IGA
100
AcDbAlignedDimension
 13
670.1508127991001
 23
5098.670042865875
 33
0.0
 14
2720.1508127991
 24
5098.670042865873
 34
0.0
100
AcDbRotatedDimension
1001
ACAD
1000
DSTYLE
1002
{
1070
    40
1040
30.0
1070
    42
1040
1.0
1070
   143
1040
0.039
1070
   172
1070
     1
1070
   271
1070
     4
1070
   272
1070
     4
1070
   279
1070
     0
1070
   284
1070
     0
1070
   285
1070
     0
1070
   286
1070
     0
1070
   341
1005
81F0
1070
   343
1005
81F0
1070
   344
1005
81F0
1002
}
  0
DIMENSION
  5
82BA
330
81DC
100
AcDbEntity
  8
3
100
AcDbDimension
  2
*D33
 10
3416.322280557938
 20
2168.149543488601
 30
0.0
 11
3341.322280557938
 21
2773.149543488601
 31
0.0
 70
    32
 71
     5
 42
1209.999999999999
  3
IGA
100
AcDbAlignedDimension
 13
2834.766795296728
 23
3378.1495434886
 33
0.0
 14
2720.150812799099
 24
2168.149543488601
 34
0.0
 50
90.0
100
AcDbRotatedDimension
1001
ACAD
1000
DSTYLE
1002
{
1070
    40
1040
30.0
1070
    42
1040
1.0
1070
   143
1040
0.039
1070
   172
1070
     1
1070
   271
1070
     4
1070
   272
1070
     4
1070
   279
1070
     0
1070
   284
1070
     0
1070
   285
1070
     0
1070
   286
1070
     0
1070
   341
1005
81F0
1070
   343
1005
81F0
1070
   344
1005
81F0
1002
}
  0
ENDSEC
  0
SECTION
  2
OBJECTS
  0
DICTIONARY
  5
8179
330
0
100
AcDbDictionary
281
     1
  3
ACAD_CIP_PREVIOUS_PRODUCT_INFO
350
8224
  3
ACAD_COLOR
350
81CF
  3
ACAD_DETAILVIEWSTYLE
350
81D6
  3
ACAD_GROUP
350
817A
  3
ACAD_LAYOUT
350
81CE
  3
ACAD_MATERIAL
350
817D
  3
ACAD_MLEADERSTYLE
350
81D2
  3
ACAD_MLINESTYLE
350
81CB
  3
ACAD_PLOTSETTINGS
350
81CD
  3
ACAD_PLOTSTYLENAME
350
817B
  3
ACAD_SCALELIST
350
81AF
  3
ACAD_SECTIONVIEWSTYLE
350
81D4
  3
ACAD_TABLESTYLE
350
81D0
  3
ACAD_VISUALSTYLE
350
8196
  3
ACDB_RECOMPOSE_DATA
350
82E7
  3
AcDbVariableDictionary
350
82DA
  3
DWGPROPS
350
82E8
  0
DICTIONARY
  5
82D0
330
81C1
100
AcDbDictionary
280
     1
281
     1
  3
ADSK_XREC_LAYER_RECONCILED
360
82D1
  0
DICTIONARY
  5
82D2
330
81E0
100
AcDbDictionary
280
     1
281
     1
  3
ADSK_XREC_LAYER_RECONCILED
360
82D3
  0
DICTIONARY
  5
82D4
330
81E3
100
AcDbDictionary
280
     1
281
     1
  3
ADSK_XREC_LAYER_RECONCILED
360
82D5
  0
DICTIONARY
  5
82D6
330
81E4
100
AcDbDictionary
280
     1
281
     1
  3
ADSK_XREC_LAYER_RECONCILED
360
82D7
  0
DICTIONARY
  5
82D8
330
81E5
100
AcDbDictionary
280
     1
281
     1
  3
ADSK_XREC_LAYER_RECONCILED
360
82D9
  0
XRECORD
  5
8224
102
{ACAD_REACTORS
330
8179
102
}
330
8179
100
AcDbXrecord
280
     1
300
ACDLT
300
2015
300
INVLTS_F_S
  0
DICTIONARY
  5
81CF
102
{ACAD_REACTORS
330
8179
102
}
330
8179
100
AcDbDictionary
281
     1
  0
DICTIONARY
  5
81D6
102
{ACAD_REACTORS
330
8179
102
}
330
8179
100
AcDbDictionary
281
     1
  3
Imperial24
350
81D7
  0
DICTIONARY
  5
817A
102
{ACAD_REACTORS
330
8179
102
}
330
8179
100
AcDbDictionary
281
     1
  0
DICTIONARY
  5
81CE
102
{ACAD_REACTORS
330
8179
102
}
330
8179
100
AcDbDictionary
281
     1
  3
Model
350
81DF
  3
レイアウト1
350
81DB
  0
DICTIONARY
  5
817D
102
{ACAD_REACTORS
330
8179
102
}
330
8179
100
AcDbDictionary
281
     1
  3
ByBlock
350
8186
  3
ByLayer
350
817E
  3
Global
350
818E
  0
DICTIONARY
  5
81D2
102
{ACAD_REACTORS
330
8179
102
}
330
8179
100
AcDbDictionary
281
     1
  3
Standard
350
81D3
  0
DICTIONARY
  5
81CB
102
{ACAD_REACTORS
330
8179
102
}
330
8179
100
AcDbDictionary
281
     1
  3
Standard
350
81CC
  0
DICTIONARY
  5
81CD
102
{ACAD_REACTORS
330
8179
102
}
330
8179
100
AcDbDictionary
281
     1
  0
ACDBDICTIONARYWDFLT
  5
817B
102
{ACAD_REACTORS
330
8179
102
}
330
8179
100
AcDbDictionary
281
     1
  3
Normal
350
817C
100
AcDbDictionaryWithDefault
340
817C
  0
DICTIONARY
  5
81AF
102
{ACAD_REACTORS
330
8179
102
}
330
8179
100
AcDbDictionary
281
     1
  3
A0
350
81B0
  3
A1
350
81B1
  3
A2
350
81B2
  3
A3
350
81B3
  3
A4
350
81B4
  3
A5
350
81B5
  3
A6
350
81B6
  3
A7
350
81B7
  3
A8
350
81B8
  3
A9
350
81B9
  3
B0
350
81BA
  3
B1
350
81BB
  3
B2
350
81BC
  3
B3
350
81BD
  3
B4
350
81BE
  3
B5
350
81BF
  3
B6
350
81C0
  0
DICTIONARY
  5
81D4
102
{ACAD_REACTORS
330
8179
102
}
330
8179
100
AcDbDictionary
281
     1
  3
Imperial24
350
81D5
  0
DICTIONARY
  5
81D0
102
{ACAD_REACTORS
330
8179
102
}
330
8179
100
AcDbDictionary
281
     1
  3
Standard
350
81D1
  0
DICTIONARY
  5
8196
102
{ACAD_REACTORS
330
8179
102
}
330
8179
100
AcDbDictionary
281
     1
  3
2dWireframe
350
819C
  3
Basic
350
819B
  3
Brighten
350
81A2
  3
ColorChange
350
81A6
  3
Conceptual
350
819F
  3
Dim
350
81A1
  3
EdgeColorOff
350
81AE
  3
Facepattern
350
81A5
  3
Flat
350
8197
  3
FlatWithEdges
350
8198
  3
Gouraud
350
8199
  3
GouraudWithEdges
350
819A
  3
Hidden
350
819E
  3
JitterOff
350
81AC
  3
Linepattern
350
81A4
  3
OverhangOff
350
81AD
  3
Realistic
350
81A0
  3
Shaded
350
81AB
  3
Shaded with edges
350
81AA
  3
Shades of Gray
350
81A7
  3
Sketchy
350
81A8
  3
Thicken
350
81A3
  3
Wireframe
350
819D
  3
X-Ray
350
81A9
  0
XRECORD
  5
82E7
102
{ACAD_REACTORS
330
8179
102
}
330
8179
100
AcDbXrecord
280
     1
 90
        1
330
81D1
  0
DICTIONARY
  5
82DA
102
{ACAD_REACTORS
330
8179
102
}
330
8179
100
AcDbDictionary
281
     1
  3
CANNOSCALE
350
82DF
  3
CMLEADERSTYLE
350
82DC
  3
CTABLESTYLE
350
82DB
  3
CVIEWDETAILSTYLE
350
82DD
  3
CVIEWSECTIONSTYLE
350
82DE
  3
DIMASSOC
350
82E2
  3
INDEXCTL
350
82E1
  3
SORTENTS
350
82E0
  3
XCLIPFRAME
350
82E3
  0
XRECORD
  5
82E8
102
{ACAD_REACTORS
330
8179
102
}
330
8179
100
AcDbXrecord
280
     1
  1
DWGPROPS COOKIE
  2

  3

  4

  6

  7

  8
yasukiyo.ogawa
  9

300
=
301
=
302
=
303
=
304
=
305
=
306
=
307
=
308
=
309
=
 40
0.0961805555555556
 41
2451389.585626505
 42
2460271.710108958
  1

 90
        0
  0
XRECORD
  5
82D1
102
{ACAD_REACTORS
330
82D0
102
}
330
82D0
100
AcDbXrecord
280
     1
290
     1
  0
XRECORD
  5
82D3
102
{ACAD_REACTORS
330
82D2
102
}
330
82D2
100
AcDbXrecord
280
     1
290
     1
  0
XRECORD
  5
82D5
102
{ACAD_REACTORS
330
82D4
102
}
330
82D4
100
AcDbXrecord
280
     1
290
     1
  0
XRECORD
  5
82D7
102
{ACAD_REACTORS
330
82D6
102
}
330
82D6
100
AcDbXrecord
280
     1
290
     1
  0
XRECORD
  5
82D9
102
{ACAD_REACTORS
330
82D8
102
}
330
82D8
100
AcDbXrecord
280
     1
290
     1
  0
ACDBDETAILVIEWSTYLE
  5
81D7
102
{ACAD_XDICTIONARY
360
8320
102
}
102
{ACAD_REACTORS
330
81D6
102
}
330
81D6
100
AcDbModelDocViewStyle
 70
     0
  3
Imperial24
290
     0
100
AcDbDetailViewStyle
 70
     0
 71
     0
 90
        3
 71
     1
340
81C2
 40
0.24
340
0
 40
0.24
300

 40
0.36
280
     3
 71
     2
340
81C9
 90
       25
 71
     3
340
81C2
 40
0.24
 90
        1
 40
0.75
 90
        1
300
%<\AcVar ViewType \f "%tc1">% %<\AcVar ViewDetailId>%\PSCALE %<\AcVar ViewScale \f "%sn">%
 71
     4
340
81C9
 90
       25
340
81C9
 90
       25
280
     0
  0
LAYOUT
  5
81DF
102
{ACAD_XDICTIONARY
360
8324
102
}
102
{ACAD_REACTORS
330
81CE
102
}
330
81CE
100
AcDbPlotSettings
  1

  2
RICOH imagio MP W3600 RPCS
  4

  6

 40
0.0
 41
0.0
 42
0.0
 43
0.0
 44
0.0
 45
0.0
 46
0.0
 47
0.0
 48
0.0
 49
0.0
140
0.0
141
0.0
142
1.0
143
1.0
 70
  1712
 72
     0
 73
     0
 74
     0
  7

 75
     0
147
1.0
148
0.0
149
0.0
100
AcDbLayout
  1
Model
 70
     1
 71
     0
 10
0.0
 20
0.0
 11
12.0
 21
9.0
 12
0.0
 22
0.0
 32
0.0
 14
0.0
 24
0.0
 34
0.0
 15
0.0
 25
0.0
 35
0.0
146
0.0
 13
0.0
 23
0.0
 33
0.0
 16
1.0
 26
0.0
 36
0.0
 17
0.0
 27
1.0
 37
0.0
 76
     0
330
81DC
331
81E1
  0
LAYOUT
  5
81DB
102
{ACAD_XDICTIONARY
360
8322
102
}
102
{ACAD_REACTORS
330
81CE
102
}
330
81CE
100
AcDbPlotSettings
  1

  2
RICOH imagio MP W3600 RPCS
  4

  6

 40
0.0
 41
0.0
 42
0.0
 43
0.0
 44
0.0
 45
0.0
 46
0.0
 47
0.0
 48
0.0
 49
0.0
140
0.0
141
0.0
142
1.0
143
1.0
 70
   688
 72
     0
 73
     0
 74
     5
  7

 75
    16
147
1.0
148
0.0
149
0.0
100
AcDbLayout
  1
レイアウト1
 70
     1
 71
     1
 10
0.0
 20
0.0
 11
12.0
 21
9.0
 12
0.0
 22
0.0
 32
0.0
 14
1.000000000000000E+20
 24
1.000000000000000E+20
 34
1.000000000000000E+20
 15
-1.000000000000000E+20
 25
-1.000000000000000E+20
 35
-1.000000000000000E+20
146
0.0
 13
0.0
 23
0.0
 33
0.0
 16
1.0
 26
0.0
 36
0.0
 17
0.0
 27
1.0
 37
0.0
 76
     0
330
81D8
  0
MATERIAL
  5
8186
102
{ACAD_XDICTIONARY
360
8187
102
}
102
{ACAD_REACTORS
330
817D
102
}
330
817D
100
AcDbMaterial
  1
ByBlock
 72
     0
 43
0.0208333333333333
 43
0.0
 43
0.0
 43
0.0
 43
0.0
 43
0.0208333333333333
 43
0.0
 43
0.0
 43
0.0
 43
0.0
 43
1.0
 43
0.0
 43
0.0
 43
0.0
 43
0.0
 43
1.0
 77
     0
 47
0.0208333333333333
 47
0.0
 47
0.0
 47
0.0
 47
0.0
 47
0.0208333333333333
 47
0.0
 47
0.0
 47
0.0
 47
0.0
 47
1.0
 47
0.0
 47
0.0
 47
0.0
 47
0.0
 47
1.0
171
     0
 49
0.0208333333333333
 49
0.0
 49
0.0
 49
0.0
 49
0.0
 49
0.0208333333333333
 49
0.0
 49
0.0
 49
0.0
 49
0.0
 49
1.0
 49
0.0
 49
0.0
 49
0.0
 49
0.0
 49
1.0
175
     0
142
0.0208333333333333
142
0.0
142
0.0
142
0.0
142
0.0
142
0.0208333333333333
142
0.0
142
0.0
142
0.0
142
0.0
142
1.0
142
0.0
142
0.0
142
0.0
142
0.0
142
1.0
179
     0
144
0.0208333333333333
144
0.0
144
0.0
144
0.0
144
0.0
144
0.0208333333333333
144
0.0
144
0.0
144
0.0
144
0.0
144
1.0
144
0.0
144
0.0
144
0.0
144
0.0
144
1.0
147
0.0208333333333333
147
0.0
147
0.0
147
0.0
147
0.0
147
0.0208333333333333
147
0.0
147
0.0
147
0.0
147
0.0
147
1.0
147
0.0
147
0.0
147
0.0
147
0.0
147
1.0
  0
MATERIAL
  5
817E
102
{ACAD_XDICTIONARY
360
817F
102
}
102
{ACAD_REACTORS
330
817D
102
}
330
817D
100
AcDbMaterial
  1
ByLayer
 72
     0
 43
0.0208333333333333
 43
0.0
 43
0.0
 43
0.0
 43
0.0
 43
0.0208333333333333
 43
0.0
 43
0.0
 43
0.0
 43
0.0
 43
1.0
 43
0.0
 43
0.0
 43
0.0
 43
0.0
 43
1.0
 77
     0
 47
0.0208333333333333
 47
0.0
 47
0.0
 47
0.0
 47
0.0
 47
0.0208333333333333
 47
0.0
 47
0.0
 47
0.0
 47
0.0
 47
1.0
 47
0.0
 47
0.0
 47
0.0
 47
0.0
 47
1.0
171
     0
 49
0.0208333333333333
 49
0.0
 49
0.0
 49
0.0
 49
0.0
 49
0.0208333333333333
 49
0.0
 49
0.0
 49
0.0
 49
0.0
 49
1.0
 49
0.0
 49
0.0
 49
0.0
 49
0.0
 49
1.0
175
     0
142
0.0208333333333333
142
0.0
142
0.0
142
0.0
142
0.0
142
0.0208333333333333
142
0.0
142
0.0
142
0.0
142
0.0
142
1.0
142
0.0
142
0.0
142
0.0
142
0.0
142
1.0
179
     0
144
0.0208333333333333
144
0.0
144
0.0
144
0.0
144
0.0
144
0.0208333333333333
144
0.0
144
0.0
144
0.0
144
0.0
144
1.0
144
0.0
144
0.0
144
0.0
144
0.0
144
1.0
147
0.0208333333333333
147
0.0
147
0.0
147
0.0
147
0.0
147
0.0208333333333333
147
0.0
147
0.0
147
0.0
147
0.0
147
1.0
147
0.0
147
0.0
147
0.0
147
0.0
147
1.0
  0
MATERIAL
  5
818E
102
{ACAD_XDICTIONARY
360
818F
102
}
102
{ACAD_REACTORS
330
817D
102
}
330
817D
100
AcDbMaterial
  1
Global
 72
     0
 43
0.0208333333333333
 43
0.0
 43
0.0
 43
0.0
 43
0.0
 43
0.0208333333333333
 43
0.0
 43
0.0
 43
0.0
 43
0.0
 43
1.0
 43
0.0
 43
0.0
 43
0.0
 43
0.0
 43
1.0
 77
     0
 47
0.0208333333333333
 47
0.0
 47
0.0
 47
0.0
 47
0.0
 47
0.0208333333333333
 47
0.0
 47
0.0
 47
0.0
 47
0.0
 47
1.0
 47
0.0
 47
0.0
 47
0.0
 47
0.0
 47
1.0
171
     0
 49
0.0208333333333333
 49
0.0
 49
0.0
 49
0.0
 49
0.0
 49
0.0208333333333333
 49
0.0
 49
0.0
 49
0.0
 49
0.0
 49
1.0
 49
0.0
 49
0.0
 49
0.0
 49
0.0
 49
1.0
175
     0
142
0.0208333333333333
142
0.0
142
0.0
142
0.0
142
0.0
142
0.0208333333333333
142
0.0
142
0.0
142
0.0
142
0.0
142
1.0
142
0.0
142
0.0
142
0.0
142
0.0
142
1.0
179
     0
144
0.0208333333333333
144
0.0
144
0.0
144
0.0
144
0.0
144
0.0208333333333333
144
0.0
144
0.0
144
0.0
144
0.0
144
1.0
144
0.0
144
0.0
144
0.0
144
0.0
144
1.0
147
0.0208333333333333
147
0.0
147
0.0
147
0.0
147
0.0
147
0.0208333333333333
147
0.0
147
0.0
147
0.0
147
0.0
147
1.0
147
0.0
147
0.0
147
0.0
147
0.0
147
1.0
  0
MLEADERSTYLE
  5
81D3
102
{ACAD_REACTORS
330
81D2
102
}
330
81D2
100
AcDbMLeaderStyle
170
     2
171
     1
172
     0
 90
        2
 40
0.0
 41
0.0
173
     1
 91
-1056964608
340
81C7
 92
       -2
290
     1
 42
0.09
291
     1
 43
0.36
  3
Standard
 44
0.18
300

342
81C2
174
     1
178
     6
175
     1
176
     0
 93
-1056964608
 45
0.18
292
     0
297
     0
 46
0.18
 94
-1056964608
 47
1.0
 49
1.0
140
1.0
293
     1
141
0.0
294
     1
177
     0
142
1.0
295
     0
296
     0
143
0.125
1001
ACAD_MLEADERVER
1070
     2
  0
MLINESTYLE
  5
81CC
102
{ACAD_REACTORS
330
81CB
102
}
330
81CB
100
AcDbMlineStyle
  2
STANDARD
 70
     0
  3

 62
   256
 51
90.0
 52
90.0
 71
     2
 49
0.5
 62
   256
  6
BYLAYER
 49
-0.5
 62
   256
  6
BYLAYER
  0
ACDBPLACEHOLDER
  5
817C
102
{ACAD_REACTORS
330
817B
102
}
330
817B
  0
SCALE
  5
81B0
102
{ACAD_REACTORS
330
81AF
102
}
330
81AF
100
AcDbScale
 70
     0
300
1:1
140
1.0
141
1.0
290
     1
  0
SCALE
  5
81B1
102
{ACAD_REACTORS
330
81AF
102
}
330
81AF
100
AcDbScale
 70
     0
300
1/128" = 1'-0"
140
0.0078125
141
12.0
290
     0
  0
SCALE
  5
81B2
102
{ACAD_REACTORS
330
81AF
102
}
330
81AF
100
AcDbScale
 70
     0
300
1/64" = 1'-0"
140
0.015625
141
12.0
290
     0
  0
SCALE
  5
81B3
102
{ACAD_REACTORS
330
81AF
102
}
330
81AF
100
AcDbScale
 70
     0
300
1/32" = 1'-0"
140
0.03125
141
12.0
290
     0
  0
SCALE
  5
81B4
102
{ACAD_REACTORS
330
81AF
102
}
330
81AF
100
AcDbScale
 70
     0
300
1/16" = 1'-0"
140
0.0625
141
12.0
290
     0
  0
SCALE
  5
81B5
102
{ACAD_REACTORS
330
81AF
102
}
330
81AF
100
AcDbScale
 70
     0
300
3/32" = 1'-0"
140
0.09375
141
12.0
290
     0
  0
SCALE
  5
81B6
102
{ACAD_REACTORS
330
81AF
102
}
330
81AF
100
AcDbScale
 70
     0
300
1/8" = 1'-0"
140
0.125
141
12.0
290
     0
  0
SCALE
  5
81B7
102
{ACAD_REACTORS
330
81AF
102
}
330
81AF
100
AcDbScale
 70
     0
300
3/16" = 1'-0"
140
0.1875
141
12.0
290
     0
  0
SCALE
  5
81B8
102
{ACAD_REACTORS
330
81AF
102
}
330
81AF
100
AcDbScale
 70
     0
300
1/4" = 1'-0"
140
0.25
141
12.0
290
     0
  0
SCALE
  5
81B9
102
{ACAD_REACTORS
330
81AF
102
}
330
81AF
100
AcDbScale
 70
     0
300
3/8" = 1'-0"
140
0.375
141
12.0
290
     0
  0
SCALE
  5
81BA
102
{ACAD_REACTORS
330
81AF
102
}
330
81AF
100
AcDbScale
 70
     0
300
1/2" = 1'-0"
140
0.5
141
12.0
290
     0
  0
SCALE
  5
81BB
102
{ACAD_REACTORS
330
81AF
102
}
330
81AF
100
AcDbScale
 70
     0
300
3/4" = 1'-0"
140
0.75
141
12.0
290
     0
  0
SCALE
  5
81BC
102
{ACAD_REACTORS
330
81AF
102
}
330
81AF
100
AcDbScale
 70
     0
300
1" = 1'-0"
140
1.0
141
12.0
290
     0
  0
SCALE
  5
81BD
102
{ACAD_REACTORS
330
81AF
102
}
330
81AF
100
AcDbScale
 70
     0
300
1-1/2" = 1'-0"
140
1.5
141
12.0
290
     0
  0
SCALE
  5
81BE
102
{ACAD_REACTORS
330
81AF
102
}
330
81AF
100
AcDbScale
 70
     0
300
3" = 1'-0"
140
3.0
141
12.0
290
     0
  0
SCALE
  5
81BF
102
{ACAD_REACTORS
330
81AF
102
}
330
81AF
100
AcDbScale
 70
     0
300
6" = 1'-0"
140
6.0
141
12.0
290
     0
  0
SCALE
  5
81C0
102
{ACAD_REACTORS
330
81AF
102
}
330
81AF
100
AcDbScale
 70
     0
300
1'-0" = 1'-0"
140
12.0
141
12.0
290
     0
  0
ACDBSECTIONVIEWSTYLE
  5
81D5
102
{ACAD_XDICTIONARY
360
831E
102
}
102
{ACAD_REACTORS
330
81D4
102
}
330
81D4
100
AcDbModelDocViewStyle
 70
     0
  3
Imperial24
290
     0
100
AcDbSectionViewStyle
 70
     0
 71
     0
 90
       78
 71
     1
340
81C2
 40
0.24
340
0
340
0
 40
0.24
300
I, O, Q, S, X, Z
 40
0.48
 90
        3
 40
0.18
 90
        1
 71
     2
340
81C9
 90
       25
340
81C9
 90
       50
 40
0.24
 40
0.0
 40
0.24
 71
     3
340
81C2
 40
0.24
 90
        1
 40
0.75
 90
        1
300
%<\AcVar ViewType \f "%tc1">% %<\AcVar ViewSectionStartId>%-%<\AcVar ViewSectionEndId>%\PSCALE %<\AcVar ViewScale \f "%sn">%
 71
     4
300
ANSI31
 40
1.0
 90
        0
290
     0
290
     0
 90
        6
 40
0.0
 40
1.570796326794896
 40
0.2617993877991494
 40
1.308996938995747
 40
-0.2617993877991494
 40
1.832595714594046
  0
TABLESTYLE
  5
81D1
102
{ACAD_XDICTIONARY
360
82E5
102
}
102
{ACAD_REACTORS
330
81D0
102
}
330
81D0
100
AcDbTableStyle
  3
Standard
 70
     0
 71
     0
 40
0.06
 41
0.06
280
     0
281
     0
  7
STANDARD
140
0.18
170
     2
 62
     0
 63
     7
283
     0
274
    -2
284
     1
 64
     0
275
    -2
285
     1
 65
     0
276
    -2
286
     1
 66
     0
277
    -2
287
     1
 67
     0
278
    -2
288
     1
 68
     0
279
    -2
289
     1
 69
     0
  7
STANDARD
140
0.25
170
     5
 62
     0
 63
     7
283
     0
274
    -2
284
     1
 64
     0
275
    -2
285
     1
 65
     0
276
    -2
286
     1
 66
     0
277
    -2
287
     1
 67
     0
278
    -2
288
     1
 68
     0
279
    -2
289
     1
 69
     0
  7
STANDARD
140
0.18
170
     5
 62
     0
 63
     7
283
     0
274
    -2
284
     1
 64
     0
275
    -2
285
     1
 65
     0
276
    -2
286
     1
 66
     0
277
    -2
287
     1
 67
     0
278
    -2
288
     1
 68
     0
279
    -2
289
     1
 69
     0
  0
VISUALSTYLE
  5
819C
102
{ACAD_XDICTIONARY
360
82F6
102
}
102
{ACAD_REACTORS
330
8196
102
}
330
8196
100
AcDbVisualStyle
  2
2dWireframe
 70
     4
 71
     0
 72
     2
 73
     0
 90
        0
 40
-0.6
 41
-30.0
 62
     5
 63
     7
 74
     1
 91
        4
 64
     7
 65
   257
 75
     1
175
     1
 42
1.0
 92
        0
 66
   257
 43
1.0
 76
     1
 77
     6
 78
     2
 67
     7
 79
     5
170
     0
171
     0
290
     0
174
     0
 93
        1
 44
0.0
173
     0
291
     0
 45
0.0
1001
ACAD
1000
AcDbSavedByObjectVersion
1070
     0
  0
VISUALSTYLE
  5
819B
102
{ACAD_XDICTIONARY
360
82F4
102
}
102
{ACAD_REACTORS
330
8196
102
}
330
8196
100
AcDbVisualStyle
  2
Basic
 70
     7
 71
     1
 72
     0
 73
     1
 90
        0
 40
-0.6
 41
-30.0
 62
     5
 63
     7
 74
     0
 91
        4
 64
     7
 65
   257
 75
     1
175
     1
 42
1.0
 92
        8
 66
     7
 43
1.0
 76
     1
 77
     6
 78
     2
 67
     7
 79
     5
170
     0
171
     0
290
     0
174
     0
 93
        1
 44
0.0
173
     0
291
     1
 45
0.0
1001
ACAD
1000
AcDbSavedByObjectVersion
1070
     0
  0
VISUALSTYLE
  5
81A2
102
{ACAD_XDICTIONARY
360
8302
102
}
102
{ACAD_REACTORS
330
8196
102
}
330
8196
100
AcDbVisualStyle
  2
Brighten
 70
    12
 71
     2
 72
     2
 73
     0
 90
        0
 40
-0.6
 41
-30.0
 62
     5
 63
     7
 74
     1
 91
        4
 64
     7
 65
   257
 75
     1
175
     1
 42
1.0
 92
        8
 66
     7
 43
1.0
 76
     1
 77
     6
 78
     2
 67
     7
 79
     5
170
     0
171
     0
290
     0
174
     0
 93
        1
 44
50.0
173
     0
291
     1
 45
0.0
1001
ACAD
1000
AcDbSavedByObjectVersion
1070
     0
  0
VISUALSTYLE
  5
81A6
102
{ACAD_XDICTIONARY
360
830A
102
}
102
{ACAD_REACTORS
330
8196
102
}
330
8196
100
AcDbVisualStyle
  2
ColorChange
 70
    16
 71
     2
 72
     2
 73
     3
 90
        0
 40
-0.6
 41
-30.0
 62
     5
 63
     8
 74
     1
 91
        4
 64
     7
 65
   257
 75
     1
175
     1
 42
1.0
 92
        8
 66
     8
 43
1.0
 76
     1
 77
     6
 78
     2
 67
     7
 79
     5
170
     0
171
     0
290
     0
174
     0
 93
        1
 44
0.0
173
     0
291
     1
 45
0.0
1001
ACAD
1000
AcDbSavedByObjectVersion
1070
     0
  0
VISUALSTYLE
  5
819F
102
{ACAD_XDICTIONARY
360
82FC
102
}
102
{ACAD_REACTORS
330
8196
102
}
330
8196
100
AcDbVisualStyle
  2
Conceptual
 70
     9
 71
     3
 72
     2
 73
     0
 90
        0
 40
-0.6
 41
-30.0
 62
     5
 63
     7
 74
     2
 91
        2
 64
     7
 65
   257
 75
     1
175
     1
 42
179.0
 92
        8
 66
     7
 43
1.0
 76
     1
 77
     6
 78
     2
 67
     7
 79
     3
170
     0
171
     0
290
     0
174
     0
 93
        1
 44
0.0
173
     0
291
     0
 45
0.0
1001
ACAD
1000
AcDbSavedByObjectVersion
1070
     0
  0
VISUALSTYLE
  5
81A1
102
{ACAD_XDICTIONARY
360
8300
102
}
102
{ACAD_REACTORS
330
8196
102
}
330
8196
100
AcDbVisualStyle
  2
Dim
 70
    11
 71
     2
 72
     2
 73
     0
 90
        0
 40
-0.6
 41
-30.0
 62
     5
 63
     7
 74
     1
 91
        4
 64
     7
 65
   257
 75
     1
175
     1
 42
1.0
 92
        8
 66
     7
 43
1.0
 76
     1
 77
     6
 78
     2
 67
     7
 79
     5
170
     0
171
     0
290
     0
174
     0
 93
        1
 44
-50.0
173
     0
291
     1
 45
0.0
1001
ACAD
1000
AcDbSavedByObjectVersion
1070
     0
  0
VISUALSTYLE
  5
81AE
102
{ACAD_XDICTIONARY
360
831A
102
}
102
{ACAD_REACTORS
330
8196
102
}
330
8196
100
AcDbVisualStyle
  2
EdgeColorOff
 70
    22
 71
     2
 72
     2
 73
     0
 90
        0
 40
-0.6
 41
-30.0
 62
     5
 63
     7
 74
     1
 91
        4
 64
     7
 65
   257
 75
     1
175
     1
 42
1.0
 92
        8
 66
     7
 43
1.0
 76
     1
 77
     6
 78
     2
 67
     7
 79
     5
170
     0
171
     0
290
     0
174
     0
 93
        1
 44
0.0
173
     0
291
     1
 45
0.0
1001
ACAD
1000
AcDbSavedByObjectVersion
1070
     0
  0
VISUALSTYLE
  5
81A5
102
{ACAD_XDICTIONARY
360
8308
102
}
102
{ACAD_REACTORS
330
8196
102
}
330
8196
100
AcDbVisualStyle
  2
Facepattern
 70
    15
 71
     2
 72
     2
 73
     0
 90
        0
 40
-0.6
 41
-30.0
 62
     5
 63
     7
 74
     1
 91
        4
 64
     7
 65
   257
 75
     1
175
     1
 42
1.0
 92
        8
 66
     7
 43
1.0
 76
     1
 77
     6
 78
     2
 67
     7
 79
     5
170
     0
171
     0
290
     0
174
     0
 93
        1
 44
0.0
173
     0
291
     1
 45
0.0
1001
ACAD
1000
AcDbSavedByObjectVersion
1070
     0
  0
VISUALSTYLE
  5
8197
102
{ACAD_XDICTIONARY
360
82EC
102
}
102
{ACAD_REACTORS
330
8196
102
}
330
8196
100
AcDbVisualStyle
  2
Flat
 70
     0
 71
     2
 72
     1
 73
     1
 90
        2
 40
-0.6
 41
30.0
 62
     5
 63
     7
 74
     0
 91
        0
 64
     7
 65
   257
 75
     1
175
     1
 42
1.0
 92
        8
 66
     7
 43
1.0
 76
     1
 77
     6
 78
     2
 67
     7
 79
     5
170
     0
171
     0
290
     0
174
     0
 93
       13
 44
0.0
173
     0
291
     1
 45
0.0
1001
ACAD
1000
AcDbSavedByObjectVersion
1070
     0
  0
VISUALSTYLE
  5
8198
102
{ACAD_XDICTIONARY
360
82EE
102
}
102
{ACAD_REACTORS
330
8196
102
}
330
8196
100
AcDbVisualStyle
  2
FlatWithEdges
 70
     1
 71
     2
 72
     1
 73
     1
 90
        2
 40
-0.6
 41
30.0
 62
     5
 63
     7
 74
     1
 91
        0
 64
     7
 65
   257
 75
     1
175
     1
 42
1.0
 92
        0
 66
   257
 43
1.0
 76
     1
 77
     6
 78
     2
 67
     7
 79
     5
170
     0
171
     0
290
     0
174
     0
 93
       13
 44
0.0
173
     0
291
     1
 45
0.0
1001
ACAD
1000
AcDbSavedByObjectVersion
1070
     0
  0
VISUALSTYLE
  5
8199
102
{ACAD_XDICTIONARY
360
82F0
102
}
102
{ACAD_REACTORS
330
8196
102
}
330
8196
100
AcDbVisualStyle
  2
Gouraud
 70
     2
 71
     2
 72
     2
 73
     1
 90
        2
 40
-0.6
 41
30.0
 62
     5
 63
     7
 74
     0
 91
        0
 64
     7
 65
   257
 75
     1
175
     1
 42
1.0
 92
        0
 66
     7
 43
1.0
 76
     1
 77
     6
 78
     2
 67
     7
 79
     5
170
     0
171
     0
290
     0
174
     0
 93
       13
 44
0.0
173
     0
291
     1
 45
0.0
1001
ACAD
1000
AcDbSavedByObjectVersion
1070
     0
  0
VISUALSTYLE
  5
819A
102
{ACAD_XDICTIONARY
360
82F2
102
}
102
{ACAD_REACTORS
330
8196
102
}
330
8196
100
AcDbVisualStyle
  2
GouraudWithEdges
 70
     3
 71
     2
 72
     2
 73
     1
 90
        2
 40
-0.6
 41
30.0
 62
     5
 63
     7
 74
     1
 91
        0
 64
     7
 65
   257
 75
     1
175
     1
 42
1.0
 92
        0
 66
   257
 43
1.0
 76
     1
 77
     6
 78
     2
 67
     7
 79
     5
170
     0
171
     0
290
     0
174
     0
 93
       13
 44
0.0
173
     0
291
     1
 45
0.0
1001
ACAD
1000
AcDbSavedByObjectVersion
1070
     0
  0
VISUALSTYLE
  5
819E
102
{ACAD_XDICTIONARY
360
82FA
102
}
102
{ACAD_REACTORS
330
8196
102
}
330
8196
100
AcDbVisualStyle
  2
Hidden
 70
     6
 71
     1
 72
     2
 73
     2
 90
        0
 40
-0.6
 41
-30.0
 62
     5
 63
     7
 74
     2
 91
        2
 64
     7
 65
   257
 75
     2
175
     1
 42
40.0
 92
        0
 66
   257
 43
1.0
 76
     1
 77
     6
 78
     2
 67
     7
 79
     3
170
     0
171
     0
290
     0
174
     0
 93
        1
 44
0.0
173
     0
291
     0
 45
0.0
1001
ACAD
1000
AcDbSavedByObjectVersion
1070
     0
  0
VISUALSTYLE
  5
81AC
102
{ACAD_XDICTIONARY
360
8316
102
}
102
{ACAD_REACTORS
330
8196
102
}
330
8196
100
AcDbVisualStyle
  2
JitterOff
 70
    20
 71
     2
 72
     2
 73
     0
 90
        0
 40
-0.6
 41
-30.0
 62
     5
 63
     7
 74
     1
 91
        4
 64
     7
 65
   257
 75
     1
175
     1
 42
1.0
 92
       10
 66
     7
 43
1.0
 76
     1
 77
     6
 78
     2
 67
     7
 79
     5
170
     0
171
     0
290
     0
174
     0
 93
        1
 44
0.0
173
     0
291
     1
 45
0.0
1001
ACAD
1000
AcDbSavedByObjectVersion
1070
     0
  0
VISUALSTYLE
  5
81A4
102
{ACAD_XDICTIONARY
360
8306
102
}
102
{ACAD_REACTORS
330
8196
102
}
330
8196
100
AcDbVisualStyle
  2
Linepattern
 70
    14
 71
     2
 72
     2
 73
     0
 90
        0
 40
-0.6
 41
-30.0
 62
     5
 63
     7
 74
     1
 91
        4
 64
     7
 65
   257
 75
     7
175
     7
 42
1.0
 92
        8
 66
     7
 43
1.0
 76
     1
 77
     6
 78
     2
 67
     7
 79
     5
170
     0
171
     0
290
     0
174
     0
 93
        1
 44
0.0
173
     0
291
     1
 45
0.0
1001
ACAD
1000
AcDbSavedByObjectVersion
1070
     0
  0
VISUALSTYLE
  5
81AD
102
{ACAD_XDICTIONARY
360
8318
102
}
102
{ACAD_REACTORS
330
8196
102
}
330
8196
100
AcDbVisualStyle
  2
OverhangOff
 70
    21
 71
     2
 72
     2
 73
     0
 90
        0
 40
-0.6
 41
-30.0
 62
     5
 63
     7
 74
     1
 91
        4
 64
     7
 65
   257
 75
     1
175
     1
 42
1.0
 92
        9
 66
     7
 43
1.0
 76
     1
 77
     6
 78
     2
 67
     7
 79
     5
170
     0
171
     0
290
     0
174
     0
 93
        1
 44
0.0
173
     0
291
     1
 45
0.0
1001
ACAD
1000
AcDbSavedByObjectVersion
1070
     0
  0
VISUALSTYLE
  5
81A0
102
{ACAD_XDICTIONARY
360
82FE
102
}
102
{ACAD_REACTORS
330
8196
102
}
330
8196
100
AcDbVisualStyle
  2
Realistic
 70
     8
 71
     2
 72
     3
 73
     0
 90
        2
 40
-0.6
 41
30.0
 62
     5
 63
     7
 74
     0
 91
        0
 64
     7
 65
   257
 75
     1
175
     1
 42
1.0
 92
        8
 66
   257
 43
1.0
 76
     1
 77
     6
 78
     2
 67
     7
 79
     3
170
     0
171
     0
290
     0
174
     0
 93
       13
 44
0.0
173
     0
291
     0
 45
0.0
1001
ACAD
1000
AcDbSavedByObjectVersion
1070
     0
  0
VISUALSTYLE
  5
81AB
102
{ACAD_XDICTIONARY
360
8314
102
}
102
{ACAD_REACTORS
330
8196
102
}
330
8196
100
AcDbVisualStyle
  2
Shaded
 70
    27
 71
     2
 72
     2
 73
     1
 90
        2
 40
-0.6
 41
30.0
 62
     5
 63
     7
 74
     0
 91
        4
 64
     7
 65
   257
 75
     1
175
     1
 42
1.0
 92
        8
 66
   257
 43
1.0
 76
     1
 77
     6
 78
     2
 67
     8
 79
     3
170
     0
171
     0
290
     0
174
     0
 93
        5
 44
0.0
173
     0
291
     0
 45
0.0
1001
ACAD
1000
AcDbSavedByObjectVersion
1070
     0
  0
VISUALSTYLE
  5
81AA
102
{ACAD_XDICTIONARY
360
8312
102
}
102
{ACAD_REACTORS
330
8196
102
}
330
8196
100
AcDbVisualStyle
  2
Shaded with edges
 70
    26
 71
     2
 72
     2
 73
     1
 90
        2
 40
-0.6
 41
30.0
 62
     5
 63
     7
 74
     1
 91
       10
 64
     7
 65
   257
 75
     2
175
     1
 42
1.0
 92
        8
 66
   257
 43
1.0
 76
     1
 77
     6
 78
     2
 67
     7
 79
     3
170
     0
171
     0
290
     0
174
     0
 93
        5
 44
0.0
173
     0
291
     0
 45
0.0
1001
ACAD
1000
AcDbSavedByObjectVersion
1070
     0
  0
VISUALSTYLE
  5
81A7
102
{ACAD_XDICTIONARY
360
830C
102
}
102
{ACAD_REACTORS
330
8196
102
}
330
8196
100
AcDbVisualStyle
  2
Shades of Gray
 70
    23
 71
     2
 72
     2
 73
     3
 90
        0
 40
-0.6
 41
-30.0
 62
     5
 63
     7
 74
     2
 91
        2
 64
     7
 65
     7
 75
     1
175
     1
 42
40.0
 92
        8
 66
     7
 43
1.0
 76
     1
 77
     6
 78
     2
 67
     7
 79
     3
170
     0
171
     0
290
     0
174
     0
 93
        1
 44
0.0
173
     0
291
     0
 45
0.0
1001
ACAD
1000
AcDbSavedByObjectVersion
1070
     0
  0
VISUALSTYLE
  5
81A8
102
{ACAD_XDICTIONARY
360
830E
102
}
102
{ACAD_REACTORS
330
8196
102
}
330
8196
100
AcDbVisualStyle
  2
Sketchy
 70
    24
 71
     1
 72
     2
 73
     2
 90
        0
 40
-0.6
 41
-30.0
 62
     5
 63
     7
 74
     2
 91
        2
 64
     7
 65
     7
 75
     1
175
     1
 42
40.0
 92
       11
 66
     7
 43
1.0
 76
     1
 77
     6
 78
     2
 67
     7
 79
     6
170
     0
171
     0
290
     0
174
     0
 93
        1
 44
0.0
173
     0
291
     0
 45
0.0
1001
ACAD
1000
AcDbSavedByObjectVersion
1070
     0
  0
VISUALSTYLE
  5
81A3
102
{ACAD_XDICTIONARY
360
8304
102
}
102
{ACAD_REACTORS
330
8196
102
}
330
8196
100
AcDbVisualStyle
  2
Thicken
 70
    13
 71
     2
 72
     2
 73
     0
 90
        0
 40
-0.6
 41
-30.0
 62
     5
 63
     7
 74
     1
 91
        4
 64
     7
 65
   257
 75
     1
175
     1
 42
1.0
 92
       12
 66
     7
 43
1.0
 76
     1
 77
     6
 78
     2
 67
     7
 79
     5
170
     0
171
     0
290
     0
174
     0
 93
        1
 44
0.0
173
     0
291
     1
 45
0.0
1001
ACAD
1000
AcDbSavedByObjectVersion
1070
     0
  0
VISUALSTYLE
  5
819D
102
{ACAD_XDICTIONARY
360
82F8
102
}
102
{ACAD_REACTORS
330
8196
102
}
330
8196
100
AcDbVisualStyle
  2
Wireframe
 70
     5
 71
     0
 72
     2
 73
     0
 90
        0
 40
-0.6
 41
-30.0
 62
     5
 63
     7
 74
     1
 91
        4
 64
     7
 65
   257
 75
     1
175
     1
 42
1.0
 92
        0
 66
   257
 43
1.0
 76
     1
 77
     6
 78
     2
 67
     7
 79
     3
170
     0
171
     0
290
     0
174
     0
 93
        1
 44
0.0
173
     0
291
     0
 45
0.0
1001
ACAD
1000
AcDbSavedByObjectVersion
1070
     0
  0
VISUALSTYLE
  5
81A9
102
{ACAD_XDICTIONARY
360
8310
102
}
102
{ACAD_REACTORS
330
8196
102
}
330
8196
100
AcDbVisualStyle
  2
X-Ray
 70
    25
 71
     2
 72
     2
 73
     1
 90
        1
 40
0.5
 41
-30.0
 62
     5
 63
     7
 74
     1
 91
        0
 64
     7
 65
   257
 75
     1
175
     1
 42
1.0
 92
        8
 66
     7
 43
1.0
 76
     1
 77
     6
 78
     2
 67
     7
 79
     3
170
     0
171
     0
290
     0
174
     0
 93
       13
 44
0.0
173
     0
291
     0
 45
0.0
1001
ACAD
1000
AcDbSavedByObjectVersion
1070
     0
  0
DICTIONARYVAR
  5
82DF
102
{ACAD_REACTORS
330
82DA
102
}
330
82DA
100
DictionaryVariables
280
     0
  1
1:1
  0
DICTIONARYVAR
  5
82DC
102
{ACAD_REACTORS
330
82DA
102
}
330
82DA
100
DictionaryVariables
280
     0
  1
STANDARD
  0
DICTIONARYVAR
  5
82DB
102
{ACAD_REACTORS
330
82DA
102
}
330
82DA
100
DictionaryVariables
280
     0
  1
STANDARD
  0
DICTIONARYVAR
  5
82DD
102
{ACAD_REACTORS
330
82DA
102
}
330
82DA
100
DictionaryVariables
280
     0
  1
Imperial24
  0
DICTIONARYVAR
  5
82DE
102
{ACAD_REACTORS
330
82DA
102
}
330
82DA
100
DictionaryVariables
280
     0
  1
Imperial24
  0
DICTIONARYVAR
  5
82E2
102
{ACAD_REACTORS
330
82DA
102
}
330
82DA
100
DictionaryVariables
280
     0
  1
1
  0
DICTIONARYVAR
  5
82E1
102
{ACAD_REACTORS
330
82DA
102
}
330
82DA
100
DictionaryVariables
280
     0
  1
0
  0
DICTIONARYVAR
  5
82E0
102
{ACAD_REACTORS
330
82DA
102
}
330
82DA
100
DictionaryVariables
280
     0
  1
127
  0
DICTIONARYVAR
  5
82E3
102
{ACAD_REACTORS
330
82DA
102
}
330
82DA
100
DictionaryVariables
280
     0
  1
2
  0
DICTIONARY
  5
8320
330
81D7
100
AcDbDictionary
280
     1
281
     1
  3
ACAD_XREC_ROUNDTRIP
360
8321
  0
DICTIONARY
  5
8324
330
81DF
100
AcDbDictionary
280
     1
281
     1
  3
ACAD_XREC_ROUNDTRIP
360
8325
  0
DICTIONARY
  5
8322
330
81DB
100
AcDbDictionary
280
     1
281
     1
  3
ACAD_XREC_ROUNDTRIP
360
8323
  0
DICTIONARY
  5
8187
330
8186
100
AcDbDictionary
280
     1
281
     1
  3
ACAD_XREC_ROUNDTRIP
360
82EA
  3
BUMPTILE
360
8189
  3
DIFFUSETILE
360
8188
  3
OPACITYTILE
360
818C
  3
REFLECTIONTILE
360
818B
  3
REFRACTIONTILE
360
818D
  3
SPECULARTILE
360
818A
  0
DICTIONARY
  5
817F
330
817E
100
AcDbDictionary
280
     1
281
     1
  3
ACAD_XREC_ROUNDTRIP
360
82E9
  3
BUMPTILE
360
8181
  3
DIFFUSETILE
360
8180
  3
OPACITYTILE
360
8184
  3
REFLECTIONTILE
360
8183
  3
REFRACTIONTILE
360
8185
  3
SPECULARTILE
360
8182
  0
DICTIONARY
  5
818F
330
818E
100
AcDbDictionary
280
     1
281
     1
  3
ACAD_XREC_ROUNDTRIP
360
82EB
  3
BUMPTILE
360
8191
  3
DIFFUSETILE
360
8190
  3
OPACITYTILE
360
8194
  3
REFLECTIONTILE
360
8193
  3
REFRACTIONTILE
360
8195
  3
SPECULARTILE
360
8192
  0
DICTIONARY
  5
831E
330
81D5
100
AcDbDictionary
280
     1
281
     1
  3
ACAD_XREC_ROUNDTRIP
360
831F
  0
DICTIONARY
  5
82E5
330
81D1
100
AcDbDictionary
280
     1
281
     1
  3
ACAD_ROUNDTRIP_2008_TABLESTYLE_CELLSTYLEMAP
360
82E6
  3
ACAD_XREC_ROUNDTRIP
360
831C
  0
DICTIONARY
  5
82F6
330
819C
100
AcDbDictionary
280
     1
281
     1
  3
ACAD_XREC_ROUNDTRIP
360
82F7
  0
DICTIONARY
  5
82F4
330
819B
100
AcDbDictionary
280
     1
281
     1
  3
ACAD_XREC_ROUNDTRIP
360
82F5
  0
DICTIONARY
  5
8302
330
81A2
100
AcDbDictionary
280
     1
281
     1
  3
ACAD_XREC_ROUNDTRIP
360
8303
  0
DICTIONARY
  5
830A
330
81A6
100
AcDbDictionary
280
     1
281
     1
  3
ACAD_XREC_ROUNDTRIP
360
830B
  0
DICTIONARY
  5
82FC
330
819F
100
AcDbDictionary
280
     1
281
     1
  3
ACAD_XREC_ROUNDTRIP
360
82FD
  0
DICTIONARY
  5
8300
330
81A1
100
AcDbDictionary
280
     1
281
     1
  3
ACAD_XREC_ROUNDTRIP
360
8301
  0
DICTIONARY
  5
831A
330
81AE
100
AcDbDictionary
280
     1
281
     1
  3
ACAD_XREC_ROUNDTRIP
360
831B
  0
DICTIONARY
  5
8308
330
81A5
100
AcDbDictionary
280
     1
281
     1
  3
ACAD_XREC_ROUNDTRIP
360
8309
  0
DICTIONARY
  5
82EC
330
8197
100
AcDbDictionary
280
     1
281
     1
  3
ACAD_XREC_ROUNDTRIP
360
82ED
  0
DICTIONARY
  5
82EE
330
8198
100
AcDbDictionary
280
     1
281
     1
  3
ACAD_XREC_ROUNDTRIP
360
82EF
  0
DICTIONARY
  5
82F0
330
8199
100
AcDbDictionary
280
     1
281
     1
  3
ACAD_XREC_ROUNDTRIP
360
82F1
  0
DICTIONARY
  5
82F2
330
819A
100
AcDbDictionary
280
     1
281
     1
  3
ACAD_XREC_ROUNDTRIP
360
82F3
  0
DICTIONARY
  5
82FA
330
819E
100
AcDbDictionary
280
     1
281
     1
  3
ACAD_XREC_ROUNDTRIP
360
82FB
  0
DICTIONARY
  5
8316
330
81AC
100
AcDbDictionary
280
     1
281
     1
  3
ACAD_XREC_ROUNDTRIP
360
8317
  0
DICTIONARY
  5
8306
330
81A4
100
AcDbDictionary
280
     1
281
     1
  3
ACAD_XREC_ROUNDTRIP
360
8307
  0
DICTIONARY
  5
8318
330
81AD
100
AcDbDictionary
280
     1
281
     1
  3
ACAD_XREC_ROUNDTRIP
360
8319
  0
DICTIONARY
  5
82FE
330
81A0
100
AcDbDictionary
280
     1
281
     1
  3
ACAD_XREC_ROUNDTRIP
360
82FF
  0
DICTIONARY
  5
8314
330
81AB
100
AcDbDictionary
280
     1
281
     1
  3
ACAD_XREC_ROUNDTRIP
360
8315
  0
DICTIONARY
  5
8312
330
81AA
100
AcDbDictionary
280
     1
281
     1
  3
ACAD_XREC_ROUNDTRIP
360
8313
  0
DICTIONARY
  5
830C
330
81A7
100
AcDbDictionary
280
     1
281
     1
  3
ACAD_XREC_ROUNDTRIP
360
830D
  0
DICTIONARY
  5
830E
330
81A8
100
AcDbDictionary
280
     1
281
     1
  3
ACAD_XREC_ROUNDTRIP
360
830F
  0
DICTIONARY
  5
8304
330
81A3
100
AcDbDictionary
280
     1
281
     1
  3
ACAD_XREC_ROUNDTRIP
360
8305
  0
DICTIONARY
  5
82F8
330
819D
100
AcDbDictionary
280
     1
281
     1
  3
ACAD_XREC_ROUNDTRIP
360
82F9
  0
DICTIONARY
  5
8310
330
81A9
100
AcDbDictionary
280
     1
281
     1
  3
ACAD_XREC_ROUNDTRIP
360
8311
  0
XRECORD
  5
8321
102
{ACAD_REACTORS
330
8320
102
}
330
8320
100
AcDbXrecord
280
     1
102
DISPLAYNAME
  1
Imperial24
102
FLAGS
 90
        0
  0
XRECORD
  5
8325
102
{ACAD_REACTORS
330
8324
102
}
330
8324
100
AcDbXrecord
280
     1
102
SHADEPLOT
 70
     0
102
SHADEPLOTRESLEVEL
 70
     2
102
SHADEPLOTCUSTOMDPI
 70
   300
  0
XRECORD
  5
8323
102
{ACAD_REACTORS
330
8322
102
}
330
8322
100
AcDbXrecord
280
     1
102
SHADEPLOT
 70
     0
102
SHADEPLOTRESLEVEL
 70
     2
102
SHADEPLOTCUSTOMDPI
 70
   300
  0
XRECORD
  5
82EA
102
{ACAD_REACTORS
330
8187
102
}
330
8187
100
AcDbXrecord
280
     1
102
MATERIAL
148
0.0
149
0.0
149
0.0
 93
        0
 94
      127
282
     0
 72
     0
 77
     0
171
     0
175
     0
179
     0
273
     0
  0
XRECORD
  5
8189
102
{ACAD_REACTORS
330
8187
102
}
330
8187
100
AcDbXrecord
280
     1
270
     1
271
     1
  0
XRECORD
  5
8188
102
{ACAD_REACTORS
330
8187
102
}
330
8187
100
AcDbXrecord
280
     1
270
     1
271
     1
  0
XRECORD
  5
818C
102
{ACAD_REACTORS
330
8187
102
}
330
8187
100
AcDbXrecord
280
     1
270
     1
271
     1
  0
XRECORD
  5
818B
102
{ACAD_REACTORS
330
8187
102
}
330
8187
100
AcDbXrecord
280
     1
270
     1
271
     1
  0
XRECORD
  5
818D
102
{ACAD_REACTORS
330
8187
102
}
330
8187
100
AcDbXrecord
280
     1
270
     1
271
     1
  0
XRECORD
  5
818A
102
{ACAD_REACTORS
330
8187
102
}
330
8187
100
AcDbXrecord
280
     1
270
     1
271
     1
  0
XRECORD
  5
82E9
102
{ACAD_REACTORS
330
817F
102
}
330
817F
100
AcDbXrecord
280
     1
102
MATERIAL
148
0.0
149
0.0
149
0.0
 93
        0
 94
      127
282
     0
 72
     0
 77
     0
171
     0
175
     0
179
     0
273
     0
  0
XRECORD
  5
8181
102
{ACAD_REACTORS
330
817F
102
}
330
817F
100
AcDbXrecord
280
     1
270
     1
271
     1
  0
XRECORD
  5
8180
102
{ACAD_REACTORS
330
817F
102
}
330
817F
100
AcDbXrecord
280
     1
270
     1
271
     1
  0
XRECORD
  5
8184
102
{ACAD_REACTORS
330
817F
102
}
330
817F
100
AcDbXrecord
280
     1
270
     1
271
     1
  0
XRECORD
  5
8183
102
{ACAD_REACTORS
330
817F
102
}
330
817F
100
AcDbXrecord
280
     1
270
     1
271
     1
  0
XRECORD
  5
8185
102
{ACAD_REACTORS
330
817F
102
}
330
817F
100
AcDbXrecord
280
     1
270
     1
271
     1
  0
XRECORD
  5
8182
102
{ACAD_REACTORS
330
817F
102
}
330
817F
100
AcDbXrecord
280
     1
270
     1
271
     1
  0
XRECORD
  5
82EB
102
{ACAD_REACTORS
330
818F
102
}
330
818F
100
AcDbXrecord
280
     1
102
MATERIAL
148
0.0
149
0.0
149
0.0
 93
        0
 94
      127
282
     0
 72
     0
 77
     0
171
     0
175
     0
179
     0
273
     0
  0
XRECORD
  5
8191
102
{ACAD_REACTORS
330
818F
102
}
330
818F
100
AcDbXrecord
280
     1
270
     1
271
     1
  0
XRECORD
  5
8190
102
{ACAD_REACTORS
330
818F
102
}
330
818F
100
AcDbXrecord
280
     1
270
     1
271
     1
  0
XRECORD
  5
8194
102
{ACAD_REACTORS
330
818F
102
}
330
818F
100
AcDbXrecord
280
     1
270
     1
271
     1
  0
XRECORD
  5
8193
102
{ACAD_REACTORS
330
818F
102
}
330
818F
100
AcDbXrecord
280
     1
270
     1
271
     1
  0
XRECORD
  5
8195
102
{ACAD_REACTORS
330
818F
102
}
330
818F
100
AcDbXrecord
280
     1
270
     1
271
     1
  0
XRECORD
  5
8192
102
{ACAD_REACTORS
330
818F
102
}
330
818F
100
AcDbXrecord
280
     1
270
     1
271
     1
  0
XRECORD
  5
831F
102
{ACAD_REACTORS
330
831E
102
}
330
831E
100
AcDbXrecord
280
     1
102
DISPLAYNAME
  1
Imperial24
102
FLAGS
 90
        0
  0
CELLSTYLEMAP
  5
82E6
102
{ACAD_REACTORS
330
82E5
102
}
330
82E5
100
AcDbCellStyleMap
 90
        3
300
CELLSTYLE
  1
TABLEFORMAT_BEGIN
 90
        5
170
     1
 91
        0
 92
    32768
 62
   257
 93
        1
300
CONTENTFORMAT
  1
CONTENTFORMAT_BEGIN
 90
        0
 91
        0
 92
      512
 93
        0
300

 40
0.0
140
1.0
 94
        5
 62
     0
340
81C2
144
0.25
309
CONTENTFORMAT_END
171
     0
 94
        0
309
TABLEFORMAT_END
  1
CELLSTYLE_BEGIN
 90
        1
 91
        1
300
_TITLE
309
CELLSTYLE_END
300
CELLSTYLE
  1
TABLEFORMAT_BEGIN
 90
        5
170
     1
 91
        0
 92
        0
 62
   257
 93
        1
300
CONTENTFORMAT
  1
CONTENTFORMAT_BEGIN
 90
        0
 91
        0
 92
      512
 93
        0
300

 40
0.0
140
1.0
 94
        5
 62
     0
340
81C2
144
0.18
309
CONTENTFORMAT_END
171
     0
 94
        0
309
TABLEFORMAT_END
  1
CELLSTYLE_BEGIN
 90
        2
 91
        1
300
_HEADER
309
CELLSTYLE_END
300
CELLSTYLE
  1
TABLEFORMAT_BEGIN
 90
        5
170
     1
 91
        0
 92
        0
 62
   257
 93
        1
300
CONTENTFORMAT
  1
CONTENTFORMAT_BEGIN
 90
        0
 91
        0
 92
      512
 93
        0
300

 40
0.0
140
1.0
 94
        2
 62
     0
340
81C2
144
0.18
309
CONTENTFORMAT_END
171
     0
 94
        0
309
TABLEFORMAT_END
  1
CELLSTYLE_BEGIN
 90
        3
 91
        2
300
_DATA
309
CELLSTYLE_END
  0
XRECORD
  5
831C
102
{ACAD_REACTORS
330
82E5
102
}
330
82E5
100
AcDbXrecord
280
     1
102
ACAD_ROUNDTRIP_PRE2007_TABLESTYLE
 90
      512
 91
        0
  1

 92
      512
 93
        0
  2

 94
      512
 95
        0
  3

  0
XRECORD
  5
82F7
102
{ACAD_REACTORS
330
82F6
102
}
330
82F6
100
AcDbXrecord
280
     1
102
RTVSPost2010Prop28
280
     1
102
RTVSPost2010PropOp28
 70
     1
102
RTVSPost2010Prop29
280
     1
102
RTVSPost2010PropOp29
 70
     1
102
RTVSPost2010Prop30
280
     0
102
RTVSPost2010PropOp30
 70
     1
102
RTVSPost2010Prop31
280
     0
102
RTVSPost2010PropOp31
 70
     1
102
RTVSPost2010Prop32
280
     0
102
RTVSPost2010PropOp32
 70
     1
102
RTVSPost2010Prop33
280
     0
102
RTVSPost2010PropOp33
 70
     1
102
RTVSPost2010Prop34
280
     0
102
RTVSPost2010PropOp34
 70
     1
102
RTVSPost2010Prop35
280
     0
102
RTVSPost2010PropOp35
 70
     1
102
RTVSPost2010Prop36
280
     0
102
RTVSPost2010PropOp36
 70
     1
102
RTVSPost2010Prop37
 90
       50
102
RTVSPost2010PropOp37
 70
     1
102
RTVSPost2010Prop38
140
0.0
102
RTVSPost2010PropOp38
 70
     1
102
RTVSPost2010Prop39
140
1.0
102
RTVSPost2010PropOp39
 70
     1
102
RTVSPost2010Prop40
 90
        0
102
RTVSPost2010PropOp40
 70
     1
102
RTVSPost2010Prop41ColorIndex
 90
       18
102
RTVSPost2010Prop41ColorRGB
 90
        0
102
RTVSPost2010PropOp41
 70
     1
102
RTVSPost2010Prop42
 90
       50
102
RTVSPost2010PropOp42
 70
     1
102
RTVSPost2010Prop43
 90
        3
102
RTVSPost2010PropOp43
 70
     1
102
RTVSPost2010Prop44ColorIndex
 90
        5
102
RTVSPost2010Prop44ColorRGB
 90
      255
102
RTVSPost2010PropOp44
 70
     1
102
RTVSPost2010Prop45
280
     0
102
RTVSPost2010PropOp45
 70
     1
102
RTVSPost2010Prop46
 90
       50
102
RTVSPost2010PropOp46
 70
     1
102
RTVSPost2010Prop47
 90
       50
102
RTVSPost2010PropOp47
 70
     1
102
RTVSPost2010Prop48
 90
       50
102
RTVSPost2010PropOp48
 70
     1
102
RTVSPost2010Prop49
280
     0
102
RTVSPost2010PropOp49
 70
     1
102
RTVSPost2010Prop50
 90
       50
102
RTVSPost2010PropOp50
 70
     1
102
RTVSPost2010Prop51ColorIndex
 90
      256
102
RTVSPost2010Prop51ColorRGB
 90
-16777216
102
RTVSPost2010PropOp51
 70
     0
102
RTVSPost2010Prop52
140
1.0
102
RTVSPost2010PropOp52
 70
     0
102
RTVSPost2010Prop53
 90
        2
102
RTVSPost2010PropOp53
 70
     1
102
RTVSPost2010Prop54
  1
strokes_ogs.tif
102
RTVSPost2010PropOp54
 70
     1
102
RTVSPost2010Prop55
280
     0
102
RTVSPost2010PropOp55
 70
     1
102
RTVSPost2010Prop56
140
1.0
102
RTVSPost2010PropOp56
 70
     1
102
RTVSPost2010Prop57
140
1.0
102
RTVSPost2010PropOp57
 70
     1
102
RTVSPropertyOp0
 70
     1
102
RTVSPropertyOp1
 70
     1
102
RTVSPropertyOp2
 70
     1
102
RTVSPropertyOp3
 70
     1
102
RTVSPropertyOp4
 70
     1
102
RTVSPropertyOp5
 70
     1
102
RTVSPropertyOp6
 70
     1
102
RTVSPropertyOp7
 70
     1
102
RTVSPropertyOp8
 70
     1
102
RTVSPropertyOp9
 70
     1
102
RTVSPropertyOp10
 70
     1
102
RTVSPropertyOp11
 70
     1
102
RTVSPropertyOp12
 70
     1
102
RTVSPropertyOp13
 70
     1
102
RTVSPropertyOp14
 70
     1
102
RTVSPropertyOp15
 70
     1
102
RTVSPropertyOp16
 70
     1
102
RTVSPropertyOp17
 70
     1
102
RTVSPropertyOp18
 70
     1
102
RTVSPropertyOp19
 70
     1
102
RTVSPropertyOp20
 70
     1
102
RTVSPropertyOp21
 70
     1
102
RTVSPropertyOp22
 70
     1
102
RTVSPropertyOp23
 70
     1
102
RTVSPropertyOp24
 70
     1
102
RTVSPropertyOp25
 70
     1
102
RTVSPropertyOp26
 70
     1
102
RTVSPropertyOp27
 70
     1
102
RTVSPropertyOp28
 70
     1
102
RTVSPropertyOp29
 70
     1
102
RTVSPropertyOp30
 70
     1
102
RTVSPropertyOp31
 70
     1
102
RTVSPropertyOp32
 70
     1
102
RTVSPropertyOp33
 70
     1
102
RTVSPropertyOp34
 70
     1
102
RTVSPropertyOp35
 70
     1
102
RTVSPropertyOp36
 70
     1
102
RTVSPropertyOp37
 70
     1
102
RTVSPropertyOp38
 70
     1
102
RTVSPropertyOp39
 70
     1
102
RTVSPropertyOp40
 70
     1
102
RTVSPropertyOp41
 70
     1
102
RTVSPropertyOp42
 70
     1
102
RTVSPropertyOp43
 70
     1
102
RTVSPropertyOp44
 70
     1
102
RTVSPropertyOp45
 70
     1
102
RTVSPropertyOp46
 70
     1
102
RTVSPropertyOp47
 70
     1
102
RTVSPropertyOp48
 70
     1
102
RTVSPropertyOp49
 70
     1
102
RTVSPropertyOp50
 70
     1
102
RTVSPropertyOp51
 70
     0
102
RTVSPropertyOp52
 70
     0
102
RTVSPropertyOp53
 70
     1
102
RTVSPropertyOp54
 70
     1
102
RTVSPropertyOp55
 70
     1
102
RTVSPropertyOp56
 70
     1
102
RTVSPropertyOp57
 70
     1
102
RTVSPropertyOp58
 70
     1
102
RTVSPropertyOp59
 70
     1
102
RTVSPropertyOp60
 70
     1
102
RTVSPropertyOp61
 70
     1
102
RTVSPropertyOp62
 70
     1
  0
XRECORD
  5
82F5
102
{ACAD_REACTORS
330
82F4
102
}
330
82F4
100
AcDbXrecord
280
     1
102
RTVSPost2010Prop28
280
     0
102
RTVSPost2010PropOp28
 70
     1
102
RTVSPost2010Prop29
280
     1
102
RTVSPost2010PropOp29
 70
     1
102
RTVSPost2010Prop30
280
     1
102
RTVSPost2010PropOp30
 70
     1
102
RTVSPost2010Prop31
280
     0
102
RTVSPost2010PropOp31
 70
     1
102
RTVSPost2010Prop32
280
     0
102
RTVSPost2010PropOp32
 70
     1
102
RTVSPost2010Prop33
280
     0
102
RTVSPost2010PropOp33
 70
     1
102
RTVSPost2010Prop34
280
     0
102
RTVSPost2010PropOp34
 70
     1
102
RTVSPost2010Prop35
280
     0
102
RTVSPost2010PropOp35
 70
     1
102
RTVSPost2010Prop36
280
     0
102
RTVSPost2010PropOp36
 70
     1
102
RTVSPost2010Prop37
 90
       50
102
RTVSPost2010PropOp37
 70
     1
102
RTVSPost2010Prop38
140
0.0
102
RTVSPost2010PropOp38
 70
     1
102
RTVSPost2010Prop39
140
1.0
102
RTVSPost2010PropOp39
 70
     1
102
RTVSPost2010Prop40
 90
        0
102
RTVSPost2010PropOp40
 70
     1
102
RTVSPost2010Prop41ColorIndex
 90
       18
102
RTVSPost2010Prop41ColorRGB
 90
        0
102
RTVSPost2010PropOp41
 70
     1
102
RTVSPost2010Prop42
 90
       50
102
RTVSPost2010PropOp42
 70
     1
102
RTVSPost2010Prop43
 90
        3
102
RTVSPost2010PropOp43
 70
     1
102
RTVSPost2010Prop44ColorIndex
 90
        5
102
RTVSPost2010Prop44ColorRGB
 90
      255
102
RTVSPost2010PropOp44
 70
     1
102
RTVSPost2010Prop45
280
     0
102
RTVSPost2010PropOp45
 70
     1
102
RTVSPost2010Prop46
 90
       50
102
RTVSPost2010PropOp46
 70
     1
102
RTVSPost2010Prop47
 90
       50
102
RTVSPost2010PropOp47
 70
     1
102
RTVSPost2010Prop48
 90
       50
102
RTVSPost2010PropOp48
 70
     1
102
RTVSPost2010Prop49
280
     0
102
RTVSPost2010PropOp49
 70
     1
102
RTVSPost2010Prop50
 90
       50
102
RTVSPost2010PropOp50
 70
     1
102
RTVSPost2010Prop51ColorIndex
 90
      256
102
RTVSPost2010Prop51ColorRGB
 90
-16777216
102
RTVSPost2010PropOp51
 70
     0
102
RTVSPost2010Prop52
140
1.0
102
RTVSPost2010PropOp52
 70
     0
102
RTVSPost2010Prop53
 90
        2
102
RTVSPost2010PropOp53
 70
     1
102
RTVSPost2010Prop54
  1
strokes_ogs.tif
102
RTVSPost2010PropOp54
 70
     1
102
RTVSPost2010Prop55
280
     0
102
RTVSPost2010PropOp55
 70
     1
102
RTVSPost2010Prop56
140
1.0
102
RTVSPost2010PropOp56
 70
     1
102
RTVSPost2010Prop57
140
1.0
102
RTVSPost2010PropOp57
 70
     1
102
RTVSPropertyOp0
 70
     1
102
RTVSPropertyOp1
 70
     1
102
RTVSPropertyOp2
 70
     1
102
RTVSPropertyOp3
 70
     1
102
RTVSPropertyOp4
 70
     1
102
RTVSPropertyOp5
 70
     1
102
RTVSPropertyOp6
 70
     1
102
RTVSPropertyOp7
 70
     1
102
RTVSPropertyOp8
 70
     1
102
RTVSPropertyOp9
 70
     1
102
RTVSPropertyOp10
 70
     1
102
RTVSPropertyOp11
 70
     1
102
RTVSPropertyOp12
 70
     1
102
RTVSPropertyOp13
 70
     1
102
RTVSPropertyOp14
 70
     1
102
RTVSPropertyOp15
 70
     1
102
RTVSPropertyOp16
 70
     1
102
RTVSPropertyOp17
 70
     1
102
RTVSPropertyOp18
 70
     1
102
RTVSPropertyOp19
 70
     1
102
RTVSPropertyOp20
 70
     1
102
RTVSPropertyOp21
 70
     1
102
RTVSPropertyOp22
 70
     1
102
RTVSPropertyOp23
 70
     1
102
RTVSPropertyOp24
 70
     1
102
RTVSPropertyOp25
 70
     1
102
RTVSPropertyOp26
 70
     1
102
RTVSPropertyOp27
 70
     1
102
RTVSPropertyOp28
 70
     1
102
RTVSPropertyOp29
 70
     1
102
RTVSPropertyOp30
 70
     1
102
RTVSPropertyOp31
 70
     1
102
RTVSPropertyOp32
 70
     1
102
RTVSPropertyOp33
 70
     1
102
RTVSPropertyOp34
 70
     1
102
RTVSPropertyOp35
 70
     1
102
RTVSPropertyOp36
 70
     1
102
RTVSPropertyOp37
 70
     1
102
RTVSPropertyOp38
 70
     1
102
RTVSPropertyOp39
 70
     1
102
RTVSPropertyOp40
 70
     1
102
RTVSPropertyOp41
 70
     1
102
RTVSPropertyOp42
 70
     1
102
RTVSPropertyOp43
 70
     1
102
RTVSPropertyOp44
 70
     1
102
RTVSPropertyOp45
 70
     1
102
RTVSPropertyOp46
 70
     1
102
RTVSPropertyOp47
 70
     1
102
RTVSPropertyOp48
 70
     1
102
RTVSPropertyOp49
 70
     1
102
RTVSPropertyOp50
 70
     1
102
RTVSPropertyOp51
 70
     0
102
RTVSPropertyOp52
 70
     0
102
RTVSPropertyOp53
 70
     1
102
RTVSPropertyOp54
 70
     1
102
RTVSPropertyOp55
 70
     1
102
RTVSPropertyOp56
 70
     1
102
RTVSPropertyOp57
 70
     1
102
RTVSPropertyOp58
 70
     1
102
RTVSPropertyOp59
 70
     1
102
RTVSPropertyOp60
 70
     1
102
RTVSPropertyOp61
 70
     1
102
RTVSPropertyOp62
 70
     1
  0
XRECORD
  5
8303
102
{ACAD_REACTORS
330
8302
102
}
330
8302
100
AcDbXrecord
280
     1
102
RTVSPost2010Prop28
280
     0
102
RTVSPost2010PropOp28
 70
     1
102
RTVSPost2010Prop29
280
     1
102
RTVSPost2010PropOp29
 70
     1
102
RTVSPost2010Prop30
280
     1
102
RTVSPost2010PropOp30
 70
     1
102
RTVSPost2010Prop31
280
     0
102
RTVSPost2010PropOp31
 70
     1
102
RTVSPost2010Prop32
280
     0
102
RTVSPost2010PropOp32
 70
     1
102
RTVSPost2010Prop33
280
     0
102
RTVSPost2010PropOp33
 70
     1
102
RTVSPost2010Prop34
280
     0
102
RTVSPost2010PropOp34
 70
     1
102
RTVSPost2010Prop35
280
     0
102
RTVSPost2010PropOp35
 70
     1
102
RTVSPost2010Prop36
280
     0
102
RTVSPost2010PropOp36
 70
     1
102
RTVSPost2010Prop37
 90
       50
102
RTVSPost2010PropOp37
 70
     1
102
RTVSPost2010Prop38
140
0.0
102
RTVSPost2010PropOp38
 70
     1
102
RTVSPost2010Prop39
140
1.0
102
RTVSPost2010PropOp39
 70
     1
102
RTVSPost2010Prop40
 90
        0
102
RTVSPost2010PropOp40
 70
     1
102
RTVSPost2010Prop41ColorIndex
 90
       18
102
RTVSPost2010Prop41ColorRGB
 90
        0
102
RTVSPost2010PropOp41
 70
     1
102
RTVSPost2010Prop42
 90
       50
102
RTVSPost2010PropOp42
 70
     1
102
RTVSPost2010Prop43
 90
        3
102
RTVSPost2010PropOp43
 70
     1
102
RTVSPost2010Prop44ColorIndex
 90
        5
102
RTVSPost2010Prop44ColorRGB
 90
      255
102
RTVSPost2010PropOp44
 70
     1
102
RTVSPost2010Prop45
280
     0
102
RTVSPost2010PropOp45
 70
     1
102
RTVSPost2010Prop46
 90
       50
102
RTVSPost2010PropOp46
 70
     1
102
RTVSPost2010Prop47
 90
       50
102
RTVSPost2010PropOp47
 70
     1
102
RTVSPost2010Prop48
 90
       50
102
RTVSPost2010PropOp48
 70
     1
102
RTVSPost2010Prop49
280
     0
102
RTVSPost2010PropOp49
 70
     1
102
RTVSPost2010Prop50
 90
       50
102
RTVSPost2010PropOp50
 70
     1
102
RTVSPost2010Prop51ColorIndex
 90
      256
102
RTVSPost2010Prop51ColorRGB
 90
-16777216
102
RTVSPost2010PropOp51
 70
     0
102
RTVSPost2010Prop52
140
1.0
102
RTVSPost2010PropOp52
 70
     0
102
RTVSPost2010Prop53
 90
        2
102
RTVSPost2010PropOp53
 70
     1
102
RTVSPost2010Prop54
  1
strokes_ogs.tif
102
RTVSPost2010PropOp54
 70
     1
102
RTVSPost2010Prop55
280
     0
102
RTVSPost2010PropOp55
 70
     1
102
RTVSPost2010Prop56
140
1.0
102
RTVSPost2010PropOp56
 70
     1
102
RTVSPost2010Prop57
140
1.0
102
RTVSPost2010PropOp57
 70
     1
102
RTVSPropertyOp0
 70
     1
102
RTVSPropertyOp1
 70
     1
102
RTVSPropertyOp2
 70
     1
102
RTVSPropertyOp3
 70
     1
102
RTVSPropertyOp4
 70
     1
102
RTVSPropertyOp5
 70
     1
102
RTVSPropertyOp6
 70
     1
102
RTVSPropertyOp7
 70
     1
102
RTVSPropertyOp8
 70
     1
102
RTVSPropertyOp9
 70
     1
102
RTVSPropertyOp10
 70
     1
102
RTVSPropertyOp11
 70
     1
102
RTVSPropertyOp12
 70
     1
102
RTVSPropertyOp13
 70
     1
102
RTVSPropertyOp14
 70
     1
102
RTVSPropertyOp15
 70
     1
102
RTVSPropertyOp16
 70
     1
102
RTVSPropertyOp17
 70
     1
102
RTVSPropertyOp18
 70
     1
102
RTVSPropertyOp19
 70
     1
102
RTVSPropertyOp20
 70
     1
102
RTVSPropertyOp21
 70
     1
102
RTVSPropertyOp22
 70
     1
102
RTVSPropertyOp23
 70
     1
102
RTVSPropertyOp24
 70
     1
102
RTVSPropertyOp25
 70
     1
102
RTVSPropertyOp26
 70
     1
102
RTVSPropertyOp27
 70
     1
102
RTVSPropertyOp28
 70
     1
102
RTVSPropertyOp29
 70
     1
102
RTVSPropertyOp30
 70
     1
102
RTVSPropertyOp31
 70
     1
102
RTVSPropertyOp32
 70
     1
102
RTVSPropertyOp33
 70
     1
102
RTVSPropertyOp34
 70
     1
102
RTVSPropertyOp35
 70
     1
102
RTVSPropertyOp36
 70
     1
102
RTVSPropertyOp37
 70
     1
102
RTVSPropertyOp38
 70
     1
102
RTVSPropertyOp39
 70
     1
102
RTVSPropertyOp40
 70
     1
102
RTVSPropertyOp41
 70
     1
102
RTVSPropertyOp42
 70
     1
102
RTVSPropertyOp43
 70
     1
102
RTVSPropertyOp44
 70
     1
102
RTVSPropertyOp45
 70
     1
102
RTVSPropertyOp46
 70
     1
102
RTVSPropertyOp47
 70
     1
102
RTVSPropertyOp48
 70
     1
102
RTVSPropertyOp49
 70
     1
102
RTVSPropertyOp50
 70
     1
102
RTVSPropertyOp51
 70
     0
102
RTVSPropertyOp52
 70
     0
102
RTVSPropertyOp53
 70
     1
102
RTVSPropertyOp54
 70
     1
102
RTVSPropertyOp55
 70
     1
102
RTVSPropertyOp56
 70
     1
102
RTVSPropertyOp57
 70
     1
102
RTVSPropertyOp58
 70
     1
102
RTVSPropertyOp59
 70
     1
102
RTVSPropertyOp60
 70
     1
102
RTVSPropertyOp61
 70
     1
102
RTVSPropertyOp62
 70
     1
  0
XRECORD
  5
830B
102
{ACAD_REACTORS
330
830A
102
}
330
830A
100
AcDbXrecord
280
     1
102
RTVSPost2010Prop28
280
     0
102
RTVSPost2010PropOp28
 70
     1
102
RTVSPost2010Prop29
280
     1
102
RTVSPost2010PropOp29
 70
     1
102
RTVSPost2010Prop30
280
     1
102
RTVSPost2010PropOp30
 70
     1
102
RTVSPost2010Prop31
280
     0
102
RTVSPost2010PropOp31
 70
     1
102
RTVSPost2010Prop32
280
     0
102
RTVSPost2010PropOp32
 70
     1
102
RTVSPost2010Prop33
280
     0
102
RTVSPost2010PropOp33
 70
     1
102
RTVSPost2010Prop34
280
     0
102
RTVSPost2010PropOp34
 70
     1
102
RTVSPost2010Prop35
280
     0
102
RTVSPost2010PropOp35
 70
     1
102
RTVSPost2010Prop36
280
     0
102
RTVSPost2010PropOp36
 70
     1
102
RTVSPost2010Prop37
 90
       50
102
RTVSPost2010PropOp37
 70
     1
102
RTVSPost2010Prop38
140
0.0
102
RTVSPost2010PropOp38
 70
     1
102
RTVSPost2010Prop39
140
1.0
102
RTVSPost2010PropOp39
 70
     1
102
RTVSPost2010Prop40
 90
        0
102
RTVSPost2010PropOp40
 70
     1
102
RTVSPost2010Prop41ColorIndex
 90
       18
102
RTVSPost2010Prop41ColorRGB
 90
        0
102
RTVSPost2010PropOp41
 70
     1
102
RTVSPost2010Prop42
 90
       50
102
RTVSPost2010PropOp42
 70
     1
102
RTVSPost2010Prop43
 90
        3
102
RTVSPost2010PropOp43
 70
     1
102
RTVSPost2010Prop44ColorIndex
 90
        5
102
RTVSPost2010Prop44ColorRGB
 90
      255
102
RTVSPost2010PropOp44
 70
     1
102
RTVSPost2010Prop45
280
     0
102
RTVSPost2010PropOp45
 70
     1
102
RTVSPost2010Prop46
 90
       50
102
RTVSPost2010PropOp46
 70
     1
102
RTVSPost2010Prop47
 90
       50
102
RTVSPost2010PropOp47
 70
     1
102
RTVSPost2010Prop48
 90
       50
102
RTVSPost2010PropOp48
 70
     1
102
RTVSPost2010Prop49
280
     0
102
RTVSPost2010PropOp49
 70
     1
102
RTVSPost2010Prop50
 90
       50
102
RTVSPost2010PropOp50
 70
     1
102
RTVSPost2010Prop51ColorIndex
 90
      256
102
RTVSPost2010Prop51ColorRGB
 90
-16777216
102
RTVSPost2010PropOp51
 70
     0
102
RTVSPost2010Prop52
140
1.0
102
RTVSPost2010PropOp52
 70
     0
102
RTVSPost2010Prop53
 90
        2
102
RTVSPost2010PropOp53
 70
     1
102
RTVSPost2010Prop54
  1
strokes_ogs.tif
102
RTVSPost2010PropOp54
 70
     1
102
RTVSPost2010Prop55
280
     0
102
RTVSPost2010PropOp55
 70
     1
102
RTVSPost2010Prop56
140
1.0
102
RTVSPost2010PropOp56
 70
     1
102
RTVSPost2010Prop57
140
1.0
102
RTVSPost2010PropOp57
 70
     1
102
RTVSPropertyOp0
 70
     1
102
RTVSPropertyOp1
 70
     1
102
RTVSPropertyOp2
 70
     1
102
RTVSPropertyOp3
 70
     1
102
RTVSPropertyOp4
 70
     1
102
RTVSPropertyOp5
 70
     1
102
RTVSPropertyOp6
 70
     1
102
RTVSPropertyOp7
 70
     1
102
RTVSPropertyOp8
 70
     1
102
RTVSPropertyOp9
 70
     1
102
RTVSPropertyOp10
 70
     1
102
RTVSPropertyOp11
 70
     1
102
RTVSPropertyOp12
 70
     1
102
RTVSPropertyOp13
 70
     1
102
RTVSPropertyOp14
 70
     1
102
RTVSPropertyOp15
 70
     1
102
RTVSPropertyOp16
 70
     1
102
RTVSPropertyOp17
 70
     1
102
RTVSPropertyOp18
 70
     1
102
RTVSPropertyOp19
 70
     1
102
RTVSPropertyOp20
 70
     1
102
RTVSPropertyOp21
 70
     1
102
RTVSPropertyOp22
 70
     1
102
RTVSPropertyOp23
 70
     1
102
RTVSPropertyOp24
 70
     1
102
RTVSPropertyOp25
 70
     1
102
RTVSPropertyOp26
 70
     1
102
RTVSPropertyOp27
 70
     1
102
RTVSPropertyOp28
 70
     1
102
RTVSPropertyOp29
 70
     1
102
RTVSPropertyOp30
 70
     1
102
RTVSPropertyOp31
 70
     1
102
RTVSPropertyOp32
 70
     1
102
RTVSPropertyOp33
 70
     1
102
RTVSPropertyOp34
 70
     1
102
RTVSPropertyOp35
 70
     1
102
RTVSPropertyOp36
 70
     1
102
RTVSPropertyOp37
 70
     1
102
RTVSPropertyOp38
 70
     1
102
RTVSPropertyOp39
 70
     1
102
RTVSPropertyOp40
 70
     1
102
RTVSPropertyOp41
 70
     1
102
RTVSPropertyOp42
 70
     1
102
RTVSPropertyOp43
 70
     1
102
RTVSPropertyOp44
 70
     1
102
RTVSPropertyOp45
 70
     1
102
RTVSPropertyOp46
 70
     1
102
RTVSPropertyOp47
 70
     1
102
RTVSPropertyOp48
 70
     1
102
RTVSPropertyOp49
 70
     1
102
RTVSPropertyOp50
 70
     1
102
RTVSPropertyOp51
 70
     0
102
RTVSPropertyOp52
 70
     0
102
RTVSPropertyOp53
 70
     1
102
RTVSPropertyOp54
 70
     1
102
RTVSPropertyOp55
 70
     1
102
RTVSPropertyOp56
 70
     1
102
RTVSPropertyOp57
 70
     1
102
RTVSPropertyOp58
 70
     1
102
RTVSPropertyOp59
 70
     1
102
RTVSPropertyOp60
 70
     1
102
RTVSPropertyOp61
 70
     1
102
RTVSPropertyOp62
 70
     1
  0
XRECORD
  5
82FD
102
{ACAD_REACTORS
330
82FC
102
}
330
82FC
100
AcDbXrecord
280
     1
102
RTVSPost2010Prop28
280
     0
102
RTVSPost2010PropOp28
 70
     1
102
RTVSPost2010Prop29
280
     1
102
RTVSPost2010PropOp29
 70
     1
102
RTVSPost2010Prop30
280
     1
102
RTVSPost2010PropOp30
 70
     1
102
RTVSPost2010Prop31
280
     0
102
RTVSPost2010PropOp31
 70
     1
102
RTVSPost2010Prop32
280
     0
102
RTVSPost2010PropOp32
 70
     1
102
RTVSPost2010Prop33
280
     0
102
RTVSPost2010PropOp33
 70
     1
102
RTVSPost2010Prop34
280
     0
102
RTVSPost2010PropOp34
 70
     1
102
RTVSPost2010Prop35
280
     0
102
RTVSPost2010PropOp35
 70
     1
102
RTVSPost2010Prop36
280
     0
102
RTVSPost2010PropOp36
 70
     1
102
RTVSPost2010Prop37
 90
       50
102
RTVSPost2010PropOp37
 70
     1
102
RTVSPost2010Prop38
140
0.0
102
RTVSPost2010PropOp38
 70
     1
102
RTVSPost2010Prop39
140
1.0
102
RTVSPost2010PropOp39
 70
     1
102
RTVSPost2010Prop40
 90
        0
102
RTVSPost2010PropOp40
 70
     1
102
RTVSPost2010Prop41ColorIndex
 90
       18
102
RTVSPost2010Prop41ColorRGB
 90
        0
102
RTVSPost2010PropOp41
 70
     1
102
RTVSPost2010Prop42
 90
       50
102
RTVSPost2010PropOp42
 70
     1
102
RTVSPost2010Prop43
 90
        3
102
RTVSPost2010PropOp43
 70
     1
102
RTVSPost2010Prop44ColorIndex
 90
        5
102
RTVSPost2010Prop44ColorRGB
 90
      255
102
RTVSPost2010PropOp44
 70
     1
102
RTVSPost2010Prop45
280
     0
102
RTVSPost2010PropOp45
 70
     1
102
RTVSPost2010Prop46
 90
       50
102
RTVSPost2010PropOp46
 70
     1
102
RTVSPost2010Prop47
 90
       50
102
RTVSPost2010PropOp47
 70
     1
102
RTVSPost2010Prop48
 90
       50
102
RTVSPost2010PropOp48
 70
     1
102
RTVSPost2010Prop49
280
     0
102
RTVSPost2010PropOp49
 70
     1
102
RTVSPost2010Prop50
 90
       50
102
RTVSPost2010PropOp50
 70
     1
102
RTVSPost2010Prop51ColorIndex
 90
      256
102
RTVSPost2010Prop51ColorRGB
 90
-16777216
102
RTVSPost2010PropOp51
 70
     0
102
RTVSPost2010Prop52
140
1.0
102
RTVSPost2010PropOp52
 70
     0
102
RTVSPost2010Prop53
 90
        2
102
RTVSPost2010PropOp53
 70
     1
102
RTVSPost2010Prop54
  1
strokes_ogs.tif
102
RTVSPost2010PropOp54
 70
     1
102
RTVSPost2010Prop55
280
     0
102
RTVSPost2010PropOp55
 70
     1
102
RTVSPost2010Prop56
140
1.0
102
RTVSPost2010PropOp56
 70
     1
102
RTVSPost2010Prop57
140
1.0
102
RTVSPost2010PropOp57
 70
     1
102
RTVSPropertyOp0
 70
     1
102
RTVSPropertyOp1
 70
     1
102
RTVSPropertyOp2
 70
     1
102
RTVSPropertyOp3
 70
     1
102
RTVSPropertyOp4
 70
     1
102
RTVSPropertyOp5
 70
     1
102
RTVSPropertyOp6
 70
     1
102
RTVSPropertyOp7
 70
     1
102
RTVSPropertyOp8
 70
     1
102
RTVSPropertyOp9
 70
     1
102
RTVSPropertyOp10
 70
     1
102
RTVSPropertyOp11
 70
     1
102
RTVSPropertyOp12
 70
     1
102
RTVSPropertyOp13
 70
     1
102
RTVSPropertyOp14
 70
     1
102
RTVSPropertyOp15
 70
     1
102
RTVSPropertyOp16
 70
     1
102
RTVSPropertyOp17
 70
     1
102
RTVSPropertyOp18
 70
     1
102
RTVSPropertyOp19
 70
     1
102
RTVSPropertyOp20
 70
     1
102
RTVSPropertyOp21
 70
     1
102
RTVSPropertyOp22
 70
     1
102
RTVSPropertyOp23
 70
     1
102
RTVSPropertyOp24
 70
     1
102
RTVSPropertyOp25
 70
     1
102
RTVSPropertyOp26
 70
     1
102
RTVSPropertyOp27
 70
     1
102
RTVSPropertyOp28
 70
     1
102
RTVSPropertyOp29
 70
     1
102
RTVSPropertyOp30
 70
     1
102
RTVSPropertyOp31
 70
     1
102
RTVSPropertyOp32
 70
     1
102
RTVSPropertyOp33
 70
     1
102
RTVSPropertyOp34
 70
     1
102
RTVSPropertyOp35
 70
     1
102
RTVSPropertyOp36
 70
     1
102
RTVSPropertyOp37
 70
     1
102
RTVSPropertyOp38
 70
     1
102
RTVSPropertyOp39
 70
     1
102
RTVSPropertyOp40
 70
     1
102
RTVSPropertyOp41
 70
     1
102
RTVSPropertyOp42
 70
     1
102
RTVSPropertyOp43
 70
     1
102
RTVSPropertyOp44
 70
     1
102
RTVSPropertyOp45
 70
     1
102
RTVSPropertyOp46
 70
     1
102
RTVSPropertyOp47
 70
     1
102
RTVSPropertyOp48
 70
     1
102
RTVSPropertyOp49
 70
     1
102
RTVSPropertyOp50
 70
     1
102
RTVSPropertyOp51
 70
     0
102
RTVSPropertyOp52
 70
     0
102
RTVSPropertyOp53
 70
     1
102
RTVSPropertyOp54
 70
     1
102
RTVSPropertyOp55
 70
     1
102
RTVSPropertyOp56
 70
     1
102
RTVSPropertyOp57
 70
     1
102
RTVSPropertyOp58
 70
     1
102
RTVSPropertyOp59
 70
     1
102
RTVSPropertyOp60
 70
     1
102
RTVSPropertyOp61
 70
     1
102
RTVSPropertyOp62
 70
     1
  0
XRECORD
  5
8301
102
{ACAD_REACTORS
330
8300
102
}
330
8300
100
AcDbXrecord
280
     1
102
RTVSPost2010Prop28
280
     0
102
RTVSPost2010PropOp28
 70
     1
102
RTVSPost2010Prop29
280
     1
102
RTVSPost2010PropOp29
 70
     1
102
RTVSPost2010Prop30
280
     1
102
RTVSPost2010PropOp30
 70
     1
102
RTVSPost2010Prop31
280
     0
102
RTVSPost2010PropOp31
 70
     1
102
RTVSPost2010Prop32
280
     0
102
RTVSPost2010PropOp32
 70
     1
102
RTVSPost2010Prop33
280
     0
102
RTVSPost2010PropOp33
 70
     1
102
RTVSPost2010Prop34
280
     0
102
RTVSPost2010PropOp34
 70
     1
102
RTVSPost2010Prop35
280
     0
102
RTVSPost2010PropOp35
 70
     1
102
RTVSPost2010Prop36
280
     0
102
RTVSPost2010PropOp36
 70
     1
102
RTVSPost2010Prop37
 90
       50
102
RTVSPost2010PropOp37
 70
     1
102
RTVSPost2010Prop38
140
0.0
102
RTVSPost2010PropOp38
 70
     1
102
RTVSPost2010Prop39
140
1.0
102
RTVSPost2010PropOp39
 70
     1
102
RTVSPost2010Prop40
 90
        0
102
RTVSPost2010PropOp40
 70
     1
102
RTVSPost2010Prop41ColorIndex
 90
       18
102
RTVSPost2010Prop41ColorRGB
 90
        0
102
RTVSPost2010PropOp41
 70
     1
102
RTVSPost2010Prop42
 90
       50
102
RTVSPost2010PropOp42
 70
     1
102
RTVSPost2010Prop43
 90
        3
102
RTVSPost2010PropOp43
 70
     1
102
RTVSPost2010Prop44ColorIndex
 90
        5
102
RTVSPost2010Prop44ColorRGB
 90
      255
102
RTVSPost2010PropOp44
 70
     1
102
RTVSPost2010Prop45
280
     0
102
RTVSPost2010PropOp45
 70
     1
102
RTVSPost2010Prop46
 90
       50
102
RTVSPost2010PropOp46
 70
     1
102
RTVSPost2010Prop47
 90
       50
102
RTVSPost2010PropOp47
 70
     1
102
RTVSPost2010Prop48
 90
       50
102
RTVSPost2010PropOp48
 70
     1
102
RTVSPost2010Prop49
280
     0
102
RTVSPost2010PropOp49
 70
     1
102
RTVSPost2010Prop50
 90
       50
102
RTVSPost2010PropOp50
 70
     1
102
RTVSPost2010Prop51ColorIndex
 90
      256
102
RTVSPost2010Prop51ColorRGB
 90
-16777216
102
RTVSPost2010PropOp51
 70
     0
102
RTVSPost2010Prop52
140
1.0
102
RTVSPost2010PropOp52
 70
     0
102
RTVSPost2010Prop53
 90
        2
102
RTVSPost2010PropOp53
 70
     1
102
RTVSPost2010Prop54
  1
strokes_ogs.tif
102
RTVSPost2010PropOp54
 70
     1
102
RTVSPost2010Prop55
280
     0
102
RTVSPost2010PropOp55
 70
     1
102
RTVSPost2010Prop56
140
1.0
102
RTVSPost2010PropOp56
 70
     1
102
RTVSPost2010Prop57
140
1.0
102
RTVSPost2010PropOp57
 70
     1
102
RTVSPropertyOp0
 70
     1
102
RTVSPropertyOp1
 70
     1
102
RTVSPropertyOp2
 70
     1
102
RTVSPropertyOp3
 70
     1
102
RTVSPropertyOp4
 70
     1
102
RTVSPropertyOp5
 70
     1
102
RTVSPropertyOp6
 70
     1
102
RTVSPropertyOp7
 70
     1
102
RTVSPropertyOp8
 70
     1
102
RTVSPropertyOp9
 70
     1
102
RTVSPropertyOp10
 70
     1
102
RTVSPropertyOp11
 70
     1
102
RTVSPropertyOp12
 70
     1
102
RTVSPropertyOp13
 70
     1
102
RTVSPropertyOp14
 70
     1
102
RTVSPropertyOp15
 70
     1
102
RTVSPropertyOp16
 70
     1
102
RTVSPropertyOp17
 70
     1
102
RTVSPropertyOp18
 70
     1
102
RTVSPropertyOp19
 70
     1
102
RTVSPropertyOp20
 70
     1
102
RTVSPropertyOp21
 70
     1
102
RTVSPropertyOp22
 70
     1
102
RTVSPropertyOp23
 70
     1
102
RTVSPropertyOp24
 70
     1
102
RTVSPropertyOp25
 70
     1
102
RTVSPropertyOp26
 70
     1
102
RTVSPropertyOp27
 70
     1
102
RTVSPropertyOp28
 70
     1
102
RTVSPropertyOp29
 70
     1
102
RTVSPropertyOp30
 70
     1
102
RTVSPropertyOp31
 70
     1
102
RTVSPropertyOp32
 70
     1
102
RTVSPropertyOp33
 70
     1
102
RTVSPropertyOp34
 70
     1
102
RTVSPropertyOp35
 70
     1
102
RTVSPropertyOp36
 70
     1
102
RTVSPropertyOp37
 70
     1
102
RTVSPropertyOp38
 70
     1
102
RTVSPropertyOp39
 70
     1
102
RTVSPropertyOp40
 70
     1
102
RTVSPropertyOp41
 70
     1
102
RTVSPropertyOp42
 70
     1
102
RTVSPropertyOp43
 70
     1
102
RTVSPropertyOp44
 70
     1
102
RTVSPropertyOp45
 70
     1
102
RTVSPropertyOp46
 70
     1
102
RTVSPropertyOp47
 70
     1
102
RTVSPropertyOp48
 70
     1
102
RTVSPropertyOp49
 70
     1
102
RTVSPropertyOp50
 70
     1
102
RTVSPropertyOp51
 70
     0
102
RTVSPropertyOp52
 70
     0
102
RTVSPropertyOp53
 70
     1
102
RTVSPropertyOp54
 70
     1
102
RTVSPropertyOp55
 70
     1
102
RTVSPropertyOp56
 70
     1
102
RTVSPropertyOp57
 70
     1
102
RTVSPropertyOp58
 70
     1
102
RTVSPropertyOp59
 70
     1
102
RTVSPropertyOp60
 70
     1
102
RTVSPropertyOp61
 70
     1
102
RTVSPropertyOp62
 70
     1
  0
XRECORD
  5
831B
102
{ACAD_REACTORS
330
831A
102
}
330
831A
100
AcDbXrecord
280
     1
102
RTVSPost2010Prop28
280
     0
102
RTVSPost2010PropOp28
 70
     1
102
RTVSPost2010Prop29
280
     1
102
RTVSPost2010PropOp29
 70
     1
102
RTVSPost2010Prop30
280
     1
102
RTVSPost2010PropOp30
 70
     1
102
RTVSPost2010Prop31
280
     0
102
RTVSPost2010PropOp31
 70
     1
102
RTVSPost2010Prop32
280
     0
102
RTVSPost2010PropOp32
 70
     1
102
RTVSPost2010Prop33
280
     0
102
RTVSPost2010PropOp33
 70
     1
102
RTVSPost2010Prop34
280
     0
102
RTVSPost2010PropOp34
 70
     1
102
RTVSPost2010Prop35
280
     0
102
RTVSPost2010PropOp35
 70
     1
102
RTVSPost2010Prop36
280
     0
102
RTVSPost2010PropOp36
 70
     1
102
RTVSPost2010Prop37
 90
       50
102
RTVSPost2010PropOp37
 70
     0
102
RTVSPost2010Prop38
140
0.0
102
RTVSPost2010PropOp38
 70
     0
102
RTVSPost2010Prop39
140
1.0
102
RTVSPost2010PropOp39
 70
     0
102
RTVSPost2010Prop40
 90
        0
102
RTVSPost2010PropOp40
 70
     0
102
RTVSPost2010Prop41ColorIndex
 90
       18
102
RTVSPost2010Prop41ColorRGB
 90
        0
102
RTVSPost2010PropOp41
 70
     0
102
RTVSPost2010Prop42
 90
       50
102
RTVSPost2010PropOp42
 70
     0
102
RTVSPost2010Prop43
 90
        3
102
RTVSPost2010PropOp43
 70
     0
102
RTVSPost2010Prop44ColorIndex
 90
        5
102
RTVSPost2010Prop44ColorRGB
 90
      255
102
RTVSPost2010PropOp44
 70
     0
102
RTVSPost2010Prop45
280
     0
102
RTVSPost2010PropOp45
 70
     1
102
RTVSPost2010Prop46
 90
       50
102
RTVSPost2010PropOp46
 70
     0
102
RTVSPost2010Prop47
 90
       50
102
RTVSPost2010PropOp47
 70
     0
102
RTVSPost2010Prop48
 90
       50
102
RTVSPost2010PropOp48
 70
     0
102
RTVSPost2010Prop49
280
     0
102
RTVSPost2010PropOp49
 70
     1
102
RTVSPost2010Prop50
 90
       50
102
RTVSPost2010PropOp50
 70
     0
102
RTVSPost2010Prop51ColorIndex
 90
      256
102
RTVSPost2010Prop51ColorRGB
 90
-16777216
102
RTVSPost2010PropOp51
 70
     0
102
RTVSPost2010Prop52
140
1.0
102
RTVSPost2010PropOp52
 70
     0
102
RTVSPost2010Prop53
 90
        2
102
RTVSPost2010PropOp53
 70
     0
102
RTVSPost2010Prop54
  1
strokes_ogs.tif
102
RTVSPost2010PropOp54
 70
     0
102
RTVSPost2010Prop55
280
     0
102
RTVSPost2010PropOp55
 70
     1
102
RTVSPost2010Prop56
140
1.0
102
RTVSPost2010PropOp56
 70
     0
102
RTVSPost2010Prop57
140
1.0
102
RTVSPost2010PropOp57
 70
     0
102
RTVSPropertyOp0
 70
     0
102
RTVSPropertyOp1
 70
     0
102
RTVSPropertyOp2
 70
     0
102
RTVSPropertyOp3
 70
     0
102
RTVSPropertyOp4
 70
     0
102
RTVSPropertyOp5
 70
     0
102
RTVSPropertyOp6
 70
     0
102
RTVSPropertyOp7
 70
     0
102
RTVSPropertyOp8
 70
     0
102
RTVSPropertyOp9
 70
     0
102
RTVSPropertyOp10
 70
     0
102
RTVSPropertyOp11
 70
     0
102
RTVSPropertyOp12
 70
     0
102
RTVSPropertyOp13
 70
     0
102
RTVSPropertyOp14
 70
     2
102
RTVSPropertyOp15
 70
     0
102
RTVSPropertyOp16
 70
     0
102
RTVSPropertyOp17
 70
     0
102
RTVSPropertyOp18
 70
     0
102
RTVSPropertyOp19
 70
     0
102
RTVSPropertyOp20
 70
     0
102
RTVSPropertyOp21
 70
     0
102
RTVSPropertyOp22
 70
     0
102
RTVSPropertyOp23
 70
     0
102
RTVSPropertyOp24
 70
     0
102
RTVSPropertyOp25
 70
     0
102
RTVSPropertyOp26
 70
     0
102
RTVSPropertyOp27
 70
     0
102
RTVSPropertyOp28
 70
     1
102
RTVSPropertyOp29
 70
     1
102
RTVSPropertyOp30
 70
     1
102
RTVSPropertyOp31
 70
     1
102
RTVSPropertyOp32
 70
     1
102
RTVSPropertyOp33
 70
     1
102
RTVSPropertyOp34
 70
     1
102
RTVSPropertyOp35
 70
     1
102
RTVSPropertyOp36
 70
     1
102
RTVSPropertyOp37
 70
     0
102
RTVSPropertyOp38
 70
     0
102
RTVSPropertyOp39
 70
     0
102
RTVSPropertyOp40
 70
     0
102
RTVSPropertyOp41
 70
     0
102
RTVSPropertyOp42
 70
     0
102
RTVSPropertyOp43
 70
     0
102
RTVSPropertyOp44
 70
     0
102
RTVSPropertyOp45
 70
     1
102
RTVSPropertyOp46
 70
     0
102
RTVSPropertyOp47
 70
     0
102
RTVSPropertyOp48
 70
     0
102
RTVSPropertyOp49
 70
     1
102
RTVSPropertyOp50
 70
     0
102
RTVSPropertyOp51
 70
     0
102
RTVSPropertyOp52
 70
     0
102
RTVSPropertyOp53
 70
     0
102
RTVSPropertyOp54
 70
     0
102
RTVSPropertyOp55
 70
     1
102
RTVSPropertyOp56
 70
     0
102
RTVSPropertyOp57
 70
     0
102
RTVSPropertyOp58
 70
     0
102
RTVSPropertyOp59
 70
     0
102
RTVSPropertyOp60
 70
     0
102
RTVSPropertyOp61
 70
     0
102
RTVSPropertyOp62
 70
     0
  0
XRECORD
  5
8309
102
{ACAD_REACTORS
330
8308
102
}
330
8308
100
AcDbXrecord
280
     1
102
RTVSPost2010Prop28
280
     0
102
RTVSPost2010PropOp28
 70
     1
102
RTVSPost2010Prop29
280
     1
102
RTVSPost2010PropOp29
 70
     1
102
RTVSPost2010Prop30
280
     1
102
RTVSPost2010PropOp30
 70
     1
102
RTVSPost2010Prop31
280
     0
102
RTVSPost2010PropOp31
 70
     1
102
RTVSPost2010Prop32
280
     0
102
RTVSPost2010PropOp32
 70
     1
102
RTVSPost2010Prop33
280
     0
102
RTVSPost2010PropOp33
 70
     1
102
RTVSPost2010Prop34
280
     0
102
RTVSPost2010PropOp34
 70
     1
102
RTVSPost2010Prop35
280
     0
102
RTVSPost2010PropOp35
 70
     1
102
RTVSPost2010Prop36
280
     0
102
RTVSPost2010PropOp36
 70
     1
102
RTVSPost2010Prop37
 90
       50
102
RTVSPost2010PropOp37
 70
     1
102
RTVSPost2010Prop38
140
0.0
102
RTVSPost2010PropOp38
 70
     1
102
RTVSPost2010Prop39
140
1.0
102
RTVSPost2010PropOp39
 70
     1
102
RTVSPost2010Prop40
 90
        0
102
RTVSPost2010PropOp40
 70
     1
102
RTVSPost2010Prop41ColorIndex
 90
       18
102
RTVSPost2010Prop41ColorRGB
 90
        0
102
RTVSPost2010PropOp41
 70
     1
102
RTVSPost2010Prop42
 90
       50
102
RTVSPost2010PropOp42
 70
     1
102
RTVSPost2010Prop43
 90
        3
102
RTVSPost2010PropOp43
 70
     1
102
RTVSPost2010Prop44ColorIndex
 90
        5
102
RTVSPost2010Prop44ColorRGB
 90
      255
102
RTVSPost2010PropOp44
 70
     1
102
RTVSPost2010Prop45
280
     0
102
RTVSPost2010PropOp45
 70
     1
102
RTVSPost2010Prop46
 90
       50
102
RTVSPost2010PropOp46
 70
     1
102
RTVSPost2010Prop47
 90
       50
102
RTVSPost2010PropOp47
 70
     1
102
RTVSPost2010Prop48
 90
       50
102
RTVSPost2010PropOp48
 70
     1
102
RTVSPost2010Prop49
280
     0
102
RTVSPost2010PropOp49
 70
     1
102
RTVSPost2010Prop50
 90
       50
102
RTVSPost2010PropOp50
 70
     1
102
RTVSPost2010Prop51ColorIndex
 90
      256
102
RTVSPost2010Prop51ColorRGB
 90
-16777216
102
RTVSPost2010PropOp51
 70
     0
102
RTVSPost2010Prop52
140
1.0
102
RTVSPost2010PropOp52
 70
     0
102
RTVSPost2010Prop53
 90
        2
102
RTVSPost2010PropOp53
 70
     1
102
RTVSPost2010Prop54
  1
strokes_ogs.tif
102
RTVSPost2010PropOp54
 70
     1
102
RTVSPost2010Prop55
280
     0
102
RTVSPost2010PropOp55
 70
     1
102
RTVSPost2010Prop56
140
1.0
102
RTVSPost2010PropOp56
 70
     1
102
RTVSPost2010Prop57
140
1.0
102
RTVSPost2010PropOp57
 70
     1
102
RTVSPropertyOp0
 70
     1
102
RTVSPropertyOp1
 70
     1
102
RTVSPropertyOp2
 70
     1
102
RTVSPropertyOp3
 70
     1
102
RTVSPropertyOp4
 70
     1
102
RTVSPropertyOp5
 70
     1
102
RTVSPropertyOp6
 70
     1
102
RTVSPropertyOp7
 70
     1
102
RTVSPropertyOp8
 70
     1
102
RTVSPropertyOp9
 70
     1
102
RTVSPropertyOp10
 70
     1
102
RTVSPropertyOp11
 70
     1
102
RTVSPropertyOp12
 70
     1
102
RTVSPropertyOp13
 70
     1
102
RTVSPropertyOp14
 70
     1
102
RTVSPropertyOp15
 70
     1
102
RTVSPropertyOp16
 70
     1
102
RTVSPropertyOp17
 70
     1
102
RTVSPropertyOp18
 70
     1
102
RTVSPropertyOp19
 70
     1
102
RTVSPropertyOp20
 70
     1
102
RTVSPropertyOp21
 70
     1
102
RTVSPropertyOp22
 70
     1
102
RTVSPropertyOp23
 70
     1
102
RTVSPropertyOp24
 70
     1
102
RTVSPropertyOp25
 70
     1
102
RTVSPropertyOp26
 70
     1
102
RTVSPropertyOp27
 70
     1
102
RTVSPropertyOp28
 70
     1
102
RTVSPropertyOp29
 70
     1
102
RTVSPropertyOp30
 70
     1
102
RTVSPropertyOp31
 70
     1
102
RTVSPropertyOp32
 70
     1
102
RTVSPropertyOp33
 70
     1
102
RTVSPropertyOp34
 70
     1
102
RTVSPropertyOp35
 70
     1
102
RTVSPropertyOp36
 70
     1
102
RTVSPropertyOp37
 70
     1
102
RTVSPropertyOp38
 70
     1
102
RTVSPropertyOp39
 70
     1
102
RTVSPropertyOp40
 70
     1
102
RTVSPropertyOp41
 70
     1
102
RTVSPropertyOp42
 70
     1
102
RTVSPropertyOp43
 70
     1
102
RTVSPropertyOp44
 70
     1
102
RTVSPropertyOp45
 70
     1
102
RTVSPropertyOp46
 70
     1
102
RTVSPropertyOp47
 70
     1
102
RTVSPropertyOp48
 70
     1
102
RTVSPropertyOp49
 70
     1
102
RTVSPropertyOp50
 70
     1
102
RTVSPropertyOp51
 70
     0
102
RTVSPropertyOp52
 70
     0
102
RTVSPropertyOp53
 70
     1
102
RTVSPropertyOp54
 70
     1
102
RTVSPropertyOp55
 70
     1
102
RTVSPropertyOp56
 70
     1
102
RTVSPropertyOp57
 70
     1
102
RTVSPropertyOp58
 70
     1
102
RTVSPropertyOp59
 70
     1
102
RTVSPropertyOp60
 70
     1
102
RTVSPropertyOp61
 70
     1
102
RTVSPropertyOp62
 70
     1
  0
XRECORD
  5
82ED
102
{ACAD_REACTORS
330
82EC
102
}
330
82EC
100
AcDbXrecord
280
     1
102
RTVSPost2010Prop28
280
     0
102
RTVSPost2010PropOp28
 70
     1
102
RTVSPost2010Prop29
280
     1
102
RTVSPost2010PropOp29
 70
     1
102
RTVSPost2010Prop30
280
     1
102
RTVSPost2010PropOp30
 70
     1
102
RTVSPost2010Prop31
280
     0
102
RTVSPost2010PropOp31
 70
     1
102
RTVSPost2010Prop32
280
     0
102
RTVSPost2010PropOp32
 70
     1
102
RTVSPost2010Prop33
280
     0
102
RTVSPost2010PropOp33
 70
     1
102
RTVSPost2010Prop34
280
     0
102
RTVSPost2010PropOp34
 70
     1
102
RTVSPost2010Prop35
280
     0
102
RTVSPost2010PropOp35
 70
     1
102
RTVSPost2010Prop36
280
     0
102
RTVSPost2010PropOp36
 70
     1
102
RTVSPost2010Prop37
 90
       50
102
RTVSPost2010PropOp37
 70
     1
102
RTVSPost2010Prop38
140
0.0
102
RTVSPost2010PropOp38
 70
     1
102
RTVSPost2010Prop39
140
1.0
102
RTVSPost2010PropOp39
 70
     1
102
RTVSPost2010Prop40
 90
        0
102
RTVSPost2010PropOp40
 70
     1
102
RTVSPost2010Prop41ColorIndex
 90
       18
102
RTVSPost2010Prop41ColorRGB
 90
        0
102
RTVSPost2010PropOp41
 70
     1
102
RTVSPost2010Prop42
 90
       50
102
RTVSPost2010PropOp42
 70
     1
102
RTVSPost2010Prop43
 90
        3
102
RTVSPost2010PropOp43
 70
     1
102
RTVSPost2010Prop44ColorIndex
 90
        5
102
RTVSPost2010Prop44ColorRGB
 90
      255
102
RTVSPost2010PropOp44
 70
     1
102
RTVSPost2010Prop45
280
     0
102
RTVSPost2010PropOp45
 70
     1
102
RTVSPost2010Prop46
 90
       50
102
RTVSPost2010PropOp46
 70
     1
102
RTVSPost2010Prop47
 90
       50
102
RTVSPost2010PropOp47
 70
     1
102
RTVSPost2010Prop48
 90
       50
102
RTVSPost2010PropOp48
 70
     1
102
RTVSPost2010Prop49
280
     0
102
RTVSPost2010PropOp49
 70
     1
102
RTVSPost2010Prop50
 90
       50
102
RTVSPost2010PropOp50
 70
     1
102
RTVSPost2010Prop51ColorIndex
 90
      256
102
RTVSPost2010Prop51ColorRGB
 90
-16777216
102
RTVSPost2010PropOp51
 70
     0
102
RTVSPost2010Prop52
140
1.0
102
RTVSPost2010PropOp52
 70
     0
102
RTVSPost2010Prop53
 90
        2
102
RTVSPost2010PropOp53
 70
     1
102
RTVSPost2010Prop54
  1
strokes_ogs.tif
102
RTVSPost2010PropOp54
 70
     1
102
RTVSPost2010Prop55
280
     0
102
RTVSPost2010PropOp55
 70
     1
102
RTVSPost2010Prop56
140
1.0
102
RTVSPost2010PropOp56
 70
     1
102
RTVSPost2010Prop57
140
1.0
102
RTVSPost2010PropOp57
 70
     1
102
RTVSPropertyOp0
 70
     1
102
RTVSPropertyOp1
 70
     1
102
RTVSPropertyOp2
 70
     1
102
RTVSPropertyOp3
 70
     1
102
RTVSPropertyOp4
 70
     1
102
RTVSPropertyOp5
 70
     1
102
RTVSPropertyOp6
 70
     1
102
RTVSPropertyOp7
 70
     1
102
RTVSPropertyOp8
 70
     1
102
RTVSPropertyOp9
 70
     1
102
RTVSPropertyOp10
 70
     1
102
RTVSPropertyOp11
 70
     1
102
RTVSPropertyOp12
 70
     1
102
RTVSPropertyOp13
 70
     1
102
RTVSPropertyOp14
 70
     1
102
RTVSPropertyOp15
 70
     1
102
RTVSPropertyOp16
 70
     1
102
RTVSPropertyOp17
 70
     1
102
RTVSPropertyOp18
 70
     1
102
RTVSPropertyOp19
 70
     1
102
RTVSPropertyOp20
 70
     1
102
RTVSPropertyOp21
 70
     1
102
RTVSPropertyOp22
 70
     1
102
RTVSPropertyOp23
 70
     1
102
RTVSPropertyOp24
 70
     1
102
RTVSPropertyOp25
 70
     1
102
RTVSPropertyOp26
 70
     1
102
RTVSPropertyOp27
 70
     1
102
RTVSPropertyOp28
 70
     1
102
RTVSPropertyOp29
 70
     1
102
RTVSPropertyOp30
 70
     1
102
RTVSPropertyOp31
 70
     1
102
RTVSPropertyOp32
 70
     1
102
RTVSPropertyOp33
 70
     1
102
RTVSPropertyOp34
 70
     1
102
RTVSPropertyOp35
 70
     1
102
RTVSPropertyOp36
 70
     1
102
RTVSPropertyOp37
 70
     1
102
RTVSPropertyOp38
 70
     1
102
RTVSPropertyOp39
 70
     1
102
RTVSPropertyOp40
 70
     1
102
RTVSPropertyOp41
 70
     1
102
RTVSPropertyOp42
 70
     1
102
RTVSPropertyOp43
 70
     1
102
RTVSPropertyOp44
 70
     1
102
RTVSPropertyOp45
 70
     1
102
RTVSPropertyOp46
 70
     1
102
RTVSPropertyOp47
 70
     1
102
RTVSPropertyOp48
 70
     1
102
RTVSPropertyOp49
 70
     1
102
RTVSPropertyOp50
 70
     1
102
RTVSPropertyOp51
 70
     0
102
RTVSPropertyOp52
 70
     0
102
RTVSPropertyOp53
 70
     1
102
RTVSPropertyOp54
 70
     1
102
RTVSPropertyOp55
 70
     1
102
RTVSPropertyOp56
 70
     1
102
RTVSPropertyOp57
 70
     1
102
RTVSPropertyOp58
 70
     1
102
RTVSPropertyOp59
 70
     1
102
RTVSPropertyOp60
 70
     1
102
RTVSPropertyOp61
 70
     1
102
RTVSPropertyOp62
 70
     1
  0
XRECORD
  5
82EF
102
{ACAD_REACTORS
330
82EE
102
}
330
82EE
100
AcDbXrecord
280
     1
102
RTVSPost2010Prop28
280
     0
102
RTVSPost2010PropOp28
 70
     1
102
RTVSPost2010Prop29
280
     1
102
RTVSPost2010PropOp29
 70
     1
102
RTVSPost2010Prop30
280
     1
102
RTVSPost2010PropOp30
 70
     1
102
RTVSPost2010Prop31
280
     0
102
RTVSPost2010PropOp31
 70
     1
102
RTVSPost2010Prop32
280
     0
102
RTVSPost2010PropOp32
 70
     1
102
RTVSPost2010Prop33
280
     0
102
RTVSPost2010PropOp33
 70
     1
102
RTVSPost2010Prop34
280
     0
102
RTVSPost2010PropOp34
 70
     1
102
RTVSPost2010Prop35
280
     0
102
RTVSPost2010PropOp35
 70
     1
102
RTVSPost2010Prop36
280
     0
102
RTVSPost2010PropOp36
 70
     1
102
RTVSPost2010Prop37
 90
       50
102
RTVSPost2010PropOp37
 70
     1
102
RTVSPost2010Prop38
140
0.0
102
RTVSPost2010PropOp38
 70
     1
102
RTVSPost2010Prop39
140
1.0
102
RTVSPost2010PropOp39
 70
     1
102
RTVSPost2010Prop40
 90
        0
102
RTVSPost2010PropOp40
 70
     1
102
RTVSPost2010Prop41ColorIndex
 90
       18
102
RTVSPost2010Prop41ColorRGB
 90
        0
102
RTVSPost2010PropOp41
 70
     1
102
RTVSPost2010Prop42
 90
       50
102
RTVSPost2010PropOp42
 70
     1
102
RTVSPost2010Prop43
 90
        3
102
RTVSPost2010PropOp43
 70
     1
102
RTVSPost2010Prop44ColorIndex
 90
        5
102
RTVSPost2010Prop44ColorRGB
 90
      255
102
RTVSPost2010PropOp44
 70
     1
102
RTVSPost2010Prop45
280
     0
102
RTVSPost2010PropOp45
 70
     1
102
RTVSPost2010Prop46
 90
       50
102
RTVSPost2010PropOp46
 70
     1
102
RTVSPost2010Prop47
 90
       50
102
RTVSPost2010PropOp47
 70
     1
102
RTVSPost2010Prop48
 90
       50
102
RTVSPost2010PropOp48
 70
     1
102
RTVSPost2010Prop49
280
     0
102
RTVSPost2010PropOp49
 70
     1
102
RTVSPost2010Prop50
 90
       50
102
RTVSPost2010PropOp50
 70
     1
102
RTVSPost2010Prop51ColorIndex
 90
      256
102
RTVSPost2010Prop51ColorRGB
 90
-16777216
102
RTVSPost2010PropOp51
 70
     0
102
RTVSPost2010Prop52
140
1.0
102
RTVSPost2010PropOp52
 70
     0
102
RTVSPost2010Prop53
 90
        2
102
RTVSPost2010PropOp53
 70
     1
102
RTVSPost2010Prop54
  1
strokes_ogs.tif
102
RTVSPost2010PropOp54
 70
     1
102
RTVSPost2010Prop55
280
     0
102
RTVSPost2010PropOp55
 70
     1
102
RTVSPost2010Prop56
140
1.0
102
RTVSPost2010PropOp56
 70
     1
102
RTVSPost2010Prop57
140
1.0
102
RTVSPost2010PropOp57
 70
     1
102
RTVSPropertyOp0
 70
     1
102
RTVSPropertyOp1
 70
     1
102
RTVSPropertyOp2
 70
     1
102
RTVSPropertyOp3
 70
     1
102
RTVSPropertyOp4
 70
     1
102
RTVSPropertyOp5
 70
     1
102
RTVSPropertyOp6
 70
     1
102
RTVSPropertyOp7
 70
     1
102
RTVSPropertyOp8
 70
     1
102
RTVSPropertyOp9
 70
     1
102
RTVSPropertyOp10
 70
     1
102
RTVSPropertyOp11
 70
     1
102
RTVSPropertyOp12
 70
     1
102
RTVSPropertyOp13
 70
     1
102
RTVSPropertyOp14
 70
     1
102
RTVSPropertyOp15
 70
     1
102
RTVSPropertyOp16
 70
     1
102
RTVSPropertyOp17
 70
     1
102
RTVSPropertyOp18
 70
     1
102
RTVSPropertyOp19
 70
     1
102
RTVSPropertyOp20
 70
     1
102
RTVSPropertyOp21
 70
     1
102
RTVSPropertyOp22
 70
     1
102
RTVSPropertyOp23
 70
     1
102
RTVSPropertyOp24
 70
     1
102
RTVSPropertyOp25
 70
     1
102
RTVSPropertyOp26
 70
     1
102
RTVSPropertyOp27
 70
     1
102
RTVSPropertyOp28
 70
     1
102
RTVSPropertyOp29
 70
     1
102
RTVSPropertyOp30
 70
     1
102
RTVSPropertyOp31
 70
     1
102
RTVSPropertyOp32
 70
     1
102
RTVSPropertyOp33
 70
     1
102
RTVSPropertyOp34
 70
     1
102
RTVSPropertyOp35
 70
     1
102
RTVSPropertyOp36
 70
     1
102
RTVSPropertyOp37
 70
     1
102
RTVSPropertyOp38
 70
     1
102
RTVSPropertyOp39
 70
     1
102
RTVSPropertyOp40
 70
     1
102
RTVSPropertyOp41
 70
     1
102
RTVSPropertyOp42
 70
     1
102
RTVSPropertyOp43
 70
     1
102
RTVSPropertyOp44
 70
     1
102
RTVSPropertyOp45
 70
     1
102
RTVSPropertyOp46
 70
     1
102
RTVSPropertyOp47
 70
     1
102
RTVSPropertyOp48
 70
     1
102
RTVSPropertyOp49
 70
     1
102
RTVSPropertyOp50
 70
     1
102
RTVSPropertyOp51
 70
     0
102
RTVSPropertyOp52
 70
     0
102
RTVSPropertyOp53
 70
     1
102
RTVSPropertyOp54
 70
     1
102
RTVSPropertyOp55
 70
     1
102
RTVSPropertyOp56
 70
     1
102
RTVSPropertyOp57
 70
     1
102
RTVSPropertyOp58
 70
     1
102
RTVSPropertyOp59
 70
     1
102
RTVSPropertyOp60
 70
     1
102
RTVSPropertyOp61
 70
     1
102
RTVSPropertyOp62
 70
     1
  0
XRECORD
  5
82F1
102
{ACAD_REACTORS
330
82F0
102
}
330
82F0
100
AcDbXrecord
280
     1
102
RTVSPost2010Prop28
280
     0
102
RTVSPost2010PropOp28
 70
     1
102
RTVSPost2010Prop29
280
     1
102
RTVSPost2010PropOp29
 70
     1
102
RTVSPost2010Prop30
280
     1
102
RTVSPost2010PropOp30
 70
     1
102
RTVSPost2010Prop31
280
     0
102
RTVSPost2010PropOp31
 70
     1
102
RTVSPost2010Prop32
280
     0
102
RTVSPost2010PropOp32
 70
     1
102
RTVSPost2010Prop33
280
     0
102
RTVSPost2010PropOp33
 70
     1
102
RTVSPost2010Prop34
280
     0
102
RTVSPost2010PropOp34
 70
     1
102
RTVSPost2010Prop35
280
     0
102
RTVSPost2010PropOp35
 70
     1
102
RTVSPost2010Prop36
280
     0
102
RTVSPost2010PropOp36
 70
     1
102
RTVSPost2010Prop37
 90
       50
102
RTVSPost2010PropOp37
 70
     1
102
RTVSPost2010Prop38
140
0.0
102
RTVSPost2010PropOp38
 70
     1
102
RTVSPost2010Prop39
140
1.0
102
RTVSPost2010PropOp39
 70
     1
102
RTVSPost2010Prop40
 90
        0
102
RTVSPost2010PropOp40
 70
     1
102
RTVSPost2010Prop41ColorIndex
 90
       18
102
RTVSPost2010Prop41ColorRGB
 90
        0
102
RTVSPost2010PropOp41
 70
     1
102
RTVSPost2010Prop42
 90
       50
102
RTVSPost2010PropOp42
 70
     1
102
RTVSPost2010Prop43
 90
        3
102
RTVSPost2010PropOp43
 70
     1
102
RTVSPost2010Prop44ColorIndex
 90
        5
102
RTVSPost2010Prop44ColorRGB
 90
      255
102
RTVSPost2010PropOp44
 70
     1
102
RTVSPost2010Prop45
280
     0
102
RTVSPost2010PropOp45
 70
     1
102
RTVSPost2010Prop46
 90
       50
102
RTVSPost2010PropOp46
 70
     1
102
RTVSPost2010Prop47
 90
       50
102
RTVSPost2010PropOp47
 70
     1
102
RTVSPost2010Prop48
 90
       50
102
RTVSPost2010PropOp48
 70
     1
102
RTVSPost2010Prop49
280
     0
102
RTVSPost2010PropOp49
 70
     1
102
RTVSPost2010Prop50
 90
       50
102
RTVSPost2010PropOp50
 70
     1
102
RTVSPost2010Prop51ColorIndex
 90
      256
102
RTVSPost2010Prop51ColorRGB
 90
-16777216
102
RTVSPost2010PropOp51
 70
     0
102
RTVSPost2010Prop52
140
1.0
102
RTVSPost2010PropOp52
 70
     0
102
RTVSPost2010Prop53
 90
        2
102
RTVSPost2010PropOp53
 70
     1
102
RTVSPost2010Prop54
  1
strokes_ogs.tif
102
RTVSPost2010PropOp54
 70
     1
102
RTVSPost2010Prop55
280
     0
102
RTVSPost2010PropOp55
 70
     1
102
RTVSPost2010Prop56
140
1.0
102
RTVSPost2010PropOp56
 70
     1
102
RTVSPost2010Prop57
140
1.0
102
RTVSPost2010PropOp57
 70
     1
102
RTVSPropertyOp0
 70
     1
102
RTVSPropertyOp1
 70
     1
102
RTVSPropertyOp2
 70
     1
102
RTVSPropertyOp3
 70
     1
102
RTVSPropertyOp4
 70
     1
102
RTVSPropertyOp5
 70
     1
102
RTVSPropertyOp6
 70
     1
102
RTVSPropertyOp7
 70
     1
102
RTVSPropertyOp8
 70
     1
102
RTVSPropertyOp9
 70
     1
102
RTVSPropertyOp10
 70
     1
102
RTVSPropertyOp11
 70
     1
102
RTVSPropertyOp12
 70
     1
102
RTVSPropertyOp13
 70
     1
102
RTVSPropertyOp14
 70
     1
102
RTVSPropertyOp15
 70
     1
102
RTVSPropertyOp16
 70
     1
102
RTVSPropertyOp17
 70
     1
102
RTVSPropertyOp18
 70
     1
102
RTVSPropertyOp19
 70
     1
102
RTVSPropertyOp20
 70
     1
102
RTVSPropertyOp21
 70
     1
102
RTVSPropertyOp22
 70
     1
102
RTVSPropertyOp23
 70
     1
102
RTVSPropertyOp24
 70
     1
102
RTVSPropertyOp25
 70
     1
102
RTVSPropertyOp26
 70
     1
102
RTVSPropertyOp27
 70
     1
102
RTVSPropertyOp28
 70
     1
102
RTVSPropertyOp29
 70
     1
102
RTVSPropertyOp30
 70
     1
102
RTVSPropertyOp31
 70
     1
102
RTVSPropertyOp32
 70
     1
102
RTVSPropertyOp33
 70
     1
102
RTVSPropertyOp34
 70
     1
102
RTVSPropertyOp35
 70
     1
102
RTVSPropertyOp36
 70
     1
102
RTVSPropertyOp37
 70
     1
102
RTVSPropertyOp38
 70
     1
102
RTVSPropertyOp39
 70
     1
102
RTVSPropertyOp40
 70
     1
102
RTVSPropertyOp41
 70
     1
102
RTVSPropertyOp42
 70
     1
102
RTVSPropertyOp43
 70
     1
102
RTVSPropertyOp44
 70
     1
102
RTVSPropertyOp45
 70
     1
102
RTVSPropertyOp46
 70
     1
102
RTVSPropertyOp47
 70
     1
102
RTVSPropertyOp48
 70
     1
102
RTVSPropertyOp49
 70
     1
102
RTVSPropertyOp50
 70
     1
102
RTVSPropertyOp51
 70
     0
102
RTVSPropertyOp52
 70
     0
102
RTVSPropertyOp53
 70
     1
102
RTVSPropertyOp54
 70
     1
102
RTVSPropertyOp55
 70
     1
102
RTVSPropertyOp56
 70
     1
102
RTVSPropertyOp57
 70
     1
102
RTVSPropertyOp58
 70
     1
102
RTVSPropertyOp59
 70
     1
102
RTVSPropertyOp60
 70
     1
102
RTVSPropertyOp61
 70
     1
102
RTVSPropertyOp62
 70
     1
  0
XRECORD
  5
82F3
102
{ACAD_REACTORS
330
82F2
102
}
330
82F2
100
AcDbXrecord
280
     1
102
RTVSPost2010Prop28
280
     0
102
RTVSPost2010PropOp28
 70
     1
102
RTVSPost2010Prop29
280
     1
102
RTVSPost2010PropOp29
 70
     1
102
RTVSPost2010Prop30
280
     1
102
RTVSPost2010PropOp30
 70
     1
102
RTVSPost2010Prop31
280
     0
102
RTVSPost2010PropOp31
 70
     1
102
RTVSPost2010Prop32
280
     0
102
RTVSPost2010PropOp32
 70
     1
102
RTVSPost2010Prop33
280
     0
102
RTVSPost2010PropOp33
 70
     1
102
RTVSPost2010Prop34
280
     0
102
RTVSPost2010PropOp34
 70
     1
102
RTVSPost2010Prop35
280
     0
102
RTVSPost2010PropOp35
 70
     1
102
RTVSPost2010Prop36
280
     0
102
RTVSPost2010PropOp36
 70
     1
102
RTVSPost2010Prop37
 90
       50
102
RTVSPost2010PropOp37
 70
     1
102
RTVSPost2010Prop38
140
0.0
102
RTVSPost2010PropOp38
 70
     1
102
RTVSPost2010Prop39
140
1.0
102
RTVSPost2010PropOp39
 70
     1
102
RTVSPost2010Prop40
 90
        0
102
RTVSPost2010PropOp40
 70
     1
102
RTVSPost2010Prop41ColorIndex
 90
       18
102
RTVSPost2010Prop41ColorRGB
 90
        0
102
RTVSPost2010PropOp41
 70
     1
102
RTVSPost2010Prop42
 90
       50
102
RTVSPost2010PropOp42
 70
     1
102
RTVSPost2010Prop43
 90
        3
102
RTVSPost2010PropOp43
 70
     1
102
RTVSPost2010Prop44ColorIndex
 90
        5
102
RTVSPost2010Prop44ColorRGB
 90
      255
102
RTVSPost2010PropOp44
 70
     1
102
RTVSPost2010Prop45
280
     0
102
RTVSPost2010PropOp45
 70
     1
102
RTVSPost2010Prop46
 90
       50
102
RTVSPost2010PropOp46
 70
     1
102
RTVSPost2010Prop47
 90
       50
102
RTVSPost2010PropOp47
 70
     1
102
RTVSPost2010Prop48
 90
       50
102
RTVSPost2010PropOp48
 70
     1
102
RTVSPost2010Prop49
280
     0
102
RTVSPost2010PropOp49
 70
     1
102
RTVSPost2010Prop50
 90
       50
102
RTVSPost2010PropOp50
 70
     1
102
RTVSPost2010Prop51ColorIndex
 90
      256
102
RTVSPost2010Prop51ColorRGB
 90
-16777216
102
RTVSPost2010PropOp51
 70
     0
102
RTVSPost2010Prop52
140
1.0
102
RTVSPost2010PropOp52
 70
     0
102
RTVSPost2010Prop53
 90
        2
102
RTVSPost2010PropOp53
 70
     1
102
RTVSPost2010Prop54
  1
strokes_ogs.tif
102
RTVSPost2010PropOp54
 70
     1
102
RTVSPost2010Prop55
280
     0
102
RTVSPost2010PropOp55
 70
     1
102
RTVSPost2010Prop56
140
1.0
102
RTVSPost2010PropOp56
 70
     1
102
RTVSPost2010Prop57
140
1.0
102
RTVSPost2010PropOp57
 70
     1
102
RTVSPropertyOp0
 70
     1
102
RTVSPropertyOp1
 70
     1
102
RTVSPropertyOp2
 70
     1
102
RTVSPropertyOp3
 70
     1
102
RTVSPropertyOp4
 70
     1
102
RTVSPropertyOp5
 70
     1
102
RTVSPropertyOp6
 70
     1
102
RTVSPropertyOp7
 70
     1
102
RTVSPropertyOp8
 70
     1
102
RTVSPropertyOp9
 70
     1
102
RTVSPropertyOp10
 70
     1
102
RTVSPropertyOp11
 70
     1
102
RTVSPropertyOp12
 70
     1
102
RTVSPropertyOp13
 70
     1
102
RTVSPropertyOp14
 70
     1
102
RTVSPropertyOp15
 70
     1
102
RTVSPropertyOp16
 70
     1
102
RTVSPropertyOp17
 70
     1
102
RTVSPropertyOp18
 70
     1
102
RTVSPropertyOp19
 70
     1
102
RTVSPropertyOp20
 70
     1
102
RTVSPropertyOp21
 70
     1
102
RTVSPropertyOp22
 70
     1
102
RTVSPropertyOp23
 70
     1
102
RTVSPropertyOp24
 70
     1
102
RTVSPropertyOp25
 70
     1
102
RTVSPropertyOp26
 70
     1
102
RTVSPropertyOp27
 70
     1
102
RTVSPropertyOp28
 70
     1
102
RTVSPropertyOp29
 70
     1
102
RTVSPropertyOp30
 70
     1
102
RTVSPropertyOp31
 70
     1
102
RTVSPropertyOp32
 70
     1
102
RTVSPropertyOp33
 70
     1
102
RTVSPropertyOp34
 70
     1
102
RTVSPropertyOp35
 70
     1
102
RTVSPropertyOp36
 70
     1
102
RTVSPropertyOp37
 70
     1
102
RTVSPropertyOp38
 70
     1
102
RTVSPropertyOp39
 70
     1
102
RTVSPropertyOp40
 70
     1
102
RTVSPropertyOp41
 70
     1
102
RTVSPropertyOp42
 70
     1
102
RTVSPropertyOp43
 70
     1
102
RTVSPropertyOp44
 70
     1
102
RTVSPropertyOp45
 70
     1
102
RTVSPropertyOp46
 70
     1
102
RTVSPropertyOp47
 70
     1
102
RTVSPropertyOp48
 70
     1
102
RTVSPropertyOp49
 70
     1
102
RTVSPropertyOp50
 70
     1
102
RTVSPropertyOp51
 70
     0
102
RTVSPropertyOp52
 70
     0
102
RTVSPropertyOp53
 70
     1
102
RTVSPropertyOp54
 70
     1
102
RTVSPropertyOp55
 70
     1
102
RTVSPropertyOp56
 70
     1
102
RTVSPropertyOp57
 70
     1
102
RTVSPropertyOp58
 70
     1
102
RTVSPropertyOp59
 70
     1
102
RTVSPropertyOp60
 70
     1
102
RTVSPropertyOp61
 70
     1
102
RTVSPropertyOp62
 70
     1
  0
XRECORD
  5
82FB
102
{ACAD_REACTORS
330
82FA
102
}
330
82FA
100
AcDbXrecord
280
     1
102
RTVSPost2010Prop28
280
     0
102
RTVSPost2010PropOp28
 70
     1
102
RTVSPost2010Prop29
280
     1
102
RTVSPost2010PropOp29
 70
     1
102
RTVSPost2010Prop30
280
     1
102
RTVSPost2010PropOp30
 70
     1
102
RTVSPost2010Prop31
280
     0
102
RTVSPost2010PropOp31
 70
     1
102
RTVSPost2010Prop32
280
     0
102
RTVSPost2010PropOp32
 70
     1
102
RTVSPost2010Prop33
280
     0
102
RTVSPost2010PropOp33
 70
     1
102
RTVSPost2010Prop34
280
     0
102
RTVSPost2010PropOp34
 70
     1
102
RTVSPost2010Prop35
280
     0
102
RTVSPost2010PropOp35
 70
     1
102
RTVSPost2010Prop36
280
     0
102
RTVSPost2010PropOp36
 70
     1
102
RTVSPost2010Prop37
 90
       50
102
RTVSPost2010PropOp37
 70
     1
102
RTVSPost2010Prop38
140
0.0
102
RTVSPost2010PropOp38
 70
     1
102
RTVSPost2010Prop39
140
1.0
102
RTVSPost2010PropOp39
 70
     1
102
RTVSPost2010Prop40
 90
        0
102
RTVSPost2010PropOp40
 70
     1
102
RTVSPost2010Prop41ColorIndex
 90
       18
102
RTVSPost2010Prop41ColorRGB
 90
        0
102
RTVSPost2010PropOp41
 70
     1
102
RTVSPost2010Prop42
 90
       50
102
RTVSPost2010PropOp42
 70
     1
102
RTVSPost2010Prop43
 90
        3
102
RTVSPost2010PropOp43
 70
     1
102
RTVSPost2010Prop44ColorIndex
 90
        5
102
RTVSPost2010Prop44ColorRGB
 90
      255
102
RTVSPost2010PropOp44
 70
     1
102
RTVSPost2010Prop45
280
     0
102
RTVSPost2010PropOp45
 70
     1
102
RTVSPost2010Prop46
 90
       50
102
RTVSPost2010PropOp46
 70
     1
102
RTVSPost2010Prop47
 90
       50
102
RTVSPost2010PropOp47
 70
     1
102
RTVSPost2010Prop48
 90
       50
102
RTVSPost2010PropOp48
 70
     1
102
RTVSPost2010Prop49
280
     0
102
RTVSPost2010PropOp49
 70
     1
102
RTVSPost2010Prop50
 90
       50
102
RTVSPost2010PropOp50
 70
     1
102
RTVSPost2010Prop51ColorIndex
 90
      256
102
RTVSPost2010Prop51ColorRGB
 90
-16777216
102
RTVSPost2010PropOp51
 70
     0
102
RTVSPost2010Prop52
140
1.0
102
RTVSPost2010PropOp52
 70
     0
102
RTVSPost2010Prop53
 90
        2
102
RTVSPost2010PropOp53
 70
     1
102
RTVSPost2010Prop54
  1
strokes_ogs.tif
102
RTVSPost2010PropOp54
 70
     1
102
RTVSPost2010Prop55
280
     0
102
RTVSPost2010PropOp55
 70
     1
102
RTVSPost2010Prop56
140
1.0
102
RTVSPost2010PropOp56
 70
     1
102
RTVSPost2010Prop57
140
1.0
102
RTVSPost2010PropOp57
 70
     1
102
RTVSPropertyOp0
 70
     1
102
RTVSPropertyOp1
 70
     1
102
RTVSPropertyOp2
 70
     1
102
RTVSPropertyOp3
 70
     1
102
RTVSPropertyOp4
 70
     1
102
RTVSPropertyOp5
 70
     1
102
RTVSPropertyOp6
 70
     1
102
RTVSPropertyOp7
 70
     1
102
RTVSPropertyOp8
 70
     1
102
RTVSPropertyOp9
 70
     1
102
RTVSPropertyOp10
 70
     1
102
RTVSPropertyOp11
 70
     1
102
RTVSPropertyOp12
 70
     1
102
RTVSPropertyOp13
 70
     1
102
RTVSPropertyOp14
 70
     1
102
RTVSPropertyOp15
 70
     1
102
RTVSPropertyOp16
 70
     1
102
RTVSPropertyOp17
 70
     1
102
RTVSPropertyOp18
 70
     1
102
RTVSPropertyOp19
 70
     1
102
RTVSPropertyOp20
 70
     1
102
RTVSPropertyOp21
 70
     1
102
RTVSPropertyOp22
 70
     1
102
RTVSPropertyOp23
 70
     1
102
RTVSPropertyOp24
 70
     1
102
RTVSPropertyOp25
 70
     1
102
RTVSPropertyOp26
 70
     1
102
RTVSPropertyOp27
 70
     1
102
RTVSPropertyOp28
 70
     1
102
RTVSPropertyOp29
 70
     1
102
RTVSPropertyOp30
 70
     1
102
RTVSPropertyOp31
 70
     1
102
RTVSPropertyOp32
 70
     1
102
RTVSPropertyOp33
 70
     1
102
RTVSPropertyOp34
 70
     1
102
RTVSPropertyOp35
 70
     1
102
RTVSPropertyOp36
 70
     1
102
RTVSPropertyOp37
 70
     1
102
RTVSPropertyOp38
 70
     1
102
RTVSPropertyOp39
 70
     1
102
RTVSPropertyOp40
 70
     1
102
RTVSPropertyOp41
 70
     1
102
RTVSPropertyOp42
 70
     1
102
RTVSPropertyOp43
 70
     1
102
RTVSPropertyOp44
 70
     1
102
RTVSPropertyOp45
 70
     1
102
RTVSPropertyOp46
 70
     1
102
RTVSPropertyOp47
 70
     1
102
RTVSPropertyOp48
 70
     1
102
RTVSPropertyOp49
 70
     1
102
RTVSPropertyOp50
 70
     1
102
RTVSPropertyOp51
 70
     0
102
RTVSPropertyOp52
 70
     0
102
RTVSPropertyOp53
 70
     1
102
RTVSPropertyOp54
 70
     1
102
RTVSPropertyOp55
 70
     1
102
RTVSPropertyOp56
 70
     1
102
RTVSPropertyOp57
 70
     1
102
RTVSPropertyOp58
 70
     1
102
RTVSPropertyOp59
 70
     1
102
RTVSPropertyOp60
 70
     1
102
RTVSPropertyOp61
 70
     1
102
RTVSPropertyOp62
 70
     1
  0
XRECORD
  5
8317
102
{ACAD_REACTORS
330
8316
102
}
330
8316
100
AcDbXrecord
280
     1
102
RTVSPost2010Prop28
280
     0
102
RTVSPost2010PropOp28
 70
     1
102
RTVSPost2010Prop29
280
     1
102
RTVSPost2010PropOp29
 70
     1
102
RTVSPost2010Prop30
280
     1
102
RTVSPost2010PropOp30
 70
     1
102
RTVSPost2010Prop31
280
     0
102
RTVSPost2010PropOp31
 70
     1
102
RTVSPost2010Prop32
280
     0
102
RTVSPost2010PropOp32
 70
     1
102
RTVSPost2010Prop33
280
     0
102
RTVSPost2010PropOp33
 70
     1
102
RTVSPost2010Prop34
280
     0
102
RTVSPost2010PropOp34
 70
     1
102
RTVSPost2010Prop35
280
     0
102
RTVSPost2010PropOp35
 70
     1
102
RTVSPost2010Prop36
280
     0
102
RTVSPost2010PropOp36
 70
     1
102
RTVSPost2010Prop37
 90
       50
102
RTVSPost2010PropOp37
 70
     0
102
RTVSPost2010Prop38
140
0.0
102
RTVSPost2010PropOp38
 70
     0
102
RTVSPost2010Prop39
140
1.0
102
RTVSPost2010PropOp39
 70
     0
102
RTVSPost2010Prop40
 90
        0
102
RTVSPost2010PropOp40
 70
     0
102
RTVSPost2010Prop41ColorIndex
 90
       18
102
RTVSPost2010Prop41ColorRGB
 90
        0
102
RTVSPost2010PropOp41
 70
     0
102
RTVSPost2010Prop42
 90
       50
102
RTVSPost2010PropOp42
 70
     0
102
RTVSPost2010Prop43
 90
        3
102
RTVSPost2010PropOp43
 70
     0
102
RTVSPost2010Prop44ColorIndex
 90
        5
102
RTVSPost2010Prop44ColorRGB
 90
      255
102
RTVSPost2010PropOp44
 70
     0
102
RTVSPost2010Prop45
280
     0
102
RTVSPost2010PropOp45
 70
     1
102
RTVSPost2010Prop46
 90
       50
102
RTVSPost2010PropOp46
 70
     0
102
RTVSPost2010Prop47
 90
       50
102
RTVSPost2010PropOp47
 70
     0
102
RTVSPost2010Prop48
 90
       50
102
RTVSPost2010PropOp48
 70
     0
102
RTVSPost2010Prop49
280
     0
102
RTVSPost2010PropOp49
 70
     1
102
RTVSPost2010Prop50
 90
       50
102
RTVSPost2010PropOp50
 70
     0
102
RTVSPost2010Prop51ColorIndex
 90
      256
102
RTVSPost2010Prop51ColorRGB
 90
-16777216
102
RTVSPost2010PropOp51
 70
     0
102
RTVSPost2010Prop52
140
1.0
102
RTVSPost2010PropOp52
 70
     0
102
RTVSPost2010Prop53
 90
        2
102
RTVSPost2010PropOp53
 70
     0
102
RTVSPost2010Prop54
  1
strokes_ogs.tif
102
RTVSPost2010PropOp54
 70
     0
102
RTVSPost2010Prop55
280
     0
102
RTVSPost2010PropOp55
 70
     1
102
RTVSPost2010Prop56
140
1.0
102
RTVSPost2010PropOp56
 70
     0
102
RTVSPost2010Prop57
140
1.0
102
RTVSPost2010PropOp57
 70
     0
102
RTVSPropertyOp0
 70
     0
102
RTVSPropertyOp1
 70
     0
102
RTVSPropertyOp2
 70
     0
102
RTVSPropertyOp3
 70
     0
102
RTVSPropertyOp4
 70
     0
102
RTVSPropertyOp5
 70
     0
102
RTVSPropertyOp6
 70
     0
102
RTVSPropertyOp7
 70
     0
102
RTVSPropertyOp8
 70
     0
102
RTVSPropertyOp9
 70
     0
102
RTVSPropertyOp10
 70
     0
102
RTVSPropertyOp11
 70
     0
102
RTVSPropertyOp12
 70
     0
102
RTVSPropertyOp13
 70
     0
102
RTVSPropertyOp14
 70
     2
102
RTVSPropertyOp15
 70
     0
102
RTVSPropertyOp16
 70
     0
102
RTVSPropertyOp17
 70
     0
102
RTVSPropertyOp18
 70
     0
102
RTVSPropertyOp19
 70
     0
102
RTVSPropertyOp20
 70
     0
102
RTVSPropertyOp21
 70
     0
102
RTVSPropertyOp22
 70
     0
102
RTVSPropertyOp23
 70
     0
102
RTVSPropertyOp24
 70
     0
102
RTVSPropertyOp25
 70
     0
102
RTVSPropertyOp26
 70
     0
102
RTVSPropertyOp27
 70
     0
102
RTVSPropertyOp28
 70
     1
102
RTVSPropertyOp29
 70
     1
102
RTVSPropertyOp30
 70
     1
102
RTVSPropertyOp31
 70
     1
102
RTVSPropertyOp32
 70
     1
102
RTVSPropertyOp33
 70
     1
102
RTVSPropertyOp34
 70
     1
102
RTVSPropertyOp35
 70
     1
102
RTVSPropertyOp36
 70
     1
102
RTVSPropertyOp37
 70
     0
102
RTVSPropertyOp38
 70
     0
102
RTVSPropertyOp39
 70
     0
102
RTVSPropertyOp40
 70
     0
102
RTVSPropertyOp41
 70
     0
102
RTVSPropertyOp42
 70
     0
102
RTVSPropertyOp43
 70
     0
102
RTVSPropertyOp44
 70
     0
102
RTVSPropertyOp45
 70
     1
102
RTVSPropertyOp46
 70
     0
102
RTVSPropertyOp47
 70
     0
102
RTVSPropertyOp48
 70
     0
102
RTVSPropertyOp49
 70
     1
102
RTVSPropertyOp50
 70
     0
102
RTVSPropertyOp51
 70
     0
102
RTVSPropertyOp52
 70
     0
102
RTVSPropertyOp53
 70
     0
102
RTVSPropertyOp54
 70
     0
102
RTVSPropertyOp55
 70
     1
102
RTVSPropertyOp56
 70
     0
102
RTVSPropertyOp57
 70
     0
102
RTVSPropertyOp58
 70
     0
102
RTVSPropertyOp59
 70
     0
102
RTVSPropertyOp60
 70
     0
102
RTVSPropertyOp61
 70
     0
102
RTVSPropertyOp62
 70
     0
  0
XRECORD
  5
8307
102
{ACAD_REACTORS
330
8306
102
}
330
8306
100
AcDbXrecord
280
     1
102
RTVSPost2010Prop28
280
     0
102
RTVSPost2010PropOp28
 70
     1
102
RTVSPost2010Prop29
280
     1
102
RTVSPost2010PropOp29
 70
     1
102
RTVSPost2010Prop30
280
     1
102
RTVSPost2010PropOp30
 70
     1
102
RTVSPost2010Prop31
280
     0
102
RTVSPost2010PropOp31
 70
     1
102
RTVSPost2010Prop32
280
     0
102
RTVSPost2010PropOp32
 70
     1
102
RTVSPost2010Prop33
280
     0
102
RTVSPost2010PropOp33
 70
     1
102
RTVSPost2010Prop34
280
     0
102
RTVSPost2010PropOp34
 70
     1
102
RTVSPost2010Prop35
280
     0
102
RTVSPost2010PropOp35
 70
     1
102
RTVSPost2010Prop36
280
     0
102
RTVSPost2010PropOp36
 70
     1
102
RTVSPost2010Prop37
 90
       50
102
RTVSPost2010PropOp37
 70
     1
102
RTVSPost2010Prop38
140
0.0
102
RTVSPost2010PropOp38
 70
     1
102
RTVSPost2010Prop39
140
1.0
102
RTVSPost2010PropOp39
 70
     1
102
RTVSPost2010Prop40
 90
        0
102
RTVSPost2010PropOp40
 70
     1
102
RTVSPost2010Prop41ColorIndex
 90
       18
102
RTVSPost2010Prop41ColorRGB
 90
        0
102
RTVSPost2010PropOp41
 70
     1
102
RTVSPost2010Prop42
 90
       50
102
RTVSPost2010PropOp42
 70
     1
102
RTVSPost2010Prop43
 90
        3
102
RTVSPost2010PropOp43
 70
     1
102
RTVSPost2010Prop44ColorIndex
 90
        5
102
RTVSPost2010Prop44ColorRGB
 90
      255
102
RTVSPost2010PropOp44
 70
     1
102
RTVSPost2010Prop45
280
     0
102
RTVSPost2010PropOp45
 70
     1
102
RTVSPost2010Prop46
 90
       50
102
RTVSPost2010PropOp46
 70
     1
102
RTVSPost2010Prop47
 90
       50
102
RTVSPost2010PropOp47
 70
     1
102
RTVSPost2010Prop48
 90
       50
102
RTVSPost2010PropOp48
 70
     1
102
RTVSPost2010Prop49
280
     0
102
RTVSPost2010PropOp49
 70
     1
102
RTVSPost2010Prop50
 90
       50
102
RTVSPost2010PropOp50
 70
     1
102
RTVSPost2010Prop51ColorIndex
 90
      256
102
RTVSPost2010Prop51ColorRGB
 90
-16777216
102
RTVSPost2010PropOp51
 70
     0
102
RTVSPost2010Prop52
140
1.0
102
RTVSPost2010PropOp52
 70
     0
102
RTVSPost2010Prop53
 90
        2
102
RTVSPost2010PropOp53
 70
     1
102
RTVSPost2010Prop54
  1
strokes_ogs.tif
102
RTVSPost2010PropOp54
 70
     1
102
RTVSPost2010Prop55
280
     0
102
RTVSPost2010PropOp55
 70
     1
102
RTVSPost2010Prop56
140
1.0
102
RTVSPost2010PropOp56
 70
     1
102
RTVSPost2010Prop57
140
1.0
102
RTVSPost2010PropOp57
 70
     1
102
RTVSPropertyOp0
 70
     1
102
RTVSPropertyOp1
 70
     1
102
RTVSPropertyOp2
 70
     1
102
RTVSPropertyOp3
 70
     1
102
RTVSPropertyOp4
 70
     1
102
RTVSPropertyOp5
 70
     1
102
RTVSPropertyOp6
 70
     1
102
RTVSPropertyOp7
 70
     1
102
RTVSPropertyOp8
 70
     1
102
RTVSPropertyOp9
 70
     1
102
RTVSPropertyOp10
 70
     1
102
RTVSPropertyOp11
 70
     1
102
RTVSPropertyOp12
 70
     1
102
RTVSPropertyOp13
 70
     1
102
RTVSPropertyOp14
 70
     1
102
RTVSPropertyOp15
 70
     1
102
RTVSPropertyOp16
 70
     1
102
RTVSPropertyOp17
 70
     1
102
RTVSPropertyOp18
 70
     1
102
RTVSPropertyOp19
 70
     1
102
RTVSPropertyOp20
 70
     1
102
RTVSPropertyOp21
 70
     1
102
RTVSPropertyOp22
 70
     1
102
RTVSPropertyOp23
 70
     1
102
RTVSPropertyOp24
 70
     1
102
RTVSPropertyOp25
 70
     1
102
RTVSPropertyOp26
 70
     1
102
RTVSPropertyOp27
 70
     1
102
RTVSPropertyOp28
 70
     1
102
RTVSPropertyOp29
 70
     1
102
RTVSPropertyOp30
 70
     1
102
RTVSPropertyOp31
 70
     1
102
RTVSPropertyOp32
 70
     1
102
RTVSPropertyOp33
 70
     1
102
RTVSPropertyOp34
 70
     1
102
RTVSPropertyOp35
 70
     1
102
RTVSPropertyOp36
 70
     1
102
RTVSPropertyOp37
 70
     1
102
RTVSPropertyOp38
 70
     1
102
RTVSPropertyOp39
 70
     1
102
RTVSPropertyOp40
 70
     1
102
RTVSPropertyOp41
 70
     1
102
RTVSPropertyOp42
 70
     1
102
RTVSPropertyOp43
 70
     1
102
RTVSPropertyOp44
 70
     1
102
RTVSPropertyOp45
 70
     1
102
RTVSPropertyOp46
 70
     1
102
RTVSPropertyOp47
 70
     1
102
RTVSPropertyOp48
 70
     1
102
RTVSPropertyOp49
 70
     1
102
RTVSPropertyOp50
 70
     1
102
RTVSPropertyOp51
 70
     0
102
RTVSPropertyOp52
 70
     0
102
RTVSPropertyOp53
 70
     1
102
RTVSPropertyOp54
 70
     1
102
RTVSPropertyOp55
 70
     1
102
RTVSPropertyOp56
 70
     1
102
RTVSPropertyOp57
 70
     1
102
RTVSPropertyOp58
 70
     1
102
RTVSPropertyOp59
 70
     1
102
RTVSPropertyOp60
 70
     1
102
RTVSPropertyOp61
 70
     1
102
RTVSPropertyOp62
 70
     1
  0
XRECORD
  5
8319
102
{ACAD_REACTORS
330
8318
102
}
330
8318
100
AcDbXrecord
280
     1
102
RTVSPost2010Prop28
280
     0
102
RTVSPost2010PropOp28
 70
     1
102
RTVSPost2010Prop29
280
     1
102
RTVSPost2010PropOp29
 70
     1
102
RTVSPost2010Prop30
280
     1
102
RTVSPost2010PropOp30
 70
     1
102
RTVSPost2010Prop31
280
     0
102
RTVSPost2010PropOp31
 70
     1
102
RTVSPost2010Prop32
280
     0
102
RTVSPost2010PropOp32
 70
     1
102
RTVSPost2010Prop33
280
     0
102
RTVSPost2010PropOp33
 70
     1
102
RTVSPost2010Prop34
280
     0
102
RTVSPost2010PropOp34
 70
     1
102
RTVSPost2010Prop35
280
     0
102
RTVSPost2010PropOp35
 70
     1
102
RTVSPost2010Prop36
280
     0
102
RTVSPost2010PropOp36
 70
     1
102
RTVSPost2010Prop37
 90
       50
102
RTVSPost2010PropOp37
 70
     0
102
RTVSPost2010Prop38
140
0.0
102
RTVSPost2010PropOp38
 70
     0
102
RTVSPost2010Prop39
140
1.0
102
RTVSPost2010PropOp39
 70
     0
102
RTVSPost2010Prop40
 90
        0
102
RTVSPost2010PropOp40
 70
     0
102
RTVSPost2010Prop41ColorIndex
 90
       18
102
RTVSPost2010Prop41ColorRGB
 90
        0
102
RTVSPost2010PropOp41
 70
     0
102
RTVSPost2010Prop42
 90
       50
102
RTVSPost2010PropOp42
 70
     0
102
RTVSPost2010Prop43
 90
        3
102
RTVSPost2010PropOp43
 70
     0
102
RTVSPost2010Prop44ColorIndex
 90
        5
102
RTVSPost2010Prop44ColorRGB
 90
      255
102
RTVSPost2010PropOp44
 70
     0
102
RTVSPost2010Prop45
280
     0
102
RTVSPost2010PropOp45
 70
     1
102
RTVSPost2010Prop46
 90
       50
102
RTVSPost2010PropOp46
 70
     0
102
RTVSPost2010Prop47
 90
       50
102
RTVSPost2010PropOp47
 70
     0
102
RTVSPost2010Prop48
 90
       50
102
RTVSPost2010PropOp48
 70
     0
102
RTVSPost2010Prop49
280
     0
102
RTVSPost2010PropOp49
 70
     1
102
RTVSPost2010Prop50
 90
       50
102
RTVSPost2010PropOp50
 70
     0
102
RTVSPost2010Prop51ColorIndex
 90
      256
102
RTVSPost2010Prop51ColorRGB
 90
-16777216
102
RTVSPost2010PropOp51
 70
     0
102
RTVSPost2010Prop52
140
1.0
102
RTVSPost2010PropOp52
 70
     0
102
RTVSPost2010Prop53
 90
        2
102
RTVSPost2010PropOp53
 70
     0
102
RTVSPost2010Prop54
  1
strokes_ogs.tif
102
RTVSPost2010PropOp54
 70
     0
102
RTVSPost2010Prop55
280
     0
102
RTVSPost2010PropOp55
 70
     1
102
RTVSPost2010Prop56
140
1.0
102
RTVSPost2010PropOp56
 70
     0
102
RTVSPost2010Prop57
140
1.0
102
RTVSPost2010PropOp57
 70
     0
102
RTVSPropertyOp0
 70
     0
102
RTVSPropertyOp1
 70
     0
102
RTVSPropertyOp2
 70
     0
102
RTVSPropertyOp3
 70
     0
102
RTVSPropertyOp4
 70
     0
102
RTVSPropertyOp5
 70
     0
102
RTVSPropertyOp6
 70
     0
102
RTVSPropertyOp7
 70
     0
102
RTVSPropertyOp8
 70
     0
102
RTVSPropertyOp9
 70
     0
102
RTVSPropertyOp10
 70
     0
102
RTVSPropertyOp11
 70
     0
102
RTVSPropertyOp12
 70
     0
102
RTVSPropertyOp13
 70
     0
102
RTVSPropertyOp14
 70
     2
102
RTVSPropertyOp15
 70
     0
102
RTVSPropertyOp16
 70
     0
102
RTVSPropertyOp17
 70
     0
102
RTVSPropertyOp18
 70
     0
102
RTVSPropertyOp19
 70
     0
102
RTVSPropertyOp20
 70
     0
102
RTVSPropertyOp21
 70
     0
102
RTVSPropertyOp22
 70
     0
102
RTVSPropertyOp23
 70
     0
102
RTVSPropertyOp24
 70
     0
102
RTVSPropertyOp25
 70
     0
102
RTVSPropertyOp26
 70
     0
102
RTVSPropertyOp27
 70
     0
102
RTVSPropertyOp28
 70
     1
102
RTVSPropertyOp29
 70
     1
102
RTVSPropertyOp30
 70
     1
102
RTVSPropertyOp31
 70
     1
102
RTVSPropertyOp32
 70
     1
102
RTVSPropertyOp33
 70
     1
102
RTVSPropertyOp34
 70
     1
102
RTVSPropertyOp35
 70
     1
102
RTVSPropertyOp36
 70
     1
102
RTVSPropertyOp37
 70
     0
102
RTVSPropertyOp38
 70
     0
102
RTVSPropertyOp39
 70
     0
102
RTVSPropertyOp40
 70
     0
102
RTVSPropertyOp41
 70
     0
102
RTVSPropertyOp42
 70
     0
102
RTVSPropertyOp43
 70
     0
102
RTVSPropertyOp44
 70
     0
102
RTVSPropertyOp45
 70
     1
102
RTVSPropertyOp46
 70
     0
102
RTVSPropertyOp47
 70
     0
102
RTVSPropertyOp48
 70
     0
102
RTVSPropertyOp49
 70
     1
102
RTVSPropertyOp50
 70
     0
102
RTVSPropertyOp51
 70
     0
102
RTVSPropertyOp52
 70
     0
102
RTVSPropertyOp53
 70
     0
102
RTVSPropertyOp54
 70
     0
102
RTVSPropertyOp55
 70
     1
102
RTVSPropertyOp56
 70
     0
102
RTVSPropertyOp57
 70
     0
102
RTVSPropertyOp58
 70
     0
102
RTVSPropertyOp59
 70
     0
102
RTVSPropertyOp60
 70
     0
102
RTVSPropertyOp61
 70
     0
102
RTVSPropertyOp62
 70
     0
  0
XRECORD
  5
82FF
102
{ACAD_REACTORS
330
82FE
102
}
330
82FE
100
AcDbXrecord
280
     1
102
RTVSPost2010Prop28
280
     0
102
RTVSPost2010PropOp28
 70
     1
102
RTVSPost2010Prop29
280
     1
102
RTVSPost2010PropOp29
 70
     1
102
RTVSPost2010Prop30
280
     1
102
RTVSPost2010PropOp30
 70
     1
102
RTVSPost2010Prop31
280
     0
102
RTVSPost2010PropOp31
 70
     1
102
RTVSPost2010Prop32
280
     0
102
RTVSPost2010PropOp32
 70
     1
102
RTVSPost2010Prop33
280
     0
102
RTVSPost2010PropOp33
 70
     1
102
RTVSPost2010Prop34
280
     0
102
RTVSPost2010PropOp34
 70
     1
102
RTVSPost2010Prop35
280
     0
102
RTVSPost2010PropOp35
 70
     1
102
RTVSPost2010Prop36
280
     0
102
RTVSPost2010PropOp36
 70
     1
102
RTVSPost2010Prop37
 90
       50
102
RTVSPost2010PropOp37
 70
     1
102
RTVSPost2010Prop38
140
0.0
102
RTVSPost2010PropOp38
 70
     1
102
RTVSPost2010Prop39
140
1.0
102
RTVSPost2010PropOp39
 70
     1
102
RTVSPost2010Prop40
 90
        0
102
RTVSPost2010PropOp40
 70
     1
102
RTVSPost2010Prop41ColorIndex
 90
       18
102
RTVSPost2010Prop41ColorRGB
 90
        0
102
RTVSPost2010PropOp41
 70
     1
102
RTVSPost2010Prop42
 90
       50
102
RTVSPost2010PropOp42
 70
     1
102
RTVSPost2010Prop43
 90
        3
102
RTVSPost2010PropOp43
 70
     1
102
RTVSPost2010Prop44ColorIndex
 90
        5
102
RTVSPost2010Prop44ColorRGB
 90
      255
102
RTVSPost2010PropOp44
 70
     1
102
RTVSPost2010Prop45
280
     0
102
RTVSPost2010PropOp45
 70
     1
102
RTVSPost2010Prop46
 90
       50
102
RTVSPost2010PropOp46
 70
     1
102
RTVSPost2010Prop47
 90
       50
102
RTVSPost2010PropOp47
 70
     1
102
RTVSPost2010Prop48
 90
       50
102
RTVSPost2010PropOp48
 70
     1
102
RTVSPost2010Prop49
280
     0
102
RTVSPost2010PropOp49
 70
     1
102
RTVSPost2010Prop50
 90
       50
102
RTVSPost2010PropOp50
 70
     1
102
RTVSPost2010Prop51ColorIndex
 90
      256
102
RTVSPost2010Prop51ColorRGB
 90
-16777216
102
RTVSPost2010PropOp51
 70
     0
102
RTVSPost2010Prop52
140
1.0
102
RTVSPost2010PropOp52
 70
     0
102
RTVSPost2010Prop53
 90
        2
102
RTVSPost2010PropOp53
 70
     1
102
RTVSPost2010Prop54
  1
strokes_ogs.tif
102
RTVSPost2010PropOp54
 70
     1
102
RTVSPost2010Prop55
280
     0
102
RTVSPost2010PropOp55
 70
     1
102
RTVSPost2010Prop56
140
1.0
102
RTVSPost2010PropOp56
 70
     1
102
RTVSPost2010Prop57
140
1.0
102
RTVSPost2010PropOp57
 70
     1
102
RTVSPropertyOp0
 70
     1
102
RTVSPropertyOp1
 70
     1
102
RTVSPropertyOp2
 70
     1
102
RTVSPropertyOp3
 70
     1
102
RTVSPropertyOp4
 70
     1
102
RTVSPropertyOp5
 70
     1
102
RTVSPropertyOp6
 70
     1
102
RTVSPropertyOp7
 70
     1
102
RTVSPropertyOp8
 70
     1
102
RTVSPropertyOp9
 70
     1
102
RTVSPropertyOp10
 70
     1
102
RTVSPropertyOp11
 70
     1
102
RTVSPropertyOp12
 70
     1
102
RTVSPropertyOp13
 70
     1
102
RTVSPropertyOp14
 70
     1
102
RTVSPropertyOp15
 70
     1
102
RTVSPropertyOp16
 70
     1
102
RTVSPropertyOp17
 70
     1
102
RTVSPropertyOp18
 70
     1
102
RTVSPropertyOp19
 70
     1
102
RTVSPropertyOp20
 70
     1
102
RTVSPropertyOp21
 70
     1
102
RTVSPropertyOp22
 70
     1
102
RTVSPropertyOp23
 70
     1
102
RTVSPropertyOp24
 70
     1
102
RTVSPropertyOp25
 70
     1
102
RTVSPropertyOp26
 70
     1
102
RTVSPropertyOp27
 70
     1
102
RTVSPropertyOp28
 70
     1
102
RTVSPropertyOp29
 70
     1
102
RTVSPropertyOp30
 70
     1
102
RTVSPropertyOp31
 70
     1
102
RTVSPropertyOp32
 70
     1
102
RTVSPropertyOp33
 70
     1
102
RTVSPropertyOp34
 70
     1
102
RTVSPropertyOp35
 70
     1
102
RTVSPropertyOp36
 70
     1
102
RTVSPropertyOp37
 70
     1
102
RTVSPropertyOp38
 70
     1
102
RTVSPropertyOp39
 70
     1
102
RTVSPropertyOp40
 70
     1
102
RTVSPropertyOp41
 70
     1
102
RTVSPropertyOp42
 70
     1
102
RTVSPropertyOp43
 70
     1
102
RTVSPropertyOp44
 70
     1
102
RTVSPropertyOp45
 70
     1
102
RTVSPropertyOp46
 70
     1
102
RTVSPropertyOp47
 70
     1
102
RTVSPropertyOp48
 70
     1
102
RTVSPropertyOp49
 70
     1
102
RTVSPropertyOp50
 70
     1
102
RTVSPropertyOp51
 70
     0
102
RTVSPropertyOp52
 70
     0
102
RTVSPropertyOp53
 70
     1
102
RTVSPropertyOp54
 70
     1
102
RTVSPropertyOp55
 70
     1
102
RTVSPropertyOp56
 70
     1
102
RTVSPropertyOp57
 70
     1
102
RTVSPropertyOp58
 70
     1
102
RTVSPropertyOp59
 70
     1
102
RTVSPropertyOp60
 70
     1
102
RTVSPropertyOp61
 70
     1
102
RTVSPropertyOp62
 70
     1
  0
XRECORD
  5
8315
102
{ACAD_REACTORS
330
8314
102
}
330
8314
100
AcDbXrecord
280
     1
102
RTVSPost2010Prop28
280
     0
102
RTVSPost2010PropOp28
 70
     1
102
RTVSPost2010Prop29
280
     1
102
RTVSPost2010PropOp29
 70
     1
102
RTVSPost2010Prop30
280
     1
102
RTVSPost2010PropOp30
 70
     1
102
RTVSPost2010Prop31
280
     0
102
RTVSPost2010PropOp31
 70
     1
102
RTVSPost2010Prop32
280
     0
102
RTVSPost2010PropOp32
 70
     1
102
RTVSPost2010Prop33
280
     0
102
RTVSPost2010PropOp33
 70
     1
102
RTVSPost2010Prop34
280
     0
102
RTVSPost2010PropOp34
 70
     1
102
RTVSPost2010Prop35
280
     0
102
RTVSPost2010PropOp35
 70
     1
102
RTVSPost2010Prop36
280
     0
102
RTVSPost2010PropOp36
 70
     1
102
RTVSPost2010Prop37
 90
       50
102
RTVSPost2010PropOp37
 70
     1
102
RTVSPost2010Prop38
140
0.0
102
RTVSPost2010PropOp38
 70
     1
102
RTVSPost2010Prop39
140
1.0
102
RTVSPost2010PropOp39
 70
     1
102
RTVSPost2010Prop40
 90
        0
102
RTVSPost2010PropOp40
 70
     1
102
RTVSPost2010Prop41ColorIndex
 90
       18
102
RTVSPost2010Prop41ColorRGB
 90
        0
102
RTVSPost2010PropOp41
 70
     1
102
RTVSPost2010Prop42
 90
       50
102
RTVSPost2010PropOp42
 70
     1
102
RTVSPost2010Prop43
 90
        3
102
RTVSPost2010PropOp43
 70
     1
102
RTVSPost2010Prop44ColorIndex
 90
        5
102
RTVSPost2010Prop44ColorRGB
 90
      255
102
RTVSPost2010PropOp44
 70
     1
102
RTVSPost2010Prop45
280
     0
102
RTVSPost2010PropOp45
 70
     1
102
RTVSPost2010Prop46
 90
       50
102
RTVSPost2010PropOp46
 70
     1
102
RTVSPost2010Prop47
 90
       50
102
RTVSPost2010PropOp47
 70
     1
102
RTVSPost2010Prop48
 90
       50
102
RTVSPost2010PropOp48
 70
     1
102
RTVSPost2010Prop49
280
     0
102
RTVSPost2010PropOp49
 70
     1
102
RTVSPost2010Prop50
 90
       50
102
RTVSPost2010PropOp50
 70
     1
102
RTVSPost2010Prop51ColorIndex
 90
      256
102
RTVSPost2010Prop51ColorRGB
 90
-16777216
102
RTVSPost2010PropOp51
 70
     0
102
RTVSPost2010Prop52
140
1.0
102
RTVSPost2010PropOp52
 70
     0
102
RTVSPost2010Prop53
 90
        2
102
RTVSPost2010PropOp53
 70
     1
102
RTVSPost2010Prop54
  1
strokes_ogs.tif
102
RTVSPost2010PropOp54
 70
     1
102
RTVSPost2010Prop55
280
     0
102
RTVSPost2010PropOp55
 70
     1
102
RTVSPost2010Prop56
140
1.0
102
RTVSPost2010PropOp56
 70
     1
102
RTVSPost2010Prop57
140
1.0
102
RTVSPost2010PropOp57
 70
     1
102
RTVSPropertyOp0
 70
     1
102
RTVSPropertyOp1
 70
     1
102
RTVSPropertyOp2
 70
     1
102
RTVSPropertyOp3
 70
     1
102
RTVSPropertyOp4
 70
     1
102
RTVSPropertyOp5
 70
     1
102
RTVSPropertyOp6
 70
     1
102
RTVSPropertyOp7
 70
     1
102
RTVSPropertyOp8
 70
     1
102
RTVSPropertyOp9
 70
     1
102
RTVSPropertyOp10
 70
     1
102
RTVSPropertyOp11
 70
     1
102
RTVSPropertyOp12
 70
     1
102
RTVSPropertyOp13
 70
     1
102
RTVSPropertyOp14
 70
     1
102
RTVSPropertyOp15
 70
     1
102
RTVSPropertyOp16
 70
     1
102
RTVSPropertyOp17
 70
     1
102
RTVSPropertyOp18
 70
     1
102
RTVSPropertyOp19
 70
     1
102
RTVSPropertyOp20
 70
     1
102
RTVSPropertyOp21
 70
     1
102
RTVSPropertyOp22
 70
     1
102
RTVSPropertyOp23
 70
     1
102
RTVSPropertyOp24
 70
     1
102
RTVSPropertyOp25
 70
     1
102
RTVSPropertyOp26
 70
     1
102
RTVSPropertyOp27
 70
     1
102
RTVSPropertyOp28
 70
     1
102
RTVSPropertyOp29
 70
     1
102
RTVSPropertyOp30
 70
     1
102
RTVSPropertyOp31
 70
     1
102
RTVSPropertyOp32
 70
     1
102
RTVSPropertyOp33
 70
     1
102
RTVSPropertyOp34
 70
     1
102
RTVSPropertyOp35
 70
     1
102
RTVSPropertyOp36
 70
     1
102
RTVSPropertyOp37
 70
     1
102
RTVSPropertyOp38
 70
     1
102
RTVSPropertyOp39
 70
     1
102
RTVSPropertyOp40
 70
     1
102
RTVSPropertyOp41
 70
     1
102
RTVSPropertyOp42
 70
     1
102
RTVSPropertyOp43
 70
     1
102
RTVSPropertyOp44
 70
     1
102
RTVSPropertyOp45
 70
     1
102
RTVSPropertyOp46
 70
     1
102
RTVSPropertyOp47
 70
     1
102
RTVSPropertyOp48
 70
     1
102
RTVSPropertyOp49
 70
     1
102
RTVSPropertyOp50
 70
     1
102
RTVSPropertyOp51
 70
     0
102
RTVSPropertyOp52
 70
     0
102
RTVSPropertyOp53
 70
     1
102
RTVSPropertyOp54
 70
     1
102
RTVSPropertyOp55
 70
     1
102
RTVSPropertyOp56
 70
     1
102
RTVSPropertyOp57
 70
     1
102
RTVSPropertyOp58
 70
     1
102
RTVSPropertyOp59
 70
     1
102
RTVSPropertyOp60
 70
     1
102
RTVSPropertyOp61
 70
     1
102
RTVSPropertyOp62
 70
     1
  0
XRECORD
  5
8313
102
{ACAD_REACTORS
330
8312
102
}
330
8312
100
AcDbXrecord
280
     1
102
RTVSPost2010Prop28
280
     0
102
RTVSPost2010PropOp28
 70
     1
102
RTVSPost2010Prop29
280
     1
102
RTVSPost2010PropOp29
 70
     1
102
RTVSPost2010Prop30
280
     1
102
RTVSPost2010PropOp30
 70
     1
102
RTVSPost2010Prop31
280
     0
102
RTVSPost2010PropOp31
 70
     1
102
RTVSPost2010Prop32
280
     0
102
RTVSPost2010PropOp32
 70
     1
102
RTVSPost2010Prop33
280
     0
102
RTVSPost2010PropOp33
 70
     1
102
RTVSPost2010Prop34
280
     0
102
RTVSPost2010PropOp34
 70
     1
102
RTVSPost2010Prop35
280
     0
102
RTVSPost2010PropOp35
 70
     1
102
RTVSPost2010Prop36
280
     0
102
RTVSPost2010PropOp36
 70
     1
102
RTVSPost2010Prop37
 90
       50
102
RTVSPost2010PropOp37
 70
     1
102
RTVSPost2010Prop38
140
0.0
102
RTVSPost2010PropOp38
 70
     1
102
RTVSPost2010Prop39
140
1.0
102
RTVSPost2010PropOp39
 70
     1
102
RTVSPost2010Prop40
 90
        0
102
RTVSPost2010PropOp40
 70
     1
102
RTVSPost2010Prop41ColorIndex
 90
       18
102
RTVSPost2010Prop41ColorRGB
 90
        0
102
RTVSPost2010PropOp41
 70
     1
102
RTVSPost2010Prop42
 90
       50
102
RTVSPost2010PropOp42
 70
     1
102
RTVSPost2010Prop43
 90
        3
102
RTVSPost2010PropOp43
 70
     1
102
RTVSPost2010Prop44ColorIndex
 90
        5
102
RTVSPost2010Prop44ColorRGB
 90
      255
102
RTVSPost2010PropOp44
 70
     1
102
RTVSPost2010Prop45
280
     0
102
RTVSPost2010PropOp45
 70
     1
102
RTVSPost2010Prop46
 90
       50
102
RTVSPost2010PropOp46
 70
     1
102
RTVSPost2010Prop47
 90
       50
102
RTVSPost2010PropOp47
 70
     1
102
RTVSPost2010Prop48
 90
       50
102
RTVSPost2010PropOp48
 70
     1
102
RTVSPost2010Prop49
280
     0
102
RTVSPost2010PropOp49
 70
     1
102
RTVSPost2010Prop50
 90
       50
102
RTVSPost2010PropOp50
 70
     1
102
RTVSPost2010Prop51ColorIndex
 90
      256
102
RTVSPost2010Prop51ColorRGB
 90
-16777216
102
RTVSPost2010PropOp51
 70
     0
102
RTVSPost2010Prop52
140
1.0
102
RTVSPost2010PropOp52
 70
     0
102
RTVSPost2010Prop53
 90
        2
102
RTVSPost2010PropOp53
 70
     1
102
RTVSPost2010Prop54
  1
strokes_ogs.tif
102
RTVSPost2010PropOp54
 70
     1
102
RTVSPost2010Prop55
280
     0
102
RTVSPost2010PropOp55
 70
     1
102
RTVSPost2010Prop56
140
1.0
102
RTVSPost2010PropOp56
 70
     1
102
RTVSPost2010Prop57
140
1.0
102
RTVSPost2010PropOp57
 70
     1
102
RTVSPropertyOp0
 70
     1
102
RTVSPropertyOp1
 70
     1
102
RTVSPropertyOp2
 70
     1
102
RTVSPropertyOp3
 70
     1
102
RTVSPropertyOp4
 70
     1
102
RTVSPropertyOp5
 70
     1
102
RTVSPropertyOp6
 70
     1
102
RTVSPropertyOp7
 70
     1
102
RTVSPropertyOp8
 70
     1
102
RTVSPropertyOp9
 70
     1
102
RTVSPropertyOp10
 70
     1
102
RTVSPropertyOp11
 70
     1
102
RTVSPropertyOp12
 70
     1
102
RTVSPropertyOp13
 70
     1
102
RTVSPropertyOp14
 70
     1
102
RTVSPropertyOp15
 70
     1
102
RTVSPropertyOp16
 70
     1
102
RTVSPropertyOp17
 70
     1
102
RTVSPropertyOp18
 70
     1
102
RTVSPropertyOp19
 70
     1
102
RTVSPropertyOp20
 70
     1
102
RTVSPropertyOp21
 70
     1
102
RTVSPropertyOp22
 70
     1
102
RTVSPropertyOp23
 70
     1
102
RTVSPropertyOp24
 70
     1
102
RTVSPropertyOp25
 70
     1
102
RTVSPropertyOp26
 70
     1
102
RTVSPropertyOp27
 70
     1
102
RTVSPropertyOp28
 70
     1
102
RTVSPropertyOp29
 70
     1
102
RTVSPropertyOp30
 70
     1
102
RTVSPropertyOp31
 70
     1
102
RTVSPropertyOp32
 70
     1
102
RTVSPropertyOp33
 70
     1
102
RTVSPropertyOp34
 70
     1
102
RTVSPropertyOp35
 70
     1
102
RTVSPropertyOp36
 70
     1
102
RTVSPropertyOp37
 70
     1
102
RTVSPropertyOp38
 70
     1
102
RTVSPropertyOp39
 70
     1
102
RTVSPropertyOp40
 70
     1
102
RTVSPropertyOp41
 70
     1
102
RTVSPropertyOp42
 70
     1
102
RTVSPropertyOp43
 70
     1
102
RTVSPropertyOp44
 70
     1
102
RTVSPropertyOp45
 70
     1
102
RTVSPropertyOp46
 70
     1
102
RTVSPropertyOp47
 70
     1
102
RTVSPropertyOp48
 70
     1
102
RTVSPropertyOp49
 70
     1
102
RTVSPropertyOp50
 70
     1
102
RTVSPropertyOp51
 70
     0
102
RTVSPropertyOp52
 70
     0
102
RTVSPropertyOp53
 70
     1
102
RTVSPropertyOp54
 70
     1
102
RTVSPropertyOp55
 70
     1
102
RTVSPropertyOp56
 70
     1
102
RTVSPropertyOp57
 70
     1
102
RTVSPropertyOp58
 70
     1
102
RTVSPropertyOp59
 70
     1
102
RTVSPropertyOp60
 70
     1
102
RTVSPropertyOp61
 70
     1
102
RTVSPropertyOp62
 70
     1
  0
XRECORD
  5
830D
102
{ACAD_REACTORS
330
830C
102
}
330
830C
100
AcDbXrecord
280
     1
102
RTVSPost2010Prop28
280
     0
102
RTVSPost2010PropOp28
 70
     1
102
RTVSPost2010Prop29
280
     1
102
RTVSPost2010PropOp29
 70
     1
102
RTVSPost2010Prop30
280
     1
102
RTVSPost2010PropOp30
 70
     1
102
RTVSPost2010Prop31
280
     0
102
RTVSPost2010PropOp31
 70
     1
102
RTVSPost2010Prop32
280
     0
102
RTVSPost2010PropOp32
 70
     1
102
RTVSPost2010Prop33
280
     0
102
RTVSPost2010PropOp33
 70
     1
102
RTVSPost2010Prop34
280
     0
102
RTVSPost2010PropOp34
 70
     1
102
RTVSPost2010Prop35
280
     0
102
RTVSPost2010PropOp35
 70
     1
102
RTVSPost2010Prop36
280
     0
102
RTVSPost2010PropOp36
 70
     1
102
RTVSPost2010Prop37
 90
       50
102
RTVSPost2010PropOp37
 70
     1
102
RTVSPost2010Prop38
140
0.0
102
RTVSPost2010PropOp38
 70
     1
102
RTVSPost2010Prop39
140
1.0
102
RTVSPost2010PropOp39
 70
     1
102
RTVSPost2010Prop40
 90
        0
102
RTVSPost2010PropOp40
 70
     1
102
RTVSPost2010Prop41ColorIndex
 90
       18
102
RTVSPost2010Prop41ColorRGB
 90
        0
102
RTVSPost2010PropOp41
 70
     1
102
RTVSPost2010Prop42
 90
       50
102
RTVSPost2010PropOp42
 70
     1
102
RTVSPost2010Prop43
 90
        3
102
RTVSPost2010PropOp43
 70
     1
102
RTVSPost2010Prop44ColorIndex
 90
        5
102
RTVSPost2010Prop44ColorRGB
 90
      255
102
RTVSPost2010PropOp44
 70
     1
102
RTVSPost2010Prop45
280
     0
102
RTVSPost2010PropOp45
 70
     1
102
RTVSPost2010Prop46
 90
       50
102
RTVSPost2010PropOp46
 70
     1
102
RTVSPost2010Prop47
 90
       50
102
RTVSPost2010PropOp47
 70
     1
102
RTVSPost2010Prop48
 90
       50
102
RTVSPost2010PropOp48
 70
     1
102
RTVSPost2010Prop49
280
     0
102
RTVSPost2010PropOp49
 70
     1
102
RTVSPost2010Prop50
 90
       50
102
RTVSPost2010PropOp50
 70
     1
102
RTVSPost2010Prop51ColorIndex
 90
      256
102
RTVSPost2010Prop51ColorRGB
 90
-16777216
102
RTVSPost2010PropOp51
 70
     0
102
RTVSPost2010Prop52
140
1.0
102
RTVSPost2010PropOp52
 70
     0
102
RTVSPost2010Prop53
 90
        2
102
RTVSPost2010PropOp53
 70
     1
102
RTVSPost2010Prop54
  1
strokes_ogs.tif
102
RTVSPost2010PropOp54
 70
     1
102
RTVSPost2010Prop55
280
     0
102
RTVSPost2010PropOp55
 70
     1
102
RTVSPost2010Prop56
140
1.0
102
RTVSPost2010PropOp56
 70
     1
102
RTVSPost2010Prop57
140
1.0
102
RTVSPost2010PropOp57
 70
     1
102
RTVSPropertyOp0
 70
     1
102
RTVSPropertyOp1
 70
     1
102
RTVSPropertyOp2
 70
     1
102
RTVSPropertyOp3
 70
     1
102
RTVSPropertyOp4
 70
     1
102
RTVSPropertyOp5
 70
     1
102
RTVSPropertyOp6
 70
     1
102
RTVSPropertyOp7
 70
     1
102
RTVSPropertyOp8
 70
     1
102
RTVSPropertyOp9
 70
     1
102
RTVSPropertyOp10
 70
     1
102
RTVSPropertyOp11
 70
     1
102
RTVSPropertyOp12
 70
     1
102
RTVSPropertyOp13
 70
     1
102
RTVSPropertyOp14
 70
     1
102
RTVSPropertyOp15
 70
     1
102
RTVSPropertyOp16
 70
     1
102
RTVSPropertyOp17
 70
     1
102
RTVSPropertyOp18
 70
     1
102
RTVSPropertyOp19
 70
     1
102
RTVSPropertyOp20
 70
     1
102
RTVSPropertyOp21
 70
     1
102
RTVSPropertyOp22
 70
     1
102
RTVSPropertyOp23
 70
     1
102
RTVSPropertyOp24
 70
     1
102
RTVSPropertyOp25
 70
     1
102
RTVSPropertyOp26
 70
     1
102
RTVSPropertyOp27
 70
     1
102
RTVSPropertyOp28
 70
     1
102
RTVSPropertyOp29
 70
     1
102
RTVSPropertyOp30
 70
     1
102
RTVSPropertyOp31
 70
     1
102
RTVSPropertyOp32
 70
     1
102
RTVSPropertyOp33
 70
     1
102
RTVSPropertyOp34
 70
     1
102
RTVSPropertyOp35
 70
     1
102
RTVSPropertyOp36
 70
     1
102
RTVSPropertyOp37
 70
     1
102
RTVSPropertyOp38
 70
     1
102
RTVSPropertyOp39
 70
     1
102
RTVSPropertyOp40
 70
     1
102
RTVSPropertyOp41
 70
     1
102
RTVSPropertyOp42
 70
     1
102
RTVSPropertyOp43
 70
     1
102
RTVSPropertyOp44
 70
     1
102
RTVSPropertyOp45
 70
     1
102
RTVSPropertyOp46
 70
     1
102
RTVSPropertyOp47
 70
     1
102
RTVSPropertyOp48
 70
     1
102
RTVSPropertyOp49
 70
     1
102
RTVSPropertyOp50
 70
     1
102
RTVSPropertyOp51
 70
     0
102
RTVSPropertyOp52
 70
     0
102
RTVSPropertyOp53
 70
     1
102
RTVSPropertyOp54
 70
     1
102
RTVSPropertyOp55
 70
     1
102
RTVSPropertyOp56
 70
     1
102
RTVSPropertyOp57
 70
     1
102
RTVSPropertyOp58
 70
     1
102
RTVSPropertyOp59
 70
     1
102
RTVSPropertyOp60
 70
     1
102
RTVSPropertyOp61
 70
     1
102
RTVSPropertyOp62
 70
     1
  0
XRECORD
  5
830F
102
{ACAD_REACTORS
330
830E
102
}
330
830E
100
AcDbXrecord
280
     1
102
RTVSPost2010Prop28
280
     0
102
RTVSPost2010PropOp28
 70
     1
102
RTVSPost2010Prop29
280
     1
102
RTVSPost2010PropOp29
 70
     1
102
RTVSPost2010Prop30
280
     1
102
RTVSPost2010PropOp30
 70
     1
102
RTVSPost2010Prop31
280
     0
102
RTVSPost2010PropOp31
 70
     1
102
RTVSPost2010Prop32
280
     0
102
RTVSPost2010PropOp32
 70
     1
102
RTVSPost2010Prop33
280
     0
102
RTVSPost2010PropOp33
 70
     1
102
RTVSPost2010Prop34
280
     0
102
RTVSPost2010PropOp34
 70
     1
102
RTVSPost2010Prop35
280
     0
102
RTVSPost2010PropOp35
 70
     1
102
RTVSPost2010Prop36
280
     0
102
RTVSPost2010PropOp36
 70
     1
102
RTVSPost2010Prop37
 90
       50
102
RTVSPost2010PropOp37
 70
     1
102
RTVSPost2010Prop38
140
0.0
102
RTVSPost2010PropOp38
 70
     1
102
RTVSPost2010Prop39
140
1.0
102
RTVSPost2010PropOp39
 70
     1
102
RTVSPost2010Prop40
 90
        0
102
RTVSPost2010PropOp40
 70
     1
102
RTVSPost2010Prop41ColorIndex
 90
       18
102
RTVSPost2010Prop41ColorRGB
 90
        0
102
RTVSPost2010PropOp41
 70
     1
102
RTVSPost2010Prop42
 90
       50
102
RTVSPost2010PropOp42
 70
     1
102
RTVSPost2010Prop43
 90
        3
102
RTVSPost2010PropOp43
 70
     1
102
RTVSPost2010Prop44ColorIndex
 90
        5
102
RTVSPost2010Prop44ColorRGB
 90
      255
102
RTVSPost2010PropOp44
 70
     1
102
RTVSPost2010Prop45
280
     0
102
RTVSPost2010PropOp45
 70
     1
102
RTVSPost2010Prop46
 90
       50
102
RTVSPost2010PropOp46
 70
     1
102
RTVSPost2010Prop47
 90
       50
102
RTVSPost2010PropOp47
 70
     1
102
RTVSPost2010Prop48
 90
       50
102
RTVSPost2010PropOp48
 70
     1
102
RTVSPost2010Prop49
280
     0
102
RTVSPost2010PropOp49
 70
     1
102
RTVSPost2010Prop50
 90
       50
102
RTVSPost2010PropOp50
 70
     1
102
RTVSPost2010Prop51ColorIndex
 90
      256
102
RTVSPost2010Prop51ColorRGB
 90
-16777216
102
RTVSPost2010PropOp51
 70
     0
102
RTVSPost2010Prop52
140
1.0
102
RTVSPost2010PropOp52
 70
     0
102
RTVSPost2010Prop53
 90
        2
102
RTVSPost2010PropOp53
 70
     1
102
RTVSPost2010Prop54
  1
strokes_ogs.tif
102
RTVSPost2010PropOp54
 70
     1
102
RTVSPost2010Prop55
280
     0
102
RTVSPost2010PropOp55
 70
     1
102
RTVSPost2010Prop56
140
1.0
102
RTVSPost2010PropOp56
 70
     1
102
RTVSPost2010Prop57
140
1.0
102
RTVSPost2010PropOp57
 70
     1
102
RTVSPropertyOp0
 70
     1
102
RTVSPropertyOp1
 70
     1
102
RTVSPropertyOp2
 70
     1
102
RTVSPropertyOp3
 70
     1
102
RTVSPropertyOp4
 70
     1
102
RTVSPropertyOp5
 70
     1
102
RTVSPropertyOp6
 70
     1
102
RTVSPropertyOp7
 70
     1
102
RTVSPropertyOp8
 70
     1
102
RTVSPropertyOp9
 70
     1
102
RTVSPropertyOp10
 70
     1
102
RTVSPropertyOp11
 70
     1
102
RTVSPropertyOp12
 70
     1
102
RTVSPropertyOp13
 70
     1
102
RTVSPropertyOp14
 70
     1
102
RTVSPropertyOp15
 70
     1
102
RTVSPropertyOp16
 70
     1
102
RTVSPropertyOp17
 70
     1
102
RTVSPropertyOp18
 70
     1
102
RTVSPropertyOp19
 70
     1
102
RTVSPropertyOp20
 70
     1
102
RTVSPropertyOp21
 70
     1
102
RTVSPropertyOp22
 70
     1
102
RTVSPropertyOp23
 70
     1
102
RTVSPropertyOp24
 70
     1
102
RTVSPropertyOp25
 70
     1
102
RTVSPropertyOp26
 70
     1
102
RTVSPropertyOp27
 70
     1
102
RTVSPropertyOp28
 70
     1
102
RTVSPropertyOp29
 70
     1
102
RTVSPropertyOp30
 70
     1
102
RTVSPropertyOp31
 70
     1
102
RTVSPropertyOp32
 70
     1
102
RTVSPropertyOp33
 70
     1
102
RTVSPropertyOp34
 70
     1
102
RTVSPropertyOp35
 70
     1
102
RTVSPropertyOp36
 70
     1
102
RTVSPropertyOp37
 70
     1
102
RTVSPropertyOp38
 70
     1
102
RTVSPropertyOp39
 70
     1
102
RTVSPropertyOp40
 70
     1
102
RTVSPropertyOp41
 70
     1
102
RTVSPropertyOp42
 70
     1
102
RTVSPropertyOp43
 70
     1
102
RTVSPropertyOp44
 70
     1
102
RTVSPropertyOp45
 70
     1
102
RTVSPropertyOp46
 70
     1
102
RTVSPropertyOp47
 70
     1
102
RTVSPropertyOp48
 70
     1
102
RTVSPropertyOp49
 70
     1
102
RTVSPropertyOp50
 70
     1
102
RTVSPropertyOp51
 70
     0
102
RTVSPropertyOp52
 70
     0
102
RTVSPropertyOp53
 70
     1
102
RTVSPropertyOp54
 70
     1
102
RTVSPropertyOp55
 70
     1
102
RTVSPropertyOp56
 70
     1
102
RTVSPropertyOp57
 70
     1
102
RTVSPropertyOp58
 70
     1
102
RTVSPropertyOp59
 70
     1
102
RTVSPropertyOp60
 70
     1
102
RTVSPropertyOp61
 70
     1
102
RTVSPropertyOp62
 70
     1
  0
XRECORD
  5
8305
102
{ACAD_REACTORS
330
8304
102
}
330
8304
100
AcDbXrecord
280
     1
102
RTVSPost2010Prop28
280
     0
102
RTVSPost2010PropOp28
 70
     1
102
RTVSPost2010Prop29
280
     1
102
RTVSPost2010PropOp29
 70
     1
102
RTVSPost2010Prop30
280
     1
102
RTVSPost2010PropOp30
 70
     1
102
RTVSPost2010Prop31
280
     0
102
RTVSPost2010PropOp31
 70
     1
102
RTVSPost2010Prop32
280
     0
102
RTVSPost2010PropOp32
 70
     1
102
RTVSPost2010Prop33
280
     0
102
RTVSPost2010PropOp33
 70
     1
102
RTVSPost2010Prop34
280
     0
102
RTVSPost2010PropOp34
 70
     1
102
RTVSPost2010Prop35
280
     0
102
RTVSPost2010PropOp35
 70
     1
102
RTVSPost2010Prop36
280
     0
102
RTVSPost2010PropOp36
 70
     1
102
RTVSPost2010Prop37
 90
       50
102
RTVSPost2010PropOp37
 70
     1
102
RTVSPost2010Prop38
140
0.0
102
RTVSPost2010PropOp38
 70
     1
102
RTVSPost2010Prop39
140
1.0
102
RTVSPost2010PropOp39
 70
     1
102
RTVSPost2010Prop40
 90
        0
102
RTVSPost2010PropOp40
 70
     1
102
RTVSPost2010Prop41ColorIndex
 90
       18
102
RTVSPost2010Prop41ColorRGB
 90
        0
102
RTVSPost2010PropOp41
 70
     1
102
RTVSPost2010Prop42
 90
       50
102
RTVSPost2010PropOp42
 70
     1
102
RTVSPost2010Prop43
 90
        3
102
RTVSPost2010PropOp43
 70
     1
102
RTVSPost2010Prop44ColorIndex
 90
        5
102
RTVSPost2010Prop44ColorRGB
 90
      255
102
RTVSPost2010PropOp44
 70
     1
102
RTVSPost2010Prop45
280
     0
102
RTVSPost2010PropOp45
 70
     1
102
RTVSPost2010Prop46
 90
       50
102
RTVSPost2010PropOp46
 70
     1
102
RTVSPost2010Prop47
 90
       50
102
RTVSPost2010PropOp47
 70
     1
102
RTVSPost2010Prop48
 90
       50
102
RTVSPost2010PropOp48
 70
     1
102
RTVSPost2010Prop49
280
     0
102
RTVSPost2010PropOp49
 70
     1
102
RTVSPost2010Prop50
 90
       50
102
RTVSPost2010PropOp50
 70
     1
102
RTVSPost2010Prop51ColorIndex
 90
      256
102
RTVSPost2010Prop51ColorRGB
 90
-16777216
102
RTVSPost2010PropOp51
 70
     0
102
RTVSPost2010Prop52
140
1.0
102
RTVSPost2010PropOp52
 70
     0
102
RTVSPost2010Prop53
 90
        2
102
RTVSPost2010PropOp53
 70
     1
102
RTVSPost2010Prop54
  1
strokes_ogs.tif
102
RTVSPost2010PropOp54
 70
     1
102
RTVSPost2010Prop55
280
     0
102
RTVSPost2010PropOp55
 70
     1
102
RTVSPost2010Prop56
140
1.0
102
RTVSPost2010PropOp56
 70
     1
102
RTVSPost2010Prop57
140
1.0
102
RTVSPost2010PropOp57
 70
     1
102
RTVSPropertyOp0
 70
     1
102
RTVSPropertyOp1
 70
     1
102
RTVSPropertyOp2
 70
     1
102
RTVSPropertyOp3
 70
     1
102
RTVSPropertyOp4
 70
     1
102
RTVSPropertyOp5
 70
     1
102
RTVSPropertyOp6
 70
     1
102
RTVSPropertyOp7
 70
     1
102
RTVSPropertyOp8
 70
     1
102
RTVSPropertyOp9
 70
     1
102
RTVSPropertyOp10
 70
     1
102
RTVSPropertyOp11
 70
     1
102
RTVSPropertyOp12
 70
     1
102
RTVSPropertyOp13
 70
     1
102
RTVSPropertyOp14
 70
     1
102
RTVSPropertyOp15
 70
     1
102
RTVSPropertyOp16
 70
     1
102
RTVSPropertyOp17
 70
     1
102
RTVSPropertyOp18
 70
     1
102
RTVSPropertyOp19
 70
     1
102
RTVSPropertyOp20
 70
     1
102
RTVSPropertyOp21
 70
     1
102
RTVSPropertyOp22
 70
     1
102
RTVSPropertyOp23
 70
     1
102
RTVSPropertyOp24
 70
     1
102
RTVSPropertyOp25
 70
     1
102
RTVSPropertyOp26
 70
     1
102
RTVSPropertyOp27
 70
     1
102
RTVSPropertyOp28
 70
     1
102
RTVSPropertyOp29
 70
     1
102
RTVSPropertyOp30
 70
     1
102
RTVSPropertyOp31
 70
     1
102
RTVSPropertyOp32
 70
     1
102
RTVSPropertyOp33
 70
     1
102
RTVSPropertyOp34
 70
     1
102
RTVSPropertyOp35
 70
     1
102
RTVSPropertyOp36
 70
     1
102
RTVSPropertyOp37
 70
     1
102
RTVSPropertyOp38
 70
     1
102
RTVSPropertyOp39
 70
     1
102
RTVSPropertyOp40
 70
     1
102
RTVSPropertyOp41
 70
     1
102
RTVSPropertyOp42
 70
     1
102
RTVSPropertyOp43
 70
     1
102
RTVSPropertyOp44
 70
     1
102
RTVSPropertyOp45
 70
     1
102
RTVSPropertyOp46
 70
     1
102
RTVSPropertyOp47
 70
     1
102
RTVSPropertyOp48
 70
     1
102
RTVSPropertyOp49
 70
     1
102
RTVSPropertyOp50
 70
     1
102
RTVSPropertyOp51
 70
     0
102
RTVSPropertyOp52
 70
     0
102
RTVSPropertyOp53
 70
     1
102
RTVSPropertyOp54
 70
     1
102
RTVSPropertyOp55
 70
     1
102
RTVSPropertyOp56
 70
     1
102
RTVSPropertyOp57
 70
     1
102
RTVSPropertyOp58
 70
     1
102
RTVSPropertyOp59
 70
     1
102
RTVSPropertyOp60
 70
     1
102
RTVSPropertyOp61
 70
     1
102
RTVSPropertyOp62
 70
     1
  0
XRECORD
  5
82F9
102
{ACAD_REACTORS
330
82F8
102
}
330
82F8
100
AcDbXrecord
280
     1
102
RTVSPost2010Prop28
280
     0
102
RTVSPost2010PropOp28
 70
     1
102
RTVSPost2010Prop29
280
     1
102
RTVSPost2010PropOp29
 70
     1
102
RTVSPost2010Prop30
280
     1
102
RTVSPost2010PropOp30
 70
     1
102
RTVSPost2010Prop31
280
     0
102
RTVSPost2010PropOp31
 70
     1
102
RTVSPost2010Prop32
280
     0
102
RTVSPost2010PropOp32
 70
     1
102
RTVSPost2010Prop33
280
     0
102
RTVSPost2010PropOp33
 70
     1
102
RTVSPost2010Prop34
280
     0
102
RTVSPost2010PropOp34
 70
     1
102
RTVSPost2010Prop35
280
     0
102
RTVSPost2010PropOp35
 70
     1
102
RTVSPost2010Prop36
280
     0
102
RTVSPost2010PropOp36
 70
     1
102
RTVSPost2010Prop37
 90
       50
102
RTVSPost2010PropOp37
 70
     1
102
RTVSPost2010Prop38
140
0.0
102
RTVSPost2010PropOp38
 70
     1
102
RTVSPost2010Prop39
140
1.0
102
RTVSPost2010PropOp39
 70
     1
102
RTVSPost2010Prop40
 90
        0
102
RTVSPost2010PropOp40
 70
     1
102
RTVSPost2010Prop41ColorIndex
 90
       18
102
RTVSPost2010Prop41ColorRGB
 90
        0
102
RTVSPost2010PropOp41
 70
     1
102
RTVSPost2010Prop42
 90
       50
102
RTVSPost2010PropOp42
 70
     1
102
RTVSPost2010Prop43
 90
        3
102
RTVSPost2010PropOp43
 70
     1
102
RTVSPost2010Prop44ColorIndex
 90
        5
102
RTVSPost2010Prop44ColorRGB
 90
      255
102
RTVSPost2010PropOp44
 70
     1
102
RTVSPost2010Prop45
280
     0
102
RTVSPost2010PropOp45
 70
     1
102
RTVSPost2010Prop46
 90
       50
102
RTVSPost2010PropOp46
 70
     1
102
RTVSPost2010Prop47
 90
       50
102
RTVSPost2010PropOp47
 70
     1
102
RTVSPost2010Prop48
 90
       50
102
RTVSPost2010PropOp48
 70
     1
102
RTVSPost2010Prop49
280
     0
102
RTVSPost2010PropOp49
 70
     1
102
RTVSPost2010Prop50
 90
       50
102
RTVSPost2010PropOp50
 70
     1
102
RTVSPost2010Prop51ColorIndex
 90
      256
102
RTVSPost2010Prop51ColorRGB
 90
-16777216
102
RTVSPost2010PropOp51
 70
     0
102
RTVSPost2010Prop52
140
1.0
102
RTVSPost2010PropOp52
 70
     0
102
RTVSPost2010Prop53
 90
        2
102
RTVSPost2010PropOp53
 70
     1
102
RTVSPost2010Prop54
  1
strokes_ogs.tif
102
RTVSPost2010PropOp54
 70
     1
102
RTVSPost2010Prop55
280
     0
102
RTVSPost2010PropOp55
 70
     1
102
RTVSPost2010Prop56
140
1.0
102
RTVSPost2010PropOp56
 70
     1
102
RTVSPost2010Prop57
140
1.0
102
RTVSPost2010PropOp57
 70
     1
102
RTVSPropertyOp0
 70
     1
102
RTVSPropertyOp1
 70
     1
102
RTVSPropertyOp2
 70
     1
102
RTVSPropertyOp3
 70
     1
102
RTVSPropertyOp4
 70
     1
102
RTVSPropertyOp5
 70
     1
102
RTVSPropertyOp6
 70
     1
102
RTVSPropertyOp7
 70
     1
102
RTVSPropertyOp8
 70
     1
102
RTVSPropertyOp9
 70
     1
102
RTVSPropertyOp10
 70
     1
102
RTVSPropertyOp11
 70
     1
102
RTVSPropertyOp12
 70
     1
102
RTVSPropertyOp13
 70
     1
102
RTVSPropertyOp14
 70
     1
102
RTVSPropertyOp15
 70
     1
102
RTVSPropertyOp16
 70
     1
102
RTVSPropertyOp17
 70
     1
102
RTVSPropertyOp18
 70
     1
102
RTVSPropertyOp19
 70
     1
102
RTVSPropertyOp20
 70
     1
102
RTVSPropertyOp21
 70
     1
102
RTVSPropertyOp22
 70
     1
102
RTVSPropertyOp23
 70
     1
102
RTVSPropertyOp24
 70
     1
102
RTVSPropertyOp25
 70
     1
102
RTVSPropertyOp26
 70
     1
102
RTVSPropertyOp27
 70
     1
102
RTVSPropertyOp28
 70
     1
102
RTVSPropertyOp29
 70
     1
102
RTVSPropertyOp30
 70
     1
102
RTVSPropertyOp31
 70
     1
102
RTVSPropertyOp32
 70
     1
102
RTVSPropertyOp33
 70
     1
102
RTVSPropertyOp34
 70
     1
102
RTVSPropertyOp35
 70
     1
102
RTVSPropertyOp36
 70
     1
102
RTVSPropertyOp37
 70
     1
102
RTVSPropertyOp38
 70
     1
102
RTVSPropertyOp39
 70
     1
102
RTVSPropertyOp40
 70
     1
102
RTVSPropertyOp41
 70
     1
102
RTVSPropertyOp42
 70
     1
102
RTVSPropertyOp43
 70
     1
102
RTVSPropertyOp44
 70
     1
102
RTVSPropertyOp45
 70
     1
102
RTVSPropertyOp46
 70
     1
102
RTVSPropertyOp47
 70
     1
102
RTVSPropertyOp48
 70
     1
102
RTVSPropertyOp49
 70
     1
102
RTVSPropertyOp50
 70
     1
102
RTVSPropertyOp51
 70
     0
102
RTVSPropertyOp52
 70
     0
102
RTVSPropertyOp53
 70
     1
102
RTVSPropertyOp54
 70
     1
102
RTVSPropertyOp55
 70
     1
102
RTVSPropertyOp56
 70
     1
102
RTVSPropertyOp57
 70
     1
102
RTVSPropertyOp58
 70
     1
102
RTVSPropertyOp59
 70
     1
102
RTVSPropertyOp60
 70
     1
102
RTVSPropertyOp61
 70
     1
102
RTVSPropertyOp62
 70
     1
  0
XRECORD
  5
8311
102
{ACAD_REACTORS
330
8310
102
}
330
8310
100
AcDbXrecord
280
     1
102
RTVSPost2010Prop28
280
     0
102
RTVSPost2010PropOp28
 70
     1
102
RTVSPost2010Prop29
280
     1
102
RTVSPost2010PropOp29
 70
     1
102
RTVSPost2010Prop30
280
     1
102
RTVSPost2010PropOp30
 70
     1
102
RTVSPost2010Prop31
280
     0
102
RTVSPost2010PropOp31
 70
     1
102
RTVSPost2010Prop32
280
     0
102
RTVSPost2010PropOp32
 70
     1
102
RTVSPost2010Prop33
280
     0
102
RTVSPost2010PropOp33
 70
     1
102
RTVSPost2010Prop34
280
     0
102
RTVSPost2010PropOp34
 70
     1
102
RTVSPost2010Prop35
280
     0
102
RTVSPost2010PropOp35
 70
     1
102
RTVSPost2010Prop36
280
     0
102
RTVSPost2010PropOp36
 70
     1
102
RTVSPost2010Prop37
 90
       50
102
RTVSPost2010PropOp37
 70
     1
102
RTVSPost2010Prop38
140
0.0
102
RTVSPost2010PropOp38
 70
     1
102
RTVSPost2010Prop39
140
1.0
102
RTVSPost2010PropOp39
 70
     1
102
RTVSPost2010Prop40
 90
        0
102
RTVSPost2010PropOp40
 70
     1
102
RTVSPost2010Prop41ColorIndex
 90
       18
102
RTVSPost2010Prop41ColorRGB
 90
        0
102
RTVSPost2010PropOp41
 70
     1
102
RTVSPost2010Prop42
 90
       50
102
RTVSPost2010PropOp42
 70
     1
102
RTVSPost2010Prop43
 90
        3
102
RTVSPost2010PropOp43
 70
     1
102
RTVSPost2010Prop44ColorIndex
 90
        5
102
RTVSPost2010Prop44ColorRGB
 90
      255
102
RTVSPost2010PropOp44
 70
     1
102
RTVSPost2010Prop45
280
     0
102
RTVSPost2010PropOp45
 70
     1
102
RTVSPost2010Prop46
 90
       50
102
RTVSPost2010PropOp46
 70
     1
102
RTVSPost2010Prop47
 90
       50
102
RTVSPost2010PropOp47
 70
     1
102
RTVSPost2010Prop48
 90
       50
102
RTVSPost2010PropOp48
 70
     1
102
RTVSPost2010Prop49
280
     0
102
RTVSPost2010PropOp49
 70
     1
102
RTVSPost2010Prop50
 90
       50
102
RTVSPost2010PropOp50
 70
     1
102
RTVSPost2010Prop51ColorIndex
 90
      256
102
RTVSPost2010Prop51ColorRGB
 90
-16777216
102
RTVSPost2010PropOp51
 70
     0
102
RTVSPost2010Prop52
140
1.0
102
RTVSPost2010PropOp52
 70
     0
102
RTVSPost2010Prop53
 90
        2
102
RTVSPost2010PropOp53
 70
     1
102
RTVSPost2010Prop54
  1
strokes_ogs.tif
102
RTVSPost2010PropOp54
 70
     1
102
RTVSPost2010Prop55
280
     0
102
RTVSPost2010PropOp55
 70
     1
102
RTVSPost2010Prop56
140
1.0
102
RTVSPost2010PropOp56
 70
     1
102
RTVSPost2010Prop57
140
1.0
102
RTVSPost2010PropOp57
 70
     1
102
RTVSPropertyOp0
 70
     1
102
RTVSPropertyOp1
 70
     1
102
RTVSPropertyOp2
 70
     1
102
RTVSPropertyOp3
 70
     1
102
RTVSPropertyOp4
 70
     1
102
RTVSPropertyOp5
 70
     1
102
RTVSPropertyOp6
 70
     1
102
RTVSPropertyOp7
 70
     1
102
RTVSPropertyOp8
 70
     1
102
RTVSPropertyOp9
 70
     1
102
RTVSPropertyOp10
 70
     1
102
RTVSPropertyOp11
 70
     1
102
RTVSPropertyOp12
 70
     1
102
RTVSPropertyOp13
 70
     1
102
RTVSPropertyOp14
 70
     1
102
RTVSPropertyOp15
 70
     1
102
RTVSPropertyOp16
 70
     1
102
RTVSPropertyOp17
 70
     1
102
RTVSPropertyOp18
 70
     1
102
RTVSPropertyOp19
 70
     1
102
RTVSPropertyOp20
 70
     1
102
RTVSPropertyOp21
 70
     1
102
RTVSPropertyOp22
 70
     1
102
RTVSPropertyOp23
 70
     1
102
RTVSPropertyOp24
 70
     1
102
RTVSPropertyOp25
 70
     1
102
RTVSPropertyOp26
 70
     1
102
RTVSPropertyOp27
 70
     1
102
RTVSPropertyOp28
 70
     1
102
RTVSPropertyOp29
 70
     1
102
RTVSPropertyOp30
 70
     1
102
RTVSPropertyOp31
 70
     1
102
RTVSPropertyOp32
 70
     1
102
RTVSPropertyOp33
 70
     1
102
RTVSPropertyOp34
 70
     1
102
RTVSPropertyOp35
 70
     1
102
RTVSPropertyOp36
 70
     1
102
RTVSPropertyOp37
 70
     1
102
RTVSPropertyOp38
 70
     1
102
RTVSPropertyOp39
 70
     1
102
RTVSPropertyOp40
 70
     1
102
RTVSPropertyOp41
 70
     1
102
RTVSPropertyOp42
 70
     1
102
RTVSPropertyOp43
 70
     1
102
RTVSPropertyOp44
 70
     1
102
RTVSPropertyOp45
 70
     1
102
RTVSPropertyOp46
 70
     1
102
RTVSPropertyOp47
 70
     1
102
RTVSPropertyOp48
 70
     1
102
RTVSPropertyOp49
 70
     1
102
RTVSPropertyOp50
 70
     1
102
RTVSPropertyOp51
 70
     0
102
RTVSPropertyOp52
 70
     0
102
RTVSPropertyOp53
 70
     1
102
RTVSPropertyOp54
 70
     1
102
RTVSPropertyOp55
 70
     1
102
RTVSPropertyOp56
 70
     1
102
RTVSPropertyOp57
 70
     1
102
RTVSPropertyOp58
 70
     1
102
RTVSPropertyOp59
 70
     1
102
RTVSPropertyOp60
 70
     1
102
RTVSPropertyOp61
 70
     1
102
RTVSPropertyOp62
 70
     1
  0
ENDSEC
  0
EOF
