  0
SECTION
  2
HEADER
  9
$ACADVER
  1
AC1015
  9
$ACADMAINTVER
 70
    20
  9
$DWGCODEPAGE
  3
ANSI_932
  9
$INSBASE
 10
0.0
 20
0.0
 30
0.0
  9
$EXTMIN
 10
-0.1922460740788665
 20
-0.2700599612071528
 30
-0.0015258207003583
  9
$EXTMAX
 10
6300.192275410744
 20
8850.270101172235
 30
0.0000000349246037
  9
$LIMMIN
 10
0.0
 20
0.0
  9
$LIMMAX
 10
297.0
 20
210.0
  9
$ORTHOMODE
 70
     1
  9
$REGENMODE
 70
     1
  9
$FILLMODE
 70
     0
  9
$QTEXTMODE
 70
     0
  9
$MIRRTEXT
 70
     1
  9
$LTSCALE
 40
100.0
  9
$ATTMODE
 70
     1
  9
$TEXTSIZE
 40
180.0
  9
$TRACEWID
 40
0.05
  9
$TEXTSTYLE
  7
STANDARD
  9
$CLAYER
  8
3
  9
$CELTYPE
  6
ByLayer
  9
$CECOLOR
 62
   256
  9
$CELTSCALE
 40
1.0
  9
$DISPSILH
 70
     0
  9
$DIMSCALE
 40
30.0
  9
$DIMASZ
 40
2.0
  9
$DIMEXO
 40
1.0
  9
$DIMDLI
 40
10.0
  9
$DIMRND
 40
0.0
  9
$DIMDLE
 40
0.0
  9
$DIMEXE
 40
1.0
  9
$DIMTP
 40
1.0
  9
$DIMTM
 40
1.0
  9
$DIMTXT
 40
3.0
  9
$DIMCEN
 40
0.0
  9
$DIMTSZ
 40
0.0
  9
$DIMTOL
 70
     0
  9
$DIMLIM
 70
     0
  9
$DIMTIH
 70
     0
  9
$DIMTOH
 70
     0
  9
$DIMSE1
 70
     0
  9
$DIMSE2
 70
     0
  9
$DIMTAD
 70
     1
  9
$DIMZIN
 70
     8
  9
$DIMBLK
  1

  9
$DIMASO
 70
     1
  9
$DIMSHO
 70
     1
  9
$DIMPOST
  1

  9
$DIMAPOST
  1

  9
$DIMALT
 70
     0
  9
$DIMALTD
 70
     2
  9
$DIMALTF
 40
0.039
  9
$DIMLFAC
 40
1.0
  9
$DIMTOFL
 70
     1
  9
$DIMTVP
 40
0.0
  9
$DIMTIX
 70
     0
  9
$DIMSOXD
 70
     0
  9
$DIMSAH
 70
     1
  9
$DIMBLK1
  1
OPEN
  9
$DIMBLK2
  1
OPEN
  9
$DIMSTYLE
  2
IGA
  9
$DIMCLRD
 70
     0
  9
$DIMCLRE
 70
     0
  9
$DIMCLRT
 70
     0
  9
$DIMTFAC
 40
10.0
  9
$DIMGAP
 40
1.0
  9
$DIMJUST
 70
     0
  9
$DIMSD1
 70
     0
  9
$DIMSD2
 70
     0
  9
$DIMTOLJ
 70
     1
  9
$DIMTZIN
 70
     0
  9
$DIMALTZ
 70
     0
  9
$DIMALTTZ
 70
     0
  9
$DIMUPT
 70
     0
  9
$DIMDEC
 70
     4
  9
$DIMTDEC
 70
     4
  9
$DIMALTU
 70
     2
  9
$DIMALTTD
 70
     2
  9
$DIMTXSTY
  7
STANDARD
  9
$DIMAUNIT
 70
     0
  9
$DIMADEC
 70
     0
  9
$DIMALTRND
 40
0.0
  9
$DIMAZIN
 70
     0
  9
$DIMDSEP
 70
    46
  9
$DIMATFIT
 70
     3
  9
$DIMFRAC
 70
     0
  9
$DIMLDRBLK
  1
OPEN
  9
$DIMLUNIT
 70
     2
  9
$DIMLWD
 70
    -2
  9
$DIMLWE
 70
    -2
  9
$DIMTMOVE
 70
     0
  9
$LUNITS
 70
     2
  9
$LUPREC
 70
     3
  9
$SKETCHINC
 40
0.1
  9
$FILLETRAD
 40
50.0
  9
$AUNITS
 70
     0
  9
$AUPREC
 70
     0
  9
$MENU
  1
acad
  9
$ELEVATION
 40
0.0
  9
$PELEVATION
 40
0.0
  9
$THICKNESS
 40
0.0
  9
$LIMCHECK
 70
     0
  9
$CHAMFERA
 40
0.5
  9
$CHAMFERB
 40
0.5
  9
$CHAMFERC
 40
0.0
  9
$CHAMFERD
 40
0.0
  9
$SKPOLY
 70
     0
  9
$TDCREATE
 40
2451389.575190046
  9
$TDUCREATE
 40
2451389.200190047
  9
$TDUPDATE
 40
2460271.704951320
  9
$TDUUPDATE
 40
2460271.329951320
  9
$TDINDWG
 40
0.0324897917
  9
$TDUSRTIMER
 40
0.0324897685
  9
$USRTIMER
 70
     1
  9
$ANGBASE
 50
0.0
  9
$ANGDIR
 70
     0
  9
$PDMODE
 70
     0
  9
$PDSIZE
 40
0.0
  9
$PLINEWID
 40
0.0
  9
$SPLFRAME
 70
     0
  9
$SPLINETYPE
 70
     6
  9
$SPLINESEGS
 70
     8
  9
$HANDSEED
  5
83EF
  9
$SURFTAB1
 70
     6
  9
$SURFTAB2
 70
     6
  9
$SURFTYPE
 70
     6
  9
$SURFU
 70
     6
  9
$SURFV
 70
     6
  9
$UCSBASE
  2

  9
$UCSNAME
  2

  9
$UCSORG
 10
0.0
 20
0.0
 30
0.0
  9
$UCSXDIR
 10
1.0
 20
0.0
 30
0.0
  9
$UCSYDIR
 10
0.0
 20
1.0
 30
0.0
  9
$UCSORTHOREF
  2

  9
$UCSORTHOVIEW
 70
     0
  9
$UCSORGTOP
 10
0.0
 20
0.0
 30
0.0
  9
$UCSORGBOTTOM
 10
0.0
 20
0.0
 30
0.0
  9
$UCSORGLEFT
 10
0.0
 20
0.0
 30
0.0
  9
$UCSORGRIGHT
 10
0.0
 20
0.0
 30
0.0
  9
$UCSORGFRONT
 10
0.0
 20
0.0
 30
0.0
  9
$UCSORGBACK
 10
0.0
 20
0.0
 30
0.0
  9
$PUCSBASE
  2

  9
$PUCSNAME
  2

  9
$PUCSORG
 10
0.0
 20
0.0
 30
0.0
  9
$PUCSXDIR
 10
1.0
 20
0.0
 30
0.0
  9
$PUCSYDIR
 10
0.0
 20
1.0
 30
0.0
  9
$PUCSORTHOREF
  2

  9
$PUCSORTHOVIEW
 70
     0
  9
$PUCSORGTOP
 10
0.0
 20
0.0
 30
0.0
  9
$PUCSORGBOTTOM
 10
0.0
 20
0.0
 30
0.0
  9
$PUCSORGLEFT
 10
0.0
 20
0.0
 30
0.0
  9
$PUCSORGRIGHT
 10
0.0
 20
0.0
 30
0.0
  9
$PUCSORGFRONT
 10
0.0
 20
0.0
 30
0.0
  9
$PUCSORGBACK
 10
0.0
 20
0.0
 30
0.0
  9
$USERI1
 70
     0
  9
$USERI2
 70
     0
  9
$USERI3
 70
     0
  9
$USERI4
 70
     0
  9
$USERI5
 70
     0
  9
$USERR1
 40
0.0
  9
$USERR2
 40
0.0
  9
$USERR3
 40
0.0
  9
$USERR4
 40
0.0
  9
$USERR5
 40
0.0
  9
$WORLDVIEW
 70
     1
  9
$SHADEDGE
 70
     3
  9
$SHADEDIF
 70
    70
  9
$TILEMODE
 70
     1
  9
$MAXACTVP
 70
    16
  9
$PINSBASE
 10
0.0
 20
0.0
 30
0.0
  9
$PLIMCHECK
 70
     0
  9
$PEXTMIN
 10
1.000000000000000E+20
 20
1.000000000000000E+20
 30
1.000000000000000E+20
  9
$PEXTMAX
 10
-1.000000000000000E+20
 20
-1.000000000000000E+20
 30
-1.000000000000000E+20
  9
$PLIMMIN
 10
0.0
 20
0.0
  9
$PLIMMAX
 10
12.0
 20
9.0
  9
$UNITMODE
 70
     0
  9
$VISRETAIN
 70
     0
  9
$PLINEGEN
 70
     0
  9
$PSLTSCALE
 70
     1
  9
$TREEDEPTH
 70
  3020
  9
$CMLSTYLE
  2
Standard
  9
$CMLJUST
 70
     0
  9
$CMLSCALE
 40
1.0
  9
$PROXYGRAPHICS
 70
     1
  9
$MEASUREMENT
 70
     0
  9
$CELWEIGHT
370
    -1
  9
$ENDCAPS
280
     0
  9
$JOINSTYLE
280
     0
  9
$LWDISPLAY
290
     0
  9
$INSUNITS
 70
     0
  9
$HYPERLINKBASE
  1

  9
$STYLESHEET
  1

  9
$XEDIT
290
     1
  9
$CEPSNTYPE
380
     0
  9
$PSTYLEMODE
290
     1
  9
$FINGERPRINTGUID
  2
{0090F1DE-FF43-40A8-B43E-780CCDCB3814}
  9
$VERSIONGUID
  2
{55F7048B-B394-449E-89C3-A53602CC4A44}
  9
$EXTNAMES
290
     1
  9
$PSVPSCALE
 40
0.0
  9
$OLESTARTUP
290
     0
  0
ENDSEC
  0
SECTION
  2
CLASSES
  0
CLASS
  1
ACDBDICTIONARYWDFLT
  2
AcDbDictionaryWithDefault
  3
ObjectDBX Classes
 90
        0
280
     0
281
     0
  0
CLASS
  1
MATERIAL
  2
AcDbMaterial
  3
ObjectDBX Classes
 90
     1153
280
     0
281
     0
  0
CLASS
  1
VISUALSTYLE
  2
AcDbVisualStyle
  3
ObjectDBX Classes
 90
     4095
280
     0
281
     0
  0
CLASS
  1
SCALE
  2
AcDbScale
  3
ObjectDBX Classes
 90
     1153
280
     0
281
     0
  0
CLASS
  1
TABLESTYLE
  2
AcDbTableStyle
  3
ObjectDBX Classes
 90
     4095
280
     0
281
     0
  0
CLASS
  1
MLEADERSTYLE
  2
AcDbMLeaderStyle
  3
ACDB_MLEADERSTYLE_CLASS
 90
     4095
280
     0
281
     0
  0
CLASS
  1
ACDBSECTIONVIEWSTYLE
  2
AcDbSectionViewStyle
  3
ObjectDBX Classes
 90
     1025
280
     0
281
     0
  0
CLASS
  1
ACDBDETAILVIEWSTYLE
  2
AcDbDetailViewStyle
  3
ObjectDBX Classes
 90
     1025
280
     0
281
     0
  0
CLASS
  1
SORTENTSTABLE
  2
AcDbSortentsTable
  3
ObjectDBX Classes
 90
        0
280
     0
281
     0
  0
CLASS
  1
DICTIONARYVAR
  2
AcDbDictionaryVar
  3
ObjectDBX Classes
 90
        0
280
     0
281
     0
  0
CLASS
  1
CELLSTYLEMAP
  2
AcDbCellStyleMap
  3
ObjectDBX Classes
 90
     1152
280
     0
281
     0
  0
CLASS
  1
ACDBPLACEHOLDER
  2
AcDbPlaceHolder
  3
ObjectDBX Classes
 90
        0
280
     0
281
     0
  0
CLASS
  1
LAYOUT
  2
AcDbLayout
  3
ObjectDBX Classes
 90
        0
280
     0
281
     0
  0
ENDSEC
  0
SECTION
  2
TABLES
  0
TABLE
  2
VPORT
  5
8198
330
0
100
AcDbSymbolTable
 70
     1
  0
VPORT
  5
8204
330
8198
100
AcDbSymbolTableRecord
100
AcDbViewportTableRecord
  2
*ACTIVE
 70
     0
 10
0.0
 20
0.0
 11
1.0
 21
1.0
 12
3150.000014668333
 22
4425.000020605514
 13
0.0
 23
0.0
 14
10.0
 24
10.0
 15
10.0
 25
10.0
 16
0.0
 26
0.0
 36
1.0
 17
0.0
 27
0.0
 37
0.0
 40
8907.213844128961
 41
2.050213675213675
 42
50.0
 43
0.0
 44
0.0
 50
0.0
 51
0.0
 71
     0
 72
   100
 73
     1
 74
     0
 75
     0
 76
     0
 77
     0
 78
     0
281
     0
 65
     1
110
0.0
120
0.0
130
0.0
111
1.0
121
0.0
131
0.0
112
0.0
122
1.0
132
0.0
 79
     0
146
0.0
1001
ACAD_NAV_VCDISPLAY
1070
     3
  0
ENDTAB
  0
TABLE
  2
LTYPE
  5
8195
330
0
100
AcDbSymbolTable
 70
     3
  0
LTYPE
  5
81EA
330
8195
100
AcDbSymbolTableRecord
100
AcDbLinetypeTableRecord
  2
ByBlock
 70
     0
  3

 72
    65
 73
     0
 40
0.0
  0
LTYPE
  5
81EB
330
8195
100
AcDbSymbolTableRecord
100
AcDbLinetypeTableRecord
  2
ByLayer
 70
     0
  3

 72
    65
 73
     0
 40
0.0
  0
LTYPE
  5
81EC
330
8195
100
AcDbSymbolTableRecord
100
AcDbLinetypeTableRecord
  2
CONTINUOUS
 70
     0
  3
Solid line
 72
    65
 73
     0
 40
0.0
  0
LTYPE
  5
8205
330
8195
100
AcDbSymbolTableRecord
100
AcDbLinetypeTableRecord
  2
CENTER
 70
     0
  3
____ _ ____ _ ____ _ ____ _ ____ _ ____ _ ____ 
 72
    65
 73
     4
 40
2.0
 49
1.25
 74
     0
 49
-0.25
 74
     0
 49
0.25
 74
     0
 49
-0.25
 74
     0
  0
ENDTAB
  0
TABLE
  2
LAYER
  5
8192
330
0
100
AcDbSymbolTable
 70
     6
  0
LAYER
  5
81E4
102
{ACAD_XDICTIONARY
360
8317
102
}
330
8192
100
AcDbSymbolTableRecord
100
AcDbLayerTableRecord
  2
0
 70
     0
 62
     7
  6
CONTINUOUS
370
    -3
390
819F
  0
LAYER
  5
8203
102
{ACAD_XDICTIONARY
360
8319
102
}
330
8192
100
AcDbSymbolTableRecord
100
AcDbLayerTableRecord
  2
3
 70
     0
 62
     2
  6
CONTINUOUS
370
    -3
390
819F
  0
LAYER
  5
8206
102
{ACAD_XDICTIONARY
360
831B
102
}
330
8192
100
AcDbSymbolTableRecord
100
AcDbLayerTableRecord
  2
2
 70
     0
 62
     3
  6
CENTER
370
    -3
390
819F
  0
LAYER
  5
8207
102
{ACAD_XDICTIONARY
360
831D
102
}
330
8192
100
AcDbSymbolTableRecord
100
AcDbLayerTableRecord
  2
1
 70
     0
 62
     4
  6
CONTINUOUS
370
    -3
390
819F
  0
LAYER
  5
8208
102
{ACAD_XDICTIONARY
360
831F
102
}
330
8192
100
AcDbSymbolTableRecord
100
AcDbLayerTableRecord
  2
4
 70
     0
 62
     7
  6
CONTINUOUS
370
    -3
390
819F
  0
LAYER
  5
8209
330
8192
100
AcDbSymbolTableRecord
100
AcDbLayerTableRecord
  2
DEFPOINTS
 70
     0
 62
     7
  6
CONTINUOUS
290
     0
370
    -3
390
819F
  0
ENDTAB
  0
TABLE
  2
STYLE
  5
8193
330
0
100
AcDbSymbolTable
 70
     2
  0
STYLE
  5
81E5
330
8193
100
AcDbSymbolTableRecord
100
AcDbTextStyleTableRecord
  2
STANDARD
 70
     0
 40
0.0
 41
1.0
 50
0.0
 71
     0
 42
180.0
  3
simplex.shx
  4
extfont.shx
  0
STYLE
  5
81E9
330
8193
100
AcDbSymbolTableRecord
100
AcDbTextStyleTableRecord
  2
Annotative
 70
     0
 40
0.0
 41
1.0
 50
0.0
 71
     0
 42
0.2
  3
txt
  4

1001
AcadAnnotative
1000
AnnotativeData
1002
{
1070
     1
1070
     1
1002
}
  0
ENDTAB
  0
TABLE
  2
VIEW
  5
8196
330
0
100
AcDbSymbolTable
 70
     0
  0
ENDTAB
  0
TABLE
  2
UCS
  5
8197
330
0
100
AcDbSymbolTable
 70
     0
  0
ENDTAB
  0
TABLE
  2
APPID
  5
8199
330
0
100
AcDbSymbolTable
 70
     6
  0
APPID
  5
81E6
330
8199
100
AcDbSymbolTableRecord
100
AcDbRegAppTableRecord
  2
ACAD
 70
     0
  0
APPID
  5
81ED
330
8199
100
AcDbSymbolTableRecord
100
AcDbRegAppTableRecord
  2
AcadAnnotative
 70
     0
  0
APPID
  5
8260
330
8199
100
AcDbSymbolTableRecord
100
AcDbRegAppTableRecord
  2
AcadAnnoMonitorAlertIconDisabled
 70
     0
  0
APPID
  5
8261
330
8199
100
AcDbSymbolTableRecord
100
AcDbRegAppTableRecord
  2
ACAD_EXEMPT_FROM_CAD_STANDARDS
 70
     0
  0
APPID
  5
832B
330
8199
100
AcDbSymbolTableRecord
100
AcDbRegAppTableRecord
  2
ACAD_NAV_VCDISPLAY
 70
     0
  0
APPID
  5
83E6
330
8199
100
AcDbSymbolTableRecord
100
AcDbRegAppTableRecord
  2
ACAD_MLEADERVER
 70
     0
  0
ENDTAB
  0
TABLE
  2
DIMSTYLE
  5
819A
330
0
100
AcDbSymbolTable
 70
     4
100
AcDbDimStyleTable
 71
     1
340
820A
  0
DIMSTYLE
105
81E7
102
{ACAD_REACTORS
330
7C7A
330
7C7B
330
7CBD
330
7CBF
330
7CC0
330
7CC4
330
7CC5
330
7CFB
330
7D03
330
7D08
330
80D8
330
80E5
330
80F2
330
80FF
102
}
330
819A
100
AcDbSymbolTableRecord
100
AcDbDimStyleTableRecord
  2
Standard
 70
     0
340
81E5
  0
DIMSTYLE
105
81E8
330
819A
100
AcDbSymbolTableRecord
100
AcDbDimStyleTableRecord
  2
Annotative
 70
     0
340
81E5
1001
AcadAnnotative
1000
AnnotativeData
1002
{
1070
     1
1070
     1
1002
}
  0
DIMSTYLE
105
820A
102
{ACAD_REACTORS
330
8246
330
8253
330
82AA
330
82DB
330
82F4
330
830A
102
}
330
819A
100
AcDbSymbolTableRecord
100
AcDbDimStyleTableRecord
  2
IGA
 70
     0
 40
2.0
 41
2.0
 42
0.5
 43
10.0
 44
1.0
 47
1.0
 48
1.0
 73
     0
 74
     0
 77
     1
 78
     8
140
3.0
141
0.0
143
0.03937
146
10.0
147
1.0
173
     1
271
     3
272
     3
279
     2
284
     8
285
     8
286
     8
340
81E5
  0
DIMSTYLE
105
820B
330
819A
100
AcDbSymbolTableRecord
100
AcDbDimStyleTableRecord
  2
MATSU
 70
     0
 41
2.0
 42
1.0
 43
10.0
 44
1.0
 73
     0
 74
     0
 77
     1
 78
     8
140
3.0
141
0.0
143
0.03937
147
0.5
172
     1
173
     1
176
   256
177
   256
178
   256
271
     3
272
     3
279
     2
284
     8
285
     8
286
     8
340
81E5
  0
ENDTAB
  0
TABLE
  2
BLOCK_RECORD
  5
8191
330
0
100
AcDbSymbolTable
 70
    35
  0
BLOCK_RECORD
  5
81FF
102
{ACAD_XDICTIONARY
360
82F2
102
}
330
8191
100
AcDbSymbolTableRecord
100
AcDbBlockTableRecord
  2
*Model_Space
340
8202
  0
BLOCK_RECORD
  5
81FB
330
8191
100
AcDbSymbolTableRecord
100
AcDbBlockTableRecord
  2
*Paper_Space
340
81FE
  0
BLOCK_RECORD
  5
820F
330
8191
100
AcDbSymbolTableRecord
100
AcDbBlockTableRecord
  2
$MODEL_SPACE
340
0
  0
BLOCK_RECORD
  5
8211
330
8191
100
AcDbSymbolTableRecord
100
AcDbBlockTableRecord
  2
$PAPER_SPACE
340
0
  0
BLOCK_RECORD
  5
8213
330
8191
100
AcDbSymbolTableRecord
100
AcDbBlockTableRecord
  2
_OPEN
340
0
102
{BLKREFS
331
8033
331
8034
331
82A4
331
82A5
331
82B1
331
82B2
331
82CC
331
82CD
331
82D5
331
82D6
331
82EB
331
82EC
331
7ECF
331
7ED0
331
7EDA
331
7EDB
331
7EE5
331
7EE6
331
8179
331
817A
331
7EFA
331
7EFB
331
8181
331
8182
331
7F33
331
7F34
331
8304
331
8305
331
8311
331
8312
331
7E35
331
7E36
331
7E40
331
7E41
331
7E8D
331
7E8E
331
7E98
331
7E99
331
7EA3
331
7EA4
331
7EAE
331
7EAF
331
801D
331
801E
331
80D1
331
80D2
331
80DE
331
80DF
331
80EB
331
80EC
331
80F8
331
80F9
331
8105
331
8106
102
}
  0
BLOCK_RECORD
  5
8215
330
8191
100
AcDbSymbolTableRecord
100
AcDbBlockTableRecord
  2
YA_N
340
0
102
{BLKREFS
331
7C98
331
7CCD
331
7CCF
331
7CD1
331
7CD3
331
7C27
331
7C3D
331
7C78
102
}
  0
BLOCK_RECORD
  5
8217
330
8191
100
AcDbSymbolTableRecord
100
AcDbBlockTableRecord
  2
*D4
340
0
  0
BLOCK_RECORD
  5
8219
330
8191
100
AcDbSymbolTableRecord
100
AcDbBlockTableRecord
  2
*D5
340
0
  0
BLOCK_RECORD
  5
821B
330
8191
100
AcDbSymbolTableRecord
100
AcDbBlockTableRecord
  2
*D6
340
0
  0
BLOCK_RECORD
  5
821D
330
8191
100
AcDbSymbolTableRecord
100
AcDbBlockTableRecord
  2
*D7
340
0
  0
BLOCK_RECORD
  5
821F
330
8191
100
AcDbSymbolTableRecord
100
AcDbBlockTableRecord
  2
*D8
340
0
  0
BLOCK_RECORD
  5
8221
330
8191
100
AcDbSymbolTableRecord
100
AcDbBlockTableRecord
  2
*D9
340
0
  0
BLOCK_RECORD
  5
8223
330
8191
100
AcDbSymbolTableRecord
100
AcDbBlockTableRecord
  2
*D10
340
0
  0
BLOCK_RECORD
  5
8225
330
8191
100
AcDbSymbolTableRecord
100
AcDbBlockTableRecord
  2
*U11
340
0
102
{BLKREFS
331
801F
102
}
  0
BLOCK_RECORD
  5
8226
330
8191
100
AcDbSymbolTableRecord
100
AcDbBlockTableRecord
  2
*D12
340
0
  0
BLOCK_RECORD
  5
8228
330
8191
100
AcDbSymbolTableRecord
100
AcDbBlockTableRecord
  2
*D13
340
0
  0
BLOCK_RECORD
  5
822A
330
8191
100
AcDbSymbolTableRecord
100
AcDbBlockTableRecord
  2
*D14
340
0
  0
BLOCK_RECORD
  5
822C
330
8191
100
AcDbSymbolTableRecord
100
AcDbBlockTableRecord
  2
*D15
340
0
  0
BLOCK_RECORD
  5
822E
330
8191
100
AcDbSymbolTableRecord
100
AcDbBlockTableRecord
  2
*D16
340
0
  0
BLOCK_RECORD
  5
8230
330
8191
100
AcDbSymbolTableRecord
100
AcDbBlockTableRecord
  2
*D17
340
0
  0
BLOCK_RECORD
  5
8232
330
8191
100
AcDbSymbolTableRecord
100
AcDbBlockTableRecord
  2
*D18
340
0
  0
BLOCK_RECORD
  5
8234
330
8191
100
AcDbSymbolTableRecord
100
AcDbBlockTableRecord
  2
*D19
340
0
  0
BLOCK_RECORD
  5
8236
330
8191
100
AcDbSymbolTableRecord
100
AcDbBlockTableRecord
  2
_DOT
340
0
  0
BLOCK_RECORD
  5
8238
330
8191
100
AcDbSymbolTableRecord
100
AcDbBlockTableRecord
  2
_NONE
340
0
  0
BLOCK_RECORD
  5
823A
330
8191
100
AcDbSymbolTableRecord
100
AcDbBlockTableRecord
  2
*D22
340
0
  0
BLOCK_RECORD
  5
823C
330
8191
100
AcDbSymbolTableRecord
100
AcDbBlockTableRecord
  2
*D23
340
0
  0
BLOCK_RECORD
  5
823E
330
8191
100
AcDbSymbolTableRecord
100
AcDbBlockTableRecord
  2
*D24
340
0
  0
BLOCK_RECORD
  5
8240
330
8191
100
AcDbSymbolTableRecord
100
AcDbBlockTableRecord
  2
*D25
340
0
  0
BLOCK_RECORD
  5
8242
330
8191
100
AcDbSymbolTableRecord
100
AcDbBlockTableRecord
  2
*D26
340
0
  0
BLOCK_RECORD
  5
8247
330
8191
100
AcDbSymbolTableRecord
100
AcDbBlockTableRecord
  2
*D27
340
0
  0
BLOCK_RECORD
  5
8254
330
8191
100
AcDbSymbolTableRecord
100
AcDbBlockTableRecord
  2
*D28
340
0
  0
BLOCK_RECORD
  5
8288
330
8191
100
AcDbSymbolTableRecord
100
AcDbBlockTableRecord
  2
*D29
340
0
  0
BLOCK_RECORD
  5
8294
330
8191
100
AcDbSymbolTableRecord
100
AcDbBlockTableRecord
  2
*D30
340
0
  0
BLOCK_RECORD
  5
82AB
330
8191
100
AcDbSymbolTableRecord
100
AcDbBlockTableRecord
  2
*D31
340
0
  0
BLOCK_RECORD
  5
82DC
330
8191
100
AcDbSymbolTableRecord
100
AcDbBlockTableRecord
  2
*D32
340
0
  0
BLOCK_RECORD
  5
82F5
330
8191
100
AcDbSymbolTableRecord
100
AcDbBlockTableRecord
  2
*D33
340
0
  0
BLOCK_RECORD
  5
830B
330
8191
100
AcDbSymbolTableRecord
100
AcDbBlockTableRecord
  2
*D34
340
0
  0
ENDTAB
  0
ENDSEC
  0
SECTION
  2
BLOCKS
  0
BLOCK
  5
8200
330
81FF
100
AcDbEntity
  8
0
100
AcDbBlockBegin
  2
*Model_Space
 70
     0
 10
0.0
 20
0.0
 30
0.0
  3
*Model_Space
  1

  0
ENDBLK
  5
8201
330
81FF
100
AcDbEntity
  8
0
100
AcDbBlockEnd
  0
BLOCK
  5
81FC
330
81FB
100
AcDbEntity
 67
     1
  8
0
100
AcDbBlockBegin
  2
*Paper_Space
 70
     0
 10
0.0
 20
0.0
 30
0.0
  3
*Paper_Space
  1

  0
ENDBLK
  5
81FD
330
81FB
100
AcDbEntity
 67
     1
  8
0
100
AcDbBlockEnd
  0
BLOCK
  5
8210
330
820F
100
AcDbEntity
  8
0
100
AcDbBlockBegin
  2
$MODEL_SPACE
 70
     0
 10
0.0
 20
0.0
 30
0.0
  3
$MODEL_SPACE
  1

  0
ENDBLK
  5
1B
330
820F
100
AcDbEntity
  8
0
100
AcDbBlockEnd
  0
BLOCK
  5
8212
330
8211
100
AcDbEntity
  8
0
100
AcDbBlockBegin
  2
$PAPER_SPACE
 70
     0
 10
0.0
 20
0.0
 30
0.0
  3
$PAPER_SPACE
  1

  0
ENDBLK
  5
18
330
8211
100
AcDbEntity
  8
0
100
AcDbBlockEnd
  0
BLOCK
  5
8214
330
8213
100
AcDbEntity
  8
0
100
AcDbBlockBegin
  2
_OPEN
 70
     0
 10
0.0
 20
0.0
 30
0.0
  3
_OPEN
  1

  0
LINE
  5
79FD
330
8213
100
AcDbEntity
  8
0
  6
ByBlock
 62
     0
100
AcDbLine
 10
-1.0
 20
0.1666666666666666
 30
0.0
 11
0.0
 21
0.0
 31
0.0
  0
LINE
  5
79FE
330
8213
100
AcDbEntity
  8
0
  6
ByBlock
 62
     0
100
AcDbLine
 10
0.0
 20
0.0
 30
0.0
 11
-1.0
 21
-0.1666666666666666
 31
0.0
  0
LINE
  5
79FF
330
8213
100
AcDbEntity
  8
0
  6
ByBlock
 62
     0
100
AcDbLine
 10
0.0
 20
0.0
 30
0.0
 11
-1.0
 21
0.0
 31
0.0
  0
ENDBLK
  5
7A01
330
8213
100
AcDbEntity
  8
0
100
AcDbBlockEnd
  0
BLOCK
  5
8216
330
8215
100
AcDbEntity
  8
0
100
AcDbBlockBegin
  2
YA_N
 70
     0
 10
0.0
 20
0.0
 30
0.0
  3
YA_N
  1

  0
ENDBLK
  5
7A04
330
8215
100
AcDbEntity
  8
0
100
AcDbBlockEnd
  0
BLOCK
  5
8218
330
8217
100
AcDbEntity
  8
0
100
AcDbBlockBegin
  2
*D4
 70
     1
 10
0.0
 20
0.0
 30
0.0
  3
*D4
  1

  0
LINE
  5
7E32
330
8217
100
AcDbEntity
  8
0
  6
ByBlock
100
AcDbLine
 10
2234.165690591193
 20
1338.060302835747
 30
0.0
 11
2234.165690591193
 21
1539.22039982989
 31
0.0
  0
LINE
  5
7E33
330
8217
100
AcDbEntity
  8
0
  6
ByBlock
100
AcDbLine
 10
1204.165690591195
 20
1338.060302835747
 30
0.0
 11
1204.165690591195
 21
1539.22039982989
 31
0.0
  0
LINE
  5
7E34
330
8217
100
AcDbEntity
  8
0
  6
ByBlock
100
AcDbLine
 10
2174.165690591194
 20
1509.22039982989
 30
0.0
 11
1264.165690591195
 21
1509.22039982989
 31
0.0
  0
INSERT
  5
7E35
330
8217
100
AcDbEntity
  8
0
  6
ByBlock
100
AcDbBlockReference
  2
_OPEN
 10
2234.165690591193
 20
1509.22039982989
 30
0.0
 41
60.0
 42
60.0
 43
60.0
  0
INSERT
  5
7E36
330
8217
100
AcDbEntity
  8
0
  6
ByBlock
100
AcDbBlockReference
  2
_OPEN
 10
1204.165690591195
 20
1509.22039982989
 30
0.0
 41
60.0
 42
60.0
 43
60.0
 50
180.0
  0
TEXT
  5
7E37
330
8217
100
AcDbEntity
  8
3
100
AcDbText
 10
1569.165690591194
 20
1524.22039982989
 30
0.0
 40
90.0
  1
1030
100
AcDbText
  0
POINT
  5
7E38
330
8217
100
AcDbEntity
  8
DEFPOINTS
  6
ByBlock
 62
     0
100
AcDbPoint
 10
2234.165690591193
 20
1308.060302835747
 30
0.0
  0
POINT
  5
7E39
330
8217
100
AcDbEntity
  8
DEFPOINTS
  6
ByBlock
 62
     0
100
AcDbPoint
 10
1204.165690591195
 20
1308.060302835747
 30
0.0
  0
POINT
  5
7E3A
330
8217
100
AcDbEntity
  8
DEFPOINTS
  6
ByBlock
 62
     0
100
AcDbPoint
 10
1204.165690591195
 20
1509.22039982989
 30
0.0
  0
ENDBLK
  5
7E3B
330
8217
100
AcDbEntity
  8
0
100
AcDbBlockEnd
  0
BLOCK
  5
821A
330
8219
100
AcDbEntity
  8
0
100
AcDbBlockBegin
  2
*D5
 70
     1
 10
0.0
 20
0.0
 30
0.0
  3
*D5
  1

  0
LINE
  5
7E3D
330
8219
100
AcDbEntity
  8
0
  6
ByBlock
100
AcDbLine
 10
2234.165690591193
 20
1338.060302835747
 30
0.0
 11
2234.165690591193
 21
1740.022445289042
 31
0.0
  0
LINE
  5
7E3E
330
8219
100
AcDbEntity
  8
0
  6
ByBlock
100
AcDbLine
 10
1160.165690591194
 20
1397.676285333375
 30
0.0
 11
1160.165690591194
 21
1740.022445289042
 31
0.0
  0
LINE
  5
7E3F
330
8219
100
AcDbEntity
  8
0
  6
ByBlock
100
AcDbLine
 10
2174.165690591194
 20
1710.022445289044
 30
0.0
 11
1220.165690591194
 21
1710.022445289044
 31
0.0
  0
INSERT
  5
7E40
330
8219
100
AcDbEntity
  8
0
  6
ByBlock
100
AcDbBlockReference
  2
_OPEN
 10
2234.165690591193
 20
1710.022445289044
 30
0.0
 41
60.0
 42
60.0
 43
60.0
  0
INSERT
  5
7E41
330
8219
100
AcDbEntity
  8
0
  6
ByBlock
100
AcDbBlockReference
  2
_OPEN
 10
1160.165690591194
 20
1710.022445289044
 30
0.0
 41
60.0
 42
60.0
 43
60.0
 50
180.0
  0
TEXT
  5
7E42
330
8219
100
AcDbEntity
  8
3
100
AcDbText
 10
1545.022833448337
 20
1725.022445289043
 30
0.0
 40
90.0
  1
1074
100
AcDbText
  0
POINT
  5
7E43
330
8219
100
AcDbEntity
  8
DEFPOINTS
  6
ByBlock
 62
     0
100
AcDbPoint
 10
2234.165690591193
 20
1308.060302835747
 30
0.0
  0
POINT
  5
7E44
330
8219
100
AcDbEntity
  8
DEFPOINTS
  6
ByBlock
 62
     0
100
AcDbPoint
 10
1160.165690591194
 20
1367.676285333375
 30
0.0
  0
POINT
  5
7E45
330
8219
100
AcDbEntity
  8
DEFPOINTS
  6
ByBlock
 62
     0
100
AcDbPoint
 10
1160.165690591194
 20
1710.022445289044
 30
0.0
  0
ENDBLK
  5
7E46
330
8219
100
AcDbEntity
  8
0
100
AcDbBlockEnd
  0
BLOCK
  5
821C
330
821B
100
AcDbEntity
  8
0
100
AcDbBlockBegin
  2
*D6
 70
     1
 10
0.0
 20
0.0
 30
0.0
  3
*D6
  1

  0
LINE
  5
7E8A
330
821B
100
AcDbEntity
  8
0
  6
ByBlock
100
AcDbLine
 10
1785.165690591193
 20
4406.031599361241
 30
0.0
 11
1785.165690591193
 21
4627.335536588958
 31
0.0
  0
LINE
  5
7E8B
330
821B
100
AcDbEntity
  8
0
  6
ByBlock
100
AcDbLine
 10
535.1656905911932
 20
4406.031599361237
 30
0.0
 11
535.1656905911932
 21
4627.335536588958
 31
0.0
  0
LINE
  5
7E8C
330
821B
100
AcDbEntity
  8
0
  6
ByBlock
100
AcDbLine
 10
1725.165690591193
 20
4597.335536588958
 30
0.0
 11
595.165690591193
 21
4597.335536588958
 31
0.0
  0
INSERT
  5
7E8D
330
821B
100
AcDbEntity
  8
0
  6
ByBlock
100
AcDbBlockReference
  2
_OPEN
 10
1785.165690591193
 20
4597.335536588958
 30
0.0
 41
60.0
 42
60.0
 43
60.0
  0
INSERT
  5
7E8E
330
821B
100
AcDbEntity
  8
0
  6
ByBlock
100
AcDbBlockReference
  2
_OPEN
 10
535.1656905911932
 20
4597.335536588958
 30
0.0
 41
60.0
 42
60.0
 43
60.0
 50
180.0
  0
TEXT
  5
7E8F
330
821B
100
AcDbEntity
  8
3
100
AcDbText
 10
1010.165690591193
 20
4612.335536588958
 30
0.0
 40
90.0
  1
1250
100
AcDbText
  0
POINT
  5
7E90
330
821B
100
AcDbEntity
  8
DEFPOINTS
  6
ByBlock
 62
     0
100
AcDbPoint
 10
1785.165690591193
 20
4376.031599361239
 30
0.0
  0
POINT
  5
7E91
330
821B
100
AcDbEntity
  8
DEFPOINTS
  6
ByBlock
 62
     0
100
AcDbPoint
 10
535.1656905911932
 20
4376.031599361239
 30
0.0
  0
POINT
  5
7E92
330
821B
100
AcDbEntity
  8
DEFPOINTS
  6
ByBlock
 62
     0
100
AcDbPoint
 10
535.1656905911932
 20
4597.335536588958
 30
0.0
  0
ENDBLK
  5
7E93
330
821B
100
AcDbEntity
  8
0
100
AcDbBlockEnd
  0
BLOCK
  5
821E
330
821D
100
AcDbEntity
  8
0
100
AcDbBlockBegin
  2
*D7
 70
     1
 10
0.0
 20
0.0
 30
0.0
  3
*D7
  1

  0
LINE
  5
7E95
330
821D
100
AcDbEntity
  8
0
  6
ByBlock
100
AcDbLine
 10
2585.165690591193
 20
2841.031599361241
 30
0.0
 11
2585.165690591193
 21
2552.481475534663
 31
0.0
  0
LINE
  5
7E96
330
821D
100
AcDbEntity
  8
0
  6
ByBlock
100
AcDbLine
 10
535.1656905911932
 20
2841.031599361238
 30
0.0
 11
535.1656905911932
 21
2552.481475534663
 31
0.0
  0
LINE
  5
7E97
330
821D
100
AcDbEntity
  8
0
  6
ByBlock
100
AcDbLine
 10
2525.165690591193
 20
2582.481475534663
 30
0.0
 11
595.165690591193
 21
2582.481475534663
 31
0.0
  0
INSERT
  5
7E98
330
821D
100
AcDbEntity
  8
0
  6
ByBlock
100
AcDbBlockReference
  2
_OPEN
 10
2585.165690591193
 20
2582.481475534663
 30
0.0
 41
60.0
 42
60.0
 43
60.0
  0
INSERT
  5
7E99
330
821D
100
AcDbEntity
  8
0
  6
ByBlock
100
AcDbBlockReference
  2
_OPEN
 10
535.1656905911932
 20
2582.481475534663
 30
0.0
 41
60.0
 42
60.0
 43
60.0
 50
180.0
  0
TEXT
  5
7E9A
330
821D
100
AcDbEntity
  8
3
100
AcDbText
 10
1401.594262019765
 20
2597.481475534663
 30
0.0
 40
90.0
  1
2050
100
AcDbText
  0
POINT
  5
7E9B
330
821D
100
AcDbEntity
  8
DEFPOINTS
  6
ByBlock
 62
     0
100
AcDbPoint
 10
2585.165690591193
 20
2871.03159936124
 30
0.0
  0
POINT
  5
7E9C
330
821D
100
AcDbEntity
  8
DEFPOINTS
  6
ByBlock
 62
     0
100
AcDbPoint
 10
535.1656905911932
 20
2871.031599361238
 30
0.0
  0
POINT
  5
7E9D
330
821D
100
AcDbEntity
  8
DEFPOINTS
  6
ByBlock
 62
     0
100
AcDbPoint
 10
535.1656905911932
 20
2582.481475534663
 30
0.0
  0
ENDBLK
  5
7E9E
330
821D
100
AcDbEntity
  8
0
100
AcDbBlockEnd
  0
BLOCK
  5
8220
330
821F
100
AcDbEntity
  8
0
100
AcDbBlockBegin
  2
*D8
 70
     1
 10
0.0
 20
0.0
 30
0.0
  3
*D8
  1

  0
LINE
  5
7EA0
330
821F
100
AcDbEntity
  8
0
  6
ByBlock
100
AcDbLine
 10
2615.165690591193
 20
3721.031599361241
 30
0.0
 11
2837.213758091805
 21
3721.031599361241
 31
0.0
  0
LINE
  5
7EA1
330
821F
100
AcDbEntity
  8
0
  6
ByBlock
100
AcDbLine
 10
2615.165690591193
 20
2871.03159936124
 30
0.0
 11
2837.213758091805
 21
2871.03159936124
 31
0.0
  0
LINE
  5
7EA2
330
821F
100
AcDbEntity
  8
0
  6
ByBlock
100
AcDbLine
 10
2807.213758091804
 20
3661.031599361241
 30
0.0
 11
2807.213758091804
 21
2931.03159936124
 31
0.0
  0
INSERT
  5
7EA3
330
821F
100
AcDbEntity
  8
0
  6
ByBlock
100
AcDbBlockReference
  2
_OPEN
 10
2807.213758091804
 20
3721.031599361241
 30
0.0
 41
60.0
 42
60.0
 43
60.0
 50
90.0
  0
INSERT
  5
7EA4
330
821F
100
AcDbEntity
  8
0
  6
ByBlock
100
AcDbBlockReference
  2
_OPEN
 10
2807.213758091804
 20
2871.03159936124
 30
0.0
 41
60.0
 42
60.0
 43
60.0
 50
270.0
  0
TEXT
  5
7EA5
330
821F
100
AcDbEntity
  8
3
100
AcDbText
 10
2792.213758091805
 20
3180.317313646954
 30
0.0
 40
90.0
  1
850
 50
90.0
100
AcDbText
  0
POINT
  5
7EA6
330
821F
100
AcDbEntity
  8
DEFPOINTS
  6
ByBlock
 62
     0
100
AcDbPoint
 10
2585.165690591193
 20
3721.031599361241
 30
0.0
  0
POINT
  5
7EA7
330
821F
100
AcDbEntity
  8
DEFPOINTS
  6
ByBlock
 62
     0
100
AcDbPoint
 10
2585.165690591193
 20
2871.03159936124
 30
0.0
  0
POINT
  5
7EA8
330
821F
100
AcDbEntity
  8
DEFPOINTS
  6
ByBlock
 62
     0
100
AcDbPoint
 10
2807.213758091804
 20
2871.03159936124
 30
0.0
  0
ENDBLK
  5
7EA9
330
821F
100
AcDbEntity
  8
0
100
AcDbBlockEnd
  0
BLOCK
  5
8222
330
8221
100
AcDbEntity
  8
0
100
AcDbBlockBegin
  2
*D9
 70
     1
 10
0.0
 20
0.0
 30
0.0
  3
*D9
  1

  0
LINE
  5
7EAB
330
8221
100
AcDbEntity
  8
0
  6
ByBlock
100
AcDbLine
 10
505.1656905911931
 20
4376.031599361239
 30
0.0
 11
106.5215525822586
 21
4376.031599361239
 31
0.0
  0
LINE
  5
7EAC
330
8221
100
AcDbEntity
  8
0
  6
ByBlock
100
AcDbLine
 10
505.1656905911931
 20
2871.031599361238
 30
0.0
 11
106.5215525822586
 21
2871.031599361238
 31
0.0
  0
LINE
  5
7EAD
330
8221
100
AcDbEntity
  8
0
  6
ByBlock
100
AcDbLine
 10
136.5215525822585
 20
4316.031599361237
 30
0.0
 11
136.5215525822585
 21
2931.031599361238
 31
0.0
  0
INSERT
  5
7EAE
330
8221
100
AcDbEntity
  8
0
  6
ByBlock
100
AcDbBlockReference
  2
_OPEN
 10
136.5215525822585
 20
4376.031599361239
 30
0.0
 41
60.0
 42
60.0
 43
60.0
 50
90.0
  0
INSERT
  5
7EAF
330
8221
100
AcDbEntity
  8
0
  6
ByBlock
100
AcDbBlockReference
  2
_OPEN
 10
136.5215525822585
 20
2871.031599361238
 30
0.0
 41
60.0
 42
60.0
 43
60.0
 50
270.0
  0
TEXT
  5
7EB0
330
8221
100
AcDbEntity
  8
3
100
AcDbText
 10
121.5215525822586
 20
3473.531599361239
 30
0.0
 40
90.0
  1
1505
 50
90.0
100
AcDbText
  0
POINT
  5
7EB1
330
8221
100
AcDbEntity
  8
DEFPOINTS
  6
ByBlock
 62
     0
100
AcDbPoint
 10
535.1656905911932
 20
4376.031599361239
 30
0.0
  0
POINT
  5
7EB2
330
8221
100
AcDbEntity
  8
DEFPOINTS
  6
ByBlock
 62
     0
100
AcDbPoint
 10
535.1656905911932
 20
2871.031599361238
 30
0.0
  0
POINT
  5
7EB3
330
8221
100
AcDbEntity
  8
DEFPOINTS
  6
ByBlock
 62
     0
100
AcDbPoint
 10
136.5215525822585
 20
2871.031599361238
 30
0.0
  0
ENDBLK
  5
7EB4
330
8221
100
AcDbEntity
  8
0
100
AcDbBlockEnd
  0
BLOCK
  5
8224
330
8223
100
AcDbEntity
  8
0
100
AcDbBlockBegin
  2
*D10
 70
     1
 10
0.0
 20
0.0
 30
0.0
  3
*D10
  1

  0
LINE
  5
801A
330
8223
100
AcDbEntity
  8
0
  6
ByBlock
100
AcDbLine
 10
3836.583739525316
 20
3324.169466167079
 30
0.0
 11
3836.583739525316
 21
4177.692100635555
 31
0.0
  0
LINE
  5
801B
330
8223
100
AcDbEntity
  8
0
  6
ByBlock
100
AcDbLine
 10
4804.083739525321
 20
4149.688192329445
 30
0.0
 11
4804.083739525321
 21
4177.692100635555
 31
0.0
  0
LINE
  5
801C
330
8223
100
AcDbEntity
  8
0
  6
ByBlock
100
AcDbLine
 10
3896.583739525317
 20
4147.692100635555
 30
0.0
 11
4744.083739525321
 21
4147.692100635555
 31
0.0
  0
INSERT
  5
801D
330
8223
100
AcDbEntity
  8
0
  6
ByBlock
100
AcDbBlockReference
  2
_OPEN
 10
3836.583739525316
 20
4147.692100635555
 30
0.0
 41
60.0
 42
60.0
 43
60.0
 50
180.0
  0
INSERT
  5
801E
330
8223
100
AcDbEntity
  8
0
  6
ByBlock
100
AcDbBlockReference
  2
_OPEN
 10
4804.083739525321
 20
4147.692100635555
 30
0.0
 41
60.0
 42
60.0
 43
60.0
  0
INSERT
  5
801F
330
8223
100
AcDbEntity
  8
3
100
AcDbBlockReference
  2
*U11
 10
0.0
 20
0.0
 30
0.0
  0
POINT
  5
8020
330
8223
100
AcDbEntity
  8
DEFPOINTS
  6
ByBlock
 62
     0
100
AcDbPoint
 10
3836.583739525316
 20
3294.16946616708
 30
0.0
  0
POINT
  5
8021
330
8223
100
AcDbEntity
  8
DEFPOINTS
  6
ByBlock
 62
     0
100
AcDbPoint
 10
4804.083739525321
 20
4119.688192329446
 30
0.0
  0
POINT
  5
8022
330
8223
100
AcDbEntity
  8
DEFPOINTS
  6
ByBlock
 62
     0
100
AcDbPoint
 10
4804.083739525321
 20
4147.692100635555
 30
0.0
  0
ENDBLK
  5
8023
330
8223
100
AcDbEntity
  8
0
100
AcDbBlockEnd
  0
BLOCK
  5
8244
330
8225
100
AcDbEntity
  8
0
100
AcDbBlockBegin
  2
*U11
 70
     1
 10
0.0
 20
0.0
 30
0.0
  3
*U11
  1

  0
TEXT
  5
818B
330
8225
100
AcDbEntity
  8
3
100
AcDbText
 10
4191.762310953889
 20
4312.692100635555
 30
0.0
 40
90.0
  1
MAX
100
AcDbText
  0
TEXT
  5
818C
330
8225
100
AcDbEntity
  8
3
100
AcDbText
 10
4170.333739525318
 20
4162.692100635555
 30
0.0
 40
90.0
  1
1020
100
AcDbText
  0
ENDBLK
  5
818E
330
8225
100
AcDbEntity
  8
0
100
AcDbBlockEnd
  0
BLOCK
  5
8227
330
8226
100
AcDbEntity
  8
0
100
AcDbBlockBegin
  2
*D12
 70
     1
 10
0.0
 20
0.0
 30
0.0
  3
*D12
  1

  0
LINE
  5
8030
330
8226
100
AcDbEntity
  8
0
  6
ByBlock
100
AcDbLine
 10
4804.083739525321
 20
4093.269258384377
 30
0.0
 11
4804.083739525321
 21
4177.692100635555
 31
0.0
  0
LINE
  5
8031
330
8226
100
AcDbEntity
  8
0
  6
ByBlock
100
AcDbLine
 10
5572.083739525325
 20
3008.36946616708
 30
0.0
 11
5572.083739525325
 21
4177.692100635555
 31
0.0
  0
LINE
  5
8032
330
8226
100
AcDbEntity
  8
0
  6
ByBlock
100
AcDbLine
 10
4864.083739525321
 20
4147.692100635555
 30
0.0
 11
5512.083739525325
 21
4147.692100635555
 31
0.0
  0
INSERT
  5
8033
330
8226
100
AcDbEntity
  8
0
  6
ByBlock
100
AcDbBlockReference
  2
_OPEN
 10
4804.083739525321
 20
4147.692100635555
 30
0.0
 41
60.0
 42
60.0
 43
60.0
 50
180.0
  0
INSERT
  5
8034
330
8226
100
AcDbEntity
  8
0
  6
ByBlock
100
AcDbBlockReference
  2
_OPEN
 10
5572.083739525325
 20
4147.692100635555
 30
0.0
 41
60.0
 42
60.0
 43
60.0
  0
TEXT
  5
8035
330
8226
100
AcDbEntity
  8
3
100
AcDbText
 10
5014.512310953894
 20
4201.263529206982
 30
0.0
 40
90.0
  1
(780)
100
AcDbText
  0
POINT
  5
8036
330
8226
100
AcDbEntity
  8
DEFPOINTS
  6
ByBlock
 62
     0
100
AcDbPoint
 10
4804.083739525321
 20
4063.269258384377
 30
0.0
  0
POINT
  5
8037
330
8226
100
AcDbEntity
  8
DEFPOINTS
  6
ByBlock
 62
     0
100
AcDbPoint
 10
5572.083739525325
 20
2978.369466167081
 30
0.0
  0
POINT
  5
8038
330
8226
100
AcDbEntity
  8
DEFPOINTS
  6
ByBlock
 62
     0
100
AcDbPoint
 10
5572.083739525325
 20
4147.692100635555
 30
0.0
  0
ENDBLK
  5
8039
330
8226
100
AcDbEntity
  8
0
100
AcDbBlockEnd
  0
BLOCK
  5
8229
330
8228
100
AcDbEntity
  8
0
100
AcDbBlockBegin
  2
*D13
 70
     1
 10
0.0
 20
0.0
 30
0.0
  3
*D13
  1

  0
LINE
  5
7ECC
330
8228
100
AcDbEntity
  8
0
  6
ByBlock
100
AcDbLine
 10
4259.104621073492
 20
1312.374620489382
 30
0.0
 11
4259.104621073492
 21
1592.055054257674
 31
0.0
  0
LINE
  5
7ECD
330
8228
100
AcDbEntity
  8
0
  6
ByBlock
100
AcDbLine
 10
5509.104621073492
 20
1309.096068293924
 30
0.0
 11
5509.104621073492
 21
1592.055054257674
 31
0.0
  0
LINE
  5
7ECE
330
8228
100
AcDbEntity
  8
0
  6
ByBlock
100
AcDbLine
 10
4319.104621073492
 20
1562.055054257674
 30
0.0
 11
5449.104621073495
 21
1562.055054257674
 31
0.0
  0
INSERT
  5
7ECF
330
8228
100
AcDbEntity
  8
0
  6
ByBlock
100
AcDbBlockReference
  2
_OPEN
 10
4259.104621073492
 20
1562.055054257674
 30
0.0
 41
60.0
 42
60.0
 43
60.0
 50
180.0
  0
INSERT
  5
7ED0
330
8228
100
AcDbEntity
  8
0
  6
ByBlock
100
AcDbBlockReference
  2
_OPEN
 10
5509.104621073492
 20
1562.055054257674
 30
0.0
 41
60.0
 42
60.0
 43
60.0
  0
TEXT
  5
7ED1
330
8228
100
AcDbEntity
  8
3
100
AcDbText
 10
4734.104621073493
 20
1577.055054257674
 30
0.0
 40
90.0
  1
1250
100
AcDbText
  0
POINT
  5
7ED2
330
8228
100
AcDbEntity
  8
DEFPOINTS
  6
ByBlock
 62
     0
100
AcDbPoint
 10
4259.104621073492
 20
1282.374620489382
 30
0.0
  0
POINT
  5
7ED3
330
8228
100
AcDbEntity
  8
DEFPOINTS
  6
ByBlock
 62
     0
100
AcDbPoint
 10
5509.104621073492
 20
1279.096068293924
 30
0.0
  0
POINT
  5
7ED4
330
8228
100
AcDbEntity
  8
DEFPOINTS
  6
ByBlock
 62
     0
100
AcDbPoint
 10
5509.104621073492
 20
1562.055054257674
 30
0.0
  0
ENDBLK
  5
7ED5
330
8228
100
AcDbEntity
  8
0
100
AcDbBlockEnd
  0
BLOCK
  5
822B
330
822A
100
AcDbEntity
  8
0
100
AcDbBlockBegin
  2
*D14
 70
     1
 10
0.0
 20
0.0
 30
0.0
  3
*D14
  1

  0
LINE
  5
7ED7
330
822A
100
AcDbEntity
  8
0
  6
ByBlock
100
AcDbLine
 10
5544.604621073492
 20
98.06030283574637
 30
0.0
 11
5883.472841444802
 21
98.06030283574637
 31
0.0
  0
LINE
  5
7ED8
330
822A
100
AcDbEntity
  8
0
  6
ByBlock
100
AcDbLine
 10
5544.604621073492
 20
1158.060302835746
 30
0.0
 11
5883.472841444802
 21
1158.060302835746
 31
0.0
  0
LINE
  5
7ED9
330
822A
100
AcDbEntity
  8
0
  6
ByBlock
100
AcDbLine
 10
5853.472841444804
 20
158.0603028357463
 30
0.0
 11
5853.472841444804
 21
1098.060302835746
 31
0.0
  0
INSERT
  5
7EDA
330
822A
100
AcDbEntity
  8
0
  6
ByBlock
100
AcDbBlockReference
  2
_OPEN
 10
5853.472841444804
 20
98.06030283574637
 30
0.0
 41
60.0
 42
60.0
 43
60.0
 50
270.0
  0
INSERT
  5
7EDB
330
822A
100
AcDbEntity
  8
0
  6
ByBlock
100
AcDbBlockReference
  2
_OPEN
 10
5853.472841444804
 20
1158.060302835746
 30
0.0
 41
60.0
 42
60.0
 43
60.0
 50
90.0
  0
TEXT
  5
7EDC
330
822A
100
AcDbEntity
  8
3
100
AcDbText
 10
5838.472841444802
 20
433.0603028357463
 30
0.0
 40
90.0
  1
\U+03C61060
 50
90.0
100
AcDbText
  0
POINT
  5
7EDD
330
822A
100
AcDbEntity
  8
DEFPOINTS
  6
ByBlock
 62
     0
100
AcDbPoint
 10
5514.604621073492
 20
98.06030283574637
 30
0.0
  0
POINT
  5
7EDE
330
822A
100
AcDbEntity
  8
DEFPOINTS
  6
ByBlock
 62
     0
100
AcDbPoint
 10
5514.604621073492
 20
1158.060302835746
 30
0.0
  0
POINT
  5
7EDF
330
822A
100
AcDbEntity
  8
DEFPOINTS
  6
ByBlock
 62
     0
100
AcDbPoint
 10
5853.472841444804
 20
1158.060302835746
 30
0.0
  0
ENDBLK
  5
7EE0
330
822A
100
AcDbEntity
  8
0
100
AcDbBlockEnd
  0
BLOCK
  5
822D
330
822C
100
AcDbEntity
  8
0
100
AcDbBlockBegin
  2
*D15
 70
     1
 10
0.0
 20
0.0
 30
0.0
  3
*D15
  1

  0
LINE
  5
7EE2
330
822C
100
AcDbEntity
  8
0
  6
ByBlock
100
AcDbLine
 10
1785.165690591193
 20
4406.031599361241
 30
0.0
 11
1785.165690591193
 21
4627.335536588958
 31
0.0
  0
LINE
  5
7EE3
330
822C
100
AcDbEntity
  8
0
  6
ByBlock
100
AcDbLine
 10
2585.165690591193
 20
3751.03159936124
 30
0.0
 11
2585.165690591193
 21
4627.335536588958
 31
0.0
  0
LINE
  5
7EE4
330
822C
100
AcDbEntity
  8
0
  6
ByBlock
100
AcDbLine
 10
1845.165690591193
 20
4597.335536588958
 30
0.0
 11
2525.165690591193
 21
4597.335536588958
 31
0.0
  0
INSERT
  5
7EE5
330
822C
100
AcDbEntity
  8
0
  6
ByBlock
100
AcDbBlockReference
  2
_OPEN
 10
1785.165690591193
 20
4597.335536588958
 30
0.0
 41
60.0
 42
60.0
 43
60.0
 50
180.0
  0
INSERT
  5
7EE6
330
822C
100
AcDbEntity
  8
0
  6
ByBlock
100
AcDbBlockReference
  2
_OPEN
 10
2585.165690591193
 20
4597.335536588958
 30
0.0
 41
60.0
 42
60.0
 43
60.0
  0
TEXT
  5
7EE7
330
822C
100
AcDbEntity
  8
3
100
AcDbText
 10
2069.451404876907
 20
4612.335536588958
 30
0.0
 40
90.0
  1
800
100
AcDbText
  0
POINT
  5
7EE8
330
822C
100
AcDbEntity
  8
DEFPOINTS
  6
ByBlock
 62
     0
100
AcDbPoint
 10
1785.165690591193
 20
4376.031599361239
 30
0.0
  0
POINT
  5
7EE9
330
822C
100
AcDbEntity
  8
DEFPOINTS
  6
ByBlock
 62
     0
100
AcDbPoint
 10
2585.165690591193
 20
3721.031599361241
 30
0.0
  0
POINT
  5
7EEA
330
822C
100
AcDbEntity
  8
DEFPOINTS
  6
ByBlock
 62
     0
100
AcDbPoint
 10
2585.165690591193
 20
4597.335536588958
 30
0.0
  0
ENDBLK
  5
7EEB
330
822C
100
AcDbEntity
  8
0
100
AcDbBlockEnd
  0
BLOCK
  5
822F
330
822E
100
AcDbEntity
  8
0
100
AcDbBlockBegin
  2
*D16
 70
     1
 10
0.0
 20
0.0
 30
0.0
  3
*D16
  1

  0
LINE
  5
8177
330
822E
100
AcDbEntity
  8
3
100
AcDbLine
 10
1168.497639781776
 20
2970.169466167082
 30
0.0
 11
1168.497639781776
 21
4126.131608620377
 31
0.0
  0
LINE
  5
8178
330
822E
100
AcDbEntity
  8
3
100
AcDbLine
 10
1828.497639781776
 20
4096.131608620377
 30
0.0
 11
1228.497639781776
 21
4096.131608620377
 31
0.0
  0
INSERT
  5
8179
330
822E
100
AcDbEntity
  8
3
100
AcDbBlockReference
  2
_OPEN
 10
1888.497639781776
 20
4096.131608620377
 30
0.0
 41
60.0
 42
60.0
 43
60.0
  0
INSERT
  5
817A
330
822E
100
AcDbEntity
  8
3
100
AcDbBlockReference
  2
_OPEN
 10
1168.497639781776
 20
4096.131608620377
 30
0.0
 41
60.0
 42
60.0
 43
60.0
 50
180.0
  0
TEXT
  5
818F
330
822E
100
AcDbEntity
  8
3
100
AcDbText
 10
1348.5
 20
3996.83
 30
0.0
 40
90.0
  1
720
100
AcDbText
  0
POINT
  5
817C
330
822E
100
AcDbEntity
  8
DEFPOINTS
 62
     0
100
AcDbPoint
 10
1888.497639781776
 20
3753.785448664709
 30
0.0
  0
POINT
  5
817D
330
822E
100
AcDbEntity
  8
DEFPOINTS
 62
     0
100
AcDbPoint
 10
1168.497639781776
 20
2940.169466167081
 30
0.0
  0
POINT
  5
817E
330
822E
100
AcDbEntity
  8
DEFPOINTS
 62
     0
100
AcDbPoint
 10
1168.497639781776
 20
4096.131608620377
 30
0.0
  0
ENDBLK
  5
7EF5
330
822E
100
AcDbEntity
  8
0
100
AcDbBlockEnd
  0
BLOCK
  5
8231
330
8230
100
AcDbEntity
  8
0
100
AcDbBlockBegin
  2
*D17
 70
     1
 10
0.0
 20
0.0
 30
0.0
  3
*D17
  1

  0
LINE
  5
7EF7
330
8230
100
AcDbEntity
  8
0
  6
ByBlock
100
AcDbLine
 10
1130.165690591195
 20
1308.060302835747
 30
0.0
 11
143.471821917903
 21
1308.060302835747
 31
0.0
  0
LINE
  5
7EF8
330
8230
100
AcDbEntity
  8
0
  6
ByBlock
100
AcDbLine
 10
390.5497080935656
 20
628.0603028357453
 30
0.0
 11
143.471821917903
 21
628.0603028357453
 31
0.0
  0
LINE
  5
7EF9
330
8230
100
AcDbEntity
  8
0
  6
ByBlock
100
AcDbLine
 10
173.471821917903
 20
1248.060302835747
 30
0.0
 11
173.471821917903
 21
688.0603028357453
 31
0.0
  0
INSERT
  5
7EFA
330
8230
100
AcDbEntity
  8
0
  6
ByBlock
100
AcDbBlockReference
  2
_OPEN
 10
173.471821917903
 20
1308.060302835747
 30
0.0
 41
60.0
 42
60.0
 43
60.0
 50
90.0
  0
INSERT
  5
7EFB
330
8230
100
AcDbEntity
  8
0
  6
ByBlock
100
AcDbBlockReference
  2
_OPEN
 10
173.471821917903
 20
628.0603028357453
 30
0.0
 41
60.0
 42
60.0
 43
60.0
 50
270.0
  0
TEXT
  5
7EFC
330
8230
100
AcDbEntity
  8
3
100
AcDbText
 10
158.471821917903
 20
852.3460171214606
 30
0.0
 40
90.0
  1
680
 50
90.0
100
AcDbText
  0
POINT
  5
7EFD
330
8230
100
AcDbEntity
  8
DEFPOINTS
  6
ByBlock
 62
     0
100
AcDbPoint
 10
1160.165690591195
 20
1308.060302835747
 30
0.0
  0
POINT
  5
7EFE
330
8230
100
AcDbEntity
  8
DEFPOINTS
  6
ByBlock
 62
     0
100
AcDbPoint
 10
420.5497080935655
 20
628.0603028357453
 30
0.0
  0
POINT
  5
7EFF
330
8230
100
AcDbEntity
  8
DEFPOINTS
  6
ByBlock
 62
     0
100
AcDbPoint
 10
173.471821917903
 20
628.0603028357453
 30
0.0
  0
ENDBLK
  5
7F00
330
8230
100
AcDbEntity
  8
0
100
AcDbBlockEnd
  0
BLOCK
  5
8233
330
8232
100
AcDbEntity
  8
0
100
AcDbBlockBegin
  2
*D18
 70
     1
 10
0.0
 20
0.0
 30
0.0
  3
*D18
  1

  0
LINE
  5
817F
330
8232
100
AcDbEntity
  8
3
100
AcDbLine
 10
1233.497639781775
 20
2118.972316392661
 30
0.0
 11
871.8037711084853
 21
2118.972316392661
 31
0.0
  0
LINE
  5
8180
330
8232
100
AcDbEntity
  8
3
100
AcDbLine
 10
901.8037711084856
 20
2954.169466167079
 30
0.0
 11
901.8037711084852
 21
2178.972316392661
 31
0.0
  0
INSERT
  5
8181
330
8232
100
AcDbEntity
  8
3
100
AcDbBlockReference
  2
_OPEN
 10
901.8037711084856
 20
3014.169466167079
 30
0.0
 41
60.0
 42
60.0
 43
60.0
 50
90.0
  0
INSERT
  5
8182
330
8232
100
AcDbEntity
  8
3
100
AcDbBlockReference
  2
_OPEN
 10
901.8037711084852
 20
2118.972316392661
 30
0.0
 41
60.0
 42
60.0
 43
60.0
 50
270.0
  0
TEXT
  5
8190
330
8232
100
AcDbEntity
  8
3
100
AcDbText
 10
661.8039999999999
 20
2407.27
 30
0.0
 40
90.0
  1
895
100
AcDbText
  0
POINT
  5
8184
330
8232
100
AcDbEntity
  8
DEFPOINTS
 62
     0
100
AcDbPoint
 10
1148.881657284148
 20
3014.169466167079
 30
0.0
  0
POINT
  5
8185
330
8232
100
AcDbEntity
  8
DEFPOINTS
 62
     0
100
AcDbPoint
 10
1263.497639781775
 20
2118.972316392661
 30
0.0
  0
POINT
  5
8186
330
8232
100
AcDbEntity
  8
DEFPOINTS
 62
     0
100
AcDbPoint
 10
901.8037711084852
 20
2118.972316392661
 30
0.0
  0
ENDBLK
  5
7F0A
330
8232
100
AcDbEntity
  8
0
100
AcDbBlockEnd
  0
BLOCK
  5
8235
330
8234
100
AcDbEntity
  8
0
100
AcDbBlockBegin
  2
*D19
 70
     1
 10
0.0
 20
0.0
 30
0.0
  3
*D19
  1

  0
LINE
  5
7F30
330
8234
100
AcDbEntity
  8
0
  6
ByBlock
100
AcDbLine
 10
440.1656905911941
 20
584.0603028357476
 30
0.0
 11
440.1656905911941
 21
1915.071285267736
 31
0.0
  0
LINE
  5
7F31
330
8234
100
AcDbEntity
  8
0
  6
ByBlock
100
AcDbLine
 10
2585.165690591193
 20
-137.1368469386743
 30
0.0
 11
2585.165690591193
 21
1915.071285267736
 31
0.0
  0
LINE
  5
7F32
330
8234
100
AcDbEntity
  8
0
  6
ByBlock
100
AcDbLine
 10
500.165690591194
 20
1885.071285267737
 30
0.0
 11
2525.165690591193
 21
1885.071285267737
 31
0.0
  0
INSERT
  5
7F33
330
8234
100
AcDbEntity
  8
0
  6
ByBlock
100
AcDbBlockReference
  2
_OPEN
 10
440.1656905911941
 20
1885.071285267737
 30
0.0
 41
60.0
 42
60.0
 43
60.0
 50
180.0
  0
INSERT
  5
7F34
330
8234
100
AcDbEntity
  8
0
  6
ByBlock
100
AcDbBlockReference
  2
_OPEN
 10
2585.165690591193
 20
1885.071285267737
 30
0.0
 41
60.0
 42
60.0
 43
60.0
  0
TEXT
  5
7F35
330
8234
100
AcDbEntity
  8
3
100
AcDbText
 10
1362.665690591193
 20
1900.071285267737
 30
0.0
 40
90.0
  1
2145
100
AcDbText
  0
POINT
  5
7F36
330
8234
100
AcDbEntity
  8
DEFPOINTS
  6
ByBlock
 62
     0
100
AcDbPoint
 10
440.1656905911941
 20
554.0603028357477
 30
0.0
  0
POINT
  5
7F37
330
8234
100
AcDbEntity
  8
DEFPOINTS
  6
ByBlock
 62
     0
100
AcDbPoint
 10
2585.165690591193
 20
-167.1368469386743
 30
0.0
  0
POINT
  5
7F38
330
8234
100
AcDbEntity
  8
DEFPOINTS
  6
ByBlock
 62
     0
100
AcDbPoint
 10
2585.165690591193
 20
1885.071285267737
 30
0.0
  0
ENDBLK
  5
7F39
330
8234
100
AcDbEntity
  8
0
100
AcDbBlockEnd
  0
BLOCK
  5
8237
330
8236
100
AcDbEntity
  8
0
100
AcDbBlockBegin
  2
_DOT
 70
     0
 10
0.0
 20
0.0
 30
0.0
  3
_DOT
  1

  0
LWPOLYLINE
  5
7FE0
330
8236
100
AcDbEntity
  8
0
  6
ByBlock
 62
     0
100
AcDbPolyline
 90
        2
 70
     1
 43
0.25
 10
-0.125
 20
0.0
 42
1.0
 10
0.125
 20
0.0
 42
1.0
  0
LINE
  5
7FE4
330
8236
100
AcDbEntity
  8
0
  6
ByBlock
 62
     0
100
AcDbLine
 10
-0.25
 20
0.0
 30
0.0
 11
-1.0
 21
0.0
 31
0.0
  0
ENDBLK
  5
7FC3
330
8236
100
AcDbEntity
  8
0
100
AcDbBlockEnd
  0
BLOCK
  5
8239
330
8238
100
AcDbEntity
  8
0
100
AcDbBlockBegin
  2
_NONE
 70
     0
 10
0.0
 20
0.0
 30
0.0
  3
_NONE
  1

  0
CIRCLE
  5
807E
330
8238
100
AcDbEntity
  8
0
  6
ByBlock
 62
     0
100
AcDbCircle
 10
0.0
 20
0.0
 30
0.0
 40
0.25
  0
ENDBLK
  5
807F
330
8238
100
AcDbEntity
  8
0
100
AcDbBlockEnd
  0
BLOCK
  5
823B
330
823A
100
AcDbEntity
  8
0
100
AcDbBlockBegin
  2
*D22
 70
     1
 10
0.0
 20
0.0
 30
0.0
  3
*D22
  1

  0
LINE
  5
80CE
330
823A
100
AcDbEntity
  8
0
  6
ByBlock
 62
     0
100
AcDbLine
 10
1263.497639781775
 20
2088.972316392661
 30
0.0
 11
1263.497639781775
 21
1869.46066633514
 31
0.0
  0
LINE
  5
80CF
330
823A
100
AcDbEntity
  8
0
  6
ByBlock
 62
     0
100
AcDbLine
 10
1888.497639781776
 20
2088.972316392661
 30
0.0
 11
1888.497639781776
 21
1869.46066633514
 31
0.0
  0
LINE
  5
80D0
330
823A
100
AcDbEntity
  8
0
  6
ByBlock
 62
     0
100
AcDbLine
 10
1323.497639781775
 20
1899.46066633514
 30
0.0
 11
1828.497639781777
 21
1899.46066633514
 31
0.0
  0
INSERT
  5
80D1
330
823A
100
AcDbEntity
  8
0
  6
ByBlock
 62
     0
100
AcDbBlockReference
  2
_OPEN
 10
1263.497639781775
 20
1899.46066633514
 30
0.0
 41
60.0
 42
60.0
 43
60.0
 50
180.0
  0
INSERT
  5
80D2
330
823A
100
AcDbEntity
  8
0
  6
ByBlock
 62
     0
100
AcDbBlockReference
  2
_OPEN
 10
1888.497639781776
 20
1899.46066633514
 30
0.0
 41
60.0
 42
60.0
 43
60.0
  0
TEXT
  5
80D3
330
823A
100
AcDbEntity
  8
3
 62
     0
100
AcDbText
 10
1460.28335406749
 20
1929.46066633514
 30
0.0
 40
90.0
  1
625
100
AcDbText
  0
POINT
  5
80D4
330
823A
100
AcDbEntity
  8
DEFPOINTS
  6
ByBlock
 62
     0
100
AcDbPoint
 10
1263.497639781775
 20
2118.972316392661
 30
0.0
  0
POINT
  5
80D5
330
823A
100
AcDbEntity
  8
DEFPOINTS
  6
ByBlock
 62
     0
100
AcDbPoint
 10
1888.497639781776
 20
2118.972316392661
 30
0.0
  0
POINT
  5
80D6
330
823A
100
AcDbEntity
  8
DEFPOINTS
  6
ByBlock
 62
     0
100
AcDbPoint
 10
1888.497639781776
 20
1899.46066633514
 30
0.0
  0
ENDBLK
  5
80D7
330
823A
100
AcDbEntity
  8
0
100
AcDbBlockEnd
  0
BLOCK
  5
823D
330
823C
100
AcDbEntity
  8
0
100
AcDbBlockBegin
  2
*D23
 70
     1
 10
0.0
 20
0.0
 30
0.0
  3
*D23
  1

  0
LINE
  5
80DB
330
823C
100
AcDbEntity
  8
0
  6
ByBlock
 62
     0
100
AcDbLine
 10
1888.497639781776
 20
2088.972316392661
 30
0.0
 11
1888.497639781776
 21
1869.46066633514
 31
0.0
  0
LINE
  5
80DC
330
823C
100
AcDbEntity
  8
0
  6
ByBlock
 62
     0
100
AcDbLine
 10
3313.497639781775
 20
2088.972316392661
 30
0.0
 11
3313.497639781775
 21
1869.46066633514
 31
0.0
  0
LINE
  5
80DD
330
823C
100
AcDbEntity
  8
0
  6
ByBlock
 62
     0
100
AcDbLine
 10
1948.497639781777
 20
1899.46066633514
 30
0.0
 11
3253.497639781775
 21
1899.46066633514
 31
0.0
  0
INSERT
  5
80DE
330
823C
100
AcDbEntity
  8
0
  6
ByBlock
 62
     0
100
AcDbBlockReference
  2
_OPEN
 10
1888.497639781776
 20
1899.46066633514
 30
0.0
 41
60.0
 42
60.0
 43
60.0
 50
180.0
  0
INSERT
  5
80DF
330
823C
100
AcDbEntity
  8
0
  6
ByBlock
 62
     0
100
AcDbBlockReference
  2
_OPEN
 10
3313.497639781775
 20
1899.46066633514
 30
0.0
 41
60.0
 42
60.0
 43
60.0
  0
TEXT
  5
80E0
330
823C
100
AcDbEntity
  8
3
 62
     0
100
AcDbText
 10
2450.997639781776
 20
1929.46066633514
 30
0.0
 40
90.0
  1
1425
100
AcDbText
  0
POINT
  5
80E1
330
823C
100
AcDbEntity
  8
DEFPOINTS
  6
ByBlock
 62
     0
100
AcDbPoint
 10
1888.497639781776
 20
2118.972316392661
 30
0.0
  0
POINT
  5
80E2
330
823C
100
AcDbEntity
  8
DEFPOINTS
  6
ByBlock
 62
     0
100
AcDbPoint
 10
3313.497639781775
 20
2118.972316392661
 30
0.0
  0
POINT
  5
80E3
330
823C
100
AcDbEntity
  8
DEFPOINTS
  6
ByBlock
 62
     0
100
AcDbPoint
 10
3313.497639781775
 20
1899.46066633514
 30
0.0
  0
ENDBLK
  5
80E4
330
823C
100
AcDbEntity
  8
0
100
AcDbBlockEnd
  0
BLOCK
  5
823F
330
823E
100
AcDbEntity
  8
0
100
AcDbBlockBegin
  2
*D24
 70
     1
 10
0.0
 20
0.0
 30
0.0
  3
*D24
  1

  0
LINE
  5
80E8
330
823E
100
AcDbEntity
  8
0
  6
ByBlock
 62
     0
100
AcDbLine
 10
3977.083739525321
 20
2089.16946616708
 30
0.0
 11
3977.083739525321
 21
1869.46066633514
 31
0.0
  0
LINE
  5
80E9
330
823E
100
AcDbEntity
  8
0
  6
ByBlock
 62
     0
100
AcDbLine
 10
4804.083739525321
 20
2089.16946616708
 30
0.0
 11
4804.083739525321
 21
1869.46066633514
 31
0.0
  0
LINE
  5
80EA
330
823E
100
AcDbEntity
  8
0
  6
ByBlock
 62
     0
100
AcDbLine
 10
4037.08373952532
 20
1899.46066633514
 30
0.0
 11
4744.083739525321
 21
1899.46066633514
 31
0.0
  0
INSERT
  5
80EB
330
823E
100
AcDbEntity
  8
0
  6
ByBlock
 62
     0
100
AcDbBlockReference
  2
_OPEN
 10
3977.083739525321
 20
1899.46066633514
 30
0.0
 41
60.0
 42
60.0
 43
60.0
 50
180.0
  0
INSERT
  5
80EC
330
823E
100
AcDbEntity
  8
0
  6
ByBlock
 62
     0
100
AcDbBlockReference
  2
_OPEN
 10
4804.083739525321
 20
1899.46066633514
 30
0.0
 41
60.0
 42
60.0
 43
60.0
  0
TEXT
  5
80ED
330
823E
100
AcDbEntity
  8
3
 62
     0
100
AcDbText
 10
4274.869453811034
 20
1929.46066633514
 30
0.0
 40
90.0
  1
827
100
AcDbText
  0
POINT
  5
80EE
330
823E
100
AcDbEntity
  8
DEFPOINTS
  6
ByBlock
 62
     0
100
AcDbPoint
 10
3977.083739525321
 20
2119.169466167079
 30
0.0
  0
POINT
  5
80EF
330
823E
100
AcDbEntity
  8
DEFPOINTS
  6
ByBlock
 62
     0
100
AcDbPoint
 10
4804.083739525321
 20
2119.169466167079
 30
0.0
  0
POINT
  5
80F0
330
823E
100
AcDbEntity
  8
DEFPOINTS
  6
ByBlock
 62
     0
100
AcDbPoint
 10
4804.083739525321
 20
1899.46066633514
 30
0.0
  0
ENDBLK
  5
80F1
330
823E
100
AcDbEntity
  8
0
100
AcDbBlockEnd
  0
BLOCK
  5
8241
330
8240
100
AcDbEntity
  8
0
100
AcDbBlockBegin
  2
*D25
 70
     1
 10
0.0
 20
0.0
 30
0.0
  3
*D25
  1

  0
LINE
  5
80F5
330
8240
100
AcDbEntity
  8
0
  6
ByBlock
 62
     0
100
AcDbLine
 10
4804.083739525321
 20
2089.16946616708
 30
0.0
 11
4804.083739525321
 21
1869.46066633514
 31
0.0
  0
LINE
  5
80F6
330
8240
100
AcDbEntity
  8
0
  6
ByBlock
 62
     0
100
AcDbLine
 10
5482.083739525322
 20
2089.16946616708
 30
0.0
 11
5482.083739525322
 21
1869.46066633514
 31
0.0
  0
LINE
  5
80F7
330
8240
100
AcDbEntity
  8
0
  6
ByBlock
 62
     0
100
AcDbLine
 10
4864.083739525321
 20
1899.46066633514
 30
0.0
 11
5422.083739525322
 21
1899.46066633514
 31
0.0
  0
INSERT
  5
80F8
330
8240
100
AcDbEntity
  8
0
  6
ByBlock
 62
     0
100
AcDbBlockReference
  2
_OPEN
 10
4804.083739525321
 20
1899.46066633514
 30
0.0
 41
60.0
 42
60.0
 43
60.0
 50
180.0
  0
INSERT
  5
80F9
330
8240
100
AcDbEntity
  8
0
  6
ByBlock
 62
     0
100
AcDbBlockReference
  2
_OPEN
 10
5482.083739525322
 20
1899.46066633514
 30
0.0
 41
60.0
 42
60.0
 43
60.0
  0
TEXT
  5
80FA
330
8240
100
AcDbEntity
  8
3
 62
     0
100
AcDbText
 10
5027.369453811036
 20
1929.46066633514
 30
0.0
 40
90.0
  1
678
100
AcDbText
  0
POINT
  5
80FB
330
8240
100
AcDbEntity
  8
DEFPOINTS
  6
ByBlock
 62
     0
100
AcDbPoint
 10
4804.083739525321
 20
2119.169466167079
 30
0.0
  0
POINT
  5
80FC
330
8240
100
AcDbEntity
  8
DEFPOINTS
  6
ByBlock
 62
     0
100
AcDbPoint
 10
5482.083739525322
 20
2119.169466167079
 30
0.0
  0
POINT
  5
80FD
330
8240
100
AcDbEntity
  8
DEFPOINTS
  6
ByBlock
 62
     0
100
AcDbPoint
 10
5482.083739525322
 20
1899.46066633514
 30
0.0
  0
ENDBLK
  5
80FE
330
8240
100
AcDbEntity
  8
0
100
AcDbBlockEnd
  0
BLOCK
  5
8243
330
8242
100
AcDbEntity
  8
0
100
AcDbBlockBegin
  2
*D26
 70
     1
 10
0.0
 20
0.0
 30
0.0
  3
*D26
  1

  0
LINE
  5
8102
330
8242
100
AcDbEntity
  8
0
  6
ByBlock
 62
     0
100
AcDbLine
 10
1233.497639781775
 20
2118.972316392661
 30
0.0
 11
685.8268476001029
 21
2118.972316392661
 31
0.0
  0
LINE
  5
8103
330
8242
100
AcDbEntity
  8
0
  6
ByBlock
 62
     0
100
AcDbLine
 10
1849.497639781776
 20
3694.169466167082
 30
0.0
 11
685.8268476001029
 21
3694.169466167082
 31
0.0
  0
LINE
  5
8104
330
8242
100
AcDbEntity
  8
0
  6
ByBlock
 62
     0
100
AcDbLine
 10
715.8268476001031
 20
2178.97231639266
 30
0.0
 11
715.8268476001031
 21
3634.169466167082
 31
0.0
  0
INSERT
  5
8105
330
8242
100
AcDbEntity
  8
0
  6
ByBlock
 62
     0
100
AcDbBlockReference
  2
_OPEN
 10
715.8268476001031
 20
2118.972316392661
 30
0.0
 41
60.0
 42
60.0
 43
60.0
 50
270.0
  0
INSERT
  5
8106
330
8242
100
AcDbEntity
  8
0
  6
ByBlock
 62
     0
100
AcDbBlockReference
  2
_OPEN
 10
715.8268476001031
 20
3694.169466167082
 30
0.0
 41
60.0
 42
60.0
 43
60.0
 50
90.0
  0
TEXT
  5
8107
330
8242
100
AcDbEntity
  8
3
 62
     0
100
AcDbText
 10
685.8268476001029
 20
2756.570891279872
 30
0.0
 40
90.0
  1
1575
 50
90.0
100
AcDbText
  0
POINT
  5
8108
330
8242
100
AcDbEntity
  8
DEFPOINTS
  6
ByBlock
 62
     0
100
AcDbPoint
 10
1263.497639781775
 20
2118.972316392661
 30
0.0
  0
POINT
  5
8109
330
8242
100
AcDbEntity
  8
DEFPOINTS
  6
ByBlock
 62
     0
100
AcDbPoint
 10
1879.497639781776
 20
3694.169466167082
 30
0.0
  0
POINT
  5
810A
330
8242
100
AcDbEntity
  8
DEFPOINTS
  6
ByBlock
 62
     0
100
AcDbPoint
 10
715.8268476001031
 20
3694.169466167082
 30
0.0
  0
ENDBLK
  5
810B
330
8242
100
AcDbEntity
  8
0
100
AcDbBlockEnd
  0
BLOCK
  5
8248
330
8247
100
AcDbEntity
  8
0
100
AcDbBlockBegin
  2
*D27
 70
     1
 10
0.0
 20
0.0
 30
0.0
  3
*D27
  1

  0
LINE
  5
82C9
330
8247
100
AcDbEntity
  8
3
 62
     0
370
    -2
100
AcDbLine
 10
3744.083739525316
 20
3324.16946616708
 30
0.0
 11
3744.083739525316
 21
4289.115623423149
 31
0.0
  0
LINE
  5
82CA
330
8247
100
AcDbEntity
  8
3
 62
     0
370
    -2
100
AcDbLine
 10
4804.083739525322
 20
4083.164217589007
 30
0.0
 11
4804.083739525322
 21
4289.115623423149
 31
0.0
  0
LINE
  5
82CB
330
8247
100
AcDbEntity
  8
3
 62
     0
370
    -2
100
AcDbLine
 10
3804.083739525316
 20
4259.115623423149
 30
0.0
 11
4744.083739525321
 21
4259.115623423149
 31
0.0
  0
INSERT
  5
82CC
330
8247
100
AcDbEntity
  8
3
 62
     0
370
    -2
100
AcDbBlockReference
  2
_OPEN
 10
3744.083739525316
 20
4259.115623423149
 30
0.0
 41
60.0
 42
60.0
 43
60.0
 50
180.0
  0
INSERT
  5
82CD
330
8247
100
AcDbEntity
  8
3
 62
     0
370
    -2
100
AcDbBlockReference
  2
_OPEN
 10
4804.083739525322
 20
4259.115623423149
 30
0.0
 41
60.0
 42
60.0
 43
60.0
  0
MTEXT
  5
82CE
330
8247
100
AcDbEntity
  8
3
 62
     0
100
AcDbMText
 10
4274.083739525319
 20
4357.687051994577
 30
0.0
 40
90.0
 41
0.0
 71
     5
 72
     1
  1
\A1;(1060)
 73
     1
 44
1.0
1001
ACAD
1000
MTEXTBEGIN
1070
    73
1070
     1
1070
    44
1040
1.0
1070
    74
1070
     0
1000
MTEXTEND
  0
POINT
  5
82CF
330
8247
100
AcDbEntity
  8
DEFPOINTS
 62
     0
100
AcDbPoint
 10
3744.083739525316
 20
3294.16946616708
 30
0.0
  0
POINT
  5
82D0
330
8247
100
AcDbEntity
  8
DEFPOINTS
 62
     0
100
AcDbPoint
 10
4804.083739525322
 20
4053.164217589007
 30
0.0
  0
POINT
  5
82D1
330
8247
100
AcDbEntity
  8
DEFPOINTS
 62
     0
100
AcDbPoint
 10
4804.083739525322
 20
4259.115623423149
 30
0.0
  0
ENDBLK
  5
8249
330
8247
100
AcDbEntity
  8
0
100
AcDbBlockEnd
  0
BLOCK
  5
8255
330
8254
100
AcDbEntity
  8
0
100
AcDbBlockBegin
  2
*D28
 70
     1
 10
0.0
 20
0.0
 30
0.0
  3
*D28
  1

  0
LINE
  5
82D2
330
8254
100
AcDbEntity
  8
3
 62
     0
370
    -2
100
AcDbLine
 10
4804.083739525322
 20
4083.164217589007
 30
0.0
 11
4804.083739525322
 21
4289.115623423149
 31
0.0
  0
LINE
  5
82D3
330
8254
100
AcDbEntity
  8
3
 62
     0
370
    -2
100
AcDbLine
 10
5584.083739525324
 20
3008.36946616708
 30
0.0
 11
5584.083739525324
 21
4289.115623423149
 31
0.0
  0
LINE
  5
82D4
330
8254
100
AcDbEntity
  8
3
 62
     0
370
    -2
100
AcDbLine
 10
4864.083739525322
 20
4259.115623423149
 30
0.0
 11
5524.083739525323
 21
4259.115623423149
 31
0.0
  0
INSERT
  5
82D5
330
8254
100
AcDbEntity
  8
3
 62
     0
370
    -2
100
AcDbBlockReference
  2
_OPEN
 10
4804.083739525322
 20
4259.115623423149
 30
0.0
 41
60.0
 42
60.0
 43
60.0
 50
180.0
  0
INSERT
  5
82D6
330
8254
100
AcDbEntity
  8
3
 62
     0
370
    -2
100
AcDbBlockReference
  2
_OPEN
 10
5584.083739525324
 20
4259.115623423149
 30
0.0
 41
60.0
 42
60.0
 43
60.0
  0
MTEXT
  5
82D7
330
8254
100
AcDbEntity
  8
3
 62
     0
100
AcDbMText
 10
5194.083739525323
 20
4357.687051994577
 30
0.0
 40
90.0
 41
0.0
 71
     5
 72
     1
  1
\A1;(780)
 73
     1
 44
1.0
1001
ACAD
1000
MTEXTBEGIN
1070
    73
1070
     1
1070
    44
1040
1.0
1070
    74
1070
     0
1000
MTEXTEND
  0
POINT
  5
82D8
330
8254
100
AcDbEntity
  8
DEFPOINTS
 62
     0
100
AcDbPoint
 10
4804.083739525322
 20
4053.164217589007
 30
0.0
  0
POINT
  5
82D9
330
8254
100
AcDbEntity
  8
DEFPOINTS
 62
     0
100
AcDbPoint
 10
5584.083739525324
 20
2978.369466167081
 30
0.0
  0
POINT
  5
82DA
330
8254
100
AcDbEntity
  8
DEFPOINTS
 62
     0
100
AcDbPoint
 10
5584.083739525324
 20
4259.115623423149
 30
0.0
  0
ENDBLK
  5
8256
330
8254
100
AcDbEntity
  8
0
100
AcDbBlockEnd
  0
BLOCK
  5
8289
330
8288
100
AcDbEntity
  8
0
100
AcDbBlockBegin
  2
*D29
 70
     1
 10
0.0
 20
0.0
 30
0.0
  3
*D29
  1

  0
LINE
  5
82A1
330
8288
100
AcDbEntity
  8
3
 62
     0
370
    -2
100
AcDbLine
 10
1096.81742701428
 20
5783.335754123925
 30
0.0
 11
-163.4391300395071
 21
5783.335754123925
 31
0.0
  0
LINE
  5
82A2
330
8288
100
AcDbEntity
  8
3
 62
     0
370
    -2
100
AcDbLine
 10
1578.497639781777
 20
4723.335754123922
 30
0.0
 11
-163.4391300395074
 21
4723.335754123922
 31
0.0
  0
LINE
  5
82A3
330
8288
100
AcDbEntity
  8
3
 62
     0
370
    -2
100
AcDbLine
 10
-133.4391300395071
 20
5723.335754123925
 30
0.0
 11
-133.4391300395073
 21
4783.335754123922
 31
0.0
  0
INSERT
  5
82A4
330
8288
100
AcDbEntity
  8
3
 62
     0
370
    -2
100
AcDbBlockReference
  2
_OPEN
 10
-133.4391300395071
 20
5783.335754123925
 30
0.0
 41
60.0
 42
60.0
 43
60.0
 50
90.0
  0
INSERT
  5
82A5
330
8288
100
AcDbEntity
  8
3
 62
     0
370
    -2
100
AcDbBlockReference
  2
_OPEN
 10
-133.4391300395073
 20
4723.335754123922
 30
0.0
 41
60.0
 42
60.0
 43
60.0
 50
270.0
  0
MTEXT
  5
82A6
330
8288
100
AcDbEntity
  8
3
 62
     0
100
AcDbMText
 10
-208.4391300395081
 20
5253.335754123924
 30
0.0
 40
90.0
 41
0.0
 71
     5
 72
     1
  1
\A1;1060
 11
0.0000000000000001
 21
1.0
 31
0.0
 73
     1
 44
1.0
1001
ACAD
1000
MTEXTBEGIN
1070
    73
1070
     1
1070
    44
1040
1.0
1070
    74
1070
     0
1000
MTEXTEND
  0
POINT
  5
82A7
330
8288
100
AcDbEntity
  8
DEFPOINTS
 62
     0
100
AcDbPoint
 10
1126.81742701428
 20
5783.335754123925
 30
0.0
  0
POINT
  5
82A8
330
8288
100
AcDbEntity
  8
DEFPOINTS
 62
     0
100
AcDbPoint
 10
1608.497639781777
 20
4723.335754123922
 30
0.0
  0
POINT
  5
82A9
330
8288
100
AcDbEntity
  8
DEFPOINTS
 62
     0
100
AcDbPoint
 10
-133.4391300395073
 20
4723.335754123922
 30
0.0
  0
ENDBLK
  5
828A
330
8288
100
AcDbEntity
  8
0
100
AcDbBlockEnd
  0
BLOCK
  5
8295
330
8294
100
AcDbEntity
  8
0
100
AcDbBlockBegin
  2
*D30
 70
     1
 10
0.0
 20
0.0
 30
0.0
  3
*D30
  1

  0
LINE
  5
8297
330
8294
100
AcDbEntity
  8
3
 62
     0
370
    -2
100
AcDbLine
 10
3313.497639781775
 20
4954.460754123926
 30
0.0
 11
3313.497639781775
 21
4542.385630297348
 31
0.0
  0
LINE
  5
8298
330
8294
100
AcDbEntity
  8
3
 62
     0
370
    -2
100
AcDbLine
 10
1263.497639781775
 20
4954.460754123924
 30
0.0
 11
1263.497639781775
 21
4542.385630297348
 31
0.0
  0
LINE
  5
8299
330
8294
100
AcDbEntity
  8
3
 62
     0
370
    -2
100
AcDbLine
 10
3308.097639781775
 20
4547.785630297347
 30
0.0
 11
2312.283354067489
 21
4547.785630297347
 31
0.0
  0
LINE
  5
829A
330
8294
100
AcDbEntity
  8
3
 62
     0
370
    -2
100
AcDbLine
 10
1268.897639781775
 20
4547.785630297347
 30
0.0
 11
2264.711925496061
 21
4547.785630297347
 31
0.0
  0
SOLID
  5
829B
330
8294
100
AcDbEntity
  8
3
 62
     0
100
AcDbTrace
 10
3308.097639781775
 20
4548.685630297347
 30
0.0
 11
3308.097639781775
 21
4546.885630297349
 31
0.0
 12
3313.497639781775
 22
4547.785630297347
 32
0.0
 13
3313.497639781775
 23
4547.785630297347
 33
0.0
  0
SOLID
  5
829C
330
8294
100
AcDbEntity
  8
3
 62
     0
100
AcDbTrace
 10
1268.897639781775
 20
4548.685630297347
 30
0.0
 11
1268.897639781775
 21
4546.885630297349
 31
0.0
 12
1263.497639781775
 22
4547.785630297347
 32
0.0
 13
1263.497639781775
 23
4547.785630297347
 33
0.0
  0
MTEXT
  5
829D
330
8294
100
AcDbEntity
  8
3
 62
     0
100
AcDbMText
 10
2288.497639781775
 20
4547.785630297347
 30
0.0
 40
5.399999999999999
 41
0.0
 71
     5
 72
     1
  1
\A1;2050.0000
 73
     1
 44
1.0
1001
ACAD
1000
MTEXTBEGIN
1070
    73
1070
     1
1070
    44
1040
1.0
1070
    74
1070
     0
1000
MTEXTEND
  0
POINT
  5
829E
330
8294
100
AcDbEntity
  8
DEFPOINTS
 62
     0
100
AcDbPoint
 10
3313.497639781775
 20
4956.335754123926
 30
0.0
  0
POINT
  5
829F
330
8294
100
AcDbEntity
  8
DEFPOINTS
 62
     0
100
AcDbPoint
 10
1263.497639781775
 20
4956.335754123924
 30
0.0
  0
POINT
  5
82A0
330
8294
100
AcDbEntity
  8
DEFPOINTS
 62
     0
100
AcDbPoint
 10
1263.497639781775
 20
4547.785630297347
 30
0.0
  0
ENDBLK
  5
8296
330
8294
100
AcDbEntity
  8
0
100
AcDbBlockEnd
  0
BLOCK
  5
82AC
330
82AB
100
AcDbEntity
  8
0
100
AcDbBlockBegin
  2
*D31
 70
     1
 10
0.0
 20
0.0
 30
0.0
  3
*D31
  1

  0
LINE
  5
82AE
330
82AB
100
AcDbEntity
  8
3
 62
     0
370
    -2
100
AcDbLine
 10
1263.497639781775
 20
4926.335754123924
 30
0.0
 11
1263.497639781775
 21
4516.220148544915
 31
0.0
  0
LINE
  5
82AF
330
82AB
100
AcDbEntity
  8
3
 62
     0
370
    -2
100
AcDbLine
 10
3313.497639781775
 20
4926.335754123925
 30
0.0
 11
3313.497639781775
 21
4516.220148544915
 31
0.0
  0
LINE
  5
82B0
330
82AB
100
AcDbEntity
  8
3
 62
     0
370
    -2
100
AcDbLine
 10
1323.497639781775
 20
4546.220148544914
 30
0.0
 11
3253.497639781775
 21
4546.220148544914
 31
0.0
  0
INSERT
  5
82B1
330
82AB
100
AcDbEntity
  8
3
 62
     0
370
    -2
100
AcDbBlockReference
  2
_OPEN
 10
1263.497639781775
 20
4546.220148544914
 30
0.0
 41
60.0
 42
60.0
 43
60.0
 50
180.0
  0
INSERT
  5
82B2
330
82AB
100
AcDbEntity
  8
3
 62
     0
370
    -2
100
AcDbBlockReference
  2
_OPEN
 10
3313.497639781775
 20
4546.220148544914
 30
0.0
 41
60.0
 42
60.0
 43
60.0
  0
MTEXT
  5
82B3
330
82AB
100
AcDbEntity
  8
3
 62
     0
100
AcDbMText
 10
2288.497639781775
 20
4621.220148544915
 30
0.0
 40
90.0
 41
0.0
 71
     5
 72
     1
  1
\A1;2050
 73
     1
 44
1.0
1001
ACAD
1000
MTEXTBEGIN
1070
    73
1070
     1
1070
    44
1040
1.0
1070
    74
1070
     0
1000
MTEXTEND
  0
POINT
  5
82B4
330
82AB
100
AcDbEntity
  8
DEFPOINTS
 62
     0
100
AcDbPoint
 10
1263.497639781775
 20
4956.335754123924
 30
0.0
  0
POINT
  5
82B5
330
82AB
100
AcDbEntity
  8
DEFPOINTS
 62
     0
100
AcDbPoint
 10
3313.497639781775
 20
4956.335754123926
 30
0.0
  0
POINT
  5
82B6
330
82AB
100
AcDbEntity
  8
DEFPOINTS
 62
     0
100
AcDbPoint
 10
3313.497639781775
 20
4546.220148544914
 30
0.0
  0
ENDBLK
  5
82AD
330
82AB
100
AcDbEntity
  8
0
100
AcDbBlockEnd
  0
BLOCK
  5
82DD
330
82DC
100
AcDbEntity
  8
0
100
AcDbBlockBegin
  2
*D32
 70
     1
 10
0.0
 20
0.0
 30
0.0
  3
*D32
  1

  0
LINE
  5
82E8
330
82DC
100
AcDbEntity
  8
3
 62
     0
370
    -2
100
AcDbLine
 10
1888.497639781777
 20
3763.82600011631
 30
0.0
 11
1888.497639781777
 21
4126.131608620377
 31
0.0
  0
LINE
  5
82E9
330
82DC
100
AcDbEntity
  8
3
 62
     0
370
    -2
100
AcDbLine
 10
1168.497639781776
 20
2970.169466167082
 30
0.0
 11
1168.497639781776
 21
4126.131608620377
 31
0.0
  0
LINE
  5
82EA
330
82DC
100
AcDbEntity
  8
3
 62
     0
370
    -2
100
AcDbLine
 10
1828.497639781777
 20
4096.131608620377
 30
0.0
 11
1228.497639781776
 21
4096.131608620377
 31
0.0
  0
INSERT
  5
82EB
330
82DC
100
AcDbEntity
  8
3
 62
     0
370
    -2
100
AcDbBlockReference
  2
_OPEN
 10
1888.497639781777
 20
4096.131608620377
 30
0.0
 41
60.0
 42
60.0
 43
60.0
  0
INSERT
  5
82EC
330
82DC
100
AcDbEntity
  8
3
 62
     0
370
    -2
100
AcDbBlockReference
  2
_OPEN
 10
1168.497639781776
 20
4096.131608620377
 30
0.0
 41
60.0
 42
60.0
 43
60.0
 50
180.0
  0
MTEXT
  5
82ED
330
82DC
100
AcDbEntity
  8
3
 62
     0
100
AcDbMText
 10
1528.497639781776
 20
4171.131608620377
 30
0.0
 40
90.0
 41
0.0
 71
     5
 72
     1
  1
\A1;720
 73
     1
 44
1.0
1001
ACAD
1000
MTEXTBEGIN
1070
    73
1070
     1
1070
    44
1040
1.0
1070
    74
1070
     0
1000
MTEXTEND
  0
POINT
  5
82EE
330
82DC
100
AcDbEntity
  8
DEFPOINTS
 62
     0
100
AcDbPoint
 10
1888.497639781777
 20
3733.826000116309
 30
0.0
  0
POINT
  5
82EF
330
82DC
100
AcDbEntity
  8
DEFPOINTS
 62
     0
100
AcDbPoint
 10
1168.497639781776
 20
2940.169466167081
 30
0.0
  0
POINT
  5
82F0
330
82DC
100
AcDbEntity
  8
DEFPOINTS
 62
     0
100
AcDbPoint
 10
1168.497639781776
 20
4096.131608620377
 30
0.0
  0
ENDBLK
  5
82DE
330
82DC
100
AcDbEntity
  8
0
100
AcDbBlockEnd
  0
BLOCK
  5
82F6
330
82F5
100
AcDbEntity
  8
0
100
AcDbBlockBegin
  2
*D33
 70
     1
 10
0.0
 20
0.0
 30
0.0
  3
*D33
  1

  0
LINE
  5
8301
330
82F5
100
AcDbEntity
  8
3
 62
     0
370
    -2
100
AcDbLine
 10
1118.881657284148
 20
3014.169466167079
 30
0.0
 11
871.8037711084853
 21
3014.169466167079
 31
0.0
  0
LINE
  5
8302
330
82F5
100
AcDbEntity
  8
3
 62
     0
370
    -2
100
AcDbLine
 10
1233.497639781775
 20
2119.169466167079
 30
0.0
 11
871.8037711084852
 21
2119.169466167079
 31
0.0
  0
LINE
  5
8303
330
82F5
100
AcDbEntity
  8
3
 62
     0
370
    -2
100
AcDbLine
 10
901.8037711084854
 20
2954.16946616708
 30
0.0
 11
901.8037711084852
 21
2179.169466167079
 31
0.0
  0
INSERT
  5
8304
330
82F5
100
AcDbEntity
  8
3
 62
     0
370
    -2
100
AcDbBlockReference
  2
_OPEN
 10
901.8037711084854
 20
3014.169466167079
 30
0.0
 41
60.0
 42
60.0
 43
60.0
 50
90.0
  0
INSERT
  5
8305
330
82F5
100
AcDbEntity
  8
3
 62
     0
370
    -2
100
AcDbBlockReference
  2
_OPEN
 10
901.8037711084852
 20
2119.169466167079
 30
0.0
 41
60.0
 42
60.0
 43
60.0
 50
270.0
  0
MTEXT
  5
8306
330
82F5
100
AcDbEntity
  8
3
 62
     0
100
AcDbMText
 10
826.8037711084849
 20
2566.66946616708
 30
0.0
 40
90.0
 41
0.0
 71
     5
 72
     1
  1
\A1;895
 11
0.0000000000000001
 21
1.0
 31
0.0
 73
     1
 44
1.0
1001
ACAD
1000
MTEXTBEGIN
1070
    73
1070
     1
1070
    44
1040
1.0
1070
    74
1070
     0
1000
MTEXTEND
  0
POINT
  5
8307
330
82F5
100
AcDbEntity
  8
DEFPOINTS
 62
     0
100
AcDbPoint
 10
1148.881657284148
 20
3014.169466167079
 30
0.0
  0
POINT
  5
8308
330
82F5
100
AcDbEntity
  8
DEFPOINTS
 62
     0
100
AcDbPoint
 10
1263.497639781775
 20
2119.169466167079
 30
0.0
  0
POINT
  5
8309
330
82F5
100
AcDbEntity
  8
DEFPOINTS
 62
     0
100
AcDbPoint
 10
901.8037711084852
 20
2119.169466167079
 30
0.0
  0
ENDBLK
  5
82F7
330
82F5
100
AcDbEntity
  8
0
100
AcDbBlockEnd
  0
BLOCK
  5
830C
330
830B
100
AcDbEntity
  8
0
100
AcDbBlockBegin
  2
*D34
 70
     1
 10
0.0
 20
0.0
 30
0.0
  3
*D34
  1

  0
LINE
  5
830E
330
830B
100
AcDbEntity
  8
3
 62
     0
370
    -2
100
AcDbLine
 10
1233.497639781775
 20
2119.169466167079
 30
0.0
 11
674.1261347231628
 21
2119.169466167079
 31
0.0
  0
LINE
  5
830F
330
830B
100
AcDbEntity
  8
3
 62
     0
370
    -2
100
AcDbLine
 10
1849.497639781776
 20
3694.169466167082
 30
0.0
 11
674.126134723163
 21
3694.169466167082
 31
0.0
  0
LINE
  5
8310
330
830B
100
AcDbEntity
  8
3
 62
     0
370
    -2
100
AcDbLine
 10
704.1261347231627
 20
2179.169466167079
 30
0.0
 11
704.1261347231631
 21
3634.169466167082
 31
0.0
  0
INSERT
  5
8311
330
830B
100
AcDbEntity
  8
3
 62
     0
370
    -2
100
AcDbBlockReference
  2
_OPEN
 10
704.1261347231627
 20
2119.169466167079
 30
0.0
 41
60.0
 42
60.0
 43
60.0
 50
270.0
  0
INSERT
  5
8312
330
830B
100
AcDbEntity
  8
3
 62
     0
370
    -2
100
AcDbBlockReference
  2
_OPEN
 10
704.1261347231631
 20
3694.169466167082
 30
0.0
 41
60.0
 42
60.0
 43
60.0
 50
90.0
  0
MTEXT
  5
8313
330
830B
100
AcDbEntity
  8
3
 62
     0
100
AcDbMText
 10
629.1261347231625
 20
2906.669466167081
 30
0.0
 40
90.0
 41
0.0
 71
     5
 72
     1
  1
\A1;1575
 11
0.0000000000000001
 21
1.0
 31
0.0
 73
     1
 44
1.0
1001
ACAD
1000
MTEXTBEGIN
1070
    73
1070
     1
1070
    44
1040
1.0
1070
    74
1070
     0
1000
MTEXTEND
  0
POINT
  5
8314
330
830B
100
AcDbEntity
  8
DEFPOINTS
 62
     0
100
AcDbPoint
 10
1263.497639781775
 20
2119.169466167079
 30
0.0
  0
POINT
  5
8315
330
830B
100
AcDbEntity
  8
DEFPOINTS
 62
     0
100
AcDbPoint
 10
1879.497639781776
 20
3694.169466167082
 30
0.0
  0
POINT
  5
8316
330
830B
100
AcDbEntity
  8
DEFPOINTS
 62
     0
100
AcDbPoint
 10
704.1261347231631
 20
3694.169466167082
 30
0.0
  0
ENDBLK
  5
830D
330
830B
100
AcDbEntity
  8
0
100
AcDbBlockEnd
  0
ENDSEC
  0
SECTION
  2
ENTITIES
  0
INSERT
  5
7C27
330
81FF
100
AcDbEntity
  8
0
100
AcDbBlockReference
  2
YA_N
 10
6.0
 20
5.0
 30
0.0
  0
ARC
  5
7C29
330
81FF
100
AcDbEntity
  8
1
100
AcDbCircle
 10
1962.497639781776
 20
3088.169466167081
 30
0.0
 40
942.0
100
AcDbArc
 50
292.6737795343462
 51
355.4944154733556
  0
ARC
  5
7C2A
330
81FF
100
AcDbEntity
  8
1
100
AcDbCircle
 10
1962.497639781776
 20
2940.169466167081
 30
0.0
 40
794.0
100
AcDbArc
 50
174.6523302501611
 51
245.2726700885535
  0
ARC
  5
7C2B
330
81FF
100
AcDbEntity
  8
1
100
AcDbCircle
 10
1827.997639781776
 20
2953.669466167081
 30
0.0
 40
659.4999999999998
100
AcDbArc
 50
84.73650479693301
 51
174.736504796933
  0
LINE
  5
7C2C
330
81FF
100
AcDbEntity
  8
1
100
AcDbLine
 10
1932.497639781776
 20
3611.551253636366
 30
0.0
 11
1932.497639781777
 21
3694.169466167082
 31
0.0
  0
LINE
  5
7C2D
330
81FF
100
AcDbEntity
  8
1
100
AcDbLine
 10
3015.497639781777
 20
3694.169466167082
 30
0.0
 11
1879.497639781776
 21
3694.169466167082
 31
0.0
  0
LINE
  5
7C2E
330
81FF
100
AcDbEntity
  8
1
100
AcDbLine
 10
2962.497639781777
 20
3694.169466167082
 30
0.0
 11
2901.5865599592
 21
3014.169466167081
 31
0.0
  0
LINE
  5
7C2F
330
81FF
100
AcDbEntity
  8
1
100
AcDbLine
 10
3015.497639781777
 20
3690.16946616708
 30
0.0
 11
3015.497639781777
 21
3694.169466167082
 31
0.0
  0
LINE
  5
7C30
330
81FF
100
AcDbEntity
  8
1
100
AcDbLine
 10
1879.497639781776
 20
3690.169466167083
 30
0.0
 11
1879.497639781776
 21
3694.169466167082
 31
0.0
  0
LINE
  5
7C31
330
81FF
100
AcDbEntity
  8
1
100
AcDbLine
 10
2958.018883912469
 20
3644.169466167082
 30
0.0
 11
1932.497639781776
 21
3644.169466167082
 31
0.0
  0
LINE
  5
7C32
330
81FF
100
AcDbEntity
  8
1
100
AcDbLine
 10
3015.497639781777
 20
3690.169466167079
 30
0.0
 11
1879.497639781776
 21
3690.169466167083
 31
0.0
  0
LINE
  5
7C33
330
81FF
100
AcDbEntity
  8
1
100
AcDbLine
 10
3313.497639781775
 20
2219.169466167077
 30
0.0
 11
1263.497639781775
 21
2219.169466167079
 31
0.0
  0
LINE
  5
7C34
330
81FF
100
AcDbEntity
  8
1
100
AcDbLine
 10
1263.497639781775
 20
2219.169466167079
 30
0.0
 11
1263.497639781775
 21
2119.169466167079
 31
0.0
  0
LINE
  5
7C35
330
81FF
100
AcDbEntity
  8
2
100
AcDbLine
 10
3719.08373952532
 20
3014.16946616708
 30
0.0
 11
5610.160371074623
 21
3014.16946616708
 31
0.0
  0
LINE
  5
7C36
330
81FF
100
AcDbEntity
  8
2
100
AcDbLine
 10
4804.083739525322
 20
3925.218337515751
 30
0.0
 11
4804.083739525321
 21
2119.169466167079
 31
0.0
  0
LINE
  5
7C37
330
81FF
100
AcDbEntity
  8
1
100
AcDbLine
 10
3977.083739525321
 20
2119.169466167079
 30
0.0
 11
5482.083739525322
 21
2119.169466167079
 31
0.0
1001
ACAD
1000
ASC_BOUNDS
1002
{
1070
    19
1005
0
1005
0
1002
}
  0
LINE
  5
7C38
330
81FF
100
AcDbEntity
  8
1
100
AcDbLine
 10
3977.083739525323
 20
2219.169466167079
 30
0.0
 11
5482.083739525322
 21
2219.169466167079
 31
0.0
  0
LINE
  5
7C39
330
81FF
100
AcDbEntity
  8
1
100
AcDbLine
 10
5429.083739525322
 20
3694.16946616708
 30
0.0
 11
5429.083739525324
 21
3014.16946616708
 31
0.0
  0
LINE
  5
7C3A
330
81FF
100
AcDbEntity
  8
2
100
AcDbLine
 10
1888.497639781777
 20
3733.826000116309
 30
0.0
 11
1888.497639781776
 21
2118.972316392661
 31
0.0
  0
LINE
  5
7C3B
330
81FF
100
AcDbEntity
  8
2
100
AcDbLine
 10
1148.881657284148
 20
3014.169466167079
 30
0.0
 11
2961.673410288387
 21
3014.16946616708
 31
0.0
  0
LINE
  5
7C3C
330
81FF
100
AcDbEntity
  8
1
100
AcDbLine
 10
3313.497639781775
 20
2119.169466167079
 30
0.0
 11
1263.497639781775
 21
2119.169466167079
 31
0.0
1001
ACAD
1000
ASC_BOUNDS
1002
{
1070
    19
1005
0
1002
}
  0
INSERT
  5
7C3D
330
81FF
100
AcDbEntity
  8
0
100
AcDbBlockReference
  2
YA_N
 10
-1637.209838160516
 20
-1405.432827243363
 30
0.0
 41
25.0
 42
25.0
 43
25.0
  0
ARC
  5
7C3F
330
81FF
100
AcDbEntity
  8
1
100
AcDbCircle
 10
3038.497639781776
 20
2454.169466167078
 30
0.0
 40
185.0
100
AcDbArc
 50
287.9452509999999
 51
252.054749
  0
LINE
  5
7C40
330
81FF
100
AcDbEntity
  8
2
100
AcDbLine
 10
3038.497639781776
 20
2717.985140167078
 30
0.0
 11
3038.497639781777
 21
2119.169466167079
 31
0.0
  0
LINE
  5
7C41
330
81FF
100
AcDbEntity
  8
1
100
AcDbLine
 10
2981.497624781775
 20
2278.169466167078
 30
0.0
 11
3095.497639781776
 21
2278.169466167078
 31
0.0
  0
LINE
  5
7C42
330
81FF
100
AcDbEntity
  8
1
100
AcDbLine
 10
2876.497624781777
 20
2349.428499167077
 30
0.0
 11
2876.497624781777
 21
2274.169466167078
 31
0.0
  0
LINE
  5
7C46
330
81FF
100
AcDbEntity
  8
1
100
AcDbLine
 10
2935.997624781776
 20
2279.318025167078
 30
0.0
 11
2945.504338781775
 21
2294.240633167078
 31
0.0
  0
LINE
  5
7C47
330
81FF
100
AcDbEntity
  8
1
100
AcDbLine
 10
2935.997624781776
 20
2291.169466167078
 30
0.0
 11
2935.997624781776
 21
2274.169466167078
 31
0.0
  0
LINE
  5
7C49
330
81FF
100
AcDbEntity
  8
1
100
AcDbLine
 10
2879.497624781775
 20
2294.169466167078
 30
0.0
 11
2932.997624781775
 21
2294.169466167078
 31
0.0
  0
ARC
  5
7C4B
330
81FF
100
AcDbEntity
  8
1
100
AcDbCircle
 10
2879.497624781775
 20
2291.169466167078
 30
0.0
 40
3.0
100
AcDbArc
 50
90.0
 51
180.0
  0
LINE
  5
7C4D
330
81FF
100
AcDbEntity
  8
1
100
AcDbLine
 10
2927.673710781776
 20
2294.169466167078
 30
0.0
 11
2932.853459781776
 21
2302.300066167077
 31
0.0
  0
ARC
  5
7C4E
330
81FF
100
AcDbEntity
  8
1
100
AcDbCircle
 10
2932.997624781775
 20
2291.169466167078
 30
0.0
 40
3.0
100
AcDbArc
 50
0.0
 51
90.0
  0
LINE
  5
7C51
330
81FF
100
AcDbEntity
  8
1
100
AcDbLine
 10
2876.497624781777
 20
2349.428499167077
 30
0.0
 11
2882.881596781776
 21
2354.126253167078
 31
0.0
  0
LINE
  5
7C54
330
81FF
100
AcDbEntity
  8
1
100
AcDbLine
 10
3200.497639781776
 20
2349.428499167077
 30
0.0
 11
3200.497639781776
 21
2274.169466167078
 31
0.0
  0
LINE
  5
7C55
330
81FF
100
AcDbEntity
  8
1
100
AcDbLine
 10
3197.497639781776
 20
2294.169466167078
 30
0.0
 11
3143.997639781777
 21
2294.169466167078
 31
0.0
  0
LINE
  5
7C56
330
81FF
100
AcDbEntity
  8
1
100
AcDbLine
 10
3140.997639781776
 20
2279.318025167078
 30
0.0
 11
3131.490925781776
 21
2294.240633167078
 31
0.0
  0
LINE
  5
7C59
330
81FF
100
AcDbEntity
  8
1
100
AcDbLine
 10
3140.997639781776
 20
2274.169466167078
 30
0.0
 11
3140.997639781776
 21
2291.169466167078
 31
0.0
  0
LINE
  5
7C5C
330
81FF
100
AcDbEntity
  8
1
100
AcDbLine
 10
3149.321553781776
 20
2294.169466167078
 30
0.0
 11
3144.141804781777
 21
2302.300066167077
 31
0.0
  0
ARC
  5
7C5D
330
81FF
100
AcDbEntity
  8
1
100
AcDbCircle
 10
3143.997639781777
 20
2291.169466167078
 30
0.0
 40
3.0
100
AcDbArc
 50
90.0
 51
180.0
  0
ARC
  5
7C60
330
81FF
100
AcDbEntity
  8
1
100
AcDbCircle
 10
3197.497639781776
 20
2291.169466167078
 30
0.0
 40
3.0
100
AcDbArc
 50
0.0
 51
90.0
  0
LINE
  5
7C61
330
81FF
100
AcDbEntity
  8
1
100
AcDbLine
 10
3200.497639781776
 20
2349.428499167077
 30
0.0
 11
3194.113667781776
 21
2354.126253167078
 31
0.0
  0
LINE
  5
7C62
330
81FF
100
AcDbEntity
  8
2
100
AcDbLine
 10
3288.92405390732
 20
2454.169466167078
 30
0.0
 11
2822.41810713582
 21
2454.169466167078
 31
0.0
  0
LINE
  5
7C63
330
81FF
100
AcDbEntity
  8
1
100
AcDbLine
 10
3248.913652807541
 20
2274.169466167077
 30
0.0
 11
3108.497639781777
 21
2274.169466167077
 31
0.0
  0
LINE
  5
7C64
330
81FF
100
AcDbEntity
  8
1
100
AcDbLine
 10
2813.497639781776
 20
2219.169466167077
 30
0.0
 11
2828.282388568111
 21
2274.169466167077
 31
0.0
  0
LINE
  5
7C65
330
81FF
100
AcDbEntity
  8
1
100
AcDbLine
 10
3263.497639781777
 20
2219.169466167077
 30
0.0
 11
3248.913652807541
 21
2274.169466167077
 31
0.0
  0
LINE
  5
7C67
330
81FF
100
AcDbEntity
  8
1
100
AcDbLine
 10
3108.497639781777
 20
2264.169466167077
 30
0.0
 11
2968.497639781777
 21
2264.169466167077
 31
0.0
  0
LINE
  5
7C68
330
81FF
100
AcDbEntity
  8
1
100
AcDbLine
 10
3108.497639781777
 20
2274.169466167077
 30
0.0
 11
3108.497639781777
 21
2264.169466167077
 31
0.0
  0
LINE
  5
7C69
330
81FF
100
AcDbEntity
  8
1
100
AcDbLine
 10
2968.497639781775
 20
2274.169466167077
 30
0.0
 11
2968.497639781775
 21
2264.169466167077
 31
0.0
  0
LINE
  5
7C6A
330
81FF
100
AcDbEntity
  8
1
100
AcDbLine
 10
2968.497639781777
 20
2274.169466167077
 30
0.0
 11
2828.282388568111
 21
2274.169466167077
 31
0.0
  0
CIRCLE
  5
7C6D
330
81FF
100
AcDbEntity
  8
1
100
AcDbCircle
 10
1888.497639781777
 20
3014.169466167079
 30
0.0
 40
165.0999999999999
  0
CIRCLE
  5
7C6E
330
81FF
100
AcDbEntity
  8
1
100
AcDbCircle
 10
3038.497639781776
 20
2454.169466167078
 30
0.0
 40
114.3
  0
LINE
  5
7C77
330
81FF
100
AcDbEntity
  8
1
100
AcDbLine
 10
4804.083739525322
 20
3694.16946616708
 30
0.0
 11
5469.083739525324
 21
3694.16946616708
 31
0.0
  0
INSERT
  5
7C78
330
81FF
100
AcDbEntity
  8
0
100
AcDbBlockReference
  2
YA_N
 10
-1144.893563079054
 20
-989.0222135336152
 30
0.0
 41
25.0
 42
25.0
 43
25.0
  0
DIMENSION
  5
7C7A
330
81FF
100
AcDbEntity
  8
3
100
AcDbDimension
  2
*D4
 10
1932.497639781777
 20
3895.329563161224
 30
0.0
 11
2447.497639781778
 21
3955.329563161224
 31
0.0
 12
728.3319491905822
 22
2386.109163331333
 32
0.0
 71
     5
 42
-1.0
  3
Standard
100
AcDbAlignedDimension
 13
2962.497639781777
 23
3694.169466167082
 33
0.0
 14
1932.497639781777
 24
3694.169466167082
 34
0.0
100
AcDbRotatedDimension
1001
ACAD
1000
DSTYLE
1002
{
1070
    40
1040
30.0
1002
}
  0
DIMENSION
  5
7C7B
330
81FF
100
AcDbEntity
  8
3
100
AcDbDimension
  2
*D5
 10
1888.497639781776
 20
4096.131608620377
 30
0.0
 11
2425.497639781776
 21
4156.131608620376
 31
0.0
 12
728.3319491905822
 22
2386.109163331333
 32
0.0
 71
     5
 42
-1.0
  3
Standard
100
AcDbAlignedDimension
 13
2962.497639781777
 23
3694.169466167082
 33
0.0
 14
1888.497639781776
 24
3753.785448664709
 34
0.0
100
AcDbRotatedDimension
1001
ACAD
1000
DSTYLE
1002
{
1070
    40
1040
30.0
1002
}
  0
LINE
  5
7C7E
330
81FF
100
AcDbEntity
  8
1
100
AcDbLine
 10
5429.083739525322
 20
3014.16946616708
 30
0.0
 11
5429.083739525322
 21
2219.169466167079
 31
0.0
  0
LINE
  5
7C7F
330
81FF
100
AcDbEntity
  8
1
100
AcDbLine
 10
4179.083739525321
 20
3694.16946616708
 30
0.0
 11
4179.083739525321
 21
3014.16946616708
 31
0.0
  0
LINE
  5
7C80
330
81FF
100
AcDbEntity
  8
1
100
AcDbLine
 10
4804.083739525322
 20
3694.16946616708
 30
0.0
 11
4139.083739525321
 21
3694.16946616708
 31
0.0
  0
LINE
  5
7C81
330
81FF
100
AcDbEntity
  8
1
100
AcDbLine
 10
4179.083739525321
 20
3014.16946616708
 30
0.0
 11
4179.083739525321
 21
2636.47231639266
 31
0.0
  0
LINE
  5
7C82
330
81FF
100
AcDbEntity
  8
1
100
AcDbLine
 10
5584.083739525321
 20
2978.369466167081
 30
0.0
 11
5584.083739525321
 21
2848.36946616708
 31
0.0
  0
LINE
  5
7C83
330
81FF
100
AcDbEntity
  8
1
100
AcDbLine
 10
5447.083739525321
 20
2988.36946616708
 30
0.0
 11
5447.083739525321
 21
2838.36946616708
 31
0.0
  0
LINE
  5
7C84
330
81FF
100
AcDbEntity
  8
1
100
AcDbLine
 10
5447.083739525321
 20
2988.36946616708
 30
0.0
 11
5496.383739525322
 21
2988.36946616708
 31
0.0
  0
LINE
  5
7C85
330
81FF
100
AcDbEntity
  8
1
100
AcDbLine
 10
5447.083739525321
 20
2838.36946616708
 30
0.0
 11
5496.383739525322
 21
2838.36946616708
 31
0.0
  0
ARC
  5
7C86
330
81FF
100
AcDbEntity
  8
1
100
AcDbCircle
 10
5574.083739525324
 20
2978.369466167081
 30
0.0
 40
10.0
100
AcDbArc
 50
0.0000000000006514
 51
90.0
  0
ARC
  5
7C87
330
81FF
100
AcDbEntity
  8
1
100
AcDbCircle
 10
5574.083739525322
 20
2848.36946616708
 30
0.0
 40
10.0
100
AcDbArc
 50
270.0
 51
0.0000000000006514
  0
LINE
  5
7C88
330
81FF
100
AcDbEntity
  8
1
100
AcDbLine
 10
5496.383739525321
 20
2988.36946616708
 30
0.0
 11
5574.08373952532
 21
2988.36946616708
 31
0.0
  0
LINE
  5
7C89
330
81FF
100
AcDbEntity
  8
1
100
AcDbLine
 10
5496.383739525322
 20
2838.36946616708
 30
0.0
 11
5574.083739525322
 21
2838.36946616708
 31
0.0
  0
LINE
  5
7C8A
330
81FF
100
AcDbEntity
  8
1
100
AcDbLine
 10
3881.083739525323
 20
3179.269466167079
 30
0.0
 11
3991.083739525322
 21
3179.269466167079
 31
0.0
  0
LINE
  5
7C8B
330
81FF
100
AcDbEntity
  8
1
100
AcDbLine
 10
3881.083739525323
 20
2849.06946616708
 30
0.0
 11
3991.083739525322
 21
2849.06946616708
 31
0.0
  0
LINE
  5
7C8C
330
81FF
100
AcDbEntity
  8
1
100
AcDbLine
 10
3881.083739525323
 20
2568.27231639266
 30
0.0
 11
3991.083739525322
 21
2568.27231639266
 31
0.0
  0
LINE
  5
7C8D
330
81FF
100
AcDbEntity
  8
1
100
AcDbLine
 10
3881.083739525323
 20
2339.672316392659
 30
0.0
 11
3991.083739525322
 21
2339.672316392659
 31
0.0
  0
LINE
  5
7C8E
330
81FF
100
AcDbEntity
  8
1
100
AcDbLine
 10
3881.083739525323
 20
3179.269466167079
 30
0.0
 11
3881.083739525323
 21
2339.672316392659
 31
0.0
  0
LINE
  5
7C8F
330
81FF
100
AcDbEntity
  8
1
100
AcDbLine
 10
3991.083739525322
 20
3179.269466167079
 30
0.0
 11
3991.083739525321
 21
2339.672316392659
 31
0.0
  0
LINE
  5
7C90
330
81FF
100
AcDbEntity
  8
1
100
AcDbLine
 10
3744.083739525316
 20
3294.16946616708
 30
0.0
 11
3744.083739525329
 21
2233.972316392661
 31
0.0
  0
LINE
  5
7C91
330
81FF
100
AcDbEntity
  8
1
100
AcDbLine
 10
3744.083739525316
 20
3294.16946616708
 30
0.0
 11
4036.583739525315
 21
3294.16946616708
 31
0.0
  0
LINE
  5
7C92
330
81FF
100
AcDbEntity
  8
1
100
AcDbLine
 10
3744.083739525325
 20
2233.972316392661
 30
0.0
 11
4036.583739525325
 21
2233.972316392661
 31
0.0
  0
LINE
  5
7C93
330
81FF
100
AcDbEntity
  8
1
100
AcDbLine
 10
4036.583739525315
 20
3294.169466167082
 30
0.0
 11
4036.583739525315
 21
3274.16946616708
 31
0.0
  0
LINE
  5
7C94
330
81FF
100
AcDbEntity
  8
1
100
AcDbLine
 10
4036.583739525325
 20
2253.97231639266
 30
0.0
 11
4036.583739525325
 21
2233.972316392661
 31
0.0
  0
POINT
  5
7C95
330
81FF
100
AcDbEntity
  8
1
100
AcDbPoint
 10
5584.083739525325
 20
2978.369466167081
 30
0.0
  0
LINE
  5
7C96
330
81FF
100
AcDbEntity
  8
2
100
AcDbLine
 10
1888.497639781775
 20
6377.251315973105
 30
0.0
 11
1888.497639781775
 21
4689.263508402548
 31
0.0
  0
LINE
  5
7C97
330
81FF
100
AcDbEntity
  8
2
100
AcDbLine
 10
2962.497639781777
 20
5783.335754123926
 30
0.0
 11
1126.81742701428
 21
5783.335754123925
 31
0.0
  0
INSERT
  5
7C98
330
81FF
100
AcDbEntity
  8
0
100
AcDbBlockReference
  2
YA_N
 10
3439.312525519781
 20
-2261.498311600258
 30
0.0
  0
LINE
  5
7C9B
330
81FF
100
AcDbEntity
  8
1
100
AcDbLine
 10
5482.083739525322
 20
2219.169466167079
 30
0.0
 11
5482.083739525322
 21
2119.169466167079
 31
0.0
  0
LINE
  5
7C9C
330
81FF
100
AcDbEntity
  8
1
100
AcDbLine
 10
3977.083739525321
 20
2219.169466167079
 30
0.0
 11
3977.083739525321
 21
2119.169466167079
 31
0.0
  0
LINE
  5
7C9D
330
81FF
100
AcDbEntity
  8
1
100
AcDbLine
 10
4111.783739525321
 20
2981.96946616708
 30
0.0
 11
4046.083739525323
 21
2981.96946616708
 31
0.0
  0
LINE
  5
7C9E
330
81FF
100
AcDbEntity
  8
1
100
AcDbLine
 10
4111.78373952532
 20
2831.96946616708
 30
0.0
 11
4046.08373952532
 21
2831.96946616708
 31
0.0
  0
LINE
  5
7C9F
330
81FF
100
AcDbEntity
  8
1
100
AcDbLine
 10
4161.083739525321
 20
2981.96946616708
 30
0.0
 11
4161.083739525322
 21
2831.96946616708
 31
0.0
  0
LINE
  5
7CA0
330
81FF
100
AcDbEntity
  8
1
100
AcDbLine
 10
4161.083739525322
 20
2831.96946616708
 30
0.0
 11
4111.78373952532
 21
2831.96946616708
 31
0.0
  0
LINE
  5
7CA1
330
81FF
100
AcDbEntity
  8
1
100
AcDbLine
 10
4161.083739525322
 20
2981.969466167079
 30
0.0
 11
4111.78373952532
 21
2981.96946616708
 31
0.0
  0
LINE
  5
7CA2
330
81FF
100
AcDbEntity
  8
1
100
AcDbLine
 10
4036.083739525323
 20
2971.96946616708
 30
0.0
 11
4036.083739525323
 21
2841.969466167081
 31
0.0
  0
ARC
  5
7CA3
330
81FF
100
AcDbEntity
  8
1
100
AcDbCircle
 10
4046.08373952532
 20
2841.969466167081
 30
0.0
 40
10.0
100
AcDbArc
 50
179.9999999999992
 51
270.0
  0
ARC
  5
7CA4
330
81FF
100
AcDbEntity
  8
1
100
AcDbCircle
 10
4046.083739525319
 20
2971.96946616708
 30
0.0
 40
10.0
100
AcDbArc
 50
90.0
 51
179.9999999999992
  0
POINT
  5
7CA5
330
81FF
100
AcDbEntity
  8
1
100
AcDbPoint
 10
4036.083739525319
 20
2971.96946616708
 30
0.0
  0
LINE
  5
7CA6
330
81FF
100
AcDbEntity
  8
1
100
AcDbLine
 10
4001.083739525323
 20
3046.669466167079
 30
0.0
 11
4179.083739525321
 21
3046.66946616708
 31
0.0
  0
LINE
  5
7CA7
330
81FF
100
AcDbEntity
  8
1
100
AcDbLine
 10
4001.083739525323
 20
2981.66946616708
 30
0.0
 11
4043.652690369088
 21
2981.66946616708
 31
0.0
  0
LINE
  5
7CA8
330
81FF
100
AcDbEntity
  8
1
100
AcDbLine
 10
4001.083739525323
 20
3046.669466167079
 30
0.0
 11
4001.083739525323
 21
2981.66946616708
 31
0.0
  0
LINE
  5
7CA9
330
81FF
100
AcDbEntity
  8
1
100
AcDbLine
 10
3991.083739525322
 20
3044.16946616708
 30
0.0
 11
4001.083739525323
 21
3044.16946616708
 31
0.0
  0
LINE
  5
7CAA
330
81FF
100
AcDbEntity
  8
1
100
AcDbLine
 10
3991.083739525322
 20
2984.16946616708
 30
0.0
 11
4001.083739525323
 21
2984.16946616708
 31
0.0
  0
LINE
  5
7CAE
330
81FF
100
AcDbEntity
  8
1
100
AcDbLine
 10
3313.497639781775
 20
2219.169466167079
 30
0.0
 11
3313.497639781775
 21
2119.169466167079
 31
0.0
  0
POINT
  5
7CB1
330
81FF
100
AcDbEntity
  8
1
100
AcDbPoint
 10
1263.497639781775
 20
2118.972316392661
 30
0.0
  0
LINE
  5
7CB6
330
81FF
100
AcDbEntity
  8
1
100
AcDbLine
 10
3313.497639781775
 20
4956.335754123926
 30
0.0
 11
1263.497639781775
 21
4956.335754123924
 31
0.0
  0
LINE
  5
7CB7
330
81FF
100
AcDbEntity
  8
1
100
AcDbLine
 10
2513.497639781775
 20
6461.335754123926
 30
0.0
 11
1263.497639781775
 21
6461.335754123926
 31
0.0
  0
LINE
  5
7CB8
330
81FF
100
AcDbEntity
  8
1
100
AcDbLine
 10
1263.497639781775
 20
6461.335754123926
 30
0.0
 11
1263.497639781775
 21
6408.335754123925
 31
0.0
  0
LINE
  5
7CB9
330
81FF
100
AcDbEntity
  8
1
100
AcDbLine
 10
3313.497639781775
 20
5806.335754123927
 30
0.0
 11
3313.497639781775
 21
4956.335754123926
 31
0.0
  0
LINE
  5
7CBA
330
81FF
100
AcDbEntity
  8
1
100
AcDbLine
 10
2513.497639781775
 20
6461.335754123926
 30
0.0
 11
2513.497639781775
 21
6408.335754123925
 31
0.0
  0
LINE
  5
7CBB
330
81FF
100
AcDbEntity
  8
1
100
AcDbLine
 10
3313.497639781775
 20
5806.335754123924
 30
0.0
 11
2962.497639781777
 21
5806.335754123924
 31
0.0
  0
LINE
  5
7CBC
330
81FF
100
AcDbEntity
  8
2
100
AcDbLine
 10
3038.497639781776
 20
5700.371117812299
 30
0.0
 11
3038.497639781776
 21
4691.637873033618
 31
0.0
  0
DIMENSION
  5
7CBD
330
81FF
100
AcDbEntity
  8
3
100
AcDbDimension
  2
*D6
 10
1263.497639781775
 20
6682.639691351642
 30
0.0
 11
1888.497639781775
 21
6682.639691351642
 31
0.0
 12
728.3319491905822
 22
2085.304154762685
 32
0.0
 70
   128
 71
     5
 42
-1.0
  3
Standard
100
AcDbAlignedDimension
 13
2513.497639781775
 23
6461.335754123926
 33
0.0
 14
1263.497639781775
 24
6461.335754123926
 34
0.0
100
AcDbRotatedDimension
1001
ACAD
1000
DSTYLE
1002
{
1070
    40
1040
30.0
1002
}
  0
DIMENSION
  5
7CBF
330
81FF
100
AcDbEntity
  8
3
100
AcDbDimension
  2
*D8
 10
3535.545707282386
 20
4956.335754123926
 30
0.0
 11
3535.545707282386
 21
5381.335754123925
 31
0.0
 12
728.3319491905822
 22
2085.304154762685
 32
0.0
 70
   128
 71
     5
 42
-1.0
  3
Standard
100
AcDbAlignedDimension
 13
3313.497639781775
 23
5806.335754123927
 33
0.0
 14
3313.497639781775
 24
4956.335754123926
 34
0.0
 50
270.0
100
AcDbRotatedDimension
1001
ACAD
1000
DSTYLE
1002
{
1070
    40
1040
30.0
1002
}
  0
DIMENSION
  5
7CC0
330
81FF
100
AcDbEntity
  8
3
100
AcDbDimension
  2
*D9
 10
864.8535017728409
 20
4956.335754123924
 30
0.0
 11
804.8535017728406
 21
5708.835754123924
 31
0.0
 12
728.3319491905822
 22
2085.304154762685
 32
0.0
 71
     5
 42
-1.0
  3
Standard
100
AcDbAlignedDimension
 13
1263.497639781775
 23
6461.335754123926
 33
0.0
 14
1263.497639781775
 24
4956.335754123924
 34
0.0
 50
270.0
100
AcDbRotatedDimension
1001
ACAD
1000
DSTYLE
1002
{
1070
    40
1040
30.0
1002
}
  0
DIMENSION
  5
7CC4
330
81FF
100
AcDbEntity
  8
3
100
AcDbDimension
  2
*D13
 10
5429.083739525322
 20
3948.164217589009
 30
0.0
 11
4804.083739525322
 21
4008.164217589007
 31
0.0
 12
-80.02088154817101
 22
2386.109163331333
 32
0.0
 71
     5
 42
-1.0
  3
Standard
100
AcDbAlignedDimension
 13
4179.083739525321
 23
3668.483783820716
 33
0.0
 14
5429.083739525322
 24
3665.205231625258
 34
0.0
100
AcDbRotatedDimension
1001
ACAD
1000
DSTYLE
1002
{
1070
    40
1040
30.0
1002
}
  0
DIMENSION
  5
7CC5
330
81FF
100
AcDbEntity
  8
3
100
AcDbDimension
  2
*D14
 10
5773.451959896632
 20
3544.16946616708
 30
0.0
 11
5713.451959896634
 21
3014.16946616708
 31
0.0
 12
-80.02088154817101
 22
2386.109163331333
 32
0.0
  1
\U+03C6<>
 71
     5
 42
-1.0
  3
Standard
100
AcDbAlignedDimension
 13
5434.583739525322
 23
2484.16946616708
 33
0.0
 14
5434.583739525322
 24
3544.16946616708
 34
0.0
 50
90.0
100
AcDbRotatedDimension
1001
ACAD
1000
DSTYLE
1002
{
1070
    40
1040
30.0
1002
}
  0
LINE
  5
7CC6
330
81FF
100
AcDbEntity
  8
2
100
AcDbLine
 10
3714.559828355549
 20
2453.97231639266
 30
0.0
 11
4655.765138191367
 21
2453.97231639266
 31
0.0
  0
ARC
  5
7CC7
330
81FF
100
AcDbEntity
  8
1
100
AcDbCircle
 10
1888.497639781777
 20
3014.169466167079
 30
0.0
 40
280.0
100
AcDbArc
 50
67.34404266857237
 51
252.9700165845115
  0
ARC
  5
7CC8
330
81FF
100
AcDbEntity
  8
1
100
AcDbCircle
 10
3038.497639781776
 20
2454.169466167078
 30
0.0
 40
220.0
100
AcDbArc
 50
252.9700165845115
 51
67.34404266857237
  0
LINE
  5
7CC9
330
81FF
100
AcDbEntity
  8
1
100
AcDbLine
 10
1996.352739012465
 20
3272.563114637661
 30
0.0
 11
3123.240932034459
 21
2656.995897333831
 31
0.0
  0
LINE
  5
7CCA
330
81FF
100
AcDbEntity
  8
1
100
AcDbLine
 10
1806.493449581178
 20
2746.447011394335
 30
0.0
 11
2974.065776052734
 21
2243.618959071218
 31
0.0
  0
LINE
  5
7CCB
330
81FF
100
AcDbEntity
  8
1
100
AcDbLine
 10
1950.94414303788
 20
3167.004161937004
 30
0.0
 11
3081.729834343694
 21
2559.780951925685
 31
0.0
  0
LINE
  5
7CCC
330
81FF
100
AcDbEntity
  8
1
100
AcDbLine
 10
1838.956710460678
 20
2856.677541542348
 30
0.0
 11
3004.200073328707
 21
2344.939445498615
 31
0.0
  0
INSERT
  5
7CCD
330
81FF
100
AcDbEntity
  8
0
100
AcDbBlockReference
  2
YA_N
 10
742.6405419924267
 20
-7350.772430041375
 30
0.0
  0
INSERT
  5
7CCF
330
81FF
100
AcDbEntity
  8
0
100
AcDbBlockReference
  2
YA_N
 10
2.995684825677016
 20
-7626.802696743742
 30
0.0
 41
20.0
 42
20.0
 43
20.0
  0
INSERT
  5
7CD1
330
81FF
100
AcDbEntity
  8
0
100
AcDbBlockReference
  2
YA_N
 10
699.9059132844049
 20
-7054.118742438055
 30
0.0
 41
20.0
 42
20.0
 43
20.0
  0
INSERT
  5
7CD3
330
81FF
100
AcDbEntity
  8
0
100
AcDbBlockReference
  2
YA_N
 10
814.1254386385663
 20
-7130.460452277301
 30
0.0
 41
20.0
 42
20.0
 43
20.0
  0
ARC
  5
7CD5
330
81FF
100
AcDbEntity
  8
1
100
AcDbCircle
 10
1888.497639781777
 20
3014.169466167079
 30
0.0
 40
599.0
100
AcDbArc
 50
85.78750092208547
 51
90.00000000000005
  0
CIRCLE
  5
7CD6
330
81FF
100
AcDbEntity
  8
1
100
AcDbCircle
 10
1888.497639781777
 20
3014.169466167079
 30
0.0
 40
530.0
  0
CIRCLE
  5
7CD7
330
81FF
100
AcDbEntity
  8
1
100
AcDbCircle
 10
1888.497639781777
 20
3014.169466167079
 30
0.0
 40
580.0
  0
LINE
  5
7CDA
330
81FF
100
AcDbEntity
  8
1
100
AcDbLine
 10
3258.497639781776
 20
4723.335754123925
 30
0.0
 11
1608.497639781777
 21
4723.335754123922
 31
0.0
  0
LINE
  5
7CDB
330
81FF
100
AcDbEntity
  8
1
100
AcDbLine
 10
3258.497639781776
 20
5043.335754123926
 30
0.0
 11
1608.497639781777
 21
5043.335754123924
 31
0.0
  0
LINE
  5
7CDC
330
81FF
100
AcDbEntity
  8
1
100
AcDbLine
 10
1608.497639781777
 20
4723.335754123922
 30
0.0
 11
1608.497639781777
 21
5043.335754123924
 31
0.0
  0
LINE
  5
7CDD
330
81FF
100
AcDbEntity
  8
1
100
AcDbLine
 10
3258.497639781776
 20
4723.335754123925
 30
0.0
 11
3258.497639781776
 21
5043.335754123926
 31
0.0
  0
LINE
  5
7CDE
330
81FF
100
AcDbEntity
  8
1
100
AcDbLine
 10
3152.797639781776
 20
4888.335754123925
 30
0.0
 11
3152.797639781776
 21
4998.335754123925
 31
0.0
  0
LINE
  5
7CDF
330
81FF
100
AcDbEntity
  8
1
100
AcDbLine
 10
2924.197639781776
 20
4888.335754123924
 30
0.0
 11
2924.197639781776
 21
4998.335754123925
 31
0.0
  0
LINE
  5
7CE0
330
81FF
100
AcDbEntity
  8
1
100
AcDbLine
 10
1723.397639781777
 20
4888.335754123924
 30
0.0
 11
1723.397639781777
 21
4998.335754123924
 31
0.0
  0
LINE
  5
7CE1
330
81FF
100
AcDbEntity
  8
1
100
AcDbLine
 10
2053.597639781777
 20
4888.335754123924
 30
0.0
 11
2053.597639781777
 21
4998.335754123924
 31
0.0
  0
LINE
  5
7CE2
330
81FF
100
AcDbEntity
  8
1
100
AcDbLine
 10
3152.797639781776
 20
4998.335754123925
 30
0.0
 11
2924.197639781776
 21
4998.335754123925
 31
0.0
  0
LINE
  5
7CE3
330
81FF
100
AcDbEntity
  8
1
100
AcDbLine
 10
3152.797639781776
 20
4888.335754123925
 30
0.0
 11
2924.197639781776
 21
4888.335754123925
 31
0.0
  0
LINE
  5
7CE4
330
81FF
100
AcDbEntity
  8
1
100
AcDbLine
 10
2053.597639781777
 20
4888.335754123924
 30
0.0
 11
1723.397639781777
 21
4888.335754123924
 31
0.0
  0
LINE
  5
7CE5
330
81FF
100
AcDbEntity
  8
1
100
AcDbLine
 10
2053.597639781777
 20
4998.335754123924
 30
0.0
 11
1723.397639781777
 21
4998.335754123924
 31
0.0
  0
LINE
  5
7CE6
330
81FF
100
AcDbEntity
  8
1
100
AcDbLine
 10
2855.997639781776
 20
5158.335754123922
 30
0.0
 11
2855.997639781776
 21
5003.335754123924
 31
0.0
  0
LINE
  5
7CE7
330
81FF
100
AcDbEntity
  8
1
100
AcDbLine
 10
3220.997639781776
 20
5564.835754123926
 30
0.0
 11
3220.997639781776
 21
5003.335754123924
 31
0.0
  0
LINE
  5
7CE8
330
81FF
100
AcDbEntity
  8
1
100
AcDbLine
 10
3220.997639781776
 20
5564.835754123926
 30
0.0
 11
2962.497639781777
 21
5564.835754123926
 31
0.0
  0
LINE
  5
7CE9
330
81FF
100
AcDbEntity
  8
1
100
AcDbLine
 10
3220.997639781776
 20
5003.335754123924
 30
0.0
 11
2855.997639781776
 21
5003.335754123924
 31
0.0
  0
LINE
  5
7CEA
330
81FF
100
AcDbEntity
  8
1
100
AcDbLine
 10
3014.497639781776
 20
5003.335754123924
 30
0.0
 11
3014.497639781776
 21
4998.335754123925
 31
0.0
  0
LINE
  5
7CEB
330
81FF
100
AcDbEntity
  8
1
100
AcDbLine
 10
3062.497639781776
 20
5003.335754123924
 30
0.0
 11
3062.497639781776
 21
4998.335754123925
 31
0.0
  0
LINE
  5
7CEC
330
81FF
100
AcDbEntity
  8
1
100
AcDbLine
 10
4557.583739525322
 20
2636.47231639266
 30
0.0
 11
3996.083739525323
 21
2636.47231639266
 31
0.0
  0
LINE
  5
7CED
330
81FF
100
AcDbEntity
  8
1
100
AcDbLine
 10
4557.583739525322
 20
2271.47231639266
 30
0.0
 11
3996.083739525323
 21
2271.47231639266
 31
0.0
  0
LINE
  5
7CEE
330
81FF
100
AcDbEntity
  8
1
100
AcDbLine
 10
3996.083739525323
 20
2636.47231639266
 30
0.0
 11
3996.083739525323
 21
2271.47231639266
 31
0.0
  0
LINE
  5
7CEF
330
81FF
100
AcDbEntity
  8
1
100
AcDbLine
 10
3996.083739525323
 20
2477.97231639266
 30
0.0
 11
3991.083739525322
 21
2477.97231639266
 31
0.0
  0
LINE
  5
7CF0
330
81FF
100
AcDbEntity
  8
1
100
AcDbLine
 10
3996.083739525323
 20
2429.97231639266
 30
0.0
 11
3991.083739525322
 21
2429.97231639266
 31
0.0
  0
LINE
  5
7CF3
330
81FF
100
AcDbEntity
  8
1
100
AcDbLine
 10
2962.497639781777
 20
5158.335754123924
 30
0.0
 11
1168.497639781776
 21
5158.335754123925
 31
0.0
  0
LINE
  5
7CF4
330
81FF
100
AcDbEntity
  8
1
100
AcDbLine
 10
2962.497639781777
 20
6408.335754123925
 30
0.0
 11
1168.497639781776
 21
6408.335754123925
 31
0.0
  0
LINE
  5
7CF8
330
81FF
100
AcDbEntity
  8
1
100
AcDbLine
 10
1855.997639781775
 20
5158.335754123925
 30
0.0
 11
1855.997639781775
 21
4998.335754123925
 31
0.0
  0
LINE
  5
7CF9
330
81FF
100
AcDbEntity
  8
1
100
AcDbLine
 10
1920.997639781775
 20
5158.335754123925
 30
0.0
 11
1920.997639781775
 21
4998.335754123925
 31
0.0
  0
LINE
  5
7CFA
330
81FF
100
AcDbEntity
  8
1
100
AcDbLine
 10
4161.083739525321
 20
2981.66946616708
 30
0.0
 11
4179.083739525321
 21
2981.66946616708
 31
0.0
  0
DIMENSION
  5
7CFB
330
81FF
100
AcDbEntity
  8
3
100
AcDbDimension
  2
*D15
 10
3313.497639781775
 20
6682.639691351642
 30
0.0
 11
2913.497639781775
 21
6742.639691351644
 31
0.0
 12
728.3319491905822
 22
2085.304154762685
 32
0.0
 71
     5
 42
-1.0
  3
Standard
100
AcDbAlignedDimension
 13
2513.497639781775
 23
6461.335754123926
 33
0.0
 14
3313.497639781775
 24
5806.335754123924
 34
0.0
100
AcDbRotatedDimension
1001
ACAD
1000
DSTYLE
1002
{
1070
    40
1040
30.0
1002
}
  0
DIMENSION
  5
7D03
330
81FF
100
AcDbEntity
  8
3
100
AcDbDimension
  2
*D17
 10
901.8037711084852
 20
3014.169466167079
 30
0.0
 11
841.8037711084853
 21
3354.169466167081
 31
0.0
 12
728.3319491905822
 22
2386.109163331333
 32
0.0
 71
     5
 42
-1.0
  3
Standard
100
AcDbAlignedDimension
 13
1888.497639781777
 23
3694.169466167082
 33
0.0
 14
1148.881657284148
 24
3014.169466167079
 34
0.0
 50
270.0
100
AcDbRotatedDimension
1001
ACAD
1000
DSTYLE
1002
{
1070
    40
1040
30.0
1002
}
  0
DIMENSION
  5
7D08
330
81FF
100
AcDbEntity
  8
3
100
AcDbDimension
  2
*D19
 10
3313.497639781775
 20
4271.180448599069
 30
0.0
 11
2240.997639781775
 21
4331.180448599069
 31
0.0
 12
728.3319491905822
 22
2386.109163331333
 32
0.0
 71
     5
 42
-1.0
  3
Standard
100
AcDbAlignedDimension
 13
1168.497639781776
 23
2940.169466167081
 33
0.0
 14
3313.497639781775
 24
2218.97231639266
 34
0.0
100
AcDbRotatedDimension
1001
ACAD
1000
DSTYLE
1002
{
1070
    40
1040
30.0
1002
}
  0
LINE
  5
7D09
330
81FF
100
AcDbEntity
  8
1
100
AcDbLine
 10
4804.083739525322
 20
3690.16946616708
 30
0.0
 11
4139.083739525321
 21
3690.16946616708
 31
0.0
  0
LINE
  5
7D0A
330
81FF
100
AcDbEntity
  8
1
100
AcDbLine
 10
4804.083739525322
 20
3690.16946616708
 30
0.0
 11
5469.083739525324
 21
3690.16946616708
 31
0.0
  0
LINE
  5
7D0B
330
81FF
100
AcDbEntity
  8
1
100
AcDbLine
 10
4139.083739525321
 20
3694.16946616708
 30
0.0
 11
4139.083739525321
 21
3690.16946616708
 31
0.0
  0
LINE
  5
7D0C
330
81FF
100
AcDbEntity
  8
1
100
AcDbLine
 10
5469.083739525324
 20
3694.16946616708
 30
0.0
 11
5469.083739525322
 21
3690.169466167079
 31
0.0
  0
LINE
  5
7D0D
330
81FF
100
AcDbEntity
  8
1
100
AcDbLine
 10
4557.583739525322
 20
2636.47231639266
 30
0.0
 11
4557.583739525322
 21
2271.47231639266
 31
0.0
  0
LINE
  5
7D0E
330
81FF
100
AcDbEntity
  8
1
100
AcDbLine
 10
4485.783470339291
 20
2271.47231639266
 30
0.0
 11
4485.783470339291
 21
2219.169466167079
 31
0.0
  0
LINE
  5
7D0F
330
81FF
100
AcDbEntity
  8
1
100
AcDbLine
 10
4080.093704145837
 20
2271.47231639266
 30
0.0
 11
4080.093704145837
 21
2219.169466167079
 31
0.0
  0
LINE
  5
7F3A
330
81FF
100
AcDbEntity
  8
4
100
AcDbLine
 10
5550.0
 20
1210.115599408851
 30
0.0
 11
5550.0
 21
610.1155994088513
 31
0.0
  0
LINE
  5
7F3B
330
81FF
100
AcDbEntity
  8
4
100
AcDbLine
 10
3450.0
 20
1210.115599408851
 30
0.0
 11
3450.0
 21
610.1155994088513
 31
0.0
  0
LINE
  5
7F3C
330
81FF
100
AcDbEntity
  8
4
100
AcDbLine
 10
1950.0
 20
1210.115599408851
 30
0.0
 11
1950.0
 21
610.1155994088513
 31
0.0
  0
LINE
  5
7F3F
330
81FF
100
AcDbEntity
  8
4
100
AcDbLine
 10
1950.0
 20
610.1155994088513
 30
0.0
 11
5550.0
 21
610.1155994088513
 31
0.0
  0
LINE
  5
7F40
330
81FF
100
AcDbEntity
  8
4
100
AcDbLine
 10
1950.0
 20
910.1155994088513
 30
0.0
 11
5550.0
 21
910.1155994088513
 31
0.0
  0
TEXT
  5
7F41
330
81FF
100
AcDbEntity
  8
4
100
AcDbText
 10
2065.506242540704
 20
1004.74467700869
 30
0.0
 40
150.0
  1
機器名称
100
AcDbText
  0
TEXT
  5
7F42
330
81FF
100
AcDbEntity
  8
4
100
AcDbText
 10
2058.774318074392
 20
675.0510696048841
 30
0.0
 40
150.0
  1
機器型番
100
AcDbText
  0
TEXT
  5
7F43
330
81FF
100
AcDbEntity
  8
4
100
AcDbText
 10
3533.036236462995
 20
977.8309062815567
 30
0.0
 40
150.0
  1
ミツヤ多翼送風機
100
AcDbText
  0
TEXT
  5
7F44
330
81FF
100
AcDbEntity
  8
4
100
AcDbText
 10
3559.963486756442
 20
661.5943522486814
 30
0.0
 40
150.0
  1
MF#6-5
100
AcDbText
  0
TEXT
  5
7F46
330
81FF
100
AcDbEntity
  8
4
100
AcDbText
 10
2334.165810534461
 20
7150.286523997547
 30
0.0
 40
161.9999999999998
  1
床置ベット
100
AcDbText
  0
TEXT
  5
7F47
330
81FF
100
AcDbEntity
  8
4
100
AcDbText
 10
948.5027799883393
 20
7601.642928597894
 30
0.0
 40
216.0
  1
遠心式両吸込両持多翼ファン
100
AcDbText
  0
LINE
  5
7F48
330
81FF
100
AcDbEntity
  8
4
100
AcDbLine
 10
750.0
 20
7408.226262794413
 30
0.0
 11
5550.0
 21
7408.226262794413
 31
0.0
  0
LINE
  5
7F49
330
81FF
100
AcDbEntity
  8
4
100
AcDbLine
 10
750.0
 20
8008.226262794414
 30
0.0
 11
5550.0
 21
8008.226262794414
 31
0.0
  0
LINE
  5
7F4A
330
81FF
100
AcDbEntity
  8
4
100
AcDbLine
 10
1950.0
 20
1210.115599408851
 30
0.0
 11
5550.0
 21
1210.115599408851
 31
0.0
  0
LINE
  5
7F4B
330
81FF
100
AcDbEntity
  8
4
100
AcDbLine
 10
750.0
 20
8008.226262794414
 30
0.0
 11
750.0
 21
7408.226262794413
 31
0.0
  0
TEXT
  5
7F4C
330
81FF
100
AcDbEntity
  8
4
100
AcDbText
 10
1026.589313806354
 20
7146.958432639029
 30
0.0
 40
161.9999999999998
  1
左回転上向
100
AcDbText
  0
TEXT
  5
7F4D
330
81FF
100
AcDbEntity
  8
4
100
AcDbText
 10
4406.908677747869
 20
8118.183244485924
 30
0.0
 40
168.0
  1
No.
100
AcDbText
  0
TEXT
  5
7F4E
330
81FF
100
AcDbEntity
  8
4
100
AcDbText
 10
3933.888187800039
 20
7150.286523997547
 30
0.0
 40
161.9999999999998
  1
縮尺：1/30
100
AcDbText
  0
LINE
  5
7F4F
330
81FF
100
AcDbEntity
  8
4
100
AcDbLine
 10
5550.0
 20
8008.226262794414
 30
0.0
 11
5550.0
 21
7408.226262794413
 31
0.0
  0
LINE
  5
7F50
330
81FF
100
AcDbEntity
  8
4
100
AcDbLine
 10
6300.0
 20
8850.0
 30
0.0
 11
6300.0
 21
8850.0
 31
0.0
  0
LINE
  5
7F51
330
81FF
100
AcDbEntity
  8
4
100
AcDbLine
 10
4321.852267079594
 20
8043.790749376205
 30
0.0
 11
4321.852267079594
 21
8359.956784649257
 31
0.0
  0
LINE
  5
7F52
330
81FF
100
AcDbEntity
  8
4
100
AcDbLine
 10
4321.852267079594
 20
8359.956784649257
 30
0.0
 11
5550.0
 21
8359.956784649257
 31
0.0
  0
LINE
  5
7F53
330
81FF
100
AcDbEntity
  8
4
100
AcDbLine
 10
5550.0
 20
8359.956784649257
 30
0.0
 11
5550.0
 21
8043.790749376205
 31
0.0
  0
LINE
  5
7F54
330
81FF
100
AcDbEntity
  8
4
100
AcDbLine
 10
5550.0
 20
8043.790749376205
 30
0.0
 11
4321.852267079594
 21
8043.790749376205
 31
0.0
  0
LINE
  5
7F55
330
81FF
100
AcDbEntity
  8
4
100
AcDbLine
 10
0.0
 20
0.0
 30
0.0
 11
0.0
 21
8850.0
 31
0.0
  0
LINE
  5
7F56
330
81FF
100
AcDbEntity
  8
4
100
AcDbLine
 10
0.0
 20
8850.0
 30
0.0
 11
6300.0
 21
8850.0
 31
0.0
  0
LINE
  5
7F57
330
81FF
100
AcDbEntity
  8
4
100
AcDbLine
 10
6300.0
 20
8850.0
 30
0.0
 11
6300.0
 21
0.0
 31
0.0
  0
LINE
  5
7F58
330
81FF
100
AcDbEntity
  8
4
100
AcDbLine
 10
6300.0
 20
0.0
 30
0.0
 11
0.0
 21
0.0
 31
0.0
  0
DIMENSION
  5
80D8
330
81FF
100
AcDbEntity
  8
3
100
AcDbDimension
  2
*D22
 10
1888.497639781776
 20
1899.46066633514
 30
0.0
 11
1575.997639781776
 21
1974.46066633514
 31
0.0
 71
     5
 42
-1.0
  3
Standard
100
AcDbAlignedDimension
 13
1263.497639781775
 23
2118.972316392661
 33
0.0
 14
1888.497639781776
 24
2118.972316392661
 34
0.0
100
AcDbRotatedDimension
1001
ACAD
1000
DSTYLE
1002
{
1070
   172
1070
     1
1070
    40
1040
30.0
1070
    42
1040
1.0
1070
   271
1070
     0
1070
   143
1040
0.039
1002
}
  0
DIMENSION
  5
80E5
330
81FF
100
AcDbEntity
  8
3
100
AcDbDimension
  2
*D23
 10
3313.497639781775
 20
1899.46066633514
 30
0.0
 11
2600.997639781776
 21
1974.46066633514
 31
0.0
 71
     5
 42
-1.0
  3
Standard
100
AcDbAlignedDimension
 13
1888.497639781776
 23
2118.972316392661
 33
0.0
 14
3313.497639781775
 24
2118.972316392661
 34
0.0
100
AcDbRotatedDimension
1001
ACAD
1000
DSTYLE
1002
{
1070
   172
1070
     1
1070
    40
1040
30.0
1070
    42
1040
1.0
1070
   271
1070
     0
1070
   143
1040
0.039
1002
}
  0
DIMENSION
  5
80F2
330
81FF
100
AcDbEntity
  8
3
100
AcDbDimension
  2
*D24
 10
4804.083739525321
 20
1899.46066633514
 30
0.0
 11
4390.583739525321
 21
1974.46066633514
 31
0.0
 71
     5
 42
-1.0
  3
Standard
100
AcDbAlignedDimension
 13
3977.083739525321
 23
2119.169466167079
 33
0.0
 14
4804.083739525321
 24
2119.169466167079
 34
0.0
100
AcDbRotatedDimension
1001
ACAD
1000
DSTYLE
1002
{
1070
   172
1070
     1
1070
    40
1040
30.0
1070
    42
1040
1.0
1070
   271
1070
     0
1070
   143
1040
0.039
1002
}
  0
DIMENSION
  5
80FF
330
81FF
100
AcDbEntity
  8
3
100
AcDbDimension
  2
*D25
 10
5482.083739525322
 20
1899.46066633514
 30
0.0
 11
5143.083739525322
 21
1974.46066633514
 31
0.0
 71
     5
 42
-1.0
  3
Standard
100
AcDbAlignedDimension
 13
4804.083739525321
 23
2119.169466167079
 33
0.0
 14
5482.083739525322
 24
2119.169466167079
 34
0.0
100
AcDbRotatedDimension
1001
ACAD
1000
DSTYLE
1002
{
1070
   172
1070
     1
1070
    40
1040
30.0
1070
    42
1040
1.0
1070
   271
1070
     0
1070
   143
1040
0.039
1002
}
  0
LINE
  5
8111
330
81FF
100
AcDbEntity
  8
1
100
AcDbLine
 10
2962.497639781777
 20
5158.335754123922
 30
0.0
 11
2962.497639781777
 21
6408.335754123928
 31
0.0
  0
LINE
  5
8112
330
81FF
100
AcDbEntity
  8
1
100
AcDbLine
 10
1932.497639781777
 20
5158.335754123924
 30
0.0
 11
1932.497639781777
 21
6408.335754123925
 31
0.0
  0
LINE
  5
8113
330
81FF
100
AcDbEntity
  8
1
100
AcDbLine
 10
1168.497639781776
 20
5158.335754123924
 30
0.0
 11
1168.497639781776
 21
6408.335754123925
 31
0.0
  0
LINE
  5
8114
330
81FF
100
AcDbEntity
  8
1
100
AcDbLine
 10
1932.497639781777
 20
5158.335754123924
 30
0.0
 11
2962.497639781777
 21
6408.335754123928
 31
0.0
  0
LINE
  5
8115
330
81FF
100
AcDbEntity
  8
1
100
AcDbLine
 10
1932.497639781777
 20
6408.335754123925
 30
0.0
 11
2962.497639781777
 21
5158.335754123922
 31
0.0
  0
LINE
  5
8116
330
81FF
100
AcDbEntity
  8
1
100
AcDbLine
 10
1263.497639781775
 20
5158.335754123924
 30
0.0
 11
1263.497639781775
 21
4956.335754123924
 31
0.0
  0
DIMENSION
  5
8246
330
81FF
100
AcDbEntity
  8
3
100
AcDbDimension
  2
*D27
 10
4804.083739525322
 20
4259.115623423149
 30
0.0
 11
4274.083739525319
 21
4357.687051994577
 31
0.0
 70
    32
  1
(<>)
 71
     5
 42
1060.000000000006
  3
IGA
100
AcDbAlignedDimension
 13
3744.083739525316
 23
3294.16946616708
 33
0.0
 14
4804.083739525322
 24
4053.164217589007
 34
0.0
100
AcDbRotatedDimension
1001
ACAD
1000
DSTYLE
1002
{
1070
    40
1040
30.0
1070
    42
1040
1.0
1070
   143
1040
0.039
1070
   172
1070
     1
1070
   271
1070
     4
1070
   272
1070
     4
1070
   279
1070
     0
1070
   284
1070
     0
1070
   285
1070
     0
1070
   286
1070
     0
1070
   341
1005
8213
1070
   343
1005
8213
1070
   344
1005
8213
1002
}
  0
DIMENSION
  5
8253
330
81FF
100
AcDbEntity
  8
3
100
AcDbDimension
  2
*D28
 10
5584.083739525324
 20
4259.115623423149
 30
0.0
 11
5194.083739525323
 21
4357.687051994577
 31
0.0
 70
    32
  1
(<>)
 71
     5
 42
780.0000000000018
  3
IGA
100
AcDbAlignedDimension
 13
4804.083739525322
 23
4053.164217589007
 33
0.0
 14
5584.083739525324
 24
2978.369466167081
 34
0.0
100
AcDbRotatedDimension
1001
ACAD
1000
DSTYLE
1002
{
1070
    40
1040
30.0
1070
    42
1040
1.0
1070
   143
1040
0.039
1070
   172
1070
     1
1070
   271
1070
     4
1070
   272
1070
     4
1070
   279
1070
     1
1070
   284
1070
     0
1070
   285
1070
     0
1070
   286
1070
     0
1070
   341
1005
8213
1070
   343
1005
8213
1070
   344
1005
8213
1002
}
  0
DIMENSION
  5
82AA
330
81FF
100
AcDbEntity
  8
3
100
AcDbDimension
  2
*D31
 10
3313.497639781775
 20
4546.220148544914
 30
0.0
 11
2288.497639781775
 21
4621.220148544915
 31
0.0
 70
    32
 71
     5
 42
2050.0
  3
IGA
100
AcDbAlignedDimension
 13
1263.497639781775
 23
4956.335754123924
 33
0.0
 14
3313.497639781775
 24
4956.335754123926
 34
0.0
100
AcDbRotatedDimension
1001
ACAD
1000
DSTYLE
1002
{
1070
    40
1040
30.0
1070
    42
1040
1.0
1070
   143
1040
0.039
1070
   172
1070
     1
1070
   271
1070
     4
1070
   272
1070
     4
1070
   279
1070
     0
1070
   284
1070
     0
1070
   285
1070
     0
1070
   286
1070
     0
1070
   341
1005
8213
1070
   343
1005
8213
1070
   344
1005
8213
1002
}
  0
DIMENSION
  5
82DB
330
81FF
100
AcDbEntity
  8
3
100
AcDbDimension
  2
*D32
 10
1168.497639781776
 20
4096.131608620377
 30
0.0
 11
1528.497639781776
 21
4171.131608620377
 31
0.0
 70
    32
 71
     5
 42
720.0000000000009
  3
IGA
100
AcDbAlignedDimension
 13
1888.497639781777
 23
3733.826000116309
 33
0.0
 14
1168.497639781776
 24
2940.169466167081
 34
0.0
100
AcDbRotatedDimension
1001
ACAD
1000
DSTYLE
1002
{
1070
    40
1040
30.0
1070
    42
1040
1.0
1070
   143
1040
0.039
1070
   172
1070
     1
1070
   271
1070
     4
1070
   272
1070
     4
1070
   279
1070
     0
1070
   284
1070
     0
1070
   285
1070
     0
1070
   286
1070
     0
1070
   341
1005
8213
1070
   343
1005
8213
1070
   344
1005
8213
1002
}
  0
DIMENSION
  5
82F4
330
81FF
100
AcDbEntity
  8
3
100
AcDbDimension
  2
*D33
 10
901.8037711084852
 20
2119.169466167079
 30
0.0
 11
826.8037711084849
 21
2566.66946616708
 31
0.0
 70
    32
 71
     5
 42
895.0
  3
IGA
100
AcDbAlignedDimension
 13
1148.881657284148
 23
3014.169466167079
 33
0.0
 14
1263.497639781775
 24
2119.169466167079
 34
0.0
 50
90.0
100
AcDbRotatedDimension
1001
ACAD
1000
DSTYLE
1002
{
1070
    40
1040
30.0
1070
    42
1040
1.0
1070
   143
1040
0.039
1070
   172
1070
     1
1070
   271
1070
     4
1070
   272
1070
     4
1070
   279
1070
     0
1070
   284
1070
     0
1070
   285
1070
     0
1070
   286
1070
     0
1070
   341
1005
8213
1070
   343
1005
8213
1070
   344
1005
8213
1002
}
  0
DIMENSION
  5
830A
330
81FF
100
AcDbEntity
  8
3
100
AcDbDimension
  2
*D34
 10
704.1261347231631
 20
3694.169466167082
 30
0.0
 11
629.1261347231625
 21
2906.669466167081
 31
0.0
 70
    32
 71
     5
 42
1575.000000000002
  3
IGA
100
AcDbAlignedDimension
 13
1263.497639781775
 23
2119.169466167079
 33
0.0
 14
1879.497639781776
 24
3694.169466167082
 34
0.0
 50
90.0
100
AcDbRotatedDimension
1001
ACAD
1000
DSTYLE
1002
{
1070
    40
1040
30.0
1070
    42
1040
1.0
1070
   143
1040
0.039
1070
   172
1070
     1
1070
   271
1070
     4
1070
   272
1070
     4
1070
   279
1070
     0
1070
   284
1070
     0
1070
   285
1070
     0
1070
   286
1070
     0
1070
   341
1005
8213
1070
   343
1005
8213
1070
   344
1005
8213
1002
}
  0
ENDSEC
  0
SECTION
  2
OBJECTS
  0
DICTIONARY
  5
819C
330
0
100
AcDbDictionary
281
     1
  3
ACAD_CIP_PREVIOUS_PRODUCT_INFO
350
8245
  3
ACAD_COLOR
350
81F2
  3
ACAD_DETAILVIEWSTYLE
350
81F9
  3
ACAD_GROUP
350
819D
  3
ACAD_LAYOUT
350
81F1
  3
ACAD_MATERIAL
350
81A0
  3
ACAD_MLEADERSTYLE
350
81F5
  3
ACAD_MLINESTYLE
350
81EE
  3
ACAD_PLOTSETTINGS
350
81F0
  3
ACAD_PLOTSTYLENAME
350
819E
  3
ACAD_SCALELIST
350
81D2
  3
ACAD_SECTIONVIEWSTYLE
350
81F7
  3
ACAD_TABLESTYLE
350
81F3
  3
ACAD_VISUALSTYLE
350
81B9
  3
ACDB_RECOMPOSE_DATA
350
83B0
  3
AcDbVariableDictionary
350
8321
  3
DWGPROPS
350
83B1
  0
DICTIONARY
  5
8317
330
81E4
100
AcDbDictionary
280
     1
281
     1
  3
ADSK_XREC_LAYER_RECONCILED
360
8318
  0
DICTIONARY
  5
8319
330
8203
100
AcDbDictionary
280
     1
281
     1
  3
ADSK_XREC_LAYER_RECONCILED
360
831A
  0
DICTIONARY
  5
831B
330
8206
100
AcDbDictionary
280
     1
281
     1
  3
ADSK_XREC_LAYER_RECONCILED
360
831C
  0
DICTIONARY
  5
831D
330
8207
100
AcDbDictionary
280
     1
281
     1
  3
ADSK_XREC_LAYER_RECONCILED
360
831E
  0
DICTIONARY
  5
831F
330
8208
100
AcDbDictionary
280
     1
281
     1
  3
ADSK_XREC_LAYER_RECONCILED
360
8320
  0
DICTIONARY
  5
82F2
330
81FF
100
AcDbDictionary
280
     1
281
     1
  3
ACAD_SORTENTS
360
82F3
  0
XRECORD
  5
8245
102
{ACAD_REACTORS
330
819C
102
}
330
819C
100
AcDbXrecord
280
     1
300
ACDLT
300
2015
300
INVLTS_F_S
  0
DICTIONARY
  5
81F2
102
{ACAD_REACTORS
330
819C
102
}
330
819C
100
AcDbDictionary
281
     1
  0
DICTIONARY
  5
81F9
102
{ACAD_REACTORS
330
819C
102
}
330
819C
100
AcDbDictionary
281
     1
  3
Imperial24
350
81FA
  0
DICTIONARY
  5
819D
102
{ACAD_REACTORS
330
819C
102
}
330
819C
100
AcDbDictionary
281
     1
  0
DICTIONARY
  5
81F1
102
{ACAD_REACTORS
330
819C
102
}
330
819C
100
AcDbDictionary
281
     1
  3
Model
350
8202
  3
レイアウト1
350
81FE
  0
DICTIONARY
  5
81A0
102
{ACAD_REACTORS
330
819C
102
}
330
819C
100
AcDbDictionary
281
     1
  3
ByBlock
350
81A9
  3
ByLayer
350
81A1
  3
Global
350
81B1
  0
DICTIONARY
  5
81F5
102
{ACAD_REACTORS
330
819C
102
}
330
819C
100
AcDbDictionary
281
     1
  3
Standard
350
81F6
  0
DICTIONARY
  5
81EE
102
{ACAD_REACTORS
330
819C
102
}
330
819C
100
AcDbDictionary
281
     1
  3
Standard
350
81EF
  0
DICTIONARY
  5
81F0
102
{ACAD_REACTORS
330
819C
102
}
330
819C
100
AcDbDictionary
281
     1
  0
ACDBDICTIONARYWDFLT
  5
819E
102
{ACAD_REACTORS
330
819C
102
}
330
819C
100
AcDbDictionary
281
     1
  3
Normal
350
819F
100
AcDbDictionaryWithDefault
340
819F
  0
DICTIONARY
  5
81D2
102
{ACAD_REACTORS
330
819C
102
}
330
819C
100
AcDbDictionary
281
     1
  3
A0
350
81D3
  3
A1
350
81D4
  3
A2
350
81D5
  3
A3
350
81D6
  3
A4
350
81D7
  3
A5
350
81D8
  3
A6
350
81D9
  3
A7
350
81DA
  3
A8
350
81DB
  3
A9
350
81DC
  3
B0
350
81DD
  3
B1
350
81DE
  3
B2
350
81DF
  3
B3
350
81E0
  3
B4
350
81E1
  3
B5
350
81E2
  3
B6
350
81E3
  0
DICTIONARY
  5
81F7
102
{ACAD_REACTORS
330
819C
102
}
330
819C
100
AcDbDictionary
281
     1
  3
Imperial24
350
81F8
  0
DICTIONARY
  5
81F3
102
{ACAD_REACTORS
330
819C
102
}
330
819C
100
AcDbDictionary
281
     1
  3
Standard
350
81F4
  0
DICTIONARY
  5
81B9
102
{ACAD_REACTORS
330
819C
102
}
330
819C
100
AcDbDictionary
281
     1
  3
2dWireframe
350
81BF
  3
Basic
350
81BE
  3
Brighten
350
81C5
  3
ColorChange
350
81C9
  3
Conceptual
350
81C2
  3
Dim
350
81C4
  3
EdgeColorOff
350
81D1
  3
Facepattern
350
81C8
  3
Flat
350
81BA
  3
FlatWithEdges
350
81BB
  3
Gouraud
350
81BC
  3
GouraudWithEdges
350
81BD
  3
Hidden
350
81C1
  3
JitterOff
350
81CF
  3
Linepattern
350
81C7
  3
OverhangOff
350
81D0
  3
Realistic
350
81C3
  3
Shaded
350
81CE
  3
Shaded with edges
350
81CD
  3
Shades of Gray
350
81CA
  3
Sketchy
350
81CB
  3
Thicken
350
81C6
  3
Wireframe
350
81C0
  3
X-Ray
350
81CC
  0
XRECORD
  5
83B0
102
{ACAD_REACTORS
330
819C
102
}
330
819C
100
AcDbXrecord
280
     1
 90
        1
330
81F4
  0
DICTIONARY
  5
8321
102
{ACAD_REACTORS
330
819C
102
}
330
819C
100
AcDbDictionary
281
     1
  3
CANNOSCALE
350
8326
  3
CMLEADERSTYLE
350
8323
  3
CTABLESTYLE
350
8322
  3
CVIEWDETAILSTYLE
350
8324
  3
CVIEWSECTIONSTYLE
350
8325
  3
DIMASSOC
350
8329
  3
INDEXCTL
350
8328
  3
SORTENTS
350
8327
  3
XCLIPFRAME
350
832A
  0
XRECORD
  5
83B1
102
{ACAD_REACTORS
330
819C
102
}
330
819C
100
AcDbXrecord
280
     1
  1
DWGPROPS COOKIE
  2

  3

  4

  6

  7

  8
yasukiyo.ogawa
  9

300
=
301
=
302
=
303
=
304
=
305
=
306
=
307
=
308
=
309
=
 40
0.0324888888888889
 41
2451389.575190046
 42
2460271.70495132
  1

 90
        0
  0
XRECORD
  5
8318
102
{ACAD_REACTORS
330
8317
102
}
330
8317
100
AcDbXrecord
280
     1
290
     1
  0
XRECORD
  5
831A
102
{ACAD_REACTORS
330
8319
102
}
330
8319
100
AcDbXrecord
280
     1
290
     1
  0
XRECORD
  5
831C
102
{ACAD_REACTORS
330
831B
102
}
330
831B
100
AcDbXrecord
280
     1
290
     1
  0
XRECORD
  5
831E
102
{ACAD_REACTORS
330
831D
102
}
330
831D
100
AcDbXrecord
280
     1
290
     1
  0
XRECORD
  5
8320
102
{ACAD_REACTORS
330
831F
102
}
330
831F
100
AcDbXrecord
280
     1
290
     1
  0
SORTENTSTABLE
  5
82F3
102
{ACAD_REACTORS
330
82F2
102
}
330
82F2
100
AcDbSortentsTable
330
81FF
331
82AA
  5
82DB
331
7C82
  5
7C83
331
7C60
  5
7C61
331
80D8
  5
80E5
331
7CBF
  5
7CC0
331
7CAE
  5
7CB1
331
7C9D
  5
7C9E
331
7D03
  5
7D08
331
7CE1
  5
7CE2
331
7C93
  5
7C94
331
7F4D
  5
7F4E
331
7C2D
  5
7C2D
331
7CF3
  5
7CF4
331
7CE2
  5
7CE3
331
7CD1
  5
7CD3
331
7CC0
  5
7CC4
331
7C9E
  5
7C9F
331
7C94
  5
7C95
331
7C83
  5
7C84
331
7C61
  5
7C62
331
7F4E
  5
7F4F
331
7C3F
  5
7C40
331
7C2E
  5
7C2E
331
7F3F
  5
7F40
331
7C95
  5
7C96
331
7C84
  5
7C85
331
7C62
  5
7C63
331
7C51
  5
7C54
331
7C40
  5
7C41
331
7CF4
  5
7CF8
331
7CE3
  5
7CE4
331
7C9F
  5
7CA0
331
7F4F
  5
7F50
331
7C2F
  5
7C2F
331
7F50
  5
7F51
331
8111
  5
8112
331
7C41
  5
7C42
331
7CE4
  5
7CE5
331
7CD3
  5
7CD5
331
7CB1
  5
7CB6
331
7CA0
  5
7CA1
331
7C96
  5
7C97
331
7C85
  5
7C86
331
7C63
  5
7C64
331
7C30
  5
7C30
331
7F40
  5
7F41
331
7F51
  5
7F52
331
8253
  5
8287
331
8112
  5
8113
331
7C42
  5
7C46
331
8246
  5
8253
331
7CE5
  5
7CE6
331
7CA1
  5
7CA2
331
7C97
  5
7C98
331
7C86
  5
7C87
331
7C64
  5
7C65
331
7C31
  5
7C31
331
7F41
  5
7F42
331
7D08
  5
7D09
331
8113
  5
8114
331
7F52
  5
7F53
331
7C87
  5
7C88
331
7C65
  5
7C67
331
7C54
  5
7C55
331
7CE6
  5
7CE7
331
7CD5
  5
7CD6
331
7CC4
  5
7CC5
331
7CA2
  5
7CA3
331
7C32
  5
7C32
331
7F42
  5
7F43
331
7D09
  5
7D0A
331
7CF8
  5
7CF9
331
8114
  5
8115
331
7F53
  5
7F54
331
7CE7
  5
7CE8
331
7CD6
  5
7CD7
331
7CC5
  5
7CC6
331
7CA3
  5
7CA4
331
7C88
  5
7C89
331
7C77
  5
7C78
331
7C55
  5
7C56
331
7C33
  5
7C33
331
7CE8
  5
7CE9
331
7F43
  5
7F44
331
7D0A
  5
7D0B
331
7CF9
  5
7CFA
331
8115
  5
8116
331
7F54
  5
7F55
331
7CD7
  5
7CDA
331
7CC6
  5
7CC7
331
7CA4
  5
7CA5
331
7C89
  5
7C8A
331
7C78
  5
7C7A
331
7C67
  5
7C68
331
7C56
  5
7C59
331
7C34
  5
7C34
331
7F44
  5
7F46
331
7D0B
  5
7D0C
331
7CFA
  5
7CFB
331
7CE9
  5
7CEA
331
7F55
  5
7F56
331
8116
  5
8246
331
7C46
  5
7C47
331
7CC7
  5
7CC8
331
7CB6
  5
7CB7
331
7CA5
  5
7CA6
331
7C8A
  5
7C8B
331
7C68
  5
7C69
331
7C35
  5
7C35
331
80F2
  5
80FF
331
7CC8
  5
7CC9
331
7CFB
  5
7D03
331
7CEA
  5
7CEB
331
7D0C
  5
7D0D
331
7F56
  5
7F57
331
7CB7
  5
7CB8
331
7CA6
  5
7CA7
331
7C8B
  5
7C8C
331
7C7A
  5
7C7B
331
7C69
  5
7C6A
331
7C47
  5
7C49
331
7C36
  5
7C36
331
7F46
  5
7F47
331
7D0D
  5
7D0E
331
7CEB
  5
7CEC
331
7CDA
  5
7CDB
331
7CC9
  5
7CCA
331
7CB8
  5
7CB9
331
7F57
  5
7F58
331
7CA7
  5
7CA8
331
7C8C
  5
7C8D
331
7C7B
  5
7C7E
331
7C6A
  5
7C6D
331
7C59
  5
7C5C
331
7C37
  5
7C37
331
7D0E
  5
7D0F
331
7CEC
  5
7CED
331
7CDB
  5
7CDC
331
7CCA
  5
7CCB
331
7CB9
  5
7CBA
331
7CA8
  5
7CA9
331
7F47
  5
7F48
331
7F58
  5
80D8
331
7C8D
  5
7C8E
331
7C49
  5
7C4B
331
7C38
  5
7C38
331
7C27
  5
7C27
331
7F48
  5
7F49
331
7D0F
  5
7F3A
331
7CED
  5
7CEE
331
7CDC
  5
7CDD
331
7CCB
  5
7CCC
331
7CBA
  5
7CBB
331
7CA9
  5
7CAA
331
7C98
  5
7C9B
331
7C8E
  5
7C8F
331
7C39
  5
7C39
331
80E5
  5
80F2
331
7CCC
  5
7CCD
331
7CBB
  5
7CBC
331
7CAA
  5
7CAE
331
80FF
  5
810C
331
7CEE
  5
7CEF
331
7CDD
  5
7CDE
331
7F49
  5
7F4A
331
7C8F
  5
7C90
331
7C7E
  5
7C7F
331
7C6D
  5
7C6E
331
7C5C
  5
7C5D
331
7C4B
  5
7C4D
331
7C3A
  5
7C3A
331
7C29
  5
7C29
331
7F3A
  5
7F3B
331
7C90
  5
7C91
331
7CEF
  5
7CF0
331
7CDE
  5
7CDF
331
7CCD
  5
7CCF
331
7CBC
  5
7CBD
331
7F4A
  5
7F4B
331
7C7F
  5
7C80
331
7C6E
  5
7C77
331
7C5D
  5
7C60
331
7C3B
  5
7C3B
331
7C2A
  5
7C2A
331
7F3B
  5
7F3C
331
7C91
  5
7C92
331
7C80
  5
7C81
331
82DB
  5
82F1
331
7CF0
  5
7CF3
331
7CDF
  5
7CE0
331
7CBD
  5
7CBF
331
7C9B
  5
7C9C
331
7F4B
  5
7F4C
331
7C4D
  5
7C4E
331
7C3C
  5
7C3D
331
7C2B
  5
7C2B
331
7F3C
  5
7F3F
331
7C92
  5
7C93
331
7C81
  5
7C82
331
7CE0
  5
7CE1
331
7CCF
  5
7CD1
331
7C9C
  5
7C9D
331
7F4C
  5
7F4D
331
7C4E
  5
7C51
331
7C3D
  5
7C3F
331
7C2C
  5
7C2C
  0
ACDBDETAILVIEWSTYLE
  5
81FA
102
{ACAD_XDICTIONARY
360
83E9
102
}
102
{ACAD_REACTORS
330
81F9
102
}
330
81F9
100
AcDbModelDocViewStyle
 70
     0
  3
Imperial24
290
     0
100
AcDbDetailViewStyle
 70
     0
 71
     0
 90
        3
 71
     1
340
81E5
 40
0.24
340
0
 40
0.24
300

 40
0.36
280
     3
 71
     2
340
81EC
 90
       25
 71
     3
340
81E5
 40
0.24
 90
        1
 40
0.75
 90
        1
300
%<\AcVar ViewType \f "%tc1">% %<\AcVar ViewDetailId>%\PSCALE %<\AcVar ViewScale \f "%sn">%
 71
     4
340
81EC
 90
       25
340
81EC
 90
       25
280
     0
  0
LAYOUT
  5
8202
102
{ACAD_XDICTIONARY
360
83ED
102
}
102
{ACAD_REACTORS
330
81F1
102
}
330
81F1
100
AcDbPlotSettings
  1

  2
RICOH imagio MP W3600 RPCS
  4

  6

 40
0.0
 41
0.0
 42
0.0
 43
0.0
 44
0.0
 45
0.0
 46
0.0
 47
0.0
 48
0.0
 49
0.0
140
0.0
141
0.0
142
1.0
143
1.0
 70
  1712
 72
     0
 73
     0
 74
     0
  7

 75
     0
147
1.0
148
0.0
149
0.0
100
AcDbLayout
  1
Model
 70
     1
 71
     0
 10
0.0
 20
0.0
 11
12.0
 21
9.0
 12
0.0
 22
0.0
 32
0.0
 14
0.0
 24
0.0
 34
0.0
 15
0.0
 25
0.0
 35
0.0
146
0.0
 13
0.0
 23
0.0
 33
0.0
 16
1.0
 26
0.0
 36
0.0
 17
0.0
 27
1.0
 37
0.0
 76
     0
330
81FF
331
8204
  0
LAYOUT
  5
81FE
102
{ACAD_XDICTIONARY
360
83EB
102
}
102
{ACAD_REACTORS
330
81F1
102
}
330
81F1
100
AcDbPlotSettings
  1

  2
RICOH imagio MP W3600 RPCS
  4

  6

 40
0.0
 41
0.0
 42
0.0
 43
0.0
 44
0.0
 45
0.0
 46
0.0
 47
0.0
 48
0.0
 49
0.0
140
0.0
141
0.0
142
1.0
143
1.0
 70
   688
 72
     0
 73
     0
 74
     5
  7

 75
    16
147
1.0
148
0.0
149
0.0
100
AcDbLayout
  1
レイアウト1
 70
     1
 71
     1
 10
0.0
 20
0.0
 11
12.0
 21
9.0
 12
0.0
 22
0.0
 32
0.0
 14
1.000000000000000E+20
 24
1.000000000000000E+20
 34
1.000000000000000E+20
 15
-1.000000000000000E+20
 25
-1.000000000000000E+20
 35
-1.000000000000000E+20
146
0.0
 13
0.0
 23
0.0
 33
0.0
 16
1.0
 26
0.0
 36
0.0
 17
0.0
 27
1.0
 37
0.0
 76
     0
330
81FB
  0
MATERIAL
  5
81A9
102
{ACAD_XDICTIONARY
360
81AA
102
}
102
{ACAD_REACTORS
330
81A0
102
}
330
81A0
100
AcDbMaterial
  1
ByBlock
 72
     0
 43
0.0208333333333333
 43
0.0
 43
0.0
 43
0.0
 43
0.0
 43
0.0208333333333333
 43
0.0
 43
0.0
 43
0.0
 43
0.0
 43
1.0
 43
0.0
 43
0.0
 43
0.0
 43
0.0
 43
1.0
 77
     0
 47
0.0208333333333333
 47
0.0
 47
0.0
 47
0.0
 47
0.0
 47
0.0208333333333333
 47
0.0
 47
0.0
 47
0.0
 47
0.0
 47
1.0
 47
0.0
 47
0.0
 47
0.0
 47
0.0
 47
1.0
171
     0
 49
0.0208333333333333
 49
0.0
 49
0.0
 49
0.0
 49
0.0
 49
0.0208333333333333
 49
0.0
 49
0.0
 49
0.0
 49
0.0
 49
1.0
 49
0.0
 49
0.0
 49
0.0
 49
0.0
 49
1.0
175
     0
142
0.0208333333333333
142
0.0
142
0.0
142
0.0
142
0.0
142
0.0208333333333333
142
0.0
142
0.0
142
0.0
142
0.0
142
1.0
142
0.0
142
0.0
142
0.0
142
0.0
142
1.0
179
     0
144
0.0208333333333333
144
0.0
144
0.0
144
0.0
144
0.0
144
0.0208333333333333
144
0.0
144
0.0
144
0.0
144
0.0
144
1.0
144
0.0
144
0.0
144
0.0
144
0.0
144
1.0
147
0.0208333333333333
147
0.0
147
0.0
147
0.0
147
0.0
147
0.0208333333333333
147
0.0
147
0.0
147
0.0
147
0.0
147
1.0
147
0.0
147
0.0
147
0.0
147
0.0
147
1.0
  0
MATERIAL
  5
81A1
102
{ACAD_XDICTIONARY
360
81A2
102
}
102
{ACAD_REACTORS
330
81A0
102
}
330
81A0
100
AcDbMaterial
  1
ByLayer
 72
     0
 43
0.0208333333333333
 43
0.0
 43
0.0
 43
0.0
 43
0.0
 43
0.0208333333333333
 43
0.0
 43
0.0
 43
0.0
 43
0.0
 43
1.0
 43
0.0
 43
0.0
 43
0.0
 43
0.0
 43
1.0
 77
     0
 47
0.0208333333333333
 47
0.0
 47
0.0
 47
0.0
 47
0.0
 47
0.0208333333333333
 47
0.0
 47
0.0
 47
0.0
 47
0.0
 47
1.0
 47
0.0
 47
0.0
 47
0.0
 47
0.0
 47
1.0
171
     0
 49
0.0208333333333333
 49
0.0
 49
0.0
 49
0.0
 49
0.0
 49
0.0208333333333333
 49
0.0
 49
0.0
 49
0.0
 49
0.0
 49
1.0
 49
0.0
 49
0.0
 49
0.0
 49
0.0
 49
1.0
175
     0
142
0.0208333333333333
142
0.0
142
0.0
142
0.0
142
0.0
142
0.0208333333333333
142
0.0
142
0.0
142
0.0
142
0.0
142
1.0
142
0.0
142
0.0
142
0.0
142
0.0
142
1.0
179
     0
144
0.0208333333333333
144
0.0
144
0.0
144
0.0
144
0.0
144
0.0208333333333333
144
0.0
144
0.0
144
0.0
144
0.0
144
1.0
144
0.0
144
0.0
144
0.0
144
0.0
144
1.0
147
0.0208333333333333
147
0.0
147
0.0
147
0.0
147
0.0
147
0.0208333333333333
147
0.0
147
0.0
147
0.0
147
0.0
147
1.0
147
0.0
147
0.0
147
0.0
147
0.0
147
1.0
  0
MATERIAL
  5
81B1
102
{ACAD_XDICTIONARY
360
81B2
102
}
102
{ACAD_REACTORS
330
81A0
102
}
330
81A0
100
AcDbMaterial
  1
Global
 72
     0
 43
0.0208333333333333
 43
0.0
 43
0.0
 43
0.0
 43
0.0
 43
0.0208333333333333
 43
0.0
 43
0.0
 43
0.0
 43
0.0
 43
1.0
 43
0.0
 43
0.0
 43
0.0
 43
0.0
 43
1.0
 77
     0
 47
0.0208333333333333
 47
0.0
 47
0.0
 47
0.0
 47
0.0
 47
0.0208333333333333
 47
0.0
 47
0.0
 47
0.0
 47
0.0
 47
1.0
 47
0.0
 47
0.0
 47
0.0
 47
0.0
 47
1.0
171
     0
 49
0.0208333333333333
 49
0.0
 49
0.0
 49
0.0
 49
0.0
 49
0.0208333333333333
 49
0.0
 49
0.0
 49
0.0
 49
0.0
 49
1.0
 49
0.0
 49
0.0
 49
0.0
 49
0.0
 49
1.0
175
     0
142
0.0208333333333333
142
0.0
142
0.0
142
0.0
142
0.0
142
0.0208333333333333
142
0.0
142
0.0
142
0.0
142
0.0
142
1.0
142
0.0
142
0.0
142
0.0
142
0.0
142
1.0
179
     0
144
0.0208333333333333
144
0.0
144
0.0
144
0.0
144
0.0
144
0.0208333333333333
144
0.0
144
0.0
144
0.0
144
0.0
144
1.0
144
0.0
144
0.0
144
0.0
144
0.0
144
1.0
147
0.0208333333333333
147
0.0
147
0.0
147
0.0
147
0.0
147
0.0208333333333333
147
0.0
147
0.0
147
0.0
147
0.0
147
1.0
147
0.0
147
0.0
147
0.0
147
0.0
147
1.0
  0
MLEADERSTYLE
  5
81F6
102
{ACAD_REACTORS
330
81F5
102
}
330
81F5
100
AcDbMLeaderStyle
170
     2
171
     1
172
     0
 90
        2
 40
0.0
 41
0.0
173
     1
 91
-1056964608
340
81EA
 92
       -2
290
     1
 42
0.09
291
     1
 43
0.36
  3
Standard
 44
0.18
300

342
81E5
174
     1
178
     6
175
     1
176
     0
 93
-1056964608
 45
0.18
292
     0
297
     0
 46
0.18
 94
-1056964608
 47
1.0
 49
1.0
140
1.0
293
     1
141
0.0
294
     1
177
     0
142
1.0
295
     0
296
     0
143
0.125
1001
ACAD_MLEADERVER
1070
     2
  0
MLINESTYLE
  5
81EF
102
{ACAD_REACTORS
330
81EE
102
}
330
81EE
100
AcDbMlineStyle
  2
STANDARD
 70
     0
  3

 62
   256
 51
90.0
 52
90.0
 71
     2
 49
0.5
 62
   256
  6
BYLAYER
 49
-0.5
 62
   256
  6
BYLAYER
  0
ACDBPLACEHOLDER
  5
819F
102
{ACAD_REACTORS
330
819E
102
}
330
819E
  0
SCALE
  5
81D3
102
{ACAD_REACTORS
330
81D2
102
}
330
81D2
100
AcDbScale
 70
     0
300
1:1
140
1.0
141
1.0
290
     1
  0
SCALE
  5
81D4
102
{ACAD_REACTORS
330
81D2
102
}
330
81D2
100
AcDbScale
 70
     0
300
1/128" = 1'-0"
140
0.0078125
141
12.0
290
     0
  0
SCALE
  5
81D5
102
{ACAD_REACTORS
330
81D2
102
}
330
81D2
100
AcDbScale
 70
     0
300
1/64" = 1'-0"
140
0.015625
141
12.0
290
     0
  0
SCALE
  5
81D6
102
{ACAD_REACTORS
330
81D2
102
}
330
81D2
100
AcDbScale
 70
     0
300
1/32" = 1'-0"
140
0.03125
141
12.0
290
     0
  0
SCALE
  5
81D7
102
{ACAD_REACTORS
330
81D2
102
}
330
81D2
100
AcDbScale
 70
     0
300
1/16" = 1'-0"
140
0.0625
141
12.0
290
     0
  0
SCALE
  5
81D8
102
{ACAD_REACTORS
330
81D2
102
}
330
81D2
100
AcDbScale
 70
     0
300
3/32" = 1'-0"
140
0.09375
141
12.0
290
     0
  0
SCALE
  5
81D9
102
{ACAD_REACTORS
330
81D2
102
}
330
81D2
100
AcDbScale
 70
     0
300
1/8" = 1'-0"
140
0.125
141
12.0
290
     0
  0
SCALE
  5
81DA
102
{ACAD_REACTORS
330
81D2
102
}
330
81D2
100
AcDbScale
 70
     0
300
3/16" = 1'-0"
140
0.1875
141
12.0
290
     0
  0
SCALE
  5
81DB
102
{ACAD_REACTORS
330
81D2
102
}
330
81D2
100
AcDbScale
 70
     0
300
1/4" = 1'-0"
140
0.25
141
12.0
290
     0
  0
SCALE
  5
81DC
102
{ACAD_REACTORS
330
81D2
102
}
330
81D2
100
AcDbScale
 70
     0
300
3/8" = 1'-0"
140
0.375
141
12.0
290
     0
  0
SCALE
  5
81DD
102
{ACAD_REACTORS
330
81D2
102
}
330
81D2
100
AcDbScale
 70
     0
300
1/2" = 1'-0"
140
0.5
141
12.0
290
     0
  0
SCALE
  5
81DE
102
{ACAD_REACTORS
330
81D2
102
}
330
81D2
100
AcDbScale
 70
     0
300
3/4" = 1'-0"
140
0.75
141
12.0
290
     0
  0
SCALE
  5
81DF
102
{ACAD_REACTORS
330
81D2
102
}
330
81D2
100
AcDbScale
 70
     0
300
1" = 1'-0"
140
1.0
141
12.0
290
     0
  0
SCALE
  5
81E0
102
{ACAD_REACTORS
330
81D2
102
}
330
81D2
100
AcDbScale
 70
     0
300
1-1/2" = 1'-0"
140
1.5
141
12.0
290
     0
  0
SCALE
  5
81E1
102
{ACAD_REACTORS
330
81D2
102
}
330
81D2
100
AcDbScale
 70
     0
300
3" = 1'-0"
140
3.0
141
12.0
290
     0
  0
SCALE
  5
81E2
102
{ACAD_REACTORS
330
81D2
102
}
330
81D2
100
AcDbScale
 70
     0
300
6" = 1'-0"
140
6.0
141
12.0
290
     0
  0
SCALE
  5
81E3
102
{ACAD_REACTORS
330
81D2
102
}
330
81D2
100
AcDbScale
 70
     0
300
1'-0" = 1'-0"
140
12.0
141
12.0
290
     0
  0
ACDBSECTIONVIEWSTYLE
  5
81F8
102
{ACAD_XDICTIONARY
360
83E7
102
}
102
{ACAD_REACTORS
330
81F7
102
}
330
81F7
100
AcDbModelDocViewStyle
 70
     0
  3
Imperial24
290
     0
100
AcDbSectionViewStyle
 70
     0
 71
     0
 90
       78
 71
     1
340
81E5
 40
0.24
340
0
340
0
 40
0.24
300
I, O, Q, S, X, Z
 40
0.48
 90
        3
 40
0.18
 90
        1
 71
     2
340
81EC
 90
       25
340
81EC
 90
       50
 40
0.24
 40
0.0
 40
0.24
 71
     3
340
81E5
 40
0.24
 90
        1
 40
0.75
 90
        1
300
%<\AcVar ViewType \f "%tc1">% %<\AcVar ViewSectionStartId>%-%<\AcVar ViewSectionEndId>%\PSCALE %<\AcVar ViewScale \f "%sn">%
 71
     4
300
ANSI31
 40
1.0
 90
        0
290
     0
290
     0
 90
        6
 40
0.0
 40
1.570796326794896
 40
0.2617993877991494
 40
1.308996938995747
 40
-0.2617993877991494
 40
1.832595714594046
  0
TABLESTYLE
  5
81F4
102
{ACAD_XDICTIONARY
360
83AE
102
}
102
{ACAD_REACTORS
330
81F3
102
}
330
81F3
100
AcDbTableStyle
  3
Standard
 70
     0
 71
     0
 40
0.06
 41
0.06
280
     0
281
     0
  7
STANDARD
140
0.18
170
     2
 62
     0
 63
     7
283
     0
274
    -2
284
     1
 64
     0
275
    -2
285
     1
 65
     0
276
    -2
286
     1
 66
     0
277
    -2
287
     1
 67
     0
278
    -2
288
     1
 68
     0
279
    -2
289
     1
 69
     0
  7
STANDARD
140
0.25
170
     5
 62
     0
 63
     7
283
     0
274
    -2
284
     1
 64
     0
275
    -2
285
     1
 65
     0
276
    -2
286
     1
 66
     0
277
    -2
287
     1
 67
     0
278
    -2
288
     1
 68
     0
279
    -2
289
     1
 69
     0
  7
STANDARD
140
0.18
170
     5
 62
     0
 63
     7
283
     0
274
    -2
284
     1
 64
     0
275
    -2
285
     1
 65
     0
276
    -2
286
     1
 66
     0
277
    -2
287
     1
 67
     0
278
    -2
288
     1
 68
     0
279
    -2
289
     1
 69
     0
  0
VISUALSTYLE
  5
81BF
102
{ACAD_XDICTIONARY
360
83BF
102
}
102
{ACAD_REACTORS
330
81B9
102
}
330
81B9
100
AcDbVisualStyle
  2
2dWireframe
 70
     4
 71
     0
 72
     2
 73
     0
 90
        0
 40
-0.6
 41
-30.0
 62
     5
 63
     7
 74
     1
 91
        4
 64
     7
 65
   257
 75
     1
175
     1
 42
1.0
 92
        0
 66
   257
 43
1.0
 76
     1
 77
     6
 78
     2
 67
     7
 79
     5
170
     0
171
     0
290
     0
174
     0
 93
        1
 44
0.0
173
     0
291
     0
 45
0.0
1001
ACAD
1000
AcDbSavedByObjectVersion
1070
     0
  0
VISUALSTYLE
  5
81BE
102
{ACAD_XDICTIONARY
360
83BD
102
}
102
{ACAD_REACTORS
330
81B9
102
}
330
81B9
100
AcDbVisualStyle
  2
Basic
 70
     7
 71
     1
 72
     0
 73
     1
 90
        0
 40
-0.6
 41
-30.0
 62
     5
 63
     7
 74
     0
 91
        4
 64
     7
 65
   257
 75
     1
175
     1
 42
1.0
 92
        8
 66
     7
 43
1.0
 76
     1
 77
     6
 78
     2
 67
     7
 79
     5
170
     0
171
     0
290
     0
174
     0
 93
        1
 44
0.0
173
     0
291
     1
 45
0.0
1001
ACAD
1000
AcDbSavedByObjectVersion
1070
     0
  0
VISUALSTYLE
  5
81C5
102
{ACAD_XDICTIONARY
360
83CB
102
}
102
{ACAD_REACTORS
330
81B9
102
}
330
81B9
100
AcDbVisualStyle
  2
Brighten
 70
    12
 71
     2
 72
     2
 73
     0
 90
        0
 40
-0.6
 41
-30.0
 62
     5
 63
     7
 74
     1
 91
        4
 64
     7
 65
   257
 75
     1
175
     1
 42
1.0
 92
        8
 66
     7
 43
1.0
 76
     1
 77
     6
 78
     2
 67
     7
 79
     5
170
     0
171
     0
290
     0
174
     0
 93
        1
 44
50.0
173
     0
291
     1
 45
0.0
1001
ACAD
1000
AcDbSavedByObjectVersion
1070
     0
  0
VISUALSTYLE
  5
81C9
102
{ACAD_XDICTIONARY
360
83D3
102
}
102
{ACAD_REACTORS
330
81B9
102
}
330
81B9
100
AcDbVisualStyle
  2
ColorChange
 70
    16
 71
     2
 72
     2
 73
     3
 90
        0
 40
-0.6
 41
-30.0
 62
     5
 63
     8
 74
     1
 91
        4
 64
     7
 65
   257
 75
     1
175
     1
 42
1.0
 92
        8
 66
     8
 43
1.0
 76
     1
 77
     6
 78
     2
 67
     7
 79
     5
170
     0
171
     0
290
     0
174
     0
 93
        1
 44
0.0
173
     0
291
     1
 45
0.0
1001
ACAD
1000
AcDbSavedByObjectVersion
1070
     0
  0
VISUALSTYLE
  5
81C2
102
{ACAD_XDICTIONARY
360
83C5
102
}
102
{ACAD_REACTORS
330
81B9
102
}
330
81B9
100
AcDbVisualStyle
  2
Conceptual
 70
     9
 71
     3
 72
     2
 73
     0
 90
        0
 40
-0.6
 41
-30.0
 62
     5
 63
     7
 74
     2
 91
        2
 64
     7
 65
   257
 75
     1
175
     1
 42
179.0
 92
        8
 66
     7
 43
1.0
 76
     1
 77
     6
 78
     2
 67
     7
 79
     3
170
     0
171
     0
290
     0
174
     0
 93
        1
 44
0.0
173
     0
291
     0
 45
0.0
1001
ACAD
1000
AcDbSavedByObjectVersion
1070
     0
  0
VISUALSTYLE
  5
81C4
102
{ACAD_XDICTIONARY
360
83C9
102
}
102
{ACAD_REACTORS
330
81B9
102
}
330
81B9
100
AcDbVisualStyle
  2
Dim
 70
    11
 71
     2
 72
     2
 73
     0
 90
        0
 40
-0.6
 41
-30.0
 62
     5
 63
     7
 74
     1
 91
        4
 64
     7
 65
   257
 75
     1
175
     1
 42
1.0
 92
        8
 66
     7
 43
1.0
 76
     1
 77
     6
 78
     2
 67
     7
 79
     5
170
     0
171
     0
290
     0
174
     0
 93
        1
 44
-50.0
173
     0
291
     1
 45
0.0
1001
ACAD
1000
AcDbSavedByObjectVersion
1070
     0
  0
VISUALSTYLE
  5
81D1
102
{ACAD_XDICTIONARY
360
83E3
102
}
102
{ACAD_REACTORS
330
81B9
102
}
330
81B9
100
AcDbVisualStyle
  2
EdgeColorOff
 70
    22
 71
     2
 72
     2
 73
     0
 90
        0
 40
-0.6
 41
-30.0
 62
     5
 63
     7
 74
     1
 91
        4
 64
     7
 65
   257
 75
     1
175
     1
 42
1.0
 92
        8
 66
     7
 43
1.0
 76
     1
 77
     6
 78
     2
 67
     7
 79
     5
170
     0
171
     0
290
     0
174
     0
 93
        1
 44
0.0
173
     0
291
     1
 45
0.0
1001
ACAD
1000
AcDbSavedByObjectVersion
1070
     0
  0
VISUALSTYLE
  5
81C8
102
{ACAD_XDICTIONARY
360
83D1
102
}
102
{ACAD_REACTORS
330
81B9
102
}
330
81B9
100
AcDbVisualStyle
  2
Facepattern
 70
    15
 71
     2
 72
     2
 73
     0
 90
        0
 40
-0.6
 41
-30.0
 62
     5
 63
     7
 74
     1
 91
        4
 64
     7
 65
   257
 75
     1
175
     1
 42
1.0
 92
        8
 66
     7
 43
1.0
 76
     1
 77
     6
 78
     2
 67
     7
 79
     5
170
     0
171
     0
290
     0
174
     0
 93
        1
 44
0.0
173
     0
291
     1
 45
0.0
1001
ACAD
1000
AcDbSavedByObjectVersion
1070
     0
  0
VISUALSTYLE
  5
81BA
102
{ACAD_XDICTIONARY
360
83B5
102
}
102
{ACAD_REACTORS
330
81B9
102
}
330
81B9
100
AcDbVisualStyle
  2
Flat
 70
     0
 71
     2
 72
     1
 73
     1
 90
        2
 40
-0.6
 41
30.0
 62
     5
 63
     7
 74
     0
 91
        0
 64
     7
 65
   257
 75
     1
175
     1
 42
1.0
 92
        8
 66
     7
 43
1.0
 76
     1
 77
     6
 78
     2
 67
     7
 79
     5
170
     0
171
     0
290
     0
174
     0
 93
       13
 44
0.0
173
     0
291
     1
 45
0.0
1001
ACAD
1000
AcDbSavedByObjectVersion
1070
     0
  0
VISUALSTYLE
  5
81BB
102
{ACAD_XDICTIONARY
360
83B7
102
}
102
{ACAD_REACTORS
330
81B9
102
}
330
81B9
100
AcDbVisualStyle
  2
FlatWithEdges
 70
     1
 71
     2
 72
     1
 73
     1
 90
        2
 40
-0.6
 41
30.0
 62
     5
 63
     7
 74
     1
 91
        0
 64
     7
 65
   257
 75
     1
175
     1
 42
1.0
 92
        0
 66
   257
 43
1.0
 76
     1
 77
     6
 78
     2
 67
     7
 79
     5
170
     0
171
     0
290
     0
174
     0
 93
       13
 44
0.0
173
     0
291
     1
 45
0.0
1001
ACAD
1000
AcDbSavedByObjectVersion
1070
     0
  0
VISUALSTYLE
  5
81BC
102
{ACAD_XDICTIONARY
360
83B9
102
}
102
{ACAD_REACTORS
330
81B9
102
}
330
81B9
100
AcDbVisualStyle
  2
Gouraud
 70
     2
 71
     2
 72
     2
 73
     1
 90
        2
 40
-0.6
 41
30.0
 62
     5
 63
     7
 74
     0
 91
        0
 64
     7
 65
   257
 75
     1
175
     1
 42
1.0
 92
        0
 66
     7
 43
1.0
 76
     1
 77
     6
 78
     2
 67
     7
 79
     5
170
     0
171
     0
290
     0
174
     0
 93
       13
 44
0.0
173
     0
291
     1
 45
0.0
1001
ACAD
1000
AcDbSavedByObjectVersion
1070
     0
  0
VISUALSTYLE
  5
81BD
102
{ACAD_XDICTIONARY
360
83BB
102
}
102
{ACAD_REACTORS
330
81B9
102
}
330
81B9
100
AcDbVisualStyle
  2
GouraudWithEdges
 70
     3
 71
     2
 72
     2
 73
     1
 90
        2
 40
-0.6
 41
30.0
 62
     5
 63
     7
 74
     1
 91
        0
 64
     7
 65
   257
 75
     1
175
     1
 42
1.0
 92
        0
 66
   257
 43
1.0
 76
     1
 77
     6
 78
     2
 67
     7
 79
     5
170
     0
171
     0
290
     0
174
     0
 93
       13
 44
0.0
173
     0
291
     1
 45
0.0
1001
ACAD
1000
AcDbSavedByObjectVersion
1070
     0
  0
VISUALSTYLE
  5
81C1
102
{ACAD_XDICTIONARY
360
83C3
102
}
102
{ACAD_REACTORS
330
81B9
102
}
330
81B9
100
AcDbVisualStyle
  2
Hidden
 70
     6
 71
     1
 72
     2
 73
     2
 90
        0
 40
-0.6
 41
-30.0
 62
     5
 63
     7
 74
     2
 91
        2
 64
     7
 65
   257
 75
     2
175
     1
 42
40.0
 92
        0
 66
   257
 43
1.0
 76
     1
 77
     6
 78
     2
 67
     7
 79
     3
170
     0
171
     0
290
     0
174
     0
 93
        1
 44
0.0
173
     0
291
     0
 45
0.0
1001
ACAD
1000
AcDbSavedByObjectVersion
1070
     0
  0
VISUALSTYLE
  5
81CF
102
{ACAD_XDICTIONARY
360
83DF
102
}
102
{ACAD_REACTORS
330
81B9
102
}
330
81B9
100
AcDbVisualStyle
  2
JitterOff
 70
    20
 71
     2
 72
     2
 73
     0
 90
        0
 40
-0.6
 41
-30.0
 62
     5
 63
     7
 74
     1
 91
        4
 64
     7
 65
   257
 75
     1
175
     1
 42
1.0
 92
       10
 66
     7
 43
1.0
 76
     1
 77
     6
 78
     2
 67
     7
 79
     5
170
     0
171
     0
290
     0
174
     0
 93
        1
 44
0.0
173
     0
291
     1
 45
0.0
1001
ACAD
1000
AcDbSavedByObjectVersion
1070
     0
  0
VISUALSTYLE
  5
81C7
102
{ACAD_XDICTIONARY
360
83CF
102
}
102
{ACAD_REACTORS
330
81B9
102
}
330
81B9
100
AcDbVisualStyle
  2
Linepattern
 70
    14
 71
     2
 72
     2
 73
     0
 90
        0
 40
-0.6
 41
-30.0
 62
     5
 63
     7
 74
     1
 91
        4
 64
     7
 65
   257
 75
     7
175
     7
 42
1.0
 92
        8
 66
     7
 43
1.0
 76
     1
 77
     6
 78
     2
 67
     7
 79
     5
170
     0
171
     0
290
     0
174
     0
 93
        1
 44
0.0
173
     0
291
     1
 45
0.0
1001
ACAD
1000
AcDbSavedByObjectVersion
1070
     0
  0
VISUALSTYLE
  5
81D0
102
{ACAD_XDICTIONARY
360
83E1
102
}
102
{ACAD_REACTORS
330
81B9
102
}
330
81B9
100
AcDbVisualStyle
  2
OverhangOff
 70
    21
 71
     2
 72
     2
 73
     0
 90
        0
 40
-0.6
 41
-30.0
 62
     5
 63
     7
 74
     1
 91
        4
 64
     7
 65
   257
 75
     1
175
     1
 42
1.0
 92
        9
 66
     7
 43
1.0
 76
     1
 77
     6
 78
     2
 67
     7
 79
     5
170
     0
171
     0
290
     0
174
     0
 93
        1
 44
0.0
173
     0
291
     1
 45
0.0
1001
ACAD
1000
AcDbSavedByObjectVersion
1070
     0
  0
VISUALSTYLE
  5
81C3
102
{ACAD_XDICTIONARY
360
83C7
102
}
102
{ACAD_REACTORS
330
81B9
102
}
330
81B9
100
AcDbVisualStyle
  2
Realistic
 70
     8
 71
     2
 72
     3
 73
     0
 90
        2
 40
-0.6
 41
30.0
 62
     5
 63
     7
 74
     0
 91
        0
 64
     7
 65
   257
 75
     1
175
     1
 42
1.0
 92
        8
 66
   257
 43
1.0
 76
     1
 77
     6
 78
     2
 67
     7
 79
     3
170
     0
171
     0
290
     0
174
     0
 93
       13
 44
0.0
173
     0
291
     0
 45
0.0
1001
ACAD
1000
AcDbSavedByObjectVersion
1070
     0
  0
VISUALSTYLE
  5
81CE
102
{ACAD_XDICTIONARY
360
83DD
102
}
102
{ACAD_REACTORS
330
81B9
102
}
330
81B9
100
AcDbVisualStyle
  2
Shaded
 70
    27
 71
     2
 72
     2
 73
     1
 90
        2
 40
-0.6
 41
30.0
 62
     5
 63
     7
 74
     0
 91
        4
 64
     7
 65
   257
 75
     1
175
     1
 42
1.0
 92
        8
 66
   257
 43
1.0
 76
     1
 77
     6
 78
     2
 67
     8
 79
     3
170
     0
171
     0
290
     0
174
     0
 93
        5
 44
0.0
173
     0
291
     0
 45
0.0
1001
ACAD
1000
AcDbSavedByObjectVersion
1070
     0
  0
VISUALSTYLE
  5
81CD
102
{ACAD_XDICTIONARY
360
83DB
102
}
102
{ACAD_REACTORS
330
81B9
102
}
330
81B9
100
AcDbVisualStyle
  2
Shaded with edges
 70
    26
 71
     2
 72
     2
 73
     1
 90
        2
 40
-0.6
 41
30.0
 62
     5
 63
     7
 74
     1
 91
       10
 64
     7
 65
   257
 75
     2
175
     1
 42
1.0
 92
        8
 66
   257
 43
1.0
 76
     1
 77
     6
 78
     2
 67
     7
 79
     3
170
     0
171
     0
290
     0
174
     0
 93
        5
 44
0.0
173
     0
291
     0
 45
0.0
1001
ACAD
1000
AcDbSavedByObjectVersion
1070
     0
  0
VISUALSTYLE
  5
81CA
102
{ACAD_XDICTIONARY
360
83D5
102
}
102
{ACAD_REACTORS
330
81B9
102
}
330
81B9
100
AcDbVisualStyle
  2
Shades of Gray
 70
    23
 71
     2
 72
     2
 73
     3
 90
        0
 40
-0.6
 41
-30.0
 62
     5
 63
     7
 74
     2
 91
        2
 64
     7
 65
     7
 75
     1
175
     1
 42
40.0
 92
        8
 66
     7
 43
1.0
 76
     1
 77
     6
 78
     2
 67
     7
 79
     3
170
     0
171
     0
290
     0
174
     0
 93
        1
 44
0.0
173
     0
291
     0
 45
0.0
1001
ACAD
1000
AcDbSavedByObjectVersion
1070
     0
  0
VISUALSTYLE
  5
81CB
102
{ACAD_XDICTIONARY
360
83D7
102
}
102
{ACAD_REACTORS
330
81B9
102
}
330
81B9
100
AcDbVisualStyle
  2
Sketchy
 70
    24
 71
     1
 72
     2
 73
     2
 90
        0
 40
-0.6
 41
-30.0
 62
     5
 63
     7
 74
     2
 91
        2
 64
     7
 65
     7
 75
     1
175
     1
 42
40.0
 92
       11
 66
     7
 43
1.0
 76
     1
 77
     6
 78
     2
 67
     7
 79
     6
170
     0
171
     0
290
     0
174
     0
 93
        1
 44
0.0
173
     0
291
     0
 45
0.0
1001
ACAD
1000
AcDbSavedByObjectVersion
1070
     0
  0
VISUALSTYLE
  5
81C6
102
{ACAD_XDICTIONARY
360
83CD
102
}
102
{ACAD_REACTORS
330
81B9
102
}
330
81B9
100
AcDbVisualStyle
  2
Thicken
 70
    13
 71
     2
 72
     2
 73
     0
 90
        0
 40
-0.6
 41
-30.0
 62
     5
 63
     7
 74
     1
 91
        4
 64
     7
 65
   257
 75
     1
175
     1
 42
1.0
 92
       12
 66
     7
 43
1.0
 76
     1
 77
     6
 78
     2
 67
     7
 79
     5
170
     0
171
     0
290
     0
174
     0
 93
        1
 44
0.0
173
     0
291
     1
 45
0.0
1001
ACAD
1000
AcDbSavedByObjectVersion
1070
     0
  0
VISUALSTYLE
  5
81C0
102
{ACAD_XDICTIONARY
360
83C1
102
}
102
{ACAD_REACTORS
330
81B9
102
}
330
81B9
100
AcDbVisualStyle
  2
Wireframe
 70
     5
 71
     0
 72
     2
 73
     0
 90
        0
 40
-0.6
 41
-30.0
 62
     5
 63
     7
 74
     1
 91
        4
 64
     7
 65
   257
 75
     1
175
     1
 42
1.0
 92
        0
 66
   257
 43
1.0
 76
     1
 77
     6
 78
     2
 67
     7
 79
     3
170
     0
171
     0
290
     0
174
     0
 93
        1
 44
0.0
173
     0
291
     0
 45
0.0
1001
ACAD
1000
AcDbSavedByObjectVersion
1070
     0
  0
VISUALSTYLE
  5
81CC
102
{ACAD_XDICTIONARY
360
83D9
102
}
102
{ACAD_REACTORS
330
81B9
102
}
330
81B9
100
AcDbVisualStyle
  2
X-Ray
 70
    25
 71
     2
 72
     2
 73
     1
 90
        1
 40
0.5
 41
-30.0
 62
     5
 63
     7
 74
     1
 91
        0
 64
     7
 65
   257
 75
     1
175
     1
 42
1.0
 92
        8
 66
     7
 43
1.0
 76
     1
 77
     6
 78
     2
 67
     7
 79
     3
170
     0
171
     0
290
     0
174
     0
 93
       13
 44
0.0
173
     0
291
     0
 45
0.0
1001
ACAD
1000
AcDbSavedByObjectVersion
1070
     0
  0
DICTIONARYVAR
  5
8326
102
{ACAD_REACTORS
330
8321
102
}
330
8321
100
DictionaryVariables
280
     0
  1
1:1
  0
DICTIONARYVAR
  5
8323
102
{ACAD_REACTORS
330
8321
102
}
330
8321
100
DictionaryVariables
280
     0
  1
STANDARD
  0
DICTIONARYVAR
  5
8322
102
{ACAD_REACTORS
330
8321
102
}
330
8321
100
DictionaryVariables
280
     0
  1
STANDARD
  0
DICTIONARYVAR
  5
8324
102
{ACAD_REACTORS
330
8321
102
}
330
8321
100
DictionaryVariables
280
     0
  1
Imperial24
  0
DICTIONARYVAR
  5
8325
102
{ACAD_REACTORS
330
8321
102
}
330
8321
100
DictionaryVariables
280
     0
  1
Imperial24
  0
DICTIONARYVAR
  5
8329
102
{ACAD_REACTORS
330
8321
102
}
330
8321
100
DictionaryVariables
280
     0
  1
1
  0
DICTIONARYVAR
  5
8328
102
{ACAD_REACTORS
330
8321
102
}
330
8321
100
DictionaryVariables
280
     0
  1
0
  0
DICTIONARYVAR
  5
8327
102
{ACAD_REACTORS
330
8321
102
}
330
8321
100
DictionaryVariables
280
     0
  1
127
  0
DICTIONARYVAR
  5
832A
102
{ACAD_REACTORS
330
8321
102
}
330
8321
100
DictionaryVariables
280
     0
  1
2
  0
DICTIONARY
  5
83E9
330
81FA
100
AcDbDictionary
280
     1
281
     1
  3
ACAD_XREC_ROUNDTRIP
360
83EA
  0
DICTIONARY
  5
83ED
330
8202
100
AcDbDictionary
280
     1
281
     1
  3
ACAD_XREC_ROUNDTRIP
360
83EE
  0
DICTIONARY
  5
83EB
330
81FE
100
AcDbDictionary
280
     1
281
     1
  3
ACAD_XREC_ROUNDTRIP
360
83EC
  0
DICTIONARY
  5
81AA
330
81A9
100
AcDbDictionary
280
     1
281
     1
  3
ACAD_XREC_ROUNDTRIP
360
83B3
  3
BUMPTILE
360
81AC
  3
DIFFUSETILE
360
81AB
  3
OPACITYTILE
360
81AF
  3
REFLECTIONTILE
360
81AE
  3
REFRACTIONTILE
360
81B0
  3
SPECULARTILE
360
81AD
  0
DICTIONARY
  5
81A2
330
81A1
100
AcDbDictionary
280
     1
281
     1
  3
ACAD_XREC_ROUNDTRIP
360
83B2
  3
BUMPTILE
360
81A4
  3
DIFFUSETILE
360
81A3
  3
OPACITYTILE
360
81A7
  3
REFLECTIONTILE
360
81A6
  3
REFRACTIONTILE
360
81A8
  3
SPECULARTILE
360
81A5
  0
DICTIONARY
  5
81B2
330
81B1
100
AcDbDictionary
280
     1
281
     1
  3
ACAD_XREC_ROUNDTRIP
360
83B4
  3
BUMPTILE
360
81B4
  3
DIFFUSETILE
360
81B3
  3
OPACITYTILE
360
81B7
  3
REFLECTIONTILE
360
81B6
  3
REFRACTIONTILE
360
81B8
  3
SPECULARTILE
360
81B5
  0
DICTIONARY
  5
83E7
330
81F8
100
AcDbDictionary
280
     1
281
     1
  3
ACAD_XREC_ROUNDTRIP
360
83E8
  0
DICTIONARY
  5
83AE
330
81F4
100
AcDbDictionary
280
     1
281
     1
  3
ACAD_ROUNDTRIP_2008_TABLESTYLE_CELLSTYLEMAP
360
83AF
  3
ACAD_XREC_ROUNDTRIP
360
83E5
  0
DICTIONARY
  5
83BF
330
81BF
100
AcDbDictionary
280
     1
281
     1
  3
ACAD_XREC_ROUNDTRIP
360
83C0
  0
DICTIONARY
  5
83BD
330
81BE
100
AcDbDictionary
280
     1
281
     1
  3
ACAD_XREC_ROUNDTRIP
360
83BE
  0
DICTIONARY
  5
83CB
330
81C5
100
AcDbDictionary
280
     1
281
     1
  3
ACAD_XREC_ROUNDTRIP
360
83CC
  0
DICTIONARY
  5
83D3
330
81C9
100
AcDbDictionary
280
     1
281
     1
  3
ACAD_XREC_ROUNDTRIP
360
83D4
  0
DICTIONARY
  5
83C5
330
81C2
100
AcDbDictionary
280
     1
281
     1
  3
ACAD_XREC_ROUNDTRIP
360
83C6
  0
DICTIONARY
  5
83C9
330
81C4
100
AcDbDictionary
280
     1
281
     1
  3
ACAD_XREC_ROUNDTRIP
360
83CA
  0
DICTIONARY
  5
83E3
330
81D1
100
AcDbDictionary
280
     1
281
     1
  3
ACAD_XREC_ROUNDTRIP
360
83E4
  0
DICTIONARY
  5
83D1
330
81C8
100
AcDbDictionary
280
     1
281
     1
  3
ACAD_XREC_ROUNDTRIP
360
83D2
  0
DICTIONARY
  5
83B5
330
81BA
100
AcDbDictionary
280
     1
281
     1
  3
ACAD_XREC_ROUNDTRIP
360
83B6
  0
DICTIONARY
  5
83B7
330
81BB
100
AcDbDictionary
280
     1
281
     1
  3
ACAD_XREC_ROUNDTRIP
360
83B8
  0
DICTIONARY
  5
83B9
330
81BC
100
AcDbDictionary
280
     1
281
     1
  3
ACAD_XREC_ROUNDTRIP
360
83BA
  0
DICTIONARY
  5
83BB
330
81BD
100
AcDbDictionary
280
     1
281
     1
  3
ACAD_XREC_ROUNDTRIP
360
83BC
  0
DICTIONARY
  5
83C3
330
81C1
100
AcDbDictionary
280
     1
281
     1
  3
ACAD_XREC_ROUNDTRIP
360
83C4
  0
DICTIONARY
  5
83DF
330
81CF
100
AcDbDictionary
280
     1
281
     1
  3
ACAD_XREC_ROUNDTRIP
360
83E0
  0
DICTIONARY
  5
83CF
330
81C7
100
AcDbDictionary
280
     1
281
     1
  3
ACAD_XREC_ROUNDTRIP
360
83D0
  0
DICTIONARY
  5
83E1
330
81D0
100
AcDbDictionary
280
     1
281
     1
  3
ACAD_XREC_ROUNDTRIP
360
83E2
  0
DICTIONARY
  5
83C7
330
81C3
100
AcDbDictionary
280
     1
281
     1
  3
ACAD_XREC_ROUNDTRIP
360
83C8
  0
DICTIONARY
  5
83DD
330
81CE
100
AcDbDictionary
280
     1
281
     1
  3
ACAD_XREC_ROUNDTRIP
360
83DE
  0
DICTIONARY
  5
83DB
330
81CD
100
AcDbDictionary
280
     1
281
     1
  3
ACAD_XREC_ROUNDTRIP
360
83DC
  0
DICTIONARY
  5
83D5
330
81CA
100
AcDbDictionary
280
     1
281
     1
  3
ACAD_XREC_ROUNDTRIP
360
83D6
  0
DICTIONARY
  5
83D7
330
81CB
100
AcDbDictionary
280
     1
281
     1
  3
ACAD_XREC_ROUNDTRIP
360
83D8
  0
DICTIONARY
  5
83CD
330
81C6
100
AcDbDictionary
280
     1
281
     1
  3
ACAD_XREC_ROUNDTRIP
360
83CE
  0
DICTIONARY
  5
83C1
330
81C0
100
AcDbDictionary
280
     1
281
     1
  3
ACAD_XREC_ROUNDTRIP
360
83C2
  0
DICTIONARY
  5
83D9
330
81CC
100
AcDbDictionary
280
     1
281
     1
  3
ACAD_XREC_ROUNDTRIP
360
83DA
  0
XRECORD
  5
83EA
102
{ACAD_REACTORS
330
83E9
102
}
330
83E9
100
AcDbXrecord
280
     1
102
DISPLAYNAME
  1
Imperial24
102
FLAGS
 90
        0
  0
XRECORD
  5
83EE
102
{ACAD_REACTORS
330
83ED
102
}
330
83ED
100
AcDbXrecord
280
     1
102
SHADEPLOT
 70
     0
102
SHADEPLOTRESLEVEL
 70
     2
102
SHADEPLOTCUSTOMDPI
 70
   300
  0
XRECORD
  5
83EC
102
{ACAD_REACTORS
330
83EB
102
}
330
83EB
100
AcDbXrecord
280
     1
102
SHADEPLOT
 70
     0
102
SHADEPLOTRESLEVEL
 70
     2
102
SHADEPLOTCUSTOMDPI
 70
   300
  0
XRECORD
  5
83B3
102
{ACAD_REACTORS
330
81AA
102
}
330
81AA
100
AcDbXrecord
280
     1
102
MATERIAL
148
0.0
149
0.0
149
0.0
 93
        0
 94
      127
282
     0
 72
     0
 77
     0
171
     0
175
     0
179
     0
273
     0
  0
XRECORD
  5
81AC
102
{ACAD_REACTORS
330
81AA
102
}
330
81AA
100
AcDbXrecord
280
     1
270
     1
271
     1
  0
XRECORD
  5
81AB
102
{ACAD_REACTORS
330
81AA
102
}
330
81AA
100
AcDbXrecord
280
     1
270
     1
271
     1
  0
XRECORD
  5
81AF
102
{ACAD_REACTORS
330
81AA
102
}
330
81AA
100
AcDbXrecord
280
     1
270
     1
271
     1
  0
XRECORD
  5
81AE
102
{ACAD_REACTORS
330
81AA
102
}
330
81AA
100
AcDbXrecord
280
     1
270
     1
271
     1
  0
XRECORD
  5
81B0
102
{ACAD_REACTORS
330
81AA
102
}
330
81AA
100
AcDbXrecord
280
     1
270
     1
271
     1
  0
XRECORD
  5
81AD
102
{ACAD_REACTORS
330
81AA
102
}
330
81AA
100
AcDbXrecord
280
     1
270
     1
271
     1
  0
XRECORD
  5
83B2
102
{ACAD_REACTORS
330
81A2
102
}
330
81A2
100
AcDbXrecord
280
     1
102
MATERIAL
148
0.0
149
0.0
149
0.0
 93
        0
 94
      127
282
     0
 72
     0
 77
     0
171
     0
175
     0
179
     0
273
     0
  0
XRECORD
  5
81A4
102
{ACAD_REACTORS
330
81A2
102
}
330
81A2
100
AcDbXrecord
280
     1
270
     1
271
     1
  0
XRECORD
  5
81A3
102
{ACAD_REACTORS
330
81A2
102
}
330
81A2
100
AcDbXrecord
280
     1
270
     1
271
     1
  0
XRECORD
  5
81A7
102
{ACAD_REACTORS
330
81A2
102
}
330
81A2
100
AcDbXrecord
280
     1
270
     1
271
     1
  0
XRECORD
  5
81A6
102
{ACAD_REACTORS
330
81A2
102
}
330
81A2
100
AcDbXrecord
280
     1
270
     1
271
     1
  0
XRECORD
  5
81A8
102
{ACAD_REACTORS
330
81A2
102
}
330
81A2
100
AcDbXrecord
280
     1
270
     1
271
     1
  0
XRECORD
  5
81A5
102
{ACAD_REACTORS
330
81A2
102
}
330
81A2
100
AcDbXrecord
280
     1
270
     1
271
     1
  0
XRECORD
  5
83B4
102
{ACAD_REACTORS
330
81B2
102
}
330
81B2
100
AcDbXrecord
280
     1
102
MATERIAL
148
0.0
149
0.0
149
0.0
 93
        0
 94
      127
282
     0
 72
     0
 77
     0
171
     0
175
     0
179
     0
273
     0
  0
XRECORD
  5
81B4
102
{ACAD_REACTORS
330
81B2
102
}
330
81B2
100
AcDbXrecord
280
     1
270
     1
271
     1
  0
XRECORD
  5
81B3
102
{ACAD_REACTORS
330
81B2
102
}
330
81B2
100
AcDbXrecord
280
     1
270
     1
271
     1
  0
XRECORD
  5
81B7
102
{ACAD_REACTORS
330
81B2
102
}
330
81B2
100
AcDbXrecord
280
     1
270
     1
271
     1
  0
XRECORD
  5
81B6
102
{ACAD_REACTORS
330
81B2
102
}
330
81B2
100
AcDbXrecord
280
     1
270
     1
271
     1
  0
XRECORD
  5
81B8
102
{ACAD_REACTORS
330
81B2
102
}
330
81B2
100
AcDbXrecord
280
     1
270
     1
271
     1
  0
XRECORD
  5
81B5
102
{ACAD_REACTORS
330
81B2
102
}
330
81B2
100
AcDbXrecord
280
     1
270
     1
271
     1
  0
XRECORD
  5
83E8
102
{ACAD_REACTORS
330
83E7
102
}
330
83E7
100
AcDbXrecord
280
     1
102
DISPLAYNAME
  1
Imperial24
102
FLAGS
 90
        0
  0
CELLSTYLEMAP
  5
83AF
102
{ACAD_REACTORS
330
83AE
102
}
330
83AE
100
AcDbCellStyleMap
 90
        3
300
CELLSTYLE
  1
TABLEFORMAT_BEGIN
 90
        5
170
     1
 91
        0
 92
    32768
 62
   257
 93
        1
300
CONTENTFORMAT
  1
CONTENTFORMAT_BEGIN
 90
        0
 91
        0
 92
      512
 93
        0
300

 40
0.0
140
1.0
 94
        5
 62
     0
340
81E5
144
0.25
309
CONTENTFORMAT_END
171
     0
 94
        0
309
TABLEFORMAT_END
  1
CELLSTYLE_BEGIN
 90
        1
 91
        1
300
_TITLE
309
CELLSTYLE_END
300
CELLSTYLE
  1
TABLEFORMAT_BEGIN
 90
        5
170
     1
 91
        0
 92
        0
 62
   257
 93
        1
300
CONTENTFORMAT
  1
CONTENTFORMAT_BEGIN
 90
        0
 91
        0
 92
      512
 93
        0
300

 40
0.0
140
1.0
 94
        5
 62
     0
340
81E5
144
0.18
309
CONTENTFORMAT_END
171
     0
 94
        0
309
TABLEFORMAT_END
  1
CELLSTYLE_BEGIN
 90
        2
 91
        1
300
_HEADER
309
CELLSTYLE_END
300
CELLSTYLE
  1
TABLEFORMAT_BEGIN
 90
        5
170
     1
 91
        0
 92
        0
 62
   257
 93
        1
300
CONTENTFORMAT
  1
CONTENTFORMAT_BEGIN
 90
        0
 91
        0
 92
      512
 93
        0
300

 40
0.0
140
1.0
 94
        2
 62
     0
340
81E5
144
0.18
309
CONTENTFORMAT_END
171
     0
 94
        0
309
TABLEFORMAT_END
  1
CELLSTYLE_BEGIN
 90
        3
 91
        2
300
_DATA
309
CELLSTYLE_END
  0
XRECORD
  5
83E5
102
{ACAD_REACTORS
330
83AE
102
}
330
83AE
100
AcDbXrecord
280
     1
102
ACAD_ROUNDTRIP_PRE2007_TABLESTYLE
 90
      512
 91
        0
  1

 92
      512
 93
        0
  2

 94
      512
 95
        0
  3

  0
XRECORD
  5
83C0
102
{ACAD_REACTORS
330
83BF
102
}
330
83BF
100
AcDbXrecord
280
     1
102
RTVSPost2010Prop28
280
     1
102
RTVSPost2010PropOp28
 70
     1
102
RTVSPost2010Prop29
280
     1
102
RTVSPost2010PropOp29
 70
     1
102
RTVSPost2010Prop30
280
     0
102
RTVSPost2010PropOp30
 70
     1
102
RTVSPost2010Prop31
280
     0
102
RTVSPost2010PropOp31
 70
     1
102
RTVSPost2010Prop32
280
     0
102
RTVSPost2010PropOp32
 70
     1
102
RTVSPost2010Prop33
280
     0
102
RTVSPost2010PropOp33
 70
     1
102
RTVSPost2010Prop34
280
     0
102
RTVSPost2010PropOp34
 70
     1
102
RTVSPost2010Prop35
280
     0
102
RTVSPost2010PropOp35
 70
     1
102
RTVSPost2010Prop36
280
     0
102
RTVSPost2010PropOp36
 70
     1
102
RTVSPost2010Prop37
 90
       50
102
RTVSPost2010PropOp37
 70
     1
102
RTVSPost2010Prop38
140
0.0
102
RTVSPost2010PropOp38
 70
     1
102
RTVSPost2010Prop39
140
1.0
102
RTVSPost2010PropOp39
 70
     1
102
RTVSPost2010Prop40
 90
        0
102
RTVSPost2010PropOp40
 70
     1
102
RTVSPost2010Prop41ColorIndex
 90
       18
102
RTVSPost2010Prop41ColorRGB
 90
        0
102
RTVSPost2010PropOp41
 70
     1
102
RTVSPost2010Prop42
 90
       50
102
RTVSPost2010PropOp42
 70
     1
102
RTVSPost2010Prop43
 90
        3
102
RTVSPost2010PropOp43
 70
     1
102
RTVSPost2010Prop44ColorIndex
 90
        5
102
RTVSPost2010Prop44ColorRGB
 90
      255
102
RTVSPost2010PropOp44
 70
     1
102
RTVSPost2010Prop45
280
     0
102
RTVSPost2010PropOp45
 70
     1
102
RTVSPost2010Prop46
 90
       50
102
RTVSPost2010PropOp46
 70
     1
102
RTVSPost2010Prop47
 90
       50
102
RTVSPost2010PropOp47
 70
     1
102
RTVSPost2010Prop48
 90
       50
102
RTVSPost2010PropOp48
 70
     1
102
RTVSPost2010Prop49
280
     0
102
RTVSPost2010PropOp49
 70
     1
102
RTVSPost2010Prop50
 90
       50
102
RTVSPost2010PropOp50
 70
     1
102
RTVSPost2010Prop51ColorIndex
 90
      256
102
RTVSPost2010Prop51ColorRGB
 90
-16777216
102
RTVSPost2010PropOp51
 70
     0
102
RTVSPost2010Prop52
140
1.0
102
RTVSPost2010PropOp52
 70
     0
102
RTVSPost2010Prop53
 90
        2
102
RTVSPost2010PropOp53
 70
     1
102
RTVSPost2010Prop54
  1
strokes_ogs.tif
102
RTVSPost2010PropOp54
 70
     1
102
RTVSPost2010Prop55
280
     0
102
RTVSPost2010PropOp55
 70
     1
102
RTVSPost2010Prop56
140
1.0
102
RTVSPost2010PropOp56
 70
     1
102
RTVSPost2010Prop57
140
1.0
102
RTVSPost2010PropOp57
 70
     1
102
RTVSPropertyOp0
 70
     1
102
RTVSPropertyOp1
 70
     1
102
RTVSPropertyOp2
 70
     1
102
RTVSPropertyOp3
 70
     1
102
RTVSPropertyOp4
 70
     1
102
RTVSPropertyOp5
 70
     1
102
RTVSPropertyOp6
 70
     1
102
RTVSPropertyOp7
 70
     1
102
RTVSPropertyOp8
 70
     1
102
RTVSPropertyOp9
 70
     1
102
RTVSPropertyOp10
 70
     1
102
RTVSPropertyOp11
 70
     1
102
RTVSPropertyOp12
 70
     1
102
RTVSPropertyOp13
 70
     1
102
RTVSPropertyOp14
 70
     1
102
RTVSPropertyOp15
 70
     1
102
RTVSPropertyOp16
 70
     1
102
RTVSPropertyOp17
 70
     1
102
RTVSPropertyOp18
 70
     1
102
RTVSPropertyOp19
 70
     1
102
RTVSPropertyOp20
 70
     1
102
RTVSPropertyOp21
 70
     1
102
RTVSPropertyOp22
 70
     1
102
RTVSPropertyOp23
 70
     1
102
RTVSPropertyOp24
 70
     1
102
RTVSPropertyOp25
 70
     1
102
RTVSPropertyOp26
 70
     1
102
RTVSPropertyOp27
 70
     1
102
RTVSPropertyOp28
 70
     1
102
RTVSPropertyOp29
 70
     1
102
RTVSPropertyOp30
 70
     1
102
RTVSPropertyOp31
 70
     1
102
RTVSPropertyOp32
 70
     1
102
RTVSPropertyOp33
 70
     1
102
RTVSPropertyOp34
 70
     1
102
RTVSPropertyOp35
 70
     1
102
RTVSPropertyOp36
 70
     1
102
RTVSPropertyOp37
 70
     1
102
RTVSPropertyOp38
 70
     1
102
RTVSPropertyOp39
 70
     1
102
RTVSPropertyOp40
 70
     1
102
RTVSPropertyOp41
 70
     1
102
RTVSPropertyOp42
 70
     1
102
RTVSPropertyOp43
 70
     1
102
RTVSPropertyOp44
 70
     1
102
RTVSPropertyOp45
 70
     1
102
RTVSPropertyOp46
 70
     1
102
RTVSPropertyOp47
 70
     1
102
RTVSPropertyOp48
 70
     1
102
RTVSPropertyOp49
 70
     1
102
RTVSPropertyOp50
 70
     1
102
RTVSPropertyOp51
 70
     0
102
RTVSPropertyOp52
 70
     0
102
RTVSPropertyOp53
 70
     1
102
RTVSPropertyOp54
 70
     1
102
RTVSPropertyOp55
 70
     1
102
RTVSPropertyOp56
 70
     1
102
RTVSPropertyOp57
 70
     1
102
RTVSPropertyOp58
 70
     1
102
RTVSPropertyOp59
 70
     1
102
RTVSPropertyOp60
 70
     1
102
RTVSPropertyOp61
 70
     1
102
RTVSPropertyOp62
 70
     1
  0
XRECORD
  5
83BE
102
{ACAD_REACTORS
330
83BD
102
}
330
83BD
100
AcDbXrecord
280
     1
102
RTVSPost2010Prop28
280
     0
102
RTVSPost2010PropOp28
 70
     1
102
RTVSPost2010Prop29
280
     1
102
RTVSPost2010PropOp29
 70
     1
102
RTVSPost2010Prop30
280
     1
102
RTVSPost2010PropOp30
 70
     1
102
RTVSPost2010Prop31
280
     0
102
RTVSPost2010PropOp31
 70
     1
102
RTVSPost2010Prop32
280
     0
102
RTVSPost2010PropOp32
 70
     1
102
RTVSPost2010Prop33
280
     0
102
RTVSPost2010PropOp33
 70
     1
102
RTVSPost2010Prop34
280
     0
102
RTVSPost2010PropOp34
 70
     1
102
RTVSPost2010Prop35
280
     0
102
RTVSPost2010PropOp35
 70
     1
102
RTVSPost2010Prop36
280
     0
102
RTVSPost2010PropOp36
 70
     1
102
RTVSPost2010Prop37
 90
       50
102
RTVSPost2010PropOp37
 70
     1
102
RTVSPost2010Prop38
140
0.0
102
RTVSPost2010PropOp38
 70
     1
102
RTVSPost2010Prop39
140
1.0
102
RTVSPost2010PropOp39
 70
     1
102
RTVSPost2010Prop40
 90
        0
102
RTVSPost2010PropOp40
 70
     1
102
RTVSPost2010Prop41ColorIndex
 90
       18
102
RTVSPost2010Prop41ColorRGB
 90
        0
102
RTVSPost2010PropOp41
 70
     1
102
RTVSPost2010Prop42
 90
       50
102
RTVSPost2010PropOp42
 70
     1
102
RTVSPost2010Prop43
 90
        3
102
RTVSPost2010PropOp43
 70
     1
102
RTVSPost2010Prop44ColorIndex
 90
        5
102
RTVSPost2010Prop44ColorRGB
 90
      255
102
RTVSPost2010PropOp44
 70
     1
102
RTVSPost2010Prop45
280
     0
102
RTVSPost2010PropOp45
 70
     1
102
RTVSPost2010Prop46
 90
       50
102
RTVSPost2010PropOp46
 70
     1
102
RTVSPost2010Prop47
 90
       50
102
RTVSPost2010PropOp47
 70
     1
102
RTVSPost2010Prop48
 90
       50
102
RTVSPost2010PropOp48
 70
     1
102
RTVSPost2010Prop49
280
     0
102
RTVSPost2010PropOp49
 70
     1
102
RTVSPost2010Prop50
 90
       50
102
RTVSPost2010PropOp50
 70
     1
102
RTVSPost2010Prop51ColorIndex
 90
      256
102
RTVSPost2010Prop51ColorRGB
 90
-16777216
102
RTVSPost2010PropOp51
 70
     0
102
RTVSPost2010Prop52
140
1.0
102
RTVSPost2010PropOp52
 70
     0
102
RTVSPost2010Prop53
 90
        2
102
RTVSPost2010PropOp53
 70
     1
102
RTVSPost2010Prop54
  1
strokes_ogs.tif
102
RTVSPost2010PropOp54
 70
     1
102
RTVSPost2010Prop55
280
     0
102
RTVSPost2010PropOp55
 70
     1
102
RTVSPost2010Prop56
140
1.0
102
RTVSPost2010PropOp56
 70
     1
102
RTVSPost2010Prop57
140
1.0
102
RTVSPost2010PropOp57
 70
     1
102
RTVSPropertyOp0
 70
     1
102
RTVSPropertyOp1
 70
     1
102
RTVSPropertyOp2
 70
     1
102
RTVSPropertyOp3
 70
     1
102
RTVSPropertyOp4
 70
     1
102
RTVSPropertyOp5
 70
     1
102
RTVSPropertyOp6
 70
     1
102
RTVSPropertyOp7
 70
     1
102
RTVSPropertyOp8
 70
     1
102
RTVSPropertyOp9
 70
     1
102
RTVSPropertyOp10
 70
     1
102
RTVSPropertyOp11
 70
     1
102
RTVSPropertyOp12
 70
     1
102
RTVSPropertyOp13
 70
     1
102
RTVSPropertyOp14
 70
     1
102
RTVSPropertyOp15
 70
     1
102
RTVSPropertyOp16
 70
     1
102
RTVSPropertyOp17
 70
     1
102
RTVSPropertyOp18
 70
     1
102
RTVSPropertyOp19
 70
     1
102
RTVSPropertyOp20
 70
     1
102
RTVSPropertyOp21
 70
     1
102
RTVSPropertyOp22
 70
     1
102
RTVSPropertyOp23
 70
     1
102
RTVSPropertyOp24
 70
     1
102
RTVSPropertyOp25
 70
     1
102
RTVSPropertyOp26
 70
     1
102
RTVSPropertyOp27
 70
     1
102
RTVSPropertyOp28
 70
     1
102
RTVSPropertyOp29
 70
     1
102
RTVSPropertyOp30
 70
     1
102
RTVSPropertyOp31
 70
     1
102
RTVSPropertyOp32
 70
     1
102
RTVSPropertyOp33
 70
     1
102
RTVSPropertyOp34
 70
     1
102
RTVSPropertyOp35
 70
     1
102
RTVSPropertyOp36
 70
     1
102
RTVSPropertyOp37
 70
     1
102
RTVSPropertyOp38
 70
     1
102
RTVSPropertyOp39
 70
     1
102
RTVSPropertyOp40
 70
     1
102
RTVSPropertyOp41
 70
     1
102
RTVSPropertyOp42
 70
     1
102
RTVSPropertyOp43
 70
     1
102
RTVSPropertyOp44
 70
     1
102
RTVSPropertyOp45
 70
     1
102
RTVSPropertyOp46
 70
     1
102
RTVSPropertyOp47
 70
     1
102
RTVSPropertyOp48
 70
     1
102
RTVSPropertyOp49
 70
     1
102
RTVSPropertyOp50
 70
     1
102
RTVSPropertyOp51
 70
     0
102
RTVSPropertyOp52
 70
     0
102
RTVSPropertyOp53
 70
     1
102
RTVSPropertyOp54
 70
     1
102
RTVSPropertyOp55
 70
     1
102
RTVSPropertyOp56
 70
     1
102
RTVSPropertyOp57
 70
     1
102
RTVSPropertyOp58
 70
     1
102
RTVSPropertyOp59
 70
     1
102
RTVSPropertyOp60
 70
     1
102
RTVSPropertyOp61
 70
     1
102
RTVSPropertyOp62
 70
     1
  0
XRECORD
  5
83CC
102
{ACAD_REACTORS
330
83CB
102
}
330
83CB
100
AcDbXrecord
280
     1
102
RTVSPost2010Prop28
280
     0
102
RTVSPost2010PropOp28
 70
     1
102
RTVSPost2010Prop29
280
     1
102
RTVSPost2010PropOp29
 70
     1
102
RTVSPost2010Prop30
280
     1
102
RTVSPost2010PropOp30
 70
     1
102
RTVSPost2010Prop31
280
     0
102
RTVSPost2010PropOp31
 70
     1
102
RTVSPost2010Prop32
280
     0
102
RTVSPost2010PropOp32
 70
     1
102
RTVSPost2010Prop33
280
     0
102
RTVSPost2010PropOp33
 70
     1
102
RTVSPost2010Prop34
280
     0
102
RTVSPost2010PropOp34
 70
     1
102
RTVSPost2010Prop35
280
     0
102
RTVSPost2010PropOp35
 70
     1
102
RTVSPost2010Prop36
280
     0
102
RTVSPost2010PropOp36
 70
     1
102
RTVSPost2010Prop37
 90
       50
102
RTVSPost2010PropOp37
 70
     1
102
RTVSPost2010Prop38
140
0.0
102
RTVSPost2010PropOp38
 70
     1
102
RTVSPost2010Prop39
140
1.0
102
RTVSPost2010PropOp39
 70
     1
102
RTVSPost2010Prop40
 90
        0
102
RTVSPost2010PropOp40
 70
     1
102
RTVSPost2010Prop41ColorIndex
 90
       18
102
RTVSPost2010Prop41ColorRGB
 90
        0
102
RTVSPost2010PropOp41
 70
     1
102
RTVSPost2010Prop42
 90
       50
102
RTVSPost2010PropOp42
 70
     1
102
RTVSPost2010Prop43
 90
        3
102
RTVSPost2010PropOp43
 70
     1
102
RTVSPost2010Prop44ColorIndex
 90
        5
102
RTVSPost2010Prop44ColorRGB
 90
      255
102
RTVSPost2010PropOp44
 70
     1
102
RTVSPost2010Prop45
280
     0
102
RTVSPost2010PropOp45
 70
     1
102
RTVSPost2010Prop46
 90
       50
102
RTVSPost2010PropOp46
 70
     1
102
RTVSPost2010Prop47
 90
       50
102
RTVSPost2010PropOp47
 70
     1
102
RTVSPost2010Prop48
 90
       50
102
RTVSPost2010PropOp48
 70
     1
102
RTVSPost2010Prop49
280
     0
102
RTVSPost2010PropOp49
 70
     1
102
RTVSPost2010Prop50
 90
       50
102
RTVSPost2010PropOp50
 70
     1
102
RTVSPost2010Prop51ColorIndex
 90
      256
102
RTVSPost2010Prop51ColorRGB
 90
-16777216
102
RTVSPost2010PropOp51
 70
     0
102
RTVSPost2010Prop52
140
1.0
102
RTVSPost2010PropOp52
 70
     0
102
RTVSPost2010Prop53
 90
        2
102
RTVSPost2010PropOp53
 70
     1
102
RTVSPost2010Prop54
  1
strokes_ogs.tif
102
RTVSPost2010PropOp54
 70
     1
102
RTVSPost2010Prop55
280
     0
102
RTVSPost2010PropOp55
 70
     1
102
RTVSPost2010Prop56
140
1.0
102
RTVSPost2010PropOp56
 70
     1
102
RTVSPost2010Prop57
140
1.0
102
RTVSPost2010PropOp57
 70
     1
102
RTVSPropertyOp0
 70
     1
102
RTVSPropertyOp1
 70
     1
102
RTVSPropertyOp2
 70
     1
102
RTVSPropertyOp3
 70
     1
102
RTVSPropertyOp4
 70
     1
102
RTVSPropertyOp5
 70
     1
102
RTVSPropertyOp6
 70
     1
102
RTVSPropertyOp7
 70
     1
102
RTVSPropertyOp8
 70
     1
102
RTVSPropertyOp9
 70
     1
102
RTVSPropertyOp10
 70
     1
102
RTVSPropertyOp11
 70
     1
102
RTVSPropertyOp12
 70
     1
102
RTVSPropertyOp13
 70
     1
102
RTVSPropertyOp14
 70
     1
102
RTVSPropertyOp15
 70
     1
102
RTVSPropertyOp16
 70
     1
102
RTVSPropertyOp17
 70
     1
102
RTVSPropertyOp18
 70
     1
102
RTVSPropertyOp19
 70
     1
102
RTVSPropertyOp20
 70
     1
102
RTVSPropertyOp21
 70
     1
102
RTVSPropertyOp22
 70
     1
102
RTVSPropertyOp23
 70
     1
102
RTVSPropertyOp24
 70
     1
102
RTVSPropertyOp25
 70
     1
102
RTVSPropertyOp26
 70
     1
102
RTVSPropertyOp27
 70
     1
102
RTVSPropertyOp28
 70
     1
102
RTVSPropertyOp29
 70
     1
102
RTVSPropertyOp30
 70
     1
102
RTVSPropertyOp31
 70
     1
102
RTVSPropertyOp32
 70
     1
102
RTVSPropertyOp33
 70
     1
102
RTVSPropertyOp34
 70
     1
102
RTVSPropertyOp35
 70
     1
102
RTVSPropertyOp36
 70
     1
102
RTVSPropertyOp37
 70
     1
102
RTVSPropertyOp38
 70
     1
102
RTVSPropertyOp39
 70
     1
102
RTVSPropertyOp40
 70
     1
102
RTVSPropertyOp41
 70
     1
102
RTVSPropertyOp42
 70
     1
102
RTVSPropertyOp43
 70
     1
102
RTVSPropertyOp44
 70
     1
102
RTVSPropertyOp45
 70
     1
102
RTVSPropertyOp46
 70
     1
102
RTVSPropertyOp47
 70
     1
102
RTVSPropertyOp48
 70
     1
102
RTVSPropertyOp49
 70
     1
102
RTVSPropertyOp50
 70
     1
102
RTVSPropertyOp51
 70
     0
102
RTVSPropertyOp52
 70
     0
102
RTVSPropertyOp53
 70
     1
102
RTVSPropertyOp54
 70
     1
102
RTVSPropertyOp55
 70
     1
102
RTVSPropertyOp56
 70
     1
102
RTVSPropertyOp57
 70
     1
102
RTVSPropertyOp58
 70
     1
102
RTVSPropertyOp59
 70
     1
102
RTVSPropertyOp60
 70
     1
102
RTVSPropertyOp61
 70
     1
102
RTVSPropertyOp62
 70
     1
  0
XRECORD
  5
83D4
102
{ACAD_REACTORS
330
83D3
102
}
330
83D3
100
AcDbXrecord
280
     1
102
RTVSPost2010Prop28
280
     0
102
RTVSPost2010PropOp28
 70
     1
102
RTVSPost2010Prop29
280
     1
102
RTVSPost2010PropOp29
 70
     1
102
RTVSPost2010Prop30
280
     1
102
RTVSPost2010PropOp30
 70
     1
102
RTVSPost2010Prop31
280
     0
102
RTVSPost2010PropOp31
 70
     1
102
RTVSPost2010Prop32
280
     0
102
RTVSPost2010PropOp32
 70
     1
102
RTVSPost2010Prop33
280
     0
102
RTVSPost2010PropOp33
 70
     1
102
RTVSPost2010Prop34
280
     0
102
RTVSPost2010PropOp34
 70
     1
102
RTVSPost2010Prop35
280
     0
102
RTVSPost2010PropOp35
 70
     1
102
RTVSPost2010Prop36
280
     0
102
RTVSPost2010PropOp36
 70
     1
102
RTVSPost2010Prop37
 90
       50
102
RTVSPost2010PropOp37
 70
     1
102
RTVSPost2010Prop38
140
0.0
102
RTVSPost2010PropOp38
 70
     1
102
RTVSPost2010Prop39
140
1.0
102
RTVSPost2010PropOp39
 70
     1
102
RTVSPost2010Prop40
 90
        0
102
RTVSPost2010PropOp40
 70
     1
102
RTVSPost2010Prop41ColorIndex
 90
       18
102
RTVSPost2010Prop41ColorRGB
 90
        0
102
RTVSPost2010PropOp41
 70
     1
102
RTVSPost2010Prop42
 90
       50
102
RTVSPost2010PropOp42
 70
     1
102
RTVSPost2010Prop43
 90
        3
102
RTVSPost2010PropOp43
 70
     1
102
RTVSPost2010Prop44ColorIndex
 90
        5
102
RTVSPost2010Prop44ColorRGB
 90
      255
102
RTVSPost2010PropOp44
 70
     1
102
RTVSPost2010Prop45
280
     0
102
RTVSPost2010PropOp45
 70
     1
102
RTVSPost2010Prop46
 90
       50
102
RTVSPost2010PropOp46
 70
     1
102
RTVSPost2010Prop47
 90
       50
102
RTVSPost2010PropOp47
 70
     1
102
RTVSPost2010Prop48
 90
       50
102
RTVSPost2010PropOp48
 70
     1
102
RTVSPost2010Prop49
280
     0
102
RTVSPost2010PropOp49
 70
     1
102
RTVSPost2010Prop50
 90
       50
102
RTVSPost2010PropOp50
 70
     1
102
RTVSPost2010Prop51ColorIndex
 90
      256
102
RTVSPost2010Prop51ColorRGB
 90
-16777216
102
RTVSPost2010PropOp51
 70
     0
102
RTVSPost2010Prop52
140
1.0
102
RTVSPost2010PropOp52
 70
     0
102
RTVSPost2010Prop53
 90
        2
102
RTVSPost2010PropOp53
 70
     1
102
RTVSPost2010Prop54
  1
strokes_ogs.tif
102
RTVSPost2010PropOp54
 70
     1
102
RTVSPost2010Prop55
280
     0
102
RTVSPost2010PropOp55
 70
     1
102
RTVSPost2010Prop56
140
1.0
102
RTVSPost2010PropOp56
 70
     1
102
RTVSPost2010Prop57
140
1.0
102
RTVSPost2010PropOp57
 70
     1
102
RTVSPropertyOp0
 70
     1
102
RTVSPropertyOp1
 70
     1
102
RTVSPropertyOp2
 70
     1
102
RTVSPropertyOp3
 70
     1
102
RTVSPropertyOp4
 70
     1
102
RTVSPropertyOp5
 70
     1
102
RTVSPropertyOp6
 70
     1
102
RTVSPropertyOp7
 70
     1
102
RTVSPropertyOp8
 70
     1
102
RTVSPropertyOp9
 70
     1
102
RTVSPropertyOp10
 70
     1
102
RTVSPropertyOp11
 70
     1
102
RTVSPropertyOp12
 70
     1
102
RTVSPropertyOp13
 70
     1
102
RTVSPropertyOp14
 70
     1
102
RTVSPropertyOp15
 70
     1
102
RTVSPropertyOp16
 70
     1
102
RTVSPropertyOp17
 70
     1
102
RTVSPropertyOp18
 70
     1
102
RTVSPropertyOp19
 70
     1
102
RTVSPropertyOp20
 70
     1
102
RTVSPropertyOp21
 70
     1
102
RTVSPropertyOp22
 70
     1
102
RTVSPropertyOp23
 70
     1
102
RTVSPropertyOp24
 70
     1
102
RTVSPropertyOp25
 70
     1
102
RTVSPropertyOp26
 70
     1
102
RTVSPropertyOp27
 70
     1
102
RTVSPropertyOp28
 70
     1
102
RTVSPropertyOp29
 70
     1
102
RTVSPropertyOp30
 70
     1
102
RTVSPropertyOp31
 70
     1
102
RTVSPropertyOp32
 70
     1
102
RTVSPropertyOp33
 70
     1
102
RTVSPropertyOp34
 70
     1
102
RTVSPropertyOp35
 70
     1
102
RTVSPropertyOp36
 70
     1
102
RTVSPropertyOp37
 70
     1
102
RTVSPropertyOp38
 70
     1
102
RTVSPropertyOp39
 70
     1
102
RTVSPropertyOp40
 70
     1
102
RTVSPropertyOp41
 70
     1
102
RTVSPropertyOp42
 70
     1
102
RTVSPropertyOp43
 70
     1
102
RTVSPropertyOp44
 70
     1
102
RTVSPropertyOp45
 70
     1
102
RTVSPropertyOp46
 70
     1
102
RTVSPropertyOp47
 70
     1
102
RTVSPropertyOp48
 70
     1
102
RTVSPropertyOp49
 70
     1
102
RTVSPropertyOp50
 70
     1
102
RTVSPropertyOp51
 70
     0
102
RTVSPropertyOp52
 70
     0
102
RTVSPropertyOp53
 70
     1
102
RTVSPropertyOp54
 70
     1
102
RTVSPropertyOp55
 70
     1
102
RTVSPropertyOp56
 70
     1
102
RTVSPropertyOp57
 70
     1
102
RTVSPropertyOp58
 70
     1
102
RTVSPropertyOp59
 70
     1
102
RTVSPropertyOp60
 70
     1
102
RTVSPropertyOp61
 70
     1
102
RTVSPropertyOp62
 70
     1
  0
XRECORD
  5
83C6
102
{ACAD_REACTORS
330
83C5
102
}
330
83C5
100
AcDbXrecord
280
     1
102
RTVSPost2010Prop28
280
     0
102
RTVSPost2010PropOp28
 70
     1
102
RTVSPost2010Prop29
280
     1
102
RTVSPost2010PropOp29
 70
     1
102
RTVSPost2010Prop30
280
     1
102
RTVSPost2010PropOp30
 70
     1
102
RTVSPost2010Prop31
280
     0
102
RTVSPost2010PropOp31
 70
     1
102
RTVSPost2010Prop32
280
     0
102
RTVSPost2010PropOp32
 70
     1
102
RTVSPost2010Prop33
280
     0
102
RTVSPost2010PropOp33
 70
     1
102
RTVSPost2010Prop34
280
     0
102
RTVSPost2010PropOp34
 70
     1
102
RTVSPost2010Prop35
280
     0
102
RTVSPost2010PropOp35
 70
     1
102
RTVSPost2010Prop36
280
     0
102
RTVSPost2010PropOp36
 70
     1
102
RTVSPost2010Prop37
 90
       50
102
RTVSPost2010PropOp37
 70
     1
102
RTVSPost2010Prop38
140
0.0
102
RTVSPost2010PropOp38
 70
     1
102
RTVSPost2010Prop39
140
1.0
102
RTVSPost2010PropOp39
 70
     1
102
RTVSPost2010Prop40
 90
        0
102
RTVSPost2010PropOp40
 70
     1
102
RTVSPost2010Prop41ColorIndex
 90
       18
102
RTVSPost2010Prop41ColorRGB
 90
        0
102
RTVSPost2010PropOp41
 70
     1
102
RTVSPost2010Prop42
 90
       50
102
RTVSPost2010PropOp42
 70
     1
102
RTVSPost2010Prop43
 90
        3
102
RTVSPost2010PropOp43
 70
     1
102
RTVSPost2010Prop44ColorIndex
 90
        5
102
RTVSPost2010Prop44ColorRGB
 90
      255
102
RTVSPost2010PropOp44
 70
     1
102
RTVSPost2010Prop45
280
     0
102
RTVSPost2010PropOp45
 70
     1
102
RTVSPost2010Prop46
 90
       50
102
RTVSPost2010PropOp46
 70
     1
102
RTVSPost2010Prop47
 90
       50
102
RTVSPost2010PropOp47
 70
     1
102
RTVSPost2010Prop48
 90
       50
102
RTVSPost2010PropOp48
 70
     1
102
RTVSPost2010Prop49
280
     0
102
RTVSPost2010PropOp49
 70
     1
102
RTVSPost2010Prop50
 90
       50
102
RTVSPost2010PropOp50
 70
     1
102
RTVSPost2010Prop51ColorIndex
 90
      256
102
RTVSPost2010Prop51ColorRGB
 90
-16777216
102
RTVSPost2010PropOp51
 70
     0
102
RTVSPost2010Prop52
140
1.0
102
RTVSPost2010PropOp52
 70
     0
102
RTVSPost2010Prop53
 90
        2
102
RTVSPost2010PropOp53
 70
     1
102
RTVSPost2010Prop54
  1
strokes_ogs.tif
102
RTVSPost2010PropOp54
 70
     1
102
RTVSPost2010Prop55
280
     0
102
RTVSPost2010PropOp55
 70
     1
102
RTVSPost2010Prop56
140
1.0
102
RTVSPost2010PropOp56
 70
     1
102
RTVSPost2010Prop57
140
1.0
102
RTVSPost2010PropOp57
 70
     1
102
RTVSPropertyOp0
 70
     1
102
RTVSPropertyOp1
 70
     1
102
RTVSPropertyOp2
 70
     1
102
RTVSPropertyOp3
 70
     1
102
RTVSPropertyOp4
 70
     1
102
RTVSPropertyOp5
 70
     1
102
RTVSPropertyOp6
 70
     1
102
RTVSPropertyOp7
 70
     1
102
RTVSPropertyOp8
 70
     1
102
RTVSPropertyOp9
 70
     1
102
RTVSPropertyOp10
 70
     1
102
RTVSPropertyOp11
 70
     1
102
RTVSPropertyOp12
 70
     1
102
RTVSPropertyOp13
 70
     1
102
RTVSPropertyOp14
 70
     1
102
RTVSPropertyOp15
 70
     1
102
RTVSPropertyOp16
 70
     1
102
RTVSPropertyOp17
 70
     1
102
RTVSPropertyOp18
 70
     1
102
RTVSPropertyOp19
 70
     1
102
RTVSPropertyOp20
 70
     1
102
RTVSPropertyOp21
 70
     1
102
RTVSPropertyOp22
 70
     1
102
RTVSPropertyOp23
 70
     1
102
RTVSPropertyOp24
 70
     1
102
RTVSPropertyOp25
 70
     1
102
RTVSPropertyOp26
 70
     1
102
RTVSPropertyOp27
 70
     1
102
RTVSPropertyOp28
 70
     1
102
RTVSPropertyOp29
 70
     1
102
RTVSPropertyOp30
 70
     1
102
RTVSPropertyOp31
 70
     1
102
RTVSPropertyOp32
 70
     1
102
RTVSPropertyOp33
 70
     1
102
RTVSPropertyOp34
 70
     1
102
RTVSPropertyOp35
 70
     1
102
RTVSPropertyOp36
 70
     1
102
RTVSPropertyOp37
 70
     1
102
RTVSPropertyOp38
 70
     1
102
RTVSPropertyOp39
 70
     1
102
RTVSPropertyOp40
 70
     1
102
RTVSPropertyOp41
 70
     1
102
RTVSPropertyOp42
 70
     1
102
RTVSPropertyOp43
 70
     1
102
RTVSPropertyOp44
 70
     1
102
RTVSPropertyOp45
 70
     1
102
RTVSPropertyOp46
 70
     1
102
RTVSPropertyOp47
 70
     1
102
RTVSPropertyOp48
 70
     1
102
RTVSPropertyOp49
 70
     1
102
RTVSPropertyOp50
 70
     1
102
RTVSPropertyOp51
 70
     0
102
RTVSPropertyOp52
 70
     0
102
RTVSPropertyOp53
 70
     1
102
RTVSPropertyOp54
 70
     1
102
RTVSPropertyOp55
 70
     1
102
RTVSPropertyOp56
 70
     1
102
RTVSPropertyOp57
 70
     1
102
RTVSPropertyOp58
 70
     1
102
RTVSPropertyOp59
 70
     1
102
RTVSPropertyOp60
 70
     1
102
RTVSPropertyOp61
 70
     1
102
RTVSPropertyOp62
 70
     1
  0
XRECORD
  5
83CA
102
{ACAD_REACTORS
330
83C9
102
}
330
83C9
100
AcDbXrecord
280
     1
102
RTVSPost2010Prop28
280
     0
102
RTVSPost2010PropOp28
 70
     1
102
RTVSPost2010Prop29
280
     1
102
RTVSPost2010PropOp29
 70
     1
102
RTVSPost2010Prop30
280
     1
102
RTVSPost2010PropOp30
 70
     1
102
RTVSPost2010Prop31
280
     0
102
RTVSPost2010PropOp31
 70
     1
102
RTVSPost2010Prop32
280
     0
102
RTVSPost2010PropOp32
 70
     1
102
RTVSPost2010Prop33
280
     0
102
RTVSPost2010PropOp33
 70
     1
102
RTVSPost2010Prop34
280
     0
102
RTVSPost2010PropOp34
 70
     1
102
RTVSPost2010Prop35
280
     0
102
RTVSPost2010PropOp35
 70
     1
102
RTVSPost2010Prop36
280
     0
102
RTVSPost2010PropOp36
 70
     1
102
RTVSPost2010Prop37
 90
       50
102
RTVSPost2010PropOp37
 70
     1
102
RTVSPost2010Prop38
140
0.0
102
RTVSPost2010PropOp38
 70
     1
102
RTVSPost2010Prop39
140
1.0
102
RTVSPost2010PropOp39
 70
     1
102
RTVSPost2010Prop40
 90
        0
102
RTVSPost2010PropOp40
 70
     1
102
RTVSPost2010Prop41ColorIndex
 90
       18
102
RTVSPost2010Prop41ColorRGB
 90
        0
102
RTVSPost2010PropOp41
 70
     1
102
RTVSPost2010Prop42
 90
       50
102
RTVSPost2010PropOp42
 70
     1
102
RTVSPost2010Prop43
 90
        3
102
RTVSPost2010PropOp43
 70
     1
102
RTVSPost2010Prop44ColorIndex
 90
        5
102
RTVSPost2010Prop44ColorRGB
 90
      255
102
RTVSPost2010PropOp44
 70
     1
102
RTVSPost2010Prop45
280
     0
102
RTVSPost2010PropOp45
 70
     1
102
RTVSPost2010Prop46
 90
       50
102
RTVSPost2010PropOp46
 70
     1
102
RTVSPost2010Prop47
 90
       50
102
RTVSPost2010PropOp47
 70
     1
102
RTVSPost2010Prop48
 90
       50
102
RTVSPost2010PropOp48
 70
     1
102
RTVSPost2010Prop49
280
     0
102
RTVSPost2010PropOp49
 70
     1
102
RTVSPost2010Prop50
 90
       50
102
RTVSPost2010PropOp50
 70
     1
102
RTVSPost2010Prop51ColorIndex
 90
      256
102
RTVSPost2010Prop51ColorRGB
 90
-16777216
102
RTVSPost2010PropOp51
 70
     0
102
RTVSPost2010Prop52
140
1.0
102
RTVSPost2010PropOp52
 70
     0
102
RTVSPost2010Prop53
 90
        2
102
RTVSPost2010PropOp53
 70
     1
102
RTVSPost2010Prop54
  1
strokes_ogs.tif
102
RTVSPost2010PropOp54
 70
     1
102
RTVSPost2010Prop55
280
     0
102
RTVSPost2010PropOp55
 70
     1
102
RTVSPost2010Prop56
140
1.0
102
RTVSPost2010PropOp56
 70
     1
102
RTVSPost2010Prop57
140
1.0
102
RTVSPost2010PropOp57
 70
     1
102
RTVSPropertyOp0
 70
     1
102
RTVSPropertyOp1
 70
     1
102
RTVSPropertyOp2
 70
     1
102
RTVSPropertyOp3
 70
     1
102
RTVSPropertyOp4
 70
     1
102
RTVSPropertyOp5
 70
     1
102
RTVSPropertyOp6
 70
     1
102
RTVSPropertyOp7
 70
     1
102
RTVSPropertyOp8
 70
     1
102
RTVSPropertyOp9
 70
     1
102
RTVSPropertyOp10
 70
     1
102
RTVSPropertyOp11
 70
     1
102
RTVSPropertyOp12
 70
     1
102
RTVSPropertyOp13
 70
     1
102
RTVSPropertyOp14
 70
     1
102
RTVSPropertyOp15
 70
     1
102
RTVSPropertyOp16
 70
     1
102
RTVSPropertyOp17
 70
     1
102
RTVSPropertyOp18
 70
     1
102
RTVSPropertyOp19
 70
     1
102
RTVSPropertyOp20
 70
     1
102
RTVSPropertyOp21
 70
     1
102
RTVSPropertyOp22
 70
     1
102
RTVSPropertyOp23
 70
     1
102
RTVSPropertyOp24
 70
     1
102
RTVSPropertyOp25
 70
     1
102
RTVSPropertyOp26
 70
     1
102
RTVSPropertyOp27
 70
     1
102
RTVSPropertyOp28
 70
     1
102
RTVSPropertyOp29
 70
     1
102
RTVSPropertyOp30
 70
     1
102
RTVSPropertyOp31
 70
     1
102
RTVSPropertyOp32
 70
     1
102
RTVSPropertyOp33
 70
     1
102
RTVSPropertyOp34
 70
     1
102
RTVSPropertyOp35
 70
     1
102
RTVSPropertyOp36
 70
     1
102
RTVSPropertyOp37
 70
     1
102
RTVSPropertyOp38
 70
     1
102
RTVSPropertyOp39
 70
     1
102
RTVSPropertyOp40
 70
     1
102
RTVSPropertyOp41
 70
     1
102
RTVSPropertyOp42
 70
     1
102
RTVSPropertyOp43
 70
     1
102
RTVSPropertyOp44
 70
     1
102
RTVSPropertyOp45
 70
     1
102
RTVSPropertyOp46
 70
     1
102
RTVSPropertyOp47
 70
     1
102
RTVSPropertyOp48
 70
     1
102
RTVSPropertyOp49
 70
     1
102
RTVSPropertyOp50
 70
     1
102
RTVSPropertyOp51
 70
     0
102
RTVSPropertyOp52
 70
     0
102
RTVSPropertyOp53
 70
     1
102
RTVSPropertyOp54
 70
     1
102
RTVSPropertyOp55
 70
     1
102
RTVSPropertyOp56
 70
     1
102
RTVSPropertyOp57
 70
     1
102
RTVSPropertyOp58
 70
     1
102
RTVSPropertyOp59
 70
     1
102
RTVSPropertyOp60
 70
     1
102
RTVSPropertyOp61
 70
     1
102
RTVSPropertyOp62
 70
     1
  0
XRECORD
  5
83E4
102
{ACAD_REACTORS
330
83E3
102
}
330
83E3
100
AcDbXrecord
280
     1
102
RTVSPost2010Prop28
280
     0
102
RTVSPost2010PropOp28
 70
     1
102
RTVSPost2010Prop29
280
     1
102
RTVSPost2010PropOp29
 70
     1
102
RTVSPost2010Prop30
280
     1
102
RTVSPost2010PropOp30
 70
     1
102
RTVSPost2010Prop31
280
     0
102
RTVSPost2010PropOp31
 70
     1
102
RTVSPost2010Prop32
280
     0
102
RTVSPost2010PropOp32
 70
     1
102
RTVSPost2010Prop33
280
     0
102
RTVSPost2010PropOp33
 70
     1
102
RTVSPost2010Prop34
280
     0
102
RTVSPost2010PropOp34
 70
     1
102
RTVSPost2010Prop35
280
     0
102
RTVSPost2010PropOp35
 70
     1
102
RTVSPost2010Prop36
280
     0
102
RTVSPost2010PropOp36
 70
     1
102
RTVSPost2010Prop37
 90
       50
102
RTVSPost2010PropOp37
 70
     0
102
RTVSPost2010Prop38
140
0.0
102
RTVSPost2010PropOp38
 70
     0
102
RTVSPost2010Prop39
140
1.0
102
RTVSPost2010PropOp39
 70
     0
102
RTVSPost2010Prop40
 90
        0
102
RTVSPost2010PropOp40
 70
     0
102
RTVSPost2010Prop41ColorIndex
 90
       18
102
RTVSPost2010Prop41ColorRGB
 90
        0
102
RTVSPost2010PropOp41
 70
     0
102
RTVSPost2010Prop42
 90
       50
102
RTVSPost2010PropOp42
 70
     0
102
RTVSPost2010Prop43
 90
        3
102
RTVSPost2010PropOp43
 70
     0
102
RTVSPost2010Prop44ColorIndex
 90
        5
102
RTVSPost2010Prop44ColorRGB
 90
      255
102
RTVSPost2010PropOp44
 70
     0
102
RTVSPost2010Prop45
280
     0
102
RTVSPost2010PropOp45
 70
     1
102
RTVSPost2010Prop46
 90
       50
102
RTVSPost2010PropOp46
 70
     0
102
RTVSPost2010Prop47
 90
       50
102
RTVSPost2010PropOp47
 70
     0
102
RTVSPost2010Prop48
 90
       50
102
RTVSPost2010PropOp48
 70
     0
102
RTVSPost2010Prop49
280
     0
102
RTVSPost2010PropOp49
 70
     1
102
RTVSPost2010Prop50
 90
       50
102
RTVSPost2010PropOp50
 70
     0
102
RTVSPost2010Prop51ColorIndex
 90
      256
102
RTVSPost2010Prop51ColorRGB
 90
-16777216
102
RTVSPost2010PropOp51
 70
     0
102
RTVSPost2010Prop52
140
1.0
102
RTVSPost2010PropOp52
 70
     0
102
RTVSPost2010Prop53
 90
        2
102
RTVSPost2010PropOp53
 70
     0
102
RTVSPost2010Prop54
  1
strokes_ogs.tif
102
RTVSPost2010PropOp54
 70
     0
102
RTVSPost2010Prop55
280
     0
102
RTVSPost2010PropOp55
 70
     1
102
RTVSPost2010Prop56
140
1.0
102
RTVSPost2010PropOp56
 70
     0
102
RTVSPost2010Prop57
140
1.0
102
RTVSPost2010PropOp57
 70
     0
102
RTVSPropertyOp0
 70
     0
102
RTVSPropertyOp1
 70
     0
102
RTVSPropertyOp2
 70
     0
102
RTVSPropertyOp3
 70
     0
102
RTVSPropertyOp4
 70
     0
102
RTVSPropertyOp5
 70
     0
102
RTVSPropertyOp6
 70
     0
102
RTVSPropertyOp7
 70
     0
102
RTVSPropertyOp8
 70
     0
102
RTVSPropertyOp9
 70
     0
102
RTVSPropertyOp10
 70
     0
102
RTVSPropertyOp11
 70
     0
102
RTVSPropertyOp12
 70
     0
102
RTVSPropertyOp13
 70
     0
102
RTVSPropertyOp14
 70
     2
102
RTVSPropertyOp15
 70
     0
102
RTVSPropertyOp16
 70
     0
102
RTVSPropertyOp17
 70
     0
102
RTVSPropertyOp18
 70
     0
102
RTVSPropertyOp19
 70
     0
102
RTVSPropertyOp20
 70
     0
102
RTVSPropertyOp21
 70
     0
102
RTVSPropertyOp22
 70
     0
102
RTVSPropertyOp23
 70
     0
102
RTVSPropertyOp24
 70
     0
102
RTVSPropertyOp25
 70
     0
102
RTVSPropertyOp26
 70
     0
102
RTVSPropertyOp27
 70
     0
102
RTVSPropertyOp28
 70
     1
102
RTVSPropertyOp29
 70
     1
102
RTVSPropertyOp30
 70
     1
102
RTVSPropertyOp31
 70
     1
102
RTVSPropertyOp32
 70
     1
102
RTVSPropertyOp33
 70
     1
102
RTVSPropertyOp34
 70
     1
102
RTVSPropertyOp35
 70
     1
102
RTVSPropertyOp36
 70
     1
102
RTVSPropertyOp37
 70
     0
102
RTVSPropertyOp38
 70
     0
102
RTVSPropertyOp39
 70
     0
102
RTVSPropertyOp40
 70
     0
102
RTVSPropertyOp41
 70
     0
102
RTVSPropertyOp42
 70
     0
102
RTVSPropertyOp43
 70
     0
102
RTVSPropertyOp44
 70
     0
102
RTVSPropertyOp45
 70
     1
102
RTVSPropertyOp46
 70
     0
102
RTVSPropertyOp47
 70
     0
102
RTVSPropertyOp48
 70
     0
102
RTVSPropertyOp49
 70
     1
102
RTVSPropertyOp50
 70
     0
102
RTVSPropertyOp51
 70
     0
102
RTVSPropertyOp52
 70
     0
102
RTVSPropertyOp53
 70
     0
102
RTVSPropertyOp54
 70
     0
102
RTVSPropertyOp55
 70
     1
102
RTVSPropertyOp56
 70
     0
102
RTVSPropertyOp57
 70
     0
102
RTVSPropertyOp58
 70
     0
102
RTVSPropertyOp59
 70
     0
102
RTVSPropertyOp60
 70
     0
102
RTVSPropertyOp61
 70
     0
102
RTVSPropertyOp62
 70
     0
  0
XRECORD
  5
83D2
102
{ACAD_REACTORS
330
83D1
102
}
330
83D1
100
AcDbXrecord
280
     1
102
RTVSPost2010Prop28
280
     0
102
RTVSPost2010PropOp28
 70
     1
102
RTVSPost2010Prop29
280
     1
102
RTVSPost2010PropOp29
 70
     1
102
RTVSPost2010Prop30
280
     1
102
RTVSPost2010PropOp30
 70
     1
102
RTVSPost2010Prop31
280
     0
102
RTVSPost2010PropOp31
 70
     1
102
RTVSPost2010Prop32
280
     0
102
RTVSPost2010PropOp32
 70
     1
102
RTVSPost2010Prop33
280
     0
102
RTVSPost2010PropOp33
 70
     1
102
RTVSPost2010Prop34
280
     0
102
RTVSPost2010PropOp34
 70
     1
102
RTVSPost2010Prop35
280
     0
102
RTVSPost2010PropOp35
 70
     1
102
RTVSPost2010Prop36
280
     0
102
RTVSPost2010PropOp36
 70
     1
102
RTVSPost2010Prop37
 90
       50
102
RTVSPost2010PropOp37
 70
     1
102
RTVSPost2010Prop38
140
0.0
102
RTVSPost2010PropOp38
 70
     1
102
RTVSPost2010Prop39
140
1.0
102
RTVSPost2010PropOp39
 70
     1
102
RTVSPost2010Prop40
 90
        0
102
RTVSPost2010PropOp40
 70
     1
102
RTVSPost2010Prop41ColorIndex
 90
       18
102
RTVSPost2010Prop41ColorRGB
 90
        0
102
RTVSPost2010PropOp41
 70
     1
102
RTVSPost2010Prop42
 90
       50
102
RTVSPost2010PropOp42
 70
     1
102
RTVSPost2010Prop43
 90
        3
102
RTVSPost2010PropOp43
 70
     1
102
RTVSPost2010Prop44ColorIndex
 90
        5
102
RTVSPost2010Prop44ColorRGB
 90
      255
102
RTVSPost2010PropOp44
 70
     1
102
RTVSPost2010Prop45
280
     0
102
RTVSPost2010PropOp45
 70
     1
102
RTVSPost2010Prop46
 90
       50
102
RTVSPost2010PropOp46
 70
     1
102
RTVSPost2010Prop47
 90
       50
102
RTVSPost2010PropOp47
 70
     1
102
RTVSPost2010Prop48
 90
       50
102
RTVSPost2010PropOp48
 70
     1
102
RTVSPost2010Prop49
280
     0
102
RTVSPost2010PropOp49
 70
     1
102
RTVSPost2010Prop50
 90
       50
102
RTVSPost2010PropOp50
 70
     1
102
RTVSPost2010Prop51ColorIndex
 90
      256
102
RTVSPost2010Prop51ColorRGB
 90
-16777216
102
RTVSPost2010PropOp51
 70
     0
102
RTVSPost2010Prop52
140
1.0
102
RTVSPost2010PropOp52
 70
     0
102
RTVSPost2010Prop53
 90
        2
102
RTVSPost2010PropOp53
 70
     1
102
RTVSPost2010Prop54
  1
strokes_ogs.tif
102
RTVSPost2010PropOp54
 70
     1
102
RTVSPost2010Prop55
280
     0
102
RTVSPost2010PropOp55
 70
     1
102
RTVSPost2010Prop56
140
1.0
102
RTVSPost2010PropOp56
 70
     1
102
RTVSPost2010Prop57
140
1.0
102
RTVSPost2010PropOp57
 70
     1
102
RTVSPropertyOp0
 70
     1
102
RTVSPropertyOp1
 70
     1
102
RTVSPropertyOp2
 70
     1
102
RTVSPropertyOp3
 70
     1
102
RTVSPropertyOp4
 70
     1
102
RTVSPropertyOp5
 70
     1
102
RTVSPropertyOp6
 70
     1
102
RTVSPropertyOp7
 70
     1
102
RTVSPropertyOp8
 70
     1
102
RTVSPropertyOp9
 70
     1
102
RTVSPropertyOp10
 70
     1
102
RTVSPropertyOp11
 70
     1
102
RTVSPropertyOp12
 70
     1
102
RTVSPropertyOp13
 70
     1
102
RTVSPropertyOp14
 70
     1
102
RTVSPropertyOp15
 70
     1
102
RTVSPropertyOp16
 70
     1
102
RTVSPropertyOp17
 70
     1
102
RTVSPropertyOp18
 70
     1
102
RTVSPropertyOp19
 70
     1
102
RTVSPropertyOp20
 70
     1
102
RTVSPropertyOp21
 70
     1
102
RTVSPropertyOp22
 70
     1
102
RTVSPropertyOp23
 70
     1
102
RTVSPropertyOp24
 70
     1
102
RTVSPropertyOp25
 70
     1
102
RTVSPropertyOp26
 70
     1
102
RTVSPropertyOp27
 70
     1
102
RTVSPropertyOp28
 70
     1
102
RTVSPropertyOp29
 70
     1
102
RTVSPropertyOp30
 70
     1
102
RTVSPropertyOp31
 70
     1
102
RTVSPropertyOp32
 70
     1
102
RTVSPropertyOp33
 70
     1
102
RTVSPropertyOp34
 70
     1
102
RTVSPropertyOp35
 70
     1
102
RTVSPropertyOp36
 70
     1
102
RTVSPropertyOp37
 70
     1
102
RTVSPropertyOp38
 70
     1
102
RTVSPropertyOp39
 70
     1
102
RTVSPropertyOp40
 70
     1
102
RTVSPropertyOp41
 70
     1
102
RTVSPropertyOp42
 70
     1
102
RTVSPropertyOp43
 70
     1
102
RTVSPropertyOp44
 70
     1
102
RTVSPropertyOp45
 70
     1
102
RTVSPropertyOp46
 70
     1
102
RTVSPropertyOp47
 70
     1
102
RTVSPropertyOp48
 70
     1
102
RTVSPropertyOp49
 70
     1
102
RTVSPropertyOp50
 70
     1
102
RTVSPropertyOp51
 70
     0
102
RTVSPropertyOp52
 70
     0
102
RTVSPropertyOp53
 70
     1
102
RTVSPropertyOp54
 70
     1
102
RTVSPropertyOp55
 70
     1
102
RTVSPropertyOp56
 70
     1
102
RTVSPropertyOp57
 70
     1
102
RTVSPropertyOp58
 70
     1
102
RTVSPropertyOp59
 70
     1
102
RTVSPropertyOp60
 70
     1
102
RTVSPropertyOp61
 70
     1
102
RTVSPropertyOp62
 70
     1
  0
XRECORD
  5
83B6
102
{ACAD_REACTORS
330
83B5
102
}
330
83B5
100
AcDbXrecord
280
     1
102
RTVSPost2010Prop28
280
     0
102
RTVSPost2010PropOp28
 70
     1
102
RTVSPost2010Prop29
280
     1
102
RTVSPost2010PropOp29
 70
     1
102
RTVSPost2010Prop30
280
     1
102
RTVSPost2010PropOp30
 70
     1
102
RTVSPost2010Prop31
280
     0
102
RTVSPost2010PropOp31
 70
     1
102
RTVSPost2010Prop32
280
     0
102
RTVSPost2010PropOp32
 70
     1
102
RTVSPost2010Prop33
280
     0
102
RTVSPost2010PropOp33
 70
     1
102
RTVSPost2010Prop34
280
     0
102
RTVSPost2010PropOp34
 70
     1
102
RTVSPost2010Prop35
280
     0
102
RTVSPost2010PropOp35
 70
     1
102
RTVSPost2010Prop36
280
     0
102
RTVSPost2010PropOp36
 70
     1
102
RTVSPost2010Prop37
 90
       50
102
RTVSPost2010PropOp37
 70
     1
102
RTVSPost2010Prop38
140
0.0
102
RTVSPost2010PropOp38
 70
     1
102
RTVSPost2010Prop39
140
1.0
102
RTVSPost2010PropOp39
 70
     1
102
RTVSPost2010Prop40
 90
        0
102
RTVSPost2010PropOp40
 70
     1
102
RTVSPost2010Prop41ColorIndex
 90
       18
102
RTVSPost2010Prop41ColorRGB
 90
        0
102
RTVSPost2010PropOp41
 70
     1
102
RTVSPost2010Prop42
 90
       50
102
RTVSPost2010PropOp42
 70
     1
102
RTVSPost2010Prop43
 90
        3
102
RTVSPost2010PropOp43
 70
     1
102
RTVSPost2010Prop44ColorIndex
 90
        5
102
RTVSPost2010Prop44ColorRGB
 90
      255
102
RTVSPost2010PropOp44
 70
     1
102
RTVSPost2010Prop45
280
     0
102
RTVSPost2010PropOp45
 70
     1
102
RTVSPost2010Prop46
 90
       50
102
RTVSPost2010PropOp46
 70
     1
102
RTVSPost2010Prop47
 90
       50
102
RTVSPost2010PropOp47
 70
     1
102
RTVSPost2010Prop48
 90
       50
102
RTVSPost2010PropOp48
 70
     1
102
RTVSPost2010Prop49
280
     0
102
RTVSPost2010PropOp49
 70
     1
102
RTVSPost2010Prop50
 90
       50
102
RTVSPost2010PropOp50
 70
     1
102
RTVSPost2010Prop51ColorIndex
 90
      256
102
RTVSPost2010Prop51ColorRGB
 90
-16777216
102
RTVSPost2010PropOp51
 70
     0
102
RTVSPost2010Prop52
140
1.0
102
RTVSPost2010PropOp52
 70
     0
102
RTVSPost2010Prop53
 90
        2
102
RTVSPost2010PropOp53
 70
     1
102
RTVSPost2010Prop54
  1
strokes_ogs.tif
102
RTVSPost2010PropOp54
 70
     1
102
RTVSPost2010Prop55
280
     0
102
RTVSPost2010PropOp55
 70
     1
102
RTVSPost2010Prop56
140
1.0
102
RTVSPost2010PropOp56
 70
     1
102
RTVSPost2010Prop57
140
1.0
102
RTVSPost2010PropOp57
 70
     1
102
RTVSPropertyOp0
 70
     1
102
RTVSPropertyOp1
 70
     1
102
RTVSPropertyOp2
 70
     1
102
RTVSPropertyOp3
 70
     1
102
RTVSPropertyOp4
 70
     1
102
RTVSPropertyOp5
 70
     1
102
RTVSPropertyOp6
 70
     1
102
RTVSPropertyOp7
 70
     1
102
RTVSPropertyOp8
 70
     1
102
RTVSPropertyOp9
 70
     1
102
RTVSPropertyOp10
 70
     1
102
RTVSPropertyOp11
 70
     1
102
RTVSPropertyOp12
 70
     1
102
RTVSPropertyOp13
 70
     1
102
RTVSPropertyOp14
 70
     1
102
RTVSPropertyOp15
 70
     1
102
RTVSPropertyOp16
 70
     1
102
RTVSPropertyOp17
 70
     1
102
RTVSPropertyOp18
 70
     1
102
RTVSPropertyOp19
 70
     1
102
RTVSPropertyOp20
 70
     1
102
RTVSPropertyOp21
 70
     1
102
RTVSPropertyOp22
 70
     1
102
RTVSPropertyOp23
 70
     1
102
RTVSPropertyOp24
 70
     1
102
RTVSPropertyOp25
 70
     1
102
RTVSPropertyOp26
 70
     1
102
RTVSPropertyOp27
 70
     1
102
RTVSPropertyOp28
 70
     1
102
RTVSPropertyOp29
 70
     1
102
RTVSPropertyOp30
 70
     1
102
RTVSPropertyOp31
 70
     1
102
RTVSPropertyOp32
 70
     1
102
RTVSPropertyOp33
 70
     1
102
RTVSPropertyOp34
 70
     1
102
RTVSPropertyOp35
 70
     1
102
RTVSPropertyOp36
 70
     1
102
RTVSPropertyOp37
 70
     1
102
RTVSPropertyOp38
 70
     1
102
RTVSPropertyOp39
 70
     1
102
RTVSPropertyOp40
 70
     1
102
RTVSPropertyOp41
 70
     1
102
RTVSPropertyOp42
 70
     1
102
RTVSPropertyOp43
 70
     1
102
RTVSPropertyOp44
 70
     1
102
RTVSPropertyOp45
 70
     1
102
RTVSPropertyOp46
 70
     1
102
RTVSPropertyOp47
 70
     1
102
RTVSPropertyOp48
 70
     1
102
RTVSPropertyOp49
 70
     1
102
RTVSPropertyOp50
 70
     1
102
RTVSPropertyOp51
 70
     0
102
RTVSPropertyOp52
 70
     0
102
RTVSPropertyOp53
 70
     1
102
RTVSPropertyOp54
 70
     1
102
RTVSPropertyOp55
 70
     1
102
RTVSPropertyOp56
 70
     1
102
RTVSPropertyOp57
 70
     1
102
RTVSPropertyOp58
 70
     1
102
RTVSPropertyOp59
 70
     1
102
RTVSPropertyOp60
 70
     1
102
RTVSPropertyOp61
 70
     1
102
RTVSPropertyOp62
 70
     1
  0
XRECORD
  5
83B8
102
{ACAD_REACTORS
330
83B7
102
}
330
83B7
100
AcDbXrecord
280
     1
102
RTVSPost2010Prop28
280
     0
102
RTVSPost2010PropOp28
 70
     1
102
RTVSPost2010Prop29
280
     1
102
RTVSPost2010PropOp29
 70
     1
102
RTVSPost2010Prop30
280
     1
102
RTVSPost2010PropOp30
 70
     1
102
RTVSPost2010Prop31
280
     0
102
RTVSPost2010PropOp31
 70
     1
102
RTVSPost2010Prop32
280
     0
102
RTVSPost2010PropOp32
 70
     1
102
RTVSPost2010Prop33
280
     0
102
RTVSPost2010PropOp33
 70
     1
102
RTVSPost2010Prop34
280
     0
102
RTVSPost2010PropOp34
 70
     1
102
RTVSPost2010Prop35
280
     0
102
RTVSPost2010PropOp35
 70
     1
102
RTVSPost2010Prop36
280
     0
102
RTVSPost2010PropOp36
 70
     1
102
RTVSPost2010Prop37
 90
       50
102
RTVSPost2010PropOp37
 70
     1
102
RTVSPost2010Prop38
140
0.0
102
RTVSPost2010PropOp38
 70
     1
102
RTVSPost2010Prop39
140
1.0
102
RTVSPost2010PropOp39
 70
     1
102
RTVSPost2010Prop40
 90
        0
102
RTVSPost2010PropOp40
 70
     1
102
RTVSPost2010Prop41ColorIndex
 90
       18
102
RTVSPost2010Prop41ColorRGB
 90
        0
102
RTVSPost2010PropOp41
 70
     1
102
RTVSPost2010Prop42
 90
       50
102
RTVSPost2010PropOp42
 70
     1
102
RTVSPost2010Prop43
 90
        3
102
RTVSPost2010PropOp43
 70
     1
102
RTVSPost2010Prop44ColorIndex
 90
        5
102
RTVSPost2010Prop44ColorRGB
 90
      255
102
RTVSPost2010PropOp44
 70
     1
102
RTVSPost2010Prop45
280
     0
102
RTVSPost2010PropOp45
 70
     1
102
RTVSPost2010Prop46
 90
       50
102
RTVSPost2010PropOp46
 70
     1
102
RTVSPost2010Prop47
 90
       50
102
RTVSPost2010PropOp47
 70
     1
102
RTVSPost2010Prop48
 90
       50
102
RTVSPost2010PropOp48
 70
     1
102
RTVSPost2010Prop49
280
     0
102
RTVSPost2010PropOp49
 70
     1
102
RTVSPost2010Prop50
 90
       50
102
RTVSPost2010PropOp50
 70
     1
102
RTVSPost2010Prop51ColorIndex
 90
      256
102
RTVSPost2010Prop51ColorRGB
 90
-16777216
102
RTVSPost2010PropOp51
 70
     0
102
RTVSPost2010Prop52
140
1.0
102
RTVSPost2010PropOp52
 70
     0
102
RTVSPost2010Prop53
 90
        2
102
RTVSPost2010PropOp53
 70
     1
102
RTVSPost2010Prop54
  1
strokes_ogs.tif
102
RTVSPost2010PropOp54
 70
     1
102
RTVSPost2010Prop55
280
     0
102
RTVSPost2010PropOp55
 70
     1
102
RTVSPost2010Prop56
140
1.0
102
RTVSPost2010PropOp56
 70
     1
102
RTVSPost2010Prop57
140
1.0
102
RTVSPost2010PropOp57
 70
     1
102
RTVSPropertyOp0
 70
     1
102
RTVSPropertyOp1
 70
     1
102
RTVSPropertyOp2
 70
     1
102
RTVSPropertyOp3
 70
     1
102
RTVSPropertyOp4
 70
     1
102
RTVSPropertyOp5
 70
     1
102
RTVSPropertyOp6
 70
     1
102
RTVSPropertyOp7
 70
     1
102
RTVSPropertyOp8
 70
     1
102
RTVSPropertyOp9
 70
     1
102
RTVSPropertyOp10
 70
     1
102
RTVSPropertyOp11
 70
     1
102
RTVSPropertyOp12
 70
     1
102
RTVSPropertyOp13
 70
     1
102
RTVSPropertyOp14
 70
     1
102
RTVSPropertyOp15
 70
     1
102
RTVSPropertyOp16
 70
     1
102
RTVSPropertyOp17
 70
     1
102
RTVSPropertyOp18
 70
     1
102
RTVSPropertyOp19
 70
     1
102
RTVSPropertyOp20
 70
     1
102
RTVSPropertyOp21
 70
     1
102
RTVSPropertyOp22
 70
     1
102
RTVSPropertyOp23
 70
     1
102
RTVSPropertyOp24
 70
     1
102
RTVSPropertyOp25
 70
     1
102
RTVSPropertyOp26
 70
     1
102
RTVSPropertyOp27
 70
     1
102
RTVSPropertyOp28
 70
     1
102
RTVSPropertyOp29
 70
     1
102
RTVSPropertyOp30
 70
     1
102
RTVSPropertyOp31
 70
     1
102
RTVSPropertyOp32
 70
     1
102
RTVSPropertyOp33
 70
     1
102
RTVSPropertyOp34
 70
     1
102
RTVSPropertyOp35
 70
     1
102
RTVSPropertyOp36
 70
     1
102
RTVSPropertyOp37
 70
     1
102
RTVSPropertyOp38
 70
     1
102
RTVSPropertyOp39
 70
     1
102
RTVSPropertyOp40
 70
     1
102
RTVSPropertyOp41
 70
     1
102
RTVSPropertyOp42
 70
     1
102
RTVSPropertyOp43
 70
     1
102
RTVSPropertyOp44
 70
     1
102
RTVSPropertyOp45
 70
     1
102
RTVSPropertyOp46
 70
     1
102
RTVSPropertyOp47
 70
     1
102
RTVSPropertyOp48
 70
     1
102
RTVSPropertyOp49
 70
     1
102
RTVSPropertyOp50
 70
     1
102
RTVSPropertyOp51
 70
     0
102
RTVSPropertyOp52
 70
     0
102
RTVSPropertyOp53
 70
     1
102
RTVSPropertyOp54
 70
     1
102
RTVSPropertyOp55
 70
     1
102
RTVSPropertyOp56
 70
     1
102
RTVSPropertyOp57
 70
     1
102
RTVSPropertyOp58
 70
     1
102
RTVSPropertyOp59
 70
     1
102
RTVSPropertyOp60
 70
     1
102
RTVSPropertyOp61
 70
     1
102
RTVSPropertyOp62
 70
     1
  0
XRECORD
  5
83BA
102
{ACAD_REACTORS
330
83B9
102
}
330
83B9
100
AcDbXrecord
280
     1
102
RTVSPost2010Prop28
280
     0
102
RTVSPost2010PropOp28
 70
     1
102
RTVSPost2010Prop29
280
     1
102
RTVSPost2010PropOp29
 70
     1
102
RTVSPost2010Prop30
280
     1
102
RTVSPost2010PropOp30
 70
     1
102
RTVSPost2010Prop31
280
     0
102
RTVSPost2010PropOp31
 70
     1
102
RTVSPost2010Prop32
280
     0
102
RTVSPost2010PropOp32
 70
     1
102
RTVSPost2010Prop33
280
     0
102
RTVSPost2010PropOp33
 70
     1
102
RTVSPost2010Prop34
280
     0
102
RTVSPost2010PropOp34
 70
     1
102
RTVSPost2010Prop35
280
     0
102
RTVSPost2010PropOp35
 70
     1
102
RTVSPost2010Prop36
280
     0
102
RTVSPost2010PropOp36
 70
     1
102
RTVSPost2010Prop37
 90
       50
102
RTVSPost2010PropOp37
 70
     1
102
RTVSPost2010Prop38
140
0.0
102
RTVSPost2010PropOp38
 70
     1
102
RTVSPost2010Prop39
140
1.0
102
RTVSPost2010PropOp39
 70
     1
102
RTVSPost2010Prop40
 90
        0
102
RTVSPost2010PropOp40
 70
     1
102
RTVSPost2010Prop41ColorIndex
 90
       18
102
RTVSPost2010Prop41ColorRGB
 90
        0
102
RTVSPost2010PropOp41
 70
     1
102
RTVSPost2010Prop42
 90
       50
102
RTVSPost2010PropOp42
 70
     1
102
RTVSPost2010Prop43
 90
        3
102
RTVSPost2010PropOp43
 70
     1
102
RTVSPost2010Prop44ColorIndex
 90
        5
102
RTVSPost2010Prop44ColorRGB
 90
      255
102
RTVSPost2010PropOp44
 70
     1
102
RTVSPost2010Prop45
280
     0
102
RTVSPost2010PropOp45
 70
     1
102
RTVSPost2010Prop46
 90
       50
102
RTVSPost2010PropOp46
 70
     1
102
RTVSPost2010Prop47
 90
       50
102
RTVSPost2010PropOp47
 70
     1
102
RTVSPost2010Prop48
 90
       50
102
RTVSPost2010PropOp48
 70
     1
102
RTVSPost2010Prop49
280
     0
102
RTVSPost2010PropOp49
 70
     1
102
RTVSPost2010Prop50
 90
       50
102
RTVSPost2010PropOp50
 70
     1
102
RTVSPost2010Prop51ColorIndex
 90
      256
102
RTVSPost2010Prop51ColorRGB
 90
-16777216
102
RTVSPost2010PropOp51
 70
     0
102
RTVSPost2010Prop52
140
1.0
102
RTVSPost2010PropOp52
 70
     0
102
RTVSPost2010Prop53
 90
        2
102
RTVSPost2010PropOp53
 70
     1
102
RTVSPost2010Prop54
  1
strokes_ogs.tif
102
RTVSPost2010PropOp54
 70
     1
102
RTVSPost2010Prop55
280
     0
102
RTVSPost2010PropOp55
 70
     1
102
RTVSPost2010Prop56
140
1.0
102
RTVSPost2010PropOp56
 70
     1
102
RTVSPost2010Prop57
140
1.0
102
RTVSPost2010PropOp57
 70
     1
102
RTVSPropertyOp0
 70
     1
102
RTVSPropertyOp1
 70
     1
102
RTVSPropertyOp2
 70
     1
102
RTVSPropertyOp3
 70
     1
102
RTVSPropertyOp4
 70
     1
102
RTVSPropertyOp5
 70
     1
102
RTVSPropertyOp6
 70
     1
102
RTVSPropertyOp7
 70
     1
102
RTVSPropertyOp8
 70
     1
102
RTVSPropertyOp9
 70
     1
102
RTVSPropertyOp10
 70
     1
102
RTVSPropertyOp11
 70
     1
102
RTVSPropertyOp12
 70
     1
102
RTVSPropertyOp13
 70
     1
102
RTVSPropertyOp14
 70
     1
102
RTVSPropertyOp15
 70
     1
102
RTVSPropertyOp16
 70
     1
102
RTVSPropertyOp17
 70
     1
102
RTVSPropertyOp18
 70
     1
102
RTVSPropertyOp19
 70
     1
102
RTVSPropertyOp20
 70
     1
102
RTVSPropertyOp21
 70
     1
102
RTVSPropertyOp22
 70
     1
102
RTVSPropertyOp23
 70
     1
102
RTVSPropertyOp24
 70
     1
102
RTVSPropertyOp25
 70
     1
102
RTVSPropertyOp26
 70
     1
102
RTVSPropertyOp27
 70
     1
102
RTVSPropertyOp28
 70
     1
102
RTVSPropertyOp29
 70
     1
102
RTVSPropertyOp30
 70
     1
102
RTVSPropertyOp31
 70
     1
102
RTVSPropertyOp32
 70
     1
102
RTVSPropertyOp33
 70
     1
102
RTVSPropertyOp34
 70
     1
102
RTVSPropertyOp35
 70
     1
102
RTVSPropertyOp36
 70
     1
102
RTVSPropertyOp37
 70
     1
102
RTVSPropertyOp38
 70
     1
102
RTVSPropertyOp39
 70
     1
102
RTVSPropertyOp40
 70
     1
102
RTVSPropertyOp41
 70
     1
102
RTVSPropertyOp42
 70
     1
102
RTVSPropertyOp43
 70
     1
102
RTVSPropertyOp44
 70
     1
102
RTVSPropertyOp45
 70
     1
102
RTVSPropertyOp46
 70
     1
102
RTVSPropertyOp47
 70
     1
102
RTVSPropertyOp48
 70
     1
102
RTVSPropertyOp49
 70
     1
102
RTVSPropertyOp50
 70
     1
102
RTVSPropertyOp51
 70
     0
102
RTVSPropertyOp52
 70
     0
102
RTVSPropertyOp53
 70
     1
102
RTVSPropertyOp54
 70
     1
102
RTVSPropertyOp55
 70
     1
102
RTVSPropertyOp56
 70
     1
102
RTVSPropertyOp57
 70
     1
102
RTVSPropertyOp58
 70
     1
102
RTVSPropertyOp59
 70
     1
102
RTVSPropertyOp60
 70
     1
102
RTVSPropertyOp61
 70
     1
102
RTVSPropertyOp62
 70
     1
  0
XRECORD
  5
83BC
102
{ACAD_REACTORS
330
83BB
102
}
330
83BB
100
AcDbXrecord
280
     1
102
RTVSPost2010Prop28
280
     0
102
RTVSPost2010PropOp28
 70
     1
102
RTVSPost2010Prop29
280
     1
102
RTVSPost2010PropOp29
 70
     1
102
RTVSPost2010Prop30
280
     1
102
RTVSPost2010PropOp30
 70
     1
102
RTVSPost2010Prop31
280
     0
102
RTVSPost2010PropOp31
 70
     1
102
RTVSPost2010Prop32
280
     0
102
RTVSPost2010PropOp32
 70
     1
102
RTVSPost2010Prop33
280
     0
102
RTVSPost2010PropOp33
 70
     1
102
RTVSPost2010Prop34
280
     0
102
RTVSPost2010PropOp34
 70
     1
102
RTVSPost2010Prop35
280
     0
102
RTVSPost2010PropOp35
 70
     1
102
RTVSPost2010Prop36
280
     0
102
RTVSPost2010PropOp36
 70
     1
102
RTVSPost2010Prop37
 90
       50
102
RTVSPost2010PropOp37
 70
     1
102
RTVSPost2010Prop38
140
0.0
102
RTVSPost2010PropOp38
 70
     1
102
RTVSPost2010Prop39
140
1.0
102
RTVSPost2010PropOp39
 70
     1
102
RTVSPost2010Prop40
 90
        0
102
RTVSPost2010PropOp40
 70
     1
102
RTVSPost2010Prop41ColorIndex
 90
       18
102
RTVSPost2010Prop41ColorRGB
 90
        0
102
RTVSPost2010PropOp41
 70
     1
102
RTVSPost2010Prop42
 90
       50
102
RTVSPost2010PropOp42
 70
     1
102
RTVSPost2010Prop43
 90
        3
102
RTVSPost2010PropOp43
 70
     1
102
RTVSPost2010Prop44ColorIndex
 90
        5
102
RTVSPost2010Prop44ColorRGB
 90
      255
102
RTVSPost2010PropOp44
 70
     1
102
RTVSPost2010Prop45
280
     0
102
RTVSPost2010PropOp45
 70
     1
102
RTVSPost2010Prop46
 90
       50
102
RTVSPost2010PropOp46
 70
     1
102
RTVSPost2010Prop47
 90
       50
102
RTVSPost2010PropOp47
 70
     1
102
RTVSPost2010Prop48
 90
       50
102
RTVSPost2010PropOp48
 70
     1
102
RTVSPost2010Prop49
280
     0
102
RTVSPost2010PropOp49
 70
     1
102
RTVSPost2010Prop50
 90
       50
102
RTVSPost2010PropOp50
 70
     1
102
RTVSPost2010Prop51ColorIndex
 90
      256
102
RTVSPost2010Prop51ColorRGB
 90
-16777216
102
RTVSPost2010PropOp51
 70
     0
102
RTVSPost2010Prop52
140
1.0
102
RTVSPost2010PropOp52
 70
     0
102
RTVSPost2010Prop53
 90
        2
102
RTVSPost2010PropOp53
 70
     1
102
RTVSPost2010Prop54
  1
strokes_ogs.tif
102
RTVSPost2010PropOp54
 70
     1
102
RTVSPost2010Prop55
280
     0
102
RTVSPost2010PropOp55
 70
     1
102
RTVSPost2010Prop56
140
1.0
102
RTVSPost2010PropOp56
 70
     1
102
RTVSPost2010Prop57
140
1.0
102
RTVSPost2010PropOp57
 70
     1
102
RTVSPropertyOp0
 70
     1
102
RTVSPropertyOp1
 70
     1
102
RTVSPropertyOp2
 70
     1
102
RTVSPropertyOp3
 70
     1
102
RTVSPropertyOp4
 70
     1
102
RTVSPropertyOp5
 70
     1
102
RTVSPropertyOp6
 70
     1
102
RTVSPropertyOp7
 70
     1
102
RTVSPropertyOp8
 70
     1
102
RTVSPropertyOp9
 70
     1
102
RTVSPropertyOp10
 70
     1
102
RTVSPropertyOp11
 70
     1
102
RTVSPropertyOp12
 70
     1
102
RTVSPropertyOp13
 70
     1
102
RTVSPropertyOp14
 70
     1
102
RTVSPropertyOp15
 70
     1
102
RTVSPropertyOp16
 70
     1
102
RTVSPropertyOp17
 70
     1
102
RTVSPropertyOp18
 70
     1
102
RTVSPropertyOp19
 70
     1
102
RTVSPropertyOp20
 70
     1
102
RTVSPropertyOp21
 70
     1
102
RTVSPropertyOp22
 70
     1
102
RTVSPropertyOp23
 70
     1
102
RTVSPropertyOp24
 70
     1
102
RTVSPropertyOp25
 70
     1
102
RTVSPropertyOp26
 70
     1
102
RTVSPropertyOp27
 70
     1
102
RTVSPropertyOp28
 70
     1
102
RTVSPropertyOp29
 70
     1
102
RTVSPropertyOp30
 70
     1
102
RTVSPropertyOp31
 70
     1
102
RTVSPropertyOp32
 70
     1
102
RTVSPropertyOp33
 70
     1
102
RTVSPropertyOp34
 70
     1
102
RTVSPropertyOp35
 70
     1
102
RTVSPropertyOp36
 70
     1
102
RTVSPropertyOp37
 70
     1
102
RTVSPropertyOp38
 70
     1
102
RTVSPropertyOp39
 70
     1
102
RTVSPropertyOp40
 70
     1
102
RTVSPropertyOp41
 70
     1
102
RTVSPropertyOp42
 70
     1
102
RTVSPropertyOp43
 70
     1
102
RTVSPropertyOp44
 70
     1
102
RTVSPropertyOp45
 70
     1
102
RTVSPropertyOp46
 70
     1
102
RTVSPropertyOp47
 70
     1
102
RTVSPropertyOp48
 70
     1
102
RTVSPropertyOp49
 70
     1
102
RTVSPropertyOp50
 70
     1
102
RTVSPropertyOp51
 70
     0
102
RTVSPropertyOp52
 70
     0
102
RTVSPropertyOp53
 70
     1
102
RTVSPropertyOp54
 70
     1
102
RTVSPropertyOp55
 70
     1
102
RTVSPropertyOp56
 70
     1
102
RTVSPropertyOp57
 70
     1
102
RTVSPropertyOp58
 70
     1
102
RTVSPropertyOp59
 70
     1
102
RTVSPropertyOp60
 70
     1
102
RTVSPropertyOp61
 70
     1
102
RTVSPropertyOp62
 70
     1
  0
XRECORD
  5
83C4
102
{ACAD_REACTORS
330
83C3
102
}
330
83C3
100
AcDbXrecord
280
     1
102
RTVSPost2010Prop28
280
     0
102
RTVSPost2010PropOp28
 70
     1
102
RTVSPost2010Prop29
280
     1
102
RTVSPost2010PropOp29
 70
     1
102
RTVSPost2010Prop30
280
     1
102
RTVSPost2010PropOp30
 70
     1
102
RTVSPost2010Prop31
280
     0
102
RTVSPost2010PropOp31
 70
     1
102
RTVSPost2010Prop32
280
     0
102
RTVSPost2010PropOp32
 70
     1
102
RTVSPost2010Prop33
280
     0
102
RTVSPost2010PropOp33
 70
     1
102
RTVSPost2010Prop34
280
     0
102
RTVSPost2010PropOp34
 70
     1
102
RTVSPost2010Prop35
280
     0
102
RTVSPost2010PropOp35
 70
     1
102
RTVSPost2010Prop36
280
     0
102
RTVSPost2010PropOp36
 70
     1
102
RTVSPost2010Prop37
 90
       50
102
RTVSPost2010PropOp37
 70
     1
102
RTVSPost2010Prop38
140
0.0
102
RTVSPost2010PropOp38
 70
     1
102
RTVSPost2010Prop39
140
1.0
102
RTVSPost2010PropOp39
 70
     1
102
RTVSPost2010Prop40
 90
        0
102
RTVSPost2010PropOp40
 70
     1
102
RTVSPost2010Prop41ColorIndex
 90
       18
102
RTVSPost2010Prop41ColorRGB
 90
        0
102
RTVSPost2010PropOp41
 70
     1
102
RTVSPost2010Prop42
 90
       50
102
RTVSPost2010PropOp42
 70
     1
102
RTVSPost2010Prop43
 90
        3
102
RTVSPost2010PropOp43
 70
     1
102
RTVSPost2010Prop44ColorIndex
 90
        5
102
RTVSPost2010Prop44ColorRGB
 90
      255
102
RTVSPost2010PropOp44
 70
     1
102
RTVSPost2010Prop45
280
     0
102
RTVSPost2010PropOp45
 70
     1
102
RTVSPost2010Prop46
 90
       50
102
RTVSPost2010PropOp46
 70
     1
102
RTVSPost2010Prop47
 90
       50
102
RTVSPost2010PropOp47
 70
     1
102
RTVSPost2010Prop48
 90
       50
102
RTVSPost2010PropOp48
 70
     1
102
RTVSPost2010Prop49
280
     0
102
RTVSPost2010PropOp49
 70
     1
102
RTVSPost2010Prop50
 90
       50
102
RTVSPost2010PropOp50
 70
     1
102
RTVSPost2010Prop51ColorIndex
 90
      256
102
RTVSPost2010Prop51ColorRGB
 90
-16777216
102
RTVSPost2010PropOp51
 70
     0
102
RTVSPost2010Prop52
140
1.0
102
RTVSPost2010PropOp52
 70
     0
102
RTVSPost2010Prop53
 90
        2
102
RTVSPost2010PropOp53
 70
     1
102
RTVSPost2010Prop54
  1
strokes_ogs.tif
102
RTVSPost2010PropOp54
 70
     1
102
RTVSPost2010Prop55
280
     0
102
RTVSPost2010PropOp55
 70
     1
102
RTVSPost2010Prop56
140
1.0
102
RTVSPost2010PropOp56
 70
     1
102
RTVSPost2010Prop57
140
1.0
102
RTVSPost2010PropOp57
 70
     1
102
RTVSPropertyOp0
 70
     1
102
RTVSPropertyOp1
 70
     1
102
RTVSPropertyOp2
 70
     1
102
RTVSPropertyOp3
 70
     1
102
RTVSPropertyOp4
 70
     1
102
RTVSPropertyOp5
 70
     1
102
RTVSPropertyOp6
 70
     1
102
RTVSPropertyOp7
 70
     1
102
RTVSPropertyOp8
 70
     1
102
RTVSPropertyOp9
 70
     1
102
RTVSPropertyOp10
 70
     1
102
RTVSPropertyOp11
 70
     1
102
RTVSPropertyOp12
 70
     1
102
RTVSPropertyOp13
 70
     1
102
RTVSPropertyOp14
 70
     1
102
RTVSPropertyOp15
 70
     1
102
RTVSPropertyOp16
 70
     1
102
RTVSPropertyOp17
 70
     1
102
RTVSPropertyOp18
 70
     1
102
RTVSPropertyOp19
 70
     1
102
RTVSPropertyOp20
 70
     1
102
RTVSPropertyOp21
 70
     1
102
RTVSPropertyOp22
 70
     1
102
RTVSPropertyOp23
 70
     1
102
RTVSPropertyOp24
 70
     1
102
RTVSPropertyOp25
 70
     1
102
RTVSPropertyOp26
 70
     1
102
RTVSPropertyOp27
 70
     1
102
RTVSPropertyOp28
 70
     1
102
RTVSPropertyOp29
 70
     1
102
RTVSPropertyOp30
 70
     1
102
RTVSPropertyOp31
 70
     1
102
RTVSPropertyOp32
 70
     1
102
RTVSPropertyOp33
 70
     1
102
RTVSPropertyOp34
 70
     1
102
RTVSPropertyOp35
 70
     1
102
RTVSPropertyOp36
 70
     1
102
RTVSPropertyOp37
 70
     1
102
RTVSPropertyOp38
 70
     1
102
RTVSPropertyOp39
 70
     1
102
RTVSPropertyOp40
 70
     1
102
RTVSPropertyOp41
 70
     1
102
RTVSPropertyOp42
 70
     1
102
RTVSPropertyOp43
 70
     1
102
RTVSPropertyOp44
 70
     1
102
RTVSPropertyOp45
 70
     1
102
RTVSPropertyOp46
 70
     1
102
RTVSPropertyOp47
 70
     1
102
RTVSPropertyOp48
 70
     1
102
RTVSPropertyOp49
 70
     1
102
RTVSPropertyOp50
 70
     1
102
RTVSPropertyOp51
 70
     0
102
RTVSPropertyOp52
 70
     0
102
RTVSPropertyOp53
 70
     1
102
RTVSPropertyOp54
 70
     1
102
RTVSPropertyOp55
 70
     1
102
RTVSPropertyOp56
 70
     1
102
RTVSPropertyOp57
 70
     1
102
RTVSPropertyOp58
 70
     1
102
RTVSPropertyOp59
 70
     1
102
RTVSPropertyOp60
 70
     1
102
RTVSPropertyOp61
 70
     1
102
RTVSPropertyOp62
 70
     1
  0
XRECORD
  5
83E0
102
{ACAD_REACTORS
330
83DF
102
}
330
83DF
100
AcDbXrecord
280
     1
102
RTVSPost2010Prop28
280
     0
102
RTVSPost2010PropOp28
 70
     1
102
RTVSPost2010Prop29
280
     1
102
RTVSPost2010PropOp29
 70
     1
102
RTVSPost2010Prop30
280
     1
102
RTVSPost2010PropOp30
 70
     1
102
RTVSPost2010Prop31
280
     0
102
RTVSPost2010PropOp31
 70
     1
102
RTVSPost2010Prop32
280
     0
102
RTVSPost2010PropOp32
 70
     1
102
RTVSPost2010Prop33
280
     0
102
RTVSPost2010PropOp33
 70
     1
102
RTVSPost2010Prop34
280
     0
102
RTVSPost2010PropOp34
 70
     1
102
RTVSPost2010Prop35
280
     0
102
RTVSPost2010PropOp35
 70
     1
102
RTVSPost2010Prop36
280
     0
102
RTVSPost2010PropOp36
 70
     1
102
RTVSPost2010Prop37
 90
       50
102
RTVSPost2010PropOp37
 70
     0
102
RTVSPost2010Prop38
140
0.0
102
RTVSPost2010PropOp38
 70
     0
102
RTVSPost2010Prop39
140
1.0
102
RTVSPost2010PropOp39
 70
     0
102
RTVSPost2010Prop40
 90
        0
102
RTVSPost2010PropOp40
 70
     0
102
RTVSPost2010Prop41ColorIndex
 90
       18
102
RTVSPost2010Prop41ColorRGB
 90
        0
102
RTVSPost2010PropOp41
 70
     0
102
RTVSPost2010Prop42
 90
       50
102
RTVSPost2010PropOp42
 70
     0
102
RTVSPost2010Prop43
 90
        3
102
RTVSPost2010PropOp43
 70
     0
102
RTVSPost2010Prop44ColorIndex
 90
        5
102
RTVSPost2010Prop44ColorRGB
 90
      255
102
RTVSPost2010PropOp44
 70
     0
102
RTVSPost2010Prop45
280
     0
102
RTVSPost2010PropOp45
 70
     1
102
RTVSPost2010Prop46
 90
       50
102
RTVSPost2010PropOp46
 70
     0
102
RTVSPost2010Prop47
 90
       50
102
RTVSPost2010PropOp47
 70
     0
102
RTVSPost2010Prop48
 90
       50
102
RTVSPost2010PropOp48
 70
     0
102
RTVSPost2010Prop49
280
     0
102
RTVSPost2010PropOp49
 70
     1
102
RTVSPost2010Prop50
 90
       50
102
RTVSPost2010PropOp50
 70
     0
102
RTVSPost2010Prop51ColorIndex
 90
      256
102
RTVSPost2010Prop51ColorRGB
 90
-16777216
102
RTVSPost2010PropOp51
 70
     0
102
RTVSPost2010Prop52
140
1.0
102
RTVSPost2010PropOp52
 70
     0
102
RTVSPost2010Prop53
 90
        2
102
RTVSPost2010PropOp53
 70
     0
102
RTVSPost2010Prop54
  1
strokes_ogs.tif
102
RTVSPost2010PropOp54
 70
     0
102
RTVSPost2010Prop55
280
     0
102
RTVSPost2010PropOp55
 70
     1
102
RTVSPost2010Prop56
140
1.0
102
RTVSPost2010PropOp56
 70
     0
102
RTVSPost2010Prop57
140
1.0
102
RTVSPost2010PropOp57
 70
     0
102
RTVSPropertyOp0
 70
     0
102
RTVSPropertyOp1
 70
     0
102
RTVSPropertyOp2
 70
     0
102
RTVSPropertyOp3
 70
     0
102
RTVSPropertyOp4
 70
     0
102
RTVSPropertyOp5
 70
     0
102
RTVSPropertyOp6
 70
     0
102
RTVSPropertyOp7
 70
     0
102
RTVSPropertyOp8
 70
     0
102
RTVSPropertyOp9
 70
     0
102
RTVSPropertyOp10
 70
     0
102
RTVSPropertyOp11
 70
     0
102
RTVSPropertyOp12
 70
     0
102
RTVSPropertyOp13
 70
     0
102
RTVSPropertyOp14
 70
     2
102
RTVSPropertyOp15
 70
     0
102
RTVSPropertyOp16
 70
     0
102
RTVSPropertyOp17
 70
     0
102
RTVSPropertyOp18
 70
     0
102
RTVSPropertyOp19
 70
     0
102
RTVSPropertyOp20
 70
     0
102
RTVSPropertyOp21
 70
     0
102
RTVSPropertyOp22
 70
     0
102
RTVSPropertyOp23
 70
     0
102
RTVSPropertyOp24
 70
     0
102
RTVSPropertyOp25
 70
     0
102
RTVSPropertyOp26
 70
     0
102
RTVSPropertyOp27
 70
     0
102
RTVSPropertyOp28
 70
     1
102
RTVSPropertyOp29
 70
     1
102
RTVSPropertyOp30
 70
     1
102
RTVSPropertyOp31
 70
     1
102
RTVSPropertyOp32
 70
     1
102
RTVSPropertyOp33
 70
     1
102
RTVSPropertyOp34
 70
     1
102
RTVSPropertyOp35
 70
     1
102
RTVSPropertyOp36
 70
     1
102
RTVSPropertyOp37
 70
     0
102
RTVSPropertyOp38
 70
     0
102
RTVSPropertyOp39
 70
     0
102
RTVSPropertyOp40
 70
     0
102
RTVSPropertyOp41
 70
     0
102
RTVSPropertyOp42
 70
     0
102
RTVSPropertyOp43
 70
     0
102
RTVSPropertyOp44
 70
     0
102
RTVSPropertyOp45
 70
     1
102
RTVSPropertyOp46
 70
     0
102
RTVSPropertyOp47
 70
     0
102
RTVSPropertyOp48
 70
     0
102
RTVSPropertyOp49
 70
     1
102
RTVSPropertyOp50
 70
     0
102
RTVSPropertyOp51
 70
     0
102
RTVSPropertyOp52
 70
     0
102
RTVSPropertyOp53
 70
     0
102
RTVSPropertyOp54
 70
     0
102
RTVSPropertyOp55
 70
     1
102
RTVSPropertyOp56
 70
     0
102
RTVSPropertyOp57
 70
     0
102
RTVSPropertyOp58
 70
     0
102
RTVSPropertyOp59
 70
     0
102
RTVSPropertyOp60
 70
     0
102
RTVSPropertyOp61
 70
     0
102
RTVSPropertyOp62
 70
     0
  0
XRECORD
  5
83D0
102
{ACAD_REACTORS
330
83CF
102
}
330
83CF
100
AcDbXrecord
280
     1
102
RTVSPost2010Prop28
280
     0
102
RTVSPost2010PropOp28
 70
     1
102
RTVSPost2010Prop29
280
     1
102
RTVSPost2010PropOp29
 70
     1
102
RTVSPost2010Prop30
280
     1
102
RTVSPost2010PropOp30
 70
     1
102
RTVSPost2010Prop31
280
     0
102
RTVSPost2010PropOp31
 70
     1
102
RTVSPost2010Prop32
280
     0
102
RTVSPost2010PropOp32
 70
     1
102
RTVSPost2010Prop33
280
     0
102
RTVSPost2010PropOp33
 70
     1
102
RTVSPost2010Prop34
280
     0
102
RTVSPost2010PropOp34
 70
     1
102
RTVSPost2010Prop35
280
     0
102
RTVSPost2010PropOp35
 70
     1
102
RTVSPost2010Prop36
280
     0
102
RTVSPost2010PropOp36
 70
     1
102
RTVSPost2010Prop37
 90
       50
102
RTVSPost2010PropOp37
 70
     1
102
RTVSPost2010Prop38
140
0.0
102
RTVSPost2010PropOp38
 70
     1
102
RTVSPost2010Prop39
140
1.0
102
RTVSPost2010PropOp39
 70
     1
102
RTVSPost2010Prop40
 90
        0
102
RTVSPost2010PropOp40
 70
     1
102
RTVSPost2010Prop41ColorIndex
 90
       18
102
RTVSPost2010Prop41ColorRGB
 90
        0
102
RTVSPost2010PropOp41
 70
     1
102
RTVSPost2010Prop42
 90
       50
102
RTVSPost2010PropOp42
 70
     1
102
RTVSPost2010Prop43
 90
        3
102
RTVSPost2010PropOp43
 70
     1
102
RTVSPost2010Prop44ColorIndex
 90
        5
102
RTVSPost2010Prop44ColorRGB
 90
      255
102
RTVSPost2010PropOp44
 70
     1
102
RTVSPost2010Prop45
280
     0
102
RTVSPost2010PropOp45
 70
     1
102
RTVSPost2010Prop46
 90
       50
102
RTVSPost2010PropOp46
 70
     1
102
RTVSPost2010Prop47
 90
       50
102
RTVSPost2010PropOp47
 70
     1
102
RTVSPost2010Prop48
 90
       50
102
RTVSPost2010PropOp48
 70
     1
102
RTVSPost2010Prop49
280
     0
102
RTVSPost2010PropOp49
 70
     1
102
RTVSPost2010Prop50
 90
       50
102
RTVSPost2010PropOp50
 70
     1
102
RTVSPost2010Prop51ColorIndex
 90
      256
102
RTVSPost2010Prop51ColorRGB
 90
-16777216
102
RTVSPost2010PropOp51
 70
     0
102
RTVSPost2010Prop52
140
1.0
102
RTVSPost2010PropOp52
 70
     0
102
RTVSPost2010Prop53
 90
        2
102
RTVSPost2010PropOp53
 70
     1
102
RTVSPost2010Prop54
  1
strokes_ogs.tif
102
RTVSPost2010PropOp54
 70
     1
102
RTVSPost2010Prop55
280
     0
102
RTVSPost2010PropOp55
 70
     1
102
RTVSPost2010Prop56
140
1.0
102
RTVSPost2010PropOp56
 70
     1
102
RTVSPost2010Prop57
140
1.0
102
RTVSPost2010PropOp57
 70
     1
102
RTVSPropertyOp0
 70
     1
102
RTVSPropertyOp1
 70
     1
102
RTVSPropertyOp2
 70
     1
102
RTVSPropertyOp3
 70
     1
102
RTVSPropertyOp4
 70
     1
102
RTVSPropertyOp5
 70
     1
102
RTVSPropertyOp6
 70
     1
102
RTVSPropertyOp7
 70
     1
102
RTVSPropertyOp8
 70
     1
102
RTVSPropertyOp9
 70
     1
102
RTVSPropertyOp10
 70
     1
102
RTVSPropertyOp11
 70
     1
102
RTVSPropertyOp12
 70
     1
102
RTVSPropertyOp13
 70
     1
102
RTVSPropertyOp14
 70
     1
102
RTVSPropertyOp15
 70
     1
102
RTVSPropertyOp16
 70
     1
102
RTVSPropertyOp17
 70
     1
102
RTVSPropertyOp18
 70
     1
102
RTVSPropertyOp19
 70
     1
102
RTVSPropertyOp20
 70
     1
102
RTVSPropertyOp21
 70
     1
102
RTVSPropertyOp22
 70
     1
102
RTVSPropertyOp23
 70
     1
102
RTVSPropertyOp24
 70
     1
102
RTVSPropertyOp25
 70
     1
102
RTVSPropertyOp26
 70
     1
102
RTVSPropertyOp27
 70
     1
102
RTVSPropertyOp28
 70
     1
102
RTVSPropertyOp29
 70
     1
102
RTVSPropertyOp30
 70
     1
102
RTVSPropertyOp31
 70
     1
102
RTVSPropertyOp32
 70
     1
102
RTVSPropertyOp33
 70
     1
102
RTVSPropertyOp34
 70
     1
102
RTVSPropertyOp35
 70
     1
102
RTVSPropertyOp36
 70
     1
102
RTVSPropertyOp37
 70
     1
102
RTVSPropertyOp38
 70
     1
102
RTVSPropertyOp39
 70
     1
102
RTVSPropertyOp40
 70
     1
102
RTVSPropertyOp41
 70
     1
102
RTVSPropertyOp42
 70
     1
102
RTVSPropertyOp43
 70
     1
102
RTVSPropertyOp44
 70
     1
102
RTVSPropertyOp45
 70
     1
102
RTVSPropertyOp46
 70
     1
102
RTVSPropertyOp47
 70
     1
102
RTVSPropertyOp48
 70
     1
102
RTVSPropertyOp49
 70
     1
102
RTVSPropertyOp50
 70
     1
102
RTVSPropertyOp51
 70
     0
102
RTVSPropertyOp52
 70
     0
102
RTVSPropertyOp53
 70
     1
102
RTVSPropertyOp54
 70
     1
102
RTVSPropertyOp55
 70
     1
102
RTVSPropertyOp56
 70
     1
102
RTVSPropertyOp57
 70
     1
102
RTVSPropertyOp58
 70
     1
102
RTVSPropertyOp59
 70
     1
102
RTVSPropertyOp60
 70
     1
102
RTVSPropertyOp61
 70
     1
102
RTVSPropertyOp62
 70
     1
  0
XRECORD
  5
83E2
102
{ACAD_REACTORS
330
83E1
102
}
330
83E1
100
AcDbXrecord
280
     1
102
RTVSPost2010Prop28
280
     0
102
RTVSPost2010PropOp28
 70
     1
102
RTVSPost2010Prop29
280
     1
102
RTVSPost2010PropOp29
 70
     1
102
RTVSPost2010Prop30
280
     1
102
RTVSPost2010PropOp30
 70
     1
102
RTVSPost2010Prop31
280
     0
102
RTVSPost2010PropOp31
 70
     1
102
RTVSPost2010Prop32
280
     0
102
RTVSPost2010PropOp32
 70
     1
102
RTVSPost2010Prop33
280
     0
102
RTVSPost2010PropOp33
 70
     1
102
RTVSPost2010Prop34
280
     0
102
RTVSPost2010PropOp34
 70
     1
102
RTVSPost2010Prop35
280
     0
102
RTVSPost2010PropOp35
 70
     1
102
RTVSPost2010Prop36
280
     0
102
RTVSPost2010PropOp36
 70
     1
102
RTVSPost2010Prop37
 90
       50
102
RTVSPost2010PropOp37
 70
     0
102
RTVSPost2010Prop38
140
0.0
102
RTVSPost2010PropOp38
 70
     0
102
RTVSPost2010Prop39
140
1.0
102
RTVSPost2010PropOp39
 70
     0
102
RTVSPost2010Prop40
 90
        0
102
RTVSPost2010PropOp40
 70
     0
102
RTVSPost2010Prop41ColorIndex
 90
       18
102
RTVSPost2010Prop41ColorRGB
 90
        0
102
RTVSPost2010PropOp41
 70
     0
102
RTVSPost2010Prop42
 90
       50
102
RTVSPost2010PropOp42
 70
     0
102
RTVSPost2010Prop43
 90
        3
102
RTVSPost2010PropOp43
 70
     0
102
RTVSPost2010Prop44ColorIndex
 90
        5
102
RTVSPost2010Prop44ColorRGB
 90
      255
102
RTVSPost2010PropOp44
 70
     0
102
RTVSPost2010Prop45
280
     0
102
RTVSPost2010PropOp45
 70
     1
102
RTVSPost2010Prop46
 90
       50
102
RTVSPost2010PropOp46
 70
     0
102
RTVSPost2010Prop47
 90
       50
102
RTVSPost2010PropOp47
 70
     0
102
RTVSPost2010Prop48
 90
       50
102
RTVSPost2010PropOp48
 70
     0
102
RTVSPost2010Prop49
280
     0
102
RTVSPost2010PropOp49
 70
     1
102
RTVSPost2010Prop50
 90
       50
102
RTVSPost2010PropOp50
 70
     0
102
RTVSPost2010Prop51ColorIndex
 90
      256
102
RTVSPost2010Prop51ColorRGB
 90
-16777216
102
RTVSPost2010PropOp51
 70
     0
102
RTVSPost2010Prop52
140
1.0
102
RTVSPost2010PropOp52
 70
     0
102
RTVSPost2010Prop53
 90
        2
102
RTVSPost2010PropOp53
 70
     0
102
RTVSPost2010Prop54
  1
strokes_ogs.tif
102
RTVSPost2010PropOp54
 70
     0
102
RTVSPost2010Prop55
280
     0
102
RTVSPost2010PropOp55
 70
     1
102
RTVSPost2010Prop56
140
1.0
102
RTVSPost2010PropOp56
 70
     0
102
RTVSPost2010Prop57
140
1.0
102
RTVSPost2010PropOp57
 70
     0
102
RTVSPropertyOp0
 70
     0
102
RTVSPropertyOp1
 70
     0
102
RTVSPropertyOp2
 70
     0
102
RTVSPropertyOp3
 70
     0
102
RTVSPropertyOp4
 70
     0
102
RTVSPropertyOp5
 70
     0
102
RTVSPropertyOp6
 70
     0
102
RTVSPropertyOp7
 70
     0
102
RTVSPropertyOp8
 70
     0
102
RTVSPropertyOp9
 70
     0
102
RTVSPropertyOp10
 70
     0
102
RTVSPropertyOp11
 70
     0
102
RTVSPropertyOp12
 70
     0
102
RTVSPropertyOp13
 70
     0
102
RTVSPropertyOp14
 70
     2
102
RTVSPropertyOp15
 70
     0
102
RTVSPropertyOp16
 70
     0
102
RTVSPropertyOp17
 70
     0
102
RTVSPropertyOp18
 70
     0
102
RTVSPropertyOp19
 70
     0
102
RTVSPropertyOp20
 70
     0
102
RTVSPropertyOp21
 70
     0
102
RTVSPropertyOp22
 70
     0
102
RTVSPropertyOp23
 70
     0
102
RTVSPropertyOp24
 70
     0
102
RTVSPropertyOp25
 70
     0
102
RTVSPropertyOp26
 70
     0
102
RTVSPropertyOp27
 70
     0
102
RTVSPropertyOp28
 70
     1
102
RTVSPropertyOp29
 70
     1
102
RTVSPropertyOp30
 70
     1
102
RTVSPropertyOp31
 70
     1
102
RTVSPropertyOp32
 70
     1
102
RTVSPropertyOp33
 70
     1
102
RTVSPropertyOp34
 70
     1
102
RTVSPropertyOp35
 70
     1
102
RTVSPropertyOp36
 70
     1
102
RTVSPropertyOp37
 70
     0
102
RTVSPropertyOp38
 70
     0
102
RTVSPropertyOp39
 70
     0
102
RTVSPropertyOp40
 70
     0
102
RTVSPropertyOp41
 70
     0
102
RTVSPropertyOp42
 70
     0
102
RTVSPropertyOp43
 70
     0
102
RTVSPropertyOp44
 70
     0
102
RTVSPropertyOp45
 70
     1
102
RTVSPropertyOp46
 70
     0
102
RTVSPropertyOp47
 70
     0
102
RTVSPropertyOp48
 70
     0
102
RTVSPropertyOp49
 70
     1
102
RTVSPropertyOp50
 70
     0
102
RTVSPropertyOp51
 70
     0
102
RTVSPropertyOp52
 70
     0
102
RTVSPropertyOp53
 70
     0
102
RTVSPropertyOp54
 70
     0
102
RTVSPropertyOp55
 70
     1
102
RTVSPropertyOp56
 70
     0
102
RTVSPropertyOp57
 70
     0
102
RTVSPropertyOp58
 70
     0
102
RTVSPropertyOp59
 70
     0
102
RTVSPropertyOp60
 70
     0
102
RTVSPropertyOp61
 70
     0
102
RTVSPropertyOp62
 70
     0
  0
XRECORD
  5
83C8
102
{ACAD_REACTORS
330
83C7
102
}
330
83C7
100
AcDbXrecord
280
     1
102
RTVSPost2010Prop28
280
     0
102
RTVSPost2010PropOp28
 70
     1
102
RTVSPost2010Prop29
280
     1
102
RTVSPost2010PropOp29
 70
     1
102
RTVSPost2010Prop30
280
     1
102
RTVSPost2010PropOp30
 70
     1
102
RTVSPost2010Prop31
280
     0
102
RTVSPost2010PropOp31
 70
     1
102
RTVSPost2010Prop32
280
     0
102
RTVSPost2010PropOp32
 70
     1
102
RTVSPost2010Prop33
280
     0
102
RTVSPost2010PropOp33
 70
     1
102
RTVSPost2010Prop34
280
     0
102
RTVSPost2010PropOp34
 70
     1
102
RTVSPost2010Prop35
280
     0
102
RTVSPost2010PropOp35
 70
     1
102
RTVSPost2010Prop36
280
     0
102
RTVSPost2010PropOp36
 70
     1
102
RTVSPost2010Prop37
 90
       50
102
RTVSPost2010PropOp37
 70
     1
102
RTVSPost2010Prop38
140
0.0
102
RTVSPost2010PropOp38
 70
     1
102
RTVSPost2010Prop39
140
1.0
102
RTVSPost2010PropOp39
 70
     1
102
RTVSPost2010Prop40
 90
        0
102
RTVSPost2010PropOp40
 70
     1
102
RTVSPost2010Prop41ColorIndex
 90
       18
102
RTVSPost2010Prop41ColorRGB
 90
        0
102
RTVSPost2010PropOp41
 70
     1
102
RTVSPost2010Prop42
 90
       50
102
RTVSPost2010PropOp42
 70
     1
102
RTVSPost2010Prop43
 90
        3
102
RTVSPost2010PropOp43
 70
     1
102
RTVSPost2010Prop44ColorIndex
 90
        5
102
RTVSPost2010Prop44ColorRGB
 90
      255
102
RTVSPost2010PropOp44
 70
     1
102
RTVSPost2010Prop45
280
     0
102
RTVSPost2010PropOp45
 70
     1
102
RTVSPost2010Prop46
 90
       50
102
RTVSPost2010PropOp46
 70
     1
102
RTVSPost2010Prop47
 90
       50
102
RTVSPost2010PropOp47
 70
     1
102
RTVSPost2010Prop48
 90
       50
102
RTVSPost2010PropOp48
 70
     1
102
RTVSPost2010Prop49
280
     0
102
RTVSPost2010PropOp49
 70
     1
102
RTVSPost2010Prop50
 90
       50
102
RTVSPost2010PropOp50
 70
     1
102
RTVSPost2010Prop51ColorIndex
 90
      256
102
RTVSPost2010Prop51ColorRGB
 90
-16777216
102
RTVSPost2010PropOp51
 70
     0
102
RTVSPost2010Prop52
140
1.0
102
RTVSPost2010PropOp52
 70
     0
102
RTVSPost2010Prop53
 90
        2
102
RTVSPost2010PropOp53
 70
     1
102
RTVSPost2010Prop54
  1
strokes_ogs.tif
102
RTVSPost2010PropOp54
 70
     1
102
RTVSPost2010Prop55
280
     0
102
RTVSPost2010PropOp55
 70
     1
102
RTVSPost2010Prop56
140
1.0
102
RTVSPost2010PropOp56
 70
     1
102
RTVSPost2010Prop57
140
1.0
102
RTVSPost2010PropOp57
 70
     1
102
RTVSPropertyOp0
 70
     1
102
RTVSPropertyOp1
 70
     1
102
RTVSPropertyOp2
 70
     1
102
RTVSPropertyOp3
 70
     1
102
RTVSPropertyOp4
 70
     1
102
RTVSPropertyOp5
 70
     1
102
RTVSPropertyOp6
 70
     1
102
RTVSPropertyOp7
 70
     1
102
RTVSPropertyOp8
 70
     1
102
RTVSPropertyOp9
 70
     1
102
RTVSPropertyOp10
 70
     1
102
RTVSPropertyOp11
 70
     1
102
RTVSPropertyOp12
 70
     1
102
RTVSPropertyOp13
 70
     1
102
RTVSPropertyOp14
 70
     1
102
RTVSPropertyOp15
 70
     1
102
RTVSPropertyOp16
 70
     1
102
RTVSPropertyOp17
 70
     1
102
RTVSPropertyOp18
 70
     1
102
RTVSPropertyOp19
 70
     1
102
RTVSPropertyOp20
 70
     1
102
RTVSPropertyOp21
 70
     1
102
RTVSPropertyOp22
 70
     1
102
RTVSPropertyOp23
 70
     1
102
RTVSPropertyOp24
 70
     1
102
RTVSPropertyOp25
 70
     1
102
RTVSPropertyOp26
 70
     1
102
RTVSPropertyOp27
 70
     1
102
RTVSPropertyOp28
 70
     1
102
RTVSPropertyOp29
 70
     1
102
RTVSPropertyOp30
 70
     1
102
RTVSPropertyOp31
 70
     1
102
RTVSPropertyOp32
 70
     1
102
RTVSPropertyOp33
 70
     1
102
RTVSPropertyOp34
 70
     1
102
RTVSPropertyOp35
 70
     1
102
RTVSPropertyOp36
 70
     1
102
RTVSPropertyOp37
 70
     1
102
RTVSPropertyOp38
 70
     1
102
RTVSPropertyOp39
 70
     1
102
RTVSPropertyOp40
 70
     1
102
RTVSPropertyOp41
 70
     1
102
RTVSPropertyOp42
 70
     1
102
RTVSPropertyOp43
 70
     1
102
RTVSPropertyOp44
 70
     1
102
RTVSPropertyOp45
 70
     1
102
RTVSPropertyOp46
 70
     1
102
RTVSPropertyOp47
 70
     1
102
RTVSPropertyOp48
 70
     1
102
RTVSPropertyOp49
 70
     1
102
RTVSPropertyOp50
 70
     1
102
RTVSPropertyOp51
 70
     0
102
RTVSPropertyOp52
 70
     0
102
RTVSPropertyOp53
 70
     1
102
RTVSPropertyOp54
 70
     1
102
RTVSPropertyOp55
 70
     1
102
RTVSPropertyOp56
 70
     1
102
RTVSPropertyOp57
 70
     1
102
RTVSPropertyOp58
 70
     1
102
RTVSPropertyOp59
 70
     1
102
RTVSPropertyOp60
 70
     1
102
RTVSPropertyOp61
 70
     1
102
RTVSPropertyOp62
 70
     1
  0
XRECORD
  5
83DE
102
{ACAD_REACTORS
330
83DD
102
}
330
83DD
100
AcDbXrecord
280
     1
102
RTVSPost2010Prop28
280
     0
102
RTVSPost2010PropOp28
 70
     1
102
RTVSPost2010Prop29
280
     1
102
RTVSPost2010PropOp29
 70
     1
102
RTVSPost2010Prop30
280
     1
102
RTVSPost2010PropOp30
 70
     1
102
RTVSPost2010Prop31
280
     0
102
RTVSPost2010PropOp31
 70
     1
102
RTVSPost2010Prop32
280
     0
102
RTVSPost2010PropOp32
 70
     1
102
RTVSPost2010Prop33
280
     0
102
RTVSPost2010PropOp33
 70
     1
102
RTVSPost2010Prop34
280
     0
102
RTVSPost2010PropOp34
 70
     1
102
RTVSPost2010Prop35
280
     0
102
RTVSPost2010PropOp35
 70
     1
102
RTVSPost2010Prop36
280
     0
102
RTVSPost2010PropOp36
 70
     1
102
RTVSPost2010Prop37
 90
       50
102
RTVSPost2010PropOp37
 70
     1
102
RTVSPost2010Prop38
140
0.0
102
RTVSPost2010PropOp38
 70
     1
102
RTVSPost2010Prop39
140
1.0
102
RTVSPost2010PropOp39
 70
     1
102
RTVSPost2010Prop40
 90
        0
102
RTVSPost2010PropOp40
 70
     1
102
RTVSPost2010Prop41ColorIndex
 90
       18
102
RTVSPost2010Prop41ColorRGB
 90
        0
102
RTVSPost2010PropOp41
 70
     1
102
RTVSPost2010Prop42
 90
       50
102
RTVSPost2010PropOp42
 70
     1
102
RTVSPost2010Prop43
 90
        3
102
RTVSPost2010PropOp43
 70
     1
102
RTVSPost2010Prop44ColorIndex
 90
        5
102
RTVSPost2010Prop44ColorRGB
 90
      255
102
RTVSPost2010PropOp44
 70
     1
102
RTVSPost2010Prop45
280
     0
102
RTVSPost2010PropOp45
 70
     1
102
RTVSPost2010Prop46
 90
       50
102
RTVSPost2010PropOp46
 70
     1
102
RTVSPost2010Prop47
 90
       50
102
RTVSPost2010PropOp47
 70
     1
102
RTVSPost2010Prop48
 90
       50
102
RTVSPost2010PropOp48
 70
     1
102
RTVSPost2010Prop49
280
     0
102
RTVSPost2010PropOp49
 70
     1
102
RTVSPost2010Prop50
 90
       50
102
RTVSPost2010PropOp50
 70
     1
102
RTVSPost2010Prop51ColorIndex
 90
      256
102
RTVSPost2010Prop51ColorRGB
 90
-16777216
102
RTVSPost2010PropOp51
 70
     0
102
RTVSPost2010Prop52
140
1.0
102
RTVSPost2010PropOp52
 70
     0
102
RTVSPost2010Prop53
 90
        2
102
RTVSPost2010PropOp53
 70
     1
102
RTVSPost2010Prop54
  1
strokes_ogs.tif
102
RTVSPost2010PropOp54
 70
     1
102
RTVSPost2010Prop55
280
     0
102
RTVSPost2010PropOp55
 70
     1
102
RTVSPost2010Prop56
140
1.0
102
RTVSPost2010PropOp56
 70
     1
102
RTVSPost2010Prop57
140
1.0
102
RTVSPost2010PropOp57
 70
     1
102
RTVSPropertyOp0
 70
     1
102
RTVSPropertyOp1
 70
     1
102
RTVSPropertyOp2
 70
     1
102
RTVSPropertyOp3
 70
     1
102
RTVSPropertyOp4
 70
     1
102
RTVSPropertyOp5
 70
     1
102
RTVSPropertyOp6
 70
     1
102
RTVSPropertyOp7
 70
     1
102
RTVSPropertyOp8
 70
     1
102
RTVSPropertyOp9
 70
     1
102
RTVSPropertyOp10
 70
     1
102
RTVSPropertyOp11
 70
     1
102
RTVSPropertyOp12
 70
     1
102
RTVSPropertyOp13
 70
     1
102
RTVSPropertyOp14
 70
     1
102
RTVSPropertyOp15
 70
     1
102
RTVSPropertyOp16
 70
     1
102
RTVSPropertyOp17
 70
     1
102
RTVSPropertyOp18
 70
     1
102
RTVSPropertyOp19
 70
     1
102
RTVSPropertyOp20
 70
     1
102
RTVSPropertyOp21
 70
     1
102
RTVSPropertyOp22
 70
     1
102
RTVSPropertyOp23
 70
     1
102
RTVSPropertyOp24
 70
     1
102
RTVSPropertyOp25
 70
     1
102
RTVSPropertyOp26
 70
     1
102
RTVSPropertyOp27
 70
     1
102
RTVSPropertyOp28
 70
     1
102
RTVSPropertyOp29
 70
     1
102
RTVSPropertyOp30
 70
     1
102
RTVSPropertyOp31
 70
     1
102
RTVSPropertyOp32
 70
     1
102
RTVSPropertyOp33
 70
     1
102
RTVSPropertyOp34
 70
     1
102
RTVSPropertyOp35
 70
     1
102
RTVSPropertyOp36
 70
     1
102
RTVSPropertyOp37
 70
     1
102
RTVSPropertyOp38
 70
     1
102
RTVSPropertyOp39
 70
     1
102
RTVSPropertyOp40
 70
     1
102
RTVSPropertyOp41
 70
     1
102
RTVSPropertyOp42
 70
     1
102
RTVSPropertyOp43
 70
     1
102
RTVSPropertyOp44
 70
     1
102
RTVSPropertyOp45
 70
     1
102
RTVSPropertyOp46
 70
     1
102
RTVSPropertyOp47
 70
     1
102
RTVSPropertyOp48
 70
     1
102
RTVSPropertyOp49
 70
     1
102
RTVSPropertyOp50
 70
     1
102
RTVSPropertyOp51
 70
     0
102
RTVSPropertyOp52
 70
     0
102
RTVSPropertyOp53
 70
     1
102
RTVSPropertyOp54
 70
     1
102
RTVSPropertyOp55
 70
     1
102
RTVSPropertyOp56
 70
     1
102
RTVSPropertyOp57
 70
     1
102
RTVSPropertyOp58
 70
     1
102
RTVSPropertyOp59
 70
     1
102
RTVSPropertyOp60
 70
     1
102
RTVSPropertyOp61
 70
     1
102
RTVSPropertyOp62
 70
     1
  0
XRECORD
  5
83DC
102
{ACAD_REACTORS
330
83DB
102
}
330
83DB
100
AcDbXrecord
280
     1
102
RTVSPost2010Prop28
280
     0
102
RTVSPost2010PropOp28
 70
     1
102
RTVSPost2010Prop29
280
     1
102
RTVSPost2010PropOp29
 70
     1
102
RTVSPost2010Prop30
280
     1
102
RTVSPost2010PropOp30
 70
     1
102
RTVSPost2010Prop31
280
     0
102
RTVSPost2010PropOp31
 70
     1
102
RTVSPost2010Prop32
280
     0
102
RTVSPost2010PropOp32
 70
     1
102
RTVSPost2010Prop33
280
     0
102
RTVSPost2010PropOp33
 70
     1
102
RTVSPost2010Prop34
280
     0
102
RTVSPost2010PropOp34
 70
     1
102
RTVSPost2010Prop35
280
     0
102
RTVSPost2010PropOp35
 70
     1
102
RTVSPost2010Prop36
280
     0
102
RTVSPost2010PropOp36
 70
     1
102
RTVSPost2010Prop37
 90
       50
102
RTVSPost2010PropOp37
 70
     1
102
RTVSPost2010Prop38
140
0.0
102
RTVSPost2010PropOp38
 70
     1
102
RTVSPost2010Prop39
140
1.0
102
RTVSPost2010PropOp39
 70
     1
102
RTVSPost2010Prop40
 90
        0
102
RTVSPost2010PropOp40
 70
     1
102
RTVSPost2010Prop41ColorIndex
 90
       18
102
RTVSPost2010Prop41ColorRGB
 90
        0
102
RTVSPost2010PropOp41
 70
     1
102
RTVSPost2010Prop42
 90
       50
102
RTVSPost2010PropOp42
 70
     1
102
RTVSPost2010Prop43
 90
        3
102
RTVSPost2010PropOp43
 70
     1
102
RTVSPost2010Prop44ColorIndex
 90
        5
102
RTVSPost2010Prop44ColorRGB
 90
      255
102
RTVSPost2010PropOp44
 70
     1
102
RTVSPost2010Prop45
280
     0
102
RTVSPost2010PropOp45
 70
     1
102
RTVSPost2010Prop46
 90
       50
102
RTVSPost2010PropOp46
 70
     1
102
RTVSPost2010Prop47
 90
       50
102
RTVSPost2010PropOp47
 70
     1
102
RTVSPost2010Prop48
 90
       50
102
RTVSPost2010PropOp48
 70
     1
102
RTVSPost2010Prop49
280
     0
102
RTVSPost2010PropOp49
 70
     1
102
RTVSPost2010Prop50
 90
       50
102
RTVSPost2010PropOp50
 70
     1
102
RTVSPost2010Prop51ColorIndex
 90
      256
102
RTVSPost2010Prop51ColorRGB
 90
-16777216
102
RTVSPost2010PropOp51
 70
     0
102
RTVSPost2010Prop52
140
1.0
102
RTVSPost2010PropOp52
 70
     0
102
RTVSPost2010Prop53
 90
        2
102
RTVSPost2010PropOp53
 70
     1
102
RTVSPost2010Prop54
  1
strokes_ogs.tif
102
RTVSPost2010PropOp54
 70
     1
102
RTVSPost2010Prop55
280
     0
102
RTVSPost2010PropOp55
 70
     1
102
RTVSPost2010Prop56
140
1.0
102
RTVSPost2010PropOp56
 70
     1
102
RTVSPost2010Prop57
140
1.0
102
RTVSPost2010PropOp57
 70
     1
102
RTVSPropertyOp0
 70
     1
102
RTVSPropertyOp1
 70
     1
102
RTVSPropertyOp2
 70
     1
102
RTVSPropertyOp3
 70
     1
102
RTVSPropertyOp4
 70
     1
102
RTVSPropertyOp5
 70
     1
102
RTVSPropertyOp6
 70
     1
102
RTVSPropertyOp7
 70
     1
102
RTVSPropertyOp8
 70
     1
102
RTVSPropertyOp9
 70
     1
102
RTVSPropertyOp10
 70
     1
102
RTVSPropertyOp11
 70
     1
102
RTVSPropertyOp12
 70
     1
102
RTVSPropertyOp13
 70
     1
102
RTVSPropertyOp14
 70
     1
102
RTVSPropertyOp15
 70
     1
102
RTVSPropertyOp16
 70
     1
102
RTVSPropertyOp17
 70
     1
102
RTVSPropertyOp18
 70
     1
102
RTVSPropertyOp19
 70
     1
102
RTVSPropertyOp20
 70
     1
102
RTVSPropertyOp21
 70
     1
102
RTVSPropertyOp22
 70
     1
102
RTVSPropertyOp23
 70
     1
102
RTVSPropertyOp24
 70
     1
102
RTVSPropertyOp25
 70
     1
102
RTVSPropertyOp26
 70
     1
102
RTVSPropertyOp27
 70
     1
102
RTVSPropertyOp28
 70
     1
102
RTVSPropertyOp29
 70
     1
102
RTVSPropertyOp30
 70
     1
102
RTVSPropertyOp31
 70
     1
102
RTVSPropertyOp32
 70
     1
102
RTVSPropertyOp33
 70
     1
102
RTVSPropertyOp34
 70
     1
102
RTVSPropertyOp35
 70
     1
102
RTVSPropertyOp36
 70
     1
102
RTVSPropertyOp37
 70
     1
102
RTVSPropertyOp38
 70
     1
102
RTVSPropertyOp39
 70
     1
102
RTVSPropertyOp40
 70
     1
102
RTVSPropertyOp41
 70
     1
102
RTVSPropertyOp42
 70
     1
102
RTVSPropertyOp43
 70
     1
102
RTVSPropertyOp44
 70
     1
102
RTVSPropertyOp45
 70
     1
102
RTVSPropertyOp46
 70
     1
102
RTVSPropertyOp47
 70
     1
102
RTVSPropertyOp48
 70
     1
102
RTVSPropertyOp49
 70
     1
102
RTVSPropertyOp50
 70
     1
102
RTVSPropertyOp51
 70
     0
102
RTVSPropertyOp52
 70
     0
102
RTVSPropertyOp53
 70
     1
102
RTVSPropertyOp54
 70
     1
102
RTVSPropertyOp55
 70
     1
102
RTVSPropertyOp56
 70
     1
102
RTVSPropertyOp57
 70
     1
102
RTVSPropertyOp58
 70
     1
102
RTVSPropertyOp59
 70
     1
102
RTVSPropertyOp60
 70
     1
102
RTVSPropertyOp61
 70
     1
102
RTVSPropertyOp62
 70
     1
  0
XRECORD
  5
83D6
102
{ACAD_REACTORS
330
83D5
102
}
330
83D5
100
AcDbXrecord
280
     1
102
RTVSPost2010Prop28
280
     0
102
RTVSPost2010PropOp28
 70
     1
102
RTVSPost2010Prop29
280
     1
102
RTVSPost2010PropOp29
 70
     1
102
RTVSPost2010Prop30
280
     1
102
RTVSPost2010PropOp30
 70
     1
102
RTVSPost2010Prop31
280
     0
102
RTVSPost2010PropOp31
 70
     1
102
RTVSPost2010Prop32
280
     0
102
RTVSPost2010PropOp32
 70
     1
102
RTVSPost2010Prop33
280
     0
102
RTVSPost2010PropOp33
 70
     1
102
RTVSPost2010Prop34
280
     0
102
RTVSPost2010PropOp34
 70
     1
102
RTVSPost2010Prop35
280
     0
102
RTVSPost2010PropOp35
 70
     1
102
RTVSPost2010Prop36
280
     0
102
RTVSPost2010PropOp36
 70
     1
102
RTVSPost2010Prop37
 90
       50
102
RTVSPost2010PropOp37
 70
     1
102
RTVSPost2010Prop38
140
0.0
102
RTVSPost2010PropOp38
 70
     1
102
RTVSPost2010Prop39
140
1.0
102
RTVSPost2010PropOp39
 70
     1
102
RTVSPost2010Prop40
 90
        0
102
RTVSPost2010PropOp40
 70
     1
102
RTVSPost2010Prop41ColorIndex
 90
       18
102
RTVSPost2010Prop41ColorRGB
 90
        0
102
RTVSPost2010PropOp41
 70
     1
102
RTVSPost2010Prop42
 90
       50
102
RTVSPost2010PropOp42
 70
     1
102
RTVSPost2010Prop43
 90
        3
102
RTVSPost2010PropOp43
 70
     1
102
RTVSPost2010Prop44ColorIndex
 90
        5
102
RTVSPost2010Prop44ColorRGB
 90
      255
102
RTVSPost2010PropOp44
 70
     1
102
RTVSPost2010Prop45
280
     0
102
RTVSPost2010PropOp45
 70
     1
102
RTVSPost2010Prop46
 90
       50
102
RTVSPost2010PropOp46
 70
     1
102
RTVSPost2010Prop47
 90
       50
102
RTVSPost2010PropOp47
 70
     1
102
RTVSPost2010Prop48
 90
       50
102
RTVSPost2010PropOp48
 70
     1
102
RTVSPost2010Prop49
280
     0
102
RTVSPost2010PropOp49
 70
     1
102
RTVSPost2010Prop50
 90
       50
102
RTVSPost2010PropOp50
 70
     1
102
RTVSPost2010Prop51ColorIndex
 90
      256
102
RTVSPost2010Prop51ColorRGB
 90
-16777216
102
RTVSPost2010PropOp51
 70
     0
102
RTVSPost2010Prop52
140
1.0
102
RTVSPost2010PropOp52
 70
     0
102
RTVSPost2010Prop53
 90
        2
102
RTVSPost2010PropOp53
 70
     1
102
RTVSPost2010Prop54
  1
strokes_ogs.tif
102
RTVSPost2010PropOp54
 70
     1
102
RTVSPost2010Prop55
280
     0
102
RTVSPost2010PropOp55
 70
     1
102
RTVSPost2010Prop56
140
1.0
102
RTVSPost2010PropOp56
 70
     1
102
RTVSPost2010Prop57
140
1.0
102
RTVSPost2010PropOp57
 70
     1
102
RTVSPropertyOp0
 70
     1
102
RTVSPropertyOp1
 70
     1
102
RTVSPropertyOp2
 70
     1
102
RTVSPropertyOp3
 70
     1
102
RTVSPropertyOp4
 70
     1
102
RTVSPropertyOp5
 70
     1
102
RTVSPropertyOp6
 70
     1
102
RTVSPropertyOp7
 70
     1
102
RTVSPropertyOp8
 70
     1
102
RTVSPropertyOp9
 70
     1
102
RTVSPropertyOp10
 70
     1
102
RTVSPropertyOp11
 70
     1
102
RTVSPropertyOp12
 70
     1
102
RTVSPropertyOp13
 70
     1
102
RTVSPropertyOp14
 70
     1
102
RTVSPropertyOp15
 70
     1
102
RTVSPropertyOp16
 70
     1
102
RTVSPropertyOp17
 70
     1
102
RTVSPropertyOp18
 70
     1
102
RTVSPropertyOp19
 70
     1
102
RTVSPropertyOp20
 70
     1
102
RTVSPropertyOp21
 70
     1
102
RTVSPropertyOp22
 70
     1
102
RTVSPropertyOp23
 70
     1
102
RTVSPropertyOp24
 70
     1
102
RTVSPropertyOp25
 70
     1
102
RTVSPropertyOp26
 70
     1
102
RTVSPropertyOp27
 70
     1
102
RTVSPropertyOp28
 70
     1
102
RTVSPropertyOp29
 70
     1
102
RTVSPropertyOp30
 70
     1
102
RTVSPropertyOp31
 70
     1
102
RTVSPropertyOp32
 70
     1
102
RTVSPropertyOp33
 70
     1
102
RTVSPropertyOp34
 70
     1
102
RTVSPropertyOp35
 70
     1
102
RTVSPropertyOp36
 70
     1
102
RTVSPropertyOp37
 70
     1
102
RTVSPropertyOp38
 70
     1
102
RTVSPropertyOp39
 70
     1
102
RTVSPropertyOp40
 70
     1
102
RTVSPropertyOp41
 70
     1
102
RTVSPropertyOp42
 70
     1
102
RTVSPropertyOp43
 70
     1
102
RTVSPropertyOp44
 70
     1
102
RTVSPropertyOp45
 70
     1
102
RTVSPropertyOp46
 70
     1
102
RTVSPropertyOp47
 70
     1
102
RTVSPropertyOp48
 70
     1
102
RTVSPropertyOp49
 70
     1
102
RTVSPropertyOp50
 70
     1
102
RTVSPropertyOp51
 70
     0
102
RTVSPropertyOp52
 70
     0
102
RTVSPropertyOp53
 70
     1
102
RTVSPropertyOp54
 70
     1
102
RTVSPropertyOp55
 70
     1
102
RTVSPropertyOp56
 70
     1
102
RTVSPropertyOp57
 70
     1
102
RTVSPropertyOp58
 70
     1
102
RTVSPropertyOp59
 70
     1
102
RTVSPropertyOp60
 70
     1
102
RTVSPropertyOp61
 70
     1
102
RTVSPropertyOp62
 70
     1
  0
XRECORD
  5
83D8
102
{ACAD_REACTORS
330
83D7
102
}
330
83D7
100
AcDbXrecord
280
     1
102
RTVSPost2010Prop28
280
     0
102
RTVSPost2010PropOp28
 70
     1
102
RTVSPost2010Prop29
280
     1
102
RTVSPost2010PropOp29
 70
     1
102
RTVSPost2010Prop30
280
     1
102
RTVSPost2010PropOp30
 70
     1
102
RTVSPost2010Prop31
280
     0
102
RTVSPost2010PropOp31
 70
     1
102
RTVSPost2010Prop32
280
     0
102
RTVSPost2010PropOp32
 70
     1
102
RTVSPost2010Prop33
280
     0
102
RTVSPost2010PropOp33
 70
     1
102
RTVSPost2010Prop34
280
     0
102
RTVSPost2010PropOp34
 70
     1
102
RTVSPost2010Prop35
280
     0
102
RTVSPost2010PropOp35
 70
     1
102
RTVSPost2010Prop36
280
     0
102
RTVSPost2010PropOp36
 70
     1
102
RTVSPost2010Prop37
 90
       50
102
RTVSPost2010PropOp37
 70
     1
102
RTVSPost2010Prop38
140
0.0
102
RTVSPost2010PropOp38
 70
     1
102
RTVSPost2010Prop39
140
1.0
102
RTVSPost2010PropOp39
 70
     1
102
RTVSPost2010Prop40
 90
        0
102
RTVSPost2010PropOp40
 70
     1
102
RTVSPost2010Prop41ColorIndex
 90
       18
102
RTVSPost2010Prop41ColorRGB
 90
        0
102
RTVSPost2010PropOp41
 70
     1
102
RTVSPost2010Prop42
 90
       50
102
RTVSPost2010PropOp42
 70
     1
102
RTVSPost2010Prop43
 90
        3
102
RTVSPost2010PropOp43
 70
     1
102
RTVSPost2010Prop44ColorIndex
 90
        5
102
RTVSPost2010Prop44ColorRGB
 90
      255
102
RTVSPost2010PropOp44
 70
     1
102
RTVSPost2010Prop45
280
     0
102
RTVSPost2010PropOp45
 70
     1
102
RTVSPost2010Prop46
 90
       50
102
RTVSPost2010PropOp46
 70
     1
102
RTVSPost2010Prop47
 90
       50
102
RTVSPost2010PropOp47
 70
     1
102
RTVSPost2010Prop48
 90
       50
102
RTVSPost2010PropOp48
 70
     1
102
RTVSPost2010Prop49
280
     0
102
RTVSPost2010PropOp49
 70
     1
102
RTVSPost2010Prop50
 90
       50
102
RTVSPost2010PropOp50
 70
     1
102
RTVSPost2010Prop51ColorIndex
 90
      256
102
RTVSPost2010Prop51ColorRGB
 90
-16777216
102
RTVSPost2010PropOp51
 70
     0
102
RTVSPost2010Prop52
140
1.0
102
RTVSPost2010PropOp52
 70
     0
102
RTVSPost2010Prop53
 90
        2
102
RTVSPost2010PropOp53
 70
     1
102
RTVSPost2010Prop54
  1
strokes_ogs.tif
102
RTVSPost2010PropOp54
 70
     1
102
RTVSPost2010Prop55
280
     0
102
RTVSPost2010PropOp55
 70
     1
102
RTVSPost2010Prop56
140
1.0
102
RTVSPost2010PropOp56
 70
     1
102
RTVSPost2010Prop57
140
1.0
102
RTVSPost2010PropOp57
 70
     1
102
RTVSPropertyOp0
 70
     1
102
RTVSPropertyOp1
 70
     1
102
RTVSPropertyOp2
 70
     1
102
RTVSPropertyOp3
 70
     1
102
RTVSPropertyOp4
 70
     1
102
RTVSPropertyOp5
 70
     1
102
RTVSPropertyOp6
 70
     1
102
RTVSPropertyOp7
 70
     1
102
RTVSPropertyOp8
 70
     1
102
RTVSPropertyOp9
 70
     1
102
RTVSPropertyOp10
 70
     1
102
RTVSPropertyOp11
 70
     1
102
RTVSPropertyOp12
 70
     1
102
RTVSPropertyOp13
 70
     1
102
RTVSPropertyOp14
 70
     1
102
RTVSPropertyOp15
 70
     1
102
RTVSPropertyOp16
 70
     1
102
RTVSPropertyOp17
 70
     1
102
RTVSPropertyOp18
 70
     1
102
RTVSPropertyOp19
 70
     1
102
RTVSPropertyOp20
 70
     1
102
RTVSPropertyOp21
 70
     1
102
RTVSPropertyOp22
 70
     1
102
RTVSPropertyOp23
 70
     1
102
RTVSPropertyOp24
 70
     1
102
RTVSPropertyOp25
 70
     1
102
RTVSPropertyOp26
 70
     1
102
RTVSPropertyOp27
 70
     1
102
RTVSPropertyOp28
 70
     1
102
RTVSPropertyOp29
 70
     1
102
RTVSPropertyOp30
 70
     1
102
RTVSPropertyOp31
 70
     1
102
RTVSPropertyOp32
 70
     1
102
RTVSPropertyOp33
 70
     1
102
RTVSPropertyOp34
 70
     1
102
RTVSPropertyOp35
 70
     1
102
RTVSPropertyOp36
 70
     1
102
RTVSPropertyOp37
 70
     1
102
RTVSPropertyOp38
 70
     1
102
RTVSPropertyOp39
 70
     1
102
RTVSPropertyOp40
 70
     1
102
RTVSPropertyOp41
 70
     1
102
RTVSPropertyOp42
 70
     1
102
RTVSPropertyOp43
 70
     1
102
RTVSPropertyOp44
 70
     1
102
RTVSPropertyOp45
 70
     1
102
RTVSPropertyOp46
 70
     1
102
RTVSPropertyOp47
 70
     1
102
RTVSPropertyOp48
 70
     1
102
RTVSPropertyOp49
 70
     1
102
RTVSPropertyOp50
 70
     1
102
RTVSPropertyOp51
 70
     0
102
RTVSPropertyOp52
 70
     0
102
RTVSPropertyOp53
 70
     1
102
RTVSPropertyOp54
 70
     1
102
RTVSPropertyOp55
 70
     1
102
RTVSPropertyOp56
 70
     1
102
RTVSPropertyOp57
 70
     1
102
RTVSPropertyOp58
 70
     1
102
RTVSPropertyOp59
 70
     1
102
RTVSPropertyOp60
 70
     1
102
RTVSPropertyOp61
 70
     1
102
RTVSPropertyOp62
 70
     1
  0
XRECORD
  5
83CE
102
{ACAD_REACTORS
330
83CD
102
}
330
83CD
100
AcDbXrecord
280
     1
102
RTVSPost2010Prop28
280
     0
102
RTVSPost2010PropOp28
 70
     1
102
RTVSPost2010Prop29
280
     1
102
RTVSPost2010PropOp29
 70
     1
102
RTVSPost2010Prop30
280
     1
102
RTVSPost2010PropOp30
 70
     1
102
RTVSPost2010Prop31
280
     0
102
RTVSPost2010PropOp31
 70
     1
102
RTVSPost2010Prop32
280
     0
102
RTVSPost2010PropOp32
 70
     1
102
RTVSPost2010Prop33
280
     0
102
RTVSPost2010PropOp33
 70
     1
102
RTVSPost2010Prop34
280
     0
102
RTVSPost2010PropOp34
 70
     1
102
RTVSPost2010Prop35
280
     0
102
RTVSPost2010PropOp35
 70
     1
102
RTVSPost2010Prop36
280
     0
102
RTVSPost2010PropOp36
 70
     1
102
RTVSPost2010Prop37
 90
       50
102
RTVSPost2010PropOp37
 70
     1
102
RTVSPost2010Prop38
140
0.0
102
RTVSPost2010PropOp38
 70
     1
102
RTVSPost2010Prop39
140
1.0
102
RTVSPost2010PropOp39
 70
     1
102
RTVSPost2010Prop40
 90
        0
102
RTVSPost2010PropOp40
 70
     1
102
RTVSPost2010Prop41ColorIndex
 90
       18
102
RTVSPost2010Prop41ColorRGB
 90
        0
102
RTVSPost2010PropOp41
 70
     1
102
RTVSPost2010Prop42
 90
       50
102
RTVSPost2010PropOp42
 70
     1
102
RTVSPost2010Prop43
 90
        3
102
RTVSPost2010PropOp43
 70
     1
102
RTVSPost2010Prop44ColorIndex
 90
        5
102
RTVSPost2010Prop44ColorRGB
 90
      255
102
RTVSPost2010PropOp44
 70
     1
102
RTVSPost2010Prop45
280
     0
102
RTVSPost2010PropOp45
 70
     1
102
RTVSPost2010Prop46
 90
       50
102
RTVSPost2010PropOp46
 70
     1
102
RTVSPost2010Prop47
 90
       50
102
RTVSPost2010PropOp47
 70
     1
102
RTVSPost2010Prop48
 90
       50
102
RTVSPost2010PropOp48
 70
     1
102
RTVSPost2010Prop49
280
     0
102
RTVSPost2010PropOp49
 70
     1
102
RTVSPost2010Prop50
 90
       50
102
RTVSPost2010PropOp50
 70
     1
102
RTVSPost2010Prop51ColorIndex
 90
      256
102
RTVSPost2010Prop51ColorRGB
 90
-16777216
102
RTVSPost2010PropOp51
 70
     0
102
RTVSPost2010Prop52
140
1.0
102
RTVSPost2010PropOp52
 70
     0
102
RTVSPost2010Prop53
 90
        2
102
RTVSPost2010PropOp53
 70
     1
102
RTVSPost2010Prop54
  1
strokes_ogs.tif
102
RTVSPost2010PropOp54
 70
     1
102
RTVSPost2010Prop55
280
     0
102
RTVSPost2010PropOp55
 70
     1
102
RTVSPost2010Prop56
140
1.0
102
RTVSPost2010PropOp56
 70
     1
102
RTVSPost2010Prop57
140
1.0
102
RTVSPost2010PropOp57
 70
     1
102
RTVSPropertyOp0
 70
     1
102
RTVSPropertyOp1
 70
     1
102
RTVSPropertyOp2
 70
     1
102
RTVSPropertyOp3
 70
     1
102
RTVSPropertyOp4
 70
     1
102
RTVSPropertyOp5
 70
     1
102
RTVSPropertyOp6
 70
     1
102
RTVSPropertyOp7
 70
     1
102
RTVSPropertyOp8
 70
     1
102
RTVSPropertyOp9
 70
     1
102
RTVSPropertyOp10
 70
     1
102
RTVSPropertyOp11
 70
     1
102
RTVSPropertyOp12
 70
     1
102
RTVSPropertyOp13
 70
     1
102
RTVSPropertyOp14
 70
     1
102
RTVSPropertyOp15
 70
     1
102
RTVSPropertyOp16
 70
     1
102
RTVSPropertyOp17
 70
     1
102
RTVSPropertyOp18
 70
     1
102
RTVSPropertyOp19
 70
     1
102
RTVSPropertyOp20
 70
     1
102
RTVSPropertyOp21
 70
     1
102
RTVSPropertyOp22
 70
     1
102
RTVSPropertyOp23
 70
     1
102
RTVSPropertyOp24
 70
     1
102
RTVSPropertyOp25
 70
     1
102
RTVSPropertyOp26
 70
     1
102
RTVSPropertyOp27
 70
     1
102
RTVSPropertyOp28
 70
     1
102
RTVSPropertyOp29
 70
     1
102
RTVSPropertyOp30
 70
     1
102
RTVSPropertyOp31
 70
     1
102
RTVSPropertyOp32
 70
     1
102
RTVSPropertyOp33
 70
     1
102
RTVSPropertyOp34
 70
     1
102
RTVSPropertyOp35
 70
     1
102
RTVSPropertyOp36
 70
     1
102
RTVSPropertyOp37
 70
     1
102
RTVSPropertyOp38
 70
     1
102
RTVSPropertyOp39
 70
     1
102
RTVSPropertyOp40
 70
     1
102
RTVSPropertyOp41
 70
     1
102
RTVSPropertyOp42
 70
     1
102
RTVSPropertyOp43
 70
     1
102
RTVSPropertyOp44
 70
     1
102
RTVSPropertyOp45
 70
     1
102
RTVSPropertyOp46
 70
     1
102
RTVSPropertyOp47
 70
     1
102
RTVSPropertyOp48
 70
     1
102
RTVSPropertyOp49
 70
     1
102
RTVSPropertyOp50
 70
     1
102
RTVSPropertyOp51
 70
     0
102
RTVSPropertyOp52
 70
     0
102
RTVSPropertyOp53
 70
     1
102
RTVSPropertyOp54
 70
     1
102
RTVSPropertyOp55
 70
     1
102
RTVSPropertyOp56
 70
     1
102
RTVSPropertyOp57
 70
     1
102
RTVSPropertyOp58
 70
     1
102
RTVSPropertyOp59
 70
     1
102
RTVSPropertyOp60
 70
     1
102
RTVSPropertyOp61
 70
     1
102
RTVSPropertyOp62
 70
     1
  0
XRECORD
  5
83C2
102
{ACAD_REACTORS
330
83C1
102
}
330
83C1
100
AcDbXrecord
280
     1
102
RTVSPost2010Prop28
280
     0
102
RTVSPost2010PropOp28
 70
     1
102
RTVSPost2010Prop29
280
     1
102
RTVSPost2010PropOp29
 70
     1
102
RTVSPost2010Prop30
280
     1
102
RTVSPost2010PropOp30
 70
     1
102
RTVSPost2010Prop31
280
     0
102
RTVSPost2010PropOp31
 70
     1
102
RTVSPost2010Prop32
280
     0
102
RTVSPost2010PropOp32
 70
     1
102
RTVSPost2010Prop33
280
     0
102
RTVSPost2010PropOp33
 70
     1
102
RTVSPost2010Prop34
280
     0
102
RTVSPost2010PropOp34
 70
     1
102
RTVSPost2010Prop35
280
     0
102
RTVSPost2010PropOp35
 70
     1
102
RTVSPost2010Prop36
280
     0
102
RTVSPost2010PropOp36
 70
     1
102
RTVSPost2010Prop37
 90
       50
102
RTVSPost2010PropOp37
 70
     1
102
RTVSPost2010Prop38
140
0.0
102
RTVSPost2010PropOp38
 70
     1
102
RTVSPost2010Prop39
140
1.0
102
RTVSPost2010PropOp39
 70
     1
102
RTVSPost2010Prop40
 90
        0
102
RTVSPost2010PropOp40
 70
     1
102
RTVSPost2010Prop41ColorIndex
 90
       18
102
RTVSPost2010Prop41ColorRGB
 90
        0
102
RTVSPost2010PropOp41
 70
     1
102
RTVSPost2010Prop42
 90
       50
102
RTVSPost2010PropOp42
 70
     1
102
RTVSPost2010Prop43
 90
        3
102
RTVSPost2010PropOp43
 70
     1
102
RTVSPost2010Prop44ColorIndex
 90
        5
102
RTVSPost2010Prop44ColorRGB
 90
      255
102
RTVSPost2010PropOp44
 70
     1
102
RTVSPost2010Prop45
280
     0
102
RTVSPost2010PropOp45
 70
     1
102
RTVSPost2010Prop46
 90
       50
102
RTVSPost2010PropOp46
 70
     1
102
RTVSPost2010Prop47
 90
       50
102
RTVSPost2010PropOp47
 70
     1
102
RTVSPost2010Prop48
 90
       50
102
RTVSPost2010PropOp48
 70
     1
102
RTVSPost2010Prop49
280
     0
102
RTVSPost2010PropOp49
 70
     1
102
RTVSPost2010Prop50
 90
       50
102
RTVSPost2010PropOp50
 70
     1
102
RTVSPost2010Prop51ColorIndex
 90
      256
102
RTVSPost2010Prop51ColorRGB
 90
-16777216
102
RTVSPost2010PropOp51
 70
     0
102
RTVSPost2010Prop52
140
1.0
102
RTVSPost2010PropOp52
 70
     0
102
RTVSPost2010Prop53
 90
        2
102
RTVSPost2010PropOp53
 70
     1
102
RTVSPost2010Prop54
  1
strokes_ogs.tif
102
RTVSPost2010PropOp54
 70
     1
102
RTVSPost2010Prop55
280
     0
102
RTVSPost2010PropOp55
 70
     1
102
RTVSPost2010Prop56
140
1.0
102
RTVSPost2010PropOp56
 70
     1
102
RTVSPost2010Prop57
140
1.0
102
RTVSPost2010PropOp57
 70
     1
102
RTVSPropertyOp0
 70
     1
102
RTVSPropertyOp1
 70
     1
102
RTVSPropertyOp2
 70
     1
102
RTVSPropertyOp3
 70
     1
102
RTVSPropertyOp4
 70
     1
102
RTVSPropertyOp5
 70
     1
102
RTVSPropertyOp6
 70
     1
102
RTVSPropertyOp7
 70
     1
102
RTVSPropertyOp8
 70
     1
102
RTVSPropertyOp9
 70
     1
102
RTVSPropertyOp10
 70
     1
102
RTVSPropertyOp11
 70
     1
102
RTVSPropertyOp12
 70
     1
102
RTVSPropertyOp13
 70
     1
102
RTVSPropertyOp14
 70
     1
102
RTVSPropertyOp15
 70
     1
102
RTVSPropertyOp16
 70
     1
102
RTVSPropertyOp17
 70
     1
102
RTVSPropertyOp18
 70
     1
102
RTVSPropertyOp19
 70
     1
102
RTVSPropertyOp20
 70
     1
102
RTVSPropertyOp21
 70
     1
102
RTVSPropertyOp22
 70
     1
102
RTVSPropertyOp23
 70
     1
102
RTVSPropertyOp24
 70
     1
102
RTVSPropertyOp25
 70
     1
102
RTVSPropertyOp26
 70
     1
102
RTVSPropertyOp27
 70
     1
102
RTVSPropertyOp28
 70
     1
102
RTVSPropertyOp29
 70
     1
102
RTVSPropertyOp30
 70
     1
102
RTVSPropertyOp31
 70
     1
102
RTVSPropertyOp32
 70
     1
102
RTVSPropertyOp33
 70
     1
102
RTVSPropertyOp34
 70
     1
102
RTVSPropertyOp35
 70
     1
102
RTVSPropertyOp36
 70
     1
102
RTVSPropertyOp37
 70
     1
102
RTVSPropertyOp38
 70
     1
102
RTVSPropertyOp39
 70
     1
102
RTVSPropertyOp40
 70
     1
102
RTVSPropertyOp41
 70
     1
102
RTVSPropertyOp42
 70
     1
102
RTVSPropertyOp43
 70
     1
102
RTVSPropertyOp44
 70
     1
102
RTVSPropertyOp45
 70
     1
102
RTVSPropertyOp46
 70
     1
102
RTVSPropertyOp47
 70
     1
102
RTVSPropertyOp48
 70
     1
102
RTVSPropertyOp49
 70
     1
102
RTVSPropertyOp50
 70
     1
102
RTVSPropertyOp51
 70
     0
102
RTVSPropertyOp52
 70
     0
102
RTVSPropertyOp53
 70
     1
102
RTVSPropertyOp54
 70
     1
102
RTVSPropertyOp55
 70
     1
102
RTVSPropertyOp56
 70
     1
102
RTVSPropertyOp57
 70
     1
102
RTVSPropertyOp58
 70
     1
102
RTVSPropertyOp59
 70
     1
102
RTVSPropertyOp60
 70
     1
102
RTVSPropertyOp61
 70
     1
102
RTVSPropertyOp62
 70
     1
  0
XRECORD
  5
83DA
102
{ACAD_REACTORS
330
83D9
102
}
330
83D9
100
AcDbXrecord
280
     1
102
RTVSPost2010Prop28
280
     0
102
RTVSPost2010PropOp28
 70
     1
102
RTVSPost2010Prop29
280
     1
102
RTVSPost2010PropOp29
 70
     1
102
RTVSPost2010Prop30
280
     1
102
RTVSPost2010PropOp30
 70
     1
102
RTVSPost2010Prop31
280
     0
102
RTVSPost2010PropOp31
 70
     1
102
RTVSPost2010Prop32
280
     0
102
RTVSPost2010PropOp32
 70
     1
102
RTVSPost2010Prop33
280
     0
102
RTVSPost2010PropOp33
 70
     1
102
RTVSPost2010Prop34
280
     0
102
RTVSPost2010PropOp34
 70
     1
102
RTVSPost2010Prop35
280
     0
102
RTVSPost2010PropOp35
 70
     1
102
RTVSPost2010Prop36
280
     0
102
RTVSPost2010PropOp36
 70
     1
102
RTVSPost2010Prop37
 90
       50
102
RTVSPost2010PropOp37
 70
     1
102
RTVSPost2010Prop38
140
0.0
102
RTVSPost2010PropOp38
 70
     1
102
RTVSPost2010Prop39
140
1.0
102
RTVSPost2010PropOp39
 70
     1
102
RTVSPost2010Prop40
 90
        0
102
RTVSPost2010PropOp40
 70
     1
102
RTVSPost2010Prop41ColorIndex
 90
       18
102
RTVSPost2010Prop41ColorRGB
 90
        0
102
RTVSPost2010PropOp41
 70
     1
102
RTVSPost2010Prop42
 90
       50
102
RTVSPost2010PropOp42
 70
     1
102
RTVSPost2010Prop43
 90
        3
102
RTVSPost2010PropOp43
 70
     1
102
RTVSPost2010Prop44ColorIndex
 90
        5
102
RTVSPost2010Prop44ColorRGB
 90
      255
102
RTVSPost2010PropOp44
 70
     1
102
RTVSPost2010Prop45
280
     0
102
RTVSPost2010PropOp45
 70
     1
102
RTVSPost2010Prop46
 90
       50
102
RTVSPost2010PropOp46
 70
     1
102
RTVSPost2010Prop47
 90
       50
102
RTVSPost2010PropOp47
 70
     1
102
RTVSPost2010Prop48
 90
       50
102
RTVSPost2010PropOp48
 70
     1
102
RTVSPost2010Prop49
280
     0
102
RTVSPost2010PropOp49
 70
     1
102
RTVSPost2010Prop50
 90
       50
102
RTVSPost2010PropOp50
 70
     1
102
RTVSPost2010Prop51ColorIndex
 90
      256
102
RTVSPost2010Prop51ColorRGB
 90
-16777216
102
RTVSPost2010PropOp51
 70
     0
102
RTVSPost2010Prop52
140
1.0
102
RTVSPost2010PropOp52
 70
     0
102
RTVSPost2010Prop53
 90
        2
102
RTVSPost2010PropOp53
 70
     1
102
RTVSPost2010Prop54
  1
strokes_ogs.tif
102
RTVSPost2010PropOp54
 70
     1
102
RTVSPost2010Prop55
280
     0
102
RTVSPost2010PropOp55
 70
     1
102
RTVSPost2010Prop56
140
1.0
102
RTVSPost2010PropOp56
 70
     1
102
RTVSPost2010Prop57
140
1.0
102
RTVSPost2010PropOp57
 70
     1
102
RTVSPropertyOp0
 70
     1
102
RTVSPropertyOp1
 70
     1
102
RTVSPropertyOp2
 70
     1
102
RTVSPropertyOp3
 70
     1
102
RTVSPropertyOp4
 70
     1
102
RTVSPropertyOp5
 70
     1
102
RTVSPropertyOp6
 70
     1
102
RTVSPropertyOp7
 70
     1
102
RTVSPropertyOp8
 70
     1
102
RTVSPropertyOp9
 70
     1
102
RTVSPropertyOp10
 70
     1
102
RTVSPropertyOp11
 70
     1
102
RTVSPropertyOp12
 70
     1
102
RTVSPropertyOp13
 70
     1
102
RTVSPropertyOp14
 70
     1
102
RTVSPropertyOp15
 70
     1
102
RTVSPropertyOp16
 70
     1
102
RTVSPropertyOp17
 70
     1
102
RTVSPropertyOp18
 70
     1
102
RTVSPropertyOp19
 70
     1
102
RTVSPropertyOp20
 70
     1
102
RTVSPropertyOp21
 70
     1
102
RTVSPropertyOp22
 70
     1
102
RTVSPropertyOp23
 70
     1
102
RTVSPropertyOp24
 70
     1
102
RTVSPropertyOp25
 70
     1
102
RTVSPropertyOp26
 70
     1
102
RTVSPropertyOp27
 70
     1
102
RTVSPropertyOp28
 70
     1
102
RTVSPropertyOp29
 70
     1
102
RTVSPropertyOp30
 70
     1
102
RTVSPropertyOp31
 70
     1
102
RTVSPropertyOp32
 70
     1
102
RTVSPropertyOp33
 70
     1
102
RTVSPropertyOp34
 70
     1
102
RTVSPropertyOp35
 70
     1
102
RTVSPropertyOp36
 70
     1
102
RTVSPropertyOp37
 70
     1
102
RTVSPropertyOp38
 70
     1
102
RTVSPropertyOp39
 70
     1
102
RTVSPropertyOp40
 70
     1
102
RTVSPropertyOp41
 70
     1
102
RTVSPropertyOp42
 70
     1
102
RTVSPropertyOp43
 70
     1
102
RTVSPropertyOp44
 70
     1
102
RTVSPropertyOp45
 70
     1
102
RTVSPropertyOp46
 70
     1
102
RTVSPropertyOp47
 70
     1
102
RTVSPropertyOp48
 70
     1
102
RTVSPropertyOp49
 70
     1
102
RTVSPropertyOp50
 70
     1
102
RTVSPropertyOp51
 70
     0
102
RTVSPropertyOp52
 70
     0
102
RTVSPropertyOp53
 70
     1
102
RTVSPropertyOp54
 70
     1
102
RTVSPropertyOp55
 70
     1
102
RTVSPropertyOp56
 70
     1
102
RTVSPropertyOp57
 70
     1
102
RTVSPropertyOp58
 70
     1
102
RTVSPropertyOp59
 70
     1
102
RTVSPropertyOp60
 70
     1
102
RTVSPropertyOp61
 70
     1
102
RTVSPropertyOp62
 70
     1
  0
ENDSEC
  0
EOF
