  0
SECTION
  2
HEADER
  9
$ACADVER
  1
AC1009
  9
$INSBASE
 10
0.0
 20
0.0
 30
0.0
  9
$EXTMIN
 10
1000.0
 20
1200.0
 30
0.0
  9
$EXTMAX
 10
7400.0
 20
11146.609046
 30
0.0
  9
$LIMMIN
 10
0.0
 20
0.0
  9
$LIMMAX
 10
297.0
 20
210.0
  9
$ORTHOMODE
 70
     0
  9
$REGENMODE
 70
     1
  9
$FILLMODE
 70
     0
  9
$QTEXTMODE
 70
     0
  9
$MIRRTEXT
 70
     1
  9
$DRAGMODE
 70
     2
  9
$LTSCALE
 40
100.0
  9
$OSMODE
 70
    37
  9
$ATTMODE
 70
     1
  9
$TEXTSIZE
 40
180.0
  9
$TRACEWID
 40
0.05
  9
$TEXTSTYLE
  7
STANDARD
  9
$CLAYER
  8
3
  9
$CELTYPE
  6
BYLAYER
  9
$CECOLOR
 62
   256
  9
$DIMSCALE
 40
40.0
  9
$DIMASZ
 40
2.0
  9
$DIMEXO
 40
0.5
  9
$DIMDLI
 40
10.0
  9
$DIMRND
 40
0.0
  9
$DIMDLE
 40
0.0
  9
$DIMEXE
 40
1.0
  9
$DIMTP
 40
1.0
  9
$DIMTM
 40
1.0
  9
$DIMTXT
 40
3.0
  9
$DIMCEN
 40
0.0
  9
$DIMTSZ
 40
0.0
  9
$DIMTOL
 70
     0
  9
$DIMLIM
 70
     0
  9
$DIMTIH
 70
     0
  9
$DIMTOH
 70
     0
  9
$DIMSE1
 70
     0
  9
$DIMSE2
 70
     0
  9
$DIMTAD
 70
     1
  9
$DIMZIN
 70
     8
  9
$DIMBLK
  1

  9
$DIMASO
 70
     1
  9
$DIMSHO
 70
     1
  9
$DIMPOST
  1
(<>)
  9
$DIMAPOST
  1

  9
$DIMALT
 70
     0
  9
$DIMALTD
 70
     2
  9
$DIMALTF
 40
0.039
  9
$DIMLFAC
 40
1.0
  9
$DIMTOFL
 70
     1
  9
$DIMTVP
 40
0.0
  9
$DIMTIX
 70
     0
  9
$DIMSOXD
 70
     0
  9
$DIMSAH
 70
     1
  9
$DIMBLK1
  1
DOT
  9
$DIMBLK2
  1
OPEN
  9
$DIMSTYLE
  2
IGA
  9
$DIMCLRD
 70
     0
  9
$DIMCLRE
 70
     0
  9
$DIMCLRT
 70
     0
  9
$DIMTFAC
 40
10.0
  9
$DIMGAP
 40
1.0
  9
$LUNITS
 70
     2
  9
$LUPREC
 70
     3
  9
$SKETCHINC
 40
0.1
  9
$FILLETRAD
 40
50.0
  9
$AUNITS
 70
     0
  9
$AUPREC
 70
     0
  9
$MENU
  1
acad
  9
$ELEVATION
 40
0.0
  9
$PELEVATION
 40
0.0
  9
$THICKNESS
 40
0.0
  9
$LIMCHECK
 70
     0
  9
$BLIPMODE
 70
     0
  9
$CHAMFERA
 40
0.5
  9
$CHAMFERB
 40
0.5
  9
$SKPOLY
 70
     0
  9
$TDCREATE
 40
2450752.6442950228
  9
$TDUPDATE
 40
2454953.7785492591
  9
$TDINDWG
 40
0.0120373264
  9
$TDUSRTIMER
 40
0.0120373264
  9
$USRTIMER
 70
     1
  9
$ANGBASE
 50
0.0
  9
$ANGDIR
 70
     0
  9
$PDMODE
 70
     0
  9
$PDSIZE
 40
0.0
  9
$PLINEWID
 40
0.0
  9
$COORDS
 70
     1
  9
$SPLFRAME
 70
     0
  9
$SPLINETYPE
 70
     6
  9
$SPLINESEGS
 70
     8
  9
$ATTDIA
 70
     0
  9
$ATTREQ
 70
     1
  9
$HANDLING
 70
 10241
  9
$HANDSEED
  5
8277
  9
$SURFTAB1
 70
     6
  9
$SURFTAB2
 70
     6
  9
$SURFTYPE
 70
     6
  9
$SURFU
 70
     6
  9
$SURFV
 70
     6
  9
$UCSNAME
  2

  9
$UCSORG
 10
0.0
 20
0.0
 30
0.0
  9
$UCSXDIR
 10
1.0
 20
0.0
 30
0.0
  9
$UCSYDIR
 10
0.0
 20
1.0
 30
0.0
  9
$PUCSNAME
  2

  9
$PUCSORG
 10
0.0
 20
0.0
 30
0.0
  9
$PUCSXDIR
 10
1.0
 20
0.0
 30
0.0
  9
$PUCSYDIR
 10
0.0
 20
1.0
 30
0.0
  9
$USERI1
 70
     0
  9
$USERI2
 70
     0
  9
$USERI3
 70
     0
  9
$USERI4
 70
     0
  9
$USERI5
 70
     0
  9
$USERR1
 40
0.0
  9
$USERR2
 40
0.0
  9
$USERR3
 40
0.0
  9
$USERR4
 40
0.0
  9
$USERR5
 40
0.0
  9
$WORLDVIEW
 70
     1
  9
$SHADEDGE
 70
     3
  9
$SHADEDIF
 70
    70
  9
$TILEMODE
 70
     1
  9
$MAXACTVP
 70
    16
  9
$PLIMCHECK
 70
     0
  9
$PEXTMIN
 10
1.0000000000000000E+020
 20
1.0000000000000000E+020
 30
1.0000000000000000E+020
  9
$PEXTMAX
 10
-1.0000000000000000E+020
 20
-1.0000000000000000E+020
 30
-1.0000000000000000E+020
  9
$PLIMMIN
 10
0.0
 20
0.0
  9
$PLIMMAX
 10
12.0
 20
9.0
  9
$UNITMODE
 70
     0
  9
$VISRETAIN
 70
     0
  9
$PLINEGEN
 70
     0
  9
$PSLTSCALE
 70
     1
  0
ENDSEC
  0
SECTION
  2
TABLES
  0
TABLE
  2
VPORT
 70
     2
  0
VPORT
  2
*ACTIVE
 70
     0
 10
0.0
 20
0.0
 11
1.0
 21
1.0
 12
12584.60902327445
 22
6173.4634074048672
 13
0.0
 23
0.0
 14
10.0
 24
10.0
 15
10.0
 25
10.0
 16
0.0
 26
0.0
 36
1.0
 17
0.0
 27
0.0
 37
0.0
 40
10023.29961609002
 41
3.1666666666666661
 42
50.0
 43
0.0
 44
0.0
 50
0.0
 51
0.0
 71
     0
 72
   100
 73
     1
 74
     0
 75
     0
 76
     0
 77
     0
 78
     0
  0
ENDTAB
  0
TABLE
  2
LTYPE
 70
     2
  0
LTYPE
  2
CONTINUOUS
 70
     0
  3
Solid line
 72
    65
 73
     0
 40
0.0
  0
LTYPE
  2
CENTER
 70
     0
  3
____ _ ____ _ ____ _ ____ _ ____ _ ____ _ ____ 
 72
    65
 73
     4
 40
2.0
 49
1.25
 49
-0.25
 49
0.25
 49
-0.25
  0
ENDTAB
  0
TABLE
  2
LAYER
 70
     6
  0
LAYER
  2
0
 70
     0
 62
     7
  6
CONTINUOUS
  0
LAYER
  2
3
 70
     0
 62
     2
  6
CONTINUOUS
  0
LAYER
  2
2
 70
     0
 62
     3
  6
CENTER
  0
LAYER
  2
1
 70
     0
 62
     4
  6
CONTINUOUS
  0
LAYER
  2
4
 70
     0
 62
     7
  6
CONTINUOUS
  0
LAYER
  2
DEFPOINTS
 70
     0
 62
     7
  6
CONTINUOUS
  0
ENDTAB
  0
TABLE
  2
STYLE
 70
     1
  0
STYLE
  2
STANDARD
 70
     0
 40
0.0
 41
1.0
 50
0.0
 71
     0
 42
180.0
  3
simplex.shx
  4
extfont.shx
  0
ENDTAB
  0
TABLE
  2
VIEW
 70
     0
  0
ENDTAB
  0
TABLE
  2
UCS
 70
     0
  0
ENDTAB
  0
TABLE
  2
APPID
 70
     1
  0
APPID
  2
ACAD
 70
     0
  0
ENDTAB
  0
TABLE
  2
DIMSTYLE
 70
     1
  0
DIMSTYLE
  2
IGA
 70
     0
  3

  4

  5

  6
OPEN
  7
OPEN
 40
2.0
 41
2.0
 42
0.5
 43
10.0
 44
1.0
 45
0.0
 46
0.0
 47
1.0
 48
1.0
140
3.0
141
0.0
142
0.0
143
0.03937
144
1.0
145
0.0
146
10.0
147
1.0
 71
     0
 72
     0
 73
     0
 74
     0
 75
     0
 76
     0
 77
     1
 78
     8
170
     0
171
     2
172
     0
173
     1
174
     0
175
     0
176
     0
177
     0
178
     0
  0
ENDTAB
  0
ENDSEC
  0
SECTION
  2
BLOCKS
  0
BLOCK
  8
0
  2
$MODEL_SPACE
 70
     0
 10
0.0
 20
0.0
 30
0.0
  3
$MODEL_SPACE
  1

  0
ENDBLK
  5
1B
  8
0
  0
BLOCK
 67
     1
  8
0
  2
$PAPER_SPACE
 70
     0
 10
0.0
 20
0.0
 30
0.0
  3
$PAPER_SPACE
  1

  0
ENDBLK
  5
18
 67
     1
  8
0
  0
BLOCK
  8
0
  2
_OPEN
 70
     0
 10
0.0
 20
0.0
 30
0.0
  3
_OPEN
  1

  0
LINE
  5
7B21
  8
0
  6
BYBLOCK
 62
     0
 10
-1.0
 20
0.166667
 30
0.0
 11
0.0
 21
0.0
 31
0.0
  0
LINE
  5
7B22
  8
0
  6
BYBLOCK
 62
     0
 10
0.0
 20
0.0
 30
0.0
 11
-1.0
 21
-0.166667
 31
0.0
  0
LINE
  5
7B23
  8
0
  6
BYBLOCK
 62
     0
 10
0.0
 20
0.0
 30
0.0
 11
-1.0
 21
0.0
 31
0.0
  0
ENDBLK
  5
7B24
  8
0
  0
BLOCK
  8
0
  2
*D1
 70
     1
 10
0.0
 20
0.0
 30
0.0
  3
*D1
  1

  0
LINE
  5
81CA
  8
3
  6
CONTINUOUS
 62
     0
 10
3572.8989372782289
 20
4953.4618680000003
 30
0.0
 11
3904.8337692782302
 21
4953.4618680000003
 31
0.0
  0
LINE
  5
81CB
  8
3
  6
CONTINUOUS
 62
     0
 10
3572.8989372782289
 20
3923.4618679999999
 30
0.0
 11
3904.8337692782302
 21
3923.4618679999999
 31
0.0
  0
LINE
  5
81CC
  8
3
  6
CONTINUOUS
 62
     0
 10
3864.8337692782288
 20
4873.4618680000003
 30
0.0
 11
3864.8337692782288
 21
4003.4618679999999
 31
0.0
  0
INSERT
  5
81CD
  8
3
  6
CONTINUOUS
 62
     0
  2
_OPEN
 10
3864.8337692782288
 20
4953.4618680000003
 30
0.0
 41
80.0
 42
80.0
 43
80.0
 50
90.0
  0
INSERT
  5
81CE
  8
3
  6
CONTINUOUS
 62
     0
  2
_OPEN
 10
3864.8337692782288
 20
3923.4618679999999
 30
0.0
 41
80.0
 42
80.0
 43
80.0
 50
270.0
  0
TEXT
  8
3
  40
120
  5
8265
  62
0
  72
0
  71
0
 10
3524.83
 20
4201.78
 30
0.000000
  1
1030
  0
POINT
  5
81D0
  8
DEFPOINTS
  6
CONTINUOUS
 62
     0
 10
3552.8989372782289
 20
4953.4618680000003
 30
0.0
  0
POINT
  5
81D1
  8
DEFPOINTS
  6
CONTINUOUS
 62
     0
 10
3552.8989372782289
 20
3923.4618679999999
 30
0.0
  0
POINT
  5
81D2
  8
DEFPOINTS
  6
CONTINUOUS
 62
     0
 10
3864.8337692782288
 20
3923.4618679999999
 30
0.0
  0
ENDBLK
  5
7B31
  8
0
  0
BLOCK
  8
0
  2
*D2
 70
     1
 10
0.0
 20
0.0
 30
0.0
  3
*D2
  1

  0
LINE
  5
81D3
  8
3
  6
CONTINUOUS
 62
     0
 10
3572.8989372782289
 20
4953.4618680000003
 30
0.0
 11
4156.2318372782292
 21
4953.4618680000003
 31
0.0
  0
LINE
  5
81D4
  8
3
  6
CONTINUOUS
 62
     0
 10
3731.7644402782289
 20
3971.4618679999999
 30
0.0
 11
4156.2318372782292
 21
3971.4618679999999
 31
0.0
  0
LINE
  5
81D5
  8
3
  6
CONTINUOUS
 62
     0
 10
4116.2318372782302
 20
4873.4618680000003
 30
0.0
 11
4116.2318372782302
 21
4051.461867999999
 31
0.0
  0
INSERT
  5
81D6
  8
3
  6
CONTINUOUS
 62
     0
  2
_OPEN
 10
4116.2318372782302
 20
4953.4618680000003
 30
0.0
 41
80.0
 42
80.0
 43
80.0
 50
90.0
  0
INSERT
  5
81D7
  8
3
  6
CONTINUOUS
 62
     0
  2
_OPEN
 10
4116.2318372782302
 20
3971.4618679999999
 30
0.0
 41
80.0
 42
80.0
 43
80.0
 50
270.0
  0
TEXT
  8
3
  40
120
  5
8266
  62
0
  72
0
  71
0
 10
3776.23
 20
4243.65
 30
0.000000
  1
982
  0
POINT
  5
81D9
  8
DEFPOINTS
  6
CONTINUOUS
 62
     0
 10
3552.8989372782289
 20
4953.4618680000003
 30
0.0
  0
POINT
  5
81DA
  8
DEFPOINTS
  6
CONTINUOUS
 62
     0
 10
3711.7644402782289
 20
3971.4618679999999
 30
0.0
  0
POINT
  5
81DB
  8
DEFPOINTS
  6
CONTINUOUS
 62
     0
 10
4116.2318372782302
 20
3971.4618679999999
 30
0.0
  0
ENDBLK
  5
7B3E
  8
0
  0
BLOCK
  8
0
  2
*D3
 70
     1
 10
0.0
 20
0.0
 30
0.0
  3
*D3
  1

  0
LINE
  5
81DC
  8
3
  6
CONTINUOUS
 62
     0
 10
3492.8989372782289
 20
3111.4618679999999
 30
0.0
 11
4156.2318372782292
 21
3111.4618679999999
 31
0.0
  0
LINE
  5
81DD
  8
3
  6
CONTINUOUS
 62
     0
 10
4116.2318372782292
 20
3891.4618679999999
 30
0.0
 11
4116.2318372782292
 21
3191.4618679999999
 31
0.0
  0
INSERT
  5
81DE
  8
3
  6
CONTINUOUS
 62
     0
  2
_OPEN
 10
4116.2318372782292
 20
3971.4618679999999
 30
0.0
 41
80.0
 42
80.0
 43
80.0
 50
90.0
  0
INSERT
  5
81DF
  8
3
  6
CONTINUOUS
 62
     0
  2
_OPEN
 10
4116.2318372782292
 20
3111.4618679999999
 30
0.0
 41
80.0
 42
80.0
 43
80.0
 50
270.0
  0
TEXT
  8
3
  40
120
  5
8267
  62
0
  72
0
  71
0
 10
3776.23
 20
3329.06
 30
0.000000
  1
860
  0
POINT
  5
81E1
  8
DEFPOINTS
  6
CONTINUOUS
 62
     0
 10
3711.7644402782289
 20
3971.4618679999999
 30
0.0
  0
POINT
  5
81E2
  8
DEFPOINTS
  6
CONTINUOUS
 62
     0
 10
3472.8989372782289
 20
3111.4618679999999
 30
0.0
  0
POINT
  5
81E3
  8
DEFPOINTS
  6
CONTINUOUS
 62
     0
 10
4116.2318372782292
 20
3111.4618679999999
 30
0.0
  0
ENDBLK
  5
7B5A
  8
0
  0
BLOCK
  8
0
  2
*D4
 70
     1
 10
0.0
 20
0.0
 30
0.0
  3
*D4
  1

  0
LINE
  5
81E4
  8
3
  6
CONTINUOUS
 62
     0
 10
3552.8989372782289
 20
5023.4618680000003
 30
0.0
 11
3552.8989372782289
 21
5233.0414380000002
 31
0.0
  0
LINE
  5
81E5
  8
3
  6
CONTINUOUS
 62
     0
 10
2822.8989372782289
 20
5144.1893049999999
 30
0.0
 11
2822.8989372782289
 21
5233.0414380000002
 31
0.0
  0
LINE
  5
81E6
  8
3
  6
CONTINUOUS
 62
     0
 10
3472.8989372782289
 20
5193.0414380000002
 30
0.0
 11
2902.8989372782289
 21
5193.0414380000002
 31
0.0
  0
INSERT
  5
81E7
  8
3
  6
CONTINUOUS
 62
     0
  2
_OPEN
 10
3552.8989372782289
 20
5193.0414380000002
 30
0.0
 41
80.0
 42
80.0
 43
80.0
  0
INSERT
  5
81E8
  8
3
  6
CONTINUOUS
 62
     0
  2
_OPEN
 10
2822.8989372782289
 20
5193.0414380000002
 30
0.0
 41
80.0
 42
80.0
 43
80.0
 50
180.0
  0
TEXT
  8
3
  40
120
  5
8268
  62
0
  72
0
  71
0
 10
2946.06
 20
5080.64
 30
0.000000
  1
730
  0
POINT
  5
81EA
  8
DEFPOINTS
  6
CONTINUOUS
 62
     0
 10
3552.8989372782289
 20
5003.4618680000003
 30
0.0
  0
POINT
  5
81EB
  8
DEFPOINTS
  6
CONTINUOUS
 62
     0
 10
2822.8989372782289
 20
5124.1893049999999
 30
0.0
  0
POINT
  5
81EC
  8
DEFPOINTS
  6
CONTINUOUS
 62
     0
 10
2822.8989372782289
 20
5193.0414380000002
 30
0.0
  0
ENDBLK
  5
7B9D
  8
0
  0
BLOCK
  8
0
  2
*D5
 70
     1
 10
0.0
 20
0.0
 30
0.0
  3
*D5
  1

  0
LINE
  5
81ED
  8
3
  6
CONTINUOUS
 62
     0
 10
6048.224702999999
 20
4973.4618680000012
 30
0.0
 11
6048.224702999999
 21
5174.417120000001
 31
0.0
  0
LINE
  5
81EE
  8
3
  6
CONTINUOUS
 62
     0
 10
6798.224702999999
 20
4973.4618680000012
 30
0.0
 11
6798.224702999999
 21
5174.417120000001
 31
0.0
  0
LINE
  5
81EF
  8
3
  6
CONTINUOUS
 62
     0
 10
6128.2247029999999
 20
5134.417120000001
 30
0.0
 11
6718.2247029999999
 21
5134.417120000001
 31
0.0
  0
INSERT
  5
81F0
  8
3
  6
CONTINUOUS
 62
     0
  2
_OPEN
 10
6048.224702999999
 20
5134.417120000001
 30
0.0
 41
80.0
 42
80.0
 43
80.0
 50
180.0
  0
INSERT
  5
81F1
  8
3
  6
CONTINUOUS
 62
     0
  2
_OPEN
 10
6798.224702999999
 20
5134.417120000001
 30
0.0
 41
80.0
 42
80.0
 43
80.0
  0
TEXT
  8
3
  40
120
  5
8269
  62
0
  72
0
  71
0
 10
6197.13
 20
5022.02
 30
0.000000
  1
750
  0
POINT
  5
81F3
  8
DEFPOINTS
  6
CONTINUOUS
 62
     0
 10
6048.224702999999
 20
4953.4618680000003
 30
0.0
  0
POINT
  5
81F4
  8
DEFPOINTS
  6
CONTINUOUS
 62
     0
 10
6798.224702999999
 20
4953.4618680000003
 30
0.0
  0
POINT
  5
81F5
  8
DEFPOINTS
  6
CONTINUOUS
 62
     0
 10
6798.224702999999
 20
5134.417120000001
 30
0.0
  0
ENDBLK
  5
7BB6
  8
0
  0
BLOCK
  8
0
  2
*D6
 70
     1
 10
0.0
 20
0.0
 30
0.0
  3
*D6
  1

  0
LINE
  5
81F6
  8
3
  6
CONTINUOUS
 62
     0
 10
6822.2247029999999
 20
4501.4618680000003
 30
0.0
 11
7181.0482420000008
 21
4501.4618680000003
 31
0.0
  0
LINE
  5
81F7
  8
3
  6
CONTINUOUS
 62
     0
 10
6822.2247029999999
 20
3441.461867999999
 30
0.0
 11
7181.0482420000008
 21
3441.461867999999
 31
0.0
  0
LINE
  5
81F8
  8
3
  6
CONTINUOUS
 62
     0
 10
7141.0482419999998
 20
4421.4618680000003
 30
0.0
 11
7141.0482419999998
 21
3521.4618679999999
 31
0.0
  0
INSERT
  5
81F9
  8
3
  6
CONTINUOUS
 62
     0
  2
_OPEN
 10
7141.0482419999998
 20
4501.4618680000003
 30
0.0
 41
80.0
 42
80.0
 43
80.0
 50
90.0
  0
INSERT
  5
81FA
  8
3
  6
CONTINUOUS
 62
     0
  2
_OPEN
 10
7141.0482419999998
 20
3441.461867999999
 30
0.0
 41
80.0
 42
80.0
 43
80.0
 50
270.0
  0
TEXT
  8
3
  40
120
  5
826A
  62
0
  72
0
  71
0
 10
6801.05
 20
3757.91
 30
0.000000
  1
φ1060
  0
POINT
  5
81FC
  8
DEFPOINTS
  6
CONTINUOUS
 62
     0
 10
6802.2247029999999
 20
4501.4618680000003
 30
0.0
  0
POINT
  5
81FD
  8
DEFPOINTS
  6
CONTINUOUS
 62
     0
 10
6802.2247029999999
 20
3441.461867999999
 30
0.0
  0
POINT
  5
81FE
  8
DEFPOINTS
  6
CONTINUOUS
 62
     0
 10
7141.0482419999998
 20
3441.461867999999
 30
0.0
  0
ENDBLK
  5
7CFE
  8
0
  0
BLOCK
  8
0
  2
*D7
 70
     1
 10
0.0
 20
0.0
 30
0.0
  3
*D7
  1

  0
LINE
  5
81FF
  8
3
  6
CONTINUOUS
 62
     0
 10
1522.8989372782289
 20
8315.6618409999974
 30
0.0
 11
1522.8989372782289
 21
8539.3517240000001
 31
0.0
  0
LINE
  5
8200
  8
3
  6
CONTINUOUS
 62
     0
 10
3472.8989372782289
 20
8315.6618409999974
 30
0.0
 11
3472.8989372782289
 21
8539.3517240000001
 31
0.0
  0
LINE
  5
8201
  8
3
  6
CONTINUOUS
 62
     0
 10
1602.8989372782289
 20
8499.3517240000001
 30
0.0
 11
3392.8989372782289
 21
8499.3517240000001
 31
0.0
  0
INSERT
  5
8202
  8
3
  6
CONTINUOUS
 62
     0
  2
_OPEN
 10
1522.8989372782289
 20
8499.3517240000001
 30
0.0
 41
80.0
 42
80.0
 43
80.0
 50
180.0
  0
INSERT
  5
8203
  8
3
  6
CONTINUOUS
 62
     0
  2
_OPEN
 10
3472.8989372782289
 20
8499.3517240000001
 30
0.0
 41
80.0
 42
80.0
 43
80.0
  0
TEXT
  8
3
  40
120
  5
826B
  62
0
  72
0
  71
0
 10
2182.53
 20
8386.95
 30
0.000000
  1
1950
  0
POINT
  5
8205
  8
DEFPOINTS
  6
CONTINUOUS
 62
     0
 10
1522.8989372782289
 20
8295.6618409999992
 30
0.0
  0
POINT
  5
8206
  8
DEFPOINTS
  6
CONTINUOUS
 62
     0
 10
3472.8989372782289
 20
8295.6618409999992
 30
0.0
  0
POINT
  5
8207
  8
DEFPOINTS
  6
CONTINUOUS
 62
     0
 10
3472.8989372782289
 20
8499.3517240000001
 30
0.0
  0
ENDBLK
  5
7C12
  8
0
  0
BLOCK
  8
0
  2
*D8
 70
     1
 10
0.0
 20
0.0
 30
0.0
  3
*D8
  1

  0
LINE
  5
8208
  8
3
  6
CONTINUOUS
 62
     0
 10
3492.8989372782289
 20
8295.6618409999992
 30
0.0
 11
3942.4637132782309
 21
8295.6618409999992
 31
0.0
  0
LINE
  5
8209
  8
3
  6
CONTINUOUS
 62
     0
 10
3492.8989372782289
 20
7270.6618410000001
 30
0.0
 11
3942.4637132782309
 21
7270.6618410000001
 31
0.0
  0
LINE
  5
820A
  8
3
  6
CONTINUOUS
 62
     0
 10
3902.46371327823
 20
8215.6618409999992
 30
0.0
 11
3902.46371327823
 21
7350.6618410000001
 31
0.0
  0
INSERT
  5
820B
  8
3
  6
CONTINUOUS
 62
     0
  2
_OPEN
 10
3902.46371327823
 20
8295.6618409999992
 30
0.0
 41
80.0
 42
80.0
 43
80.0
 50
90.0
  0
INSERT
  5
820C
  8
3
  6
CONTINUOUS
 62
     0
  2
_OPEN
 10
3902.46371327823
 20
7270.6618410000001
 30
0.0
 41
80.0
 42
80.0
 43
80.0
 50
270.0
  0
TEXT
  8
3
  40
120
  5
826C
  62
0
  72
0
  71
0
 10
3562.46
 20
7601.75
 30
0.000000
  1
1025
  0
POINT
  5
820E
  8
DEFPOINTS
  6
CONTINUOUS
 62
     0
 10
3472.8989372782289
 20
8295.6618409999992
 30
0.0
  0
POINT
  5
820F
  8
DEFPOINTS
  6
CONTINUOUS
 62
     0
 10
3472.8989372782289
 20
7270.6618410000001
 30
0.0
  0
POINT
  5
8210
  8
DEFPOINTS
  6
CONTINUOUS
 62
     0
 10
3902.46371327823
 20
7270.6618410000001
 30
0.0
  0
ENDBLK
  5
7C1F
  8
0
  0
BLOCK
  8
0
  2
*D9
 70
     1
 10
0.0
 20
0.0
 30
0.0
  3
*D9
  1

  0
LINE
  5
8211
  8
3
  6
CONTINUOUS
 62
     0
 10
5763.2247029999999
 20
4556.4618680000003
 30
0.0
 11
5763.2247029999999
 21
5416.2887280000014
 31
0.0
  0
LINE
  5
8212
  8
3
  6
CONTINUOUS
 62
     0
 10
6423.224702999999
 20
5334.8896199999999
 30
0.0
 11
6423.224702999999
 21
5416.2887280000014
 31
0.0
  0
LINE
  5
8213
  8
3
  6
CONTINUOUS
 62
     0
 10
5843.2247029999999
 20
5376.2887280000014
 30
0.0
 11
6343.2247029999999
 21
5376.2887280000014
 31
0.0
  0
INSERT
  5
8214
  8
3
  6
CONTINUOUS
 62
     0
  2
_OPEN
 10
5763.2247029999999
 20
5376.2887280000014
 30
0.0
 41
80.0
 42
80.0
 43
80.0
 50
180.0
  0
INSERT
  5
8215
  8
3
  6
CONTINUOUS
 62
     0
  2
_OPEN
 10
6423.224702999999
 20
5376.2887280000014
 30
0.0
 41
80.0
 42
80.0
 43
80.0
  0
TEXT
  8
3
  40
120
  5
826D
  62
0
  72
0
  71
0
 10
5891.80
 20
5363.89
 30
0.000000
  1
MAX
  0
TEXT
  8
3
  40
120
  5
826E
  62
0
  72
0
  71
0
 10
5891.80
 20
5207.89
 30
0.000000
  1
700
  0
POINT
  5
8217
  8
DEFPOINTS
  6
CONTINUOUS
 62
     0
 10
5763.2247029999999
 20
4536.4618680000003
 30
0.0
  0
POINT
  5
8218
  8
DEFPOINTS
  6
CONTINUOUS
 62
     0
 10
6423.224702999999
 20
5314.8896199999999
 30
0.0
  0
POINT
  5
8219
  8
DEFPOINTS
  6
CONTINUOUS
 62
     0
 10
6423.224702999999
 20
5376.2887280000014
 30
0.0
  0
ENDBLK
  5
7D09
  8
0
  0
BLOCK
  8
0
  2
*D10
 70
     1
 10
0.0
 20
0.0
 30
0.0
  3
*D10
  1

  0
LINE
  5
821A
  8
3
  6
CONTINUOUS
 62
     0
 10
6802.2247029999999
 20
4521.4618680000003
 30
0.0
 11
6802.2247029999999
 21
5416.2887280000014
 31
0.0
  0
LINE
  5
821B
  8
3
  6
CONTINUOUS
 62
     0
 10
6503.224702999999
 20
5376.2887280000014
 30
0.0
 11
6722.2247030000008
 21
5376.2887280000014
 31
0.0
  0
TEXT
  8
3
  40
120
  5
826F
  62
0
  72
0
  71
0
 10
6391.58
 20
5263.89
 30
0.000000
  1
379
  0
INSERT
  5
821D
  8
3
  6
CONTINUOUS
 62
     0
  2
_OPEN
 10
6423.224702999999
 20
5376.2887280000014
 30
0.0
 41
80.0
 42
80.0
 43
80.0
 50
180.0
  0
INSERT
  5
821E
  8
3
  6
CONTINUOUS
 62
     0
  2
_OPEN
 10
6802.2247029999999
 20
5376.2887280000014
 30
0.0
 41
80.0
 42
80.0
 43
80.0
  0
POINT
  5
821F
  8
DEFPOINTS
  6
CONTINUOUS
 62
     0
 10
6423.224702999999
 20
5314.8896199999999
 30
0.0
  0
POINT
  5
8220
  8
DEFPOINTS
  6
CONTINUOUS
 62
     0
 10
6802.2247029999999
 20
4501.4618680000003
 30
0.0
  0
POINT
  5
8221
  8
DEFPOINTS
  6
CONTINUOUS
 62
     0
 10
6802.2247029999999
 20
5376.2887280000014
 30
0.0
  0
ENDBLK
  5
7CB6
  8
0
  0
BLOCK
  8
0
  2
*D11
 70
     1
 10
0.0
 20
0.0
 30
0.0
  3
*D11
  1

  0
LINE
  5
8222
  8
3
  6
CONTINUOUS
 62
     0
 10
1995.262393278229
 20
3991.4618679999999
 30
0.0
 11
1995.262393278229
 21
5233.0414380000002
 31
0.0
  0
LINE
  5
8223
  8
3
  6
CONTINUOUS
 62
     0
 10
2742.8989372782289
 20
5193.0414380000002
 30
0.0
 11
2075.262393278229
 21
5193.0414380000002
 31
0.0
  0
INSERT
  5
8224
  8
3
  6
CONTINUOUS
 62
     0
  2
_OPEN
 10
2822.8989372782289
 20
5193.0414380000002
 30
0.0
 41
80.0
 42
80.0
 43
80.0
  0
INSERT
  5
8225
  8
3
  6
CONTINUOUS
 62
     0
  2
_OPEN
 10
1995.262393278229
 20
5193.0414380000002
 30
0.0
 41
80.0
 42
80.0
 43
80.0
 50
180.0
  0
TEXT
  8
3
  40
120
  5
8270
  62
0
  72
0
  71
0
 10
2169.08
 20
5080.64
 30
0.000000
  1
828
  0
POINT
  5
8227
  8
DEFPOINTS
  6
CONTINUOUS
 62
     0
 10
2822.8989372782289
 20
5124.1893049999999
 30
0.0
  0
POINT
  5
8228
  8
DEFPOINTS
  6
CONTINUOUS
 62
     0
 10
1995.262393278229
 20
3971.4618679999999
 30
0.0
  0
POINT
  5
8229
  8
DEFPOINTS
  6
CONTINUOUS
 62
     0
 10
1995.262393278229
 20
5193.0414380000002
 30
0.0
  0
ENDBLK
  5
7CC6
  8
0
  0
BLOCK
  8
0
  2
*D12
 70
     1
 10
0.0
 20
0.0
 30
0.0
  3
*D12
  1

  0
LINE
  5
822A
  8
3
 62
     0
 10
3552.8989372782289
 20
5023.4618680000003
 30
0.0
 11
3552.8989372782289
 21
5470.4904546227908
 31
0.0
  0
LINE
  5
822B
  8
3
 62
     0
 10
1522.8989372782289
 20
3256.4618679999999
 30
0.0
 11
1522.8989372782289
 21
5470.4904546227908
 31
0.0
  0
LINE
  5
822C
  8
3
 62
     0
 10
3472.8989372782289
 20
5430.4904546227908
 30
0.0
 11
1602.8989372782289
 21
5430.4904546227908
 31
0.0
  0
INSERT
  5
822D
  8
3
 62
     0
  2
_OPEN
 10
3552.8989372782289
 20
5430.4904546227908
 30
0.0
 41
80.0
 42
80.0
 43
80.0
  0
INSERT
  5
822E
  8
3
 62
     0
  2
_OPEN
 10
1522.8989372782289
 20
5430.4904546227908
 30
0.0
 41
80.0
 42
80.0
 43
80.0
 50
180.0
  0
TEXT
  8
3
  40
120
  5
8271
  62
0
  72
0
  71
0
 10
2376.93
 20
5318.09
 30
0.000000
  1
2030
  0
POINT
  5
8230
  8
DEFPOINTS
 62
     0
 10
3552.8989372782289
 20
5003.4618680000003
 30
0.0
  0
POINT
  5
8231
  8
DEFPOINTS
 62
     0
 10
1522.8989372782289
 20
3236.4618679999999
 30
0.0
  0
POINT
  5
8232
  8
DEFPOINTS
 62
     0
 10
1522.8989372782289
 20
5430.4904546227908
 30
0.0
  0
ENDBLK
  5
7D15
  8
0
  0
BLOCK
  8
0
  2
*D13
 70
     1
 10
0.0
 20
0.0
 30
0.0
  3
*D13
  1

  0
LINE
  5
8233
  8
3
 62
     0
 10
1522.8989372782289
 20
2871.4618679999999
 30
0.0
 11
1522.8989372782289
 21
2402.3455061125669
 31
0.0
  0
LINE
  5
8234
  8
3
 62
     0
 10
2822.8989372782289
 20
2871.4618679999999
 30
0.0
 11
2822.8989372782289
 21
2402.3455061125669
 31
0.0
  0
LINE
  5
8235
  8
3
 62
     0
 10
1602.8989372782289
 20
2442.3455061125678
 30
0.0
 11
2742.8989372782289
 21
2442.3455061125678
 31
0.0
  0
INSERT
  5
8236
  8
3
 62
     0
  2
_OPEN
 10
1522.8989372782289
 20
2442.3455061125678
 30
0.0
 41
80.0
 42
80.0
 43
80.0
 50
180.0
  0
INSERT
  5
8237
  8
3
 62
     0
  2
_OPEN
 10
2822.8989372782289
 20
2442.3455061125678
 30
0.0
 41
80.0
 42
80.0
 43
80.0
  0
TEXT
  8
3
  40
120
  5
8272
  62
0
  72
0
  71
0
 10
1932.90
 20
2329.95
 30
0.000000
  1
1300
  0
POINT
  5
8239
  8
DEFPOINTS
 62
     0
 10
1522.8989372782289
 20
2891.4618679999999
 30
0.0
  0
POINT
  5
823A
  8
DEFPOINTS
 62
     0
 10
2822.8989372782289
 20
2891.4618679999999
 30
0.0
  0
POINT
  5
823B
  8
DEFPOINTS
 62
     0
 10
2822.8989372782289
 20
2442.3455061125678
 30
0.0
  0
ENDBLK
  5
7D2A
  8
0
  0
BLOCK
  8
0
  2
*D14
 70
     1
 10
0.0
 20
0.0
 30
0.0
  3
*D14
  1

  0
LINE
  5
823C
  8
3
 62
     0
 10
2822.8989372782289
 20
2871.4618679999999
 30
0.0
 11
2822.8989372782289
 21
2402.3455061125669
 31
0.0
  0
LINE
  5
823D
  8
3
 62
     0
 10
3472.8989372782289
 20
2871.4618679999999
 30
0.0
 11
3472.8989372782289
 21
2402.3455061125669
 31
0.0
  0
LINE
  5
823E
  8
3
 62
     0
 10
2902.8989372782289
 20
2442.3455061125678
 30
0.0
 11
3392.8989372782289
 21
2442.3455061125678
 31
0.0
  0
INSERT
  5
823F
  8
3
 62
     0
  2
_OPEN
 10
2822.8989372782289
 20
2442.3455061125678
 30
0.0
 41
80.0
 42
80.0
 43
80.0
 50
180.0
  0
INSERT
  5
8240
  8
3
 62
     0
  2
_OPEN
 10
3472.8989372782289
 20
2442.3455061125678
 30
0.0
 41
80.0
 42
80.0
 43
80.0
  0
TEXT
  8
3
  40
120
  5
8273
  62
0
  72
0
  71
0
 10
2907.90
 20
2329.95
 30
0.000000
  1
650
  0
POINT
  5
8242
  8
DEFPOINTS
 62
     0
 10
2822.8989372782289
 20
2891.4618679999999
 30
0.0
  0
POINT
  5
8243
  8
DEFPOINTS
 62
     0
 10
3472.8989372782289
 20
2891.4618679999999
 30
0.0
  0
POINT
  5
8244
  8
DEFPOINTS
 62
     0
 10
3472.8989372782289
 20
2442.3455061125678
 30
0.0
  0
ENDBLK
  5
7D37
  8
0
  0
BLOCK
  8
0
  2
*D15
 70
     1
 10
0.0
 20
0.0
 30
0.0
  3
*D15
  1

  0
LINE
  5
8245
  8
3
 62
     0
 10
6423.224702999999
 20
2871.4618679999999
 30
0.0
 11
6423.224702999999
 21
2465.8190394604708
 31
0.0
  0
LINE
  5
8246
  8
3
 62
     0
 10
6864.7247029999999
 20
2871.4618679999999
 30
0.0
 11
6864.7247029999999
 21
2465.8190394604708
 31
0.0
  0
LINE
  5
8247
  8
3
 62
     0
 10
6503.224702999999
 20
2505.8190394604721
 30
0.0
 11
6784.7247030000008
 21
2505.8190394604721
 31
0.0
  0
INSERT
  5
8248
  8
3
 62
     0
  2
_OPEN
 10
6423.224702999999
 20
2505.8190394604721
 30
0.0
 41
80.0
 42
80.0
 43
80.0
 50
180.0
  0
INSERT
  5
8249
  8
3
 62
     0
  2
_OPEN
 10
6864.7247029999999
 20
2505.8190394604721
 30
0.0
 41
80.0
 42
80.0
 43
80.0
  0
TEXT
  8
3
  40
120
  5
8274
  62
0
  72
0
  71
0
 10
6403.97
 20
2393.42
 30
0.000000
  1
442
  0
POINT
  5
824B
  8
DEFPOINTS
 62
     0
 10
6423.224702999999
 20
2891.4618679999999
 30
0.0
  0
POINT
  5
824C
  8
DEFPOINTS
 62
     0
 10
6864.7247029999999
 20
2891.4618679999999
 30
0.0
  0
POINT
  5
824D
  8
DEFPOINTS
 62
     0
 10
6864.7247029999999
 20
2505.8190394604721
 30
0.0
  0
ENDBLK
  5
7D53
  8
0
  0
BLOCK
  8
0
  2
*D16
 70
     1
 10
0.0
 20
0.0
 30
0.0
  3
*D16
  1

  0
LINE
  5
824E
  8
3
 62
     0
 10
5840.7247029999999
 20
2871.4618679999999
 30
0.0
 11
5840.7247029999999
 21
2465.8190394604708
 31
0.0
  0
LINE
  5
824F
  8
3
 62
     0
 10
6423.224702999999
 20
2871.4618679999999
 30
0.0
 11
6423.224702999999
 21
2465.8190394604708
 31
0.0
  0
LINE
  5
8250
  8
3
 62
     0
 10
5920.7247029999999
 20
2505.8190394604721
 30
0.0
 11
6343.2247029999999
 21
2505.8190394604721
 31
0.0
  0
INSERT
  5
8251
  8
3
 62
     0
  2
_OPEN
 10
5840.7247029999999
 20
2505.8190394604721
 30
0.0
 41
80.0
 42
80.0
 43
80.0
 50
180.0
  0
INSERT
  5
8252
  8
3
 62
     0
  2
_OPEN
 10
6423.224702999999
 20
2505.8190394604721
 30
0.0
 41
80.0
 42
80.0
 43
80.0
  0
TEXT
  8
3
  40
120
  5
8275
  62
0
  72
0
  71
0
 10
5891.97
 20
2393.42
 30
0.000000
  1
583
  0
POINT
  5
8254
  8
DEFPOINTS
 62
     0
 10
5840.7247029999999
 20
2891.4618679999999
 30
0.0
  0
POINT
  5
8255
  8
DEFPOINTS
 62
     0
 10
6423.224702999999
 20
2891.4618679999999
 30
0.0
  0
POINT
  5
8256
  8
DEFPOINTS
 62
     0
 10
6423.224702999999
 20
2505.8190394604721
 30
0.0
  0
ENDBLK
  5
7D60
  8
0
  0
BLOCK
  8
0
  2
_DOT
 70
     0
 10
0.0
 20
0.0
 30
0.0
  3
_DOT
  1

  0
POLYLINE
  5
7D73
  8
0
  6
BYBLOCK
 62
     0
 66
     1
 10
0.0
 20
0.0
 30
0.0
 70
     1
 40
0.5
 41
0.5
  0
VERTEX
  5
8257
  8
0
  6
BYBLOCK
 62
     0
 10
-0.25
 20
0.0
 30
0.0
 42
1.0
  0
VERTEX
  5
8258
  8
0
  6
BYBLOCK
 62
     0
 10
0.25
 20
0.0
 30
0.0
 42
1.0
  0
SEQEND
  5
8259
  8
0
  6
BYBLOCK
 62
     0
  0
LINE
  5
7D77
  8
0
  6
BYBLOCK
 62
     0
 10
-0.5
 20
0.0
 30
0.0
 11
-1.0
 21
0.0
 31
0.0
  0
ENDBLK
  5
7D78
  8
0
  0
BLOCK
  8
0
  2
*D18
 70
     1
 10
0.0
 20
0.0
 30
0.0
  3
*D18
  1

  0
LINE
  5
825A
  8
3
 62
     0
 10
3492.8989372782289
 20
3016.4618679999999
 30
0.0
 11
4154.5794841940015
 21
3016.4618679999999
 31
0.0
  0
LINE
  5
825B
  8
3
 62
     0
 10
3492.8989372782289
 20
2891.4618679999999
 30
0.0
 11
4154.5794841940015
 21
2891.4618679999999
 31
0.0
  0
LINE
  5
825C
  8
3
 62
     0
 10
4114.5794841940015
 20
3096.4618679999999
 30
0.0
 11
4114.5794841940015
 21
3176.4618679999999
 31
0.0
  0
LINE
  5
825D
  8
3
 62
     0
 10
4114.5794841940015
 20
2811.4618679999999
 30
0.0
 11
4114.5794841940015
 21
2365.7475822857141
 31
0.0
  0
LINE
  5
825E
  8
3
 62
     0
 10
4114.5794841940015
 20
3016.4618679999999
 30
0.0
 11
4114.5794841940015
 21
2891.4618679999999
 31
0.0
  0
INSERT
  5
825F
  8
3
 62
     0
  2
_DOT
 10
4114.5794841940015
 20
3016.4618679999999
 30
0.0
 41
80.0
 42
80.0
 43
80.0
 50
270.0
  0
INSERT
  5
8260
  8
3
 62
     0
  2
_OPEN
 10
4114.5794841940015
 20
2891.4618679999999
 30
0.0
 41
80.0
 42
80.0
 43
80.0
 50
90.0
  0
TEXT
  8
3
  40
120
  5
8276
  62
0
  72
0
  71
0
 10
3774.58
 20
2336.20
 30
0.000000
  1
125
  0
POINT
  5
8262
  8
DEFPOINTS
 62
     0
 10
3472.8989372782289
 20
3016.4618679999999
 30
0.0
  0
POINT
  5
8263
  8
DEFPOINTS
 62
     0
 10
3472.8989372782289
 20
2891.4618679999999
 30
0.0
  0
POINT
  5
8264
  8
DEFPOINTS
 62
     0
 10
4114.5794841940015
 20
2891.4618679999999
 30
0.0
  0
ENDBLK
  5
7D86
  8
0
  0
BLOCK
  8
0
  2
*D19
 70
     1
 10
0.0
 20
0.0
 30
0.0
  3
*D19
  1

  0
LINE
  5
7D8A
  8
0
  6
BYBLOCK
 62
     0
 10
3492.8989372782289
 20
3016.4618679999999
 30
0.0
 11
4154.5794841940015
 21
3016.4618679999999
 31
0.0
  0
LINE
  5
7D8B
  8
0
  6
BYBLOCK
 62
     0
 10
3492.8989372782289
 20
3111.4618679999999
 30
0.0
 11
4154.5794841940015
 21
3111.4618679999999
 31
0.0
  0
LINE
  5
7D8C
  8
0
  6
BYBLOCK
 62
     0
 10
4114.5794841940015
 20
2936.4618679999999
 30
0.0
 11
4114.5794841940015
 21
2856.4618679999999
 31
0.0
  0
LINE
  5
7D8D
  8
0
  6
BYBLOCK
 62
     0
 10
4114.5794841940015
 20
3191.4618679999999
 30
0.0
 11
4114.5794841940015
 21
3271.4618679999999
 31
0.0
  0
TEXT
  5
7D8E
  8
3
 62
     0
 10
4346.0080556225712
 20
2889.6761537142852
 30
0.0
 40
120.0
  1
(95)
 50
90.0
  0
LINE
  5
7D8F
  8
0
  6
BYBLOCK
 62
     0
 10
4114.5794841940015
 20
3016.4618679999999
 30
0.0
 11
4114.5794841940015
 21
3111.4618679999999
 31
0.0
  0
INSERT
  5
7D90
  8
0
  6
BYBLOCK
 62
     0
  2
_DOT
 10
4114.5794841940015
 20
3016.4618679999999
 30
0.0
 41
80.0
 42
80.0
 43
80.0
 50
90.0
  0
INSERT
  5
7D91
  8
0
  6
BYBLOCK
 62
     0
  2
_OPEN
 10
4114.5794841940015
 20
3111.4618679999999
 30
0.0
 41
80.0
 42
80.0
 43
80.0
 50
270.0
  0
POINT
  5
7D92
  8
DEFPOINTS
  6
BYBLOCK
 62
     0
 10
3472.8989372782289
 20
3016.4618679999999
 30
0.0
  0
POINT
  5
7D93
  8
DEFPOINTS
  6
BYBLOCK
 62
     0
 10
3472.8989372782289
 20
3111.4618679999999
 30
0.0
  0
POINT
  5
7D94
  8
DEFPOINTS
  6
BYBLOCK
 62
     0
 10
4114.5794841940015
 20
3111.4618679999999
 30
0.0
  0
ENDBLK
  5
7D95
  8
0
  0
ENDSEC
  0
SECTION
  2
ENTITIES
  0
POLYLINE
  5
7A82
  8
1
  6
CONTINUOUS
 66
     1
 10
0.0
 20
0.0
 30
0.0
 70
     1
  0
VERTEX
  5
81A3
  8
1
  6
CONTINUOUS
 10
1522.8989372782289
 20
3016.4618679999999
 30
0.0
  0
VERTEX
  5
81A4
  8
1
  6
CONTINUOUS
 10
3472.8989372782289
 20
3016.4618679999999
 30
0.0
  0
VERTEX
  5
81A5
  8
1
  6
CONTINUOUS
 10
3472.8989372782289
 20
2891.4618679999999
 30
0.0
  0
VERTEX
  5
81A6
  8
1
  6
CONTINUOUS
 10
1522.8989372782289
 20
2891.4618679999999
 30
0.0
  0
SEQEND
  5
81A7
  8
1
  6
CONTINUOUS
  0
LINE
  5
7A88
  8
1
  6
CONTINUOUS
 10
1522.8989372782289
 20
3236.4618679999999
 30
0.0
 11
3472.8989372782289
 21
3236.4618679999999
 31
0.0
  0
LINE
  5
7A89
  8
1
  6
CONTINUOUS
 10
1522.8989372782289
 20
3111.4618679999999
 30
0.0
 11
3472.8989372782289
 21
3111.4618679999999
 31
0.0
  0
POLYLINE
  5
7A8A
  8
1
  6
CONTINUOUS
 66
     1
 10
0.0
 20
0.0
 30
0.0
  0
VERTEX
  5
81A8
  8
1
  6
CONTINUOUS
 10
1555.3989372782289
 20
3236.4618679999999
 30
0.0
  0
VERTEX
  5
81A9
  8
1
  6
CONTINUOUS
 10
1950.3989372782289
 20
3236.4618679999999
 30
0.0
  0
VERTEX
  5
81AA
  8
1
  6
CONTINUOUS
 10
1940.3989372782289
 20
3286.461867999999
 30
0.0
  0
VERTEX
  5
81AB
  8
1
  6
CONTINUOUS
 10
1906.8989372782289
 20
3286.461867999999
 30
0.0
  0
SEQEND
  5
81AC
  8
1
  6
CONTINUOUS
  0
POLYLINE
  5
7A90
  8
1
  6
CONTINUOUS
 66
     1
 10
0.0
 20
0.0
 30
0.0
  0
VERTEX
  5
81AD
  8
1
  6
CONTINUOUS
 10
1598.8989372782289
 20
3286.461867999999
 30
0.0
  0
VERTEX
  5
81AE
  8
1
  6
CONTINUOUS
 10
1565.3989372782289
 20
3286.461867999999
 30
0.0
  0
VERTEX
  5
81AF
  8
1
  6
CONTINUOUS
 10
1555.3989372782289
 20
3236.4618679999999
 30
0.0
  0
SEQEND
  5
81B0
  8
1
  6
CONTINUOUS
  0
LINE
  5
7A95
  8
1
  6
CONTINUOUS
 10
1522.8989372782289
 20
3236.4618679999999
 30
0.0
 11
1522.8989372782289
 21
3111.4618679999999
 31
0.0
  0
ARC
  5
7A96
  8
1
  6
CONTINUOUS
 10
2887.8989372782289
 20
4036.461867999999
 30
0.0
 40
895.0
 50
94.164812999999995
 51
184.1648129999999
  0
ARC
  5
7A97
  8
1
  6
CONTINUOUS
 10
2766.8989372782289
 20
4027.461867999999
 30
0.0
 40
774.0
 50
184.149056
 51
274.14905599999997
  0
LINE
  5
7A98
  8
1
  6
CONTINUOUS
 10
2087.8989372782289
 20
4706.4618680000003
 30
0.0
 11
3472.8989372782289
 21
4706.4618680000003
 31
0.0
  0
CIRCLE
  5
7A9B
  8
1
  6
CONTINUOUS
 10
2822.8989372782289
 20
3971.4618679999999
 30
0.0
 40
192.18405100000001
  0
LINE
  5
7A9C
  8
1
  6
CONTINUOUS
 10
1807.0703292782291
 20
3321.5274599999998
 30
0.0
 11
2899.3521302782292
 21
3795.1393830000002
 31
0.0
  0
LINE
  5
7A9D
  8
2
  6
CENTER
 10
1638.8025622782291
 20
3971.4618679999999
 30
0.0
 11
3711.7644402782289
 21
3971.4618679999999
 31
0.0
  0
LINE
  5
7A9E
  8
1
  6
CONTINUOUS
 10
2592.8989372782289
 20
4536.4618680000003
 30
0.0
 11
3362.8989372782289
 21
4536.4618680000003
 31
0.0
  0
LINE
  5
7A9F
  8
1
  6
CONTINUOUS
 10
2087.8989372782289
 20
4706.4618680000003
 30
0.0
 11
2087.8989372782289
 21
3236.4618679999999
 31
0.0
  0
LINE
  5
7AA0
  8
1
  6
CONTINUOUS
 10
1687.2373192782291
 20
3565.7585469999999
 30
0.0
 11
2730.2293522782288
 21
4139.8277109999999
 31
0.0
  0
LINE
  5
7AA1
  8
1
  6
CONTINUOUS
 10
2592.8989372782289
 20
4536.4618680000003
 30
0.0
 11
1592.8989372782289
 21
3636.4618679999999
 31
0.0
  0
ARC
  5
7AA2
  8
1
  6
CONTINUOUS
 10
1752.8989372782289
 20
3446.4618679999999
 30
0.0
 40
162.0
 50
324.972283
 51
215.02771699999991
  0
CIRCLE
  5
7AA3
  8
1
  6
CONTINUOUS
 10
1752.8989372782289
 20
3446.4618679999999
 30
0.0
 40
136.1732199999999
  0
LINE
  5
7AA4
  8
2
  6
CENTER
 10
1611.725717278229
 20
3446.4618679999999
 30
0.0
 11
1894.072157278229
 21
3446.4618679999999
 31
0.0
  0
LINE
  5
7AA5
  8
1
  6
CONTINUOUS
 10
1598.8989372782289
 20
3286.461867999999
 30
0.0
 11
1598.8989372782289
 21
3304.4618679999999
 31
0.0
  0
LINE
  5
7AA6
  8
1
  6
CONTINUOUS
 10
1598.8989372782289
 20
3304.4618679999999
 30
0.0
 11
1620.2412712782291
 21
3353.4783009999992
 31
0.0
  0
LINE
  5
7AA7
  8
2
  6
CENTER
 10
1752.8989372782289
 20
3305.2886469999989
 30
0.0
 11
1752.8989372782289
 21
3587.635088
 31
0.0
  0
LINE
  5
7AA8
  8
1
  6
CONTINUOUS
 10
1592.8989372782289
 20
3636.4618679999999
 30
0.0
 11
1592.8989372782289
 21
3236.4618679999999
 31
0.0
  0
LINE
  5
7AA9
  8
1
  6
CONTINUOUS
 10
1906.8989372782289
 20
3304.4618679999999
 30
0.0
 11
1885.556603278229
 21
3353.4783009999992
 31
0.0
  0
LINE
  5
7AAA
  8
1
  6
CONTINUOUS
 10
1906.8989372782289
 20
3286.461867999999
 30
0.0
 11
1906.8989372782289
 21
3304.4618679999999
 31
0.0
  0
LINE
  5
7AAB
  8
1
  6
CONTINUOUS
 10
3552.8989372782289
 20
5003.4618680000003
 30
0.0
 11
3552.8989372782289
 21
3873.461867999999
 31
0.0
  0
LINE
  5
7AAC
  8
1
  6
CONTINUOUS
 10
3502.8989372782289
 20
4951.793138
 30
0.0
 11
3502.8989372782289
 21
3923.4618679999999
 31
0.0
  0
LINE
  5
7AAD
  8
1
  6
CONTINUOUS
 10
3472.8989372782289
 20
4706.4618680000003
 30
0.0
 11
3472.8989372782289
 21
3111.4618679999999
 31
0.0
  0
ARC
  5
7AAE
  8
1
  6
CONTINUOUS
 10
2779.8989372782289
 20
3928.4618679999999
 30
0.0
 40
674.0
 50
273.65785299999999
 51
359.57495299999988
  0
LINE
  5
7AAF
  8
1
  6
CONTINUOUS
 10
3362.8989372782289
 20
4536.4618680000003
 30
0.0
 11
3362.8989372782289
 21
3236.4618679999999
 31
0.0
  0
LINE
  5
7AB0
  8
2
  6
CENTER
 10
2822.8989372782289
 20
2891.4618679999999
 30
0.0
 11
2822.8989372782289
 21
5124.1893049999999
 31
0.0
  0
LINE
  5
7AB1
  8
1
  6
CONTINUOUS
 10
3453.8803912782291
 20
3923.4618679999999
 30
0.0
 11
3552.8989372782289
 21
3923.4618679999999
 31
0.0
  0
LINE
  5
7AB2
  8
1
  6
CONTINUOUS
 10
2822.8989372782289
 20
4929.0984120000003
 30
0.0
 11
3552.8989372782289
 21
4953.4618680000003
 31
0.0
  0
LINE
  5
7AB3
  8
1
  6
CONTINUOUS
 10
1522.8989372782289
 20
7270.6618410000001
 30
0.0
 11
1616.7489372782291
 21
7270.6618410000001
 31
0.0
  0
LINE
  5
7AB4
  8
1
  6
CONTINUOUS
 10
1522.8989372782289
 20
8295.6618409999992
 30
0.0
 11
3472.8989372782289
 21
8295.6618409999992
 31
0.0
  0
LINE
  5
7AB5
  8
1
  6
CONTINUOUS
 10
1522.8989372782289
 20
7270.6618410000001
 30
0.0
 11
1522.8989372782289
 21
8295.6618409999992
 31
0.0
  0
LINE
  5
7AB6
  8
1
  6
CONTINUOUS
 10
1994.8989372782289
 20
8228.1618409999992
 30
0.0
 11
3552.8989372782289
 21
8228.1618409999992
 31
0.0
  0
LINE
  5
7AB7
  8
1
  6
CONTINUOUS
 10
1994.8989372782289
 20
7478.161841000001
 30
0.0
 11
3552.8989372782289
 21
7478.161841000001
 31
0.0
  0
POLYLINE
  5
7AB8
  8
1
  6
CONTINUOUS
 66
     1
 10
0.0
 20
0.0
 30
0.0
 70
     1
  0
VERTEX
  5
81B1
  8
1
  6
CONTINUOUS
 10
2630.6989372782291
 20
7356.161841000001
 30
0.0
  0
VERTEX
  5
81B2
  8
1
  6
CONTINUOUS
 10
2630.6989372782291
 20
7255.1618410000001
 30
0.0
  0
VERTEX
  5
81B3
  8
1
  6
CONTINUOUS
 10
3015.0989372782292
 20
7255.1618410000001
 30
0.0
  0
VERTEX
  5
81B4
  8
1
  6
CONTINUOUS
 10
3015.0989372782292
 20
7356.161841000001
 30
0.0
  0
SEQEND
  5
81B5
  8
1
  6
CONTINUOUS
  0
POLYLINE
  5
7ABE
  8
1
  6
CONTINUOUS
 66
     1
 10
0.0
 20
0.0
 30
0.0
 70
     1
  0
VERTEX
  5
81B6
  8
1
  6
CONTINUOUS
 10
1592.8989372782289
 20
7407.1618410000001
 30
0.0
  0
VERTEX
  5
81B7
  8
1
  6
CONTINUOUS
 10
1592.8989372782289
 20
7227.1618410000001
 30
0.0
  0
VERTEX
  5
81B8
  8
1
  6
CONTINUOUS
 10
3362.8989372782289
 20
7227.1618410000001
 30
0.0
  0
VERTEX
  5
81B9
  8
1
  6
CONTINUOUS
 10
3362.8989372782289
 20
7407.1618410000001
 30
0.0
  0
SEQEND
  5
81BA
  8
1
  6
CONTINUOUS
  0
LINE
  5
7AC4
  8
1
  6
CONTINUOUS
 10
1889.048937278229
 20
7270.6618410000001
 30
0.0
 11
2630.6989372782291
 21
7270.6618410000001
 31
0.0
  0
LINE
  5
7AC5
  8
1
  6
CONTINUOUS
 10
1994.8989372782289
 20
7478.161841000001
 30
0.0
 11
1994.8989372782289
 21
8228.1618409999992
 31
0.0
  0
LINE
  5
7AC6
  8
1
  6
CONTINUOUS
 10
1914.8989372782289
 20
7478.161841000001
 30
0.0
 11
1914.8989372782289
 21
7952.2835610000002
 31
0.0
  0
LINE
  5
7AC7
  8
1
  6
CONTINUOUS
 10
1590.8989372782289
 20
7478.161841000001
 30
0.0
 11
1590.8989372782289
 21
7952.2835610000002
 31
0.0
  0
LINE
  5
7AC8
  8
1
  6
CONTINUOUS
 10
1914.8989372782289
 20
7478.161841000001
 30
0.0
 11
1590.8989372782289
 21
7478.161841000001
 31
0.0
  0
POLYLINE
  5
7AC9
  8
1
  6
CONTINUOUS
 66
     1
 10
0.0
 20
0.0
 30
0.0
 70
     1
  0
VERTEX
  5
81BB
  8
1
  6
CONTINUOUS
 10
1889.048937278229
 20
7356.161841000001
 30
0.0
  0
VERTEX
  5
81BC
  8
1
  6
CONTINUOUS
 10
1889.048937278229
 20
7255.1618410000001
 30
0.0
  0
VERTEX
  5
81BD
  8
1
  6
CONTINUOUS
 10
1616.7489372782291
 20
7255.1618410000001
 30
0.0
  0
VERTEX
  5
81BE
  8
1
  6
CONTINUOUS
 10
1616.7489372782291
 20
7356.161841000001
 30
0.0
  0
SEQEND
  5
81BF
  8
1
  6
CONTINUOUS
  0
LINE
  5
7ACF
  8
1
  6
CONTINUOUS
 10
1773.8989372782289
 20
7356.161841000001
 30
0.0
 11
1773.8989372782289
 21
7478.161841000001
 31
0.0
  0
LINE
  5
7AD0
  8
1
  6
CONTINUOUS
 10
1731.8989372782289
 20
7356.161841000001
 30
0.0
 11
1731.8989372782289
 21
7478.161841000001
 31
0.0
  0
LINE
  5
7AD1
  8
1
  6
CONTINUOUS
 10
1590.8989372782289
 20
7952.2835610000002
 30
0.0
 11
1914.8989372782289
 21
7952.2835610000002
 31
0.0
  0
LINE
  5
7AD2
  8
1
  6
CONTINUOUS
 10
1914.8989372782289
 20
7798.0251569999991
 30
0.0
 11
1914.8989372782289
 21
7860.7211180000004
 31
0.0
  0
LINE
  5
7AD3
  8
1
  6
CONTINUOUS
 10
3015.0989372782292
 20
7270.6618410000001
 30
0.0
 11
3472.8989372782289
 21
7270.6618410000001
 31
0.0
  0
LINE
  5
7AD4
  8
1
  6
CONTINUOUS
 10
2795.3989372782289
 20
7356.161841000001
 30
0.0
 11
2795.3989372782289
 21
7478.161841000001
 31
0.0
  0
LINE
  5
7AD5
  8
1
  6
CONTINUOUS
 10
2850.3989372782289
 20
7356.161841000001
 30
0.0
 11
2850.3989372782289
 21
7478.161841000001
 31
0.0
  0
LINE
  5
7AD6
  8
1
  6
CONTINUOUS
 10
3552.8989372782289
 20
7428.161841000001
 30
0.0
 11
3552.8989372782289
 21
8278.1618409999992
 31
0.0
  0
LINE
  5
7AD7
  8
1
  6
CONTINUOUS
 10
3502.8989372782289
 20
7478.161841000001
 30
0.0
 11
3502.8989372782289
 21
8228.1618409999992
 31
0.0
  0
LINE
  5
7AD8
  8
1
  6
CONTINUOUS
 10
3472.8989372782289
 20
7270.6618410000001
 30
0.0
 11
3472.8989372782289
 21
7478.161841000001
 31
0.0
  0
LINE
  5
7AD9
  8
1
  6
CONTINUOUS
 10
3472.8989372782289
 20
8228.1618409999992
 30
0.0
 11
3472.8989372782289
 21
8295.6618409999992
 31
0.0
  0
POLYLINE
  5
7ADA
  8
1
  6
CONTINUOUS
 66
     1
 10
0.0
 20
0.0
 30
0.0
 70
     1
  0
VERTEX
  5
81C0
  8
1
  6
CONTINUOUS
 10
5840.7247029999999
 20
2891.4618679999999
 30
0.0
  0
VERTEX
  5
81C1
  8
1
  6
CONTINUOUS
 10
5840.7247029999999
 20
3016.4618679999999
 30
0.0
  0
VERTEX
  5
81C2
  8
1
  6
CONTINUOUS
 10
6864.7247029999999
 20
3016.4618679999999
 30
0.0
  0
VERTEX
  5
81C3
  8
1
  6
CONTINUOUS
 10
6864.7247029999999
 20
2891.4618679999999
 30
0.0
  0
SEQEND
  5
81C4
  8
1
  6
CONTINUOUS
  0
LINE
  5
7AE0
  8
1
  6
CONTINUOUS
 10
5840.7247029999999
 20
3111.4618679999999
 30
0.0
 11
6864.7247029999999
 21
3111.4618679999999
 31
0.0
  0
LINE
  5
7AE1
  8
1
  6
CONTINUOUS
 10
5840.7247029999999
 20
3236.4618679999999
 30
0.0
 11
6864.7247029999999
 21
3236.4618679999999
 31
0.0
  0
LINE
  5
7AE2
  8
1
  6
CONTINUOUS
 10
6048.224702999999
 20
4953.4618680000003
 30
0.0
 11
6798.224702999999
 21
4953.4618680000003
 31
0.0
  0
LINE
  5
7AE3
  8
1
  6
CONTINUOUS
 10
6048.224702999999
 20
3923.4618679999999
 30
0.0
 11
6798.224702999999
 21
3923.4618679999999
 31
0.0
  0
LINE
  5
7AE4
  8
1
  6
CONTINUOUS
 10
6048.224702999999
 20
4953.4618680000003
 30
0.0
 11
6798.224702999999
 21
3923.4618679999999
 31
0.0
  0
LINE
  5
7AE5
  8
1
  6
CONTINUOUS
 10
6798.224702999999
 20
4953.4618680000003
 30
0.0
 11
6048.224702999999
 21
3923.4618679999999
 31
0.0
  0
LINE
  5
7AE6
  8
1
  6
CONTINUOUS
 10
6048.224702999999
 20
3236.4618679999999
 30
0.0
 11
6048.224702999999
 21
4953.4618680000003
 31
0.0
  0
LINE
  5
7AE7
  8
1
  6
CONTINUOUS
 10
5763.2247029999999
 20
3236.4618679999999
 30
0.0
 11
5763.2247029999999
 21
4536.4618680000003
 31
0.0
  0
LINE
  5
7AE8
  8
1
  6
CONTINUOUS
 10
5977.2247029999999
 20
3236.4618679999999
 30
0.0
 11
5977.2247029999999
 21
4536.4618680000003
 31
0.0
  0
LINE
  5
7AE9
  8
1
  6
CONTINUOUS
 10
5840.7247029999999
 20
3111.4618679999999
 30
0.0
 11
5840.7247029999999
 21
3236.4618679999999
 31
0.0
  0
LINE
  5
7AEA
  8
1
  6
CONTINUOUS
 10
5926.224702999999
 20
3467.4618679999999
 30
0.0
 11
6048.224702999999
 21
3467.4618679999999
 31
0.0
  0
LINE
  5
7AEB
  8
1
  6
CONTINUOUS
 10
5926.224702999999
 20
3425.4618679999999
 30
0.0
 11
6048.224702999999
 21
3425.4618679999999
 31
0.0
  0
LINE
  5
7AEC
  8
1
  6
CONTINUOUS
 10
5840.7247029999999
 20
3236.4618679999999
 30
0.0
 11
5763.2247029999999
 21
3236.4618679999999
 31
0.0
  0
POLYLINE
  5
7AED
  8
1
  6
CONTINUOUS
 66
     1
 10
0.0
 20
0.0
 30
0.0
 70
     1
  0
VERTEX
  5
81C5
  8
1
  6
CONTINUOUS
 10
5825.224702999999
 20
3582.635088
 30
0.0
  0
VERTEX
  5
81C6
  8
1
  6
CONTINUOUS
 10
5825.224702999999
 20
3310.2886469999999
 30
0.0
  0
VERTEX
  5
81C7
  8
1
  6
CONTINUOUS
 10
5926.224702999999
 20
3310.2886469999999
 30
0.0
  0
VERTEX
  5
81C8
  8
1
  6
CONTINUOUS
 10
5926.224702999999
 20
3582.635088
 30
0.0
  0
SEQEND
  5
81C9
  8
1
  6
CONTINUOUS
  0
LINE
  5
7AF3
  8
1
  6
CONTINUOUS
 10
5926.224702999999
 20
3779.2778170000001
 30
0.0
 11
5926.224702999999
 21
4163.6459180000002
 31
0.0
  0
LINE
  5
7AF4
  8
1
  6
CONTINUOUS
 10
5926.224702999999
 20
3998.9618679999999
 30
0.0
 11
6048.224702999999
 21
3998.9618679999999
 31
0.0
  0
LINE
  5
7AF5
  8
1
  6
CONTINUOUS
 10
5926.224702999999
 20
3943.9618679999999
 30
0.0
 11
6048.224702999999
 21
3943.9618679999999
 31
0.0
  0
LINE
  5
7AF6
  8
1
  6
CONTINUOUS
 10
5825.224702999999
 20
4163.6459180000002
 30
0.0
 11
5926.224702999999
 21
4163.6459180000002
 31
0.0
  0
LINE
  5
7AF7
  8
1
  6
CONTINUOUS
 10
5825.224702999999
 20
3779.2778170000001
 30
0.0
 11
5926.224702999999
 21
3779.2778170000001
 31
0.0
  0
LINE
  5
7AF8
  8
1
  6
CONTINUOUS
 10
5825.224702999999
 20
3779.2778170000001
 30
0.0
 11
5825.224702999999
 21
4163.6459180000002
 31
0.0
  0
LINE
  5
7AF9
  8
1
  6
CONTINUOUS
 10
5763.2247029999999
 20
4536.4618680000003
 30
0.0
 11
5977.2247029999999
 21
4536.4618680000003
 31
0.0
  0
LINE
  5
7AFA
  8
1
  6
CONTINUOUS
 10
6798.224702999999
 20
3236.4618679999999
 30
0.0
 11
6798.224702999999
 21
4953.4618680000003
 31
0.0
  0
LINE
  5
7AFB
  8
1
  6
CONTINUOUS
 10
6864.7247029999999
 20
3111.4618679999999
 30
0.0
 11
6864.7247029999999
 21
3236.4618679999999
 31
0.0
  0
LINE
  5
7AFC
  8
2
  6
CENTER
 10
1446.6776182782289
 20
7853.161841000001
 30
0.0
 11
3711.7644402782289
 21
7853.161841000001
 31
0.0
  0
LINE
  5
7AFD
  8
2
  6
CENTER
 10
6423.224702999999
 20
5151.8903890000001
 30
0.0
 11
6423.224702999999
 21
2891.4618679999999
 31
0.0
  0
LINE
  5
7AFE
  8
2
  6
CENTER
 10
2822.8989372782289
 20
7109.9889520000006
 30
0.0
 11
2822.8989372782289
 21
8445.4761049999997
 31
0.0
  0
LINE
  5
7AFF
  8
2
  6
CENTER
 10
5639.0555409999997
 20
3971.4618679999999
 30
0.0
 11
6951.5444539999999
 21
3971.4618679999999
 31
0.0
  0
LINE
  5
7B00
  8
4
  6
CONTINUOUS
 10
7400.0
 20
2000.0
 30
0.0
 11
7400.0
 21
1200.0
 31
0.0
  0
LINE
  5
7B01
  8
4
  6
CONTINUOUS
 10
4600.0
 20
2000.0
 30
0.0
 11
4600.0
 21
1200.0
 31
0.0
  0
LINE
  5
7B02
  8
4
  6
CONTINUOUS
 10
2600.0
 20
2000.0
 30
0.0
 11
2600.0
 21
1200.0
 31
0.0
  0
LINE
  5
7B05
  8
4
  6
CONTINUOUS
 10
2600.0
 20
1200.0
 30
0.0
 11
7400.0
 21
1200.0
 31
0.0
  0
LINE
  5
7B06
  8
4
  6
CONTINUOUS
 10
2600.0
 20
1600.0
 30
0.0
 11
7400.0
 21
1600.0
 31
0.0
  0
TEXT
  5
7B07
  8
4
  6
CONTINUOUS
 10
2754.008323
 20
1726.1721030000001
 30
0.0
 40
200.0
  1
機器名称
  0
TEXT
  5
7B08
  8
4
  6
CONTINUOUS
 10
2745.032424
 20
1286.580627
 30
0.0
 40
200.0
  1
機器型番
  0
TEXT
  5
7B09
  8
4
  6
CONTINUOUS
 10
4710.7149820000004
 20
1690.2870760000001
 30
0.0
 40
200.0
  1
ミツヤ多翼送風機
  0
TEXT
  5
7B0A
  8
4
  6
CONTINUOUS
 10
4746.6179819999998
 20
1268.6383370000001
 30
0.0
 40
200.0
  1
MF#6-4
  0
TEXT
  5
7B0C
  8
4
  6
CONTINUOUS
 10
3196.5507379999999
 20
9533.715365
 30
0.0
 40
216.0
  1
床置防振ベット
  0
TEXT
  5
7B0D
  8
4
  6
CONTINUOUS
 10
1264.6703729999999
 20
10135.523905
 30
0.0
 40
288.0
  1
ベルト駆動式片吸込両持多翼ファン
  0
LINE
  5
7B0E
  8
4
  6
CONTINUOUS
 10
1000.0
 20
9877.6350170000005
 30
0.0
 11
7400.0
 21
9877.6350170000005
 31
0.0
  0
LINE
  5
7B0F
  8
4
  6
CONTINUOUS
 10
1000.0
 20
10677.635017000001
 30
0.0
 11
7400.0
 21
10677.635017000001
 31
0.0
  0
LINE
  5
7B10
  8
4
  6
CONTINUOUS
 10
2600.0
 20
2000.0
 30
0.0
 11
7400.0
 21
2000.0
 31
0.0
  0
LINE
  5
7B11
  8
4
  6
CONTINUOUS
 10
1000.0
 20
10677.635017000001
 30
0.0
 11
1000.0
 21
9877.6350170000005
 31
0.0
  0
TEXT
  5
7B12
  8
4
  6
CONTINUOUS
 10
1453.115409
 20
9529.2779099999989
 30
0.0
 40
216.0
  1
右回転右横向
  0
TEXT
  5
7B13
  8
4
  6
CONTINUOUS
 10
5875.8782369999999
 20
10824.244326
 30
0.0
 40
224.0
  1
No.
  0
TEXT
  5
7B14
  8
4
  6
CONTINUOUS
 10
5245.1842500000012
 20
9533.715365
 30
0.0
 40
216.0
  1
縮尺：1/40
  0
LINE
  5
7B15
  8
4
  6
CONTINUOUS
 10
7400.0
 20
10677.635017000001
 30
0.0
 11
7400.0
 21
9877.6350170000005
 31
0.0
  0
LINE
  5
7B17
  8
4
  6
CONTINUOUS
 10
5762.4696889999996
 20
10725.054333
 30
0.0
 11
5762.4696889999996
 21
11146.609046
 31
0.0
  0
LINE
  5
7B18
  8
4
  6
CONTINUOUS
 10
5762.4696889999996
 20
11146.609046
 30
0.0
 11
7400.0
 21
11146.609046
 31
0.0
  0
LINE
  5
7B19
  8
4
  6
CONTINUOUS
 10
7400.0
 20
11146.609046
 30
0.0
 11
7400.0
 21
10725.054333
 31
0.0
  0
LINE
  5
7B1A
  8
4
  6
CONTINUOUS
 10
7400.0
 20
10725.054333
 30
0.0
 11
5762.4696889999996
 21
10725.054333
 31
0.0
  0
DIMENSION
  5
7B32
  8
3
  6
CONTINUOUS
  2
*D1
 10
3864.8337692782288
 20
3923.4618679999999
 30
0.0
 11
3864.8337692782288
 21
4414.1754739999997
 31
0.0
 70
   128
 13
3552.8989372782289
 23
4953.4618680000003
 33
0.0
 14
3552.8989372782289
 24
3923.4618679999999
 34
0.0
 50
90.0
1001
ACAD
1000
DSTYLE
1002
{
1070
   287
1070
     3
1070
   287
1070
     3
1070
    40
1040
40.0
1070
   143
1040
0.039
1070
   172
1070
     1
1070
   271
1070
     0
1070
   279
1070
     0
1070
   288
1070
     1
1002
}
  0
DIMENSION
  5
7B3F
  8
3
  6
CONTINUOUS
  2
*D2
 10
4116.2318372782302
 20
3971.4618679999999
 30
0.0
 11
4116.2318372782292
 21
4456.0499639999989
 31
0.0
 70
   128
 13
3552.8989372782289
 23
4953.4618680000003
 33
0.0
 14
3711.7644402782289
 24
3971.4618679999999
 34
0.0
 50
90.0
1001
ACAD
1000
DSTYLE
1002
{
1070
   287
1070
     3
1070
   287
1070
     3
1070
    40
1040
40.0
1070
   143
1040
0.039
1070
   172
1070
     1
1070
   271
1070
     0
1070
   279
1070
     0
1070
   288
1070
     1
1002
}
  0
DIMENSION
  5
7B5B
  8
3
  6
CONTINUOUS
  2
*D3
 10
4116.2318372782292
 20
3111.4618679999999
 30
0.0
 11
4016.2318372782288
 21
3541.4618679999999
 31
0.0
 70
     0
 13
3711.7644402782289
 23
3971.4618679999999
 33
0.0
 14
3472.8989372782289
 24
3111.4618679999999
 34
0.0
 50
90.0
1001
ACAD
1000
DSTYLE
1002
{
1070
   287
1070
     4
1070
   287
1070
     4
1070
    40
1040
40.0
1070
    75
1070
     1
1070
   143
1040
0.039
1070
   172
1070
     1
1070
   271
1070
     0
1070
   279
1070
     1
1070
   288
1070
     1
1002
}
  0
DIMENSION
  5
7B9E
  8
3
  6
CONTINUOUS
  2
*D4
 10
2822.8989372782289
 20
5193.0414380000002
 30
0.0
 11
3186.0590792782291
 21
5193.0414380000002
 31
0.0
 70
   128
 13
3552.8989372782289
 23
5003.4618680000003
 33
0.0
 14
2822.8989372782289
 24
5124.1893049999999
 34
0.0
1001
ACAD
1000
DSTYLE
1002
{
1070
   287
1070
     3
1070
   287
1070
     3
1070
    40
1040
40.0
1070
   143
1040
0.039
1070
   172
1070
     1
1070
   271
1070
     0
1070
   279
1070
     0
1070
   288
1070
     1
1002
}
  0
DIMENSION
  5
7BB7
  8
3
  6
CONTINUOUS
  2
*D5
 10
6798.224702999999
 20
5134.417120000001
 30
0.0
 11
6437.1337450000001
 21
5134.417120000001
 31
0.0
 70
   128
 13
6048.224702999999
 23
4953.4618680000003
 33
0.0
 14
6798.224702999999
 24
4953.4618680000003
 34
0.0
1001
ACAD
1000
DSTYLE
1002
{
1070
   287
1070
     3
1070
   287
1070
     3
1070
    40
1040
40.0
1070
   143
1040
0.039
1070
   172
1070
     1
1070
   271
1070
     0
1070
   279
1070
     0
1070
   288
1070
     1
1002
}
  0
LINE
  5
7BB8
  8
1
  6
CONTINUOUS
 10
6802.2247029999999
 20
3441.461867999999
 30
0.0
 11
6802.2247029999999
 21
4501.4618680000003
 31
0.0
  0
DIMENSION
  5
7BC7
  8
3
  6
CONTINUOUS
  2
*D6
 10
7141.0482419999998
 20
3441.461867999999
 30
0.0
 11
7141.0482419999998
 21
3970.3055909999989
 31
0.0
 70
   128
 13
6802.2247029999999
 23
4501.4618680000003
 33
0.0
 14
6802.2247029999999
 24
3441.461867999999
 34
0.0
 50
90.0
1001
ACAD
1000
DSTYLE
1002
{
1070
   287
1070
     3
1070
   287
1070
     3
1070
     3
1000
φ<>
1070
    40
1040
40.0
1070
   143
1040
0.039
1070
   172
1070
     1
1070
   271
1070
     0
1070
   279
1070
     0
1070
   288
1070
     1
1002
}
  0
DIMENSION
  5
7C13
  8
3
  6
CONTINUOUS
  2
*D7
 10
3472.8989372782289
 20
8499.3517240000001
 30
0.0
 11
2422.5325352782288
 21
8499.3517240000001
 31
0.0
 70
   128
 13
1522.8989372782289
 23
8295.6618409999992
 33
0.0
 14
3472.8989372782289
 24
8295.6618409999992
 34
0.0
1001
ACAD
1000
DSTYLE
1002
{
1070
   287
1070
     3
1070
   287
1070
     3
1070
    40
1040
40.0
1070
   143
1040
0.039
1070
   172
1070
     1
1070
   271
1070
     0
1070
   279
1070
     0
1070
   288
1070
     1
1002
}
  0
DIMENSION
  5
7C20
  8
3
  6
CONTINUOUS
  2
*D8
 10
3902.46371327823
 20
7270.6618410000001
 30
0.0
 11
3902.4637132782282
 21
7814.1455239999996
 31
0.0
 70
   128
 13
3472.8989372782289
 23
8295.6618409999992
 33
0.0
 14
3472.8989372782289
 24
7270.6618410000001
 34
0.0
 50
90.0
1001
ACAD
1000
DSTYLE
1002
{
1070
   287
1070
     3
1070
   287
1070
     3
1070
    40
1040
40.0
1070
   143
1040
0.039
1070
   172
1070
     1
1070
   271
1070
     0
1070
   279
1070
     0
1070
   288
1070
     1
1002
}
  0
DIMENSION
  5
7C7D
  8
3
  6
CONTINUOUS
  2
*D9
 10
6423.224702999999
 20
5376.2887280000014
 30
0.0
 11
6131.7961315714283
 21
5376.2887280000014
 31
0.0
 70
   128
  1
MAX\P700
 13
5763.2247029999999
 23
4536.4618680000003
 33
0.0
 14
6423.224702999999
 24
5314.8896199999999
 34
0.0
1001
ACAD
1000
DSTYLE
1002
{
1070
   287
1070
     3
1070
   287
1070
     3
1070
    40
1040
40.0
1070
   143
1040
0.039
1070
   172
1070
     1
1070
   271
1070
     0
1070
   279
1070
     0
1070
   288
1070
     1
1002
}
  0
DIMENSION
  5
7C8B
  8
3
  6
CONTINUOUS
  2
*D10
 10
6802.2247029999999
 20
5376.2887280000014
 30
0.0
 11
6631.5776939999987
 21
5376.2887280000014
 31
0.0
 70
   128
 13
6423.224702999999
 23
5314.8896199999999
 33
0.0
 14
6802.2247029999999
 24
4501.4618680000003
 34
0.0
1001
ACAD
1000
DSTYLE
1002
{
1070
   287
1070
     4
1070
   287
1070
     4
1070
    40
1040
40.0
1070
    75
1070
     1
1070
   143
1040
0.039
1070
   172
1070
     1
1070
   271
1070
     0
1070
   279
1070
     1
1070
   288
1070
     1
1002
}
  0
DIMENSION
  5
7CC7
  8
3
  6
CONTINUOUS
  2
*D11
 10
1995.262393278229
 20
5193.0414380000002
 30
0.0
 11
2409.0806652782289
 21
5293.0414380000002
 31
0.0
 70
     0
 13
2822.8989372782289
 23
5124.1893049999999
 33
0.0
 14
1995.262393278229
 24
3971.4618679999999
 34
0.0
1001
ACAD
1000
DSTYLE
1002
{
1070
   287
1070
     4
1070
   287
1070
     4
1070
    40
1040
40.0
1070
    75
1070
     1
1070
   143
1040
0.039
1070
   172
1070
     1
1070
   271
1070
     0
1070
   279
1070
     1
1070
   288
1070
     1
1002
}
  0
DIMENSION
  5
7D16
  8
3
  2
*D12
 10
1522.8989372782289
 20
5430.4904546227908
 30
0.0
 11
2616.925182528495
 21
5430.4904546227908
 31
0.0
 70
   128
 13
3552.8989372782289
 23
5003.4618680000003
 33
0.0
 14
1522.8989372782289
 24
3236.4618679999999
 34
0.0
1001
ACAD
1000
DSTYLE
1002
{
1070
   287
1070
     3
1070
   287
1070
     3
1070
    40
1040
40.0
1070
   143
1040
0.039
1070
   172
1070
     1
1070
   271
1070
     0
1070
   279
1070
     0
1070
   288
1070
     1
1002
}
  0
DIMENSION
  5
7D2B
  8
3
  2
*D13
 10
2822.8989372782289
 20
2442.3455061125678
 30
0.0
 11
2172.8989372782289
 21
2542.3455061125669
 31
0.0
 70
     0
 13
1522.8989372782289
 23
2891.4618679999999
 33
0.0
 14
2822.8989372782289
 24
2891.4618679999999
 34
0.0
1001
ACAD
1000
DSTYLE
1002
{
1070
   287
1070
     3
1070
   287
1070
     3
1070
    40
1040
40.0
1070
   143
1040
0.039
1070
   172
1070
     1
1070
   271
1070
     0
1070
   279
1070
     0
1002
}
  0
DIMENSION
  5
7D38
  8
3
  2
*D14
 10
3472.8989372782289
 20
2442.3455061125678
 30
0.0
 11
3147.8989372782289
 21
2542.3455061125669
 31
0.0
 70
     0
 13
2822.8989372782289
 23
2891.4618679999999
 33
0.0
 14
3472.8989372782289
 24
2891.4618679999999
 34
0.0
1001
ACAD
1000
DSTYLE
1002
{
1070
   287
1070
     3
1070
   287
1070
     3
1070
    40
1040
40.0
1070
   143
1040
0.039
1070
   172
1070
     1
1070
   271
1070
     0
1070
   279
1070
     0
1002
}
  0
DIMENSION
  5
7D54
  8
3
  2
*D15
 10
6864.7247029999999
 20
2505.8190394604721
 30
0.0
 11
6643.9747030000008
 21
2605.8190394604721
 31
0.0
 70
     0
 13
6423.224702999999
 23
2891.4618679999999
 33
0.0
 14
6864.7247029999999
 24
2891.4618679999999
 34
0.0
1001
ACAD
1000
DSTYLE
1002
{
1070
   287
1070
     3
1070
   287
1070
     3
1070
    40
1040
40.0
1070
   143
1040
0.039
1070
   172
1070
     1
1070
   271
1070
     0
1070
   279
1070
     0
1002
}
  0
DIMENSION
  5
7D61
  8
3
  2
*D16
 10
6423.224702999999
 20
2505.8190394604721
 30
0.0
 11
6131.9747029999999
 21
2605.8190394604721
 31
0.0
 70
     0
 13
5840.7247029999999
 23
2891.4618679999999
 33
0.0
 14
6423.224702999999
 24
2891.4618679999999
 34
0.0
1001
ACAD
1000
DSTYLE
1002
{
1070
   287
1070
     3
1070
   287
1070
     3
1070
    40
1040
40.0
1070
   143
1040
0.039
1070
   172
1070
     1
1070
   271
1070
     0
1070
   279
1070
     0
1002
}
  0
DIMENSION
  5
7D87
  8
3
  2
*D18
 10
4114.5794841940015
 20
2891.4618679999999
 30
0.0
 11
4014.5794841939992
 21
2548.6047251428572
 31
0.0
 70
     0
 13
3472.8989372782289
 23
3016.4618679999999
 33
0.0
 14
3472.8989372782289
 24
2891.4618679999999
 34
0.0
 50
90.0
1001
ACAD
1000
DSTYLE
1002
{
1070
   287
1070
     3
1070
   287
1070
     3
1070
    40
1040
40.0
1070
   143
1040
0.039
1070
   172
1070
     1
1070
   271
1070
     0
1070
   279
1070
     0
1070
     6
1000
DOT
1002
}
  0
DIMENSION
  5
7D96
  8
3
  2
*D19
 10
4114.5794841940015
 20
3111.4618679999999
 30
0.0
 11
4306.0080556225721
 21
3063.961867999999
 31
0.0
 70
     0
 13
3472.8989372782289
 23
3016.4618679999999
 33
0.0
 14
3472.8989372782289
 24
3111.4618679999999
 34
0.0
 50
90.0
1001
ACAD
1000
DSTYLE
1002
{
1070
   172
1070
     1
1070
    40
1040
40.0
1070
     3
1000
(<>)
1070
   271
1070
     0
1070
     6
1000
_DOT
1070
   143
1040
0.039
1002
}
  0
ENDSEC
  0
EOF
