  0
SECTION
  2
HEADER
  9
$ACADVER
  1
AC1009
  9
$INSBASE
 10
0.0
 20
0.0
 30
0.0
  9
$EXTMIN
 10
1000.0
 20
1200.0
 30
0.0
  9
$EXTMAX
 10
7400.0
 20
11146.609046
 30
0.0
  9
$LIMMIN
 10
0.0
 20
0.0
  9
$LIMMAX
 10
297.0
 20
210.0
  9
$ORTHOMODE
 70
     0
  9
$REGENMODE
 70
     1
  9
$FILLMODE
 70
     0
  9
$QTEXTMODE
 70
     0
  9
$MIRRTEXT
 70
     1
  9
$DRAGMODE
 70
     2
  9
$LTSCALE
 40
100.0
  9
$OSMODE
 70
    37
  9
$ATTMODE
 70
     1
  9
$TEXTSIZE
 40
180.0
  9
$TRACEWID
 40
0.05
  9
$TEXTSTYLE
  7
STANDARD
  9
$CLAYER
  8
3
  9
$CELTYPE
  6
BYLAYER
  9
$CECOLOR
 62
   256
  9
$DIMSCALE
 40
40.0
  9
$DIMASZ
 40
2.0
  9
$DIMEXO
 40
0.5
  9
$DIMDLI
 40
10.0
  9
$DIMRND
 40
0.0
  9
$DIMDLE
 40
0.0
  9
$DIMEXE
 40
1.0
  9
$DIMTP
 40
1.0
  9
$DIMTM
 40
1.0
  9
$DIMTXT
 40
3.0
  9
$DIMCEN
 40
0.0
  9
$DIMTSZ
 40
0.0
  9
$DIMTOL
 70
     0
  9
$DIMLIM
 70
     0
  9
$DIMTIH
 70
     0
  9
$DIMTOH
 70
     0
  9
$DIMSE1
 70
     0
  9
$DIMSE2
 70
     0
  9
$DIMTAD
 70
     1
  9
$DIMZIN
 70
     8
  9
$DIMBLK
  1
OPEN
  9
$DIMASO
 70
     1
  9
$DIMSHO
 70
     1
  9
$DIMPOST
  1

  9
$DIMAPOST
  1

  9
$DIMALT
 70
     0
  9
$DIMALTD
 70
     2
  9
$DIMALTF
 40
0.039
  9
$DIMLFAC
 40
1.0
  9
$DIMTOFL
 70
     1
  9
$DIMTVP
 40
0.0
  9
$DIMTIX
 70
     0
  9
$DIMSOXD
 70
     0
  9
$DIMSAH
 70
     0
  9
$DIMBLK1
  1
DOT
  9
$DIMBLK2
  1
OPEN
  9
$DIMSTYLE
  2
IGA
  9
$DIMCLRD
 70
     0
  9
$DIMCLRE
 70
     0
  9
$DIMCLRT
 70
     0
  9
$DIMTFAC
 40
10.0
  9
$DIMGAP
 40
1.0
  9
$LUNITS
 70
     2
  9
$LUPREC
 70
     3
  9
$SKETCHINC
 40
0.1
  9
$FILLETRAD
 40
50.0
  9
$AUNITS
 70
     0
  9
$AUPREC
 70
     0
  9
$MENU
  1
acad
  9
$ELEVATION
 40
0.0
  9
$PELEVATION
 40
0.0
  9
$THICKNESS
 40
0.0
  9
$LIMCHECK
 70
     0
  9
$BLIPMODE
 70
     0
  9
$CHAMFERA
 40
0.5
  9
$CHAMFERB
 40
0.5
  9
$SKPOLY
 70
     0
  9
$TDCREATE
 40
2450752.6528104162
  9
$TDUPDATE
 40
2454953.7784492471
  9
$TDINDWG
 40
0.0086950694
  9
$TDUSRTIMER
 40
0.0086950694
  9
$USRTIMER
 70
     1
  9
$ANGBASE
 50
0.0
  9
$ANGDIR
 70
     0
  9
$PDMODE
 70
     0
  9
$PDSIZE
 40
0.0
  9
$PLINEWID
 40
0.0
  9
$COORDS
 70
     1
  9
$SPLFRAME
 70
     0
  9
$SPLINETYPE
 70
     6
  9
$SPLINESEGS
 70
     8
  9
$ATTDIA
 70
     0
  9
$ATTREQ
 70
     1
  9
$HANDLING
 70
 10241
  9
$HANDSEED
  5
815B
  9
$SURFTAB1
 70
     6
  9
$SURFTAB2
 70
     6
  9
$SURFTYPE
 70
     6
  9
$SURFU
 70
     6
  9
$SURFV
 70
     6
  9
$UCSNAME
  2

  9
$UCSORG
 10
0.0
 20
0.0
 30
0.0
  9
$UCSXDIR
 10
1.0
 20
0.0
 30
0.0
  9
$UCSYDIR
 10
0.0
 20
1.0
 30
0.0
  9
$PUCSNAME
  2

  9
$PUCSORG
 10
0.0
 20
0.0
 30
0.0
  9
$PUCSXDIR
 10
1.0
 20
0.0
 30
0.0
  9
$PUCSYDIR
 10
0.0
 20
1.0
 30
0.0
  9
$USERI1
 70
     0
  9
$USERI2
 70
     0
  9
$USERI3
 70
     0
  9
$USERI4
 70
     0
  9
$USERI5
 70
     0
  9
$USERR1
 40
0.0
  9
$USERR2
 40
0.0
  9
$USERR3
 40
0.0
  9
$USERR4
 40
0.0
  9
$USERR5
 40
0.0
  9
$WORLDVIEW
 70
     1
  9
$SHADEDGE
 70
     3
  9
$SHADEDIF
 70
    70
  9
$TILEMODE
 70
     1
  9
$MAXACTVP
 70
    16
  9
$PLIMCHECK
 70
     0
  9
$PEXTMIN
 10
1.0000000000000000E+020
 20
1.0000000000000000E+020
 30
1.0000000000000000E+020
  9
$PEXTMAX
 10
-1.0000000000000000E+020
 20
-1.0000000000000000E+020
 30
-1.0000000000000000E+020
  9
$PLIMMIN
 10
0.0
 20
0.0
  9
$PLIMMAX
 10
12.0
 20
9.0
  9
$UNITMODE
 70
     0
  9
$VISRETAIN
 70
     0
  9
$PLINEGEN
 70
     0
  9
$PSLTSCALE
 70
     1
  0
ENDSEC
  0
SECTION
  2
TABLES
  0
TABLE
  2
VPORT
 70
     2
  0
VPORT
  2
*ACTIVE
 70
     0
 10
0.0
 20
0.0
 11
1.0
 21
1.0
 12
12584.60902327445
 22
6173.4634074048672
 13
0.0
 23
0.0
 14
10.0
 24
10.0
 15
10.0
 25
10.0
 16
0.0
 26
0.0
 36
1.0
 17
0.0
 27
0.0
 37
0.0
 40
10023.29961609002
 41
3.1666666666666661
 42
50.0
 43
0.0
 44
0.0
 50
0.0
 51
0.0
 71
     0
 72
   100
 73
     1
 74
     0
 75
     0
 76
     0
 77
     0
 78
     0
  0
ENDTAB
  0
TABLE
  2
LTYPE
 70
     2
  0
LTYPE
  2
CONTINUOUS
 70
     0
  3
Solid line
 72
    65
 73
     0
 40
0.0
  0
LTYPE
  2
CENTER
 70
     0
  3
____ _ ____ _ ____ _ ____ _ ____ _ ____ _ ____ 
 72
    65
 73
     4
 40
2.0
 49
1.25
 49
-0.25
 49
0.25
 49
-0.25
  0
ENDTAB
  0
TABLE
  2
LAYER
 70
     6
  0
LAYER
  2
0
 70
     0
 62
     7
  6
CONTINUOUS
  0
LAYER
  2
3
 70
     0
 62
     2
  6
CONTINUOUS
  0
LAYER
  2
2
 70
     0
 62
     3
  6
CENTER
  0
LAYER
  2
1
 70
     0
 62
     4
  6
CONTINUOUS
  0
LAYER
  2
4
 70
     0
 62
     7
  6
CONTINUOUS
  0
LAYER
  2
DEFPOINTS
 70
     0
 62
     7
  6
CONTINUOUS
  0
ENDTAB
  0
TABLE
  2
STYLE
 70
     1
  0
STYLE
  2
STANDARD
 70
     0
 40
0.0
 41
1.0
 50
0.0
 71
     0
 42
180.0
  3
simplex.shx
  4
extfont.shx
  0
ENDTAB
  0
TABLE
  2
VIEW
 70
     0
  0
ENDTAB
  0
TABLE
  2
UCS
 70
     0
  0
ENDTAB
  0
TABLE
  2
APPID
 70
     1
  0
APPID
  2
ACAD
 70
     0
  0
ENDTAB
  0
TABLE
  2
DIMSTYLE
 70
     1
  0
DIMSTYLE
  2
IGA
 70
     0
  3

  4

  5

  6
OPEN
  7
OPEN
 40
2.0
 41
2.0
 42
0.5
 43
10.0
 44
1.0
 45
0.0
 46
0.0
 47
1.0
 48
1.0
140
3.0
141
0.0
142
0.0
143
0.03937
144
1.0
145
0.0
146
10.0
147
1.0
 71
     0
 72
     0
 73
     0
 74
     0
 75
     0
 76
     0
 77
     1
 78
     8
170
     0
171
     2
172
     0
173
     1
174
     0
175
     0
176
     0
177
     0
178
     0
  0
ENDTAB
  0
ENDSEC
  0
SECTION
  2
BLOCKS
  0
BLOCK
  8
0
  2
$MODEL_SPACE
 70
     0
 10
0.0
 20
0.0
 30
0.0
  3
$MODEL_SPACE
  1

  0
ENDBLK
  5
1B
  8
0
  0
BLOCK
 67
     1
  8
0
  2
$PAPER_SPACE
 70
     0
 10
0.0
 20
0.0
 30
0.0
  3
$PAPER_SPACE
  1

  0
ENDBLK
  5
18
 67
     1
  8
0
  0
BLOCK
  8
0
  2
_OPEN
 70
     0
 10
0.0
 20
0.0
 30
0.0
  3
_OPEN
  1

  0
LINE
  5
7BCF
  8
0
  6
BYBLOCK
 62
     0
 10
-1.0
 20
0.166667
 30
0.0
 11
0.0
 21
0.0
 31
0.0
  0
LINE
  5
7BD0
  8
0
  6
BYBLOCK
 62
     0
 10
0.0
 20
0.0
 30
0.0
 11
-1.0
 21
-0.166667
 31
0.0
  0
LINE
  5
7BD1
  8
0
  6
BYBLOCK
 62
     0
 10
0.0
 20
0.0
 30
0.0
 11
-1.0
 21
0.0
 31
0.0
  0
ENDBLK
  5
7BD2
  8
0
  0
BLOCK
  8
0
  2
*D1
 70
     1
 10
0.0
 20
0.0
 30
0.0
  3
*D1
  1

  0
LINE
  5
80C1
  8
3
  6
CONTINUOUS
 62
     0
 10
2555.0830660000001
 20
5231.2872702095174
 30
0.0
 11
2555.0830660000001
 21
5414.4089542095162
 31
0.0
  0
LINE
  5
80C2
  8
3
  6
CONTINUOUS
 62
     0
 10
3585.0830660000001
 20
5231.2872702095174
 30
0.0
 11
3585.0830660000001
 21
5414.4089542095162
 31
0.0
  0
LINE
  5
80C3
  8
3
  6
CONTINUOUS
 62
     0
 10
2635.0830660000001
 20
5374.4089542095162
 30
0.0
 11
3505.0830659999988
 21
5374.4089542095162
 31
0.0
  0
INSERT
  5
80C4
  8
3
  6
CONTINUOUS
 62
     0
  2
_OPEN
 10
2555.0830660000001
 20
5374.4089542095162
 30
0.0
 41
80.0
 42
80.0
 43
80.0
 50
180.0
  0
INSERT
  5
80C5
  8
3
  6
CONTINUOUS
 62
     0
  2
_OPEN
 10
3585.0830660000001
 20
5374.4089542095162
 30
0.0
 41
80.0
 42
80.0
 43
80.0
  0
TEXT
  8
3
  40
120
  5
814B
  62
0
  72
0
  71
0
 10
2822.39
 20
5262.01
 30
0.000000
  1
1030
  0
POINT
  5
80C7
  8
DEFPOINTS
  6
CONTINUOUS
 62
     0
 10
2555.0830660000001
 20
5211.2872702095174
 30
0.0
  0
POINT
  5
80C8
  8
DEFPOINTS
  6
CONTINUOUS
 62
     0
 10
3585.0830660000001
 20
5211.2872702095174
 30
0.0
  0
POINT
  5
80C9
  8
DEFPOINTS
  6
CONTINUOUS
 62
     0
 10
3585.0830660000001
 20
5374.4089542095162
 30
0.0
  0
ENDBLK
  5
7BDF
  8
0
  0
BLOCK
  8
0
  2
*D2
 70
     1
 10
0.0
 20
0.0
 30
0.0
  3
*D2
  1

  0
LINE
  5
80CA
  8
3
  6
CONTINUOUS
 62
     0
 10
3585.0830660000001
 20
5231.2872702095174
 30
0.0
 11
3585.0830660000001
 21
5665.2568612095174
 31
0.0
  0
LINE
  5
80CB
  8
3
  6
CONTINUOUS
 62
     0
 10
2603.0830660000001
 20
5411.5579862095155
 30
0.0
 11
2603.0830660000001
 21
5665.2568612095174
 31
0.0
  0
LINE
  5
80CC
  8
3
  6
CONTINUOUS
 62
     0
 10
3505.0830659999988
 20
5625.2568612095174
 30
0.0
 11
2683.0830660000001
 21
5625.2568612095174
 31
0.0
  0
INSERT
  5
80CD
  8
3
  6
CONTINUOUS
 62
     0
  2
_OPEN
 10
3585.0830660000001
 20
5625.2568612095174
 30
0.0
 41
80.0
 42
80.0
 43
80.0
  0
INSERT
  5
80CE
  8
3
  6
CONTINUOUS
 62
     0
  2
_OPEN
 10
2603.0830660000001
 20
5625.2568612095174
 30
0.0
 41
80.0
 42
80.0
 43
80.0
 50
180.0
  0
TEXT
  8
3
  40
120
  5
814C
  62
0
  72
0
  71
0
 10
2865.66
 20
5512.86
 30
0.000000
  1
982
  0
POINT
  5
80D0
  8
DEFPOINTS
  6
CONTINUOUS
 62
     0
 10
3585.0830660000001
 20
5211.2872702095174
 30
0.0
  0
POINT
  5
80D1
  8
DEFPOINTS
  6
CONTINUOUS
 62
     0
 10
2603.0830660000001
 20
5391.5579862095155
 30
0.0
  0
POINT
  5
80D2
  8
DEFPOINTS
  6
CONTINUOUS
 62
     0
 10
2603.0830660000001
 20
5625.2568612095174
 30
0.0
  0
ENDBLK
  5
7BF8
  8
0
  0
BLOCK
  8
0
  2
*D3
 70
     1
 10
0.0
 20
0.0
 30
0.0
  3
*D3
  1

  0
LINE
  5
80D3
  8
3
  6
CONTINUOUS
 62
     0
 10
2485.0830660000001
 20
5211.2872702095174
 30
0.0
 11
1602.944809000001
 21
5211.2872702095174
 31
0.0
  0
LINE
  5
80D4
  8
3
  6
CONTINUOUS
 62
     0
 10
1724.536356999999
 20
4481.2872702095156
 30
0.0
 11
1602.944809000001
 21
4481.2872702095156
 31
0.0
  0
LINE
  5
80D5
  8
3
  6
CONTINUOUS
 62
     0
 10
1642.944809000001
 20
5131.2872702095183
 30
0.0
 11
1642.9448090000001
 21
4561.2872702095174
 31
0.0
  0
INSERT
  5
80D6
  8
3
  6
CONTINUOUS
 62
     0
  2
_OPEN
 10
1642.944809000001
 20
5211.2872702095174
 30
0.0
 41
80.0
 42
80.0
 43
80.0
 50
90.0
  0
INSERT
  5
80D7
  8
3
  6
CONTINUOUS
 62
     0
  2
_OPEN
 10
1642.9448090000001
 20
4481.2872702095156
 30
0.0
 41
80.0
 42
80.0
 43
80.0
 50
270.0
  0
TEXT
  8
3
  40
120
  5
814D
  62
0
  72
0
  71
0
 10
1302.94
 20
4625.71
 30
0.000000
  1
730
  0
POINT
  5
80D9
  8
DEFPOINTS
  6
CONTINUOUS
 62
     0
 10
2505.0830660000001
 20
5211.2872702095174
 30
0.0
  0
POINT
  5
80DA
  8
DEFPOINTS
  6
CONTINUOUS
 62
     0
 10
1744.536357
 20
4481.2872702095156
 30
0.0
  0
POINT
  5
80DB
  8
DEFPOINTS
  6
CONTINUOUS
 62
     0
 10
1642.9448090000001
 20
4481.2872702095156
 30
0.0
  0
ENDBLK
  5
7C11
  8
0
  0
BLOCK
  8
0
  2
*D4
 70
     1
 10
0.0
 20
0.0
 30
0.0
  3
*D4
  1

  0
LINE
  5
80DC
  8
3
  6
CONTINUOUS
 62
     0
 10
1933.0830659999999
 20
3621.287270209516
 30
0.0
 11
1602.9448090000001
 21
3621.287270209516
 31
0.0
  0
LINE
  5
80DD
  8
3
  6
CONTINUOUS
 62
     0
 10
1642.9448090000001
 20
4401.2872702095156
 30
0.0
 11
1642.9448090000001
 21
3701.2872702095151
 31
0.0
  0
INSERT
  5
80DE
  8
3
  6
CONTINUOUS
 62
     0
  2
_OPEN
 10
1642.9448090000001
 20
4481.2872702095156
 30
0.0
 41
80.0
 42
80.0
 43
80.0
 50
90.0
  0
INSERT
  5
80DF
  8
3
  6
CONTINUOUS
 62
     0
  2
_OPEN
 10
1642.9448090000001
 20
3621.287270209516
 30
0.0
 41
80.0
 42
80.0
 43
80.0
 50
270.0
  0
TEXT
  8
3
  40
120
  5
814E
  62
0
  72
0
  71
0
 10
1302.94
 20
3838.89
 30
0.000000
  1
860
  0
POINT
  5
80E1
  8
DEFPOINTS
  6
CONTINUOUS
 62
     0
 10
1744.536357
 20
4481.2872702095156
 30
0.0
  0
POINT
  5
80E2
  8
DEFPOINTS
  6
CONTINUOUS
 62
     0
 10
1953.0830659999999
 20
3621.287270209516
 30
0.0
  0
POINT
  5
80E3
  8
DEFPOINTS
  6
CONTINUOUS
 62
     0
 10
1642.9448090000001
 20
3621.287270209516
 30
0.0
  0
ENDBLK
  5
7C1D
  8
0
  0
BLOCK
  8
0
  2
*D5
 70
     1
 10
0.0
 20
0.0
 30
0.0
  3
*D5
  1

  0
LINE
  5
80E4
  8
3
  6
CONTINUOUS
 62
     0
 10
5843.7631240000001
 20
5231.2872702095174
 30
0.0
 11
5843.7631240000001
 21
5440.3587252095158
 31
0.0
  0
LINE
  5
80E5
  8
3
  6
CONTINUOUS
 62
     0
 10
6593.7631240000001
 20
5231.2872702095174
 30
0.0
 11
6593.7631240000001
 21
5440.3587252095158
 31
0.0
  0
LINE
  5
80E6
  8
3
  6
CONTINUOUS
 62
     0
 10
5923.7631240000001
 20
5400.3587252095158
 30
0.0
 11
6513.7631240000001
 21
5400.3587252095158
 31
0.0
  0
INSERT
  5
80E7
  8
3
  6
CONTINUOUS
 62
     0
  2
_OPEN
 10
5843.7631240000001
 20
5400.3587252095158
 30
0.0
 41
80.0
 42
80.0
 43
80.0
 50
180.0
  0
INSERT
  5
80E8
  8
3
  6
CONTINUOUS
 62
     0
  2
_OPEN
 10
6593.7631240000001
 20
5400.3587252095158
 30
0.0
 41
80.0
 42
80.0
 43
80.0
  0
TEXT
  8
3
  40
120
  5
814F
  62
0
  72
0
  71
0
 10
5983.04
 20
5287.96
 30
0.000000
  1
750
  0
POINT
  5
80EA
  8
DEFPOINTS
  6
CONTINUOUS
 62
     0
 10
5843.7631240000001
 20
5211.2872702095174
 30
0.0
  0
POINT
  5
80EB
  8
DEFPOINTS
  6
CONTINUOUS
 62
     0
 10
6593.7631240000001
 20
5211.2872702095174
 30
0.0
  0
POINT
  5
80EC
  8
DEFPOINTS
  6
CONTINUOUS
 62
     0
 10
6593.7631240000001
 20
5400.3587252095158
 30
0.0
  0
ENDBLK
  5
7C6E
  8
0
  0
BLOCK
  8
0
  2
*D6
 70
     1
 10
0.0
 20
0.0
 30
0.0
  3
*D6
  1

  0
LINE
  5
80ED
  8
3
  6
CONTINUOUS
 62
     0
 10
6617.7631239999992
 20
5011.2872702095174
 30
0.0
 11
6998.7209670000011
 21
5011.2872702095174
 31
0.0
  0
LINE
  5
80EE
  8
3
  6
CONTINUOUS
 62
     0
 10
6617.7631239999992
 20
3951.287270209516
 30
0.0
 11
6998.7209670000011
 21
3951.287270209516
 31
0.0
  0
LINE
  5
80EF
  8
3
  6
CONTINUOUS
 62
     0
 10
6958.7209670000011
 20
4931.2872702095156
 30
0.0
 11
6958.7209670000011
 21
4031.287270209516
 31
0.0
  0
INSERT
  5
80F0
  8
3
  6
CONTINUOUS
 62
     0
  2
_OPEN
 10
6958.7209670000011
 20
5011.2872702095174
 30
0.0
 41
80.0
 42
80.0
 43
80.0
 50
90.0
  0
INSERT
  5
80F1
  8
3
  6
CONTINUOUS
 62
     0
  2
_OPEN
 10
6958.7209670000011
 20
3951.287270209516
 30
0.0
 41
80.0
 42
80.0
 43
80.0
 50
270.0
  0
TEXT
  8
3
  40
120
  5
8150
  62
0
  72
0
  71
0
 10
6618.72
 20
4271.07
 30
0.000000
  1
φ1060
  0
POINT
  5
80F3
  8
DEFPOINTS
  6
CONTINUOUS
 62
     0
 10
6597.7631240000001
 20
5011.2872702095174
 30
0.0
  0
POINT
  5
80F4
  8
DEFPOINTS
  6
CONTINUOUS
 62
     0
 10
6597.7631240000001
 20
3951.287270209516
 30
0.0
  0
POINT
  5
80F5
  8
DEFPOINTS
  6
CONTINUOUS
 62
     0
 10
6958.7209670000011
 20
3951.287270209516
 30
0.0
  0
ENDBLK
  5
7DE7
  8
0
  0
BLOCK
  8
0
  2
*D7
 70
     1
 10
0.0
 20
0.0
 30
0.0
  3
*D7
  1

  0
LINE
  5
80F6
  8
3
  6
CONTINUOUS
 62
     0
 10
1953.083065999999
 20
8067.284521308492
 30
0.0
 11
1953.083065999999
 21
8260.0067483084913
 31
0.0
  0
LINE
  5
80F7
  8
3
  6
CONTINUOUS
 62
     0
 10
3903.0830660000001
 20
8067.284521308492
 30
0.0
 11
3903.0830660000001
 21
8260.0067483084913
 31
0.0
  0
LINE
  5
80F8
  8
3
  6
CONTINUOUS
 62
     0
 10
2033.0830659999999
 20
8220.0067483084895
 30
0.0
 11
3823.0830659999988
 21
8220.0067483084895
 31
0.0
  0
INSERT
  5
80F9
  8
3
  6
CONTINUOUS
 62
     0
  2
_OPEN
 10
1953.083065999999
 20
8220.0067483084895
 30
0.0
 41
80.0
 42
80.0
 43
80.0
 50
180.0
  0
INSERT
  5
80FA
  8
3
  6
CONTINUOUS
 62
     0
  2
_OPEN
 10
3903.0830660000001
 20
8220.0067483084895
 30
0.0
 41
80.0
 42
80.0
 43
80.0
  0
TEXT
  8
3
  40
120
  5
8151
  62
0
  72
0
  71
0
 10
2657.94
 20
8107.61
 30
0.000000
  1
1950
  0
POINT
  5
80FC
  8
DEFPOINTS
  6
CONTINUOUS
 62
     0
 10
1953.083065999999
 20
8047.2845213084902
 30
0.0
  0
POINT
  5
80FD
  8
DEFPOINTS
  6
CONTINUOUS
 62
     0
 10
3903.0830660000001
 20
8047.2845213084902
 30
0.0
  0
POINT
  5
80FE
  8
DEFPOINTS
  6
CONTINUOUS
 62
     0
 10
3903.0830660000001
 20
8220.0067483084895
 30
0.0
  0
ENDBLK
  5
7CCA
  8
0
  0
BLOCK
  8
0
  2
*D8
 70
     1
 10
0.0
 20
0.0
 30
0.0
  3
*D8
  1

  0
LINE
  5
80FF
  8
3
  6
CONTINUOUS
 62
     0
 10
3923.0830659999988
 20
8047.2845213084902
 30
0.0
 11
4296.7924100000009
 21
8047.2845213084902
 31
0.0
  0
LINE
  5
8100
  8
3
  6
CONTINUOUS
 62
     0
 10
3923.0830659999988
 20
7022.2845213084911
 30
0.0
 11
4296.7924100000009
 21
7022.2845213084911
 31
0.0
  0
LINE
  5
8101
  8
3
  6
CONTINUOUS
 62
     0
 10
4256.7924100000009
 20
7967.2845213084911
 30
0.0
 11
4256.7924100000009
 21
7102.2845213084902
 31
0.0
  0
INSERT
  5
8102
  8
3
  6
CONTINUOUS
 62
     0
  2
_OPEN
 10
4256.7924100000009
 20
8047.2845213084902
 30
0.0
 41
80.0
 42
80.0
 43
80.0
 50
90.0
  0
INSERT
  5
8103
  8
3
  6
CONTINUOUS
 62
     0
  2
_OPEN
 10
4256.7924100000009
 20
7022.2845213084911
 30
0.0
 41
80.0
 42
80.0
 43
80.0
 50
270.0
  0
TEXT
  8
3
  40
120
  5
8152
  62
0
  72
0
  71
0
 10
3916.79
 20
7306.96
 30
0.000000
  1
1025
  0
POINT
  5
8105
  8
DEFPOINTS
  6
CONTINUOUS
 62
     0
 10
3903.0830660000001
 20
8047.2845213084902
 30
0.0
  0
POINT
  5
8106
  8
DEFPOINTS
  6
CONTINUOUS
 62
     0
 10
3903.0830660000001
 20
7022.2845213084911
 30
0.0
  0
POINT
  5
8107
  8
DEFPOINTS
  6
CONTINUOUS
 62
     0
 10
4256.7924100000009
 20
7022.2845213084911
 30
0.0
  0
ENDBLK
  5
7CD7
  8
0
  0
BLOCK
  8
0
  2
*D9
 70
     1
 10
0.0
 20
0.0
 30
0.0
  3
*D9
  1

  0
LINE
  5
8108
  8
3
  6
CONTINUOUS
 62
     0
 10
5558.7631240000001
 20
5066.2872702095156
 30
0.0
 11
5558.7631240000001
 21
5666.2386332095157
 31
0.0
  0
LINE
  5
8109
  8
3
  6
CONTINUOUS
 62
     0
 10
6218.7631240000001
 20
5590.275155209516
 30
0.0
 11
6218.7631240000001
 21
5666.2386332095157
 31
0.0
  0
LINE
  5
810A
  8
3
  6
CONTINUOUS
 62
     0
 10
5638.7631240000001
 20
5626.2386332095157
 30
0.0
 11
6138.7631240000001
 21
5626.2386332095157
 31
0.0
  0
INSERT
  5
810B
  8
3
  6
CONTINUOUS
 62
     0
  2
_OPEN
 10
5558.7631240000001
 20
5626.2386332095157
 30
0.0
 41
80.0
 42
80.0
 43
80.0
 50
180.0
  0
INSERT
  5
810C
  8
3
  6
CONTINUOUS
 62
     0
  2
_OPEN
 10
6218.7631240000001
 20
5626.2386332095157
 30
0.0
 41
80.0
 42
80.0
 43
80.0
  0
TEXT
  8
3
  40
120
  5
8153
  62
0
  72
0
  71
0
 10
5610.19
 20
5613.84
 30
0.000000
  1
MAX
  0
TEXT
  8
3
  40
120
  5
8154
  62
0
  72
0
  71
0
 10
5610.19
 20
5457.84
 30
0.000000
  1
700
  0
POINT
  5
810E
  8
DEFPOINTS
  6
CONTINUOUS
 62
     0
 10
5558.7631240000001
 20
5046.2872702095174
 30
0.0
  0
POINT
  5
810F
  8
DEFPOINTS
  6
CONTINUOUS
 62
     0
 10
6218.7631240000001
 20
5570.2751552095151
 30
0.0
  0
POINT
  5
8110
  8
DEFPOINTS
  6
CONTINUOUS
 62
     0
 10
6218.7631240000001
 20
5626.2386332095157
 30
0.0
  0
ENDBLK
  5
7DDC
  8
0
  0
BLOCK
  8
0
  2
*D10
 70
     1
 10
0.0
 20
0.0
 30
0.0
  3
*D10
  1

  0
LINE
  5
8111
  8
3
  6
CONTINUOUS
 62
     0
 10
6597.7631240000001
 20
5031.2872702095156
 30
0.0
 11
6597.7631240000001
 21
5666.2386332095157
 31
0.0
  0
LINE
  5
8112
  8
3
  6
CONTINUOUS
 62
     0
 10
6298.7631240000001
 20
5626.2386332095157
 30
0.0
 11
6517.7631240000001
 21
5626.2386332095157
 31
0.0
  0
TEXT
  8
3
  40
120
  5
8155
  62
0
  72
0
  71
0
 10
6177.69
 20
5513.84
 30
0.000000
  1
379
  0
INSERT
  5
8114
  8
3
  6
CONTINUOUS
 62
     0
  2
_OPEN
 10
6218.7631240000001
 20
5626.2386332095157
 30
0.0
 41
80.0
 42
80.0
 43
80.0
 50
180.0
  0
INSERT
  5
8115
  8
3
  6
CONTINUOUS
 62
     0
  2
_OPEN
 10
6597.7631240000001
 20
5626.2386332095157
 30
0.0
 41
80.0
 42
80.0
 43
80.0
  0
POINT
  5
8116
  8
DEFPOINTS
  6
CONTINUOUS
 62
     0
 10
6218.7631240000001
 20
5570.2751552095151
 30
0.0
  0
POINT
  5
8117
  8
DEFPOINTS
  6
CONTINUOUS
 62
     0
 10
6597.7631240000001
 20
5011.2872702095174
 30
0.0
  0
POINT
  5
8118
  8
DEFPOINTS
  6
CONTINUOUS
 62
     0
 10
6597.7631240000001
 20
5626.2386332095157
 30
0.0
  0
ENDBLK
  5
7D79
  8
0
  0
BLOCK
  8
0
  2
*D11
 70
     1
 10
0.0
 20
0.0
 30
0.0
  3
*D11
  1

  0
LINE
  5
8119
  8
3
 62
     0
 10
1953.0830659999999
 20
3381.287270209516
 30
0.0
 11
1953.0830659999999
 21
3108.7747966719071
 31
0.0
  0
LINE
  5
811A
  8
3
 62
     0
 10
2603.0830659999988
 20
3381.287270209516
 30
0.0
 11
2603.0830659999988
 21
3108.7747966719071
 31
0.0
  0
LINE
  5
811B
  8
3
 62
     0
 10
2033.0830659999999
 20
3148.7747966719071
 30
0.0
 11
2523.0830659999988
 21
3148.7747966719071
 31
0.0
  0
INSERT
  5
811C
  8
3
 62
     0
  2
_OPEN
 10
1953.0830659999999
 20
3148.7747966719071
 30
0.0
 41
80.0
 42
80.0
 43
80.0
 50
180.0
  0
INSERT
  5
811D
  8
3
 62
     0
  2
_OPEN
 10
2603.0830659999988
 20
3148.7747966719071
 30
0.0
 41
80.0
 42
80.0
 43
80.0
  0
TEXT
  8
3
  40
120
  5
8156
  62
0
  72
0
  71
0
 10
2038.08
 20
3036.37
 30
0.000000
  1
650
  0
POINT
  5
811F
  8
DEFPOINTS
 62
     0
 10
1953.0830659999999
 20
3401.287270209516
 30
0.0
  0
POINT
  5
8120
  8
DEFPOINTS
 62
     0
 10
2603.0830659999988
 20
3401.287270209516
 30
0.0
  0
POINT
  5
8121
  8
DEFPOINTS
 62
     0
 10
2603.0830659999988
 20
3148.7747966719071
 30
0.0
  0
ENDBLK
  5
7E1E
  8
0
  0
BLOCK
  8
0
  2
*D12
 70
     1
 10
0.0
 20
0.0
 30
0.0
  3
*D12
  1

  0
LINE
  5
8122
  8
3
 62
     0
 10
2603.0830659999988
 20
3381.287270209516
 30
0.0
 11
2603.0830659999988
 21
3108.7747966719071
 31
0.0
  0
LINE
  5
8123
  8
3
 62
     0
 10
3903.0830660000001
 20
3381.287270209516
 30
0.0
 11
3903.0830660000001
 21
3108.7747966719071
 31
0.0
  0
LINE
  5
8124
  8
3
 62
     0
 10
2683.0830660000001
 20
3148.7747966719071
 30
0.0
 11
3823.0830659999988
 21
3148.7747966719071
 31
0.0
  0
INSERT
  5
8125
  8
3
 62
     0
  2
_OPEN
 10
2603.0830659999988
 20
3148.7747966719071
 30
0.0
 41
80.0
 42
80.0
 43
80.0
 50
180.0
  0
INSERT
  5
8126
  8
3
 62
     0
  2
_OPEN
 10
3903.0830660000001
 20
3148.7747966719071
 30
0.0
 41
80.0
 42
80.0
 43
80.0
  0
TEXT
  8
3
  40
120
  5
8157
  62
0
  72
0
  71
0
 10
3013.08
 20
3036.37
 30
0.000000
  1
1300
  0
POINT
  5
8128
  8
DEFPOINTS
 62
     0
 10
2603.0830659999988
 20
3401.287270209516
 30
0.0
  0
POINT
  5
8129
  8
DEFPOINTS
 62
     0
 10
3903.0830660000001
 20
3401.287270209516
 30
0.0
  0
POINT
  5
812A
  8
DEFPOINTS
 62
     0
 10
3903.0830660000001
 20
3148.7747966719071
 30
0.0
  0
ENDBLK
  5
7E38
  8
0
  0
BLOCK
  8
0
  2
*D13
 70
     1
 10
0.0
 20
0.0
 30
0.0
  3
*D13
  1

  0
LINE
  5
812B
  8
3
 62
     0
 10
5636.2631240000001
 20
3381.287270209516
 30
0.0
 11
5636.2631240000001
 21
3108.7747966719071
 31
0.0
  0
LINE
  5
812C
  8
3
 62
     0
 10
6218.7631240000001
 20
3381.287270209516
 30
0.0
 11
6218.7631240000001
 21
3108.7747966719071
 31
0.0
  0
LINE
  5
812D
  8
3
 62
     0
 10
5716.263124000001
 20
3148.7747966719071
 30
0.0
 11
6138.7631240000001
 21
3148.7747966719071
 31
0.0
  0
INSERT
  5
812E
  8
3
 62
     0
  2
_OPEN
 10
5636.2631240000001
 20
3148.7747966719071
 30
0.0
 41
80.0
 42
80.0
 43
80.0
 50
180.0
  0
INSERT
  5
812F
  8
3
 62
     0
  2
_OPEN
 10
6218.7631240000001
 20
3148.7747966719071
 30
0.0
 41
80.0
 42
80.0
 43
80.0
  0
TEXT
  8
3
  40
120
  5
8158
  62
0
  72
0
  71
0
 10
5687.51
 20
3036.37
 30
0.000000
  1
583
  0
POINT
  5
8131
  8
DEFPOINTS
 62
     0
 10
5636.2631240000001
 20
3401.287270209516
 30
0.0
  0
POINT
  5
8132
  8
DEFPOINTS
 62
     0
 10
6218.7631240000001
 20
3401.287270209516
 30
0.0
  0
POINT
  5
8133
  8
DEFPOINTS
 62
     0
 10
6218.7631240000001
 20
3148.7747966719071
 30
0.0
  0
ENDBLK
  5
7E45
  8
0
  0
BLOCK
  8
0
  2
*D14
 70
     1
 10
0.0
 20
0.0
 30
0.0
  3
*D14
  1

  0
LINE
  5
8134
  8
3
 62
     0
 10
6218.7631240000001
 20
3381.287270209516
 30
0.0
 11
6218.7631240000001
 21
3108.7747966719071
 31
0.0
  0
LINE
  5
8135
  8
3
 62
     0
 10
6660.2631240000001
 20
3381.287270209516
 30
0.0
 11
6660.2631240000001
 21
3108.7747966719071
 31
0.0
  0
LINE
  5
8136
  8
3
 62
     0
 10
6298.7631240000001
 20
3148.7747966719071
 30
0.0
 11
6580.2631240000001
 21
3148.7747966719071
 31
0.0
  0
INSERT
  5
8137
  8
3
 62
     0
  2
_OPEN
 10
6218.7631240000001
 20
3148.7747966719071
 30
0.0
 41
80.0
 42
80.0
 43
80.0
 50
180.0
  0
INSERT
  5
8138
  8
3
 62
     0
  2
_OPEN
 10
6660.2631240000001
 20
3148.7747966719071
 30
0.0
 41
80.0
 42
80.0
 43
80.0
  0
TEXT
  8
3
  40
120
  5
8159
  62
0
  72
0
  71
0
 10
6199.51
 20
3036.37
 30
0.000000
  1
442
  0
POINT
  5
813A
  8
DEFPOINTS
 62
     0
 10
6218.7631240000001
 20
3401.287270209516
 30
0.0
  0
POINT
  5
813B
  8
DEFPOINTS
 62
     0
 10
6660.2631240000001
 20
3401.287270209516
 30
0.0
  0
POINT
  5
813C
  8
DEFPOINTS
 62
     0
 10
6660.2631240000001
 20
3148.7747966719071
 30
0.0
  0
ENDBLK
  5
7E54
  8
0
  0
BLOCK
  8
0
  2
_DOT
 70
     0
 10
0.0
 20
0.0
 30
0.0
  3
_DOT
  1

  0
POLYLINE
  5
7E58
  8
0
  6
BYBLOCK
 62
     0
 66
     1
 10
0.0
 20
0.0
 30
0.0
 70
     1
 40
0.5
 41
0.5
  0
VERTEX
  5
813D
  8
0
  6
BYBLOCK
 62
     0
 10
-0.25
 20
0.0
 30
0.0
 42
1.0
  0
VERTEX
  5
813E
  8
0
  6
BYBLOCK
 62
     0
 10
0.25
 20
0.0
 30
0.0
 42
1.0
  0
SEQEND
  5
813F
  8
0
  6
BYBLOCK
 62
     0
  0
LINE
  5
7E5C
  8
0
  6
BYBLOCK
 62
     0
 10
-0.5
 20
0.0
 30
0.0
 11
-1.0
 21
0.0
 31
0.0
  0
ENDBLK
  5
7E5D
  8
0
  0
BLOCK
  8
0
  2
*D16
 70
     1
 10
0.0
 20
0.0
 30
0.0
  3
*D16
  1

  0
LINE
  5
8140
  8
3
 62
     0
 10
1933.0830659999999
 20
3526.287270209516
 30
0.0
 11
1602.1326911931239
 21
3526.287270209516
 31
0.0
  0
LINE
  5
8141
  8
3
 62
     0
 10
1933.0830659999999
 20
3401.287270209516
 30
0.0
 11
1602.1326911931239
 21
3401.287270209516
 31
0.0
  0
LINE
  5
8142
  8
3
 62
     0
 10
1642.1326911931251
 20
3606.287270209516
 30
0.0
 11
1642.1326911931251
 21
3686.287270209516
 31
0.0
  0
LINE
  5
8143
  8
3
 62
     0
 10
1642.1326911931239
 20
3321.287270209516
 30
0.0
 11
1642.1326911931239
 21
2875.5729844952298
 31
0.0
  0
LINE
  5
8144
  8
3
 62
     0
 10
1642.1326911931239
 20
3526.287270209516
 30
0.0
 11
1642.1326911931239
 21
3401.287270209516
 31
0.0
  0
INSERT
  5
8145
  8
3
 62
     0
  2
_DOT
 10
1642.1326911931239
 20
3526.287270209516
 30
0.0
 41
80.0
 42
80.0
 43
80.0
 50
270.0
  0
INSERT
  5
8146
  8
3
 62
     0
  2
_OPEN
 10
1642.1326911931239
 20
3401.287270209516
 30
0.0
 41
80.0
 42
80.0
 43
80.0
 50
90.0
  0
TEXT
  8
3
  40
120
  5
815A
  62
0
  72
0
  71
0
 10
1302.13
 20
2846.03
 30
0.000000
  1
125
  0
POINT
  5
8148
  8
DEFPOINTS
 62
     0
 10
1953.0830659999999
 20
3526.287270209516
 30
0.0
  0
POINT
  5
8149
  8
DEFPOINTS
 62
     0
 10
1953.0830659999999
 20
3401.287270209516
 30
0.0
  0
POINT
  5
814A
  8
DEFPOINTS
 62
     0
 10
1642.1326911931239
 20
3401.287270209516
 30
0.0
  0
ENDBLK
  5
7E6B
  8
0
  0
BLOCK
  8
0
  2
*D17
 70
     1
 10
0.0
 20
0.0
 30
0.0
  3
*D17
  1

  0
LINE
  5
7E6F
  8
0
  6
BYBLOCK
 62
     0
 10
1933.0830659999999
 20
3526.287270209516
 30
0.0
 11
1602.1326911931239
 21
3526.287270209516
 31
0.0
  0
LINE
  5
7E70
  8
0
  6
BYBLOCK
 62
     0
 10
1933.0830659999999
 20
3621.287270209516
 30
0.0
 11
1602.1326911931239
 21
3621.287270209516
 31
0.0
  0
LINE
  5
7E71
  8
0
  6
BYBLOCK
 62
     0
 10
1642.1326911931239
 20
3446.287270209516
 30
0.0
 11
1642.1326911931239
 21
3366.2872702095151
 31
0.0
  0
LINE
  5
7E72
  8
0
  6
BYBLOCK
 62
     0
 10
1642.1326911931239
 20
3701.2872702095151
 30
0.0
 11
1642.1326911931239
 21
3781.287270209516
 31
0.0
  0
TEXT
  5
7E73
  8
3
 62
     0
 10
1490.7041197645531
 20
3399.5015559238009
 30
0.0
 40
120.0
  1
(95)
 50
90.0
  0
LINE
  5
7E74
  8
0
  6
BYBLOCK
 62
     0
 10
1642.1326911931239
 20
3526.287270209516
 30
0.0
 11
1642.1326911931239
 21
3621.287270209516
 31
0.0
  0
INSERT
  5
7E75
  8
0
  6
BYBLOCK
 62
     0
  2
_DOT
 10
1642.1326911931239
 20
3526.287270209516
 30
0.0
 41
80.0
 42
80.0
 43
80.0
 50
90.0
  0
INSERT
  5
7E76
  8
0
  6
BYBLOCK
 62
     0
  2
_OPEN
 10
1642.1326911931239
 20
3621.287270209516
 30
0.0
 41
80.0
 42
80.0
 43
80.0
 50
270.0
  0
POINT
  5
7E77
  8
DEFPOINTS
  6
BYBLOCK
 62
     0
 10
1953.0830659999999
 20
3526.287270209516
 30
0.0
  0
POINT
  5
7E78
  8
DEFPOINTS
  6
BYBLOCK
 62
     0
 10
1953.0830659999999
 20
3621.287270209516
 30
0.0
  0
POINT
  5
7E79
  8
DEFPOINTS
  6
BYBLOCK
 62
     0
 10
1642.1326911931239
 20
3621.287270209516
 30
0.0
  0
ENDBLK
  5
7E7A
  8
0
  0
BLOCK
  8
0
  2
*D18
 70
     1
 10
0.0
 20
0.0
 30
0.0
  3
*D18
  1

  0
LINE
  5
807E
  8
3
 62
     0
 10
2603.0830660000001
 20
5411.5579862095155
 30
0.0
 11
2603.0830660000001
 21
5665.2568612095174
 31
0.0
  0
LINE
  5
807F
  8
3
 62
     0
 10
1885.1922468271659
 20
4458.2872702095156
 30
0.0
 11
1885.1922468271659
 21
5665.2568612095174
 31
0.0
  0
LINE
  5
8080
  8
3
 62
     0
 10
2523.0830660000001
 20
5625.2568612095174
 30
0.0
 11
1965.1922468271659
 21
5625.2568612095174
 31
0.0
  0
INSERT
  5
8081
  8
3
 62
     0
  2
_OPEN
 10
2603.0830660000001
 20
5625.2568612095174
 30
0.0
 41
80.0
 42
80.0
 43
80.0
  0
INSERT
  5
8082
  8
3
 62
     0
  2
_OPEN
 10
1885.1922468271659
 20
5625.2568612095174
 30
0.0
 41
80.0
 42
80.0
 43
80.0
 50
180.0
  0
TEXT
  5
8083
  8
3
 62
     0
 10
2104.137656413583
 20
5665.2568612095174
 30
0.0
 40
120.0
  1
716
  0
POINT
  5
8084
  8
DEFPOINTS
 62
     0
 10
2603.0830660000001
 20
5391.5579862095155
 30
0.0
  0
POINT
  5
8085
  8
DEFPOINTS
 62
     0
 10
1885.1922468271659
 20
4438.2872702095156
 30
0.0
  0
POINT
  5
8086
  8
DEFPOINTS
 62
     0
 10
1885.1922468271659
 20
5625.2568612095174
 30
0.0
  0
ENDBLK
  5
7EA1
  8
0
  0
ENDSEC
  0
SECTION
  2
ENTITIES
  0
LINE
  5
7AD9
  8
1
  6
CONTINUOUS
 10
3618.9116739999999
 20
3831.3528622095159
 30
0.0
 11
2526.6298729999999
 21
4304.9647852095159
 31
0.0
  0
LINE
  5
7ADA
  8
1
  6
CONTINUOUS
 10
3738.7446839999998
 20
4075.583949209516
 30
0.0
 11
2695.7526509999998
 21
4649.653113209517
 31
0.0
  0
LINE
  5
7ADB
  8
1
  6
CONTINUOUS
 10
3585.0830660000001
 20
7229.7845213084911
 30
0.0
 11
2555.0830660000001
 21
7979.7845213084911
 31
0.0
  0
LINE
  5
7ADC
  8
1
  6
CONTINUOUS
 10
3585.0830660000001
 20
7979.7845213084911
 30
0.0
 11
2555.0830660000001
 21
7229.7845213084911
 31
0.0
  0
ARC
  5
7ADE
  8
1
  6
CONTINUOUS
 10
2668.0830660000001
 20
4546.2872702095174
 30
0.0
 40
895.0
 50
265.83518700000002
 51
355.83518700000002
  0
LINE
  5
7ADF
  8
1
  6
CONTINUOUS
 10
3635.0830659999988
 20
5211.2872702095174
 30
0.0
 11
2505.0830660000001
 21
5211.2872702095174
 31
0.0
  0
LINE
  5
7AE0
  8
1
  6
CONTINUOUS
 10
3583.4143359999998
 20
5161.2872702095156
 30
0.0
 11
2555.0830660000001
 21
5161.2872702095156
 31
0.0
  0
LINE
  5
7AE1
  8
1
  6
CONTINUOUS
 10
3903.0830660000001
 20
3746.287270209516
 30
0.0
 11
1953.0830659999999
 21
3746.287270209516
 31
0.0
  0
LINE
  5
7AE2
  8
1
  6
CONTINUOUS
 10
3903.0830660000001
 20
3621.287270209516
 30
0.0
 11
1953.0830659999999
 21
3621.287270209516
 31
0.0
  0
LINE
  5
7AE3
  8
1
  6
CONTINUOUS
 10
3903.0830660000001
 20
8047.2845213084902
 30
0.0
 11
1953.083065999999
 21
8047.2845213084902
 31
0.0
  0
LINE
  5
7AE4
  8
1
  6
CONTINUOUS
 10
3585.0830660000001
 20
7979.7845213084911
 30
0.0
 11
1887.083065999999
 21
7979.7845213084911
 31
0.0
  0
LINE
  5
7AE5
  8
1
  6
CONTINUOUS
 10
3585.0830660000001
 20
7229.7845213084911
 30
0.0
 11
1887.083065999999
 21
7229.7845213084911
 31
0.0
  0
LINE
  5
7AE6
  8
1
  6
CONTINUOUS
 10
3536.9330659999991
 20
7022.2845213084911
 30
0.0
 11
2795.283066
 21
7022.2845213084911
 31
0.0
  0
LINE
  5
7AE7
  8
1
  6
CONTINUOUS
 10
2833.0830660000001
 20
5046.2872702095174
 30
0.0
 11
3833.0830660000001
 21
4146.2872702095174
 31
0.0
  0
POLYLINE
  5
7AE8
  8
1
  6
CONTINUOUS
 66
     1
 10
0.0
 20
0.0
 30
0.0
 70
     1
  0
VERTEX
  5
8095
  8
1
  6
CONTINUOUS
 10
3833.0830660000001
 20
7158.784521308492
 30
0.0
  0
VERTEX
  5
8096
  8
1
  6
CONTINUOUS
 10
3833.0830660000001
 20
6978.7845213084902
 30
0.0
  0
VERTEX
  5
8097
  8
1
  6
CONTINUOUS
 10
2063.0830660000001
 20
6978.7845213084902
 30
0.0
  0
VERTEX
  5
8098
  8
1
  6
CONTINUOUS
 10
2063.0830660000001
 20
7158.784521308492
 30
0.0
  0
SEQEND
  5
8099
  8
1
  6
CONTINUOUS
  0
POLYLINE
  5
7AEE
  8
1
  6
CONTINUOUS
 66
     1
 10
0.0
 20
0.0
 30
0.0
 70
     1
  0
VERTEX
  5
809A
  8
1
  6
CONTINUOUS
 10
3903.0830660000001
 20
3526.287270209516
 30
0.0
  0
VERTEX
  5
809B
  8
1
  6
CONTINUOUS
 10
1953.0830659999999
 20
3526.287270209516
 30
0.0
  0
VERTEX
  5
809C
  8
1
  6
CONTINUOUS
 10
1953.0830659999999
 20
3401.287270209516
 30
0.0
  0
VERTEX
  5
809D
  8
1
  6
CONTINUOUS
 10
3903.0830660000001
 20
3401.287270209516
 30
0.0
  0
SEQEND
  5
809E
  8
1
  6
CONTINUOUS
  0
ARC
  5
7AF4
  8
1
  6
CONTINUOUS
 10
2659.0830660000001
 20
4425.2872702095156
 30
0.0
 40
774.0
 50
175.850944
 51
265.85094399999991
  0
ARC
  5
7AF5
  8
1
  6
CONTINUOUS
 10
2560.0830660000001
 20
4438.2872702095156
 30
0.0
 40
674.0
 50
90.425047000000006
 51
176.34214700000001
  0
LINE
  5
7AF6
  8
1
  6
CONTINUOUS
 10
1953.0830659999999
 20
3746.2872702095151
 30
0.0
 11
1953.0830659999999
 21
3621.287270209516
 31
0.0
  0
LINE
  5
7AF7
  8
1
  6
CONTINUOUS
 10
2555.0830660000001
 20
5112.2687232095159
 30
0.0
 11
2555.0830660000001
 21
5211.2872702095174
 31
0.0
  0
CIRCLE
  5
7AFA
  8
1
  6
CONTINUOUS
 10
2603.0830660000001
 20
4481.2872702095156
 30
0.0
 40
192.18405100000001
  0
LINE
  5
7AFB
  8
2
  6
CENTER
 10
6766.8974269999999
 20
4481.2872702095156
 30
0.0
 11
5480.914495
 21
4481.2872702095156
 31
0.0
  0
LINE
  5
7AFC
  8
1
  6
CONTINUOUS
 10
2833.0830660000001
 20
5046.2872702095174
 30
0.0
 11
2063.0830660000001
 21
5046.2872702095174
 31
0.0
  0
LINE
  5
7AFD
  8
1
  6
CONTINUOUS
 10
2063.0830660000001
 20
5046.2872702095174
 30
0.0
 11
2063.0830660000001
 21
3746.287270209516
 31
0.0
  0
LINE
  5
7AFE
  8
2
  6
CENTER
 10
2603.0830659999988
 20
3401.287270209516
 30
0.0
 11
2603.0830660000001
 21
5391.5579862095155
 31
0.0
  0
LINE
  5
7AFF
  8
1
  6
CONTINUOUS
 10
2410.8830659999999
 20
7022.2845213084911
 30
0.0
 11
1953.083065999999
 21
7022.2845213084911
 31
0.0
  0
LINE
  5
7B00
  8
1
  6
CONTINUOUS
 10
1887.083065999999
 20
7229.7845213084911
 30
0.0
 11
1887.083065999999
 21
7979.7845213084911
 31
0.0
  0
LINE
  5
7B01
  8
1
  6
CONTINUOUS
 10
1953.083065999999
 20
7022.2845213084911
 30
0.0
 11
1953.083065999999
 21
7229.7845213084911
 31
0.0
  0
LINE
  5
7B02
  8
1
  6
CONTINUOUS
 10
1953.083065999999
 20
7979.7845213084911
 30
0.0
 11
1953.083065999999
 21
8047.2845213084902
 31
0.0
  0
POLYLINE
  5
7B03
  8
1
  6
CONTINUOUS
 66
     1
 10
0.0
 20
0.0
 30
0.0
 70
     1
  0
VERTEX
  5
809F
  8
1
  6
CONTINUOUS
 10
2795.283066
 20
7107.784521308492
 30
0.0
  0
VERTEX
  5
80A0
  8
1
  6
CONTINUOUS
 10
2795.283066
 20
7006.7845213084911
 30
0.0
  0
VERTEX
  5
80A1
  8
1
  6
CONTINUOUS
 10
2410.8830659999999
 20
7006.7845213084911
 30
0.0
  0
VERTEX
  5
80A2
  8
1
  6
CONTINUOUS
 10
2410.8830659999999
 20
7107.784521308492
 30
0.0
  0
SEQEND
  5
80A3
  8
1
  6
CONTINUOUS
  0
LINE
  5
7B09
  8
1
  6
CONTINUOUS
 10
2555.0830660000001
 20
7229.7845213084911
 30
0.0
 11
2555.0830660000001
 21
7979.7845213084911
 31
0.0
  0
LINE
  5
7B0A
  8
1
  6
CONTINUOUS
 10
2575.5830660000001
 20
7107.784521308492
 30
0.0
 11
2575.5830660000001
 21
7229.7845213084911
 31
0.0
  0
LINE
  5
7B0B
  8
1
  6
CONTINUOUS
 10
2630.5830660000001
 20
7107.784521308492
 30
0.0
 11
2630.5830660000001
 21
7229.7845213084911
 31
0.0
  0
LINE
  5
7B1A
  8
1
  6
CONTINUOUS
 10
3560.7196100000001
 20
4481.2872702095156
 30
0.0
 11
3585.0830660000001
 21
5211.2872702095174
 31
0.0
  0
ARC
  5
7B1C
  8
1
  6
CONTINUOUS
 10
3673.0830659999988
 20
3956.287270209516
 30
0.0
 40
162.0
 50
324.972283
 51
215.02771699999991
  0
LINE
  5
7B1D
  8
1
  6
CONTINUOUS
 10
3827.0830659999988
 20
3814.287270209516
 30
0.0
 11
3805.7407320000002
 21
3863.3037032095158
 31
0.0
  0
POLYLINE
  5
7B1E
  8
1
  6
CONTINUOUS
 66
     1
 10
0.0
 20
0.0
 30
0.0
  0
VERTEX
  5
80A4
  8
1
  6
CONTINUOUS
 10
3870.5830660000001
 20
3746.287270209516
 30
0.0
  0
VERTEX
  5
80A5
  8
1
  6
CONTINUOUS
 10
3475.5830660000001
 20
3746.287270209516
 30
0.0
  0
VERTEX
  5
80A6
  8
1
  6
CONTINUOUS
 10
3485.5830659999988
 20
3796.287270209516
 30
0.0
  0
VERTEX
  5
80A7
  8
1
  6
CONTINUOUS
 10
3519.0830659999988
 20
3796.287270209516
 30
0.0
  0
SEQEND
  5
80A8
  8
1
  6
CONTINUOUS
  0
CIRCLE
  5
7B24
  8
1
  6
CONTINUOUS
 10
3673.0830659999988
 20
3956.287270209516
 30
0.0
 40
136.1732199999999
  0
LINE
  5
7B25
  8
1
  6
CONTINUOUS
 10
3519.0830659999988
 20
3814.287270209516
 30
0.0
 11
3540.4254000000001
 21
3863.3037032095158
 31
0.0
  0
LINE
  5
7B26
  8
1
  6
CONTINUOUS
 10
3519.0830659999988
 20
3796.287270209516
 30
0.0
 11
3519.0830659999988
 21
3814.287270209516
 31
0.0
  0
LINE
  5
7B27
  8
2
  6
CENTER
 10
3673.0830659999988
 20
3815.1140492095151
 30
0.0
 11
3673.0830659999988
 21
4097.4604902095161
 31
0.0
  0
LINE
  5
7B28
  8
2
  6
CENTER
 10
3814.2562859999989
 20
3956.287270209516
 30
0.0
 11
3531.909846
 21
3956.287270209516
 31
0.0
  0
LINE
  5
7B29
  8
1
  6
CONTINUOUS
 10
3903.0830660000001
 20
3746.287270209516
 30
0.0
 11
3903.0830660000001
 21
3621.287270209516
 31
0.0
  0
LINE
  5
7B2A
  8
1
  6
CONTINUOUS
 10
3827.0830659999988
 20
3796.287270209516
 30
0.0
 11
3827.0830659999988
 21
3814.287270209516
 31
0.0
  0
POLYLINE
  5
7B2B
  8
1
  6
CONTINUOUS
 66
     1
 10
0.0
 20
0.0
 30
0.0
  0
VERTEX
  5
80A9
  8
1
  6
CONTINUOUS
 10
3827.0830659999988
 20
3796.287270209516
 30
0.0
  0
VERTEX
  5
80AA
  8
1
  6
CONTINUOUS
 10
3860.5830659999988
 20
3796.287270209516
 30
0.0
  0
VERTEX
  5
80AB
  8
1
  6
CONTINUOUS
 10
3870.5830660000001
 20
3746.287270209516
 30
0.0
  0
SEQEND
  5
80AC
  8
1
  6
CONTINUOUS
  0
LINE
  5
7B30
  8
1
  6
CONTINUOUS
 10
3833.0830660000001
 20
4146.2872702095174
 30
0.0
 11
3833.0830660000001
 21
3746.287270209516
 31
0.0
  0
LINE
  5
7B60
  8
1
  6
CONTINUOUS
 10
3903.0830660000001
 20
7022.2845213084911
 30
0.0
 11
3809.2330659999998
 21
7022.2845213084911
 31
0.0
  0
LINE
  5
7B61
  8
1
  6
CONTINUOUS
 10
3835.0830660000001
 20
7703.9062413084894
 30
0.0
 11
3585.0830660000001
 21
7703.9062413084894
 31
0.0
  0
LINE
  5
7B62
  8
1
  6
CONTINUOUS
 10
3511.0830659999988
 20
7229.7845213084911
 30
0.0
 11
3835.0830660000001
 21
7229.7845213084911
 31
0.0
  0
LINE
  5
7B63
  8
1
  6
CONTINUOUS
 10
3585.0830660000001
 20
7229.7845213084911
 30
0.0
 11
3585.0830660000001
 21
7979.7845213084911
 31
0.0
  0
LINE
  5
7B64
  8
1
  6
CONTINUOUS
 10
3652.0830659999988
 20
7107.784521308492
 30
0.0
 11
3652.0830659999988
 21
7229.7845213084911
 31
0.0
  0
LINE
  5
7B65
  8
1
  6
CONTINUOUS
 10
3694.0830659999988
 20
7107.784521308492
 30
0.0
 11
3694.0830659999988
 21
7229.7845213084911
 31
0.0
  0
POLYLINE
  5
7B66
  8
1
  6
CONTINUOUS
 66
     1
 10
0.0
 20
0.0
 30
0.0
 70
     1
  0
VERTEX
  5
80AD
  8
1
  6
CONTINUOUS
 10
3536.9330659999991
 20
7107.784521308492
 30
0.0
  0
VERTEX
  5
80AE
  8
1
  6
CONTINUOUS
 10
3536.9330659999991
 20
7006.7845213084911
 30
0.0
  0
VERTEX
  5
80AF
  8
1
  6
CONTINUOUS
 10
3809.2330659999998
 20
7006.7845213084911
 30
0.0
  0
VERTEX
  5
80B0
  8
1
  6
CONTINUOUS
 10
3809.2330659999998
 20
7107.784521308492
 30
0.0
  0
SEQEND
  5
80B1
  8
1
  6
CONTINUOUS
  0
LINE
  5
7B6C
  8
1
  6
CONTINUOUS
 10
3903.0830660000001
 20
7022.2845213084911
 30
0.0
 11
3903.0830660000001
 21
8047.2845213084902
 31
0.0
  0
LINE
  5
7B6D
  8
1
  6
CONTINUOUS
 10
3835.0830660000001
 20
7229.7845213084911
 30
0.0
 11
3835.0830660000001
 21
7703.9062413084894
 31
0.0
  0
POLYLINE
  5
7B89
  8
1
  6
CONTINUOUS
 66
     1
 10
0.0
 20
0.0
 30
0.0
 70
     1
  0
VERTEX
  5
80B2
  8
1
  6
CONTINUOUS
 10
5636.2631240000001
 20
3401.287270209516
 30
0.0
  0
VERTEX
  5
80B3
  8
1
  6
CONTINUOUS
 10
5636.2631240000001
 20
3526.287270209516
 30
0.0
  0
VERTEX
  5
80B4
  8
1
  6
CONTINUOUS
 10
6660.2631240000001
 20
3526.287270209516
 30
0.0
  0
VERTEX
  5
80B5
  8
1
  6
CONTINUOUS
 10
6660.2631240000001
 20
3401.287270209516
 30
0.0
  0
SEQEND
  5
80B6
  8
1
  6
CONTINUOUS
  0
LINE
  5
7B8F
  8
1
  6
CONTINUOUS
 10
5636.2631240000001
 20
3746.287270209516
 30
0.0
 11
6660.2631240000001
 21
3746.287270209516
 31
0.0
  0
LINE
  5
7B90
  8
1
  6
CONTINUOUS
 10
5636.2631240000001
 20
3621.287270209516
 30
0.0
 11
6660.2631240000001
 21
3621.287270209516
 31
0.0
  0
LINE
  5
7B91
  8
1
  6
CONTINUOUS
 10
5843.7631240000001
 20
3746.287270209516
 30
0.0
 11
5843.7631240000001
 21
5211.2872702095174
 31
0.0
  0
LINE
  5
7B92
  8
1
  6
CONTINUOUS
 10
6593.7631240000001
 20
3746.287270209516
 30
0.0
 11
6593.7631240000001
 21
5211.2872702095174
 31
0.0
  0
LINE
  5
7B93
  8
1
  6
CONTINUOUS
 10
5772.7631240000001
 20
3746.287270209516
 30
0.0
 11
5772.7631240000001
 21
5046.2872702095174
 31
0.0
  0
LINE
  5
7B94
  8
1
  6
CONTINUOUS
 10
5558.7631240000001
 20
3746.287270209516
 30
0.0
 11
5558.7631240000001
 21
5046.2872702095174
 31
0.0
  0
LINE
  5
7B95
  8
1
  6
CONTINUOUS
 10
5721.7631240000001
 20
3935.287270209516
 30
0.0
 11
5843.7631240000001
 21
3935.287270209516
 31
0.0
  0
LINE
  5
7B96
  8
1
  6
CONTINUOUS
 10
5721.7631240000001
 20
3977.287270209516
 30
0.0
 11
5843.7631240000001
 21
3977.287270209516
 31
0.0
  0
POLYLINE
  5
7B97
  8
1
  6
CONTINUOUS
 66
     1
 10
0.0
 20
0.0
 30
0.0
 70
     1
  0
VERTEX
  5
80B7
  8
1
  6
CONTINUOUS
 10
5620.7631240000001
 20
4092.4604902095161
 30
0.0
  0
VERTEX
  5
80B8
  8
1
  6
CONTINUOUS
 10
5620.7631240000001
 20
3820.114049209516
 30
0.0
  0
VERTEX
  5
80B9
  8
1
  6
CONTINUOUS
 10
5721.7631240000001
 20
3820.114049209516
 30
0.0
  0
VERTEX
  5
80BA
  8
1
  6
CONTINUOUS
 10
5721.7631240000001
 20
4092.4604902095161
 30
0.0
  0
SEQEND
  5
80BB
  8
1
  6
CONTINUOUS
  0
LINE
  5
7B9D
  8
1
  6
CONTINUOUS
 10
5636.2631240000001
 20
3746.287270209516
 30
0.0
 11
5558.7631240000001
 21
3746.287270209516
 31
0.0
  0
LINE
  5
7B9E
  8
1
  6
CONTINUOUS
 10
5636.2631240000001
 20
3621.287270209516
 30
0.0
 11
5636.2631240000001
 21
3746.287270209516
 31
0.0
  0
LINE
  5
7B9F
  8
1
  6
CONTINUOUS
 10
5558.7631240000001
 20
5046.2872702095174
 30
0.0
 11
5772.7631240000001
 21
5046.2872702095174
 31
0.0
  0
LINE
  5
7BA0
  8
1
  6
CONTINUOUS
 10
5721.7631240000001
 20
4453.7872702095156
 30
0.0
 11
5843.7631240000001
 21
4453.7872702095156
 31
0.0
  0
LINE
  5
7BA1
  8
1
  6
CONTINUOUS
 10
5721.7631240000001
 20
4508.7872702095156
 30
0.0
 11
5843.7631240000001
 21
4508.7872702095156
 31
0.0
  0
POLYLINE
  5
7BA2
  8
1
  6
CONTINUOUS
 66
     1
 10
0.0
 20
0.0
 30
0.0
 70
     1
  0
VERTEX
  5
80BC
  8
1
  6
CONTINUOUS
 10
5620.7631240000001
 20
4289.1032192095154
 30
0.0
  0
VERTEX
  5
80BD
  8
1
  6
CONTINUOUS
 10
5721.7631240000001
 20
4289.1032192095154
 30
0.0
  0
VERTEX
  5
80BE
  8
1
  6
CONTINUOUS
 10
5721.7631240000001
 20
4673.4713202095163
 30
0.0
  0
VERTEX
  5
80BF
  8
1
  6
CONTINUOUS
 10
5620.7631240000001
 20
4673.4713202095163
 30
0.0
  0
SEQEND
  5
80C0
  8
1
  6
CONTINUOUS
  0
LINE
  5
7BA8
  8
1
  6
CONTINUOUS
 10
5793.7631240000001
 20
5211.2872702095174
 30
0.0
 11
6643.7631240000001
 21
5211.2872702095174
 31
0.0
  0
LINE
  5
7BA9
  8
1
  6
CONTINUOUS
 10
6660.2631240000001
 20
3621.287270209516
 30
0.0
 11
6660.2631240000001
 21
3746.287270209516
 31
0.0
  0
LINE
  5
7BAA
  8
2
  6
CENTER
 10
1758.4847539999989
 20
7604.7845213084911
 30
0.0
 11
4005.793803
 21
7604.7845213084911
 31
0.0
  0
LINE
  5
7BAB
  8
2
  6
CENTER
 10
6218.7631240000001
 20
5414.8045502095174
 30
0.0
 11
6218.7631240000001
 21
3401.287270209516
 31
0.0
  0
LINE
  5
7BAC
  8
2
  6
CENTER
 10
2603.0830660000001
 20
6859.1431713084921
 30
0.0
 11
2603.0830660000001
 21
8199.4344353084907
 31
0.0
  0
LINE
  5
7BAD
  8
2
  6
CENTER
 10
3753.0360659999992
 20
4481.2872702095156
 30
0.0
 11
1705.992033999999
 21
4481.2872702095156
 31
0.0
  0
LINE
  5
7BAE
  8
4
  6
CONTINUOUS
 10
7400.0
 20
2000.0
 30
0.0
 11
7400.0
 21
1200.0
 31
0.0
  0
LINE
  5
7BAF
  8
4
  6
CONTINUOUS
 10
4600.0
 20
2000.0
 30
0.0
 11
4600.0
 21
1200.0
 31
0.0
  0
LINE
  5
7BB0
  8
4
  6
CONTINUOUS
 10
2600.0
 20
2000.0
 30
0.0
 11
2600.0
 21
1200.0
 31
0.0
  0
LINE
  5
7BB3
  8
4
  6
CONTINUOUS
 10
2600.0
 20
1200.0
 30
0.0
 11
7400.0
 21
1200.0
 31
0.0
  0
LINE
  5
7BB4
  8
4
  6
CONTINUOUS
 10
2600.0
 20
1600.0
 30
0.0
 11
7400.0
 21
1600.0
 31
0.0
  0
TEXT
  5
7BB5
  8
4
  6
CONTINUOUS
 10
2754.008323
 20
1726.1721030000001
 30
0.0
 40
200.0
  1
機器名称
  0
TEXT
  5
7BB6
  8
4
  6
CONTINUOUS
 10
2745.032424
 20
1286.580627
 30
0.0
 40
200.0
  1
機器型番
  0
TEXT
  5
7BB7
  8
4
  6
CONTINUOUS
 10
4710.7149820000004
 20
1690.2870760000001
 30
0.0
 40
200.0
  1
ミツヤ多翼送風機
  0
TEXT
  5
7BB8
  8
4
  6
CONTINUOUS
 10
4746.6179819999998
 20
1268.6383370000001
 30
0.0
 40
200.0
  1
MF#6-4
  0
TEXT
  5
7BBA
  8
4
  6
CONTINUOUS
 10
3062.0895739999992
 20
9533.715365
 30
0.0
 40
216.0
  1
床置防振ベット
  0
TEXT
  5
7BBB
  8
4
  6
CONTINUOUS
 10
1264.6703729999999
 20
10135.523905
 30
0.0
 40
288.0
  1
ベルト駆動式片吸込両持多翼ファン
  0
LINE
  5
7BBC
  8
4
  6
CONTINUOUS
 10
1000.0
 20
9877.6350170000005
 30
0.0
 11
7400.0
 21
9877.6350170000005
 31
0.0
  0
LINE
  5
7BBD
  8
4
  6
CONTINUOUS
 10
1000.0
 20
10677.635017000001
 30
0.0
 11
7400.0
 21
10677.635017000001
 31
0.0
  0
LINE
  5
7BBE
  8
4
  6
CONTINUOUS
 10
2600.0
 20
2000.0
 30
0.0
 11
7400.0
 21
2000.0
 31
0.0
  0
LINE
  5
7BBF
  8
4
  6
CONTINUOUS
 10
1000.0
 20
10677.635017000001
 30
0.0
 11
1000.0
 21
9877.6350170000005
 31
0.0
  0
TEXT
  5
7BC0
  8
4
  6
CONTINUOUS
 10
1318.6542449999999
 20
9529.2779099999989
 30
0.0
 40
216.0
  1
左回転上向
  0
TEXT
  5
7BC1
  8
4
  6
CONTINUOUS
 10
5875.8782369999999
 20
10824.244326
 30
0.0
 40
224.0
  1
No.
  0
TEXT
  5
7BC2
  8
4
  6
CONTINUOUS
 10
5245.1842500000012
 20
9533.715365
 30
0.0
 40
216.0
  1
縮尺：1/40
  0
LINE
  5
7BC3
  8
4
  6
CONTINUOUS
 10
7400.0
 20
10677.635017000001
 30
0.0
 11
7400.0
 21
9877.6350170000005
 31
0.0
  0
LINE
  5
7BC5
  8
4
  6
CONTINUOUS
 10
5762.4696889999996
 20
10725.054333
 30
0.0
 11
5762.4696889999996
 21
11146.609046
 31
0.0
  0
LINE
  5
7BC6
  8
4
  6
CONTINUOUS
 10
5762.4696889999996
 20
11146.609046
 30
0.0
 11
7400.0
 21
11146.609046
 31
0.0
  0
LINE
  5
7BC7
  8
4
  6
CONTINUOUS
 10
7400.0
 20
11146.609046
 30
0.0
 11
7400.0
 21
10725.054333
 31
0.0
  0
LINE
  5
7BC8
  8
4
  6
CONTINUOUS
 10
7400.0
 20
10725.054333
 30
0.0
 11
5762.4696889999996
 21
10725.054333
 31
0.0
  0
DIMENSION
  5
7BE0
  8
3
  6
CONTINUOUS
  2
*D1
 10
3585.0830660000001
 20
5374.4089542095162
 30
0.0
 11
3062.3852069999998
 21
5374.4089542095162
 31
0.0
 70
   128
 13
2555.0830660000001
 23
5211.2872702095174
 33
0.0
 14
3585.0830660000001
 24
5211.2872702095174
 34
0.0
1001
ACAD
1000
DSTYLE
1002
{
1070
   287
1070
     3
1070
   287
1070
     3
1070
    40
1040
40.0
1070
   143
1040
0.039
1070
   172
1070
     1
1070
   271
1070
     0
1070
   279
1070
     0
1070
   288
1070
     1
1002
}
  0
DIMENSION
  5
7BF9
  8
3
  6
CONTINUOUS
  2
*D2
 10
2603.0830660000001
 20
5625.2568612095174
 30
0.0
 11
3105.6608529999999
 21
5625.2568612095174
 31
0.0
 70
   128
 13
3585.0830660000001
 23
5211.2872702095174
 33
0.0
 14
2603.0830660000001
 24
5391.5579862095155
 34
0.0
1001
ACAD
1000
DSTYLE
1002
{
1070
   287
1070
     3
1070
   287
1070
     3
1070
    40
1040
40.0
1070
   143
1040
0.039
1070
   172
1070
     1
1070
   271
1070
     0
1070
   279
1070
     0
1070
   288
1070
     1
1002
}
  0
DIMENSION
  5
7C12
  8
3
  6
CONTINUOUS
  2
*D3
 10
1642.9448090000001
 20
4481.2872702095156
 30
0.0
 11
1642.9448090000001
 21
4838.113427209516
 31
0.0
 70
   128
 13
2505.0830660000001
 23
5211.2872702095174
 33
0.0
 14
1744.536357
 24
4481.2872702095156
 34
0.0
 50
90.0
1001
ACAD
1000
DSTYLE
1002
{
1070
   287
1070
     3
1070
   287
1070
     3
1070
    40
1040
40.0
1070
   143
1040
0.039
1070
   172
1070
     1
1070
   271
1070
     0
1070
   279
1070
     0
1070
   288
1070
     1
1002
}
  0
DIMENSION
  5
7C1E
  8
3
  6
CONTINUOUS
  2
*D4
 10
1642.9448090000001
 20
3621.287270209516
 30
0.0
 11
1542.9448089999989
 21
4051.287270209516
 31
0.0
 70
     0
 13
1744.536357
 23
4481.2872702095156
 33
0.0
 14
1953.0830659999999
 24
3621.287270209516
 34
0.0
 50
90.0
1001
ACAD
1000
DSTYLE
1002
{
1070
   287
1070
     4
1070
   287
1070
     4
1070
    40
1040
40.0
1070
    75
1070
     1
1070
   143
1040
0.039
1070
   172
1070
     1
1070
   271
1070
     0
1070
   279
1070
     1
1070
   288
1070
     1
1002
}
  0
DIMENSION
  5
7C6F
  8
3
  6
CONTINUOUS
  2
*D5
 10
6593.7631240000001
 20
5400.3587252095158
 30
0.0
 11
6223.0354189999998
 21
5400.3587252095158
 31
0.0
 70
   128
 13
5843.7631240000001
 23
5211.2872702095174
 33
0.0
 14
6593.7631240000001
 24
5211.2872702095174
 34
0.0
1001
ACAD
1000
DSTYLE
1002
{
1070
   287
1070
     3
1070
   287
1070
     3
1070
    40
1040
40.0
1070
   143
1040
0.039
1070
   172
1070
     1
1070
   271
1070
     0
1070
   279
1070
     0
1070
   288
1070
     1
1002
}
  0
LINE
  5
7C70
  8
1
  6
CONTINUOUS
 10
6597.7631240000001
 20
3951.287270209516
 30
0.0
 11
6597.7631240000001
 21
5011.2872702095174
 31
0.0
  0
DIMENSION
  5
7C7F
  8
3
  6
CONTINUOUS
  2
*D6
 10
6958.7209670000011
 20
3951.287270209516
 30
0.0
 11
6958.7209670000011
 21
4483.4663802095156
 31
0.0
 70
   128
 13
6597.7631240000001
 23
5011.2872702095174
 33
0.0
 14
6597.7631240000001
 24
3951.287270209516
 34
0.0
 50
90.0
1001
ACAD
1000
DSTYLE
1002
{
1070
   287
1070
     3
1070
   287
1070
     3
1070
     3
1000
φ<>
1070
    40
1040
40.0
1070
   143
1040
0.039
1070
   172
1070
     1
1070
   271
1070
     0
1070
   279
1070
     0
1070
   288
1070
     1
1002
}
  0
DIMENSION
  5
7CCB
  8
3
  6
CONTINUOUS
  2
*D7
 10
3903.0830660000001
 20
8220.0067483084895
 30
0.0
 11
2897.9378899999988
 21
8220.0067483084895
 31
0.0
 70
   128
 13
1953.083065999999
 23
8047.2845213084902
 33
0.0
 14
3903.0830660000001
 24
8047.2845213084902
 34
0.0
1001
ACAD
1000
DSTYLE
1002
{
1070
   287
1070
     3
1070
   287
1070
     3
1070
    40
1040
40.0
1070
   143
1040
0.039
1070
   172
1070
     1
1070
   271
1070
     0
1070
   279
1070
     0
1070
   288
1070
     1
1002
}
  0
DIMENSION
  5
7CD8
  8
3
  6
CONTINUOUS
  2
*D8
 10
4256.7924100000009
 20
7022.2845213084911
 30
0.0
 11
4256.79241
 21
7519.3625963084914
 31
0.0
 70
   128
 13
3903.0830660000001
 23
8047.2845213084902
 33
0.0
 14
3903.0830660000001
 24
7022.2845213084911
 34
0.0
 50
90.0
1001
ACAD
1000
DSTYLE
1002
{
1070
   287
1070
     3
1070
   287
1070
     3
1070
    40
1040
40.0
1070
   143
1040
0.039
1070
   172
1070
     1
1070
   271
1070
     0
1070
   279
1070
     0
1070
   288
1070
     1
1002
}
  0
DIMENSION
  5
7D40
  8
3
  6
CONTINUOUS
  2
*D9
 10
6218.7631240000001
 20
5626.2386332095157
 30
0.0
 11
5850.1916954285716
 21
5626.2386332095157
 31
0.0
 70
   128
  1
MAX\P700
 13
5558.7631240000001
 23
5046.2872702095174
 33
0.0
 14
6218.7631240000001
 24
5570.2751552095151
 34
0.0
1001
ACAD
1000
DSTYLE
1002
{
1070
   287
1070
     3
1070
   287
1070
     3
1070
    40
1040
40.0
1070
   143
1040
0.039
1070
   172
1070
     1
1070
   271
1070
     0
1070
   279
1070
     0
1070
   288
1070
     1
1002
}
  0
DIMENSION
  5
7D4E
  8
3
  6
CONTINUOUS
  2
*D10
 10
6597.7631240000001
 20
5626.2386332095157
 30
0.0
 11
6417.6932630000001
 21
5626.2386332095157
 31
0.0
 70
   128
 13
6218.7631240000001
 23
5570.2751552095151
 33
0.0
 14
6597.7631240000001
 24
5011.2872702095174
 34
0.0
1001
ACAD
1000
DSTYLE
1002
{
1070
   287
1070
     4
1070
   287
1070
     4
1070
    40
1040
40.0
1070
    75
1070
     1
1070
   143
1040
0.039
1070
   172
1070
     1
1070
   271
1070
     0
1070
   279
1070
     1
1070
   288
1070
     1
1002
}
  0
DIMENSION
  5
7E1F
  8
3
  2
*D11
 10
2603.0830659999988
 20
3148.7747966719071
 30
0.0
 11
2278.0830660000001
 21
3248.7747966719071
 31
0.0
 70
     0
 13
1953.0830659999999
 23
3401.287270209516
 33
0.0
 14
2603.0830659999988
 24
3401.287270209516
 34
0.0
1001
ACAD
1000
DSTYLE
1002
{
1070
   287
1070
     3
1070
   287
1070
     3
1070
    40
1040
40.0
1070
   143
1040
0.039
1070
   172
1070
     1
1070
   271
1070
     0
1070
   279
1070
     0
1002
}
  0
DIMENSION
  5
7E39
  8
3
  2
*D12
 10
3903.0830660000001
 20
3148.7747966719071
 30
0.0
 11
3253.0830660000001
 21
3248.7747966719071
 31
0.0
 70
     0
 13
2603.0830659999988
 23
3401.287270209516
 33
0.0
 14
3903.0830660000001
 24
3401.287270209516
 34
0.0
1001
ACAD
1000
DSTYLE
1002
{
1070
   287
1070
     3
1070
   287
1070
     3
1070
    40
1040
40.0
1070
   143
1040
0.039
1070
   172
1070
     1
1070
   271
1070
     0
1070
   279
1070
     0
1002
}
  0
DIMENSION
  5
7E46
  8
3
  2
*D13
 10
6218.7631240000001
 20
3148.7747966719071
 30
0.0
 11
5927.5131240000001
 21
3248.7747966719071
 31
0.0
 70
     0
 13
5636.2631240000001
 23
3401.287270209516
 33
0.0
 14
6218.7631240000001
 24
3401.287270209516
 34
0.0
1001
ACAD
1000
DSTYLE
1002
{
1070
   287
1070
     3
1070
   287
1070
     3
1070
    40
1040
40.0
1070
   143
1040
0.039
1070
   172
1070
     1
1070
   271
1070
     0
1070
   279
1070
     0
1002
}
  0
DIMENSION
  5
7E55
  8
3
  2
*D14
 10
6660.2631240000001
 20
3148.7747966719071
 30
0.0
 11
6439.5131240000001
 21
3248.7747966719071
 31
0.0
 70
     0
 13
6218.7631240000001
 23
3401.287270209516
 33
0.0
 14
6660.2631240000001
 24
3401.287270209516
 34
0.0
1001
ACAD
1000
DSTYLE
1002
{
1070
   287
1070
     3
1070
   287
1070
     3
1070
    40
1040
40.0
1070
   143
1040
0.039
1070
   172
1070
     1
1070
   271
1070
     0
1070
   279
1070
     0
1002
}
  0
DIMENSION
  5
7E6C
  8
3
  2
*D16
 10
1642.1326911931239
 20
3401.287270209516
 30
0.0
 11
1542.1326911931239
 21
3058.4301273523729
 31
0.0
 70
     0
 13
1953.0830659999999
 23
3526.287270209516
 33
0.0
 14
1953.0830659999999
 24
3401.287270209516
 34
0.0
 50
90.0
1001
ACAD
1000
DSTYLE
1002
{
1070
   287
1070
     3
1070
   287
1070
     3
1070
    40
1040
40.0
1070
   143
1040
0.039
1070
   172
1070
     1
1070
   271
1070
     0
1070
   279
1070
     0
1070
     6
1000
DOT
1002
}
  0
DIMENSION
  5
7E7B
  8
3
  2
*D17
 10
1642.1326911931239
 20
3621.287270209516
 30
0.0
 11
1450.7041197645531
 21
3573.787270209516
 31
0.0
 70
     0
 13
1953.0830659999999
 23
3526.287270209516
 33
0.0
 14
1953.0830659999999
 24
3621.287270209516
 34
0.0
 50
90.0
1001
ACAD
1000
DSTYLE
1002
{
1070
   172
1070
     1
1070
    40
1040
40.0
1070
     3
1000
(<>)
1070
   271
1070
     0
1070
     6
1000
_DOT
1070
   143
1040
0.039
1002
}
  0
LINE
  5
7E91
  8
1
  6
CONTINUOUS
 10
1978.083065999999
 20
3746.2872702095169
 30
0.0
 11
1978.083065999999
 21
4996.2872702095137
 31
0.0
  0
LINE
  5
7E92
  8
1
  6
CONTINUOUS
 10
3228.0830659999988
 20
3746.2872702095169
 30
0.0
 11
3228.0830659999988
 21
4996.2872702095137
 31
0.0
  0
LINE
  5
7E93
  8
1
  6
CONTINUOUS
 10
3228.0830659999988
 20
4996.2872702095174
 30
0.0
 11
1978.083065999999
 21
4996.2872702095137
 31
0.0
  0
DIMENSION
  5
7E95
  8
3
  2
*D18
 10
1885.1922468271659
 20
5625.2568612095174
 30
0.0
 11
2244.1376564135821
 21
5725.2568612095156
 31
0.0
 70
     0
  1
716
 13
2603.0830660000001
 23
5391.5579862095155
 33
0.0
 14
1885.1922468271659
 24
4438.2872702095156
 34
0.0
1001
ACAD
1000
DSTYLE
1002
{
1070
    40
1040
40.0
1070
   143
1040
0.039
1070
   172
1070
     1
1070
   173
1070
     0
1070
   271
1070
     0
1070
     5
1000
OPEN
1070
     6
1000
DOT
1002
}
  0
ENDSEC
  0
EOF
