  0
SECTION
  2
HEADER
  9
$ACADVER
  1
AC1009
  9
$INSBASE
 10
0.0
 20
0.0
 30
0.0
  9
$EXTMIN
 10
1000.0
 20
1200.0
 30
0.0
  9
$EXTMAX
 10
7400.0
 20
11146.609046
 30
0.0
  9
$LIMMIN
 10
0.0
 20
0.0
  9
$LIMMAX
 10
297.0
 20
210.0
  9
$ORTHOMODE
 70
     0
  9
$REGENMODE
 70
     1
  9
$FILLMODE
 70
     0
  9
$QTEXTMODE
 70
     0
  9
$MIRRTEXT
 70
     1
  9
$DRAGMODE
 70
     2
  9
$LTSCALE
 40
100.0
  9
$OSMODE
 70
    37
  9
$ATTMODE
 70
     1
  9
$TEXTSIZE
 40
180.0
  9
$TRACEWID
 40
0.05
  9
$TEXTSTYLE
  7
STANDARD
  9
$CLAYER
  8
3
  9
$CELTYPE
  6
BYLAYER
  9
$CECOLOR
 62
   256
  9
$DIMSCALE
 40
40.0
  9
$DIMASZ
 40
2.0
  9
$DIMEXO
 40
0.5
  9
$DIMDLI
 40
10.0
  9
$DIMRND
 40
0.0
  9
$DIMDLE
 40
0.0
  9
$DIMEXE
 40
1.0
  9
$DIMTP
 40
1.0
  9
$DIMTM
 40
1.0
  9
$DIMTXT
 40
3.0
  9
$DIMCEN
 40
0.0
  9
$DIMTSZ
 40
0.0
  9
$DIMTOL
 70
     0
  9
$DIMLIM
 70
     0
  9
$DIMTIH
 70
     0
  9
$DIMTOH
 70
     0
  9
$DIMSE1
 70
     0
  9
$DIMSE2
 70
     0
  9
$DIMTAD
 70
     1
  9
$DIMZIN
 70
     8
  9
$DIMBLK
  1

  9
$DIMASO
 70
     1
  9
$DIMSHO
 70
     1
  9
$DIMPOST
  1

  9
$DIMAPOST
  1

  9
$DIMALT
 70
     0
  9
$DIMALTD
 70
     2
  9
$DIMALTF
 40
0.039
  9
$DIMLFAC
 40
1.0
  9
$DIMTOFL
 70
     1
  9
$DIMTVP
 40
0.0
  9
$DIMTIX
 70
     0
  9
$DIMSOXD
 70
     0
  9
$DIMSAH
 70
     1
  9
$DIMBLK1
  1
OPEN
  9
$DIMBLK2
  1
OPEN
  9
$DIMSTYLE
  2
IGA
  9
$DIMCLRD
 70
     0
  9
$DIMCLRE
 70
     0
  9
$DIMCLRT
 70
     0
  9
$DIMTFAC
 40
10.0
  9
$DIMGAP
 40
1.0
  9
$LUNITS
 70
     2
  9
$LUPREC
 70
     3
  9
$SKETCHINC
 40
0.1
  9
$FILLETRAD
 40
50.0
  9
$AUNITS
 70
     0
  9
$AUPREC
 70
     0
  9
$MENU
  1
acad
  9
$ELEVATION
 40
0.0
  9
$PELEVATION
 40
0.0
  9
$THICKNESS
 40
0.0
  9
$LIMCHECK
 70
     0
  9
$BLIPMODE
 70
     0
  9
$CHAMFERA
 40
0.5
  9
$CHAMFERB
 40
0.5
  9
$SKPOLY
 70
     0
  9
$TDCREATE
 40
2450716.3843061342
  9
$TDUPDATE
 40
2454953.7780314931
  9
$TDINDWG
 40
0.0089569792
  9
$TDUSRTIMER
 40
0.0089569792
  9
$USRTIMER
 70
     1
  9
$ANGBASE
 50
0.0
  9
$ANGDIR
 70
     0
  9
$PDMODE
 70
     0
  9
$PDSIZE
 40
0.0
  9
$PLINEWID
 40
0.0
  9
$COORDS
 70
     1
  9
$SPLFRAME
 70
     0
  9
$SPLINETYPE
 70
     6
  9
$SPLINESEGS
 70
     8
  9
$ATTDIA
 70
     0
  9
$ATTREQ
 70
     1
  9
$HANDLING
 70
 10241
  9
$HANDSEED
  5
80DD
  9
$SURFTAB1
 70
     6
  9
$SURFTAB2
 70
     6
  9
$SURFTYPE
 70
     6
  9
$SURFU
 70
     6
  9
$SURFV
 70
     6
  9
$UCSNAME
  2

  9
$UCSORG
 10
0.0
 20
0.0
 30
0.0
  9
$UCSXDIR
 10
1.0
 20
0.0
 30
0.0
  9
$UCSYDIR
 10
0.0
 20
1.0
 30
0.0
  9
$PUCSNAME
  2

  9
$PUCSORG
 10
0.0
 20
0.0
 30
0.0
  9
$PUCSXDIR
 10
1.0
 20
0.0
 30
0.0
  9
$PUCSYDIR
 10
0.0
 20
1.0
 30
0.0
  9
$USERI1
 70
     0
  9
$USERI2
 70
     0
  9
$USERI3
 70
     0
  9
$USERI4
 70
     0
  9
$USERI5
 70
     0
  9
$USERR1
 40
0.0
  9
$USERR2
 40
0.0
  9
$USERR3
 40
0.0
  9
$USERR4
 40
0.0
  9
$USERR5
 40
0.0
  9
$WORLDVIEW
 70
     1
  9
$SHADEDGE
 70
     3
  9
$SHADEDIF
 70
    70
  9
$TILEMODE
 70
     1
  9
$MAXACTVP
 70
    16
  9
$PLIMCHECK
 70
     0
  9
$PEXTMIN
 10
1.0000000000000000E+020
 20
1.0000000000000000E+020
 30
1.0000000000000000E+020
  9
$PEXTMAX
 10
-1.0000000000000000E+020
 20
-1.0000000000000000E+020
 30
-1.0000000000000000E+020
  9
$PLIMMIN
 10
0.0
 20
0.0
  9
$PLIMMAX
 10
12.0
 20
9.0
  9
$UNITMODE
 70
     0
  9
$VISRETAIN
 70
     0
  9
$PLINEGEN
 70
     0
  9
$PSLTSCALE
 70
     1
  0
ENDSEC
  0
SECTION
  2
TABLES
  0
TABLE
  2
VPORT
 70
     2
  0
VPORT
  2
*ACTIVE
 70
     0
 10
0.0
 20
0.0
 11
1.0
 21
1.0
 12
12584.60902327445
 22
6173.4634074048672
 13
0.0
 23
0.0
 14
10.0
 24
10.0
 15
10.0
 25
10.0
 16
0.0
 26
0.0
 36
1.0
 17
0.0
 27
0.0
 37
0.0
 40
10023.29961609002
 41
3.1666666666666661
 42
50.0
 43
0.0
 44
0.0
 50
0.0
 51
0.0
 71
     0
 72
   100
 73
     1
 74
     0
 75
     0
 76
     0
 77
     0
 78
     0
  0
ENDTAB
  0
TABLE
  2
LTYPE
 70
     2
  0
LTYPE
  2
CONTINUOUS
 70
     0
  3
Solid line
 72
    65
 73
     0
 40
0.0
  0
LTYPE
  2
CENTER
 70
     0
  3
____ _ ____ _ ____ _ ____ _ ____ _ ____ _ ____ 
 72
    65
 73
     4
 40
2.0
 49
1.25
 49
-0.25
 49
0.25
 49
-0.25
  0
ENDTAB
  0
TABLE
  2
LAYER
 70
     6
  0
LAYER
  2
0
 70
     0
 62
     7
  6
CONTINUOUS
  0
LAYER
  2
3
 70
     0
 62
     2
  6
CONTINUOUS
  0
LAYER
  2
2
 70
     0
 62
     3
  6
CENTER
  0
LAYER
  2
1
 70
     0
 62
     4
  6
CONTINUOUS
  0
LAYER
  2
4
 70
     0
 62
     7
  6
CONTINUOUS
  0
LAYER
  2
DEFPOINTS
 70
     0
 62
     7
  6
CONTINUOUS
  0
ENDTAB
  0
TABLE
  2
STYLE
 70
     1
  0
STYLE
  2
STANDARD
 70
     0
 40
0.0
 41
1.0
 50
0.0
 71
     0
 42
180.0
  3
simplex.shx
  4
extfont.shx
  0
ENDTAB
  0
TABLE
  2
VIEW
 70
     0
  0
ENDTAB
  0
TABLE
  2
UCS
 70
     0
  0
ENDTAB
  0
TABLE
  2
APPID
 70
     1
  0
APPID
  2
ACAD
 70
     0
  0
ENDTAB
  0
TABLE
  2
DIMSTYLE
 70
     1
  0
DIMSTYLE
  2
IGA
 70
     0
  3

  4

  5

  6
OPEN
  7
OPEN
 40
2.0
 41
2.0
 42
0.5
 43
10.0
 44
1.0
 45
0.0
 46
0.0
 47
1.0
 48
1.0
140
3.0
141
0.0
142
0.0
143
0.03937
144
1.0
145
0.0
146
10.0
147
1.0
 71
     0
 72
     0
 73
     0
 74
     0
 75
     0
 76
     0
 77
     1
 78
     8
170
     0
171
     2
172
     0
173
     1
174
     0
175
     0
176
     0
177
     0
178
     0
  0
ENDTAB
  0
ENDSEC
  0
SECTION
  2
BLOCKS
  0
BLOCK
  8
0
  2
$MODEL_SPACE
 70
     0
 10
0.0
 20
0.0
 30
0.0
  3
$MODEL_SPACE
  1

  0
ENDBLK
  5
1B
  8
0
  0
BLOCK
 67
     1
  8
0
  2
$PAPER_SPACE
 70
     0
 10
0.0
 20
0.0
 30
0.0
  3
$PAPER_SPACE
  1

  0
ENDBLK
  5
18
 67
     1
  8
0
  0
BLOCK
  8
0
  2
_OPEN
 70
     0
 10
0.0
 20
0.0
 30
0.0
  3
_OPEN
  1

  0
LINE
  5
7CBB
  8
0
  6
BYBLOCK
 62
     0
 10
-1.0
 20
0.166667
 30
0.0
 11
0.0
 21
0.0
 31
0.0
  0
LINE
  5
7CBC
  8
0
  6
BYBLOCK
 62
     0
 10
0.0
 20
0.0
 30
0.0
 11
-1.0
 21
-0.166667
 31
0.0
  0
LINE
  5
7CBD
  8
0
  6
BYBLOCK
 62
     0
 10
0.0
 20
0.0
 30
0.0
 11
-1.0
 21
0.0
 31
0.0
  0
ENDBLK
  5
7CBE
  8
0
  0
BLOCK
  8
0
  2
*D1
 70
     1
 10
0.0
 20
0.0
 30
0.0
  3
*D1
  1

  0
LINE
  5
8034
  8
3
  6
CONTINUOUS
 62
     0
 10
5682.7316923168837
 20
3317.4357230000001
 30
0.0
 11
5682.7316923168837
 21
2886.7418605647681
 31
0.0
  0
LINE
  5
8035
  8
3
  6
CONTINUOUS
 62
     0
 10
6265.2316923168837
 20
3317.4357230000001
 30
0.0
 11
6265.2316923168837
 21
2886.7418605647681
 31
0.0
  0
LINE
  5
8036
  8
3
  6
CONTINUOUS
 62
     0
 10
5762.7316923168837
 20
2926.7418605647681
 30
0.0
 11
6185.2316923168828
 21
2926.7418605647681
 31
0.0
  0
INSERT
  5
8037
  8
3
  6
CONTINUOUS
 62
     0
  2
_OPEN
 10
5682.7316923168837
 20
2926.7418605647681
 30
0.0
 41
80.0
 42
80.0
 43
80.0
 50
180.0
  0
INSERT
  5
8038
  8
3
  6
CONTINUOUS
 62
     0
  2
_OPEN
 10
6265.2316923168837
 20
2926.7418605647681
 30
0.0
 41
80.0
 42
80.0
 43
80.0
  0
TEXT
  8
3
  40
120
  5
80CB
  62
0
  72
0
  71
0
 10
5717.21
 20
2814.34
 30
0.000000
  1
583
  0
POINT
  5
803A
  8
DEFPOINTS
  6
CONTINUOUS
 62
     0
 10
5682.7316923168837
 20
3337.4357230000001
 30
0.0
  0
POINT
  5
803B
  8
DEFPOINTS
  6
CONTINUOUS
 62
     0
 10
6265.2316923168837
 20
3337.4357230000001
 30
0.0
  0
POINT
  5
803C
  8
DEFPOINTS
  6
CONTINUOUS
 62
     0
 10
6265.2316923168837
 20
2926.7418605647681
 30
0.0
  0
ENDBLK
  5
7EA6
  8
0
  0
BLOCK
  8
0
  2
*D2
 70
     1
 10
0.0
 20
0.0
 30
0.0
  3
*D2
  1

  0
LINE
  5
803D
  8
3
  6
CONTINUOUS
 62
     0
 10
6706.7316923168828
 20
3317.4357230000001
 30
0.0
 11
6706.7316923168828
 21
2886.7418605647681
 31
0.0
  0
LINE
  5
803E
  8
3
  6
CONTINUOUS
 62
     0
 10
6345.2316923168828
 20
2926.7418605647681
 30
0.0
 11
6626.7316923168837
 21
2926.7418605647681
 31
0.0
  0
TEXT
  8
3
  40
120
  5
80CC
  62
0
  72
0
  71
0
 10
6217.39
 20
2814.64
 30
0.000000
  1
442
  0
INSERT
  5
8040
  8
3
  6
CONTINUOUS
 62
     0
  2
_OPEN
 10
6265.2316923168837
 20
2926.7418605647681
 30
0.0
 41
80.0
 42
80.0
 43
80.0
 50
180.0
  0
INSERT
  5
8041
  8
3
  6
CONTINUOUS
 62
     0
  2
_OPEN
 10
6706.7316923168828
 20
2926.7418605647681
 30
0.0
 41
80.0
 42
80.0
 43
80.0
  0
POINT
  5
8042
  8
DEFPOINTS
  6
CONTINUOUS
 62
     0
 10
6265.2316923168837
 20
3337.4357230000001
 30
0.0
  0
POINT
  5
8043
  8
DEFPOINTS
  6
CONTINUOUS
 62
     0
 10
6706.7316923168828
 20
3337.4357230000001
 30
0.0
  0
POINT
  5
8044
  8
DEFPOINTS
  6
CONTINUOUS
 62
     0
 10
6706.7316923168828
 20
2926.7418605647681
 30
0.0
  0
ENDBLK
  5
7E9B
  8
0
  0
BLOCK
  8
0
  2
*D3
 70
     1
 10
0.0
 20
0.0
 30
0.0
  3
*D3
  1

  0
LINE
  5
8045
  8
3
  6
CONTINUOUS
 62
     0
 10
5890.2316923168837
 20
5288.4357229999996
 30
0.0
 11
5890.2316923168837
 21
5433.8088420000013
 31
0.0
  0
LINE
  5
8046
  8
3
  6
CONTINUOUS
 62
     0
 10
6640.2316923168837
 20
5288.4357229999996
 30
0.0
 11
6640.2316923168837
 21
5433.8088420000013
 31
0.0
  0
LINE
  5
8047
  8
3
  6
CONTINUOUS
 62
     0
 10
5970.2316923168828
 20
5393.8088420000013
 30
0.0
 11
6560.2316923168837
 21
5393.8088420000013
 31
0.0
  0
INSERT
  5
8048
  8
3
  6
CONTINUOUS
 62
     0
  2
_OPEN
 10
5890.2316923168837
 20
5393.8088420000013
 30
0.0
 41
80.0
 42
80.0
 43
80.0
 50
180.0
  0
INSERT
  5
8049
  8
3
  6
CONTINUOUS
 62
     0
  2
_OPEN
 10
6640.2316923168837
 20
5393.8088420000013
 30
0.0
 41
80.0
 42
80.0
 43
80.0
  0
TEXT
  8
3
  40
120
  5
80CD
  62
0
  72
0
  71
0
 10
6083.26
 20
5281.41
 30
0.000000
  1
750
  0
POINT
  5
804B
  8
DEFPOINTS
  6
CONTINUOUS
 62
     0
 10
5890.2316923168837
 20
5268.4357229999987
 30
0.0
  0
POINT
  5
804C
  8
DEFPOINTS
  6
CONTINUOUS
 62
     0
 10
6640.2316923168837
 20
5268.4357229999987
 30
0.0
  0
POINT
  5
804D
  8
DEFPOINTS
  6
CONTINUOUS
 62
     0
 10
6640.2316923168837
 20
5393.8088420000013
 30
0.0
  0
ENDBLK
  5
7CFF
  8
0
  0
BLOCK
  8
0
  2
*D4
 70
     1
 10
0.0
 20
0.0
 30
0.0
  3
*D4
  1

  0
LINE
  5
804E
  8
3
  6
CONTINUOUS
 62
     0
 10
5605.2316923168837
 20
5082.4357229999987
 30
0.0
 11
5605.2316923168837
 21
5699.6100619999997
 31
0.0
  0
LINE
  5
804F
  8
3
  6
CONTINUOUS
 62
     0
 10
6265.2316923168837
 20
5567.3527939999994
 30
0.0
 11
6265.2316923168837
 21
5699.6100619999997
 31
0.0
  0
LINE
  5
8050
  8
3
  6
CONTINUOUS
 62
     0
 10
5685.2316923168828
 20
5659.6100619999997
 30
0.0
 11
6185.2316923168828
 21
5659.6100619999997
 31
0.0
  0
INSERT
  5
8051
  8
3
  6
CONTINUOUS
 62
     0
  2
_OPEN
 10
5605.2316923168837
 20
5659.6100619999997
 30
0.0
 41
80.0
 42
80.0
 43
80.0
 50
180.0
  0
INSERT
  5
8052
  8
3
  6
CONTINUOUS
 62
     0
  2
_OPEN
 10
6265.2316923168837
 20
5659.6100619999997
 30
0.0
 41
80.0
 42
80.0
 43
80.0
  0
TEXT
  8
3
  40
120
  5
80CE
  62
0
  72
0
  71
0
 10
5733.80
 20
5647.21
 30
0.000000
  1
MAX
  0
TEXT
  8
3
  40
120
  5
80CF
  62
0
  72
0
  71
0
 10
5733.80
 20
5491.21
 30
0.000000
  1
700
  0
POINT
  5
8054
  8
DEFPOINTS
  6
CONTINUOUS
 62
     0
 10
5605.2316923168837
 20
5062.4357229999996
 30
0.0
  0
POINT
  5
8055
  8
DEFPOINTS
  6
CONTINUOUS
 62
     0
 10
6265.2316923168837
 20
5547.3527940000004
 30
0.0
  0
POINT
  5
8056
  8
DEFPOINTS
  6
CONTINUOUS
 62
     0
 10
6265.2316923168837
 20
5659.6100619999997
 30
0.0
  0
ENDBLK
  5
7EC6
  8
0
  0
BLOCK
  8
0
  2
*D5
 70
     1
 10
0.0
 20
0.0
 30
0.0
  3
*D5
  1

  0
LINE
  5
8057
  8
3
  6
CONTINUOUS
 62
     0
 10
4311.4209693804414
 20
8527.0717189999996
 30
0.0
 11
4696.499311380443
 21
8527.0717189999996
 31
0.0
  0
LINE
  5
8058
  8
3
  6
CONTINUOUS
 62
     0
 10
4311.4209693804414
 20
7502.0717189999987
 30
0.0
 11
4696.499311380443
 21
7502.0717189999987
 31
0.0
  0
LINE
  5
8059
  8
3
  6
CONTINUOUS
 62
     0
 10
4656.499311380443
 20
8447.0717189999996
 30
0.0
 11
4656.499311380443
 21
7582.0717189999987
 31
0.0
  0
INSERT
  5
805A
  8
3
  6
CONTINUOUS
 62
     0
  2
_OPEN
 10
4656.499311380443
 20
8527.0717189999996
 30
0.0
 41
80.0
 42
80.0
 43
80.0
 50
90.0
  0
INSERT
  5
805B
  8
3
  6
CONTINUOUS
 62
     0
  2
_OPEN
 10
4656.499311380443
 20
7502.0717189999987
 30
0.0
 41
80.0
 42
80.0
 43
80.0
 50
270.0
  0
TEXT
  8
3
  40
120
  5
80D0
  62
0
  72
0
  71
0
 10
4316.50
 20
7764.34
 30
0.000000
  1
1025
  0
POINT
  5
805D
  8
DEFPOINTS
  6
CONTINUOUS
 62
     0
 10
4291.4209693804423
 20
8527.0717189999996
 30
0.0
  0
POINT
  5
805E
  8
DEFPOINTS
  6
CONTINUOUS
 62
     0
 10
4291.4209693804423
 20
7502.0717189999987
 30
0.0
  0
POINT
  5
805F
  8
DEFPOINTS
  6
CONTINUOUS
 62
     0
 10
4656.499311380443
 20
7502.0717189999987
 30
0.0
  0
ENDBLK
  5
7E00
  8
0
  0
BLOCK
  8
0
  2
*D6
 70
     1
 10
0.0
 20
0.0
 30
0.0
  3
*D6
  1

  0
LINE
  5
8060
  8
3
  6
CONTINUOUS
 62
     0
 10
2241.420969380441
 20
4602.4357229999996
 30
0.0
 11
2050.0744013804419
 21
4602.4357229999996
 31
0.0
  0
LINE
  5
8061
  8
3
  6
CONTINUOUS
 62
     0
 10
2291.4209693804419
 20
3572.104452
 30
0.0
 11
2050.0744013804419
 21
3572.104452
 31
0.0
  0
LINE
  5
8062
  8
3
  6
CONTINUOUS
 62
     0
 10
2090.0744013804419
 20
4682.4357229999996
 30
0.0
 11
2090.0744013804419
 21
4762.4357229999987
 31
0.0
  0
LINE
  5
8063
  8
3
  6
CONTINUOUS
 62
     0
 10
2090.0744013804419
 20
3492.104452
 30
0.0
 11
2090.0744013804419
 21
3412.104452
 31
0.0
  0
LINE
  5
8064
  8
3
  6
CONTINUOUS
 62
     0
 10
2090.0744013804419
 20
4602.4357229999996
 30
0.0
 11
2090.0744013804419
 21
3572.104452
 31
0.0
  0
INSERT
  5
8065
  8
3
  6
CONTINUOUS
 62
     0
  2
_OPEN
 10
2090.0744013804419
 20
4602.4357229999996
 30
0.0
 41
80.0
 42
80.0
 43
80.0
 50
270.0
  0
INSERT
  5
8066
  8
3
  6
CONTINUOUS
 62
     0
  2
_OPEN
 10
2090.0744013804419
 20
3572.104452
 30
0.0
 41
80.0
 42
80.0
 43
80.0
 50
90.0
  0
TEXT
  8
3
  40
120
  5
80D1
  62
0
  72
0
  71
0
 10
1750.07
 20
3679.70
 30
0.000000
  1
1030
  0
POINT
  5
8068
  8
DEFPOINTS
  6
CONTINUOUS
 62
     0
 10
2261.420969380441
 20
4602.4357229999996
 30
0.0
  0
POINT
  5
8069
  8
DEFPOINTS
  6
CONTINUOUS
 62
     0
 10
2311.4209693804419
 20
3572.104452
 30
0.0
  0
POINT
  5
806A
  8
DEFPOINTS
  6
CONTINUOUS
 62
     0
 10
2090.0744013804419
 20
3572.104452
 30
0.0
  0
ENDBLK
  5
7F0E
  8
0
  0
BLOCK
  8
0
  2
*D7
 70
     1
 10
0.0
 20
0.0
 30
0.0
  3
*D7
  1

  0
LINE
  5
806B
  8
3
  6
CONTINUOUS
 62
     0
 10
1959.228815380442
 20
4552.4357229999996
 30
0.0
 11
1815.877613380442
 21
4552.4357229999996
 31
0.0
  0
LINE
  5
806C
  8
3
  6
CONTINUOUS
 62
     0
 10
2241.420969380441
 20
3570.4357230000001
 30
0.0
 11
1815.877613380442
 21
3570.4357230000001
 31
0.0
  0
LINE
  5
806D
  8
3
  6
CONTINUOUS
 62
     0
 10
1855.877613380442
 20
4472.4357229999987
 30
0.0
 11
1855.877613380442
 21
3650.4357229999991
 31
0.0
  0
INSERT
  5
806E
  8
3
  6
CONTINUOUS
 62
     0
  2
_OPEN
 10
1855.877613380442
 20
4552.4357229999996
 30
0.0
 41
80.0
 42
80.0
 43
80.0
 50
90.0
  0
INSERT
  5
806F
  8
3
  6
CONTINUOUS
 62
     0
  2
_OPEN
 10
1855.877613380442
 20
3570.4357230000001
 30
0.0
 41
80.0
 42
80.0
 43
80.0
 50
270.0
  0
TEXT
  8
3
  40
120
  5
80D2
  62
0
  72
0
  71
0
 10
1515.88
 20
3711.86
 30
0.000000
  1
982
  0
POINT
  5
8071
  8
DEFPOINTS
  6
CONTINUOUS
 62
     0
 10
1979.228815380442
 20
4552.4357229999996
 30
0.0
  0
POINT
  5
8072
  8
DEFPOINTS
  6
CONTINUOUS
 62
     0
 10
2261.420969380441
 20
3570.4357230000001
 30
0.0
  0
POINT
  5
8073
  8
DEFPOINTS
  6
CONTINUOUS
 62
     0
 10
1855.877613380442
 20
3570.4357230000001
 30
0.0
  0
ENDBLK
  5
7D66
  8
0
  0
BLOCK
  8
0
  2
*D8
 70
     1
 10
0.0
 20
0.0
 30
0.0
  3
*D8
  1

  0
LINE
  5
8074
  8
3
  6
CONTINUOUS
 62
     0
 10
1959.228815380442
 20
4552.4357229999996
 30
0.0
 11
1531.2210003804421
 21
4552.4357229999996
 31
0.0
  0
LINE
  5
8075
  8
3
  6
CONTINUOUS
 62
     0
 10
2321.420969380441
 20
3337.4357230000001
 30
0.0
 11
1531.221000380441
 21
3337.4357230000001
 31
0.0
  0
LINE
  5
8076
  8
3
  6
CONTINUOUS
 62
     0
 10
1571.2210003804421
 20
4472.4357229999987
 30
0.0
 11
1571.221000380441
 21
3417.4357230000001
 31
0.0
  0
INSERT
  5
8077
  8
3
  6
CONTINUOUS
 62
     0
  2
_OPEN
 10
1571.2210003804421
 20
4552.4357229999996
 30
0.0
 41
80.0
 42
80.0
 43
80.0
 50
90.0
  0
INSERT
  5
8078
  8
3
  6
CONTINUOUS
 62
     0
  2
_OPEN
 10
1571.221000380441
 20
3337.4357230000001
 30
0.0
 41
80.0
 42
80.0
 43
80.0
 50
270.0
  0
TEXT
  8
3
  40
120
  5
80D3
  62
0
  72
0
  71
0
 10
1231.22
 20
3732.54
 30
0.000000
  1
1215
  0
POINT
  5
807A
  8
DEFPOINTS
  6
CONTINUOUS
 62
     0
 10
1979.228815380442
 20
4552.4357229999996
 30
0.0
  0
POINT
  5
807B
  8
DEFPOINTS
  6
CONTINUOUS
 62
     0
 10
2341.420969380441
 20
3337.4357230000001
 30
0.0
  0
POINT
  5
807C
  8
DEFPOINTS
  6
CONTINUOUS
 62
     0
 10
1571.221000380441
 20
3337.4357230000001
 30
0.0
  0
ENDBLK
  5
7EFE
  8
0
  0
BLOCK
  8
0
  2
*D9
 70
     1
 10
0.0
 20
0.0
 30
0.0
  3
*D9
  1

  0
LINE
  5
807D
  8
3
  6
CONTINUOUS
 62
     0
 10
2341.420969380441
 20
3317.4357230000001
 30
0.0
 11
2341.420969380441
 21
2841.8096815647682
 31
0.0
  0
LINE
  5
807E
  8
3
  6
CONTINUOUS
 62
     0
 10
2991.4209693804419
 20
3202.5332549999998
 30
0.0
 11
2991.4209693804419
 21
2841.8096815647682
 31
0.0
  0
LINE
  5
807F
  8
3
  6
CONTINUOUS
 62
     0
 10
2421.4209693804419
 20
2881.8096815647668
 30
0.0
 11
2911.4209693804419
 21
2881.8096815647668
 31
0.0
  0
INSERT
  5
8080
  8
3
  6
CONTINUOUS
 62
     0
  2
_OPEN
 10
2341.420969380441
 20
2881.8096815647668
 30
0.0
 41
80.0
 42
80.0
 43
80.0
 50
180.0
  0
INSERT
  5
8081
  8
3
  6
CONTINUOUS
 62
     0
  2
_OPEN
 10
2991.4209693804419
 20
2881.8096815647668
 30
0.0
 41
80.0
 42
80.0
 43
80.0
  0
TEXT
  8
3
  40
120
  5
80D4
  62
0
  72
0
  71
0
 10
2397.21
 20
2769.41
 30
0.000000
  1
650
  0
POINT
  5
8083
  8
DEFPOINTS
  6
CONTINUOUS
 62
     0
 10
2341.420969380441
 20
3337.4357230000001
 30
0.0
  0
POINT
  5
8084
  8
DEFPOINTS
  6
CONTINUOUS
 62
     0
 10
2991.4209693804419
 20
3222.5332549999998
 30
0.0
  0
POINT
  5
8085
  8
DEFPOINTS
  6
CONTINUOUS
 62
     0
 10
2991.4209693804419
 20
2881.8096815647668
 30
0.0
  0
ENDBLK
  5
7D99
  8
0
  0
BLOCK
  8
0
  2
*D10
 70
     1
 10
0.0
 20
0.0
 30
0.0
  3
*D10
  1

  0
LINE
  5
8086
  8
3
  6
CONTINUOUS
 62
     0
 10
4291.4209693804423
 20
3317.4357230000001
 30
0.0
 11
4291.4209693804423
 21
2841.8096815647682
 31
0.0
  0
LINE
  5
8087
  8
3
  6
CONTINUOUS
 62
     0
 10
3071.4209693804419
 20
2881.8096815647668
 30
0.0
 11
4211.4209693804414
 21
2881.8096815647668
 31
0.0
  0
INSERT
  5
8088
  8
3
  6
CONTINUOUS
 62
     0
  2
_OPEN
 10
2991.4209693804419
 20
2881.8096815647668
 30
0.0
 41
80.0
 42
80.0
 43
80.0
 50
180.0
  0
INSERT
  5
8089
  8
3
  6
CONTINUOUS
 62
     0
  2
_OPEN
 10
4291.4209693804423
 20
2881.8096815647668
 30
0.0
 41
80.0
 42
80.0
 43
80.0
  0
TEXT
  8
3
  40
120
  5
80D5
  62
0
  72
0
  71
0
 10
3401.42
 20
2769.41
 30
0.000000
  1
1300
  0
POINT
  5
808B
  8
DEFPOINTS
  6
CONTINUOUS
 62
     0
 10
2991.4209693804419
 20
3222.5332549999998
 30
0.0
  0
POINT
  5
808C
  8
DEFPOINTS
  6
CONTINUOUS
 62
     0
 10
4291.4209693804423
 20
3337.4357230000001
 30
0.0
  0
POINT
  5
808D
  8
DEFPOINTS
  6
CONTINUOUS
 62
     0
 10
4291.4209693804423
 20
2881.8096815647668
 30
0.0
  0
ENDBLK
  5
7DA5
  8
0
  0
BLOCK
  8
0
  2
*D11
 70
     1
 10
0.0
 20
0.0
 30
0.0
  3
*D11
  1

  0
LINE
  5
808E
  8
3
  6
CONTINUOUS
 62
     0
 10
2261.420969380441
 20
4670.4357229999987
 30
0.0
 11
2261.420969380441
 21
5547.9017979999999
 31
0.0
  0
LINE
  5
808F
  8
3
  6
CONTINUOUS
 62
     0
 10
2991.4209693804419
 20
5414.1075010000004
 30
0.0
 11
2991.4209693804419
 21
5547.9017979999999
 31
0.0
  0
LINE
  5
8090
  8
3
  6
CONTINUOUS
 62
     0
 10
2341.420969380441
 20
5507.9017979999999
 30
0.0
 11
2911.4209693804419
 21
5507.9017979999999
 31
0.0
  0
INSERT
  5
8091
  8
3
  6
CONTINUOUS
 62
     0
  2
_OPEN
 10
2261.420969380441
 20
5507.9017979999999
 30
0.0
 41
80.0
 42
80.0
 43
80.0
 50
180.0
  0
INSERT
  5
8092
  8
3
  6
CONTINUOUS
 62
     0
  2
_OPEN
 10
2991.4209693804419
 20
5507.9017979999999
 30
0.0
 41
80.0
 42
80.0
 43
80.0
  0
TEXT
  8
3
  40
120
  5
80D6
  62
0
  72
0
  71
0
 10
2364.53
 20
5395.50
 30
0.000000
  1
730
  0
POINT
  5
8094
  8
DEFPOINTS
  6
CONTINUOUS
 62
     0
 10
2261.420969380441
 20
4650.4357229999996
 30
0.0
  0
POINT
  5
8095
  8
DEFPOINTS
  6
CONTINUOUS
 62
     0
 10
2991.4209693804419
 20
5394.1075010000004
 30
0.0
  0
POINT
  5
8096
  8
DEFPOINTS
  6
CONTINUOUS
 62
     0
 10
2991.4209693804419
 20
5507.9017979999999
 30
0.0
  0
ENDBLK
  5
7DB2
  8
0
  0
BLOCK
  8
0
  2
*D12
 70
     1
 10
0.0
 20
0.0
 30
0.0
  3
*D12
  1

  0
LINE
  5
8097
  8
3
  6
CONTINUOUS
 62
     0
 10
6664.2316923168828
 20
5082.4357229999987
 30
0.0
 11
7037.3868943168854
 21
5082.4357229999987
 31
0.0
  0
LINE
  5
8098
  8
3
  6
CONTINUOUS
 62
     0
 10
6664.2316923168828
 20
4022.4357230000001
 30
0.0
 11
7037.3868943168854
 21
4022.4357230000001
 31
0.0
  0
LINE
  5
8099
  8
3
  6
CONTINUOUS
 62
     0
 10
6997.3868943168836
 20
5002.4357229999996
 30
0.0
 11
6997.3868943168836
 21
4102.4357229999978
 31
0.0
  0
INSERT
  5
809A
  8
3
  6
CONTINUOUS
 62
     0
  2
_OPEN
 10
6997.3868943168836
 20
5082.4357229999987
 30
0.0
 41
80.0
 42
80.0
 43
80.0
 50
90.0
  0
INSERT
  5
809B
  8
3
  6
CONTINUOUS
 62
     0
  2
_OPEN
 10
6997.3868943168836
 20
4022.4357230000001
 30
0.0
 41
80.0
 42
80.0
 43
80.0
 50
270.0
  0
TEXT
  8
3
  40
120
  5
80D7
  62
0
  72
0
  71
0
 10
6657.39
 20
4311.24
 30
0.000000
  1
φ1060
  0
POINT
  5
809D
  8
DEFPOINTS
  6
CONTINUOUS
 62
     0
 10
6644.2316923168828
 20
5082.4357229999987
 30
0.0
  0
POINT
  5
809E
  8
DEFPOINTS
  6
CONTINUOUS
 62
     0
 10
6644.2316923168828
 20
4022.4357230000001
 30
0.0
  0
POINT
  5
809F
  8
DEFPOINTS
  6
CONTINUOUS
 62
     0
 10
6997.3868943168836
 20
4022.4357230000001
 30
0.0
  0
ENDBLK
  5
7EBB
  8
0
  0
BLOCK
  8
0
  2
*D13
 70
     1
 10
0.0
 20
0.0
 30
0.0
  3
*D13
  1

  0
LINE
  5
80A0
  8
3
  6
CONTINUOUS
 62
     0
 10
6644.2316923168828
 20
5102.4357229999996
 30
0.0
 11
6644.2316923168828
 21
5699.6100619999997
 31
0.0
  0
LINE
  5
80A1
  8
3
  6
CONTINUOUS
 62
     0
 10
6345.2316923168828
 20
5659.6100619999997
 30
0.0
 11
6564.2316923168837
 21
5659.6100619999997
 31
0.0
  0
TEXT
  8
3
  40
120
  5
80D8
  62
0
  72
0
  71
0
 10
6211.03
 20
5557.98
 30
0.000000
  1
379
  0
INSERT
  5
80A3
  8
3
  6
CONTINUOUS
 62
     0
  2
_OPEN
 10
6265.2316923168837
 20
5659.6100619999997
 30
0.0
 41
80.0
 42
80.0
 43
80.0
 50
180.0
  0
INSERT
  5
80A4
  8
3
  6
CONTINUOUS
 62
     0
  2
_OPEN
 10
6644.2316923168828
 20
5659.6100619999997
 30
0.0
 41
80.0
 42
80.0
 43
80.0
  0
POINT
  5
80A5
  8
DEFPOINTS
  6
CONTINUOUS
 62
     0
 10
6265.2316923168837
 20
5547.3527940000004
 30
0.0
  0
POINT
  5
80A6
  8
DEFPOINTS
  6
CONTINUOUS
 62
     0
 10
6644.2316923168828
 20
5082.4357229999987
 30
0.0
  0
POINT
  5
80A7
  8
DEFPOINTS
  6
CONTINUOUS
 62
     0
 10
6644.2316923168828
 20
5659.6100619999997
 30
0.0
  0
ENDBLK
  5
7E52
  8
0
  0
BLOCK
  8
0
  2
*D14
 70
     1
 10
0.0
 20
0.0
 30
0.0
  3
*D14
  1

  0
LINE
  5
80A8
  8
3
  6
CONTINUOUS
 62
     0
 10
2341.420969380441
 20
8547.0717189999996
 30
0.0
 11
2341.420969380441
 21
8770.5321590000003
 31
0.0
  0
LINE
  5
80A9
  8
3
  6
CONTINUOUS
 62
     0
 10
4291.4209693804423
 20
8547.0717189999996
 30
0.0
 11
4291.4209693804423
 21
8770.5321590000003
 31
0.0
  0
LINE
  5
80AA
  8
3
  6
CONTINUOUS
 62
     0
 10
2421.4209693804419
 20
8730.5321590000003
 30
0.0
 11
4211.4209693804414
 21
8730.5321590000003
 31
0.0
  0
INSERT
  5
80AB
  8
3
  6
CONTINUOUS
 62
     0
  2
_OPEN
 10
2341.420969380441
 20
8730.5321590000003
 30
0.0
 41
80.0
 42
80.0
 43
80.0
 50
180.0
  0
INSERT
  5
80AC
  8
3
  6
CONTINUOUS
 62
     0
  2
_OPEN
 10
4291.4209693804423
 20
8730.5321590000003
 30
0.0
 41
80.0
 42
80.0
 43
80.0
  0
TEXT
  8
3
  40
120
  5
80D9
  62
0
  72
0
  71
0
 10
3035.38
 20
8618.13
 30
0.000000
  1
1950
  0
POINT
  5
80AE
  8
DEFPOINTS
  6
CONTINUOUS
 62
     0
 10
2341.420969380441
 20
8527.0717189999996
 30
0.0
  0
POINT
  5
80AF
  8
DEFPOINTS
  6
CONTINUOUS
 62
     0
 10
4291.4209693804423
 20
8527.0717189999996
 30
0.0
  0
POINT
  5
80B0
  8
DEFPOINTS
  6
CONTINUOUS
 62
     0
 10
4291.4209693804423
 20
8730.5321590000003
 30
0.0
  0
ENDBLK
  5
7DF4
  8
0
  0
BLOCK
  8
0
  2
*D15
 70
     1
 10
0.0
 20
0.0
 30
0.0
  3
*D15
  1

  0
LINE
  5
80B1
  8
3
  6
CONTINUOUS
 62
     0
 10
3819.0575143804422
 20
4572.4357229999987
 30
0.0
 11
3819.0575143804422
 21
5547.9017979999999
 31
0.0
  0
LINE
  5
80B2
  8
3
  6
CONTINUOUS
 62
     0
 10
3071.4209693804419
 20
5507.9017979999999
 30
0.0
 11
3739.0575143804422
 21
5507.9017979999999
 31
0.0
  0
INSERT
  5
80B3
  8
3
  6
CONTINUOUS
 62
     0
  2
_OPEN
 10
2991.4209693804419
 20
5507.9017979999999
 30
0.0
 41
80.0
 42
80.0
 43
80.0
 50
180.0
  0
INSERT
  5
80B4
  8
3
  6
CONTINUOUS
 62
     0
  2
_OPEN
 10
3819.0575143804422
 20
5507.9017979999999
 30
0.0
 41
80.0
 42
80.0
 43
80.0
  0
TEXT
  8
3
  40
120
  5
80DA
  62
0
  72
0
  71
0
 10
3165.24
 20
5395.50
 30
0.000000
  1
828
  0
POINT
  5
80B6
  8
DEFPOINTS
  6
CONTINUOUS
 62
     0
 10
2991.4209693804419
 20
5394.1075010000004
 30
0.0
  0
POINT
  5
80B7
  8
DEFPOINTS
  6
CONTINUOUS
 62
     0
 10
3819.0575143804422
 20
4552.4357229999996
 30
0.0
  0
POINT
  5
80B8
  8
DEFPOINTS
  6
CONTINUOUS
 62
     0
 10
3819.0575143804422
 20
5507.9017979999999
 30
0.0
  0
ENDBLK
  5
7E6D
  8
0
  0
BLOCK
  8
0
  2
*D16
 70
     1
 10
0.0
 20
0.0
 30
0.0
  3
*D16
  1

  0
LINE
  5
80B9
  8
3
 62
     0
 10
2261.420969380441
 20
4670.4357229999987
 30
0.0
 11
2261.420969380441
 21
5768.1449580919289
 31
0.0
  0
LINE
  5
80BA
  8
3
 62
     0
 10
4291.4209693804423
 20
3482.4357230000001
 30
0.0
 11
4291.4209693804423
 21
5768.1449580919289
 31
0.0
  0
LINE
  5
80BB
  8
3
 62
     0
 10
2341.420969380441
 20
5728.1449580919279
 30
0.0
 11
4211.4209693804414
 21
5728.1449580919279
 31
0.0
  0
INSERT
  5
80BC
  8
3
 62
     0
  2
_OPEN
 10
2261.420969380441
 20
5728.1449580919279
 30
0.0
 41
80.0
 42
80.0
 43
80.0
 50
180.0
  0
INSERT
  5
80BD
  8
3
 62
     0
  2
_OPEN
 10
4291.4209693804423
 20
5728.1449580919279
 30
0.0
 41
80.0
 42
80.0
 43
80.0
  0
TEXT
  8
3
  40
120
  5
80DB
  62
0
  72
0
  71
0
 10
3016.41
 20
5615.74
 30
0.000000
  1
2030
  0
POINT
  5
80BF
  8
DEFPOINTS
 62
     0
 10
2261.420969380441
 20
4650.4357229999996
 30
0.0
  0
POINT
  5
80C0
  8
DEFPOINTS
 62
     0
 10
4291.4209693804423
 20
3462.4357229999991
 30
0.0
  0
POINT
  5
80C1
  8
DEFPOINTS
 62
     0
 10
4291.4209693804423
 20
5728.1449580919279
 30
0.0
  0
ENDBLK
  5
7EF2
  8
0
  0
BLOCK
  8
0
  2
*D17
 70
     1
 10
0.0
 20
0.0
 30
0.0
  3
*D17
  1

  0
LINE
  5
80C2
  8
3
 62
     0
 10
1959.228815380442
 20
4552.4357229999996
 30
0.0
 11
1531.2210003804421
 21
4552.4357229999996
 31
0.0
  0
LINE
  5
80C3
  8
3
 62
     0
 10
3014.4209693804419
 20
5270.3265421728338
 30
0.0
 11
1531.2210003804421
 21
5270.3265421728347
 31
0.0
  0
LINE
  5
80C4
  8
3
 62
     0
 10
1571.2210003804421
 20
4632.4357229999987
 30
0.0
 11
1571.2210003804421
 21
5190.3265421728347
 31
0.0
  0
INSERT
  5
80C5
  8
3
 62
     0
  2
_OPEN
 10
1571.2210003804421
 20
4552.4357229999996
 30
0.0
 41
80.0
 42
80.0
 43
80.0
 50
270.0
  0
INSERT
  5
80C6
  8
3
 62
     0
  2
_OPEN
 10
1571.2210003804421
 20
5270.3265421728347
 30
0.0
 41
80.0
 42
80.0
 43
80.0
 50
90.0
  0
TEXT
  8
3
  40
120
  5
80DC
  62
0
  72
0
  71
0
 10
1231.22
 20
4698.98
 30
0.000000
  1
716
  0
POINT
  5
80C8
  8
DEFPOINTS
 62
     0
 10
1979.228815380442
 20
4552.4357229999996
 30
0.0
  0
POINT
  5
80C9
  8
DEFPOINTS
 62
     0
 10
3034.4209693804419
 20
5270.3265421728338
 30
0.0
  0
POINT
  5
80CA
  8
DEFPOINTS
 62
     0
 10
1571.2210003804421
 20
5270.3265421728347
 30
0.0
  0
ENDBLK
  5
7F59
  8
0
  0
ENDSEC
  0
SECTION
  2
ENTITIES
  0
LINE
  5
7BA6
  8
1
  6
CONTINUOUS
 10
4291.4209693804423
 20
8527.0717189999996
 30
0.0
 11
2341.420969380441
 21
8527.0717189999996
 31
0.0
  0
LINE
  5
7BA8
  8
1
  6
CONTINUOUS
 10
4291.4209693804423
 20
3462.4357229999991
 30
0.0
 11
2341.420969380441
 21
3462.4357229999991
 31
0.0
  0
LINE
  5
7BAD
  8
1
  6
CONTINUOUS
 10
2341.420969380441
 20
3462.4357229999991
 30
0.0
 11
2341.420969380441
 21
3337.4357230000001
 31
0.0
  0
LINE
  5
7BAE
  8
2
  6
CENTER
 10
6791.0934473168818
 20
4552.4357229999996
 30
0.0
 11
5526.4249883168832
 21
4552.4357229999996
 31
0.0
  0
CIRCLE
  5
7BAF
  8
1
  6
CONTINUOUS
 10
2991.4209693804419
 20
4552.4357229999996
 30
0.0
 40
192.18405100000001
  0
ARC
  5
7BB3
  8
1
  6
CONTINUOUS
 10
3047.420969380441
 20
4496.4357229999996
 30
0.0
 40
774.0
 50
4.149055999999999
 51
94.149056000000002
  0
ARC
  5
7BB4
  8
1
  6
CONTINUOUS
 10
2926.420969380441
 20
4487.4357229999987
 30
0.0
 40
895.0
 50
274.16481299999992
 51
4.1648129999999988
  0
LINE
  5
7BB5
  8
1
  6
CONTINUOUS
 10
3221.4209693804419
 20
5062.4357229999996
 30
0.0
 11
2451.420969380441
 21
5062.4357229999996
 31
0.0
  0
LINE
  5
7BB6
  8
1
  6
CONTINUOUS
 10
3979.2464233804408
 20
3563.8517009999991
 30
0.0
 11
2875.4463513804408
 21
4399.1888719999988
 31
0.0
  0
ARC
  5
7BB7
  8
1
  6
CONTINUOUS
 10
3034.4209693804419
 20
4595.4357229999996
 30
0.0
 40
674.0
 50
93.657853000000017
 51
179.40492927727749
  0
LINE
  5
7BB8
  8
1
  6
CONTINUOUS
 10
2991.4209693804419
 20
3594.7991790000001
 30
0.0
 11
2261.420969380441
 21
3570.4357230000001
 31
0.0
  0
LINE
  5
7BB9
  8
1
  6
CONTINUOUS
 10
2451.420969380441
 20
5062.4357229999996
 30
0.0
 11
2451.420969380441
 21
3462.4357229999991
 31
0.0
  0
LINE
  5
7BBA
  8
1
  6
CONTINUOUS
 10
2311.4209693804419
 20
3572.1044529999999
 30
0.0
 11
2311.4209693804419
 21
4602.4357229999996
 31
0.0
  0
LINE
  5
7BBB
  8
1
  6
CONTINUOUS
 10
2261.420969380441
 20
3520.4357230000001
 30
0.0
 11
2261.420969380441
 21
4650.4357229999996
 31
0.0
  0
LINE
  5
7BBD
  8
2
  6
CENTER
 10
2991.4209693804419
 20
3222.5332549999998
 30
0.0
 11
2991.4209693804419
 21
5394.1075010000004
 31
0.0
  0
LINE
  5
7BBF
  8
1
  6
CONTINUOUS
 10
4221.4209693804414
 20
3862.4357229999991
 30
0.0
 11
3221.4209693804419
 21
5062.4357229999996
 31
0.0
  0
LINE
  5
7BC0
  8
1
  6
CONTINUOUS
 10
4152.0997383804424
 20
3774.0256180000001
 30
0.0
 11
3119.3977703804412
 21
4695.8116200000004
 31
0.0
  0
LINE
  5
7BC1
  8
2
  6
CENTER
 10
4202.594189380442
 20
3672.4357229999991
 30
0.0
 11
3920.2477493804422
 21
3672.4357229999991
 31
0.0
  0
CIRCLE
  5
7BC8
  8
1
  6
CONTINUOUS
 10
4061.420969380441
 20
3672.4357229999991
 30
0.0
 40
136.1732199999999
  0
ARC
  5
7BC9
  8
1
  6
CONTINUOUS
 10
4061.420969380441
 20
3672.4357229999991
 30
0.0
 40
162.0
 50
324.972283
 51
215.02771699999991
  0
LINE
  5
7BCA
  8
1
  6
CONTINUOUS
 10
3907.4209693804419
 20
3512.4357229999991
 30
0.0
 11
3907.4209693804419
 21
3530.4357229999991
 31
0.0
  0
LINE
  5
7BCB
  8
1
  6
CONTINUOUS
 10
3907.4209693804419
 20
3530.4357229999991
 30
0.0
 11
3928.7633033804418
 21
3579.4521559999998
 31
0.0
  0
LINE
  5
7BCC
  8
1
  6
CONTINUOUS
 10
4221.4209693804414
 20
3862.4357229999991
 30
0.0
 11
4221.4209693804414
 21
3462.4357229999991
 31
0.0
  0
LINE
  5
7BCD
  8
2
  6
CENTER
 10
4061.420969380441
 20
3531.2625029999999
 30
0.0
 11
4061.420969380441
 21
3813.6089430000002
 31
0.0
  0
LINE
  5
7BD3
  8
1
  6
CONTINUOUS
 10
4215.4209693804414
 20
3530.4357229999991
 30
0.0
 11
4194.0786353804424
 21
3579.4521559999998
 31
0.0
  0
LINE
  5
7BD4
  8
1
  6
CONTINUOUS
 10
4215.4209693804414
 20
3512.4357229999991
 30
0.0
 11
4215.4209693804414
 21
3530.4357229999991
 31
0.0
  0
LINE
  5
7BE1
  8
1
  6
CONTINUOUS
 10
3819.420969380441
 20
7709.5717189999996
 30
0.0
 11
2261.420969380441
 21
7709.5717189999996
 31
0.0
  0
LINE
  5
7BE2
  8
1
  6
CONTINUOUS
 10
3819.420969380441
 20
8459.5717190000014
 30
0.0
 11
2261.420969380441
 21
8459.5717190000014
 31
0.0
  0
LINE
  5
7BE3
  8
1
  6
CONTINUOUS
 10
2799.2209693804411
 20
7502.0717189999987
 30
0.0
 11
2341.420969380441
 21
7502.0717189999987
 31
0.0
  0
LINE
  5
7BE4
  8
1
  6
CONTINUOUS
 10
2311.4209693804419
 20
7709.5717189999996
 30
0.0
 11
2311.4209693804419
 21
8459.5717190000014
 31
0.0
  0
LINE
  5
7BE5
  8
1
  6
CONTINUOUS
 10
2261.420969380441
 20
7659.5717189999996
 30
0.0
 11
2261.420969380441
 21
8509.5717189999996
 31
0.0
  0
LINE
  5
7BE6
  8
1
  6
CONTINUOUS
 10
2341.420969380441
 20
7502.0717189999987
 30
0.0
 11
2341.420969380441
 21
7709.5717189999996
 31
0.0
  0
LINE
  5
7BE7
  8
1
  6
CONTINUOUS
 10
2341.420969380441
 20
8459.5717190000014
 30
0.0
 11
2341.420969380441
 21
8527.0717189999996
 31
0.0
  0
LINE
  5
7BE8
  8
1
  6
CONTINUOUS
 10
2963.9209693804419
 20
7587.5717189999996
 30
0.0
 11
2963.9209693804419
 21
7709.5717189999996
 31
0.0
  0
LINE
  5
7BE9
  8
1
  6
CONTINUOUS
 10
3018.9209693804419
 20
7587.5717189999996
 30
0.0
 11
3018.9209693804419
 21
7709.5717189999996
 31
0.0
  0
LINE
  5
7BEA
  8
1
  6
CONTINUOUS
 10
3925.2709693804409
 20
7502.0717189999987
 30
0.0
 11
3183.6209693804421
 21
7502.0717189999987
 31
0.0
  0
LINE
  5
7BEB
  8
1
  6
CONTINUOUS
 10
3819.420969380441
 20
7709.5717189999996
 30
0.0
 11
3819.420969380441
 21
8459.5717190000014
 31
0.0
  0
LINE
  5
7BF8
  8
1
  6
CONTINUOUS
 10
3899.4209693804419
 20
8029.4350350000004
 30
0.0
 11
3899.4209693804419
 21
8092.130995999999
 31
0.0
  0
LINE
  5
7BF9
  8
1
  6
CONTINUOUS
 10
4082.420969380441
 20
7587.5717189999996
 30
0.0
 11
4082.420969380441
 21
7709.5717189999996
 31
0.0
  0
LINE
  5
7BFA
  8
1
  6
CONTINUOUS
 10
4040.420969380441
 20
7587.5717189999996
 30
0.0
 11
4040.420969380441
 21
7709.5717189999996
 31
0.0
  0
LINE
  5
7BFB
  8
1
  6
CONTINUOUS
 10
6640.2316923168837
 20
4600.4357229999987
 30
0.0
 11
5890.2316923168837
 21
3570.4357230000001
 31
0.0
  0
LINE
  5
7BFC
  8
1
  6
CONTINUOUS
 10
5890.2316923168837
 20
4600.4357229999987
 30
0.0
 11
6640.2316923168837
 21
3570.4357230000001
 31
0.0
  0
LINE
  5
7BFD
  8
1
  6
CONTINUOUS
 10
5890.2316923168837
 20
3570.4357230000001
 30
0.0
 11
6640.2316923168837
 21
3570.4357230000001
 31
0.0
  0
LINE
  5
7BFE
  8
1
  6
CONTINUOUS
 10
5890.2316923168837
 20
4600.4357229999987
 30
0.0
 11
6640.2316923168837
 21
4600.4357229999987
 31
0.0
  0
LINE
  5
7BFF
  8
1
  6
CONTINUOUS
 10
5890.2316923168837
 20
5268.4357229999987
 30
0.0
 11
6640.2316923168837
 21
5268.4357229999987
 31
0.0
  0
LINE
  5
7C00
  8
1
  6
CONTINUOUS
 10
5682.7316923168837
 20
3337.4357230000001
 30
0.0
 11
6706.7316923168828
 21
3337.4357230000001
 31
0.0
  0
LINE
  5
7C01
  8
1
  6
CONTINUOUS
 10
5682.7316923168837
 20
3462.4357229999991
 30
0.0
 11
6706.7316923168828
 21
3462.4357229999991
 31
0.0
  0
LINE
  5
7C0D
  8
1
  6
CONTINUOUS
 10
4291.4209693804423
 20
3462.4357229999991
 30
0.0
 11
4291.4209693804423
 21
3337.4357230000001
 31
0.0
  0
LINE
  5
7C27
  8
1
  6
CONTINUOUS
 10
5682.7316923168837
 20
3337.4357230000001
 30
0.0
 11
5682.7316923168837
 21
3462.4357229999991
 31
0.0
  0
LINE
  5
7C2F
  8
1
  6
CONTINUOUS
 10
5890.2316923168837
 20
3462.4357229999991
 30
0.0
 11
5890.2316923168837
 21
5268.4357229999987
 31
0.0
  0
LINE
  5
7C30
  8
1
  6
CONTINUOUS
 10
5605.2316923168837
 20
3462.4357229999991
 30
0.0
 11
5605.2316923168837
 21
5062.4357229999996
 31
0.0
  0
LINE
  5
7C31
  8
1
  6
CONTINUOUS
 10
5819.2316923168837
 20
3462.4357229999991
 30
0.0
 11
5819.2316923168837
 21
5062.4357229999996
 31
0.0
  0
LINE
  5
7C32
  8
1
  6
CONTINUOUS
 10
5768.2316923168837
 20
3693.4357229999991
 30
0.0
 11
5890.2316923168837
 21
3693.4357229999991
 31
0.0
  0
LINE
  5
7C33
  8
1
  6
CONTINUOUS
 10
5768.2316923168837
 20
3651.4357229999991
 30
0.0
 11
5890.2316923168837
 21
3651.4357229999991
 31
0.0
  0
LINE
  5
7C34
  8
1
  6
CONTINUOUS
 10
5682.7316923168837
 20
3462.4357229999991
 30
0.0
 11
5605.2316923168837
 21
3462.4357229999991
 31
0.0
  0
LINE
  5
7C41
  8
1
  6
CONTINUOUS
 10
5768.2316923168837
 20
4579.9357229999996
 30
0.0
 11
5890.2316923168837
 21
4579.9357229999996
 31
0.0
  0
LINE
  5
7C42
  8
1
  6
CONTINUOUS
 10
5768.2316923168837
 20
4524.9357229999987
 30
0.0
 11
5890.2316923168837
 21
4524.9357229999987
 31
0.0
  0
LINE
  5
7C43
  8
1
  6
CONTINUOUS
 10
5605.2316923168837
 20
5062.4357229999996
 30
0.0
 11
5819.2316923168837
 21
5062.4357229999996
 31
0.0
  0
LINE
  5
7C44
  8
1
  6
CONTINUOUS
 10
6706.7316923168828
 20
3337.4357230000001
 30
0.0
 11
6706.7316923168828
 21
3462.4357229999991
 31
0.0
  0
LINE
  5
7C45
  8
1
  6
CONTINUOUS
 10
6640.2316923168837
 20
3462.4357229999991
 30
0.0
 11
6640.2316923168837
 21
5268.4357229999987
 31
0.0
  0
LINE
  5
7C5F
  8
1
  6
CONTINUOUS
 10
4291.4209693804423
 20
7502.0717189999987
 30
0.0
 11
4291.4209693804423
 21
8527.0717189999996
 31
0.0
  0
LINE
  5
7C73
  8
1
  6
CONTINUOUS
 10
4221.4209693804414
 20
7638.5717189999987
 30
0.0
 11
4221.4209693804414
 21
7458.5717189999996
 31
0.0
  0
LINE
  5
7C74
  8
1
  6
CONTINUOUS
 10
4221.4209693804414
 20
7458.5717189999996
 30
0.0
 11
2451.420969380441
 21
7458.5717189999996
 31
0.0
  0
LINE
  5
7C75
  8
1
  6
CONTINUOUS
 10
2451.420969380441
 20
7458.5717189999996
 30
0.0
 11
2451.420969380441
 21
7638.5717189999987
 31
0.0
  0
LINE
  5
7C76
  8
1
  6
CONTINUOUS
 10
2451.420969380441
 20
7638.5717189999987
 30
0.0
 11
4221.4209693804414
 21
7638.5717189999987
 31
0.0
  0
LINE
  5
7C77
  8
1
  6
CONTINUOUS
 10
3183.6209693804421
 20
7587.5717189999996
 30
0.0
 11
3183.6209693804421
 21
7486.5717189999996
 31
0.0
  0
LINE
  5
7C78
  8
1
  6
CONTINUOUS
 10
3183.6209693804421
 20
7486.5717189999996
 30
0.0
 11
2799.2209693804411
 21
7486.5717189999996
 31
0.0
  0
LINE
  5
7C79
  8
1
  6
CONTINUOUS
 10
2799.2209693804411
 20
7486.5717189999996
 30
0.0
 11
2799.2209693804411
 21
7587.5717189999996
 31
0.0
  0
LINE
  5
7C7A
  8
1
  6
CONTINUOUS
 10
2799.2209693804411
 20
7587.5717189999996
 30
0.0
 11
3183.6209693804421
 21
7587.5717189999996
 31
0.0
  0
LINE
  5
7C7B
  8
1
  6
CONTINUOUS
 10
4258.9209693804414
 20
3462.4357229999991
 30
0.0
 11
3863.920969380441
 21
3462.4357229999991
 31
0.0
  0
LINE
  5
7C7C
  8
1
  6
CONTINUOUS
 10
3863.920969380441
 20
3462.4357229999991
 30
0.0
 11
3873.9209693804419
 21
3512.4357229999991
 31
0.0
  0
LINE
  5
7C7D
  8
1
  6
CONTINUOUS
 10
3873.9209693804419
 20
3512.4357229999991
 30
0.0
 11
3907.4209693804419
 21
3512.4357229999991
 31
0.0
  0
LINE
  5
7C7E
  8
1
  6
CONTINUOUS
 10
4215.4209693804414
 20
3512.4357229999991
 30
0.0
 11
4248.9209693804414
 21
3512.4357229999991
 31
0.0
  0
LINE
  5
7C7F
  8
1
  6
CONTINUOUS
 10
4248.9209693804414
 20
3512.4357229999991
 30
0.0
 11
4258.9209693804414
 21
3462.4357229999991
 31
0.0
  0
LINE
  5
7C80
  8
1
  6
CONTINUOUS
 10
5633.2316923168837
 20
4360.2516729999988
 30
0.0
 11
5768.2316923168837
 21
4360.2516729999988
 31
0.0
  0
LINE
  5
7C81
  8
1
  6
CONTINUOUS
 10
5768.2316923168837
 20
4360.2516729999988
 30
0.0
 11
5768.2316923168837
 21
4744.6197739999989
 31
0.0
  0
LINE
  5
7C82
  8
1
  6
CONTINUOUS
 10
5768.2316923168837
 20
4744.6197739999989
 30
0.0
 11
5633.2316923168837
 21
4744.6197739999989
 31
0.0
  0
LINE
  5
7C83
  8
1
  6
CONTINUOUS
 10
5633.2316923168837
 20
4744.6197739999989
 30
0.0
 11
5633.2316923168837
 21
4360.2516729999988
 31
0.0
  0
LINE
  5
7C84
  8
1
  6
CONTINUOUS
 10
5633.2316923168837
 20
3808.6089430000002
 30
0.0
 11
5633.2316923168837
 21
3536.262502999999
 31
0.0
  0
LINE
  5
7C85
  8
1
  6
CONTINUOUS
 10
5633.2316923168837
 20
3536.262502999999
 30
0.0
 11
5768.2316923168837
 21
3536.262502999999
 31
0.0
  0
LINE
  5
7C86
  8
1
  6
CONTINUOUS
 10
5768.2316923168837
 20
3536.262502999999
 30
0.0
 11
5768.2316923168837
 21
3808.6089430000002
 31
0.0
  0
LINE
  5
7C87
  8
1
  6
CONTINUOUS
 10
5768.2316923168837
 20
3808.6089430000002
 30
0.0
 11
5633.2316923168837
 21
3808.6089430000002
 31
0.0
  0
LINE
  5
7C88
  8
1
  6
CONTINUOUS
 10
4223.4209693804414
 20
8183.6934389999997
 30
0.0
 11
3899.4209693804419
 21
8183.6934389999997
 31
0.0
  0
LINE
  5
7C89
  8
1
  6
CONTINUOUS
 10
3899.4209693804419
 20
8183.6934389999997
 30
0.0
 11
3899.4209693804419
 21
7709.5717189999996
 31
0.0
  0
LINE
  5
7C8A
  8
1
  6
CONTINUOUS
 10
3899.4209693804419
 20
7709.5717189999996
 30
0.0
 11
4223.4209693804414
 21
7709.5717189999996
 31
0.0
  0
LINE
  5
7C8B
  8
1
  6
CONTINUOUS
 10
4223.4209693804414
 20
7709.5717189999996
 30
0.0
 11
4223.4209693804414
 21
8183.6934389999997
 31
0.0
  0
LINE
  5
7C8C
  8
1
  6
CONTINUOUS
 10
3925.2709693804409
 20
7587.5717189999996
 30
0.0
 11
3925.2709693804409
 21
7486.5717189999996
 31
0.0
  0
LINE
  5
7C8D
  8
1
  6
CONTINUOUS
 10
3925.2709693804409
 20
7486.5717189999996
 30
0.0
 11
4197.570969380442
 21
7486.5717189999996
 31
0.0
  0
LINE
  5
7C8E
  8
1
  6
CONTINUOUS
 10
4197.570969380442
 20
7486.5717189999996
 30
0.0
 11
4197.570969380442
 21
7587.5717189999996
 31
0.0
  0
LINE
  5
7C8F
  8
1
  6
CONTINUOUS
 10
4197.570969380442
 20
7587.5717189999996
 30
0.0
 11
3925.2709693804409
 21
7587.5717189999996
 31
0.0
  0
LINE
  5
7C90
  8
1
  6
CONTINUOUS
 10
4291.4209693804423
 20
7502.0717189999987
 30
0.0
 11
4197.570969380442
 21
7502.0717189999987
 31
0.0
  0
LINE
  5
7C93
  8
2
  6
CENTER
 10
2100.4085273804408
 20
8084.5717190000014
 30
0.0
 11
4342.7284893804417
 21
8084.5717190000014
 31
0.0
  0
LINE
  5
7C94
  8
2
  6
CENTER
 10
6265.2316923168837
 20
5413.1453240000001
 30
0.0
 11
6265.2316923168837
 21
3146.2296289999999
 31
0.0
  0
LINE
  5
7C95
  8
2
  6
CENTER
 10
2991.4209693804419
 20
7368.0201809999999
 30
0.0
 11
2991.4209693804419
 21
8631.9293170000001
 31
0.0
  0
LINE
  5
7C96
  8
2
  6
CENTER
 10
3983.957325380441
 20
4552.4357229999996
 30
0.0
 11
1979.228815380442
 21
4552.4357229999996
 31
0.0
  0
LINE
  5
7C98
  8
4
  6
CONTINUOUS
 10
7400.0
 20
2000.0
 30
0.0
 11
7400.0
 21
1200.0
 31
0.0
  0
LINE
  5
7C99
  8
4
  6
CONTINUOUS
 10
4600.0
 20
2000.0
 30
0.0
 11
4600.0
 21
1200.0
 31
0.0
  0
LINE
  5
7C9A
  8
4
  6
CONTINUOUS
 10
2600.0
 20
2000.0
 30
0.0
 11
2600.0
 21
1200.0
 31
0.0
  0
LINE
  5
7C9D
  8
4
  6
CONTINUOUS
 10
2600.0
 20
1200.0
 30
0.0
 11
7400.0
 21
1200.0
 31
0.0
  0
LINE
  5
7C9E
  8
4
  6
CONTINUOUS
 10
2600.0
 20
1600.0
 30
0.0
 11
7400.0
 21
1600.0
 31
0.0
  0
TEXT
  5
7C9F
  8
4
  6
CONTINUOUS
 10
2754.008323
 20
1726.1721030000001
 30
0.0
 40
200.0
  1
機器名称
  0
TEXT
  5
7CA0
  8
4
  6
CONTINUOUS
 10
2745.032424
 20
1286.580627
 30
0.0
 40
200.0
  1
機器型番
  0
TEXT
  5
7CA1
  8
4
  6
CONTINUOUS
 10
4710.7149820000004
 20
1690.2870760000001
 30
0.0
 40
200.0
  1
ミツヤ多翼送風機
  0
TEXT
  5
7CA2
  8
4
  6
CONTINUOUS
 10
4746.6179819999998
 20
1268.6383370000001
 30
0.0
 40
200.0
  1
MF#6-4
  0
TEXT
  5
7CA4
  8
4
  6
CONTINUOUS
 10
3619.1430620000001
 20
9533.715365
 30
0.0
 40
216.0
  1
床置ベット
  0
TEXT
  5
7CA5
  8
4
  6
CONTINUOUS
 10
1264.6703729999999
 20
10135.523905
 30
0.0
 40
288.0
  1
ベルト駆動式片吸込両持多翼ファン
  0
LINE
  5
7CA6
  8
4
  6
CONTINUOUS
 10
1000.0
 20
9877.6350170000005
 30
0.0
 11
7400.0
 21
9877.6350170000005
 31
0.0
  0
LINE
  5
7CA7
  8
4
  6
CONTINUOUS
 10
1000.0
 20
10677.635017000001
 30
0.0
 11
7400.0
 21
10677.635017000001
 31
0.0
  0
LINE
  5
7CA8
  8
4
  6
CONTINUOUS
 10
2600.0
 20
2000.0
 30
0.0
 11
7400.0
 21
2000.0
 31
0.0
  0
LINE
  5
7CA9
  8
4
  6
CONTINUOUS
 10
1000.0
 20
10677.635017000001
 30
0.0
 11
1000.0
 21
9877.6350170000005
 31
0.0
  0
TEXT
  5
7CAA
  8
4
  6
CONTINUOUS
 10
1693.5971149999989
 20
9529.2779099999989
 30
0.0
 40
216.0
  1
右回転左横向
  0
TEXT
  5
7CAB
  8
4
  6
CONTINUOUS
 10
5875.8782369999999
 20
10824.244326
 30
0.0
 40
224.0
  1
No.
  0
TEXT
  5
7CAC
  8
4
  6
CONTINUOUS
 10
5245.1842500000012
 20
9533.715365
 30
0.0
 40
216.0
  1
縮尺：1/40
  0
LINE
  5
7CAD
  8
4
  6
CONTINUOUS
 10
7400.0
 20
10677.635017000001
 30
0.0
 11
7400.0
 21
9877.6350170000005
 31
0.0
  0
LINE
  5
7CAF
  8
4
  6
CONTINUOUS
 10
5762.4696889999996
 20
10725.054333
 30
0.0
 11
5762.4696889999996
 21
11146.609046
 31
0.0
  0
LINE
  5
7CB0
  8
4
  6
CONTINUOUS
 10
5762.4696889999996
 20
11146.609046
 30
0.0
 11
7400.0
 21
11146.609046
 31
0.0
  0
LINE
  5
7CB1
  8
4
  6
CONTINUOUS
 10
7400.0
 20
11146.609046
 30
0.0
 11
7400.0
 21
10725.054333
 31
0.0
  0
LINE
  5
7CB2
  8
4
  6
CONTINUOUS
 10
7400.0
 20
10725.054333
 30
0.0
 11
5762.4696889999996
 21
10725.054333
 31
0.0
  0
DIMENSION
  5
7CE5
  8
3
  6
CONTINUOUS
  2
*D1
 10
6265.2316923168837
 20
2926.7418605647681
 30
0.0
 11
5957.212469804469
 21
2926.7418605647681
 31
0.0
 70
   128
 13
5682.7316923168837
 23
3337.4357230000001
 33
0.0
 14
6265.2316923168837
 24
3337.4357230000001
 34
0.0
1001
ACAD
1000
DSTYLE
1002
{
1070
   287
1070
     3
1070
   287
1070
     3
1070
    40
1040
40.0
1070
   143
1040
0.039
1070
   172
1070
     1
1070
   271
1070
     0
1070
   279
1070
     0
1070
   288
1070
     1
1002
}
  0
DIMENSION
  5
7CF3
  8
3
  6
CONTINUOUS
  2
*D2
 10
6706.7316923168828
 20
2926.7418605647681
 30
0.0
 11
6457.391651804468
 21
2927.0359205647669
 31
0.0
 70
   128
 13
6265.2316923168837
 23
3337.4357230000001
 33
0.0
 14
6706.7316923168828
 24
3337.4357230000001
 34
0.0
1001
ACAD
1000
DSTYLE
1002
{
1070
   287
1070
     4
1070
   287
1070
     4
1070
    40
1040
40.0
1070
    75
1070
     1
1070
   143
1040
0.039
1070
   172
1070
     1
1070
   271
1070
     0
1070
   279
1070
     1
1070
   288
1070
     1
1002
}
  0
DIMENSION
  5
7D00
  8
3
  6
CONTINUOUS
  2
*D3
 10
6640.2316923168837
 20
5393.8088420000013
 30
0.0
 11
6323.2623513168828
 21
5393.8088420000013
 31
0.0
 70
   128
 13
5890.2316923168837
 23
5268.4357229999987
 33
0.0
 14
6640.2316923168837
 24
5268.4357229999987
 34
0.0
1001
ACAD
1000
DSTYLE
1002
{
1070
   287
1070
     3
1070
   287
1070
     3
1070
    40
1040
40.0
1070
   143
1040
0.039
1070
   172
1070
     1
1070
   271
1070
     0
1070
   279
1070
     0
1070
   288
1070
     1
1002
}
  0
DIMENSION
  5
7D0D
  8
3
  6
CONTINUOUS
  2
*D4
 10
6265.2316923168837
 20
5659.6100619999997
 30
0.0
 11
5973.8031208883122
 21
5659.6100619999997
 31
0.0
 70
   128
  1
MAX\P700
 13
5605.2316923168837
 23
5062.4357229999996
 33
0.0
 14
6265.2316923168837
 24
5547.3527940000004
 34
0.0
1001
ACAD
1000
DSTYLE
1002
{
1070
   287
1070
     3
1070
   287
1070
     3
1070
    40
1040
40.0
1070
   143
1040
0.039
1070
   172
1070
     1
1070
   271
1070
     0
1070
   279
1070
     0
1070
   288
1070
     1
1002
}
  0
DIMENSION
  5
7D28
  8
3
  6
CONTINUOUS
  2
*D5
 10
4656.499311380443
 20
7502.0717189999987
 30
0.0
 11
4656.4993113804421
 21
7976.739704999999
 31
0.0
 70
   128
 13
4291.4209693804423
 23
8527.0717189999996
 33
0.0
 14
4291.4209693804423
 24
7502.0717189999987
 34
0.0
 50
90.0
1001
ACAD
1000
DSTYLE
1002
{
1070
   287
1070
     3
1070
   287
1070
     3
1070
    40
1040
40.0
1070
   143
1040
0.039
1070
   172
1070
     1
1070
   271
1070
     0
1070
   279
1070
     0
1070
   288
1070
     1
1002
}
  0
DIMENSION
  5
7D43
  8
3
  6
CONTINUOUS
  2
*D6
 10
2090.0744013804419
 20
3572.104452
 30
0.0
 11
2090.0744013804419
 21
3892.104452
 31
0.0
 70
   128
 13
2261.420969380441
 23
4602.4357229999996
 33
0.0
 14
2311.4209693804419
 24
3572.104452
 34
0.0
 50
90.0
1001
ACAD
1000
DSTYLE
1002
{
1070
   287
1070
     3
1070
   287
1070
     3
1070
    40
1040
40.0
1070
   143
1040
0.039
1070
   172
1070
     1
1070
   271
1070
     0
1070
   279
1070
     0
1070
   288
1070
     1
1002
}
  0
LINE
  5
7D5A
  8
1
  6
CONTINUOUS
 10
2341.420969380441
 20
3337.4357230000001
 30
0.0
 11
4291.4209693804423
 21
3337.4357230000001
 31
0.0
  0
DIMENSION
  5
7D67
  8
3
  6
CONTINUOUS
  2
*D7
 10
1855.877613380442
 20
3570.4357230000001
 30
0.0
 11
1855.8776133804411
 21
3924.2646810000001
 31
0.0
 70
   128
 13
1979.228815380442
 23
4552.4357229999996
 33
0.0
 14
2261.420969380441
 24
3570.4357230000001
 34
0.0
 50
90.0
1001
ACAD
1000
DSTYLE
1002
{
1070
   287
1070
     3
1070
   287
1070
     3
1070
    40
1040
40.0
1070
   143
1040
0.039
1070
   172
1070
     1
1070
   271
1070
     0
1070
   279
1070
     0
1070
   288
1070
     1
1002
}
  0
DIMENSION
  5
7D80
  8
3
  6
CONTINUOUS
  2
*D8
 10
1571.221000380441
 20
3337.4357230000001
 30
0.0
 11
1471.221000380441
 21
3944.9357230000001
 31
0.0
 70
     0
 13
1979.228815380442
 23
4552.4357229999996
 33
0.0
 14
2341.420969380441
 24
3337.4357230000001
 34
0.0
 50
90.0
1001
ACAD
1000
DSTYLE
1002
{
1070
   287
1070
     3
1070
   287
1070
     3
1070
    40
1040
40.0
1070
   143
1040
0.039
1070
   172
1070
     1
1070
   271
1070
     0
1070
   279
1070
     0
1070
   288
1070
     1
1002
}
  0
DIMENSION
  5
7D9A
  8
3
  6
CONTINUOUS
  2
*D9
 10
2991.4209693804419
 20
2881.8096815647668
 30
0.0
 11
2637.2130858680271
 21
2881.8096815647668
 31
0.0
 70
   128
 13
2341.420969380441
 23
3337.4357230000001
 33
0.0
 14
2991.4209693804419
 24
3222.5332549999998
 34
0.0
1001
ACAD
1000
DSTYLE
1002
{
1070
   287
1070
     3
1070
   287
1070
     3
1070
    40
1040
40.0
1070
   143
1040
0.039
1070
   172
1070
     1
1070
   271
1070
     0
1070
   279
1070
     0
1070
   288
1070
     1
1002
}
  0
DIMENSION
  5
7DA6
  8
3
  6
CONTINUOUS
  2
*D10
 10
4291.4209693804423
 20
2881.8096815647668
 30
0.0
 11
3641.420969380441
 21
2981.8096815647668
 31
0.0
 70
     0
 13
2991.4209693804419
 23
3222.5332549999998
 33
0.0
 14
4291.4209693804423
 24
3337.4357230000001
 34
0.0
1001
ACAD
1000
DSTYLE
1002
{
1070
   287
1070
     4
1070
   287
1070
     4
1070
    40
1040
40.0
1070
    75
1070
     1
1070
   143
1040
0.039
1070
   172
1070
     1
1070
   271
1070
     0
1070
   279
1070
     1
1070
   288
1070
     1
1002
}
  0
DIMENSION
  5
7DB3
  8
3
  6
CONTINUOUS
  2
*D11
 10
2991.4209693804419
 20
5507.9017979999999
 30
0.0
 11
2604.5267063804422
 21
5507.9017979999999
 31
0.0
 70
   128
 13
2261.420969380441
 23
4650.4357229999996
 33
0.0
 14
2991.4209693804419
 24
5394.1075010000004
 34
0.0
1001
ACAD
1000
DSTYLE
1002
{
1070
   287
1070
     3
1070
   287
1070
     3
1070
    40
1040
40.0
1070
   143
1040
0.039
1070
   172
1070
     1
1070
   271
1070
     0
1070
   279
1070
     0
1070
   288
1070
     1
1002
}
  0
LINE
  5
7DC0
  8
1
  6
CONTINUOUS
 10
6644.2316923168828
 20
4022.4357230000001
 30
0.0
 11
6644.2316923168828
 21
5082.4357229999987
 31
0.0
  0
DIMENSION
  5
7DCF
  8
3
  6
CONTINUOUS
  2
*D12
 10
6997.3868943168836
 20
4022.4357230000001
 30
0.0
 11
6997.3868943168818
 21
4523.6425659999986
 31
0.0
 70
   128
 13
6644.2316923168828
 23
5082.4357229999987
 33
0.0
 14
6644.2316923168828
 24
4022.4357230000001
 34
0.0
 50
90.0
1001
ACAD
1000
DSTYLE
1002
{
1070
   287
1070
     3
1070
   287
1070
     3
1070
     3
1000
φ<>
1070
    40
1040
40.0
1070
   143
1040
0.039
1070
   172
1070
     1
1070
   271
1070
     0
1070
   279
1070
     0
1070
   288
1070
     1
1002
}
  0
DIMENSION
  5
7DDD
  8
3
  6
CONTINUOUS
  2
*D13
 10
6644.2316923168828
 20
5659.6100619999997
 30
0.0
 11
6451.0284863168827
 21
5670.3802990000013
 31
0.0
 70
   128
 13
6265.2316923168837
 23
5547.3527940000004
 33
0.0
 14
6644.2316923168828
 24
5082.4357229999987
 34
0.0
1001
ACAD
1000
DSTYLE
1002
{
1070
   287
1070
     4
1070
   287
1070
     4
1070
    40
1040
40.0
1070
    75
1070
     1
1070
   143
1040
0.039
1070
   172
1070
     1
1070
   271
1070
     0
1070
   279
1070
     1
1070
   288
1070
     1
1002
}
  0
DIMENSION
  5
7DF5
  8
3
  6
CONTINUOUS
  2
*D14
 10
4291.4209693804423
 20
8730.5321590000003
 30
0.0
 11
3275.384216380442
 21
8730.5321590000003
 31
0.0
 70
   128
 13
2341.420969380441
 23
8527.0717189999996
 33
0.0
 14
4291.4209693804423
 24
8527.0717189999996
 34
0.0
1001
ACAD
1000
DSTYLE
1002
{
1070
   287
1070
     3
1070
   287
1070
     3
1070
    40
1040
40.0
1070
   143
1040
0.039
1070
   172
1070
     1
1070
   271
1070
     0
1070
   279
1070
     0
1070
   288
1070
     1
1002
}
  0
DIMENSION
  5
7E6E
  8
3
  6
CONTINUOUS
  2
*D15
 10
3819.0575143804422
 20
5507.9017979999999
 30
0.0
 11
3405.239241880442
 21
5607.9017979999999
 31
0.0
 70
     0
 13
2991.4209693804419
 23
5394.1075010000004
 33
0.0
 14
3819.0575143804422
 24
4552.4357229999996
 34
0.0
1001
ACAD
1000
DSTYLE
1002
{
1070
   287
1070
     4
1070
   287
1070
     4
1070
    40
1040
40.0
1070
    75
1070
     1
1070
   143
1040
0.039
1070
   172
1070
     1
1070
   271
1070
     0
1070
   279
1070
     1
1070
   288
1070
     1
1002
}
  0
DIMENSION
  5
7EF3
  8
3
  2
*D16
 10
4291.4209693804423
 20
5728.1449580919279
 30
0.0
 11
3256.4118735917218
 21
5728.1449580919279
 31
0.0
 70
   128
 13
2261.420969380441
 23
4650.4357229999996
 33
0.0
 14
4291.4209693804423
 24
3462.4357229999991
 34
0.0
1001
ACAD
1000
DSTYLE
1002
{
1070
   287
1070
     3
1070
   287
1070
     3
1070
    40
1040
40.0
1070
   143
1040
0.039
1070
   172
1070
     1
1070
   271
1070
     0
1070
   279
1070
     0
1070
   288
1070
     1
1002
}
  0
LINE
  5
7F03
  8
1
  6
CONTINUOUS
 10
2360.4573205090801
 20
4602.4357229999996
 30
0.0
 11
2261.420969380441
 21
4602.4357229999996
 31
0.0
  0
LINE
  5
7F49
  8
1
  6
CONTINUOUS
 10
2366.420969380441
 20
3462.4357230000001
 30
0.0
 11
2366.420969380441
 21
4712.4357229999987
 31
0.0
  0
LINE
  5
7F4A
  8
1
  6
CONTINUOUS
 10
3616.4209693804419
 20
3462.4357230000001
 30
0.0
 11
3616.4209693804419
 21
5021.1404018432513
 31
0.0
  0
LINE
  5
7F4B
  8
1
  6
CONTINUOUS
 10
3616.4209693804419
 20
4712.4357229999987
 30
0.0
 11
2366.420969380441
 21
4712.4357229999987
 31
0.0
  0
DIMENSION
  5
7F4D
  8
3
  2
*D17
 10
1571.2210003804421
 20
5270.3265421728347
 30
0.0
 11
1471.221000380441
 21
4911.3811325864162
 31
0.0
 70
     0
  1
716
 13
1979.228815380442
 23
4552.4357229999996
 33
0.0
 14
3034.4209693804419
 24
5270.3265421728338
 34
0.0
 50
90.0
1001
ACAD
1000
DSTYLE
1002
{
1070
   287
1070
     4
1070
   287
1070
     4
1070
    40
1040
40.0
1070
   143
1040
0.039
1070
   172
1070
     1
1070
   271
1070
     0
1070
   279
1070
     1
1070
   288
1070
     1
1002
}
  0
ENDSEC
  0
EOF
