  0
SECTION
  2
HEADER
  9
$ACADVER
  1
AC1009
  9
$INSBASE
 10
0.0
 20
0.0
 30
0.0
  9
$EXTMIN
 10
1000.0
 20
1200.0
 30
0.0
  9
$EXTMAX
 10
7400.0
 20
11146.609046
 30
0.0
  9
$LIMMIN
 10
0.0
 20
0.0
  9
$LIMMAX
 10
297.0
 20
210.0
  9
$ORTHOMODE
 70
     0
  9
$REGENMODE
 70
     1
  9
$FILLMODE
 70
     0
  9
$QTEXTMODE
 70
     0
  9
$MIRRTEXT
 70
     1
  9
$DRAGMODE
 70
     2
  9
$LTSCALE
 40
100.0
  9
$OSMODE
 70
    37
  9
$ATTMODE
 70
     1
  9
$TEXTSIZE
 40
180.0
  9
$TRACEWID
 40
0.05
  9
$TEXTSTYLE
  7
STANDARD
  9
$CLAYER
  8
3
  9
$CELTYPE
  6
BYLAYER
  9
$CECOLOR
 62
   256
  9
$DIMSCALE
 40
40.0
  9
$DIMASZ
 40
2.0
  9
$DIMEXO
 40
0.5
  9
$DIMDLI
 40
10.0
  9
$DIMRND
 40
0.0
  9
$DIMDLE
 40
0.0
  9
$DIMEXE
 40
1.0
  9
$DIMTP
 40
1.0
  9
$DIMTM
 40
1.0
  9
$DIMTXT
 40
3.0
  9
$DIMCEN
 40
0.0
  9
$DIMTSZ
 40
0.0
  9
$DIMTOL
 70
     0
  9
$DIMLIM
 70
     0
  9
$DIMTIH
 70
     0
  9
$DIMTOH
 70
     0
  9
$DIMSE1
 70
     0
  9
$DIMSE2
 70
     0
  9
$DIMTAD
 70
     1
  9
$DIMZIN
 70
     8
  9
$DIMBLK
  1

  9
$DIMASO
 70
     1
  9
$DIMSHO
 70
     1
  9
$DIMPOST
  1

  9
$DIMAPOST
  1

  9
$DIMALT
 70
     0
  9
$DIMALTD
 70
     2
  9
$DIMALTF
 40
0.039
  9
$DIMLFAC
 40
1.0
  9
$DIMTOFL
 70
     1
  9
$DIMTVP
 40
0.0
  9
$DIMTIX
 70
     0
  9
$DIMSOXD
 70
     0
  9
$DIMSAH
 70
     1
  9
$DIMBLK1
  1
OPEN
  9
$DIMBLK2
  1
OPEN
  9
$DIMSTYLE
  2
IGA
  9
$DIMCLRD
 70
     0
  9
$DIMCLRE
 70
     0
  9
$DIMCLRT
 70
     0
  9
$DIMTFAC
 40
10.0
  9
$DIMGAP
 40
1.0
  9
$LUNITS
 70
     2
  9
$LUPREC
 70
     3
  9
$SKETCHINC
 40
0.1
  9
$FILLETRAD
 40
50.0
  9
$AUNITS
 70
     0
  9
$AUPREC
 70
     0
  9
$MENU
  1
acad
  9
$ELEVATION
 40
0.0
  9
$PELEVATION
 40
0.0
  9
$THICKNESS
 40
0.0
  9
$LIMCHECK
 70
     0
  9
$BLIPMODE
 70
     0
  9
$CHAMFERA
 40
0.5
  9
$CHAMFERB
 40
0.5
  9
$SKPOLY
 70
     0
  9
$TDCREATE
 40
2450752.5910637728
  9
$TDUPDATE
 40
2454953.7778282291
  9
$TDINDWG
 40
0.0073370602
  9
$TDUSRTIMER
 40
0.0073370602
  9
$USRTIMER
 70
     1
  9
$ANGBASE
 50
0.0
  9
$ANGDIR
 70
     0
  9
$PDMODE
 70
     0
  9
$PDSIZE
 40
0.0
  9
$PLINEWID
 40
0.0
  9
$COORDS
 70
     1
  9
$SPLFRAME
 70
     0
  9
$SPLINETYPE
 70
     6
  9
$SPLINESEGS
 70
     8
  9
$ATTDIA
 70
     0
  9
$ATTREQ
 70
     1
  9
$HANDLING
 70
 10241
  9
$HANDSEED
  5
806C
  9
$SURFTAB1
 70
     6
  9
$SURFTAB2
 70
     6
  9
$SURFTYPE
 70
     6
  9
$SURFU
 70
     6
  9
$SURFV
 70
     6
  9
$UCSNAME
  2

  9
$UCSORG
 10
0.0
 20
0.0
 30
0.0
  9
$UCSXDIR
 10
1.0
 20
0.0
 30
0.0
  9
$UCSYDIR
 10
0.0
 20
1.0
 30
0.0
  9
$PUCSNAME
  2

  9
$PUCSORG
 10
0.0
 20
0.0
 30
0.0
  9
$PUCSXDIR
 10
1.0
 20
0.0
 30
0.0
  9
$PUCSYDIR
 10
0.0
 20
1.0
 30
0.0
  9
$USERI1
 70
     0
  9
$USERI2
 70
     0
  9
$USERI3
 70
     0
  9
$USERI4
 70
     0
  9
$USERI5
 70
     0
  9
$USERR1
 40
0.0
  9
$USERR2
 40
0.0
  9
$USERR3
 40
0.0
  9
$USERR4
 40
0.0
  9
$USERR5
 40
0.0
  9
$WORLDVIEW
 70
     1
  9
$SHADEDGE
 70
     3
  9
$SHADEDIF
 70
    70
  9
$TILEMODE
 70
     1
  9
$MAXACTVP
 70
    16
  9
$PLIMCHECK
 70
     0
  9
$PEXTMIN
 10
1.0000000000000000E+020
 20
1.0000000000000000E+020
 30
1.0000000000000000E+020
  9
$PEXTMAX
 10
-1.0000000000000000E+020
 20
-1.0000000000000000E+020
 30
-1.0000000000000000E+020
  9
$PLIMMIN
 10
0.0
 20
0.0
  9
$PLIMMAX
 10
12.0
 20
9.0
  9
$UNITMODE
 70
     0
  9
$VISRETAIN
 70
     0
  9
$PLINEGEN
 70
     0
  9
$PSLTSCALE
 70
     1
  0
ENDSEC
  0
SECTION
  2
TABLES
  0
TABLE
  2
VPORT
 70
     2
  0
VPORT
  2
*ACTIVE
 70
     0
 10
0.0
 20
0.0
 11
1.0
 21
1.0
 12
12584.60902327445
 22
6173.4634074048672
 13
0.0
 23
0.0
 14
10.0
 24
10.0
 15
10.0
 25
10.0
 16
0.0
 26
0.0
 36
1.0
 17
0.0
 27
0.0
 37
0.0
 40
10023.29961609002
 41
3.1666666666666661
 42
50.0
 43
0.0
 44
0.0
 50
0.0
 51
0.0
 71
     0
 72
   100
 73
     1
 74
     0
 75
     0
 76
     0
 77
     0
 78
     0
  0
ENDTAB
  0
TABLE
  2
LTYPE
 70
     2
  0
LTYPE
  2
CONTINUOUS
 70
     0
  3
Solid line
 72
    65
 73
     0
 40
0.0
  0
LTYPE
  2
CENTER
 70
     0
  3
____ _ ____ _ ____ _ ____ _ ____ _ ____ _ ____ 
 72
    65
 73
     4
 40
2.0
 49
1.25
 49
-0.25
 49
0.25
 49
-0.25
  0
ENDTAB
  0
TABLE
  2
LAYER
 70
     6
  0
LAYER
  2
0
 70
     0
 62
     7
  6
CONTINUOUS
  0
LAYER
  2
3
 70
     0
 62
     2
  6
CONTINUOUS
  0
LAYER
  2
2
 70
     0
 62
     3
  6
CENTER
  0
LAYER
  2
1
 70
     0
 62
     4
  6
CONTINUOUS
  0
LAYER
  2
4
 70
     0
 62
     7
  6
CONTINUOUS
  0
LAYER
  2
DEFPOINTS
 70
     0
 62
     7
  6
CONTINUOUS
  0
ENDTAB
  0
TABLE
  2
STYLE
 70
     1
  0
STYLE
  2
STANDARD
 70
     0
 40
0.0
 41
1.0
 50
0.0
 71
     0
 42
180.0
  3
simplex.shx
  4
extfont.shx
  0
ENDTAB
  0
TABLE
  2
VIEW
 70
     0
  0
ENDTAB
  0
TABLE
  2
UCS
 70
     0
  0
ENDTAB
  0
TABLE
  2
APPID
 70
     1
  0
APPID
  2
ACAD
 70
     0
  0
ENDTAB
  0
TABLE
  2
DIMSTYLE
 70
     1
  0
DIMSTYLE
  2
IGA
 70
     0
  3

  4

  5

  6
OPEN
  7
OPEN
 40
2.0
 41
2.0
 42
0.5
 43
10.0
 44
1.0
 45
0.0
 46
0.0
 47
1.0
 48
1.0
140
3.0
141
0.0
142
0.0
143
0.03937
144
1.0
145
0.0
146
10.0
147
1.0
 71
     0
 72
     0
 73
     0
 74
     0
 75
     0
 76
     0
 77
     1
 78
     8
170
     0
171
     2
172
     0
173
     1
174
     0
175
     0
176
     0
177
     0
178
     0
  0
ENDTAB
  0
ENDSEC
  0
SECTION
  2
BLOCKS
  0
BLOCK
  8
0
  2
$MODEL_SPACE
 70
     0
 10
0.0
 20
0.0
 30
0.0
  3
$MODEL_SPACE
  1

  0
ENDBLK
  5
1B
  8
0
  0
BLOCK
 67
     1
  8
0
  2
$PAPER_SPACE
 70
     0
 10
0.0
 20
0.0
 30
0.0
  3
$PAPER_SPACE
  1

  0
ENDBLK
  5
18
 67
     1
  8
0
  0
BLOCK
  8
0
  2
_OPEN
 70
     0
 10
0.0
 20
0.0
 30
0.0
  3
_OPEN
  1

  0
LINE
  5
7BAB
  8
0
  6
BYBLOCK
 62
     0
 10
-1.0
 20
0.166667
 30
0.0
 11
0.0
 21
0.0
 31
0.0
  0
LINE
  5
7BAC
  8
0
  6
BYBLOCK
 62
     0
 10
0.0
 20
0.0
 30
0.0
 11
-1.0
 21
-0.166667
 31
0.0
  0
LINE
  5
7BAD
  8
0
  6
BYBLOCK
 62
     0
 10
0.0
 20
0.0
 30
0.0
 11
-1.0
 21
0.0
 31
0.0
  0
ENDBLK
  5
7BAE
  8
0
  0
BLOCK
  8
0
  2
*D1
 70
     1
 10
0.0
 20
0.0
 30
0.0
  3
*D1
  1

  0
LINE
  5
7FCF
  8
3
  6
CONTINUOUS
 62
     0
 10
3698.156007
 20
4805.5499959999988
 30
0.0
 11
3698.156007
 21
4991.2612390000004
 31
0.0
  0
LINE
  5
7FD0
  8
3
  6
CONTINUOUS
 62
     0
 10
2668.156007
 20
4805.5499959999988
 30
0.0
 11
2668.156007
 21
4991.2612390000004
 31
0.0
  0
LINE
  5
7FD1
  8
3
  6
CONTINUOUS
 62
     0
 10
3618.156007
 20
4951.2612390000004
 30
0.0
 11
2748.156007
 21
4951.2612390000004
 31
0.0
  0
INSERT
  5
7FD2
  8
3
  6
CONTINUOUS
 62
     0
  2
_OPEN
 10
3698.156007
 20
4951.2612390000004
 30
0.0
 41
80.0
 42
80.0
 43
80.0
  0
INSERT
  5
7FD3
  8
3
  6
CONTINUOUS
 62
     0
  2
_OPEN
 10
2668.156007
 20
4951.2612390000004
 30
0.0
 41
80.0
 42
80.0
 43
80.0
 50
180.0
  0
TEXT
  8
3
  40
120
  5
805B
  62
0
  72
0
  71
0
 10
2915.43
 20
4838.86
 30
0.000000
  1
1030
  0
POINT
  5
7FD5
  8
DEFPOINTS
  6
CONTINUOUS
 62
     0
 10
3698.156007
 20
4785.5499959999988
 30
0.0
  0
POINT
  5
7FD6
  8
DEFPOINTS
  6
CONTINUOUS
 62
     0
 10
2668.156007
 20
4785.5499959999988
 30
0.0
  0
POINT
  5
7FD7
  8
DEFPOINTS
  6
CONTINUOUS
 62
     0
 10
2668.156007
 20
4951.2612390000004
 30
0.0
  0
ENDBLK
  5
7BBB
  8
0
  0
BLOCK
  8
0
  2
*D2
 70
     1
 10
0.0
 20
0.0
 30
0.0
  3
*D2
  1

  0
LINE
  5
7FD8
  8
3
  6
CONTINUOUS
 62
     0
 10
3698.156007
 20
4805.5499959999988
 30
0.0
 11
3698.156007
 21
5239.2761359999986
 31
0.0
  0
LINE
  5
7FD9
  8
3
  6
CONTINUOUS
 62
     0
 10
2716.156007
 20
4982.1220479999993
 30
0.0
 11
2716.156007
 21
5239.2761359999986
 31
0.0
  0
LINE
  5
7FDA
  8
3
  6
CONTINUOUS
 62
     0
 10
3618.156007
 20
5199.2761359999986
 30
0.0
 11
2796.156007
 21
5199.2761359999986
 31
0.0
  0
INSERT
  5
7FDB
  8
3
  6
CONTINUOUS
 62
     0
  2
_OPEN
 10
3698.156007
 20
5199.2761359999986
 30
0.0
 41
80.0
 42
80.0
 43
80.0
  0
INSERT
  5
7FDC
  8
3
  6
CONTINUOUS
 62
     0
  2
_OPEN
 10
2716.156007
 20
5199.2761359999986
 30
0.0
 41
80.0
 42
80.0
 43
80.0
 50
180.0
  0
TEXT
  8
3
  40
120
  5
805C
  62
0
  72
0
  71
0
 10
2966.77
 20
5086.88
 30
0.000000
  1
982
  0
POINT
  5
7FDE
  8
DEFPOINTS
  6
CONTINUOUS
 62
     0
 10
3698.156007
 20
4785.5499959999988
 30
0.0
  0
POINT
  5
7FDF
  8
DEFPOINTS
  6
CONTINUOUS
 62
     0
 10
2716.156007
 20
4962.1220479999993
 30
0.0
  0
POINT
  5
7FE0
  8
DEFPOINTS
  6
CONTINUOUS
 62
     0
 10
2716.156007
 20
5199.2761359999986
 30
0.0
  0
ENDBLK
  5
7BC8
  8
0
  0
BLOCK
  8
0
  2
*D3
 70
     1
 10
0.0
 20
0.0
 30
0.0
  3
*D3
  1

  0
LINE
  5
7FE1
  8
3
  6
CONTINUOUS
 62
     0
 10
2598.156007
 20
4785.5499959999988
 30
0.0
 11
1694.9008890000009
 21
4785.5499960000006
 31
0.0
  0
LINE
  5
7FE2
  8
3
  6
CONTINUOUS
 62
     0
 10
1900.585587
 20
4055.5499960000002
 30
0.0
 11
1694.9008890000009
 21
4055.5499960000002
 31
0.0
  0
LINE
  5
7FE3
  8
3
  6
CONTINUOUS
 62
     0
 10
1734.9008890000009
 20
4705.5499960000006
 30
0.0
 11
1734.900889
 21
4135.5499959999997
 31
0.0
  0
INSERT
  5
7FE4
  8
3
  6
CONTINUOUS
 62
     0
  2
_OPEN
 10
1734.9008890000009
 20
4785.5499960000006
 30
0.0
 41
80.0
 42
80.0
 43
80.0
 50
90.0
  0
INSERT
  5
7FE5
  8
3
  6
CONTINUOUS
 62
     0
  2
_OPEN
 10
1734.900889
 20
4055.5499960000002
 30
0.0
 41
80.0
 42
80.0
 43
80.0
 50
270.0
  0
TEXT
  8
3
  40
120
  5
805D
  62
0
  72
0
  71
0
 10
1394.90
 20
4191.52
 30
0.000000
  1
730
  0
POINT
  5
7FE7
  8
DEFPOINTS
  6
CONTINUOUS
 62
     0
 10
2618.156007
 20
4785.5499959999988
 30
0.0
  0
POINT
  5
7FE8
  8
DEFPOINTS
  6
CONTINUOUS
 62
     0
 10
1920.585587
 20
4055.5499960000002
 30
0.0
  0
POINT
  5
7FE9
  8
DEFPOINTS
  6
CONTINUOUS
 62
     0
 10
1734.900889
 20
4055.5499960000002
 30
0.0
  0
ENDBLK
  5
7BE1
  8
0
  0
BLOCK
  8
0
  2
*D4
 70
     1
 10
0.0
 20
0.0
 30
0.0
  3
*D4
  1

  0
LINE
  5
7FEA
  8
3
  6
CONTINUOUS
 62
     0
 10
2046.1560069999989
 20
3195.5499960000002
 30
0.0
 11
1694.900889
 21
3195.5499960000002
 31
0.0
  0
LINE
  5
7FEB
  8
3
  6
CONTINUOUS
 62
     0
 10
1734.900889
 20
3975.5499960000002
 30
0.0
 11
1734.900889
 21
3275.5499960000002
 31
0.0
  0
INSERT
  5
7FEC
  8
3
  6
CONTINUOUS
 62
     0
  2
_OPEN
 10
1734.900889
 20
4055.5499960000002
 30
0.0
 41
80.0
 42
80.0
 43
80.0
 50
90.0
  0
INSERT
  5
7FED
  8
3
  6
CONTINUOUS
 62
     0
  2
_OPEN
 10
1734.900889
 20
3195.5499960000002
 30
0.0
 41
80.0
 42
80.0
 43
80.0
 50
270.0
  0
TEXT
  8
3
  40
120
  5
805E
  62
0
  72
0
  71
0
 10
1394.90
 20
3413.15
 30
0.000000
  1
860
  0
POINT
  5
7FEF
  8
DEFPOINTS
  6
CONTINUOUS
 62
     0
 10
1920.585587
 20
4055.5499960000002
 30
0.0
  0
POINT
  5
7FF0
  8
DEFPOINTS
  6
CONTINUOUS
 62
     0
 10
2066.156007
 20
3195.5499960000002
 30
0.0
  0
POINT
  5
7FF1
  8
DEFPOINTS
  6
CONTINUOUS
 62
     0
 10
1734.900889
 20
3195.5499960000002
 30
0.0
  0
ENDBLK
  5
7BED
  8
0
  0
BLOCK
  8
0
  2
*D5
 70
     1
 10
0.0
 20
0.0
 30
0.0
  3
*D5
  1

  0
LINE
  5
7FF2
  8
3
  6
CONTINUOUS
 62
     0
 10
2578.156007
 20
4785.5499959999988
 30
0.0
 11
1442.0107470000009
 21
4785.5499960000006
 31
0.0
  0
LINE
  5
7FF3
  8
3
  6
CONTINUOUS
 62
     0
 10
2046.1560069999989
 20
3195.5499960000002
 30
0.0
 11
1442.010747
 21
3195.5499960000002
 31
0.0
  0
LINE
  5
7FF4
  8
3
  6
CONTINUOUS
 62
     0
 10
1482.0107470000009
 20
4705.5499960000006
 30
0.0
 11
1482.010747
 21
3275.5499960000002
 31
0.0
  0
INSERT
  5
7FF5
  8
3
  6
CONTINUOUS
 62
     0
  2
_OPEN
 10
1482.0107470000009
 20
4785.5499960000006
 30
0.0
 41
80.0
 42
80.0
 43
80.0
 50
90.0
  0
INSERT
  5
7FF6
  8
3
  6
CONTINUOUS
 62
     0
  2
_OPEN
 10
1482.010747
 20
3195.5499960000002
 30
0.0
 41
80.0
 42
80.0
 43
80.0
 50
270.0
  0
TEXT
  8
3
  40
120
  5
805F
  62
0
  72
0
  71
0
 10
1142.01
 20
3695.49
 30
0.000000
  1
1590
  0
POINT
  5
7FF8
  8
DEFPOINTS
  6
CONTINUOUS
 62
     0
 10
2598.156007
 20
4785.5499959999988
 30
0.0
  0
POINT
  5
7FF9
  8
DEFPOINTS
  6
CONTINUOUS
 62
     0
 10
2066.156007
 20
3195.5499960000002
 30
0.0
  0
POINT
  5
7FFA
  8
DEFPOINTS
  6
CONTINUOUS
 62
     0
 10
1482.010747
 20
3195.5499960000002
 30
0.0
  0
ENDBLK
  5
7CD2
  8
0
  0
BLOCK
  8
0
  2
*D6
 70
     1
 10
0.0
 20
0.0
 30
0.0
  3
*D6
  1

  0
LINE
  5
7FFB
  8
3
  6
CONTINUOUS
 62
     0
 10
2066.156007
 20
3175.5499960000002
 30
0.0
 11
2066.156007
 21
2660.873025582599
 31
0.0
  0
LINE
  5
7FFC
  8
3
  6
CONTINUOUS
 62
     0
 10
2716.156007
 20
3064.4485399999999
 30
0.0
 11
2716.156007
 21
2660.873025582599
 31
0.0
  0
LINE
  5
7FFD
  8
3
  6
CONTINUOUS
 62
     0
 10
2146.156007
 20
2700.873025582599
 30
0.0
 11
2636.156007
 21
2700.873025582599
 31
0.0
  0
INSERT
  5
7FFE
  8
3
  6
CONTINUOUS
 62
     0
  2
_OPEN
 10
2066.156007
 20
2700.873025582599
 30
0.0
 41
80.0
 42
80.0
 43
80.0
 50
180.0
  0
INSERT
  5
7FFF
  8
3
  6
CONTINUOUS
 62
     0
  2
_OPEN
 10
2716.156007
 20
2700.873025582599
 30
0.0
 41
80.0
 42
80.0
 43
80.0
  0
TEXT
  8
3
  40
120
  5
8060
  62
0
  72
0
  71
0
 10
2201.87
 20
2588.47
 30
0.000000
  1
650
  0
POINT
  5
8001
  8
DEFPOINTS
  6
CONTINUOUS
 62
     0
 10
2066.156007
 20
3195.5499960000002
 30
0.0
  0
POINT
  5
8002
  8
DEFPOINTS
  6
CONTINUOUS
 62
     0
 10
2716.156007
 20
3084.4485399999999
 30
0.0
  0
POINT
  5
8003
  8
DEFPOINTS
  6
CONTINUOUS
 62
     0
 10
2716.156007
 20
2700.873025582599
 30
0.0
  0
ENDBLK
  5
7C07
  8
0
  0
BLOCK
  8
0
  2
*D7
 70
     1
 10
0.0
 20
0.0
 30
0.0
  3
*D7
  1

  0
LINE
  5
8004
  8
3
  6
CONTINUOUS
 62
     0
 10
4016.156007
 20
3175.5499960000002
 30
0.0
 11
4016.156007
 21
2660.873025582599
 31
0.0
  0
LINE
  5
8005
  8
3
  6
CONTINUOUS
 62
     0
 10
2796.156007
 20
2700.873025582599
 30
0.0
 11
3936.156007
 21
2700.873025582599
 31
0.0
  0
INSERT
  5
8006
  8
3
  6
CONTINUOUS
 62
     0
  2
_OPEN
 10
2716.156007
 20
2700.873025582599
 30
0.0
 41
80.0
 42
80.0
 43
80.0
 50
180.0
  0
INSERT
  5
8007
  8
3
  6
CONTINUOUS
 62
     0
  2
_OPEN
 10
4016.156007
 20
2700.873025582599
 30
0.0
 41
80.0
 42
80.0
 43
80.0
  0
TEXT
  8
3
  40
120
  5
8061
  62
0
  72
0
  71
0
 10
3126.16
 20
2588.47
 30
0.000000
  1
1300
  0
POINT
  5
8009
  8
DEFPOINTS
  6
CONTINUOUS
 62
     0
 10
2716.156007
 20
3084.4485399999999
 30
0.0
  0
POINT
  5
800A
  8
DEFPOINTS
  6
CONTINUOUS
 62
     0
 10
4016.156007
 20
3195.5499960000002
 30
0.0
  0
POINT
  5
800B
  8
DEFPOINTS
  6
CONTINUOUS
 62
     0
 10
4016.156007
 20
2700.873025582599
 30
0.0
  0
ENDBLK
  5
7C13
  8
0
  0
BLOCK
  8
0
  2
*D8
 70
     1
 10
0.0
 20
0.0
 30
0.0
  3
*D8
  1

  0
LINE
  5
800C
  8
3
  6
CONTINUOUS
 62
     0
 10
5931.5886110000001
 20
4805.5499959999988
 30
0.0
 11
5931.5886110000001
 21
5034.0224319999998
 31
0.0
  0
LINE
  5
800D
  8
3
  6
CONTINUOUS
 62
     0
 10
6681.588611000001
 20
4805.5499959999988
 30
0.0
 11
6681.588611000001
 21
5034.0224319999998
 31
0.0
  0
LINE
  5
800E
  8
3
  6
CONTINUOUS
 62
     0
 10
6011.5886110000001
 20
4994.0224319999998
 30
0.0
 11
6601.5886110000001
 21
4994.0224319999998
 31
0.0
  0
INSERT
  5
800F
  8
3
  6
CONTINUOUS
 62
     0
  2
_OPEN
 10
5931.5886110000001
 20
4994.0224319999998
 30
0.0
 41
80.0
 42
80.0
 43
80.0
 50
180.0
  0
INSERT
  5
8010
  8
3
  6
CONTINUOUS
 62
     0
  2
_OPEN
 10
6681.588611000001
 20
4994.0224319999998
 30
0.0
 41
80.0
 42
80.0
 43
80.0
  0
TEXT
  8
3
  40
120
  5
8062
  62
0
  72
0
  71
0
 10
6064.72
 20
4881.62
 30
0.000000
  1
750
  0
POINT
  5
8012
  8
DEFPOINTS
  6
CONTINUOUS
 62
     0
 10
5931.5886110000001
 20
4785.5499959999988
 30
0.0
  0
POINT
  5
8013
  8
DEFPOINTS
  6
CONTINUOUS
 62
     0
 10
6681.588611000001
 20
4785.5499959999988
 30
0.0
  0
POINT
  5
8014
  8
DEFPOINTS
  6
CONTINUOUS
 62
     0
 10
6681.588611000001
 20
4994.0224319999998
 30
0.0
  0
ENDBLK
  5
7C20
  8
0
  0
BLOCK
  8
0
  2
*D9
 70
     1
 10
0.0
 20
0.0
 30
0.0
  3
*D9
  1

  0
LINE
  5
8015
  8
3
  6
CONTINUOUS
 62
     0
 10
6705.5886110000001
 20
4585.5499959999997
 30
0.0
 11
7072.0921640000006
 21
4585.5499959999997
 31
0.0
  0
LINE
  5
8016
  8
3
  6
CONTINUOUS
 62
     0
 10
6705.5886110000001
 20
3525.5499960000002
 30
0.0
 11
7072.0921640000006
 21
3525.5499960000002
 31
0.0
  0
LINE
  5
8017
  8
3
  6
CONTINUOUS
 62
     0
 10
7032.0921640000006
 20
4505.5499959999997
 30
0.0
 11
7032.0921640000006
 21
3605.5499960000002
 31
0.0
  0
INSERT
  5
8018
  8
3
  6
CONTINUOUS
 62
     0
  2
_OPEN
 10
7032.0921640000006
 20
4585.5499959999997
 30
0.0
 41
80.0
 42
80.0
 43
80.0
 50
90.0
  0
INSERT
  5
8019
  8
3
  6
CONTINUOUS
 62
     0
  2
_OPEN
 10
7032.0921640000006
 20
3525.5499960000002
 30
0.0
 41
80.0
 42
80.0
 43
80.0
 50
270.0
  0
TEXT
  8
3
  40
120
  5
8063
  62
0
  72
0
  71
0
 10
6692.09
 20
3832.32
 30
0.000000
  1
φ1060
  0
POINT
  5
801B
  8
DEFPOINTS
  6
CONTINUOUS
 62
     0
 10
6685.5886110000001
 20
4585.5499959999997
 30
0.0
  0
POINT
  5
801C
  8
DEFPOINTS
  6
CONTINUOUS
 62
     0
 10
6685.5886110000001
 20
3525.5499960000002
 30
0.0
  0
POINT
  5
801D
  8
DEFPOINTS
  6
CONTINUOUS
 62
     0
 10
7032.0921640000006
 20
3525.5499960000002
 30
0.0
  0
ENDBLK
  5
7D70
  8
0
  0
BLOCK
  8
0
  2
*D10
 70
     1
 10
0.0
 20
0.0
 30
0.0
  3
*D10
  1

  0
LINE
  5
801E
  8
3
  6
CONTINUOUS
 62
     0
 10
5724.0886110000001
 20
3175.5499960000002
 30
0.0
 11
5724.0886110000001
 21
2621.6157115825981
 31
0.0
  0
LINE
  5
801F
  8
3
  6
CONTINUOUS
 62
     0
 10
6306.5886110000001
 20
2942.4145050000002
 30
0.0
 11
6306.5886110000001
 21
2621.6157115825981
 31
0.0
  0
LINE
  5
8020
  8
3
  6
CONTINUOUS
 62
     0
 10
5804.0886110000001
 20
2661.6157115825981
 30
0.0
 11
6226.5886110000001
 21
2661.6157115825981
 31
0.0
  0
INSERT
  5
8021
  8
3
  6
CONTINUOUS
 62
     0
  2
_OPEN
 10
5724.0886110000001
 20
2661.6157115825981
 30
0.0
 41
80.0
 42
80.0
 43
80.0
 50
180.0
  0
INSERT
  5
8022
  8
3
  6
CONTINUOUS
 62
     0
  2
_OPEN
 10
6306.5886110000001
 20
2661.6157115825981
 30
0.0
 41
80.0
 42
80.0
 43
80.0
  0
TEXT
  8
3
  40
120
  5
8064
  62
0
  72
0
  71
0
 10
5792.30
 20
2549.22
 30
0.000000
  1
583
  0
POINT
  5
8024
  8
DEFPOINTS
  6
CONTINUOUS
 62
     0
 10
5724.0886110000001
 20
3195.5499960000002
 30
0.0
  0
POINT
  5
8025
  8
DEFPOINTS
  6
CONTINUOUS
 62
     0
 10
6306.5886110000001
 20
2962.4145050000002
 30
0.0
  0
POINT
  5
8026
  8
DEFPOINTS
  6
CONTINUOUS
 62
     0
 10
6306.5886110000001
 20
2661.6157115825981
 30
0.0
  0
ENDBLK
  5
7D4E
  8
0
  0
BLOCK
  8
0
  2
*D11
 70
     1
 10
0.0
 20
0.0
 30
0.0
  3
*D11
  1

  0
LINE
  5
8027
  8
3
  6
CONTINUOUS
 62
     0
 10
6748.0886110000001
 20
3175.5499960000002
 30
0.0
 11
6748.0886110000001
 21
2621.6157115825981
 31
0.0
  0
LINE
  5
8028
  8
3
  6
CONTINUOUS
 62
     0
 10
6386.5886110000001
 20
2661.6157115825981
 30
0.0
 11
6668.0886110000001
 21
2661.6157115825981
 31
0.0
  0
TEXT
  8
3
  40
120
  5
8065
  62
0
  72
0
  71
0
 10
6292.25
 20
2566.47
 30
0.000000
  1
442
  0
INSERT
  5
802A
  8
3
  6
CONTINUOUS
 62
     0
  2
_OPEN
 10
6306.5886110000001
 20
2661.6157115825981
 30
0.0
 41
80.0
 42
80.0
 43
80.0
 50
180.0
  0
INSERT
  5
802B
  8
3
  6
CONTINUOUS
 62
     0
  2
_OPEN
 10
6748.0886110000001
 20
2661.6157115825981
 30
0.0
 41
80.0
 42
80.0
 43
80.0
  0
POINT
  5
802C
  8
DEFPOINTS
  6
CONTINUOUS
 62
     0
 10
6306.5886110000001
 20
2962.4145050000002
 30
0.0
  0
POINT
  5
802D
  8
DEFPOINTS
  6
CONTINUOUS
 62
     0
 10
6748.0886110000001
 20
3195.5499960000002
 30
0.0
  0
POINT
  5
802E
  8
DEFPOINTS
  6
CONTINUOUS
 62
     0
 10
6748.0886110000001
 20
2661.6157115825981
 30
0.0
  0
ENDBLK
  5
7D58
  8
0
  0
BLOCK
  8
0
  2
*D12
 70
     1
 10
0.0
 20
0.0
 30
0.0
  3
*D12
  1

  0
LINE
  5
802F
  8
3
  6
CONTINUOUS
 62
     0
 10
2066.156007
 20
8202.9801210000005
 30
0.0
 11
2066.156007
 21
8485.7308400000002
 31
0.0
  0
LINE
  5
8030
  8
3
  6
CONTINUOUS
 62
     0
 10
4016.156007
 20
8202.9801210000005
 30
0.0
 11
4016.156007
 21
8485.7308400000002
 31
0.0
  0
LINE
  5
8031
  8
3
  6
CONTINUOUS
 62
     0
 10
2146.156007
 20
8445.7308400000002
 30
0.0
 11
3936.156007
 21
8445.7308400000002
 31
0.0
  0
INSERT
  5
8032
  8
3
  6
CONTINUOUS
 62
     0
  2
_OPEN
 10
2066.156007
 20
8445.7308400000002
 30
0.0
 41
80.0
 42
80.0
 43
80.0
 50
180.0
  0
INSERT
  5
8033
  8
3
  6
CONTINUOUS
 62
     0
  2
_OPEN
 10
4016.156007
 20
8445.7308400000002
 30
0.0
 41
80.0
 42
80.0
 43
80.0
  0
TEXT
  8
3
  40
120
  5
8066
  62
0
  72
0
  71
0
 10
2812.74
 20
8333.33
 30
0.000000
  1
1950
  0
POINT
  5
8035
  8
DEFPOINTS
  6
CONTINUOUS
 62
     0
 10
2066.156007
 20
8182.9801209999987
 30
0.0
  0
POINT
  5
8036
  8
DEFPOINTS
  6
CONTINUOUS
 62
     0
 10
4016.156007
 20
8182.9801209999987
 30
0.0
  0
POINT
  5
8037
  8
DEFPOINTS
  6
CONTINUOUS
 62
     0
 10
4016.156007
 20
8445.7308400000002
 30
0.0
  0
ENDBLK
  5
7D39
  8
0
  0
BLOCK
  8
0
  2
*D13
 70
     1
 10
0.0
 20
0.0
 30
0.0
  3
*D13
  1

  0
LINE
  5
8038
  8
3
  6
CONTINUOUS
 62
     0
 10
4036.156007
 20
8182.9801209999987
 30
0.0
 11
4372.9862780000012
 21
8182.9801209999987
 31
0.0
  0
LINE
  5
8039
  8
3
  6
CONTINUOUS
 62
     0
 10
4036.156007
 20
7157.9801209999996
 30
0.0
 11
4372.9862780000012
 21
7157.9801209999996
 31
0.0
  0
LINE
  5
803A
  8
3
  6
CONTINUOUS
 62
     0
 10
4332.9862780000012
 20
8102.9801209999987
 30
0.0
 11
4332.9862780000012
 21
7237.9801209999987
 31
0.0
  0
INSERT
  5
803B
  8
3
  6
CONTINUOUS
 62
     0
  2
_OPEN
 10
4332.9862780000012
 20
8182.9801209999987
 30
0.0
 41
80.0
 42
80.0
 43
80.0
 50
90.0
  0
INSERT
  5
803C
  8
3
  6
CONTINUOUS
 62
     0
  2
_OPEN
 10
4332.9862780000012
 20
7157.9801209999996
 30
0.0
 41
80.0
 42
80.0
 43
80.0
 50
270.0
  0
TEXT
  8
3
  40
120
  5
8067
  62
0
  72
0
  71
0
 10
3992.99
 20
7457.98
 30
0.000000
  1
1025
  0
POINT
  5
803E
  8
DEFPOINTS
  6
CONTINUOUS
 62
     0
 10
4016.156007
 20
8182.9801209999987
 30
0.0
  0
POINT
  5
803F
  8
DEFPOINTS
  6
CONTINUOUS
 62
     0
 10
4016.156007
 20
7157.9801209999996
 30
0.0
  0
POINT
  5
8040
  8
DEFPOINTS
  6
CONTINUOUS
 62
     0
 10
4332.9862780000012
 20
7157.9801209999996
 30
0.0
  0
ENDBLK
  5
7CB1
  8
0
  0
BLOCK
  8
0
  2
*D14
 70
     1
 10
0.0
 20
0.0
 30
0.0
  3
*D14
  1

  0
LINE
  5
8041
  8
3
  6
CONTINUOUS
 62
     0
 10
5646.5886110000001
 20
4640.5499959999988
 30
0.0
 11
5646.5886110000001
 21
5271.6319890000013
 31
0.0
  0
LINE
  5
8042
  8
3
  6
CONTINUOUS
 62
     0
 10
6306.5886110000001
 20
5188.6342079999986
 30
0.0
 11
6306.5886110000001
 21
5271.6319890000013
 31
0.0
  0
LINE
  5
8043
  8
3
  6
CONTINUOUS
 62
     0
 10
5726.5886110000001
 20
5231.6319890000004
 30
0.0
 11
6226.5886110000001
 21
5231.6319890000004
 31
0.0
  0
INSERT
  5
8044
  8
3
  6
CONTINUOUS
 62
     0
  2
_OPEN
 10
5646.5886110000001
 20
5231.6319890000004
 30
0.0
 41
80.0
 42
80.0
 43
80.0
 50
180.0
  0
INSERT
  5
8045
  8
3
  6
CONTINUOUS
 62
     0
  2
_OPEN
 10
6306.5886110000001
 20
5231.6319890000004
 30
0.0
 41
80.0
 42
80.0
 43
80.0
  0
TEXT
  8
3
  40
120
  5
8068
  62
0
  72
0
  71
0
 10
5775.16
 20
5219.23
 30
0.000000
  1
MAX
  0
TEXT
  8
3
  40
120
  5
8069
  62
0
  72
0
  71
0
 10
5775.16
 20
5063.23
 30
0.000000
  1
700
  0
POINT
  5
8047
  8
DEFPOINTS
  6
CONTINUOUS
 62
     0
 10
5646.5886110000001
 20
4620.5499959999997
 30
0.0
  0
POINT
  5
8048
  8
DEFPOINTS
  6
CONTINUOUS
 62
     0
 10
6306.5886110000001
 20
5168.6342080000004
 30
0.0
  0
POINT
  5
8049
  8
DEFPOINTS
  6
CONTINUOUS
 62
     0
 10
6306.5886110000001
 20
5231.6319890000004
 30
0.0
  0
ENDBLK
  5
7D7B
  8
0
  0
BLOCK
  8
0
  2
*D15
 70
     1
 10
0.0
 20
0.0
 30
0.0
  3
*D15
  1

  0
LINE
  5
804A
  8
3
  6
CONTINUOUS
 62
     0
 10
6685.5886110000001
 20
4605.5499959999988
 30
0.0
 11
6685.5886110000001
 21
5271.6319890000013
 31
0.0
  0
LINE
  5
804B
  8
3
  6
CONTINUOUS
 62
     0
 10
6386.5886110000001
 20
5231.6319890000004
 30
0.0
 11
6605.5886110000001
 21
5231.6319890000004
 31
0.0
  0
TEXT
  8
3
  40
120
  5
806A
  62
0
  72
0
  71
0
 10
6248.74
 20
5116.21
 30
0.000000
  1
379
  0
INSERT
  5
804D
  8
3
  6
CONTINUOUS
 62
     0
  2
_OPEN
 10
6306.5886110000001
 20
5231.6319890000004
 30
0.0
 41
80.0
 42
80.0
 43
80.0
 50
180.0
  0
INSERT
  5
804E
  8
3
  6
CONTINUOUS
 62
     0
  2
_OPEN
 10
6685.5886110000001
 20
5231.6319890000004
 30
0.0
 41
80.0
 42
80.0
 43
80.0
  0
POINT
  5
804F
  8
DEFPOINTS
  6
CONTINUOUS
 62
     0
 10
6306.5886110000001
 20
5168.6342080000004
 30
0.0
  0
POINT
  5
8050
  8
DEFPOINTS
  6
CONTINUOUS
 62
     0
 10
6685.5886110000001
 20
4585.5499959999997
 30
0.0
  0
POINT
  5
8051
  8
DEFPOINTS
  6
CONTINUOUS
 62
     0
 10
6685.5886110000001
 20
5231.6319890000004
 30
0.0
  0
ENDBLK
  5
7D1D
  8
0
  0
BLOCK
  8
0
  2
*D16
 70
     1
 10
0.0
 20
0.0
 30
0.0
  3
*D16
  1

  0
LINE
  5
8052
  8
3
 62
     0
 10
2716.156007
 20
4982.1220479999993
 30
0.0
 11
2716.156007
 21
5239.2761359999986
 31
0.0
  0
LINE
  5
8053
  8
3
 62
     0
 10
1998.2651878271661
 20
4032.5499960000002
 30
0.0
 11
1998.2651878271661
 21
5239.2761359999986
 31
0.0
  0
LINE
  5
8054
  8
3
 62
     0
 10
2636.156007
 20
5199.2761359999986
 30
0.0
 11
2078.2651878271658
 21
5199.2761359999986
 31
0.0
  0
INSERT
  5
8055
  8
3
 62
     0
  2
_OPEN
 10
2716.156007
 20
5199.2761359999986
 30
0.0
 41
80.0
 42
80.0
 43
80.0
  0
INSERT
  5
8056
  8
3
 62
     0
  2
_OPEN
 10
1998.2651878271661
 20
5199.2761359999986
 30
0.0
 41
80.0
 42
80.0
 43
80.0
 50
180.0
  0
TEXT
  8
3
  40
120
  5
806B
  62
0
  72
0
  71
0
 10
2117.21
 20
5086.88
 30
0.000000
  1
716
  0
POINT
  5
8058
  8
DEFPOINTS
 62
     0
 10
2716.156007
 20
4962.1220479999993
 30
0.0
  0
POINT
  5
8059
  8
DEFPOINTS
 62
     0
 10
1998.2651878271661
 20
4012.5499960000002
 30
0.0
  0
POINT
  5
805A
  8
DEFPOINTS
 62
     0
 10
1998.2651878271661
 20
5199.2761359999986
 30
0.0
  0
ENDBLK
  5
7DB9
  8
0
  0
ENDSEC
  0
SECTION
  2
ENTITIES
  0
POLYLINE
  5
7AC7
  8
1
  6
CONTINUOUS
 66
     1
 10
0.0
 20
0.0
 30
0.0
 70
     1
  0
VERTEX
  5
7FAD
  8
1
  6
CONTINUOUS
 10
3946.156007
 20
7294.4801209999987
 30
0.0
  0
VERTEX
  5
7FAE
  8
1
  6
CONTINUOUS
 10
3946.156007
 20
7114.4801209999987
 30
0.0
  0
VERTEX
  5
7FAF
  8
1
  6
CONTINUOUS
 10
2176.156007
 20
7114.4801209999987
 30
0.0
  0
VERTEX
  5
7FB0
  8
1
  6
CONTINUOUS
 10
2176.156007
 20
7294.4801209999987
 30
0.0
  0
SEQEND
  5
7FB1
  8
1
  6
CONTINUOUS
  0
LINE
  5
7ACD
  8
1
  6
CONTINUOUS
 10
2946.156007
 20
4620.5499959999997
 30
0.0
 11
3946.156007
 21
3720.5499960000002
 31
0.0
  0
LINE
  5
7ACE
  8
1
  6
CONTINUOUS
 10
3650.006007
 20
7157.9801209999996
 30
0.0
 11
2908.3560069999999
 21
7157.9801209999996
 31
0.0
  0
LINE
  5
7ACF
  8
1
  6
CONTINUOUS
 10
3698.156007
 20
7365.4801209999996
 30
0.0
 11
2000.156007
 21
7365.4801209999996
 31
0.0
  0
LINE
  5
7AD0
  8
1
  6
CONTINUOUS
 10
3698.156007
 20
8115.4801209999996
 30
0.0
 11
2000.156007
 21
8115.4801209999996
 31
0.0
  0
LINE
  5
7AD1
  8
1
  6
CONTINUOUS
 10
4016.156007
 20
8182.9801209999987
 30
0.0
 11
2066.156007
 21
8182.9801209999987
 31
0.0
  0
LINE
  5
7AD2
  8
1
  6
CONTINUOUS
 10
4016.156007
 20
3195.5499960000002
 30
0.0
 11
2066.156007
 21
3195.5499960000002
 31
0.0
  0
LINE
  5
7AD3
  8
1
  6
CONTINUOUS
 10
4016.156007
 20
3320.5499960000002
 30
0.0
 11
2066.156007
 21
3320.5499960000002
 31
0.0
  0
LINE
  5
7AD4
  8
1
  6
CONTINUOUS
 10
3696.4872770000002
 20
4735.5499959999988
 30
0.0
 11
2668.156007
 21
4735.5499959999988
 31
0.0
  0
LINE
  5
7AD5
  8
1
  6
CONTINUOUS
 10
3748.156007
 20
4785.5499959999988
 30
0.0
 11
2618.156007
 21
4785.5499959999988
 31
0.0
  0
ARC
  5
7AD6
  8
1
  6
CONTINUOUS
 10
2781.156007
 20
4120.5499959999997
 30
0.0
 40
895.0
 50
265.83518700000002
 51
355.83518700000002
  0
LINE
  5
7AD8
  8
1
  6
CONTINUOUS
 10
3698.156007
 20
8115.4801209999996
 30
0.0
 11
2668.156007
 21
7365.4801209999996
 31
0.0
  0
LINE
  5
7AD9
  8
1
  6
CONTINUOUS
 10
3698.156007
 20
7365.4801209999996
 30
0.0
 11
2668.156007
 21
8115.4801209999996
 31
0.0
  0
LINE
  5
7ADA
  8
1
  6
CONTINUOUS
 10
3851.8176250000001
 20
3649.8466760000001
 30
0.0
 11
2808.8255920000001
 21
4223.9158399999997
 31
0.0
  0
LINE
  5
7ADB
  8
1
  6
CONTINUOUS
 10
3731.9846149999998
 20
3405.6155879999992
 30
0.0
 11
2639.7028140000002
 21
3879.2275109999991
 31
0.0
  0
LINE
  5
7ADC
  8
1
  6
CONTINUOUS
 10
2066.156007
 20
3320.5499960000002
 30
0.0
 11
2066.156007
 21
3195.5499960000002
 31
0.0
  0
ARC
  5
7ADD
  8
1
  6
CONTINUOUS
 10
2772.156007
 20
3999.5499960000002
 30
0.0
 40
774.0
 50
175.850944
 51
265.85094399999991
  0
ARC
  5
7ADE
  8
1
  6
CONTINUOUS
 10
2673.156007
 20
4012.5499960000002
 30
0.0
 40
674.0
 50
90.425047000000006
 51
176.34214700000001
  0
LINE
  5
7ADF
  8
1
  6
CONTINUOUS
 10
2946.156007
 20
4620.5499959999997
 30
0.0
 11
2176.156007
 21
4620.5499959999997
 31
0.0
  0
LINE
  5
7AE0
  8
2
  6
CENTER
 10
6768.2806180000016
 20
4055.5499960000002
 30
0.0
 11
5601.8087390000001
 21
4055.5499960000002
 31
0.0
  0
CIRCLE
  5
7AE1
  8
1
  6
CONTINUOUS
 10
2716.156007
 20
4055.5499960000002
 30
0.0
 40
192.18405100000001
  0
LINE
  5
7AE4
  8
1
  6
CONTINUOUS
 10
2176.156007
 20
4620.5499959999997
 30
0.0
 11
2176.156007
 21
3320.5499960000002
 31
0.0
  0
LINE
  5
7AE5
  8
2
  6
CENTER
 10
2716.156007
 20
3084.4485399999999
 30
0.0
 11
2716.156007
 21
4962.1220479999993
 31
0.0
  0
LINE
  5
7AE6
  8
1
  6
CONTINUOUS
 10
2668.156007
 20
4686.5314500000004
 30
0.0
 11
2668.156007
 21
4785.5499959999988
 31
0.0
  0
LINE
  5
7AE7
  8
1
  6
CONTINUOUS
 10
2523.9560070000002
 20
7157.9801209999996
 30
0.0
 11
2066.156007
 21
7157.9801209999996
 31
0.0
  0
LINE
  5
7AE8
  8
1
  6
CONTINUOUS
 10
2000.156007
 20
7365.4801209999996
 30
0.0
 11
2000.156007
 21
8115.4801209999996
 31
0.0
  0
LINE
  5
7AE9
  8
1
  6
CONTINUOUS
 10
2066.156007
 20
7157.9801209999996
 30
0.0
 11
2066.156007
 21
7365.4801209999996
 31
0.0
  0
LINE
  5
7AEA
  8
1
  6
CONTINUOUS
 10
2066.156007
 20
8115.4801209999996
 30
0.0
 11
2066.156007
 21
8182.9801209999987
 31
0.0
  0
POLYLINE
  5
7AEB
  8
1
  6
CONTINUOUS
 66
     1
 10
0.0
 20
0.0
 30
0.0
 70
     1
  0
VERTEX
  5
7FB2
  8
1
  6
CONTINUOUS
 10
2908.3560069999999
 20
7243.4801210000014
 30
0.0
  0
VERTEX
  5
7FB3
  8
1
  6
CONTINUOUS
 10
2908.3560069999999
 20
7142.4801209999996
 30
0.0
  0
VERTEX
  5
7FB4
  8
1
  6
CONTINUOUS
 10
2523.9560070000002
 20
7142.4801209999996
 30
0.0
  0
VERTEX
  5
7FB5
  8
1
  6
CONTINUOUS
 10
2523.9560070000002
 20
7243.4801210000014
 30
0.0
  0
SEQEND
  5
7FB6
  8
1
  6
CONTINUOUS
  0
LINE
  5
7AF1
  8
1
  6
CONTINUOUS
 10
2668.156007
 20
7365.4801209999996
 30
0.0
 11
2668.156007
 21
8115.4801209999996
 31
0.0
  0
LINE
  5
7AF2
  8
1
  6
CONTINUOUS
 10
2688.656007
 20
7243.4801210000014
 30
0.0
 11
2688.656007
 21
7365.4801209999996
 31
0.0
  0
LINE
  5
7AF3
  8
1
  6
CONTINUOUS
 10
2743.656007
 20
7243.4801210000014
 30
0.0
 11
2743.656007
 21
7365.4801209999996
 31
0.0
  0
LINE
  5
7AFC
  8
1
  6
CONTINUOUS
 10
4016.156007
 20
3320.5499960000002
 30
0.0
 11
4016.156007
 21
3195.5499960000002
 31
0.0
  0
POLYLINE
  5
7AFE
  8
1
  6
CONTINUOUS
 66
     1
 10
0.0
 20
0.0
 30
0.0
  0
VERTEX
  5
7FB7
  8
1
  6
CONTINUOUS
 10
3983.656007
 20
3320.5499960000002
 30
0.0
  0
VERTEX
  5
7FB8
  8
1
  6
CONTINUOUS
 10
3588.656007
 20
3320.5499960000002
 30
0.0
  0
VERTEX
  5
7FB9
  8
1
  6
CONTINUOUS
 10
3598.656007
 20
3370.5499960000002
 30
0.0
  0
VERTEX
  5
7FBA
  8
1
  6
CONTINUOUS
 10
3632.156007
 20
3370.5499960000002
 30
0.0
  0
SEQEND
  5
7FBB
  8
1
  6
CONTINUOUS
  0
LINE
  5
7B04
  8
1
  6
CONTINUOUS
 10
3940.156007
 20
3388.5499960000002
 30
0.0
 11
3918.8136729999992
 21
3437.566429
 31
0.0
  0
ARC
  5
7B05
  8
1
  6
CONTINUOUS
 10
3786.156007
 20
3530.5499960000002
 30
0.0
 40
162.0
 50
324.972283
 51
215.02771699999991
  0
LINE
  5
7B07
  8
1
  6
CONTINUOUS
 10
3673.792551
 20
4055.5499960000002
 30
0.0
 11
3698.156007
 21
4785.5499959999988
 31
0.0
  0
LINE
  5
7B08
  8
2
  6
CENTER
 10
3927.3292270000002
 20
3530.5499960000002
 30
0.0
 11
3644.9827869999999
 21
3530.5499960000002
 31
0.0
  0
LINE
  5
7B09
  8
2
  6
CENTER
 10
3786.156007
 20
3389.3767759999992
 30
0.0
 11
3786.156007
 21
3671.7232159999999
 31
0.0
  0
LINE
  5
7B0A
  8
1
  6
CONTINUOUS
 10
3632.156007
 20
3370.5499960000002
 30
0.0
 11
3632.156007
 21
3388.5499960000002
 31
0.0
  0
LINE
  5
7B0B
  8
1
  6
CONTINUOUS
 10
3632.156007
 20
3388.5499960000002
 30
0.0
 11
3653.4983409999991
 21
3437.566429
 31
0.0
  0
CIRCLE
  5
7B0C
  8
1
  6
CONTINUOUS
 10
3786.156007
 20
3530.5499960000002
 30
0.0
 40
136.1732199999999
  0
LINE
  5
7B0D
  8
1
  6
CONTINUOUS
 10
3946.156007
 20
3720.5499960000002
 30
0.0
 11
3946.156007
 21
3320.5499960000002
 31
0.0
  0
POLYLINE
  5
7B0E
  8
1
  6
CONTINUOUS
 66
     1
 10
0.0
 20
0.0
 30
0.0
  0
VERTEX
  5
7FBC
  8
1
  6
CONTINUOUS
 10
3940.156007
 20
3370.5499960000002
 30
0.0
  0
VERTEX
  5
7FBD
  8
1
  6
CONTINUOUS
 10
3973.656007
 20
3370.5499960000002
 30
0.0
  0
VERTEX
  5
7FBE
  8
1
  6
CONTINUOUS
 10
3983.656007
 20
3320.5499960000002
 30
0.0
  0
SEQEND
  5
7FBF
  8
1
  6
CONTINUOUS
  0
LINE
  5
7B13
  8
1
  6
CONTINUOUS
 10
3940.156007
 20
3370.5499960000002
 30
0.0
 11
3940.156007
 21
3388.5499960000002
 31
0.0
  0
LINE
  5
7B36
  8
1
  6
CONTINUOUS
 10
6748.0886110000001
 20
3195.5499960000002
 30
0.0
 11
6748.0886110000001
 21
3320.5499960000002
 31
0.0
  0
LINE
  5
7B37
  8
1
  6
CONTINUOUS
 10
5724.0886110000001
 20
3195.5499960000002
 30
0.0
 11
5724.0886110000001
 21
3320.5499960000002
 31
0.0
  0
LINE
  5
7B38
  8
1
  6
CONTINUOUS
 10
5724.0886110000001
 20
3195.5499960000002
 30
0.0
 11
6748.0886110000001
 21
3195.5499960000002
 31
0.0
  0
LINE
  5
7B39
  8
1
  6
CONTINUOUS
 10
5724.0886110000001
 20
3320.5499960000002
 30
0.0
 11
6748.0886110000001
 21
3320.5499960000002
 31
0.0
  0
LINE
  5
7B3A
  8
1
  6
CONTINUOUS
 10
5881.5886110000001
 20
4785.5499959999988
 30
0.0
 11
6731.588611000001
 21
4785.5499959999988
 31
0.0
  0
POLYLINE
  5
7B3B
  8
1
  6
CONTINUOUS
 66
     1
 10
0.0
 20
0.0
 30
0.0
 70
     1
  0
VERTEX
  5
7FC0
  8
1
  6
CONTINUOUS
 10
5708.5886110000001
 20
3863.3659459999999
 30
0.0
  0
VERTEX
  5
7FC1
  8
1
  6
CONTINUOUS
 10
5809.5886110000001
 20
3863.3659459999999
 30
0.0
  0
VERTEX
  5
7FC2
  8
1
  6
CONTINUOUS
 10
5809.5886110000001
 20
4247.7340469999999
 30
0.0
  0
VERTEX
  5
7FC3
  8
1
  6
CONTINUOUS
 10
5708.5886110000001
 20
4247.7340469999999
 30
0.0
  0
SEQEND
  5
7FC4
  8
1
  6
CONTINUOUS
  0
LINE
  5
7B41
  8
1
  6
CONTINUOUS
 10
5931.5886110000001
 20
3320.5499960000002
 30
0.0
 11
5931.5886110000001
 21
4785.5499959999988
 31
0.0
  0
LINE
  5
7B42
  8
1
  6
CONTINUOUS
 10
5646.5886110000001
 20
3320.5499960000002
 30
0.0
 11
5646.5886110000001
 21
4620.5499959999997
 31
0.0
  0
LINE
  5
7B43
  8
1
  6
CONTINUOUS
 10
5860.5886110000001
 20
3320.5499960000002
 30
0.0
 11
5860.5886110000001
 21
4620.5499959999997
 31
0.0
  0
LINE
  5
7B44
  8
1
  6
CONTINUOUS
 10
5809.5886110000001
 20
4083.0499960000002
 30
0.0
 11
5931.5886110000001
 21
4083.0499960000002
 31
0.0
  0
LINE
  5
7B45
  8
1
  6
CONTINUOUS
 10
5809.5886110000001
 20
4028.0499960000002
 30
0.0
 11
5931.5886110000001
 21
4028.0499960000002
 31
0.0
  0
LINE
  5
7B46
  8
1
  6
CONTINUOUS
 10
5809.5886110000001
 20
3551.5499960000002
 30
0.0
 11
5931.5886110000001
 21
3551.5499960000002
 31
0.0
  0
LINE
  5
7B47
  8
1
  6
CONTINUOUS
 10
5809.5886110000001
 20
3509.5499960000002
 30
0.0
 11
5931.5886110000001
 21
3509.5499960000002
 31
0.0
  0
LINE
  5
7B48
  8
1
  6
CONTINUOUS
 10
5724.0886110000001
 20
3320.5499960000002
 30
0.0
 11
5646.5886110000001
 21
3320.5499960000002
 31
0.0
  0
POLYLINE
  5
7B49
  8
1
  6
CONTINUOUS
 66
     1
 10
0.0
 20
0.0
 30
0.0
 70
     1
  0
VERTEX
  5
7FC5
  8
1
  6
CONTINUOUS
 10
5708.5886110000001
 20
3666.723215999999
 30
0.0
  0
VERTEX
  5
7FC6
  8
1
  6
CONTINUOUS
 10
5708.5886110000001
 20
3394.3767760000001
 30
0.0
  0
VERTEX
  5
7FC7
  8
1
  6
CONTINUOUS
 10
5809.5886110000001
 20
3394.3767760000001
 30
0.0
  0
VERTEX
  5
7FC8
  8
1
  6
CONTINUOUS
 10
5809.5886110000001
 20
3666.723215999999
 30
0.0
  0
SEQEND
  5
7FC9
  8
1
  6
CONTINUOUS
  0
LINE
  5
7B4F
  8
1
  6
CONTINUOUS
 10
5646.5886110000001
 20
4620.5499959999997
 30
0.0
 11
5860.5886110000001
 21
4620.5499959999997
 31
0.0
  0
LINE
  5
7B50
  8
1
  6
CONTINUOUS
 10
6681.588611000001
 20
3320.5499960000002
 30
0.0
 11
6681.588611000001
 21
4785.5499959999988
 31
0.0
  0
LINE
  5
7B5D
  8
1
  6
CONTINUOUS
 10
3624.1560069999991
 20
7365.4801209999996
 30
0.0
 11
3948.156007
 21
7365.4801209999996
 31
0.0
  0
LINE
  5
7B5E
  8
1
  6
CONTINUOUS
 10
3948.156007
 20
7839.6018409999997
 30
0.0
 11
3698.156007
 21
7839.6018409999997
 31
0.0
  0
LINE
  5
7B5F
  8
1
  6
CONTINUOUS
 10
4016.156007
 20
7157.9801209999996
 30
0.0
 11
3922.3060070000001
 21
7157.9801209999996
 31
0.0
  0
LINE
  5
7B60
  8
1
  6
CONTINUOUS
 10
3698.156007
 20
7365.4801209999996
 30
0.0
 11
3698.156007
 21
8115.4801209999996
 31
0.0
  0
POLYLINE
  5
7B61
  8
1
  6
CONTINUOUS
 66
     1
 10
0.0
 20
0.0
 30
0.0
 70
     1
  0
VERTEX
  5
7FCA
  8
1
  6
CONTINUOUS
 10
3650.006007
 20
7243.4801210000014
 30
0.0
  0
VERTEX
  5
7FCB
  8
1
  6
CONTINUOUS
 10
3650.006007
 20
7142.4801209999996
 30
0.0
  0
VERTEX
  5
7FCC
  8
1
  6
CONTINUOUS
 10
3922.3060070000001
 20
7142.4801209999996
 30
0.0
  0
VERTEX
  5
7FCD
  8
1
  6
CONTINUOUS
 10
3922.3060070000001
 20
7243.4801210000014
 30
0.0
  0
SEQEND
  5
7FCE
  8
1
  6
CONTINUOUS
  0
LINE
  5
7B67
  8
1
  6
CONTINUOUS
 10
3807.156007
 20
7243.4801210000014
 30
0.0
 11
3807.156007
 21
7365.4801209999996
 31
0.0
  0
LINE
  5
7B68
  8
1
  6
CONTINUOUS
 10
3765.156007
 20
7243.4801210000014
 30
0.0
 11
3765.156007
 21
7365.4801209999996
 31
0.0
  0
LINE
  5
7B69
  8
1
  6
CONTINUOUS
 10
4016.156007
 20
7157.9801209999996
 30
0.0
 11
4016.156007
 21
8182.9801209999987
 31
0.0
  0
LINE
  5
7B6A
  8
1
  6
CONTINUOUS
 10
3948.156007
 20
7365.4801209999996
 30
0.0
 11
3948.156007
 21
7839.6018409999997
 31
0.0
  0
LINE
  5
7B86
  8
2
  6
CENTER
 10
1929.7832889999991
 20
7740.4801209999996
 30
0.0
 11
4083.784384
 21
7740.4801209999996
 31
0.0
  0
LINE
  5
7B87
  8
2
  6
CENTER
 10
6306.5886110000001
 20
4998.8166280000014
 30
0.0
 11
6306.5886110000001
 21
2962.4145050000002
 31
0.0
  0
LINE
  5
7B88
  8
2
  6
CENTER
 10
2716.156007
 20
6958.4092060000003
 30
0.0
 11
2716.156007
 21
8248.53442
 31
0.0
  0
LINE
  5
7B89
  8
2
  6
CENTER
 10
3905.9838960000002
 20
4055.5499960000002
 30
0.0
 11
1920.585587
 21
4055.5499960000002
 31
0.0
  0
LINE
  5
7B8A
  8
4
  6
CONTINUOUS
 10
7400.0
 20
2000.0
 30
0.0
 11
7400.0
 21
1200.0
 31
0.0
  0
LINE
  5
7B8B
  8
4
  6
CONTINUOUS
 10
4600.0
 20
2000.0
 30
0.0
 11
4600.0
 21
1200.0
 31
0.0
  0
LINE
  5
7B8C
  8
4
  6
CONTINUOUS
 10
2600.0
 20
2000.0
 30
0.0
 11
2600.0
 21
1200.0
 31
0.0
  0
LINE
  5
7B8F
  8
4
  6
CONTINUOUS
 10
2600.0
 20
1200.0
 30
0.0
 11
7400.0
 21
1200.0
 31
0.0
  0
LINE
  5
7B90
  8
4
  6
CONTINUOUS
 10
2600.0
 20
1600.0
 30
0.0
 11
7400.0
 21
1600.0
 31
0.0
  0
TEXT
  5
7B91
  8
4
  6
CONTINUOUS
 10
2754.008323
 20
1726.1721030000001
 30
0.0
 40
200.0
  1
機器名称
  0
TEXT
  5
7B92
  8
4
  6
CONTINUOUS
 10
2745.032424
 20
1286.580627
 30
0.0
 40
200.0
  1
機器型番
  0
TEXT
  5
7B93
  8
4
  6
CONTINUOUS
 10
4710.7149820000004
 20
1690.2870760000001
 30
0.0
 40
200.0
  1
ミツヤ多翼送風機
  0
TEXT
  5
7B94
  8
4
  6
CONTINUOUS
 10
4746.6179819999998
 20
1268.6383370000001
 30
0.0
 40
200.0
  1
MF#6-4
  0
TEXT
  5
7B96
  8
4
  6
CONTINUOUS
 10
3517.9705060000001
 20
9533.715365
 30
0.0
 40
216.0
  1
床置ベット
  0
TEXT
  5
7B97
  8
4
  6
CONTINUOUS
 10
1264.6703729999999
 20
10135.523905
 30
0.0
 40
288.0
  1
ベルト駆動式片吸込両持多翼ファン
  0
LINE
  5
7B98
  8
4
  6
CONTINUOUS
 10
1000.0
 20
9877.6350170000005
 30
0.0
 11
7400.0
 21
9877.6350170000005
 31
0.0
  0
LINE
  5
7B99
  8
4
  6
CONTINUOUS
 10
1000.0
 20
10677.635017000001
 30
0.0
 11
7400.0
 21
10677.635017000001
 31
0.0
  0
LINE
  5
7B9A
  8
4
  6
CONTINUOUS
 10
2600.0
 20
2000.0
 30
0.0
 11
7400.0
 21
2000.0
 31
0.0
  0
LINE
  5
7B9B
  8
4
  6
CONTINUOUS
 10
1000.0
 20
10677.635017000001
 30
0.0
 11
1000.0
 21
9877.6350170000005
 31
0.0
  0
TEXT
  5
7B9C
  8
4
  6
CONTINUOUS
 10
1774.5351769999991
 20
9529.2779099999989
 30
0.0
 40
216.0
  1
左回転上向
  0
TEXT
  5
7B9D
  8
4
  6
CONTINUOUS
 10
5875.8782369999999
 20
10824.244326
 30
0.0
 40
224.0
  1
No.
  0
TEXT
  5
7B9E
  8
4
  6
CONTINUOUS
 10
5245.1842500000012
 20
9533.715365
 30
0.0
 40
216.0
  1
縮尺：1/30
  0
LINE
  5
7B9F
  8
4
  6
CONTINUOUS
 10
7400.0
 20
10677.635017000001
 30
0.0
 11
7400.0
 21
9877.6350170000005
 31
0.0
  0
LINE
  5
7BA1
  8
4
  6
CONTINUOUS
 10
5762.4696889999996
 20
10725.054333
 30
0.0
 11
5762.4696889999996
 21
11146.609046
 31
0.0
  0
LINE
  5
7BA2
  8
4
  6
CONTINUOUS
 10
5762.4696889999996
 20
11146.609046
 30
0.0
 11
7400.0
 21
11146.609046
 31
0.0
  0
LINE
  5
7BA3
  8
4
  6
CONTINUOUS
 10
7400.0
 20
11146.609046
 30
0.0
 11
7400.0
 21
10725.054333
 31
0.0
  0
LINE
  5
7BA4
  8
4
  6
CONTINUOUS
 10
7400.0
 20
10725.054333
 30
0.0
 11
5762.4696889999996
 21
10725.054333
 31
0.0
  0
DIMENSION
  5
7BBC
  8
3
  6
CONTINUOUS
  2
*D1
 10
2668.156007
 20
4951.2612390000004
 30
0.0
 11
3155.425209
 21
4951.2612390000004
 31
0.0
 70
   128
 13
3698.156007
 23
4785.5499959999988
 33
0.0
 14
2668.156007
 24
4785.5499959999988
 34
0.0
1001
ACAD
1000
DSTYLE
1002
{
1070
   287
1070
     3
1070
   287
1070
     3
1070
    40
1040
40.0
1070
   143
1040
0.039
1070
   172
1070
     1
1070
   271
1070
     0
1070
   279
1070
     0
1070
   288
1070
     1
1002
}
  0
DIMENSION
  5
7BC9
  8
3
  6
CONTINUOUS
  2
*D2
 10
2716.156007
 20
5199.2761359999986
 30
0.0
 11
3206.7694839999999
 21
5199.2761359999986
 31
0.0
 70
   128
 13
3698.156007
 23
4785.5499959999988
 33
0.0
 14
2716.156007
 24
4962.1220479999993
 34
0.0
1001
ACAD
1000
DSTYLE
1002
{
1070
   287
1070
     3
1070
   287
1070
     3
1070
    40
1040
40.0
1070
   143
1040
0.039
1070
   172
1070
     1
1070
   271
1070
     0
1070
   279
1070
     0
1070
   288
1070
     1
1002
}
  0
DIMENSION
  5
7BE2
  8
3
  6
CONTINUOUS
  2
*D3
 10
1734.900889
 20
4055.5499960000002
 30
0.0
 11
1734.900889
 21
4403.9180489999999
 31
0.0
 70
   128
 13
2618.156007
 23
4785.5499959999988
 33
0.0
 14
1920.585587
 24
4055.5499960000002
 34
0.0
 50
90.0
1001
ACAD
1000
DSTYLE
1002
{
1070
   287
1070
     3
1070
   287
1070
     3
1070
    40
1040
40.0
1070
   143
1040
0.039
1070
   172
1070
     1
1070
   271
1070
     0
1070
   279
1070
     0
1070
   288
1070
     1
1002
}
  0
DIMENSION
  5
7BEE
  8
3
  6
CONTINUOUS
  2
*D4
 10
1734.900889
 20
3195.5499960000002
 30
0.0
 11
1634.9008889999991
 21
3625.5499960000011
 31
0.0
 70
     0
 13
1920.585587
 23
4055.5499960000002
 33
0.0
 14
2066.156007
 24
3195.5499960000002
 34
0.0
 50
90.0
1001
ACAD
1000
DSTYLE
1002
{
1070
   287
1070
     4
1070
   287
1070
     4
1070
    40
1040
40.0
1070
    75
1070
     1
1070
   143
1040
0.039
1070
   172
1070
     1
1070
   271
1070
     0
1070
   279
1070
     1
1070
   288
1070
     1
1002
}
  0
DIMENSION
  5
7BFB
  8
3
  6
CONTINUOUS
  2
*D5
 10
1482.010747
 20
3195.5499960000002
 30
0.0
 11
1482.010747
 21
3907.8882549999989
 31
0.0
 70
   128
 13
2598.156007
 23
4785.5499959999988
 33
0.0
 14
2066.156007
 24
3195.5499960000002
 34
0.0
 50
90.0
1001
ACAD
1000
DSTYLE
1002
{
1070
   287
1070
     3
1070
   287
1070
     3
1070
    40
1040
40.0
1070
   143
1040
0.039
1070
   172
1070
     1
1070
   271
1070
     0
1070
   279
1070
     0
1070
   288
1070
     1
1002
}
  0
DIMENSION
  5
7C08
  8
3
  6
CONTINUOUS
  2
*D6
 10
2716.156007
 20
2700.873025582599
 30
0.0
 11
2441.8702920000001
 21
2700.873025582599
 31
0.0
 70
   128
 13
2066.156007
 23
3195.5499960000002
 33
0.0
 14
2716.156007
 24
3084.4485399999999
 34
0.0
1001
ACAD
1000
DSTYLE
1002
{
1070
   287
1070
     3
1070
   287
1070
     3
1070
    40
1040
40.0
1070
   143
1040
0.039
1070
   172
1070
     1
1070
   271
1070
     0
1070
   279
1070
     0
1070
   288
1070
     1
1002
}
  0
DIMENSION
  5
7C14
  8
3
  6
CONTINUOUS
  2
*D7
 10
4016.156007
 20
2700.873025582599
 30
0.0
 11
3366.156007
 21
2800.873025582599
 31
0.0
 70
     0
 13
2716.156007
 23
3084.4485399999999
 33
0.0
 14
4016.156007
 24
3195.5499960000002
 34
0.0
1001
ACAD
1000
DSTYLE
1002
{
1070
   287
1070
     4
1070
   287
1070
     4
1070
    40
1040
40.0
1070
    75
1070
     1
1070
   143
1040
0.039
1070
   172
1070
     1
1070
   271
1070
     0
1070
   279
1070
     1
1070
   288
1070
     1
1002
}
  0
DIMENSION
  5
7C21
  8
3
  6
CONTINUOUS
  2
*D8
 10
6681.588611000001
 20
4994.0224319999998
 30
0.0
 11
6304.7152299999998
 21
4994.0224319999998
 31
0.0
 70
   128
 13
5931.5886110000001
 23
4785.5499959999988
 33
0.0
 14
6681.588611000001
 24
4785.5499959999988
 34
0.0
1001
ACAD
1000
DSTYLE
1002
{
1070
   287
1070
     3
1070
   287
1070
     3
1070
    40
1040
40.0
1070
   143
1040
0.039
1070
   172
1070
     1
1070
   271
1070
     0
1070
   279
1070
     0
1070
   288
1070
     1
1002
}
  0
LINE
  5
7C22
  8
1
  6
CONTINUOUS
 10
6685.5886110000001
 20
3525.5499960000002
 30
0.0
 11
6685.5886110000001
 21
4585.5499959999997
 31
0.0
  0
DIMENSION
  5
7C31
  8
3
  6
CONTINUOUS
  2
*D9
 10
7032.0921640000006
 20
3525.5499960000002
 30
0.0
 11
7032.0921639999988
 21
4044.7240679999991
 31
0.0
 70
   128
 13
6685.5886110000001
 23
4585.5499959999997
 33
0.0
 14
6685.5886110000001
 24
3525.5499960000002
 34
0.0
 50
90.0
1001
ACAD
1000
DSTYLE
1002
{
1070
   287
1070
     3
1070
   287
1070
     3
1070
     3
1000
φ<>
1070
    40
1040
40.0
1070
   143
1040
0.039
1070
   172
1070
     1
1070
   271
1070
     0
1070
   279
1070
     0
1070
   288
1070
     1
1002
}
  0
DIMENSION
  5
7C58
  8
3
  6
CONTINUOUS
  2
*D10
 10
6306.5886110000001
 20
2661.6157115825981
 30
0.0
 11
6032.3028960000001
 21
2661.6157115825981
 31
0.0
 70
   128
 13
5724.0886110000001
 23
3195.5499960000002
 33
0.0
 14
6306.5886110000001
 24
2962.4145050000002
 34
0.0
1001
ACAD
1000
DSTYLE
1002
{
1070
   287
1070
     3
1070
   287
1070
     3
1070
    40
1040
40.0
1070
   143
1040
0.039
1070
   172
1070
     1
1070
   271
1070
     0
1070
   279
1070
     0
1070
   288
1070
     1
1002
}
  0
DIMENSION
  5
7C66
  8
3
  6
CONTINUOUS
  2
*D11
 10
6748.0886110000001
 20
2661.6157115825981
 30
0.0
 11
6532.2495769999996
 21
2678.8657325825989
 31
0.0
 70
   128
 13
6306.5886110000001
 23
2962.4145050000002
 33
0.0
 14
6748.0886110000001
 24
3195.5499960000002
 34
0.0
1001
ACAD
1000
DSTYLE
1002
{
1070
   287
1070
     4
1070
   287
1070
     4
1070
    40
1040
40.0
1070
    75
1070
     1
1070
   143
1040
0.039
1070
   172
1070
     1
1070
   271
1070
     0
1070
   279
1070
     1
1070
   288
1070
     1
1002
}
  0
DIMENSION
  5
7C7D
  8
3
  6
CONTINUOUS
  2
*D12
 10
4016.156007
 20
8445.7308400000002
 30
0.0
 11
3052.7367049999998
 21
8445.7308400000002
 31
0.0
 70
   128
 13
2066.156007
 23
8182.9801209999987
 33
0.0
 14
4016.156007
 24
8182.9801209999987
 34
0.0
1001
ACAD
1000
DSTYLE
1002
{
1070
   287
1070
     3
1070
   287
1070
     3
1070
    40
1040
40.0
1070
   143
1040
0.039
1070
   172
1070
     1
1070
   271
1070
     0
1070
   279
1070
     0
1070
   288
1070
     1
1002
}
  0
DIMENSION
  5
7C8A
  8
3
  6
CONTINUOUS
  2
*D13
 10
4332.9862780000012
 20
7157.9801209999996
 30
0.0
 11
4332.9862780000003
 21
7670.3817230000013
 31
0.0
 70
   128
 13
4016.156007
 23
8182.9801209999987
 33
0.0
 14
4016.156007
 24
7157.9801209999996
 34
0.0
 50
90.0
1001
ACAD
1000
DSTYLE
1002
{
1070
   287
1070
     3
1070
   287
1070
     3
1070
    40
1040
40.0
1070
   143
1040
0.039
1070
   172
1070
     1
1070
   271
1070
     0
1070
   279
1070
     0
1070
   288
1070
     1
1002
}
  0
DIMENSION
  5
7CE4
  8
3
  6
CONTINUOUS
  2
*D14
 10
6306.5886110000001
 20
5231.6319890000004
 30
0.0
 11
6015.1600395714286
 21
5231.6319890000004
 31
0.0
 70
   128
  1
MAX\P700
 13
5646.5886110000001
 23
4620.5499959999997
 33
0.0
 14
6306.5886110000001
 24
5168.6342080000004
 34
0.0
1001
ACAD
1000
DSTYLE
1002
{
1070
   287
1070
     3
1070
   287
1070
     3
1070
    40
1040
40.0
1070
   143
1040
0.039
1070
   172
1070
     1
1070
   271
1070
     0
1070
   279
1070
     0
1070
   288
1070
     1
1002
}
  0
DIMENSION
  5
7CF2
  8
3
  6
CONTINUOUS
  2
*D15
 10
6685.5886110000001
 20
5231.6319890000004
 30
0.0
 11
6488.7366359999996
 21
5228.6130619999994
 31
0.0
 70
   128
 13
6306.5886110000001
 23
5168.6342080000004
 33
0.0
 14
6685.5886110000001
 24
4585.5499959999997
 34
0.0
1001
ACAD
1000
DSTYLE
1002
{
1070
   287
1070
     4
1070
   287
1070
     4
1070
    40
1040
40.0
1070
    75
1070
     1
1070
   143
1040
0.039
1070
   172
1070
     1
1070
   271
1070
     0
1070
   279
1070
     1
1070
   288
1070
     1
1002
}
  0
DIMENSION
  5
7DAD
  8
3
  2
*D16
 10
1998.2651878271661
 20
5199.2761359999986
 30
0.0
 11
2357.2105974135829
 21
5299.2761359999986
 31
0.0
 70
     0
  1
716
 13
2716.156007
 23
4962.1220479999993
 33
0.0
 14
1998.2651878271661
 24
4012.5499960000002
 34
0.0
1001
ACAD
1000
DSTYLE
1002
{
1070
   287
1070
     4
1070
   287
1070
     4
1070
    40
1040
40.0
1070
   143
1040
0.039
1070
   172
1070
     1
1070
   271
1070
     0
1070
   279
1070
     1
1070
   288
1070
     1
1002
}
  0
ENDSEC
  0
EOF
