  0
SECTION
  2
HEADER
  9
$ACADVER
  1
AC1009
  9
$INSBASE
 10
0.0
 20
0.0
 30
0.0
  9
$EXTMIN
 10
0.0
 20
0.0
 30
0.0
  9
$EXTMAX
 10
7350.0
 20
10325.0
 30
0.0
  9
$LIMMIN
 10
0.0
 20
0.0
  9
$LIMMAX
 10
297.0
 20
210.0
  9
$ORTHOMODE
 70
     0
  9
$REGENMODE
 70
     1
  9
$FILLMODE
 70
     0
  9
$QTEXTMODE
 70
     0
  9
$MIRRTEXT
 70
     1
  9
$DRAGMODE
 70
     2
  9
$LTSCALE
 40
100.0
  9
$OSMODE
 70
    37
  9
$ATTMODE
 70
     1
  9
$TEXTSIZE
 40
180.0
  9
$TRACEWID
 40
0.05
  9
$TEXTSTYLE
  7
STANDARD
  9
$CLAYER
  8
3
  9
$CELTYPE
  6
BYLAYER
  9
$CECOLOR
 62
   256
  9
$DIMSCALE
 40
35.0
  9
$DIMASZ
 40
2.0
  9
$DIMEXO
 40
0.5
  9
$DIMDLI
 40
10.0
  9
$DIMRND
 40
0.0
  9
$DIMDLE
 40
0.0
  9
$DIMEXE
 40
1.0
  9
$DIMTP
 40
1.0
  9
$DIMTM
 40
1.0
  9
$DIMTXT
 40
3.0
  9
$DIMCEN
 40
0.0
  9
$DIMTSZ
 40
0.0
  9
$DIMTOL
 70
     0
  9
$DIMLIM
 70
     0
  9
$DIMTIH
 70
     0
  9
$DIMTOH
 70
     0
  9
$DIMSE1
 70
     0
  9
$DIMSE2
 70
     0
  9
$DIMTAD
 70
     1
  9
$DIMZIN
 70
     8
  9
$DIMBLK
  1

  9
$DIMASO
 70
     1
  9
$DIMSHO
 70
     1
  9
$DIMPOST
  1
(<>)
  9
$DIMAPOST
  1

  9
$DIMALT
 70
     0
  9
$DIMALTD
 70
     2
  9
$DIMALTF
 40
0.039
  9
$DIMLFAC
 40
1.0
  9
$DIMTOFL
 70
     1
  9
$DIMTVP
 40
0.0
  9
$DIMTIX
 70
     0
  9
$DIMSOXD
 70
     0
  9
$DIMSAH
 70
     1
  9
$DIMBLK1
  1
OPEN
  9
$DIMBLK2
  1
OPEN
  9
$DIMSTYLE
  2
IGA
  9
$DIMCLRD
 70
     0
  9
$DIMCLRE
 70
     0
  9
$DIMCLRT
 70
     0
  9
$DIMTFAC
 40
10.0
  9
$DIMGAP
 40
1.0
  9
$LUNITS
 70
     2
  9
$LUPREC
 70
     3
  9
$SKETCHINC
 40
0.1
  9
$FILLETRAD
 40
50.0
  9
$AUNITS
 70
     0
  9
$AUPREC
 70
     0
  9
$MENU
  1
acad
  9
$ELEVATION
 40
0.0
  9
$PELEVATION
 40
0.0
  9
$THICKNESS
 40
0.0
  9
$LIMCHECK
 70
     0
  9
$BLIPMODE
 70
     0
  9
$CHAMFERA
 40
0.0
  9
$CHAMFERB
 40
0.0
  9
$SKPOLY
 70
     0
  9
$TDCREATE
 40
2452780.3973718751
  9
$TDUPDATE
 40
2454953.7600978352
  9
$TDINDWG
 40
0.0438820139
  9
$TDUSRTIMER
 40
0.0438820139
  9
$USRTIMER
 70
     1
  9
$ANGBASE
 50
0.0
  9
$ANGDIR
 70
     0
  9
$PDMODE
 70
     0
  9
$PDSIZE
 40
0.0
  9
$PLINEWID
 40
0.0
  9
$COORDS
 70
     1
  9
$SPLFRAME
 70
     0
  9
$SPLINETYPE
 70
     6
  9
$SPLINESEGS
 70
     8
  9
$ATTDIA
 70
     0
  9
$ATTREQ
 70
     1
  9
$HANDLING
 70
 10241
  9
$HANDSEED
  5
81F8
  9
$SURFTAB1
 70
     6
  9
$SURFTAB2
 70
     6
  9
$SURFTYPE
 70
     6
  9
$SURFU
 70
     6
  9
$SURFV
 70
     6
  9
$UCSNAME
  2

  9
$UCSORG
 10
0.0
 20
0.0
 30
0.0
  9
$UCSXDIR
 10
1.0
 20
0.0
 30
0.0
  9
$UCSYDIR
 10
0.0
 20
1.0
 30
0.0
  9
$PUCSNAME
  2

  9
$PUCSORG
 10
0.0
 20
0.0
 30
0.0
  9
$PUCSXDIR
 10
1.0
 20
0.0
 30
0.0
  9
$PUCSYDIR
 10
0.0
 20
1.0
 30
0.0
  9
$USERI1
 70
     0
  9
$USERI2
 70
     0
  9
$USERI3
 70
     0
  9
$USERI4
 70
     0
  9
$USERI5
 70
     0
  9
$USERR1
 40
0.0
  9
$USERR2
 40
0.0
  9
$USERR3
 40
0.0
  9
$USERR4
 40
0.0
  9
$USERR5
 40
0.0
  9
$WORLDVIEW
 70
     1
  9
$SHADEDGE
 70
     3
  9
$SHADEDIF
 70
    70
  9
$TILEMODE
 70
     1
  9
$MAXACTVP
 70
    16
  9
$PLIMCHECK
 70
     0
  9
$PEXTMIN
 10
1.0000000000000000E+020
 20
1.0000000000000000E+020
 30
1.0000000000000000E+020
  9
$PEXTMAX
 10
-1.0000000000000000E+020
 20
-1.0000000000000000E+020
 30
-1.0000000000000000E+020
  9
$PLIMMIN
 10
0.0
 20
0.0
  9
$PLIMMAX
 10
12.0
 20
9.0
  9
$UNITMODE
 70
     0
  9
$VISRETAIN
 70
     0
  9
$PLINEGEN
 70
     0
  9
$PSLTSCALE
 70
     1
  0
ENDSEC
  0
SECTION
  2
TABLES
  0
TABLE
  2
VPORT
 70
     2
  0
VPORT
  2
*ACTIVE
 70
     0
 10
0.0
 20
0.0
 11
1.0
 21
1.0
 12
12378.134855979781
 22
5162.500024039763
 13
0.0
 23
0.0
 14
10.0
 24
10.0
 15
10.0
 25
10.0
 16
0.0
 26
0.0
 36
1.0
 17
0.0
 27
0.0
 37
0.0
 40
10404.15209055927
 41
3.1666666666666661
 42
50.0
 43
0.0
 44
0.0
 50
0.0
 51
0.0
 71
     0
 72
   100
 73
     1
 74
     0
 75
     0
 76
     0
 77
     0
 78
     0
  0
ENDTAB
  0
TABLE
  2
LTYPE
 70
     2
  0
LTYPE
  2
CONTINUOUS
 70
     0
  3
Solid line
 72
    65
 73
     0
 40
0.0
  0
LTYPE
  2
CENTER
 70
     0
  3
____ _ ____ _ ____ _ ____ _ ____ _ ____ _ ____ 
 72
    65
 73
     4
 40
2.0
 49
1.25
 49
-0.25
 49
0.25
 49
-0.25
  0
ENDTAB
  0
TABLE
  2
LAYER
 70
     6
  0
LAYER
  2
0
 70
     0
 62
     7
  6
CONTINUOUS
  0
LAYER
  2
3
 70
     0
 62
     2
  6
CONTINUOUS
  0
LAYER
  2
2
 70
     0
 62
     3
  6
CENTER
  0
LAYER
  2
1
 70
     0
 62
     4
  6
CONTINUOUS
  0
LAYER
  2
4
 70
     0
 62
     7
  6
CONTINUOUS
  0
LAYER
  2
DEFPOINTS
 70
     0
 62
     7
  6
CONTINUOUS
  0
ENDTAB
  0
TABLE
  2
STYLE
 70
     1
  0
STYLE
  2
STANDARD
 70
     0
 40
0.0
 41
1.0
 50
0.0
 71
     0
 42
180.0
  3
simplex.shx
  4
extfont.shx
  0
ENDTAB
  0
TABLE
  2
VIEW
 70
     0
  0
ENDTAB
  0
TABLE
  2
UCS
 70
     0
  0
ENDTAB
  0
TABLE
  2
APPID
 70
     1
  0
APPID
  2
ACAD
 70
     0
  0
ENDTAB
  0
TABLE
  2
DIMSTYLE
 70
     1
  0
DIMSTYLE
  2
IGA
 70
     0
  3

  4

  5

  6
OPEN
  7
OPEN
 40
2.0
 41
2.0
 42
0.5
 43
10.0
 44
1.0
 45
0.0
 46
0.0
 47
1.0
 48
1.0
140
3.0
141
0.0
142
0.0
143
0.03937
144
1.0
145
0.0
146
10.0
147
1.0
 71
     0
 72
     0
 73
     0
 74
     0
 75
     0
 76
     0
 77
     1
 78
     8
170
     0
171
     2
172
     0
173
     1
174
     0
175
     0
176
     0
177
     0
178
     0
  0
ENDTAB
  0
ENDSEC
  0
SECTION
  2
BLOCKS
  0
BLOCK
  8
0
  2
$MODEL_SPACE
 70
     0
 10
0.0
 20
0.0
 30
0.0
  3
$MODEL_SPACE
  1

  0
ENDBLK
  5
1B
  8
0
  0
BLOCK
 67
     1
  8
0
  2
$PAPER_SPACE
 70
     0
 10
0.0
 20
0.0
 30
0.0
  3
$PAPER_SPACE
  1

  0
ENDBLK
  5
18
 67
     1
  8
0
  0
BLOCK
  8
0
  2
YA_N
 70
     0
 10
0.0
 20
0.0
 30
0.0
  3
YA_N
  1

  0
ENDBLK
  5
79FE
  8
0
  0
BLOCK
  8
0
  2
_OPEN
 70
     0
 10
0.0
 20
0.0
 30
0.0
  3
_OPEN
  1

  0
LINE
  5
7B99
  8
0
  6
BYBLOCK
 62
     0
 10
-1.0
 20
0.1666666666666666
 30
0.0
 11
0.0
 21
0.0
 31
0.0
  0
LINE
  5
7B9A
  8
0
  6
BYBLOCK
 62
     0
 10
0.0
 20
0.0
 30
0.0
 11
-1.0
 21
-0.1666666666666666
 31
0.0
  0
LINE
  5
7B9B
  8
0
  6
BYBLOCK
 62
     0
 10
0.0
 20
0.0
 30
0.0
 11
-1.0
 21
0.0
 31
0.0
  0
ENDBLK
  5
7B9C
  8
0
  0
BLOCK
  8
0
  2
*D2
 70
     1
 10
0.0
 20
0.0
 30
0.0
  3
*D2
  1

  0
LINE
  5
80FD
  8
3
 62
     0
 10
2253.0281421674331
 20
4306.7736665579241
 30
0.0
 11
2253.0281421674331
 21
4644.753141881436
 31
0.0
  0
LINE
  5
80FE
  8
3
 62
     0
 10
3327.0281421674308
 20
4247.1576840602957
 30
0.0
 11
3327.0281421674308
 21
4644.753141881436
 31
0.0
  0
LINE
  5
80FF
  8
3
 62
     0
 10
2323.0281421674331
 20
4609.753141881436
 30
0.0
 11
3257.0281421674308
 21
4609.753141881436
 31
0.0
  0
INSERT
  5
8100
  8
3
 62
     0
  2
_OPEN
 10
2253.0281421674331
 20
4609.753141881436
 30
0.0
 41
70.0
 42
70.0
 43
70.0
 50
180.0
  0
INSERT
  5
8101
  8
3
 62
     0
  2
_OPEN
 10
3327.0281421674308
 20
4609.753141881436
 30
0.0
 41
70.0
 42
70.0
 43
70.0
  0
TEXT
  8
3
  40
105
  5
81DF
  62
0
  72
0
  71
0
 10
2578.15
 20
4511.40
 30
0.000000
  1
1074
  0
POINT
  5
8103
  8
DEFPOINTS
 62
     0
 10
2253.0281421674331
 20
4289.2736665579241
 30
0.0
  0
POINT
  5
8104
  8
DEFPOINTS
 62
     0
 10
3327.0281421674308
 20
4229.6576840602957
 30
0.0
  0
POINT
  5
8105
  8
DEFPOINTS
 62
     0
 10
3327.0281421674308
 20
4609.753141881436
 30
0.0
  0
ENDBLK
  5
7D1F
  8
0
  0
BLOCK
  8
0
  2
*D3
 70
     1
 10
0.0
 20
0.0
 30
0.0
  3
*D3
  1

  0
LINE
  5
8106
  8
3
 62
     0
 10
3327.0281421674308
 20
4264.6576840602957
 30
0.0
 11
3327.0281421674308
 21
4395.84929603813
 31
0.0
  0
LINE
  5
8107
  8
3
 62
     0
 10
2297.0281421674331
 20
4247.1576840602957
 30
0.0
 11
2297.0281421674331
 21
4395.84929603813
 31
0.0
  0
LINE
  5
8108
  8
3
 62
     0
 10
3257.0281421674308
 20
4360.8492960381291
 30
0.0
 11
2367.0281421674331
 21
4360.8492960381291
 31
0.0
  0
INSERT
  5
8109
  8
3
 62
     0
  2
_OPEN
 10
3327.0281421674308
 20
4360.8492960381291
 30
0.0
 41
70.0
 42
70.0
 43
70.0
  0
INSERT
  5
810A
  8
3
 62
     0
  2
_OPEN
 10
2297.0281421674331
 20
4360.8492960381291
 30
0.0
 41
70.0
 42
70.0
 43
70.0
 50
180.0
  0
TEXT
  8
3
  40
105
  5
81E0
  62
0
  72
0
  71
0
 10
2568.18
 20
4262.50
 30
0.000000
  1
1030
  0
POINT
  5
810C
  8
DEFPOINTS
 62
     0
 10
3327.0281421674308
 20
4247.1576840602957
 30
0.0
  0
POINT
  5
810D
  8
DEFPOINTS
 62
     0
 10
2297.0281421674331
 20
4229.6576840602957
 30
0.0
  0
POINT
  5
810E
  8
DEFPOINTS
 62
     0
 10
2297.0281421674331
 20
4360.8492960381291
 30
0.0
  0
ENDBLK
  5
7D2B
  8
0
  0
BLOCK
  8
0
  2
*D4
 70
     1
 10
0.0
 20
0.0
 30
0.0
  3
*D4
  1

  0
LINE
  5
810F
  8
3
 62
     0
 10
1533.028142167431
 20
3493.1576840602961
 30
0.0
 11
1533.028142167431
 21
4644.753141881436
 31
0.0
  0
LINE
  5
8110
  8
3
 62
     0
 10
2183.0281421674331
 20
4609.753141881436
 30
0.0
 11
1603.028142167431
 21
4609.753141881436
 31
0.0
  0
INSERT
  5
8111
  8
3
 62
     0
  2
_OPEN
 10
2253.0281421674331
 20
4609.753141881436
 30
0.0
 41
70.0
 42
70.0
 43
70.0
  0
INSERT
  5
8112
  8
3
 62
     0
  2
_OPEN
 10
1533.028142167431
 20
4609.753141881436
 30
0.0
 41
70.0
 42
70.0
 43
70.0
 50
180.0
  0
TEXT
  8
3
  40
105
  5
81E1
  62
0
  72
0
  71
0
 10
1683.03
 20
4511.40
 30
0.000000
  1
720
  0
POINT
  5
8114
  8
DEFPOINTS
 62
     0
 10
2253.0281421674331
 20
4289.2736665579241
 30
0.0
  0
POINT
  5
8115
  8
DEFPOINTS
 62
     0
 10
1533.028142167431
 20
3475.6576840602961
 30
0.0
  0
POINT
  5
8116
  8
DEFPOINTS
 62
     0
 10
1533.028142167431
 20
4609.753141881436
 30
0.0
  0
ENDBLK
  5
7D37
  8
0
  0
BLOCK
  8
0
  2
*D5
 70
     1
 10
0.0
 20
0.0
 30
0.0
  3
*D5
  1

  0
LINE
  5
8117
  8
3
 62
     0
 10
2226.5281421674308
 20
4229.6576840602957
 30
0.0
 11
1106.043714861444
 21
4229.6576840602966
 31
0.0
  0
LINE
  5
8118
  8
3
 62
     0
 10
1438.9818193945989
 20
3549.6576840602938
 30
0.0
 11
1106.043714861444
 21
3549.6576840602938
 31
0.0
  0
LINE
  5
8119
  8
3
 62
     0
 10
1141.043714861444
 20
4159.6576840602984
 30
0.0
 11
1141.043714861444
 21
3619.6576840602938
 31
0.0
  0
INSERT
  5
811A
  8
3
 62
     0
  2
_OPEN
 10
1141.043714861444
 20
4229.6576840602966
 30
0.0
 41
70.0
 42
70.0
 43
70.0
 50
90.0
  0
INSERT
  5
811B
  8
3
 62
     0
  2
_OPEN
 10
1141.043714861444
 20
3549.6576840602938
 30
0.0
 41
70.0
 42
70.0
 43
70.0
 50
270.0
  0
TEXT
  8
3
  40
105
  5
81E2
  62
0
  72
0
  71
0
 10
843.544
 20
3746.16
 30
0.000000
  1
680
  0
POINT
  5
811D
  8
DEFPOINTS
 62
     0
 10
2244.0281421674308
 20
4229.6576840602957
 30
0.0
  0
POINT
  5
811E
  8
DEFPOINTS
 62
     0
 10
1456.4818193945989
 20
3549.6576840602938
 30
0.0
  0
POINT
  5
811F
  8
DEFPOINTS
 62
     0
 10
1141.043714861444
 20
3549.6576840602938
 30
0.0
  0
ENDBLK
  5
7D50
  8
0
  0
BLOCK
  8
0
  2
*D6
 70
     1
 10
0.0
 20
0.0
 30
0.0
  3
*D6
  1

  0
LINE
  5
8120
  8
3
 62
     0
 10
1438.9818193945989
 20
3549.6576840602938
 30
0.0
 11
1106.043714861443
 21
3549.6576840602938
 31
0.0
  0
LINE
  5
8121
  8
3
 62
     0
 10
1610.528142167431
 20
2654.6576840602961
 30
0.0
 11
1106.043714861443
 21
2654.6576840602961
 31
0.0
  0
LINE
  5
8122
  8
3
 62
     0
 10
1141.043714861443
 20
3479.6576840602938
 30
0.0
 11
1141.043714861443
 21
2724.6576840602961
 31
0.0
  0
INSERT
  5
8123
  8
3
 62
     0
  2
_OPEN
 10
1141.043714861443
 20
3549.6576840602938
 30
0.0
 41
70.0
 42
70.0
 43
70.0
 50
90.0
  0
INSERT
  5
8124
  8
3
 62
     0
  2
_OPEN
 10
1141.043714861443
 20
2654.6576840602961
 30
0.0
 41
70.0
 42
70.0
 43
70.0
 50
270.0
  0
TEXT
  8
3
  40
105
  5
81E3
  62
0
  72
0
  71
0
 10
843.544
 20
2916.31
 30
0.000000
  1
895
  0
POINT
  5
8126
  8
DEFPOINTS
 62
     0
 10
1456.4818193945989
 20
3549.6576840602938
 30
0.0
  0
POINT
  5
8127
  8
DEFPOINTS
 62
     0
 10
1628.028142167431
 20
2654.6576840602961
 30
0.0
  0
POINT
  5
8128
  8
DEFPOINTS
 62
     0
 10
1141.043714861443
 20
2654.6576840602961
 30
0.0
  0
ENDBLK
  5
7F9A
  8
0
  0
BLOCK
  8
0
  2
*D7
 70
     1
 10
0.0
 20
0.0
 30
0.0
  3
*D7
  1

  0
LINE
  5
8129
  8
3
 62
     0
 10
5988.3516480335184
 20
4079.6576840602952
 30
0.0
 11
6349.8089072488947
 21
4079.6576840602952
 31
0.0
  0
LINE
  5
812A
  8
3
 62
     0
 10
5988.3516480335184
 20
3019.6576840602952
 30
0.0
 11
6349.8089072488947
 21
3019.6576840602952
 31
0.0
  0
LINE
  5
812B
  8
3
 62
     0
 10
6314.8089072488947
 20
4009.6576840602952
 30
0.0
 11
6314.8089072488947
 21
3089.6576840602952
 31
0.0
  0
INSERT
  5
812C
  8
3
 62
     0
  2
_OPEN
 10
6314.8089072488947
 20
4079.6576840602952
 30
0.0
 41
70.0
 42
70.0
 43
70.0
 50
90.0
  0
INSERT
  5
812D
  8
3
 62
     0
  2
_OPEN
 10
6314.8089072488947
 20
3019.6576840602952
 30
0.0
 41
70.0
 42
70.0
 43
70.0
 50
270.0
  0
TEXT
  8
3
  40
105
  5
81E4
  62
0
  72
0
  71
0
 10
6017.31
 20
3348.30
 30
0.000000
  1
φ1060
  0
POINT
  5
812F
  8
DEFPOINTS
 62
     0
 10
5970.8516480335184
 20
4079.6576840602952
 30
0.0
  0
POINT
  5
8130
  8
DEFPOINTS
 62
     0
 10
5970.8516480335184
 20
3019.6576840602952
 30
0.0
  0
POINT
  5
8131
  8
DEFPOINTS
 62
     0
 10
6314.8089072488947
 20
3019.6576840602952
 30
0.0
  0
ENDBLK
  5
7E3E
  8
0
  0
BLOCK
  8
0
  2
*D8
 70
     1
 10
0.0
 20
0.0
 30
0.0
  3
*D8
  1

  0
LINE
  5
8132
  8
3
 62
     0
 10
5220.8516480335184
 20
4247.1576840602957
 30
0.0
 11
5220.8516480335184
 21
4380.7531896904111
 31
0.0
  0
LINE
  5
8133
  8
3
 62
     0
 10
5970.8516480335184
 20
4247.1576840602957
 30
0.0
 11
5970.8516480335184
 21
4380.7531896904111
 31
0.0
  0
LINE
  5
8134
  8
3
 62
     0
 10
5290.8516480335174
 20
4345.753189690412
 30
0.0
 11
5900.8516480335184
 21
4345.753189690412
 31
0.0
  0
INSERT
  5
8135
  8
3
 62
     0
  2
_OPEN
 10
5220.8516480335184
 20
4345.753189690412
 30
0.0
 41
70.0
 42
70.0
 43
70.0
 50
180.0
  0
INSERT
  5
8136
  8
3
 62
     0
  2
_OPEN
 10
5970.8516480335184
 20
4345.753189690412
 30
0.0
 41
70.0
 42
70.0
 43
70.0
  0
TEXT
  8
3
  40
105
  5
81E5
  62
0
  72
0
  71
0
 10
5385.28
 20
4247.40
 30
0.000000
  1
750
  0
POINT
  5
8138
  8
DEFPOINTS
 62
     0
 10
5220.8516480335184
 20
4229.6576840602947
 30
0.0
  0
POINT
  5
8139
  8
DEFPOINTS
 62
     0
 10
5970.8516480335184
 20
4229.6576840602947
 30
0.0
  0
POINT
  5
813A
  8
DEFPOINTS
 62
     0
 10
5970.8516480335184
 20
4345.753189690412
 30
0.0
  0
ENDBLK
  5
7E4A
  8
0
  0
BLOCK
  8
0
  2
*D9
 70
     1
 10
0.0
 20
0.0
 30
0.0
  3
*D9
  1

  0
LINE
  5
813B
  8
3
 62
     0
 10
5973.8516480335193
 20
4247.1576840602957
 30
0.0
 11
5973.8516480335193
 21
4598.6342249530207
 31
0.0
  0
LINE
  5
813C
  8
3
 62
     0
 10
5595.8516480335184
 20
4503.1897528358177
 30
0.0
 11
5595.8516480335184
 21
4598.6342249530207
 31
0.0
  0
LINE
  5
813D
  8
3
 62
     0
 10
6043.8516480335184
 20
4563.6342249530207
 30
0.0
 11
6113.8516480335184
 21
4563.6342249530207
 31
0.0
  0
LINE
  5
813E
  8
3
 62
     0
 10
5525.8516480335184
 20
4563.6342249530207
 30
0.0
 11
5455.8516480335193
 21
4563.6342249530207
 31
0.0
  0
LINE
  5
813F
  8
3
 62
     0
 10
5973.8516480335193
 20
4563.6342249530207
 30
0.0
 11
5595.8516480335184
 21
4563.6342249530207
 31
0.0
  0
INSERT
  5
8140
  8
3
 62
     0
  2
_OPEN
 10
5973.8516480335193
 20
4563.6342249530207
 30
0.0
 41
70.0
 42
70.0
 43
70.0
 50
180.0
  0
INSERT
  5
8141
  8
3
 62
     0
  2
_OPEN
 10
5595.8516480335184
 20
4563.6342249530207
 30
0.0
 41
70.0
 42
70.0
 43
70.0
  0
TEXT
  8
3
  40
105
  5
81E6
  62
0
  72
0
  71
0
 10
5574.85
 20
4465.28
 30
0.000000
  1
378
  0
POINT
  5
8143
  8
DEFPOINTS
 62
     0
 10
5973.8516480335193
 20
4229.6576840602947
 30
0.0
  0
POINT
  5
8144
  8
DEFPOINTS
 62
     0
 10
5595.8516480335184
 20
4485.6897528358186
 30
0.0
  0
POINT
  5
8145
  8
DEFPOINTS
 62
     0
 10
5595.8516480335184
 20
4563.6342249530207
 30
0.0
  0
ENDBLK
  5
7E76
  8
0
  0
BLOCK
  8
0
  2
*D10
 70
     1
 10
0.0
 20
0.0
 30
0.0
  3
*D10
  1

  0
LINE
  5
8146
  8
3
 62
     0
 10
4178.8516480335184
 20
3847.1576840602952
 30
0.0
 11
4178.8516480335184
 21
4598.6342249530207
 31
0.0
  0
LINE
  5
8147
  8
3
 62
     0
 10
5525.8516480335184
 20
4563.6342249530207
 30
0.0
 11
4248.8516480335184
 21
4563.6342249530207
 31
0.0
  0
INSERT
  5
8148
  8
3
 62
     0
  2
_OPEN
 10
5595.8516480335184
 20
4563.6342249530207
 30
0.0
 41
70.0
 42
70.0
 43
70.0
  0
INSERT
  5
8149
  8
3
 62
     0
  2
_OPEN
 10
4178.8516480335184
 20
4563.6342249530207
 30
0.0
 41
70.0
 42
70.0
 43
70.0
 50
180.0
  0
TEXT
  8
3
  40
105
  5
81E7
  62
0
  72
0
  71
0
 10
4677.35
 20
4552.78
 30
0.000000
  1
MAX
  0
TEXT
  8
3
  40
105
  5
81E8
  62
0
  72
0
  71
0
 10
4677.35
 20
4416.28
 30
0.000000
  1
1450
  0
POINT
  5
814B
  8
DEFPOINTS
 62
     0
 10
5595.8516480335184
 20
4485.6897528358186
 30
0.0
  0
POINT
  5
814C
  8
DEFPOINTS
 62
     0
 10
4178.8516480335184
 20
3829.6576840602952
 30
0.0
  0
POINT
  5
814D
  8
DEFPOINTS
 62
     0
 10
4178.8516480335184
 20
4563.6342249530207
 30
0.0
  0
ENDBLK
  5
7E8A
  8
0
  0
BLOCK
  8
0
  2
*D11
 70
     1
 10
0.0
 20
0.0
 30
0.0
  3
*D11
  1

  0
LINE
  5
814E
  8
3
 62
     0
 10
1533.028142167431
 20
3493.1576840602961
 30
0.0
 11
1533.028142167431
 21
4881.6987677295219
 31
0.0
  0
LINE
  5
814F
  8
3
 62
     0
 10
3380.0281421674331
 20
4247.1576840602957
 30
0.0
 11
3380.0281421674331
 21
4881.6987677295219
 31
0.0
  0
LINE
  5
8150
  8
3
 62
     0
 10
1603.028142167431
 20
4846.6987677295219
 30
0.0
 11
3310.028142167434
 21
4846.6987677295219
 31
0.0
  0
INSERT
  5
8151
  8
3
 62
     0
  2
_OPEN
 10
1533.028142167431
 20
4846.6987677295219
 30
0.0
 41
70.0
 42
70.0
 43
70.0
 50
180.0
  0
INSERT
  5
8152
  8
3
 62
     0
  2
_OPEN
 10
3380.0281421674331
 20
4846.6987677295219
 30
0.0
 41
70.0
 42
70.0
 43
70.0
  0
TEXT
  8
3
  40
105
  5
81E9
  62
0
  72
0
  71
0
 10
2172.23
 20
4748.35
 30
0.000000
  1
1847
  0
POINT
  5
8154
  8
DEFPOINTS
 62
     0
 10
1533.028142167431
 20
3475.6576840602961
 30
0.0
  0
POINT
  5
8155
  8
DEFPOINTS
 62
     0
 10
3380.0281421674331
 20
4229.6576840602957
 30
0.0
  0
POINT
  5
8156
  8
DEFPOINTS
 62
     0
 10
3380.0281421674331
 20
4846.6987677295219
 30
0.0
  0
ENDBLK
  5
7EA4
  8
0
  0
BLOCK
  8
0
  2
*D12
 70
     1
 10
0.0
 20
0.0
 30
0.0
  3
*D12
  1

  0
LINE
  5
8157
  8
3
 62
     0
 10
1628.028142167431
 20
7339.4027449923778
 30
0.0
 11
1628.028142167431
 21
7616.0877544920368
 31
0.0
  0
LINE
  5
8158
  8
3
 62
     0
 10
2878.0281421674322
 20
7339.4027449923806
 30
0.0
 11
2878.0281421674322
 21
7616.0877544920368
 31
0.0
  0
LINE
  5
8159
  8
3
 62
     0
 10
1698.028142167431
 20
7581.0877544920368
 30
0.0
 11
2808.0281421674308
 21
7581.0877544920368
 31
0.0
  0
INSERT
  5
815A
  8
3
 62
     0
  2
_OPEN
 10
1628.028142167431
 20
7581.0877544920368
 30
0.0
 41
70.0
 42
70.0
 43
70.0
 50
180.0
  0
INSERT
  5
815B
  8
3
 62
     0
  2
_OPEN
 10
2878.0281421674322
 20
7581.0877544920368
 30
0.0
 41
70.0
 42
70.0
 43
70.0
  0
TEXT
  8
3
  40
105
  5
81EA
  62
0
  72
0
  71
0
 10
2040.59
 20
7482.74
 30
0.000000
  1
1250
  0
POINT
  5
815D
  8
DEFPOINTS
 62
     0
 10
1628.028142167431
 20
7321.9027449923778
 30
0.0
  0
POINT
  5
815E
  8
DEFPOINTS
 62
     0
 10
2878.0281421674322
 20
7321.9027449923824
 30
0.0
  0
POINT
  5
815F
  8
DEFPOINTS
 62
     0
 10
2878.0281421674322
 20
7581.0877544920368
 30
0.0
  0
ENDBLK
  5
7F75
  8
0
  0
BLOCK
  8
0
  2
*D13
 70
     1
 10
0.0
 20
0.0
 30
0.0
  3
*D13
  1

  0
LINE
  5
8160
  8
3
 62
     0
 10
2878.0281421674322
 20
7339.4027449923806
 30
0.0
 11
2878.0281421674322
 21
7616.0877544920368
 31
0.0
  0
LINE
  5
8161
  8
3
 62
     0
 10
3193.0281421674322
 20
6514.546931312233
 30
0.0
 11
3193.0281421674322
 21
7616.0877544920368
 31
0.0
  0
LINE
  5
8162
  8
3
 62
     0
 10
2948.0281421674322
 20
7581.0877544920368
 30
0.0
 11
3123.0281421674308
 21
7581.0877544920368
 31
0.0
  0
LINE
  5
8163
  8
3
 62
     0
 10
3193.0281421674322
 20
7581.0877544920368
 30
0.0
 11
3583.0281421674322
 21
7581.0877544920368
 31
0.0
  0
INSERT
  5
8164
  8
3
 62
     0
  2
_OPEN
 10
2878.0281421674322
 20
7581.0877544920368
 30
0.0
 41
70.0
 42
70.0
 43
70.0
 50
180.0
  0
INSERT
  5
8165
  8
3
 62
     0
  2
_OPEN
 10
3193.0281421674322
 20
7581.0877544920368
 30
0.0
 41
70.0
 42
70.0
 43
70.0
  0
TEXT
  8
3
  40
105
  5
81EB
  62
0
  72
0
  71
0
 10
3213.03
 20
7482.74
 30
0.000000
  1
315
  0
POINT
  5
8167
  8
DEFPOINTS
 62
     0
 10
2878.0281421674322
 20
7321.9027449923824
 30
0.0
  0
POINT
  5
8168
  8
DEFPOINTS
 62
     0
 10
3193.0281421674322
 20
6497.046931312233
 30
0.0
  0
POINT
  5
8169
  8
DEFPOINTS
 62
     0
 10
3193.0281421674322
 20
7581.0877544920368
 30
0.0
  0
ENDBLK
  5
7F81
  8
0
  0
BLOCK
  8
0
  2
*D14
 70
     1
 10
0.0
 20
0.0
 30
0.0
  3
*D14
  1

  0
LINE
  5
816A
  8
3
 62
     0
 10
1610.528142167431
 20
7321.9027449923778
 30
0.0
 11
1200.1905808598981
 21
7321.9027449923778
 31
0.0
  0
LINE
  5
816B
  8
3
 62
     0
 10
1610.528142167431
 20
6431.9027449923788
 30
0.0
 11
1200.190580859897
 21
6431.9027449923788
 31
0.0
  0
LINE
  5
816C
  8
3
 62
     0
 10
1235.190580859897
 20
7251.9027449923778
 30
0.0
 11
1235.190580859897
 21
6501.9027449923797
 31
0.0
  0
INSERT
  5
816D
  8
3
 62
     0
  2
_OPEN
 10
1235.190580859897
 20
7321.9027449923778
 30
0.0
 41
70.0
 42
70.0
 43
70.0
 50
90.0
  0
INSERT
  5
816E
  8
3
 62
     0
  2
_OPEN
 10
1235.190580859897
 20
6431.9027449923788
 30
0.0
 41
70.0
 42
70.0
 43
70.0
 50
270.0
  0
TEXT
  8
3
  40
105
  5
81EC
  62
0
  72
0
  71
0
 10
937.691
 20
6709.35
 30
0.000000
  1
890
  0
POINT
  5
8170
  8
DEFPOINTS
 62
     0
 10
1628.028142167431
 20
7321.9027449923778
 30
0.0
  0
POINT
  5
8171
  8
DEFPOINTS
 62
     0
 10
1628.028142167431
 20
6431.9027449923788
 30
0.0
  0
POINT
  5
8172
  8
DEFPOINTS
 62
     0
 10
1235.190580859897
 20
6431.9027449923788
 30
0.0
  0
ENDBLK
  5
7F6A
  8
0
  0
BLOCK
  8
0
  2
*D15
 70
     1
 10
0.0
 20
0.0
 30
0.0
  3
*D15
  1

  0
LINE
  5
8173
  8
3
 62
     0
 10
1890.528142167431
 20
5608.9027449923769
 30
0.0
 11
1200.190580859896
 21
5608.9027449923769
 31
0.0
  0
LINE
  5
8174
  8
3
 62
     0
 10
1235.190580859897
 20
6361.9027449923797
 30
0.0
 11
1235.190580859897
 21
5678.9027449923769
 31
0.0
  0
INSERT
  5
8175
  8
3
 62
     0
  2
_OPEN
 10
1235.190580859897
 20
6431.9027449923788
 30
0.0
 41
70.0
 42
70.0
 43
70.0
 50
90.0
  0
INSERT
  5
8176
  8
3
 62
     0
  2
_OPEN
 10
1235.190580859896
 20
5608.9027449923769
 30
0.0
 41
70.0
 42
70.0
 43
70.0
 50
270.0
  0
TEXT
  8
3
  40
105
  5
81ED
  62
0
  72
0
  71
0
 10
937.691
 20
5834.55
 30
0.000000
  1
823
  0
POINT
  5
8178
  8
DEFPOINTS
 62
     0
 10
1628.028142167431
 20
6431.9027449923788
 30
0.0
  0
POINT
  5
8179
  8
DEFPOINTS
 62
     0
 10
1908.028142167431
 20
5608.9027449923769
 30
0.0
  0
POINT
  5
817A
  8
DEFPOINTS
 62
     0
 10
1235.190580859896
 20
5608.9027449923769
 30
0.0
  0
ENDBLK
  5
7F5F
  8
0
  0
BLOCK
  8
0
  2
*D16
 70
     1
 10
0.0
 20
0.0
 30
0.0
  3
*D16
  1

  0
LINE
  5
817B
  8
3
 62
     0
 10
1628.028142167431
 20
6414.4027449923788
 30
0.0
 11
1628.028142167431
 21
5161.7332850005332
 31
0.0
  0
LINE
  5
817C
  8
3
 62
     0
 10
1908.028142167431
 20
5591.4027449923778
 30
0.0
 11
1908.028142167431
 21
5161.7332850005332
 31
0.0
  0
LINE
  5
817D
  8
3
 62
     0
 10
1838.028142167432
 20
5196.7332850005332
 30
0.0
 11
1698.028142167431
 21
5196.7332850005332
 31
0.0
  0
LINE
  5
817E
  8
3
 62
     0
 10
1628.028142167431
 20
5196.7332850005332
 30
0.0
 11
1218.028142167431
 21
5196.7332850005332
 31
0.0
  0
INSERT
  5
817F
  8
3
 62
     0
  2
_OPEN
 10
1908.028142167431
 20
5196.7332850005332
 30
0.0
 41
70.0
 42
70.0
 43
70.0
  0
INSERT
  5
8180
  8
3
 62
     0
  2
_OPEN
 10
1628.028142167431
 20
5196.7332850005332
 30
0.0
 41
70.0
 42
70.0
 43
70.0
 50
180.0
  0
TEXT
  8
3
  40
105
  5
81EE
  62
0
  72
0
  71
0
 10
1178.03
 20
5098.38
 30
0.000000
  1
280
  0
POINT
  5
8182
  8
DEFPOINTS
 62
     0
 10
1628.028142167431
 20
6431.9027449923788
 30
0.0
  0
POINT
  5
8183
  8
DEFPOINTS
 62
     0
 10
1908.028142167431
 20
5608.9027449923769
 30
0.0
  0
POINT
  5
8184
  8
DEFPOINTS
 62
     0
 10
1908.028142167431
 20
5196.7332850005332
 30
0.0
  0
ENDBLK
  5
7EF3
  8
0
  0
BLOCK
  8
0
  2
*D17
 70
     1
 10
0.0
 20
0.0
 30
0.0
  3
*D17
  1

  0
LINE
  5
8185
  8
3
 62
     0
 10
3193.0281421674322
 20
5591.4027449923806
 30
0.0
 11
3193.0281421674322
 21
5161.7332850005332
 31
0.0
  0
LINE
  5
8186
  8
3
 62
     0
 10
1978.028142167431
 20
5196.7332850005332
 30
0.0
 11
3123.0281421674308
 21
5196.7332850005332
 31
0.0
  0
INSERT
  5
8187
  8
3
 62
     0
  2
_OPEN
 10
1908.028142167431
 20
5196.7332850005332
 30
0.0
 41
70.0
 42
70.0
 43
70.0
 50
180.0
  0
INSERT
  5
8188
  8
3
 62
     0
  2
_OPEN
 10
3193.0281421674322
 20
5196.7332850005332
 30
0.0
 41
70.0
 42
70.0
 43
70.0
  0
TEXT
  8
3
  40
105
  5
81EF
  62
0
  72
0
  71
0
 10
2340.53
 20
5098.38
 30
0.000000
  1
1285
  0
POINT
  5
818A
  8
DEFPOINTS
 62
     0
 10
1908.028142167431
 20
5608.9027449923769
 30
0.0
  0
POINT
  5
818B
  8
DEFPOINTS
 62
     0
 10
3193.0281421674322
 20
5608.9027449923824
 30
0.0
  0
POINT
  5
818C
  8
DEFPOINTS
 62
     0
 10
3193.0281421674322
 20
5196.7332850005332
 30
0.0
  0
ENDBLK
  5
7EFE
  8
0
  0
BLOCK
  8
0
  2
*D18
 70
     1
 10
0.0
 20
0.0
 30
0.0
  3
*D18
  1

  0
LINE
  5
818D
  8
3
 62
     0
 10
3210.5281421674322
 20
5608.9027449923824
 30
0.0
 11
3735.5633454754652
 21
5608.9027449923824
 31
0.0
  0
LINE
  5
818E
  8
3
 62
     0
 10
3210.5281421674322
 20
6496.9027449923806
 30
0.0
 11
3735.5633454754652
 21
6496.9027449923806
 31
0.0
  0
LINE
  5
818F
  8
3
 62
     0
 10
3700.5633454754652
 20
5678.9027449923806
 30
0.0
 11
3700.5633454754652
 21
6426.9027449923806
 31
0.0
  0
INSERT
  5
8190
  8
3
 62
     0
  2
_OPEN
 10
3700.5633454754652
 20
5608.9027449923824
 30
0.0
 41
70.0
 42
70.0
 43
70.0
 50
270.0
  0
INSERT
  5
8191
  8
3
 62
     0
  2
_OPEN
 10
3700.5633454754652
 20
6496.9027449923806
 30
0.0
 41
70.0
 42
70.0
 43
70.0
 50
90.0
  0
TEXT
  8
3
  40
105
  5
81F0
  62
0
  72
0
  71
0
 10
3403.06
 20
5822.67
 30
0.000000
  1
888
  0
POINT
  5
8193
  8
DEFPOINTS
 62
     0
 10
3193.0281421674322
 20
5608.9027449923824
 30
0.0
  0
POINT
  5
8194
  8
DEFPOINTS
 62
     0
 10
3193.0281421674322
 20
6496.9027449923806
 30
0.0
  0
POINT
  5
8195
  8
DEFPOINTS
 62
     0
 10
3700.5633454754652
 20
6496.9027449923806
 30
0.0
  0
ENDBLK
  5
7F49
  8
0
  0
BLOCK
  8
0
  2
_DOT
 70
     0
 10
0.0
 20
0.0
 30
0.0
  3
_DOT
  1

  0
LINE
  5
8041
  8
0
  6
BYBLOCK
 62
     0
 10
0.0
 20
0.0
 30
0.0
 11
-1.0
 21
-0.0000000000000284
 31
0.0
  0
POLYLINE
  5
8042
  8
0
  6
BYBLOCK
 62
     0
 66
     1
 10
0.0
 20
0.0
 30
0.0
 70
     1
 40
0.1666666666666666
 41
0.1666666666666666
  0
VERTEX
  5
8196
  8
0
  6
BYBLOCK
 62
     0
 10
-0.0833333333333286
 20
-0.0000000000000284
 30
0.0
 42
1.0
  0
VERTEX
  5
8197
  8
0
  6
BYBLOCK
 62
     0
 10
0.0833333333333286
 20
-0.0000000000000284
 30
0.0
 42
1.0
  0
SEQEND
  5
8198
  8
0
  6
BYBLOCK
 62
     0
  0
ENDBLK
  5
801B
  8
0
  0
BLOCK
  8
0
  2
*D20
 70
     1
 10
0.0
 20
0.0
 30
0.0
  3
*D20
  1

  0
LINE
  5
8199
  8
3
 62
     0
 10
1628.028142167431
 20
2492.1576840602961
 30
0.0
 11
1628.028142167431
 21
2266.469279497589
 31
0.0
  0
LINE
  5
819A
  8
3
 62
     0
 10
2253.0281421674331
 20
2492.1576840602961
 30
0.0
 11
2253.0281421674331
 21
2266.469279497589
 31
0.0
  0
LINE
  5
819B
  8
3
 62
     0
 10
1698.028142167431
 20
2301.469279497589
 30
0.0
 11
2183.0281421674331
 21
2301.469279497589
 31
0.0
  0
INSERT
  5
819C
  8
3
 62
     0
  2
_OPEN
 10
1628.028142167431
 20
2301.469279497589
 30
0.0
 41
70.0
 42
70.0
 43
70.0
 50
180.0
  0
INSERT
  5
819D
  8
3
 62
     0
  2
_OPEN
 10
2253.0281421674331
 20
2301.469279497589
 30
0.0
 41
70.0
 42
70.0
 43
70.0
  0
TEXT
  8
3
  40
105
  5
81F1
  62
0
  72
0
  71
0
 10
1730.53
 20
2203.12
 30
0.000000
  1
625
  0
POINT
  5
819F
  8
DEFPOINTS
 62
     0
 10
1628.028142167431
 20
2509.6576840602961
 30
0.0
  0
POINT
  5
81A0
  8
DEFPOINTS
 62
     0
 10
2253.0281421674331
 20
2509.6576840602961
 30
0.0
  0
POINT
  5
81A1
  8
DEFPOINTS
 62
     0
 10
2253.0281421674331
 20
2301.469279497589
 30
0.0
  0
ENDBLK
  5
8056
  8
0
  0
BLOCK
  8
0
  2
*D21
 70
     1
 10
0.0
 20
0.0
 30
0.0
  3
*D21
  1

  0
LINE
  5
81A2
  8
3
 62
     0
 10
2253.0281421674331
 20
2492.1576840602961
 30
0.0
 11
2253.0281421674331
 21
2266.469279497589
 31
0.0
  0
LINE
  5
81A3
  8
3
 62
     0
 10
3193.0281421674322
 20
2492.1576840602961
 30
0.0
 11
3193.0281421674322
 21
2266.469279497589
 31
0.0
  0
LINE
  5
81A4
  8
3
 62
     0
 10
2323.0281421674331
 20
2301.469279497589
 30
0.0
 11
3123.0281421674308
 21
2301.469279497589
 31
0.0
  0
INSERT
  5
81A5
  8
3
 62
     0
  2
_OPEN
 10
2253.0281421674331
 20
2301.469279497589
 30
0.0
 41
70.0
 42
70.0
 43
70.0
 50
180.0
  0
INSERT
  5
81A6
  8
3
 62
     0
  2
_OPEN
 10
3193.0281421674322
 20
2301.469279497589
 30
0.0
 41
70.0
 42
70.0
 43
70.0
  0
TEXT
  8
3
  40
105
  5
81F2
  62
0
  72
0
  71
0
 10
2513.03
 20
2203.12
 30
0.000000
  1
940
  0
POINT
  5
81A8
  8
DEFPOINTS
 62
     0
 10
2253.0281421674331
 20
2509.6576840602961
 30
0.0
  0
POINT
  5
81A9
  8
DEFPOINTS
 62
     0
 10
3193.0281421674322
 20
2509.6576840602961
 30
0.0
  0
POINT
  5
81AA
  8
DEFPOINTS
 62
     0
 10
3193.0281421674322
 20
2301.469279497589
 30
0.0
  0
ENDBLK
  5
8063
  8
0
  0
BLOCK
  8
0
  2
*D22
 70
     1
 10
0.0
 20
0.0
 30
0.0
  3
*D22
  1

  0
LINE
  5
81AB
  8
3
 62
     0
 10
4327.8516480335184
 20
2492.1576840602952
 30
0.0
 11
4327.8516480335184
 21
2266.469279497589
 31
0.0
  0
LINE
  5
81AC
  8
3
 62
     0
 10
5595.8516480335184
 20
2492.1576840602952
 30
0.0
 11
5595.8516480335184
 21
2266.469279497589
 31
0.0
  0
LINE
  5
81AD
  8
3
 62
     0
 10
4397.8516480335184
 20
2301.469279497589
 30
0.0
 11
5525.8516480335184
 21
2301.469279497589
 31
0.0
  0
INSERT
  5
81AE
  8
3
 62
     0
  2
_OPEN
 10
4327.8516480335184
 20
2301.469279497589
 30
0.0
 41
70.0
 42
70.0
 43
70.0
 50
180.0
  0
INSERT
  5
81AF
  8
3
 62
     0
  2
_OPEN
 10
5595.8516480335184
 20
2301.469279497589
 30
0.0
 41
70.0
 42
70.0
 43
70.0
  0
TEXT
  8
3
  40
105
  5
81F3
  62
0
  72
0
  71
0
 10
4751.85
 20
2203.12
 30
0.000000
  1
1268
  0
POINT
  5
81B1
  8
DEFPOINTS
 62
     0
 10
4327.8516480335184
 20
2509.6576840602952
 30
0.0
  0
POINT
  5
81B2
  8
DEFPOINTS
 62
     0
 10
5595.8516480335184
 20
2509.6576840602952
 30
0.0
  0
POINT
  5
81B3
  8
DEFPOINTS
 62
     0
 10
5595.8516480335184
 20
2301.469279497589
 30
0.0
  0
ENDBLK
  5
8070
  8
0
  0
BLOCK
  8
0
  2
*D23
 70
     1
 10
0.0
 20
0.0
 30
0.0
  3
*D23
  1

  0
LINE
  5
81B4
  8
3
 62
     0
 10
5595.8516480335184
 20
2492.1576840602952
 30
0.0
 11
5595.8516480335184
 21
2266.469279497589
 31
0.0
  0
LINE
  5
81B5
  8
3
 62
     0
 10
6040.8516480335193
 20
2492.1576840602952
 30
0.0
 11
6040.8516480335193
 21
2266.469279497589
 31
0.0
  0
LINE
  5
81B6
  8
3
 62
     0
 10
5665.8516480335193
 20
2301.469279497589
 30
0.0
 11
5970.8516480335184
 21
2301.469279497589
 31
0.0
  0
INSERT
  5
81B7
  8
3
 62
     0
  2
_OPEN
 10
5595.8516480335184
 20
2301.469279497589
 30
0.0
 41
70.0
 42
70.0
 43
70.0
 50
180.0
  0
INSERT
  5
81B8
  8
3
 62
     0
  2
_OPEN
 10
6040.8516480335193
 20
2301.469279497589
 30
0.0
 41
70.0
 42
70.0
 43
70.0
  0
TEXT
  8
3
  40
105
  5
81F4
  62
0
  72
0
  71
0
 10
5608.35
 20
2203.12
 30
0.000000
  1
445
  0
POINT
  5
81BA
  8
DEFPOINTS
 62
     0
 10
5595.8516480335184
 20
2509.6576840602952
 30
0.0
  0
POINT
  5
81BB
  8
DEFPOINTS
 62
     0
 10
6040.8516480335193
 20
2509.6576840602952
 30
0.0
  0
POINT
  5
81BC
  8
DEFPOINTS
 62
     0
 10
6040.8516480335193
 20
2301.469279497589
 30
0.0
  0
ENDBLK
  5
807F
  8
0
  0
BLOCK
  8
0
  2
*D24
 70
     1
 10
0.0
 20
0.0
 30
0.0
  3
*D24
  1

  0
LINE
  5
81BD
  8
3
 62
     0
 10
1610.528142167431
 20
2634.6576840602961
 30
0.0
 11
1103.224454699128
 21
2634.6576840602961
 31
0.0
  0
LINE
  5
81BE
  8
3
 62
     0
 10
1610.528142167431
 20
2509.6576840602961
 30
0.0
 11
1103.2244546991269
 21
2509.6576840602961
 31
0.0
  0
LINE
  5
81BF
  8
3
 62
     0
 10
1138.224454699128
 20
2704.6576840602961
 30
0.0
 11
1138.224454699128
 21
2774.6576840602961
 31
0.0
  0
LINE
  5
81C0
  8
3
 62
     0
 10
1138.224454699128
 20
2439.6576840602961
 30
0.0
 11
1138.224454699128
 21
2049.6576840602961
 31
0.0
  0
LINE
  5
81C1
  8
3
 62
     0
 10
1138.224454699128
 20
2634.6576840602961
 30
0.0
 11
1138.224454699128
 21
2509.6576840602961
 31
0.0
  0
INSERT
  5
81C2
  8
3
 62
     0
  2
_DOT
 10
1138.224454699128
 20
2634.6576840602961
 30
0.0
 41
70.0
 42
70.0
 43
70.0
 50
270.0
  0
INSERT
  5
81C3
  8
3
 62
     0
  2
_OPEN
 10
1138.224454699128
 20
2509.6576840602961
 30
0.0
 41
70.0
 42
70.0
 43
70.0
 50
90.0
  0
TEXT
  8
3
  40
105
  5
81F5
  62
0
  72
0
  71
0
 10
840.724
 20
2023.81
 30
0.000000
  1
125
  0
POINT
  5
81C5
  8
DEFPOINTS
 62
     0
 10
1628.028142167431
 20
2634.6576840602961
 30
0.0
  0
POINT
  5
81C6
  8
DEFPOINTS
 62
     0
 10
1628.028142167431
 20
2509.6576840602961
 30
0.0
  0
POINT
  5
81C7
  8
DEFPOINTS
 62
     0
 10
1138.224454699128
 20
2509.6576840602961
 30
0.0
  0
ENDBLK
  5
80BA
  8
0
  0
BLOCK
  8
0
  2
*D25
 70
     1
 10
0.0
 20
0.0
 30
0.0
  3
*D25
  1

  0
LINE
  5
81C8
  8
3
 62
     0
 10
1610.528142167431
 20
2634.6576840602961
 30
0.0
 11
1103.2244546991269
 21
2634.6576840602961
 31
0.0
  0
LINE
  5
81C9
  8
3
 62
     0
 10
1610.528142167431
 20
2654.6576840602961
 30
0.0
 11
1103.2244546991269
 21
2654.6576840602961
 31
0.0
  0
LINE
  5
81CA
  8
3
 62
     0
 10
1138.224454699128
 20
2564.6576840602961
 30
0.0
 11
1138.2244546991269
 21
2494.6576840602961
 31
0.0
  0
LINE
  5
81CB
  8
3
 62
     0
 10
1138.224454699128
 20
2724.6576840602961
 30
0.0
 11
1138.224454699128
 21
2794.6576840602961
 31
0.0
  0
LINE
  5
81CC
  8
3
 62
     0
 10
1138.224454699128
 20
2644.6576840602961
 30
0.0
 11
970.72445469912759
 21
2694.907684060297
 31
0.0
  0
LINE
  5
81CD
  8
3
 62
     0
 10
970.72445469912759
 20
2694.907684060297
 30
0.0
 11
970.72445469912782
 21
3069.907684060297
 31
0.0
  0
TEXT
  8
3
  40
105
  5
81F6
  62
0
  72
0
  71
0
 10
645.724
 20
2696.56
 30
0.000000
  1
(20)
  0
LINE
  5
81CF
  8
3
 62
     0
 10
1138.224454699128
 20
2634.6576840602961
 30
0.0
 11
1138.224454699128
 21
2654.6576840602961
 31
0.0
  0
LINE
  5
81D0
  8
3
 62
     0
 10
1138.224454699128
 20
2634.6576840602961
 30
0.0
 11
1138.224454699128
 21
2654.6576840602961
 31
0.0
  0
INSERT
  5
81D1
  8
3
 62
     0
  2
_DOT
 10
1138.224454699128
 20
2634.6576840602961
 30
0.0
 41
70.0
 42
70.0
 43
70.0
 50
90.0
  0
INSERT
  5
81D2
  8
3
 62
     0
  2
_OPEN
 10
1138.224454699128
 20
2654.6576840602961
 30
0.0
 41
70.0
 42
70.0
 43
70.0
 50
270.0
  0
POINT
  5
81D3
  8
DEFPOINTS
 62
     0
 10
1628.028142167431
 20
2634.6576840602961
 30
0.0
  0
POINT
  5
81D4
  8
DEFPOINTS
 62
     0
 10
1628.028142167431
 20
2654.6576840602961
 30
0.0
  0
POINT
  5
81D5
  8
DEFPOINTS
 62
     0
 10
1138.224454699128
 20
2654.6576840602961
 30
0.0
  0
ENDBLK
  5
80CB
  8
0
  0
BLOCK
  8
0
  2
*D26
 70
     1
 10
0.0
 20
0.0
 30
0.0
  3
*D26
  1

  0
LINE
  5
81D6
  8
3
 62
     0
 10
2226.5281421674308
 20
4229.6576840602957
 30
0.0
 11
708.40113840876484
 21
4229.6576840602966
 31
0.0
  0
LINE
  5
81D7
  8
3
 62
     0
 10
1610.528142167431
 20
2509.6576840602961
 30
0.0
 11
708.40113840876427
 21
2509.657684060297
 31
0.0
  0
LINE
  5
81D8
  8
3
 62
     0
 10
743.40113840876461
 20
4159.6576840602984
 30
0.0
 11
743.40113840876438
 21
2579.6576840602961
 31
0.0
  0
INSERT
  5
81D9
  8
3
 62
     0
  2
_OPEN
 10
743.40113840876461
 20
4229.6576840602966
 30
0.0
 41
70.0
 42
70.0
 43
70.0
 50
90.0
  0
INSERT
  5
81DA
  8
3
 62
     0
  2
_OPEN
 10
743.40113840876438
 20
2509.657684060297
 30
0.0
 41
70.0
 42
70.0
 43
70.0
 50
270.0
  0
TEXT
  8
3
  40
105
  5
81F7
  62
0
  72
0
  71
0
 10
418.401
 20
3183.81
 30
0.000000
  1
(1720)
  0
POINT
  5
81DC
  8
DEFPOINTS
 62
     0
 10
2244.0281421674308
 20
4229.6576840602957
 30
0.0
  0
POINT
  5
81DD
  8
DEFPOINTS
 62
     0
 10
1628.028142167431
 20
2509.6576840602961
 30
0.0
  0
POINT
  5
81DE
  8
DEFPOINTS
 62
     0
 10
743.40113840876438
 20
2509.657684060297
 30
0.0
  0
ENDBLK
  5
80D8
  8
0
  0
ENDSEC
  0
SECTION
  2
ENTITIES
  0
INSERT
  5
7AD4
  8
0
  2
YA_N
 10
319.24491920201172
 20
77.340217050523734
 30
0.0
  0
ARC
  5
7AD6
  8
1
 10
2327.0281421674331
 20
3623.6576840602961
 30
0.0
 40
942.0
 50
296.36721588613159
 51
297.57084375943742
  0
ARC
  5
7AD7
  8
1
 10
2327.0281421674308
 20
3475.6576840602961
 30
0.0
 40
794.0
 50
174.65233025016121
 51
238.41465750977139
  0
ARC
  5
7AD8
  8
1
 10
2192.5281421674331
 20
3489.1576840602961
 30
0.0
 40
659.49999999999989
 50
84.736504796933019
 51
174.73650479693299
  0
ARC
  5
7AD9
  8
1
 10
2192.5281421674331
 20
3610.1576840602961
 30
0.0
 40
538.49999999999989
 50
78.810325437237495
 51
83.549250285140118
  0
LINE
  5
7ADA
  8
1
 10
2297.0281421674331
 20
4138.4208760394458
 30
0.0
 11
2297.0281421674331
 21
4229.6576840602957
 31
0.0
  0
LINE
  5
7ADB
  8
1
 10
3380.0281421674331
 20
4229.6576840602957
 30
0.0
 11
2244.0281421674308
 21
4229.6576840602957
 31
0.0
  0
LINE
  5
7ADC
  8
1
 10
3327.0281421674308
 20
4229.6576840602957
 30
0.0
 11
3266.1170623448561
 21
3549.657684060297
 31
0.0
  0
LINE
  5
7ADE
  8
1
 10
3380.0281421674331
 20
4179.6576840602938
 30
0.0
 11
3380.0281421674331
 21
4229.6576840602957
 31
0.0
  0
LINE
  5
7ADF
  8
1
 10
2244.0281421674331
 20
4179.6576840602966
 30
0.0
 11
2244.0281421674308
 21
4229.6576840602957
 31
0.0
  0
LINE
  5
7AE0
  8
1
 10
3380.0281421674322
 20
4179.6576840602966
 30
0.0
 11
2244.0281421674331
 21
4179.6576840602966
 31
0.0
  0
LINE
  5
7AE1
  8
1
 10
3380.0281421674331
 20
4225.6576840602938
 30
0.0
 11
2244.0281421674308
 21
4225.6576840602984
 31
0.0
  0
LINE
  5
7AE5
  8
1
 10
3193.0281421674322
 20
2779.6576840602938
 30
0.0
 11
1628.028142167431
 21
2779.6576840602961
 31
0.0
  0
LINE
  5
7AE6
  8
1
 10
1628.028142167431
 20
2779.6576840602961
 30
0.0
 11
1628.028142167431
 21
2654.6576840602961
 31
0.0
  0
LINE
  5
7AE7
  8
1
 10
3193.0281421674322
 20
2779.6576840602961
 30
0.0
 11
3193.0281421674322
 21
2654.6576840602961
 31
0.0
  0
LINE
  5
7AEB
  8
2
 10
2253.0281421674308
 20
7380.9640441817082
 30
0.0
 11
2253.0281421674308
 21
5418.7087528310021
 31
0.0
  0
LINE
  5
7AEC
  8
2
 10
3459.771923900727
 20
6876.9027449923806
 30
0.0
 11
1469.1860466022911
 21
6876.9027449923797
 31
0.0
  0
LINE
  5
7AED
  8
2
 10
4202.3612036459363
 20
3549.6576840602952
 30
0.0
 11
6097.8265410141203
 21
3549.6576840602952
 31
0.0
  0
LINE
  5
7AEE
  8
2
 10
5595.8516480335184
 20
4329.0065131478514
 30
0.0
 11
5595.8516480335184
 21
2509.6576840602952
 31
0.0
  0
LINE
  5
7AEF
  8
1
 10
4327.8516480335184
 20
2654.6576840602952
 30
0.0
 11
6040.8516480335193
 21
2654.6576840602952
 31
0.0
1001
ACAD
1000
ASC_BOUNDS
1002
{
1070
    19
1002
}
  0
LINE
  5
7AF0
  8
1
 10
4327.8516480335184
 20
2779.6576840602952
 30
0.0
 11
6040.8516480335193
 21
2779.6576840602952
 31
0.0
  0
LINE
  5
7AF1
  8
1
 10
4327.8516480335184
 20
2779.6576840602952
 30
0.0
 11
4327.8516480335184
 21
2654.6576840602952
 31
0.0
  0
LINE
  5
7AF5
  8
1
 10
6040.8516480335193
 20
2779.6576840602952
 30
0.0
 11
6040.8516480335193
 21
2654.6576840602952
 31
0.0
  0
LINE
  5
7AF6
  8
1
 10
5970.8516480335184
 20
4229.6576840602947
 30
0.0
 11
5970.8516480335184
 21
2779.6576840602952
 31
0.0
  0
LINE
  5
7AF7
  8
1
 10
5220.8516480335184
 20
4229.6576840602947
 30
0.0
 11
5220.8516480335156
 21
2779.6576840602952
 31
0.0
  0
LINE
  5
7AF9
  8
1
 10
5218.5516480335182
 20
4229.6576840602947
 30
0.0
 11
5218.55164803352
 21
2779.6576840602952
 31
0.0
  0
LINE
  5
7AFC
  8
2
 10
2253.0281421674331
 20
4289.2736665579241
 30
0.0
 11
2253.0281421674331
 21
2509.6576840602961
 31
0.0
  0
LINE
  5
7AFD
  8
2
 10
1456.4818193945989
 20
3549.6576840602938
 30
0.0
 11
3379.2679631957449
 21
3549.6576840602952
 31
0.0
  0
LINE
  5
7AFF
  8
1
 10
3193.0281421674322
 20
2654.6576840602961
 30
0.0
 11
1628.028142167431
 21
2654.6576840602961
 31
0.0
1001
ACAD
1000
ASC_BOUNDS
1002
{
1070
    19
1002
}
  0
POINT
  5
7B00
  8
1
 10
3148.0281421674331
 20
2654.6576840602961
 30
0.0
  0
POINT
  5
7B01
  8
1
 10
3148.0281421674331
 20
2654.6576840602961
 30
0.0
  0
INSERT
  5
7B02
  8
0
  2
YA_N
 10
-1323.964918958505
 20
-1333.0926101928389
 30
0.0
 41
25.0
 42
25.0
 43
25.0
  0
LINE
  5
7B04
  8
2
 10
2963.0281421674322
 20
3278.4733580602951
 30
0.0
 11
2963.0281421674322
 21
2679.55694369909
 31
0.0
  0
CIRCLE
  5
7B06
  8
1
 10
2253.0281421674331
 20
3549.6576840602938
 30
0.0
 40
165.09999999999991
  0
CIRCLE
  5
7B07
  8
1
 10
2963.0281421674322
 20
3029.6576840602938
 30
0.0
 40
114.3
  0
POINT
  5
7B08
  8
1
 10
3098.028142167434
 20
2654.6576840602961
 30
0.0
  0
POINT
  5
7B09
  8
1
 10
3098.028142167434
 20
2654.6576840602961
 30
0.0
  0
LINE
  5
7B0A
  8
1
 10
6023.8516480335184
 20
4229.6576840602947
 30
0.0
 11
6023.8516480335184
 21
4179.6576840602957
 31
0.0
  0
LINE
  5
7B0B
  8
1
 10
5167.8516480335193
 20
4229.6576840602947
 30
0.0
 11
5167.8516480335193
 21
4179.6576840602938
 31
0.0
  0
INSERT
  5
7B0C
  8
0
  2
YA_N
 10
-831.64864387704301
 20
-916.68199648309155
 30
0.0
 41
25.0
 42
25.0
 43
25.0
  0
LINE
  5
7B1C
  8
1
 10
2878.0281421674322
 20
7321.9027449923824
 30
0.0
 11
1628.028142167431
 21
7321.9027449923778
 31
0.0
  0
LINE
  5
7B1D
  8
1
 10
1908.028142167431
 20
6431.9027449923806
 30
0.0
 11
1628.028142167431
 21
6431.9027449923788
 31
0.0
  0
LINE
  5
7B1E
  8
1
 10
1628.028142167431
 20
7321.9027449923797
 30
0.0
 11
1628.028142167431
 21
7251.9027449923778
 31
0.0
  0
LINE
  5
7B1F
  8
1
 10
2878.0281421674322
 20
7321.9027449923824
 30
0.0
 11
2878.0281421674322
 21
7301.9027449923806
 31
0.0
  0
LINE
  5
7B20
  8
1
 10
3193.0281421674322
 20
6496.9027449923824
 30
0.0
 11
3193.0281421674322
 21
5608.9027449923824
 31
0.0
  0
LINE
  5
7B21
  8
1
 10
3193.0281421674322
 20
5608.9027449923824
 30
0.0
 11
1908.028142167431
 21
5608.9027449923769
 31
0.0
  0
LINE
  5
7B29
  8
1
 10
1908.028142167431
 20
6431.9027449923788
 30
0.0
 11
1908.028142167431
 21
5608.9027449923797
 31
0.0
  0
LINE
  5
7B38
  8
1
 10
5150.8516480335184
 20
2779.6576840602952
 30
0.0
 11
5150.8516480335184
 21
2654.6576840602952
 31
0.0
  0
LINE
  5
7B3A
  8
1
 10
4388.8516480335184
 20
3469.6576840602952
 30
0.0
 11
4388.8516480335156
 21
3176.6576840602952
 31
0.0
  0
LINE
  5
7B3B
  8
1
 10
4388.8516480335184
 20
3469.6576840602952
 30
0.0
 11
5122.8516480335174
 21
3469.6576840602952
 31
0.0
  0
LINE
  5
7B3C
  8
1
 10
5122.8516480335174
 20
3469.6576840602952
 30
0.0
 11
5122.8516480335174
 21
2779.6576840602952
 31
0.0
  0
LINE
  5
7B3E
  8
1
 10
4345.8516480335184
 20
3587.1576840602952
 30
0.0
 11
5220.8516480335156
 21
3587.1576840602952
 31
0.0
  0
LINE
  5
7B3F
  8
1
 10
4345.8516480335156
 20
3512.1576840602952
 30
0.0
 11
5220.8516480335156
 21
3512.1576840602952
 31
0.0
  0
LINE
  5
7B43
  8
1
 10
4345.8516480335156
 20
3587.1576840602952
 30
0.0
 11
4345.8516480335156
 21
3512.1576840602952
 31
0.0
  0
LINE
  5
7B44
  8
1
 10
4340.8516480335174
 20
3577.1576840602952
 30
0.0
 11
4345.8516480335184
 21
3577.1576840602952
 31
0.0
  0
LINE
  5
7B45
  8
1
 10
4340.8516480335174
 20
3522.1576840602952
 30
0.0
 11
4345.8516480335184
 21
3522.1576840602952
 31
0.0
  0
LINE
  5
7B46
  8
1
 10
4230.8516480335156
 20
3714.7576840602951
 30
0.0
 11
4340.8516480335156
 21
3714.7576840602951
 31
0.0
  0
LINE
  5
7B47
  8
1
 10
4230.8516480335184
 20
3384.5576840602948
 30
0.0
 11
4340.8516480335193
 21
3384.5576840602948
 31
0.0
  0
LINE
  5
7B48
  8
2
 10
4202.3612036459363
 20
3014.6576840602952
 30
0.0
 11
4382.628524634315
 21
3014.6576840602952
 31
0.0
  0
LINE
  5
7B49
  8
1
 10
4230.8516480335174
 20
3714.7576840602951
 30
0.0
 11
4230.8516480335184
 21
2900.3576840602959
 31
0.0
  0
LINE
  5
7B4A
  8
1
 10
4230.8516480335184
 20
3128.9576840602949
 30
0.0
 11
4340.8516480335193
 21
3128.9576840602949
 31
0.0
  0
LINE
  5
7B4B
  8
1
 10
4230.8516480335184
 20
2900.3576840602959
 30
0.0
 11
4340.8516480335193
 21
2900.3576840602959
 31
0.0
  0
LINE
  5
7B4C
  8
1
 10
4340.8516480335174
 20
3714.757684060296
 30
0.0
 11
4340.8516480335193
 21
2900.3576840602959
 31
0.0
  0
LINE
  5
7B4D
  8
1
 10
4378.8516480335184
 20
3829.6576840602952
 30
0.0
 11
4378.8516480335156
 21
2794.6576840602952
 31
0.0
  0
LINE
  5
7B4E
  8
1
 10
4178.8516480335184
 20
3829.6576840602952
 30
0.0
 11
4178.8516480335174
 21
2794.6576840602952
 31
0.0
  0
LINE
  5
7B4F
  8
1
 10
4178.8516480335184
 20
3829.6576840602952
 30
0.0
 11
4378.8516480335184
 21
3829.6576840602952
 31
0.0
  0
LINE
  5
7B50
  8
1
 10
4178.8516480335174
 20
2794.6576840602952
 30
0.0
 11
4378.8516480335156
 21
2794.6576840602952
 31
0.0
  0
LINE
  5
7B54
  8
1
 10
1908.0281421674331
 20
2779.6576840602952
 30
0.0
 11
1908.0281421674331
 21
2654.6576840602961
 31
0.0
  0
POINT
  5
7B56
  8
1
 10
2028.0281421674331
 20
2654.6576840602961
 30
0.0
  0
POINT
  5
7B57
  8
1
 10
2028.0281421674331
 20
2654.6576840602961
 30
0.0
  0
POINT
  5
7B58
  8
1
 10
1978.0281421674331
 20
2654.6576840602961
 30
0.0
  0
POINT
  5
7B59
  8
1
 10
1978.0281421674331
 20
2654.6576840602961
 30
0.0
  0
POINT
  5
7B5B
  8
1
 10
1628.028142167431
 20
2654.6576840602961
 30
0.0
  0
LINE
  5
7B5E
  8
1
 10
5167.8516480335193
 20
4229.6576840602947
 30
0.0
 11
6023.8516480335184
 21
4229.6576840602947
 31
0.0
  0
LINE
  5
7B5F
  8
1
 10
5167.8516480335193
 20
4179.6576840602957
 30
0.0
 11
6023.8516480335184
 21
4179.6576840602957
 31
0.0
  0
LINE
  5
7B60
  8
1
 10
5167.8516480335193
 20
4225.6576840602957
 30
0.0
 11
6023.8516480335184
 21
4225.6576840602957
 31
0.0
  0
POINT
  5
7B61
  8
1
 10
4178.8516480335184
 20
3829.6576840602952
 30
0.0
  0
POINT
  5
7B62
  8
1
 10
5973.8516480335156
 20
4229.6576840602947
 30
0.0
  0
INSERT
  5
7B64
  8
0
  2
YA_N
 10
11899.076749181109
 20
-304.87141365756861
 30
0.0
  0
INSERT
  5
7B66
  8
0
  2
YA_N
 10
10255.86691102059
 20
-1715.3042409009311
 30
0.0
 41
25.0
 42
25.0
 43
25.0
  0
INSERT
  5
7B68
  8
0
  2
YA_N
 10
10748.18318610206
 20
-1298.893627191183
 30
0.0
 41
25.0
 42
25.0
 43
25.0
  0
INSERT
  5
7B6B
  8
0
  2
YA_N
 10
14177.2584996237
 20
-2162.1696740489292
 30
0.0
  0
LINE
  5
7B6D
  8
1
 10
2763.0281421674331
 20
2819.6576840602952
 30
0.0
 11
2763.0281421674308
 21
2779.6576840602952
 31
0.0
  0
LINE
  5
7B6E
  8
1
 10
3163.0281421674322
 20
2819.6576840602938
 30
0.0
 11
3163.0281421674322
 21
2779.6576840602938
 31
0.0
  0
LINE
  5
7B6F
  8
1
 10
3163.0281421674322
 20
2819.6576840602938
 30
0.0
 11
2763.0281421674331
 21
2819.6576840602952
 31
0.0
  0
ARC
  5
7B71
  8
1
 10
2963.0281421674322
 20
3029.6576840602952
 30
0.0
 40
162.0
 50
286.13379196202362
 51
253.86620803797669
  0
LINE
  5
7B72
  8
2
 10
2810.5281421674308
 20
3029.6576840602952
 30
0.0
 11
3102.63677721569
 21
3029.6576840602938
 31
0.0
  0
LINE
  5
7B73
  8
1
 10
2918.0113789664351
 20
2874.0379840512569
 30
0.0
 11
3008.0449053684688
 21
2874.0379840512569
 31
0.0
  0
LINE
  5
7B74
  8
1
 10
2809.0281421674322
 20
2887.6576840602952
 30
0.0
 11
2830.3704762967368
 21
2936.6741173092691
 31
0.0
  0
LINE
  5
7B75
  8
1
 10
2778.0281421674308
 20
2869.6576840602952
 30
0.0
 11
3148.0281421674308
 21
2869.6576840602952
 31
0.0
  0
LINE
  5
7B76
  8
1
 10
2809.0281421674322
 20
2887.6576840602952
 30
0.0
 11
2867.6816609896969
 21
2887.6576840602952
 31
0.0
  0
LINE
  5
7B77
  8
1
 10
2809.0281421674322
 20
2869.6576840602952
 30
0.0
 11
2809.0281421674322
 21
2887.6576840602952
 31
0.0
  0
LINE
  5
7B78
  8
1
 10
2836.0281421674322
 20
2849.1576840602952
 30
0.0
 11
2836.0281421674322
 21
2917.353294819558
 31
0.0
  0
LINE
  5
7B79
  8
1
 10
2869.0281421674308
 20
2897.7183040405262
 30
0.0
 11
2869.0281421674308
 21
2869.6576840602952
 31
0.0
  0
LINE
  5
7B7A
  8
1
 10
3117.0281421674308
 20
2887.6576840602952
 30
0.0
 11
3095.6858080381262
 21
2936.6741173092691
 31
0.0
  0
LINE
  5
7B7B
  8
1
 10
3090.0281421674308
 20
2849.1576840602952
 30
0.0
 11
3090.0281421674308
 21
2917.353294819558
 31
0.0
  0
LINE
  5
7B7C
  8
1
 10
3117.0281421674308
 20
2869.6576840602952
 30
0.0
 11
3057.0281421674308
 21
2869.6576840602952
 31
0.0
  0
LINE
  5
7B7D
  8
1
 10
3117.0281421674308
 20
2887.6576840602952
 30
0.0
 11
3058.3746233451679
 21
2887.6576840602952
 31
0.0
  0
LINE
  5
7B7E
  8
1
 10
3057.0281421674308
 20
2897.7183040405262
 30
0.0
 11
3057.0281421674308
 21
2869.6576840602952
 31
0.0
  0
LINE
  5
7B7F
  8
1
 10
3117.0281421674308
 20
2869.6576840602952
 30
0.0
 11
3117.0281421674308
 21
2887.6576840602952
 31
0.0
  0
LINE
  5
7B80
  8
1
 10
3148.0281421674308
 20
2869.6576840602952
 30
0.0
 11
3148.0281421674308
 21
2819.6576840602938
 31
0.0
  0
LINE
  5
7B81
  8
1
 10
2778.0281421674308
 20
2869.6576840602952
 30
0.0
 11
2778.0281421674308
 21
2819.6576840602952
 31
0.0
  0
ARC
  5
7B82
  8
1
 10
2253.0281421674331
 20
3549.6576840602938
 30
0.0
 40
280.0
 50
49.87185200302995
 51
237.69047346574089
  0
ARC
  5
7B83
  8
1
 10
2963.0281421674322
 20
3029.6576840602938
 30
0.0
 40
220.0
 50
237.69047346574089
 51
49.871852003029922
  0
LINE
  5
7B84
  8
1
 10
2358.1068836125578
 20
3677.0015810334462
 30
0.0
 11
3035.774963167903
 21
3117.8188435032448
 31
0.0
  0
LINE
  5
7B85
  8
1
 10
2433.4879570733028
 20
3763.7470467202338
 30
0.0
 11
3104.8179967363299
 21
3197.870754721675
 31
0.0
  0
LINE
  5
7B86
  8
1
 10
2163.326616474405
 20
3411.0516009025082
 30
0.0
 11
2900.9270859184139
 21
2933.6996264895201
 31
0.0
  0
LINE
  5
7B87
  8
1
 10
2103.3701348793802
 20
3313.0092510323761
 30
0.0
 11
2845.4397078696761
 21
2843.7196295383592
 31
0.0
  0
INSERT
  5
7B88
  8
0
  2
YA_N
 10
14490.7857069929
 20
-1261.3712952520541
 30
0.0
  0
INSERT
  5
7B8A
  8
0
  2
YA_N
 10
12847.575868832389
 20
-2671.8041224954168
 30
0.0
 41
25.0
 42
25.0
 43
25.0
  0
INSERT
  5
7B8C
  8
0
  2
YA_N
 10
13339.89214391385
 20
-2255.3935087856689
 30
0.0
 41
25.0
 42
25.0
 43
25.0
  0
INSERT
  5
7B8F
  8
0
  2
YA_N
 10
16768.96745743549
 20
-3118.6695556434138
 30
0.0
  0
LINE
  5
7C27
  8
1
 10
4428.3210562058193
 20
3176.6576840602952
 30
0.0
 11
4670.5680961662401
 21
3176.6576840602952
 31
0.0
  0
LINE
  5
7C28
  8
1
 10
4833.8516480345097
 20
3176.6576840602952
 30
0.0
 11
4359.7299282160884
 21
3176.6576840602952
 31
0.0
  0
LINE
  5
7C2B
  8
2
 10
4838.2241159432997
 20
3014.6576840602952
 30
0.0
 11
4207.8890615354676
 21
3014.6576840602952
 31
0.0
  0
LINE
  5
7C2F
  8
1
 10
4833.8516480345097
 20
2852.6576840602952
 30
0.0
 11
4833.8516480345088
 21
3176.6576840602961
 31
0.0
  0
LINE
  5
7C52
  8
1
 10
4359.7299282160884
 20
3176.6576840602952
 30
0.0
 11
4359.7299282160893
 21
2852.6576840602952
 31
0.0
  0
LINE
  5
7C57
  8
1
 10
4230.8516480335184
 20
2993.6576840602961
 30
0.0
 11
4340.8516480296466
 21
2993.6576840602961
 31
0.0
  0
LINE
  5
7C58
  8
1
 10
4230.8516480335184
 20
3035.6576840602952
 30
0.0
 11
4340.8516480296466
 21
3035.6576840602961
 31
0.0
  0
LINE
  5
7C59
  8
1
 10
4340.8516480296466
 20
2984.236375114448
 30
0.0
 11
4340.8516480296466
 21
3043.078993006141
 31
0.0
  0
LINE
  5
7C5A
  8
1
 10
4348.8516480345097
 20
2956.4402350776959
 30
0.0
 11
4348.8516480345097
 21
3072.8751330428931
 31
0.0
  0
LINE
  5
7C5B
  8
1
 10
4340.8516480296466
 20
2984.236375114448
 30
0.0
 11
4348.8516480345097
 21
2984.2363751144499
 31
0.0
  0
LINE
  5
7C5C
  8
1
 10
4359.7299282160893
 20
2956.4402350776959
 30
0.0
 11
4348.8516480345097
 21
2956.4402350776959
 31
0.0
  0
LINE
  5
7C5D
  8
1
 10
4359.7299282160893
 20
3072.8751330428931
 30
0.0
 11
4348.8516480345097
 21
3072.8751330428931
 31
0.0
  0
LINE
  5
7C5E
  8
1
 10
4340.8516480296466
 20
3043.078993006141
 30
0.0
 11
4348.8516480345097
 21
3043.078993006141
 31
0.0
  0
LINE
  5
7C5F
  8
1
 10
4230.8516480335184
 20
3035.6576840602952
 30
0.0
 11
4230.8516480335184
 21
2993.6576840602952
 31
0.0
  0
LINE
  5
7C63
  8
1
 10
4742.2892051594881
 20
2852.6576840602952
 30
0.0
 11
4428.3210562058166
 21
2852.6576840602952
 31
0.0
  0
LINE
  5
7C7D
  8
1
 10
4388.8516480335156
 20
2852.6576840602952
 30
0.0
 11
4388.8516480335184
 21
2779.6576840602952
 31
0.0
  0
LINE
  5
7C7F
  8
1
 10
4739.8516480345097
 20
2852.6576840602952
 30
0.0
 11
4739.8516480345097
 21
2779.6576840602952
 31
0.0
  0
LINE
  5
7C81
  8
1
 10
4833.8516480345097
 20
2852.6576840602952
 30
0.0
 11
4359.7299282160893
 21
2852.6576840602952
 31
0.0
  0
LINE
  5
7C82
  8
1
 10
4388.8516480335184
 20
2819.6576840602938
 30
0.0
 11
4739.8516480345097
 21
2819.6576840602938
 31
0.0
  0
LINE
  5
7C83
  8
1
 10
2215.5281421674308
 20
5626.9027449923769
 30
0.0
 11
2215.5281421674308
 21
6501.9027449923778
 31
0.0
  0
LINE
  5
7C84
  8
1
 10
2290.5281421674308
 20
5626.9027449923778
 30
0.0
 11
2290.5281421674308
 21
6501.9027449923778
 31
0.0
  0
LINE
  5
7C88
  8
2
 10
2963.0281421674322
 20
6251.1476713301636
 30
0.0
 11
2963.0281421674322
 21
5429.5402182805192
 31
0.0
  0
LINE
  5
7C8E
  8
1
 10
1973.028142167431
 20
5459.9027449923797
 30
0.0
 11
3183.0281421674308
 21
5459.9027449923788
 31
0.0
  0
LINE
  5
7C8F
  8
1
 10
1973.028142167431
 20
5659.9027449923788
 30
0.0
 11
3183.0281421674308
 21
5659.9027449923778
 31
0.0
  0
LINE
  5
7C90
  8
1
 10
2087.9281421674309
 20
5621.9027449923788
 30
0.0
 11
3077.328142167431
 21
5621.9027449923797
 31
0.0
  0
LINE
  5
7C91
  8
1
 10
2087.9281421674309
 20
5511.9027449923788
 30
0.0
 11
3077.328142167431
 21
5511.9027449923788
 31
0.0
  0
LINE
  5
7C97
  8
1
 10
2801.0281421674322
 20
5640.7810251749506
 30
0.0
 11
3125.0281421674322
 21
5640.7810251749506
 31
0.0
  0
LINE
  5
7C98
  8
1
 10
3021.245591150031
 20
5629.902744993371
 30
0.0
 11
2904.8106931848338
 21
5629.902744993371
 31
0.0
  0
LINE
  5
7C9A
  8
1
 10
3183.0281421674308
 20
5459.9027449923778
 30
0.0
 11
3183.0281421674308
 21
5659.9027449923778
 31
0.0
  0
LINE
  5
7C9D
  8
1
 10
3077.328142167431
 20
5511.9027449923788
 30
0.0
 11
3077.328142167431
 21
5621.9027449923806
 31
0.0
  0
LINE
  5
7C9E
  8
2
 10
2963.0281421674322
 20
5483.4123006047967
 30
0.0
 11
2963.0281421674322
 21
5663.6796215931772
 31
0.0
  0
LINE
  5
7C9F
  8
1
 10
2942.0281421674322
 20
5511.9027449923788
 30
0.0
 11
2942.0281421674322
 21
5621.9027449885089
 31
0.0
  0
LINE
  5
7CA0
  8
1
 10
2984.0281421674308
 20
5511.9027449923788
 30
0.0
 11
2984.0281421674308
 21
5621.9027449885089
 31
0.0
  0
LINE
  5
7CA1
  8
1
 10
2942.0281421674322
 20
5511.9027449923788
 30
0.0
 11
2984.0281421674308
 21
5511.9027449923788
 31
0.0
  0
LINE
  5
7CA2
  8
1
 10
3021.245591150031
 20
5640.7810251749506
 30
0.0
 11
3021.245591150031
 21
5629.902744993371
 31
0.0
  0
LINE
  5
7CA3
  8
1
 10
2934.606833221585
 20
5621.9027449885089
 30
0.0
 11
2934.606833221585
 21
5629.902744993371
 31
0.0
  0
LINE
  5
7CA4
  8
1
 10
2993.449451113278
 20
5621.9027449885089
 30
0.0
 11
2993.449451113278
 21
5629.902744993371
 31
0.0
  0
LINE
  5
7CA5
  8
1
 10
2993.449451113278
 20
5621.9027449885089
 30
0.0
 11
2934.606833221585
 21
5621.9027449885089
 31
0.0
  0
LINE
  5
7CA6
  8
1
 10
2018.028142167432
 20
5669.9027449923806
 30
0.0
 11
2215.5281421674308
 21
5669.9027449923788
 31
0.0
  0
LINE
  5
7CA7
  8
1
 10
2848.728142167432
 20
5511.9027449923788
 30
0.0
 11
2848.728142167432
 21
5621.9027449923797
 31
0.0
  0
LINE
  5
7CA8
  8
1
 10
2904.8106931848338
 20
5640.7810251749506
 30
0.0
 11
2904.8106931848338
 21
5629.902744993371
 31
0.0
  0
LINE
  5
7CA9
  8
1
 10
2418.1281421674321
 20
5511.9027449923788
 30
0.0
 11
2418.1281421674321
 21
5621.9027449923797
 31
0.0
  0
LINE
  5
7CAC
  8
1
 10
3125.0281421674308
 20
6114.9027449933692
 30
0.0
 11
3125.0281421674308
 21
5640.7810251749488
 31
0.0
  0
LINE
  5
7CAF
  8
1
 10
2801.0281421674322
 20
6114.9027449933701
 30
0.0
 11
2801.0281421674322
 21
5640.7810251749506
 31
0.0
  0
LINE
  5
7CB0
  8
1
 10
2801.0281421674322
 20
5709.3721531646806
 30
0.0
 11
2801.0281421674322
 21
5951.6191931251014
 31
0.0
  0
LINE
  5
7CB4
  8
1
 10
1973.028142167431
 20
5459.9027449923797
 30
0.0
 11
1973.028142167431
 21
5659.9027449923788
 31
0.0
  0
POINT
  5
7CB5
  8
1
 10
1973.028142167431
 20
5459.9027449923797
 30
0.0
  0
LINE
  5
7CB6
  8
1
 10
2280.5281421674308
 20
5621.9027449923788
 30
0.0
 11
2280.5281421674308
 21
5626.9027449923788
 31
0.0
  0
LINE
  5
7CB7
  8
1
 10
2225.5281421674308
 20
5621.9027449923788
 30
0.0
 11
2225.5281421674308
 21
5626.9027449923788
 31
0.0
  0
LINE
  5
7CB8
  8
1
 10
2215.5281421674308
 20
5626.9027449923778
 30
0.0
 11
2290.5281421674308
 21
5626.9027449923788
 31
0.0
  0
LINE
  5
7CB9
  8
1
 10
2087.9281421674309
 20
5511.9027449923778
 30
0.0
 11
2087.9281421674309
 21
5621.9027449923778
 31
0.0
  0
LINE
  5
7CBC
  8
1
 10
1533.0281421674299
 20
7251.9027449923797
 30
0.0
 11
2247.0281421674308
 21
7251.9027449923778
 31
0.0
  0
LINE
  5
7CBF
  8
1
 10
1533.0281421674299
 20
6501.9027449923778
 30
0.0
 11
2247.0281421674308
 21
6501.9027449923778
 31
0.0
  0
LINE
  5
7CC1
  8
1
 10
2018.028142167431
 20
6403.9027449923788
 30
0.0
 11
2215.5281421674308
 21
6403.9027449923778
 31
0.0
  0
LINE
  5
7CC2
  8
1
 10
3125.0281421674308
 20
6114.9027449933701
 30
0.0
 11
2801.0281421674322
 21
6114.902744993371
 31
0.0
  0
LINE
  5
7CD3
  8
1
 10
2290.5281421674308
 20
6403.9027449923778
 30
0.0
 11
2488.0281421674308
 21
6403.9027449923778
 31
0.0
  0
LINE
  5
7CD4
  8
1
 10
2290.5281421674308
 20
5669.9027449923788
 30
0.0
 11
2488.0281421674308
 21
5669.9027449923788
 31
0.0
  0
LINE
  5
7CD6
  8
1
 10
3327.0281421674308
 20
7251.9027449923778
 30
0.0
 11
3327.0281421674308
 21
6501.9027449923778
 31
0.0
  0
LINE
  5
7CD7
  8
1
 10
2297.0281421674322
 20
7251.9027449923797
 30
0.0
 11
2297.0281421674299
 21
6501.9027449923778
 31
0.0
  0
LINE
  5
7CD8
  8
1
 10
2247.0281421674308
 20
7301.9027449923788
 30
0.0
 11
3377.0281421674322
 21
7301.9027449923806
 31
0.0
  0
LINE
  5
7CD9
  8
1
 10
3377.0281421674322
 20
7301.9027449923806
 30
0.0
 11
3377.0281421674308
 21
6449.6027449923822
 31
0.0
  0
LINE
  5
7CDA
  8
1
 10
2247.0281421674299
 20
6449.6027449923804
 30
0.0
 11
3377.0281421674308
 21
6449.6027449923822
 31
0.0
  0
LINE
  5
7CDB
  8
1
 10
2247.0281421674308
 20
7301.9027449923788
 30
0.0
 11
2247.0281421674299
 21
6449.6027449923804
 31
0.0
  0
LINE
  5
7CDC
  8
1
 10
2297.0281421674322
 20
7251.9027449923778
 30
0.0
 11
3327.0281421674308
 21
7251.9027449923797
 31
0.0
  0
LINE
  5
7CDE
  8
1
 10
2297.0281421674299
 20
6501.9027449923778
 30
0.0
 11
3327.0281421674308
 21
6501.9027449923778
 31
0.0
  0
LINE
  5
7CDF
  8
1
 10
1533.028142167431
 20
7251.9027449923778
 30
0.0
 11
1533.028142167431
 21
6501.9027449923778
 31
0.0
  0
LINE
  5
7CE0
  8
1
 10
1628.028142167431
 20
6501.9027449923797
 30
0.0
 11
1628.028142167431
 21
6431.9027449923788
 31
0.0
  0
LINE
  5
7CE1
  8
1
 10
3327.0281421674308
 20
7251.9027449923797
 30
0.0
 11
2297.0281421674299
 21
6501.9027449923778
 31
0.0
  0
LINE
  5
7CE2
  8
1
 10
2297.0281421674322
 20
7251.9027449923778
 30
0.0
 11
3327.0281421674308
 21
6501.9027449923778
 31
0.0
  0
LINE
  5
7CE4
  8
4
 10
6475.0
 20
1750.0
 30
0.0
 11
6475.0
 21
1050.0
 31
0.0
  0
LINE
  5
7CE5
  8
4
 10
4025.0
 20
1750.0
 30
0.0
 11
4025.0
 21
1050.0
 31
0.0
  0
LINE
  5
7CE6
  8
4
 10
2275.0
 20
1750.0
 30
0.0
 11
2275.0
 21
1050.0
 31
0.0
  0
LINE
  5
7CE9
  8
4
 10
2275.0
 20
1050.0
 30
0.0
 11
6475.0
 21
1050.0
 31
0.0
  0
LINE
  5
7CEA
  8
4
 10
2275.0
 20
1400.0
 30
0.0
 11
6475.0
 21
1400.0
 31
0.0
  0
TEXT
  5
7CEB
  8
4
 10
2409.7572829641558
 20
1510.4005905331451
 30
0.0
 40
175.0
  1
機器名称
  0
TEXT
  5
7CEC
  8
4
 10
2401.9033710867911
 20
1125.7580485620381
 30
0.0
 40
175.0
  1
機器型番
  0
TEXT
  5
7CED
  8
4
 10
4121.875609206827
 20
1479.00119135149
 30
0.0
 40
150.0
  1
ミツヤ多翼送風機
  0
TEXT
  5
7CEE
  8
4
 10
4153.2907345491822
 20
1110.0585449798009
 30
0.0
 40
175.0
  1
MF#6-1
  0
TEXT
  5
7CF0
  8
4
 10
2703.2355611836979
 20
8342.0009446638051
 30
0.0
 40
188.99999999999989
  1
床置防振ベット
  0
TEXT
  5
7CF1
  8
4
 10
1056.5865766530619
 20
8868.5834166975455
 30
0.0
 40
252.0
  1
遠心式片吸込片持多翼ファン
  0
LINE
  5
7CF2
  8
4
 10
875.0
 20
8642.9306399268171
 30
0.0
 11
6475.0
 21
8642.9306399268171
 31
0.0
  0
LINE
  5
7CF3
  8
4
 10
875.0
 20
9342.9306399268171
 30
0.0
 11
6475.0
 21
9342.9306399268171
 31
0.0
  0
LINE
  5
7CF4
  8
4
 10
2275.0
 20
1750.0
 30
0.0
 11
6475.0
 21
1750.0
 31
0.0
  0
LINE
  5
7CF5
  8
4
 10
875.0
 20
9342.9306399268171
 30
0.0
 11
875.0
 21
8642.9306399268171
 31
0.0
  0
TEXT
  5
7CF6
  8
4
 10
1177.7296483342391
 20
8338.1181714122031
 30
0.0
 40
188.99999999999989
  1
左回転上向
  0
TEXT
  5
7CF7
  8
4
 10
5141.3934573725146
 20
9471.21378523358
 30
0.0
 40
196.0
  1
No.
  0
TEXT
  5
7CF8
  8
4
 10
4589.5362191000459
 20
8342.0009446638051
 30
0.0
 40
188.99999999999989
  1
縮尺：1/35
  0
LINE
  5
7CF9
  8
4
 10
6475.0
 20
9342.9306399268171
 30
0.0
 11
6475.0
 21
8642.9306399268171
 31
0.0
  0
LINE
  5
7CFA
  8
4
 10
7350.0
 20
10325.0
 30
0.0
 11
7350.0
 21
10325.0
 31
0.0
  0
LINE
  5
7CFB
  8
4
 10
5042.160978259526
 20
9384.4225409389055
 30
0.0
 11
5042.160978259526
 21
9753.2829154241354
 31
0.0
  0
LINE
  5
7CFC
  8
4
 10
5042.160978259526
 20
9753.2829154241354
 30
0.0
 11
6475.0
 21
9753.2829154241354
 31
0.0
  0
LINE
  5
7CFD
  8
4
 10
6475.0
 20
9753.2829154241354
 30
0.0
 11
6475.0
 21
9384.4225409389055
 31
0.0
  0
LINE
  5
7CFE
  8
4
 10
6475.0
 20
9384.4225409389055
 30
0.0
 11
5042.160978259526
 21
9384.4225409389055
 31
0.0
  0
LINE
  5
7CFF
  8
4
 10
0.0
 20
0.0
 30
0.0
 11
0.0
 21
10325.0
 31
0.0
  0
LINE
  5
7D00
  8
4
 10
0.0
 20
10325.0
 30
0.0
 11
7350.0
 21
10325.0
 31
0.0
  0
LINE
  5
7D01
  8
4
 10
7350.0
 20
10325.0
 30
0.0
 11
7350.0
 21
0.0
 31
0.0
  0
LINE
  5
7D02
  8
4
 10
7350.0
 20
0.0
 30
0.0
 11
0.0
 21
0.0
 31
0.0
  0
DIMENSION
  5
7D14
  8
3
  2
*D2
 10
3327.0281421674308
 20
4609.753141881436
 30
0.0
 11
2788.1450428008611
 21
4609.753141881436
 31
0.0
 70
   128
 13
2253.0281421674331
 23
4289.2736665579241
 33
0.0
 14
3327.0281421674308
 24
4229.6576840602957
 34
0.0
1001
ACAD
1000
DSTYLE
1002
{
1070
   287
1070
     3
1070
    40
1040
35.0
1070
   143
1040
0.039
1070
   172
1070
     1
1070
   271
1070
     0
1070
   279
1070
     0
1070
   288
1070
     1
1002
}
  0
DIMENSION
  5
7D2C
  8
3
  2
*D3
 10
2297.0281421674331
 20
4360.8492960381291
 30
0.0
 11
2778.1816174805431
 21
4360.8492960381291
 31
0.0
 70
   128
 13
3327.0281421674308
 23
4247.1576840602957
 33
0.0
 14
2297.0281421674331
 24
4229.6576840602957
 34
0.0
1001
ACAD
1000
DSTYLE
1002
{
1070
   287
1070
     3
1070
    40
1040
35.0
1070
   143
1040
0.039
1070
   172
1070
     1
1070
   271
1070
     0
1070
   279
1070
     0
1070
   288
1070
     1
1002
}
  0
DIMENSION
  5
7D38
  8
3
  2
*D4
 10
1533.028142167431
 20
4609.753141881436
 30
0.0
 11
1893.028142167432
 21
4697.253141881436
 31
0.0
 70
     0
 13
2253.0281421674331
 23
4289.2736665579241
 33
0.0
 14
1533.028142167431
 24
3475.6576840602961
 34
0.0
1001
ACAD
1000
DSTYLE
1002
{
1070
   287
1070
     4
1070
    40
1040
35.0
1070
    75
1070
     1
1070
   143
1040
0.039
1070
   172
1070
     1
1070
   271
1070
     0
1070
   279
1070
     1
1070
   288
1070
     1
1002
}
  0
DIMENSION
  5
7D45
  8
3
  2
*D5
 10
1141.043714861444
 20
3549.6576840602938
 30
0.0
 11
1141.043714861443
 21
3932.0132497937948
 31
0.0
 70
   128
 13
2244.0281421674308
 23
4229.6576840602957
 33
0.0
 14
1456.4818193945989
 24
3549.6576840602938
 34
0.0
 50
90.0
1001
ACAD
1000
DSTYLE
1002
{
1070
   287
1070
     3
1070
    40
1040
35.0
1070
   143
1040
0.039
1070
   172
1070
     1
1070
   271
1070
     0
1070
   279
1070
     0
1070
   288
1070
     1
1002
}
  0
DIMENSION
  5
7D5C
  8
3
  2
*D6
 10
1141.043714861443
 20
2654.6576840602961
 30
0.0
 11
1053.543714861443
 21
3102.1576840602961
 31
0.0
 70
     0
 13
1456.4818193945989
 23
3549.6576840602938
 33
0.0
 14
1628.028142167431
 24
2654.6576840602961
 34
0.0
 50
90.0
1001
ACAD
1000
DSTYLE
1002
{
1070
   287
1070
     3
1070
    40
1040
35.0
1070
   143
1040
0.039
1070
   172
1070
     1
1070
   271
1070
     0
1070
   279
1070
     0
1070
   288
1070
     1
1002
}
  0
DIMENSION
  5
7E33
  8
3
  2
*D7
 10
6314.8089072488947
 20
3019.6576840602952
 30
0.0
 11
6314.8089072488947
 21
3534.1463333371939
 31
0.0
 70
   128
 13
5970.8516480335184
 23
4079.6576840602952
 33
0.0
 14
5970.8516480335184
 24
3019.6576840602952
 34
0.0
 50
90.0
1001
ACAD
1000
DSTYLE
1002
{
1070
   287
1070
     3
1070
     3
1000
φ<>
1070
    40
1040
35.0
1070
   143
1040
0.039
1070
   172
1070
     1
1070
   271
1070
     0
1070
   279
1070
     0
1070
   288
1070
     1
1002
}
  0
DIMENSION
  5
7E4B
  8
3
  2
*D8
 10
5970.8516480335184
 20
4345.753189690412
 30
0.0
 11
5595.2782945911167
 21
4345.753189690412
 31
0.0
 70
   128
 13
5220.8516480335184
 23
4229.6576840602947
 33
0.0
 14
5970.8516480335184
 24
4229.6576840602947
 34
0.0
1001
ACAD
1000
DSTYLE
1002
{
1070
   287
1070
     3
1070
    40
1040
35.0
1070
   143
1040
0.039
1070
   172
1070
     1
1070
   271
1070
     0
1070
   279
1070
     0
1070
   288
1070
     1
1002
}
  0
LINE
  5
7E4C
  8
1
 10
5973.8516480335193
 20
4229.6576840602947
 30
0.0
 11
5973.8516480335184
 21
2779.6576840602952
 31
0.0
  0
DIMENSION
  5
7E5D
  8
3
  2
*D9
 10
5595.8516480335184
 20
4563.6342249530207
 30
0.0
 11
5784.8516480335193
 21
4563.6342249530207
 31
0.0
 70
   128
 13
5973.8516480335193
 23
4229.6576840602947
 33
0.0
 14
5595.8516480335184
 24
4485.6897528358186
 34
0.0
1001
ACAD
1000
DSTYLE
1002
{
1070
   287
1070
     3
1070
    40
1040
35.0
1070
   143
1040
0.039
1070
   172
1070
     1
1070
   271
1070
     0
1070
   279
1070
     0
1070
   288
1070
     1
1002
}
  0
DIMENSION
  5
7E69
  8
3
  2
*D10
 10
4178.8516480335184
 20
4563.6342249530207
 30
0.0
 11
4887.3516480335193
 21
4738.6342249530198
 31
0.0
 70
     0
  1
MAX\P1450
 13
5595.8516480335184
 23
4485.6897528358186
 33
0.0
 14
4178.8516480335184
 24
3829.6576840602952
 34
0.0
1001
ACAD
1000
DSTYLE
1002
{
1070
   287
1070
     4
1070
    40
1040
35.0
1070
    75
1070
     1
1070
   143
1040
0.039
1070
   172
1070
     1
1070
   271
1070
     0
1070
   279
1070
     1
1070
   288
1070
     1
1002
}
  0
ARC
  5
7E8B
  8
1
 10
2327.0281421674331
 20
3623.6576840602961
 30
0.0
 40
942.0
 50
326.15676944145179
 51
355.49441547335562
  0
DIMENSION
  5
7EA5
  8
3
  2
*D11
 10
3380.0281421674331
 20
4846.6987677295219
 30
0.0
 11
2382.2268026922902
 21
4846.6987677295219
 31
0.0
 70
   128
 13
1533.028142167431
 23
3475.6576840602961
 33
0.0
 14
3380.0281421674331
 24
4229.6576840602957
 34
0.0
1001
ACAD
1000
DSTYLE
1002
{
1070
   287
1070
     3
1070
    40
1040
35.0
1070
   143
1040
0.039
1070
   172
1070
     1
1070
   271
1070
     0
1070
   279
1070
     0
1070
   288
1070
     1
1002
}
  0
DIMENSION
  5
7EB2
  8
3
  2
*D12
 10
2878.0281421674322
 20
7581.0877544920368
 30
0.0
 11
2250.5908108174481
 21
7581.0877544920368
 31
0.0
 70
   128
 13
1628.028142167431
 23
7321.9027449923778
 33
0.0
 14
2878.0281421674322
 24
7321.9027449923824
 34
0.0
1001
ACAD
1000
DSTYLE
1002
{
1070
   287
1070
     3
1070
    40
1040
35.0
1070
   143
1040
0.039
1070
   172
1070
     1
1070
   271
1070
     0
1070
   279
1070
     0
1070
   288
1070
     1
1002
}
  0
DIMENSION
  5
7EC0
  8
3
  2
*D13
 10
3193.0281421674322
 20
7581.0877544920368
 30
0.0
 11
3423.0281421674322
 21
7668.5877544920368
 31
0.0
 70
     0
 13
2878.0281421674322
 23
7321.9027449923824
 33
0.0
 14
3193.0281421674322
 24
6497.046931312233
 34
0.0
1001
ACAD
1000
DSTYLE
1002
{
1070
   287
1070
     3
1070
    40
1040
35.0
1070
   143
1040
0.039
1070
   172
1070
     1
1070
   271
1070
     0
1070
   279
1070
     0
1070
   288
1070
     1
1002
}
  0
DIMENSION
  5
7ECD
  8
3
  2
*D14
 10
1235.190580859897
 20
6431.9027449923788
 30
0.0
 11
1235.190580859896
 21
6895.1953534050399
 31
0.0
 70
   128
 13
1628.028142167431
 23
7321.9027449923778
 33
0.0
 14
1628.028142167431
 24
6431.9027449923788
 34
0.0
 50
90.0
1001
ACAD
1000
DSTYLE
1002
{
1070
   287
1070
     3
1070
    40
1040
35.0
1070
   143
1040
0.039
1070
   172
1070
     1
1070
   271
1070
     0
1070
   279
1070
     0
1070
   288
1070
     1
1002
}
  0
DIMENSION
  5
7ED9
  8
3
  2
*D15
 10
1235.190580859896
 20
5608.9027449923769
 30
0.0
 11
1147.690580859896
 21
6020.4027449923778
 31
0.0
 70
     0
 13
1628.028142167431
 23
6431.9027449923788
 33
0.0
 14
1908.028142167431
 24
5608.9027449923769
 34
0.0
 50
90.0
1001
ACAD
1000
DSTYLE
1002
{
1070
   287
1070
     4
1070
    40
1040
35.0
1070
    75
1070
     1
1070
   143
1040
0.039
1070
   172
1070
     1
1070
   271
1070
     0
1070
   279
1070
     1
1070
   288
1070
     1
1002
}
  0
DIMENSION
  5
7EE7
  8
3
  2
*D16
 10
1908.028142167431
 20
5196.7332850005332
 30
0.0
 11
1388.028142167431
 21
5196.7332850005332
 31
0.0
 70
   128
 13
1628.028142167431
 23
6431.9027449923788
 33
0.0
 14
1908.028142167431
 24
5608.9027449923769
 34
0.0
1001
ACAD
1000
DSTYLE
1002
{
1070
   287
1070
     3
1070
    40
1040
35.0
1070
   143
1040
0.039
1070
   172
1070
     1
1070
   271
1070
     0
1070
   279
1070
     0
1070
   288
1070
     1
1002
}
  0
DIMENSION
  5
7EFF
  8
3
  2
*D17
 10
3193.0281421674322
 20
5196.7332850005332
 30
0.0
 11
2550.5281421674308
 21
5284.2332850005332
 31
0.0
 70
     0
 13
1908.028142167431
 23
5608.9027449923769
 33
0.0
 14
3193.0281421674322
 24
5608.9027449923824
 34
0.0
1001
ACAD
1000
DSTYLE
1002
{
1070
   287
1070
     4
1070
    40
1040
35.0
1070
    75
1070
     1
1070
   143
1040
0.039
1070
   172
1070
     1
1070
   271
1070
     0
1070
   279
1070
     1
1070
   288
1070
     1
1002
}
  0
DIMENSION
  5
7F0D
  8
3
  2
*D18
 10
3700.5633454754652
 20
6496.9027449923806
 30
0.0
 11
3700.5633454754638
 21
6008.5178432890862
 31
0.0
 70
   128
 13
3193.0281421674322
 23
5608.9027449923824
 33
0.0
 14
3193.0281421674322
 24
6496.9027449923806
 34
0.0
 50
90.0
1001
ACAD
1000
DSTYLE
1002
{
1070
   287
1070
     3
1070
    40
1040
35.0
1070
   143
1040
0.039
1070
   172
1070
     1
1070
   271
1070
     0
1070
   279
1070
     0
1070
   288
1070
     1
1002
}
  0
LINE
  5
7F0E
  8
1
 10
3193.028142167429
 20
6496.9027449923806
 30
0.0
 11
2878.0281421674322
 21
6496.9027449923806
 31
0.0
  0
LINE
  5
7F26
  8
1
 10
2878.0281421674322
 20
6501.9027449923778
 30
0.0
 11
2878.0281421674322
 21
6496.9027449923797
 31
0.0
  0
DIMENSION
  5
8057
  8
3
  2
*D20
 10
2253.0281421674331
 20
2301.469279497589
 30
0.0
 11
1940.528142167432
 21
2388.9692794975881
 31
0.0
 70
     0
 13
1628.028142167431
 23
2509.6576840602961
 33
0.0
 14
2253.0281421674331
 24
2509.6576840602961
 34
0.0
1001
ACAD
1000
DSTYLE
1002
{
1070
   287
1070
     3
1070
    40
1040
35.0
1070
   143
1040
0.039
1070
   172
1070
     1
1070
   271
1070
     0
1070
   279
1070
     0
1002
}
  0
DIMENSION
  5
8064
  8
3
  2
*D21
 10
3193.0281421674322
 20
2301.469279497589
 30
0.0
 11
2723.0281421674322
 21
2388.9692794975881
 31
0.0
 70
     0
 13
2253.0281421674331
 23
2509.6576840602961
 33
0.0
 14
3193.0281421674322
 24
2509.6576840602961
 34
0.0
1001
ACAD
1000
DSTYLE
1002
{
1070
   287
1070
     3
1070
    40
1040
35.0
1070
   143
1040
0.039
1070
   172
1070
     1
1070
   271
1070
     0
1070
   279
1070
     0
1002
}
  0
DIMENSION
  5
8071
  8
3
  2
*D22
 10
5595.8516480335184
 20
2301.469279497589
 30
0.0
 11
4961.8516480335193
 21
2388.9692794975881
 31
0.0
 70
     0
 13
4327.8516480335184
 23
2509.6576840602952
 33
0.0
 14
5595.8516480335184
 24
2509.6576840602952
 34
0.0
1001
ACAD
1000
DSTYLE
1002
{
1070
   287
1070
     3
1070
    40
1040
35.0
1070
   143
1040
0.039
1070
   172
1070
     1
1070
   271
1070
     0
1070
   279
1070
     0
1002
}
  0
DIMENSION
  5
8080
  8
3
  2
*D23
 10
6040.8516480335193
 20
2301.469279497589
 30
0.0
 11
5818.3516480335193
 21
2388.9692794975881
 31
0.0
 70
     0
 13
5595.8516480335184
 23
2509.6576840602952
 33
0.0
 14
6040.8516480335193
 24
2509.6576840602952
 34
0.0
1001
ACAD
1000
DSTYLE
1002
{
1070
   287
1070
     3
1070
    40
1040
35.0
1070
   143
1040
0.039
1070
   172
1070
     1
1070
   271
1070
     0
1070
   279
1070
     0
1002
}
  0
LINE
  5
8096
  8
1
 10
2018.0281421674331
 20
3469.6576840602952
 30
0.0
 11
2488.0281421674331
 21
3469.6576840602952
 31
0.0
  0
LINE
  5
8098
  8
1
 10
1908.0281421674331
 20
2779.6576840602952
 30
0.0
 11
2018.0281421674331
 21
3469.6576840602952
 31
0.0
  0
LINE
  5
8099
  8
1
 10
2598.0281421674331
 20
2779.6576840602952
 30
0.0
 11
2488.0281421674331
 21
3469.6576840602952
 31
0.0
  0
LINE
  5
809C
  8
1
 10
2018.028142167431
 20
6403.9027449923788
 30
0.0
 11
2018.028142167431
 21
5669.9027449923797
 31
0.0
  0
LINE
  5
809D
  8
1
 10
2488.0281421674308
 20
6403.902744992376
 30
0.0
 11
2488.0281421674308
 21
5669.9027449923788
 31
0.0
  0
LINE
  5
80A1
  8
1
 10
4327.8516480335184
 20
2634.6576840602952
 30
0.0
 11
6040.8516480335193
 21
2634.6576840602952
 31
0.0
  0
LINE
  5
80A2
  8
1
 10
4327.8516480335184
 20
2509.6576840602952
 30
0.0
 11
6040.8516480335193
 21
2509.6576840602952
 31
0.0
1001
ACAD
1000
ASC_BOUNDS
1002
{
1070
    19
1002
}
  0
LINE
  5
80A3
  8
1
 10
6040.8516480335193
 20
2634.6576840602952
 30
0.0
 11
6040.8516480335193
 21
2509.6576840602952
 31
0.0
  0
LINE
  5
80A4
  8
1
 10
5150.8516480335184
 20
2634.6576840602952
 30
0.0
 11
5150.8516480335184
 21
2509.6576840602952
 31
0.0
  0
LINE
  5
80A5
  8
1
 10
4327.8516480335184
 20
2634.6576840602952
 30
0.0
 11
4327.8516480335184
 21
2509.6576840602952
 31
0.0
  0
LINE
  5
80A6
  8
1
 10
3193.0281421674322
 20
2509.6576840602961
 30
0.0
 11
1628.028142167431
 21
2509.6576840602961
 31
0.0
1001
ACAD
1000
ASC_BOUNDS
1002
{
1070
    19
1002
}
  0
LINE
  5
80A7
  8
1
 10
3193.0281421674322
 20
2634.6576840602961
 30
0.0
 11
3193.0281421674322
 21
2509.6576840602961
 31
0.0
  0
POINT
  5
80A8
  8
1
 10
3148.0281421674331
 20
2509.6576840602961
 30
0.0
  0
POINT
  5
80A9
  8
1
 10
3148.0281421674331
 20
2509.6576840602961
 30
0.0
  0
LINE
  5
80AA
  8
1
 10
3193.0281421674322
 20
2634.6576840602952
 30
0.0
 11
1628.028142167431
 21
2634.6576840602961
 31
0.0
  0
LINE
  5
80AB
  8
1
 10
1908.0281421674331
 20
2634.6576840602952
 30
0.0
 11
1908.0281421674331
 21
2509.6576840602961
 31
0.0
  0
LINE
  5
80AC
  8
1
 10
1628.028142167431
 20
2634.6576840602961
 30
0.0
 11
1628.028142167431
 21
2509.6576840602961
 31
0.0
  0
DIMENSION
  5
80BB
  8
3
  2
*D24
 10
1138.224454699128
 20
2509.6576840602961
 30
0.0
 11
1050.7244546991269
 21
2209.6576840602961
 31
0.0
 70
     0
 13
1628.028142167431
 23
2634.6576840602961
 33
0.0
 14
1628.028142167431
 24
2509.6576840602961
 34
0.0
 50
90.0
1001
ACAD
1000
DSTYLE
1002
{
1070
   287
1070
     3
1070
    40
1040
35.0
1070
   143
1040
0.039
1070
   172
1070
     1
1070
   271
1070
     0
1070
   279
1070
     0
1070
     6
1000
DOT
1002
}
  0
DIMENSION
  5
80CC
  8
3
  2
*D25
 10
1138.224454699128
 20
2654.6576840602961
 30
0.0
 11
855.72445469912725
 21
2729.9076840602961
 31
0.0
 70
     0
 13
1628.028142167431
 23
2634.6576840602961
 33
0.0
 14
1628.028142167431
 24
2654.6576840602961
 34
0.0
 50
90.0
1001
ACAD
1000
DSTYLE
1002
{
1070
   287
1070
     4
1070
     3
1000
(<>)
1070
    40
1040
35.0
1070
   143
1040
0.039
1070
   172
1070
     1
1070
   271
1070
     0
1070
   279
1070
     1
1070
     6
1000
DOT
1002
}
  0
DIMENSION
  5
80D9
  8
3
  2
*D26
 10
743.40113840876438
 20
2509.657684060297
 30
0.0
 11
628.40113840876404
 21
3369.657684060297
 31
0.0
 70
     0
 13
2244.0281421674308
 23
4229.6576840602957
 33
0.0
 14
1628.028142167431
 24
2509.6576840602961
 34
0.0
 50
90.0
1001
ACAD
1000
DSTYLE
1002
{
1070
   287
1070
     4
1070
     3
1000
(<>)
1070
    40
1040
35.0
1070
   143
1040
0.039
1070
   172
1070
     1
1070
   271
1070
     0
1070
   279
1070
     1
1002
}
  0
ENDSEC
  0
EOF
