  0
SECTION
  2
HEADER
  9
$ACADVER
  1
AC1015
  9
$ACADMAINTVER
 70
    20
  9
$DWGCODEPAGE
  3
ANSI_932
  9
$INSBASE
 10
0.0
 20
0.0
 30
0.0
  9
$EXTMIN
 10
-0.1922460740788665
 20
-0.2700599612071528
 30
-0.0015258207003583
  9
$EXTMAX
 10
6300.192275410744
 20
8850.270101172235
 30
0.0000000349246037
  9
$LIMMIN
 10
0.0
 20
0.0
  9
$LIMMAX
 10
297.0
 20
210.0
  9
$ORTHOMODE
 70
     1
  9
$REGENMODE
 70
     1
  9
$FILLMODE
 70
     0
  9
$QTEXTMODE
 70
     0
  9
$MIRRTEXT
 70
     1
  9
$LTSCALE
 40
100.0
  9
$ATTMODE
 70
     1
  9
$TEXTSIZE
 40
180.0
  9
$TRACEWID
 40
0.05
  9
$TEXTSTYLE
  7
STANDARD
  9
$CLAYER
  8
3
  9
$CELTYPE
  6
ByLayer
  9
$CECOLOR
 62
   256
  9
$CELTSCALE
 40
1.0
  9
$DISPSILH
 70
     0
  9
$DIMSCALE
 40
30.0
  9
$DIMASZ
 40
2.0
  9
$DIMEXO
 40
1.0
  9
$DIMDLI
 40
10.0
  9
$DIMRND
 40
0.0
  9
$DIMDLE
 40
0.0
  9
$DIMEXE
 40
1.0
  9
$DIMTP
 40
1.0
  9
$DIMTM
 40
1.0
  9
$DIMTXT
 40
3.0
  9
$DIMCEN
 40
0.0
  9
$DIMTSZ
 40
0.0
  9
$DIMTOL
 70
     0
  9
$DIMLIM
 70
     0
  9
$DIMTIH
 70
     0
  9
$DIMTOH
 70
     0
  9
$DIMSE1
 70
     0
  9
$DIMSE2
 70
     0
  9
$DIMTAD
 70
     1
  9
$DIMZIN
 70
     8
  9
$DIMBLK
  1

  9
$DIMASO
 70
     1
  9
$DIMSHO
 70
     1
  9
$DIMPOST
  1

  9
$DIMAPOST
  1

  9
$DIMALT
 70
     0
  9
$DIMALTD
 70
     2
  9
$DIMALTF
 40
0.039
  9
$DIMLFAC
 40
1.0
  9
$DIMTOFL
 70
     1
  9
$DIMTVP
 40
0.0
  9
$DIMTIX
 70
     0
  9
$DIMSOXD
 70
     0
  9
$DIMSAH
 70
     1
  9
$DIMBLK1
  1
OPEN
  9
$DIMBLK2
  1
OPEN
  9
$DIMSTYLE
  2
IGA
  9
$DIMCLRD
 70
     0
  9
$DIMCLRE
 70
     0
  9
$DIMCLRT
 70
     0
  9
$DIMTFAC
 40
10.0
  9
$DIMGAP
 40
1.0
  9
$DIMJUST
 70
     0
  9
$DIMSD1
 70
     0
  9
$DIMSD2
 70
     0
  9
$DIMTOLJ
 70
     1
  9
$DIMTZIN
 70
     0
  9
$DIMALTZ
 70
     0
  9
$DIMALTTZ
 70
     0
  9
$DIMUPT
 70
     0
  9
$DIMDEC
 70
     4
  9
$DIMTDEC
 70
     4
  9
$DIMALTU
 70
     2
  9
$DIMALTTD
 70
     2
  9
$DIMTXSTY
  7
STANDARD
  9
$DIMAUNIT
 70
     0
  9
$DIMADEC
 70
     0
  9
$DIMALTRND
 40
0.0
  9
$DIMAZIN
 70
     0
  9
$DIMDSEP
 70
    46
  9
$DIMATFIT
 70
     3
  9
$DIMFRAC
 70
     0
  9
$DIMLDRBLK
  1
OPEN
  9
$DIMLUNIT
 70
     2
  9
$DIMLWD
 70
    -2
  9
$DIMLWE
 70
    -2
  9
$DIMTMOVE
 70
     0
  9
$LUNITS
 70
     2
  9
$LUPREC
 70
     3
  9
$SKETCHINC
 40
0.1
  9
$FILLETRAD
 40
50.0
  9
$AUNITS
 70
     0
  9
$AUPREC
 70
     0
  9
$MENU
  1
acad
  9
$ELEVATION
 40
0.0
  9
$PELEVATION
 40
0.0
  9
$THICKNESS
 40
0.0
  9
$LIMCHECK
 70
     0
  9
$CHAMFERA
 40
0.5
  9
$CHAMFERB
 40
0.5
  9
$CHAMFERC
 40
0.0
  9
$CHAMFERD
 40
0.0
  9
$SKPOLY
 70
     0
  9
$TDCREATE
 40
2451389.482040394
  9
$TDUCREATE
 40
2451389.107040394
  9
$TDUPDATE
 40
2460269.623647616
  9
$TDUUPDATE
 40
2460269.248647616
  9
$TDINDWG
 40
0.0192210880
  9
$TDUSRTIMER
 40
0.0192208681
  9
$USRTIMER
 70
     1
  9
$ANGBASE
 50
0.0
  9
$ANGDIR
 70
     0
  9
$PDMODE
 70
     0
  9
$PDSIZE
 40
0.0
  9
$PLINEWID
 40
0.0
  9
$SPLFRAME
 70
     0
  9
$SPLINETYPE
 70
     6
  9
$SPLINESEGS
 70
     8
  9
$HANDSEED
  5
8799
  9
$SURFTAB1
 70
     6
  9
$SURFTAB2
 70
     6
  9
$SURFTYPE
 70
     6
  9
$SURFU
 70
     6
  9
$SURFV
 70
     6
  9
$UCSBASE
  2

  9
$UCSNAME
  2

  9
$UCSORG
 10
0.0
 20
0.0
 30
0.0
  9
$UCSXDIR
 10
1.0
 20
0.0
 30
0.0
  9
$UCSYDIR
 10
0.0
 20
1.0
 30
0.0
  9
$UCSORTHOREF
  2

  9
$UCSORTHOVIEW
 70
     0
  9
$UCSORGTOP
 10
0.0
 20
0.0
 30
0.0
  9
$UCSORGBOTTOM
 10
0.0
 20
0.0
 30
0.0
  9
$UCSORGLEFT
 10
0.0
 20
0.0
 30
0.0
  9
$UCSORGRIGHT
 10
0.0
 20
0.0
 30
0.0
  9
$UCSORGFRONT
 10
0.0
 20
0.0
 30
0.0
  9
$UCSORGBACK
 10
0.0
 20
0.0
 30
0.0
  9
$PUCSBASE
  2

  9
$PUCSNAME
  2

  9
$PUCSORG
 10
0.0
 20
0.0
 30
0.0
  9
$PUCSXDIR
 10
1.0
 20
0.0
 30
0.0
  9
$PUCSYDIR
 10
0.0
 20
1.0
 30
0.0
  9
$PUCSORTHOREF
  2

  9
$PUCSORTHOVIEW
 70
     0
  9
$PUCSORGTOP
 10
0.0
 20
0.0
 30
0.0
  9
$PUCSORGBOTTOM
 10
0.0
 20
0.0
 30
0.0
  9
$PUCSORGLEFT
 10
0.0
 20
0.0
 30
0.0
  9
$PUCSORGRIGHT
 10
0.0
 20
0.0
 30
0.0
  9
$PUCSORGFRONT
 10
0.0
 20
0.0
 30
0.0
  9
$PUCSORGBACK
 10
0.0
 20
0.0
 30
0.0
  9
$USERI1
 70
     0
  9
$USERI2
 70
     0
  9
$USERI3
 70
     0
  9
$USERI4
 70
     0
  9
$USERI5
 70
     0
  9
$USERR1
 40
0.0
  9
$USERR2
 40
0.0
  9
$USERR3
 40
0.0
  9
$USERR4
 40
0.0
  9
$USERR5
 40
0.0
  9
$WORLDVIEW
 70
     1
  9
$SHADEDGE
 70
     3
  9
$SHADEDIF
 70
    70
  9
$TILEMODE
 70
     1
  9
$MAXACTVP
 70
    16
  9
$PINSBASE
 10
0.0
 20
0.0
 30
0.0
  9
$PLIMCHECK
 70
     0
  9
$PEXTMIN
 10
1.000000000000000E+20
 20
1.000000000000000E+20
 30
1.000000000000000E+20
  9
$PEXTMAX
 10
-1.000000000000000E+20
 20
-1.000000000000000E+20
 30
-1.000000000000000E+20
  9
$PLIMMIN
 10
0.0
 20
0.0
  9
$PLIMMAX
 10
12.0
 20
9.0
  9
$UNITMODE
 70
     0
  9
$VISRETAIN
 70
     0
  9
$PLINEGEN
 70
     0
  9
$PSLTSCALE
 70
     1
  9
$TREEDEPTH
 70
  3020
  9
$CMLSTYLE
  2
Standard
  9
$CMLJUST
 70
     0
  9
$CMLSCALE
 40
1.0
  9
$PROXYGRAPHICS
 70
     1
  9
$MEASUREMENT
 70
     0
  9
$CELWEIGHT
370
    -1
  9
$ENDCAPS
280
     0
  9
$JOINSTYLE
280
     0
  9
$LWDISPLAY
290
     0
  9
$INSUNITS
 70
     0
  9
$HYPERLINKBASE
  1

  9
$STYLESHEET
  1

  9
$XEDIT
290
     1
  9
$CEPSNTYPE
380
     0
  9
$PSTYLEMODE
290
     1
  9
$FINGERPRINTGUID
  2
{EA5BB5D1-81CB-4738-AE4A-EF6E2354C92B}
  9
$VERSIONGUID
  2
{159254E8-2076-4933-8F16-CCE6ED067710}
  9
$EXTNAMES
290
     1
  9
$PSVPSCALE
 40
0.0
  9
$OLESTARTUP
290
     0
  0
ENDSEC
  0
SECTION
  2
CLASSES
  0
CLASS
  1
ACDBDICTIONARYWDFLT
  2
AcDbDictionaryWithDefault
  3
ObjectDBX Classes
 90
        0
280
     0
281
     0
  0
CLASS
  1
MATERIAL
  2
AcDbMaterial
  3
ObjectDBX Classes
 90
     1153
280
     0
281
     0
  0
CLASS
  1
VISUALSTYLE
  2
AcDbVisualStyle
  3
ObjectDBX Classes
 90
     4095
280
     0
281
     0
  0
CLASS
  1
SCALE
  2
AcDbScale
  3
ObjectDBX Classes
 90
     1153
280
     0
281
     0
  0
CLASS
  1
TABLESTYLE
  2
AcDbTableStyle
  3
ObjectDBX Classes
 90
     4095
280
     0
281
     0
  0
CLASS
  1
MLEADERSTYLE
  2
AcDbMLeaderStyle
  3
ACDB_MLEADERSTYLE_CLASS
 90
     4095
280
     0
281
     0
  0
CLASS
  1
ACDBSECTIONVIEWSTYLE
  2
AcDbSectionViewStyle
  3
ObjectDBX Classes
 90
     1025
280
     0
281
     0
  0
CLASS
  1
ACDBDETAILVIEWSTYLE
  2
AcDbDetailViewStyle
  3
ObjectDBX Classes
 90
     1025
280
     0
281
     0
  0
CLASS
  1
SORTENTSTABLE
  2
AcDbSortentsTable
  3
ObjectDBX Classes
 90
        0
280
     0
281
     0
  0
CLASS
  1
DICTIONARYVAR
  2
AcDbDictionaryVar
  3
ObjectDBX Classes
 90
        0
280
     0
281
     0
  0
CLASS
  1
CELLSTYLEMAP
  2
AcDbCellStyleMap
  3
ObjectDBX Classes
 90
     1152
280
     0
281
     0
  0
CLASS
  1
ACDBPLACEHOLDER
  2
AcDbPlaceHolder
  3
ObjectDBX Classes
 90
        0
280
     0
281
     0
  0
CLASS
  1
LAYOUT
  2
AcDbLayout
  3
ObjectDBX Classes
 90
        0
280
     0
281
     0
  0
ENDSEC
  0
SECTION
  2
TABLES
  0
TABLE
  2
VPORT
  5
83A3
330
0
100
AcDbSymbolTable
 70
     1
  0
VPORT
  5
840F
330
83A3
100
AcDbSymbolTableRecord
100
AcDbViewportTableRecord
  2
*ACTIVE
 70
     0
 10
0.0
 20
0.0
 11
1.0
 21
1.0
 12
2209.914085612631
 22
4215.642430459414
 13
0.0
 23
0.0
 14
10.0
 24
10.0
 15
10.0
 25
10.0
 16
0.0
 26
0.0
 36
1.0
 17
0.0
 27
0.0
 37
0.0
 40
5576.52489780089
 41
2.050213675213675
 42
50.0
 43
0.0
 44
0.0
 50
0.0
 51
0.0
 71
     0
 72
   100
 73
     1
 74
     0
 75
     0
 76
     0
 77
     0
 78
     0
281
     0
 65
     1
110
0.0
120
0.0
130
0.0
111
1.0
121
0.0
131
0.0
112
0.0
122
1.0
132
0.0
 79
     0
146
0.0
1001
ACAD_NAV_VCDISPLAY
1070
     3
  0
ENDTAB
  0
TABLE
  2
LTYPE
  5
83A0
330
0
100
AcDbSymbolTable
 70
     3
  0
LTYPE
  5
83F5
330
83A0
100
AcDbSymbolTableRecord
100
AcDbLinetypeTableRecord
  2
ByBlock
 70
     0
  3

 72
    65
 73
     0
 40
0.0
  0
LTYPE
  5
83F6
330
83A0
100
AcDbSymbolTableRecord
100
AcDbLinetypeTableRecord
  2
ByLayer
 70
     0
  3

 72
    65
 73
     0
 40
0.0
  0
LTYPE
  5
83F7
330
83A0
100
AcDbSymbolTableRecord
100
AcDbLinetypeTableRecord
  2
CONTINUOUS
 70
     0
  3
Solid line
 72
    65
 73
     0
 40
0.0
  0
LTYPE
  5
8410
330
83A0
100
AcDbSymbolTableRecord
100
AcDbLinetypeTableRecord
  2
CENTER
 70
     0
  3
____ _ ____ _ ____ _ ____ _ ____ _ ____ _ ____ 
 72
    65
 73
     4
 40
2.0
 49
1.25
 74
     0
 49
-0.25
 74
     0
 49
0.25
 74
     0
 49
-0.25
 74
     0
  0
ENDTAB
  0
TABLE
  2
LAYER
  5
839D
330
0
100
AcDbSymbolTable
 70
     6
  0
LAYER
  5
83EF
102
{ACAD_XDICTIONARY
360
8743
102
}
330
839D
100
AcDbSymbolTableRecord
100
AcDbLayerTableRecord
  2
0
 70
     0
 62
     7
  6
CONTINUOUS
370
    -3
390
83AA
  0
LAYER
  5
840E
102
{ACAD_XDICTIONARY
360
8745
102
}
330
839D
100
AcDbSymbolTableRecord
100
AcDbLayerTableRecord
  2
3
 70
     0
 62
     2
  6
CONTINUOUS
370
    -3
390
83AA
  0
LAYER
  5
8411
102
{ACAD_XDICTIONARY
360
8747
102
}
330
839D
100
AcDbSymbolTableRecord
100
AcDbLayerTableRecord
  2
2
 70
     0
 62
     3
  6
CENTER
370
    -3
390
83AA
  0
LAYER
  5
8412
102
{ACAD_XDICTIONARY
360
8749
102
}
330
839D
100
AcDbSymbolTableRecord
100
AcDbLayerTableRecord
  2
1
 70
     0
 62
     4
  6
CONTINUOUS
370
    -3
390
83AA
  0
LAYER
  5
8413
102
{ACAD_XDICTIONARY
360
874B
102
}
330
839D
100
AcDbSymbolTableRecord
100
AcDbLayerTableRecord
  2
4
 70
     0
 62
     7
  6
CONTINUOUS
370
    -3
390
83AA
  0
LAYER
  5
8414
330
839D
100
AcDbSymbolTableRecord
100
AcDbLayerTableRecord
  2
DEFPOINTS
 70
     0
 62
     7
  6
CONTINUOUS
290
     0
370
    -3
390
83AA
  0
ENDTAB
  0
TABLE
  2
STYLE
  5
839E
330
0
100
AcDbSymbolTable
 70
     2
  0
STYLE
  5
83F0
330
839E
100
AcDbSymbolTableRecord
100
AcDbTextStyleTableRecord
  2
STANDARD
 70
     0
 40
0.0
 41
1.0
 50
0.0
 71
     0
 42
180.0
  3
simplex.shx
  4
extfont.shx
  0
STYLE
  5
83F4
330
839E
100
AcDbSymbolTableRecord
100
AcDbTextStyleTableRecord
  2
Annotative
 70
     0
 40
0.0
 41
1.0
 50
0.0
 71
     0
 42
0.2
  3
txt
  4

1001
AcadAnnotative
1000
AnnotativeData
1002
{
1070
     1
1070
     1
1002
}
  0
ENDTAB
  0
TABLE
  2
VIEW
  5
83A1
330
0
100
AcDbSymbolTable
 70
     0
  0
ENDTAB
  0
TABLE
  2
UCS
  5
83A2
330
0
100
AcDbSymbolTable
 70
     0
  0
ENDTAB
  0
TABLE
  2
APPID
  5
83A4
330
0
100
AcDbSymbolTable
 70
     8
  0
APPID
  5
83F1
330
83A4
100
AcDbSymbolTableRecord
100
AcDbRegAppTableRecord
  2
ACAD
 70
     0
  0
APPID
  5
83F8
330
83A4
100
AcDbSymbolTableRecord
100
AcDbRegAppTableRecord
  2
AcadAnnotative
 70
     0
  0
APPID
  5
8451
330
83A4
100
AcDbSymbolTableRecord
100
AcDbRegAppTableRecord
  2
ACAD_DSTYLE_DIMJAG
 70
     0
  0
APPID
  5
8452
330
83A4
100
AcDbSymbolTableRecord
100
AcDbRegAppTableRecord
  2
ACAD_DSTYLE_DIMTALN
 70
     0
  0
APPID
  5
848B
330
83A4
100
AcDbSymbolTableRecord
100
AcDbRegAppTableRecord
  2
AcadAnnoMonitorAlertIconDisabled
 70
     0
  0
APPID
  5
848C
330
83A4
100
AcDbSymbolTableRecord
100
AcDbRegAppTableRecord
  2
ACAD_EXEMPT_FROM_CAD_STANDARDS
 70
     0
  0
APPID
  5
8757
330
83A4
100
AcDbSymbolTableRecord
100
AcDbRegAppTableRecord
  2
ACAD_NAV_VCDISPLAY
 70
     0
  0
APPID
  5
8790
330
83A4
100
AcDbSymbolTableRecord
100
AcDbRegAppTableRecord
  2
ACAD_MLEADERVER
 70
     0
  0
ENDTAB
  0
TABLE
  2
DIMSTYLE
  5
83A5
330
0
100
AcDbSymbolTable
 70
     3
100
AcDbDimStyleTable
 71
     1
340
8415
  0
DIMSTYLE
105
83F2
330
83A5
100
AcDbSymbolTableRecord
100
AcDbDimStyleTableRecord
  2
Standard
 70
     0
340
83F0
  0
DIMSTYLE
105
83F3
330
83A5
100
AcDbSymbolTableRecord
100
AcDbDimStyleTableRecord
  2
Annotative
 70
     0
340
83F0
1001
AcadAnnotative
1000
AnnotativeData
1002
{
1070
     1
1070
     1
1002
}
  0
DIMSTYLE
105
8415
102
{ACAD_REACTORS
330
8453
330
8460
330
846D
330
847E
330
84F5
330
8502
330
850F
330
851C
330
8529
330
858F
330
859C
330
85A9
330
85B6
330
85C3
330
85D0
330
85DD
330
85EA
330
85F7
330
8604
330
8616
330
864F
102
}
330
83A5
100
AcDbSymbolTableRecord
100
AcDbDimStyleTableRecord
  2
IGA
 70
     0
 40
2.0
 41
2.0
 42
0.5
 43
10.0
 44
1.0
 47
1.0
 48
1.0
 73
     0
 74
     0
 77
     1
 78
     8
140
3.0
141
0.0
143
0.03937
146
10.0
147
1.0
173
     1
271
     3
272
     3
279
     2
284
     8
285
     8
286
     8
340
83F0
  0
ENDTAB
  0
TABLE
  2
BLOCK_RECORD
  5
839C
330
0
100
AcDbSymbolTable
 70
    57
  0
BLOCK_RECORD
  5
840A
102
{ACAD_XDICTIONARY
360
847B
102
}
330
839C
100
AcDbSymbolTableRecord
100
AcDbBlockTableRecord
  2
*Model_Space
340
840D
  0
BLOCK_RECORD
  5
8406
330
839C
100
AcDbSymbolTableRecord
100
AcDbBlockTableRecord
  2
*Paper_Space
340
8409
  0
BLOCK_RECORD
  5
8419
330
839C
100
AcDbSymbolTableRecord
100
AcDbBlockTableRecord
  2
$MODEL_SPACE
340
0
  0
BLOCK_RECORD
  5
841B
330
839C
100
AcDbSymbolTableRecord
100
AcDbBlockTableRecord
  2
$PAPER_SPACE
340
0
  0
BLOCK_RECORD
  5
841D
330
839C
100
AcDbSymbolTableRecord
100
AcDbBlockTableRecord
  2
_OPEN
340
0
102
{BLKREFS
331
84D0
331
84D1
331
84E2
331
84E3
331
84FC
331
84FD
331
8509
331
850A
331
8516
331
8517
331
8523
331
8524
331
8195
331
8196
331
81A2
331
81A3
331
81AF
331
81B0
331
81BC
331
81BD
331
8225
331
8226
331
8474
331
8475
331
849A
331
849B
331
837B
331
8383
331
8384
331
85A3
331
85A4
331
85B0
331
85B1
331
85BD
331
85BE
331
85CA
331
85CB
331
85D7
331
85D8
331
85E4
331
85E5
331
8530
331
8531
331
8596
331
8597
331
836F
331
8370
331
85F1
331
85F2
331
85FE
331
85FF
331
8303
331
8304
331
830C
331
830D
331
8315
331
8316
331
831E
331
831F
331
8327
331
8328
331
8330
331
8331
331
8339
331
833A
331
8342
331
8343
331
834B
331
834C
331
8354
331
8355
331
835D
331
835E
331
8736
331
873D
331
873E
331
8366
331
8367
331
86DC
102
}
  0
BLOCK_RECORD
  5
841F
330
839C
100
AcDbSymbolTableRecord
100
AcDbBlockTableRecord
  2
YA_N
340
0
102
{BLKREFS
331
7C21
331
7C3F
331
7C41
331
7CAE
102
}
  0
BLOCK_RECORD
  5
8421
330
839C
100
AcDbSymbolTableRecord
100
AcDbBlockTableRecord
  2
*D4
340
0
  0
BLOCK_RECORD
  5
8423
330
839C
100
AcDbSymbolTableRecord
100
AcDbBlockTableRecord
  2
*D5
340
0
  0
BLOCK_RECORD
  5
8425
330
839C
100
AcDbSymbolTableRecord
100
AcDbBlockTableRecord
  2
*D6
340
0
  0
BLOCK_RECORD
  5
8427
330
839C
100
AcDbSymbolTableRecord
100
AcDbBlockTableRecord
  2
*D7
340
0
  0
BLOCK_RECORD
  5
8429
330
839C
100
AcDbSymbolTableRecord
100
AcDbBlockTableRecord
  2
*D8
340
0
  0
BLOCK_RECORD
  5
842B
330
839C
100
AcDbSymbolTableRecord
100
AcDbBlockTableRecord
  2
*D9
340
0
  0
BLOCK_RECORD
  5
842D
330
839C
100
AcDbSymbolTableRecord
100
AcDbBlockTableRecord
  2
*D10
340
0
  0
BLOCK_RECORD
  5
842F
330
839C
100
AcDbSymbolTableRecord
100
AcDbBlockTableRecord
  2
*D11
340
0
  0
BLOCK_RECORD
  5
8431
330
839C
100
AcDbSymbolTableRecord
100
AcDbBlockTableRecord
  2
*D12
340
0
  0
BLOCK_RECORD
  5
8433
330
839C
100
AcDbSymbolTableRecord
100
AcDbBlockTableRecord
  2
*D13
340
0
  0
BLOCK_RECORD
  5
8435
330
839C
100
AcDbSymbolTableRecord
100
AcDbBlockTableRecord
  2
*D14
340
0
  0
BLOCK_RECORD
  5
8437
330
839C
100
AcDbSymbolTableRecord
100
AcDbBlockTableRecord
  2
*D15
340
0
  0
BLOCK_RECORD
  5
8439
330
839C
100
AcDbSymbolTableRecord
100
AcDbBlockTableRecord
  2
*D16
340
0
  0
BLOCK_RECORD
  5
843B
330
839C
100
AcDbSymbolTableRecord
100
AcDbBlockTableRecord
  2
*D17
340
0
  0
BLOCK_RECORD
  5
843D
330
839C
100
AcDbSymbolTableRecord
100
AcDbBlockTableRecord
  2
_DOT
340
0
102
{BLKREFS
331
837A
102
}
  0
BLOCK_RECORD
  5
843E
330
839C
100
AcDbSymbolTableRecord
100
AcDbBlockTableRecord
  2
*D19
340
0
  0
BLOCK_RECORD
  5
8441
330
839C
100
AcDbSymbolTableRecord
100
AcDbBlockTableRecord
  2
*D20
340
0
  0
BLOCK_RECORD
  5
8443
330
839C
100
AcDbSymbolTableRecord
100
AcDbBlockTableRecord
  2
*D21
340
0
  0
BLOCK_RECORD
  5
8445
330
839C
100
AcDbSymbolTableRecord
100
AcDbBlockTableRecord
  2
*D22
340
0
  0
BLOCK_RECORD
  5
8447
330
839C
100
AcDbSymbolTableRecord
100
AcDbBlockTableRecord
  2
*D23
340
0
  0
BLOCK_RECORD
  5
8449
330
839C
100
AcDbSymbolTableRecord
100
AcDbBlockTableRecord
  2
_NONE
340
0
  0
BLOCK_RECORD
  5
844B
330
839C
100
AcDbSymbolTableRecord
100
AcDbBlockTableRecord
  2
*D25
340
0
  0
BLOCK_RECORD
  5
844D
330
839C
100
AcDbSymbolTableRecord
100
AcDbBlockTableRecord
  2
*D26
340
0
  0
BLOCK_RECORD
  5
8454
330
839C
100
AcDbSymbolTableRecord
100
AcDbBlockTableRecord
  2
*D27
340
0
  0
BLOCK_RECORD
  5
8461
330
839C
100
AcDbSymbolTableRecord
100
AcDbBlockTableRecord
  2
*D28
340
0
  0
BLOCK_RECORD
  5
846E
330
839C
100
AcDbSymbolTableRecord
100
AcDbBlockTableRecord
  2
*D29
340
0
  0
BLOCK_RECORD
  5
847F
330
839C
100
AcDbSymbolTableRecord
100
AcDbBlockTableRecord
  2
*D30
340
0
  0
BLOCK_RECORD
  5
84E8
330
839C
100
AcDbSymbolTableRecord
100
AcDbBlockTableRecord
  2
*D31
340
0
  0
BLOCK_RECORD
  5
84F6
330
839C
100
AcDbSymbolTableRecord
100
AcDbBlockTableRecord
  2
*D32
340
0
  0
BLOCK_RECORD
  5
8503
330
839C
100
AcDbSymbolTableRecord
100
AcDbBlockTableRecord
  2
*D33
340
0
  0
BLOCK_RECORD
  5
8510
330
839C
100
AcDbSymbolTableRecord
100
AcDbBlockTableRecord
  2
*D34
340
0
  0
BLOCK_RECORD
  5
851D
330
839C
100
AcDbSymbolTableRecord
100
AcDbBlockTableRecord
  2
*D35
340
0
  0
BLOCK_RECORD
  5
852A
330
839C
100
AcDbSymbolTableRecord
100
AcDbBlockTableRecord
  2
*D36
340
0
  0
BLOCK_RECORD
  5
8536
330
839C
100
AcDbSymbolTableRecord
100
AcDbBlockTableRecord
  2
*D37
340
0
  0
BLOCK_RECORD
  5
8543
330
839C
100
AcDbSymbolTableRecord
100
AcDbBlockTableRecord
  2
*D38
340
0
  0
BLOCK_RECORD
  5
8550
330
839C
100
AcDbSymbolTableRecord
100
AcDbBlockTableRecord
  2
*D39
340
0
  0
BLOCK_RECORD
  5
855D
330
839C
100
AcDbSymbolTableRecord
100
AcDbBlockTableRecord
  2
*D40
340
0
  0
BLOCK_RECORD
  5
856A
330
839C
100
AcDbSymbolTableRecord
100
AcDbBlockTableRecord
  2
*D41
340
0
  0
BLOCK_RECORD
  5
8575
330
839C
100
AcDbSymbolTableRecord
100
AcDbBlockTableRecord
  2
*D42
340
0
  0
BLOCK_RECORD
  5
8582
330
839C
100
AcDbSymbolTableRecord
100
AcDbBlockTableRecord
  2
*D43
340
0
  0
BLOCK_RECORD
  5
8590
330
839C
100
AcDbSymbolTableRecord
100
AcDbBlockTableRecord
  2
*D44
340
0
  0
BLOCK_RECORD
  5
859D
330
839C
100
AcDbSymbolTableRecord
100
AcDbBlockTableRecord
  2
*D45
340
0
  0
BLOCK_RECORD
  5
85AA
330
839C
100
AcDbSymbolTableRecord
100
AcDbBlockTableRecord
  2
*D46
340
0
  0
BLOCK_RECORD
  5
85B7
330
839C
100
AcDbSymbolTableRecord
100
AcDbBlockTableRecord
  2
*D47
340
0
  0
BLOCK_RECORD
  5
85C4
330
839C
100
AcDbSymbolTableRecord
100
AcDbBlockTableRecord
  2
*D48
340
0
  0
BLOCK_RECORD
  5
85D1
330
839C
100
AcDbSymbolTableRecord
100
AcDbBlockTableRecord
  2
*D49
340
0
  0
BLOCK_RECORD
  5
85DE
330
839C
100
AcDbSymbolTableRecord
100
AcDbBlockTableRecord
  2
*D50
340
0
  0
BLOCK_RECORD
  5
85EB
330
839C
100
AcDbSymbolTableRecord
100
AcDbBlockTableRecord
  2
*D51
340
0
  0
BLOCK_RECORD
  5
85F8
330
839C
100
AcDbSymbolTableRecord
100
AcDbBlockTableRecord
  2
*D52
340
0
  0
BLOCK_RECORD
  5
8605
330
839C
100
AcDbSymbolTableRecord
100
AcDbBlockTableRecord
  2
*D53
340
0
  0
BLOCK_RECORD
  5
8617
330
839C
100
AcDbSymbolTableRecord
100
AcDbBlockTableRecord
  2
*D54
340
0
  0
BLOCK_RECORD
  5
8650
330
839C
100
AcDbSymbolTableRecord
100
AcDbBlockTableRecord
  2
*D55
340
0
  0
BLOCK_RECORD
  5
86CF
330
839C
100
AcDbSymbolTableRecord
100
AcDbBlockTableRecord
  2
_DotSmall
340
0
102
{BLKREFS
331
8735
331
86DD
102
}
  0
ENDTAB
  0
ENDSEC
  0
SECTION
  2
BLOCKS
  0
BLOCK
  5
840B
330
840A
100
AcDbEntity
  8
0
100
AcDbBlockBegin
  2
*Model_Space
 70
     0
 10
0.0
 20
0.0
 30
0.0
  3
*Model_Space
  1

  0
ENDBLK
  5
840C
330
840A
100
AcDbEntity
  8
0
100
AcDbBlockEnd
  0
BLOCK
  5
8407
330
8406
100
AcDbEntity
 67
     1
  8
0
100
AcDbBlockBegin
  2
*Paper_Space
 70
     0
 10
0.0
 20
0.0
 30
0.0
  3
*Paper_Space
  1

  0
ENDBLK
  5
8408
330
8406
100
AcDbEntity
 67
     1
  8
0
100
AcDbBlockEnd
  0
BLOCK
  5
841A
330
8419
100
AcDbEntity
  8
0
100
AcDbBlockBegin
  2
$MODEL_SPACE
 70
     0
 10
0.0
 20
0.0
 30
0.0
  3
$MODEL_SPACE
  1

  0
ENDBLK
  5
1B
330
8419
100
AcDbEntity
  8
0
100
AcDbBlockEnd
  0
BLOCK
  5
841C
330
841B
100
AcDbEntity
  8
0
100
AcDbBlockBegin
  2
$PAPER_SPACE
 70
     0
 10
0.0
 20
0.0
 30
0.0
  3
$PAPER_SPACE
  1

  0
ENDBLK
  5
18
330
841B
100
AcDbEntity
  8
0
100
AcDbBlockEnd
  0
BLOCK
  5
841E
330
841D
100
AcDbEntity
  8
0
100
AcDbBlockBegin
  2
_OPEN
 70
     0
 10
0.0
 20
0.0
 30
0.0
  3
_OPEN
  1

  0
LINE
  5
79FD
330
841D
100
AcDbEntity
  8
0
  6
ByBlock
 62
     0
100
AcDbLine
 10
-1.0
 20
0.1666666666666666
 30
0.0
 11
0.0
 21
0.0
 31
0.0
  0
LINE
  5
79FE
330
841D
100
AcDbEntity
  8
0
  6
ByBlock
 62
     0
100
AcDbLine
 10
0.0
 20
0.0
 30
0.0
 11
-1.0
 21
-0.1666666666666666
 31
0.0
  0
LINE
  5
79FF
330
841D
100
AcDbEntity
  8
0
  6
ByBlock
 62
     0
100
AcDbLine
 10
0.0
 20
0.0
 30
0.0
 11
-1.0
 21
0.0
 31
0.0
  0
ENDBLK
  5
7A01
330
841D
100
AcDbEntity
  8
0
100
AcDbBlockEnd
  0
BLOCK
  5
8420
330
841F
100
AcDbEntity
  8
0
100
AcDbBlockBegin
  2
YA_N
 70
     0
 10
0.0
 20
0.0
 30
0.0
  3
YA_N
  1

  0
ENDBLK
  5
7A0C
330
841F
100
AcDbEntity
  8
0
100
AcDbBlockEnd
  0
BLOCK
  5
8422
330
8421
100
AcDbEntity
  8
0
100
AcDbBlockBegin
  2
*D4
 70
     1
 10
0.0
 20
0.0
 30
0.0
  3
*D4
  1

  0
LINE
  5
8300
330
8421
100
AcDbEntity
  8
3
 62
     0
100
AcDbLine
 10
1216.494202334008
 20
3706.978022216087
 30
0.0
 11
1216.494202334008
 21
3871.593130659299
 31
0.0
  0
LINE
  5
8301
330
8421
100
AcDbEntity
  8
3
 62
     0
100
AcDbLine
 10
2141.494202334008
 20
3706.978022216087
 30
0.0
 11
2141.494202334008
 21
3871.593130659299
 31
0.0
  0
LINE
  5
8302
330
8421
100
AcDbEntity
  8
3
 62
     0
100
AcDbLine
 10
1276.494202334008
 20
3841.593130659299
 30
0.0
 11
2081.494202334007
 21
3841.593130659299
 31
0.0
  0
INSERT
  5
8303
330
8421
100
AcDbEntity
  8
3
 62
     0
100
AcDbBlockReference
  2
_OPEN
 10
1216.494202334008
 20
3841.593130659299
 30
0.0
 41
60.0
 42
60.0
 43
60.0
 50
180.0
  0
INSERT
  5
8304
330
8421
100
AcDbEntity
  8
3
 62
     0
100
AcDbBlockReference
  2
_OPEN
 10
2141.494202334008
 20
3841.593130659299
 30
0.0
 41
60.0
 42
60.0
 43
60.0
  0
TEXT
  5
838C
330
8421
100
AcDbEntity
  8
3
 62
     0
100
AcDbText
 10
1498.99
 20
3757.29
 30
0.0
 40
90.0
  1
925
100
AcDbText
  0
POINT
  5
8306
330
8421
100
AcDbEntity
  8
DEFPOINTS
 62
     0
100
AcDbPoint
 10
1216.494202334008
 20
3691.978022216089
 30
0.0
  0
POINT
  5
8307
330
8421
100
AcDbEntity
  8
DEFPOINTS
 62
     0
100
AcDbPoint
 10
2141.494202334008
 20
3691.978022216089
 30
0.0
  0
POINT
  5
8308
330
8421
100
AcDbEntity
  8
DEFPOINTS
 62
     0
100
AcDbPoint
 10
2141.494202334008
 20
3841.593130659299
 30
0.0
  0
ENDBLK
  5
8139
330
8421
100
AcDbEntity
  8
0
100
AcDbBlockEnd
  0
BLOCK
  5
8424
330
8423
100
AcDbEntity
  8
0
100
AcDbBlockBegin
  2
*D5
 70
     1
 10
0.0
 20
0.0
 30
0.0
  3
*D5
  1

  0
LINE
  5
8309
330
8423
100
AcDbEntity
  8
3
 62
     0
100
AcDbLine
 10
1216.494202334008
 20
3706.978022216087
 30
0.0
 11
1216.494202334008
 21
4021.936430757161
 31
0.0
  0
LINE
  5
830A
330
8423
100
AcDbEntity
  8
3
 62
     0
100
AcDbLine
 10
2177.494202334008
 20
3743.233360994635
 30
0.0
 11
2177.494202334008
 21
4021.936430757161
 31
0.0
  0
LINE
  5
830B
330
8423
100
AcDbEntity
  8
3
 62
     0
100
AcDbLine
 10
1276.494202334008
 20
3991.936430757161
 30
0.0
 11
2117.494202334007
 21
3991.936430757161
 31
0.0
  0
INSERT
  5
830C
330
8423
100
AcDbEntity
  8
3
 62
     0
100
AcDbBlockReference
  2
_OPEN
 10
1216.494202334008
 20
3991.936430757161
 30
0.0
 41
60.0
 42
60.0
 43
60.0
 50
180.0
  0
INSERT
  5
830D
330
8423
100
AcDbEntity
  8
3
 62
     0
100
AcDbBlockReference
  2
_OPEN
 10
2177.494202334008
 20
3991.936430757161
 30
0.0
 41
60.0
 42
60.0
 43
60.0
  0
TEXT
  5
838D
330
8423
100
AcDbEntity
  8
3
 62
     0
100
AcDbText
 10
1516.99
 20
3907.64
 30
0.0
 40
90.0
  1
961
100
AcDbText
  0
POINT
  5
830F
330
8423
100
AcDbEntity
  8
DEFPOINTS
 62
     0
100
AcDbPoint
 10
1216.494202334008
 20
3691.978022216089
 30
0.0
  0
POINT
  5
8310
330
8423
100
AcDbEntity
  8
DEFPOINTS
 62
     0
100
AcDbPoint
 10
2177.494202334008
 20
3728.233360994634
 30
0.0
  0
POINT
  5
8311
330
8423
100
AcDbEntity
  8
DEFPOINTS
 62
     0
100
AcDbPoint
 10
2177.494202334008
 20
3991.936430757161
 30
0.0
  0
ENDBLK
  5
812E
330
8423
100
AcDbEntity
  8
0
100
AcDbBlockEnd
  0
BLOCK
  5
8426
330
8425
100
AcDbEntity
  8
0
100
AcDbBlockBegin
  2
*D6
 70
     1
 10
0.0
 20
0.0
 30
0.0
  3
*D6
  1

  0
LINE
  5
8312
330
8425
100
AcDbEntity
  8
3
 62
     0
100
AcDbLine
 10
4424.653931325547
 20
3676.436606431396
 30
0.0
 11
4424.653931325547
 21
3873.854893949089
 31
0.0
  0
LINE
  5
8313
330
8425
100
AcDbEntity
  8
3
 62
     0
100
AcDbLine
 10
5544.653931325547
 20
3679.479999769124
 30
0.0
 11
5544.653931325547
 21
3873.854893949089
 31
0.0
  0
LINE
  5
8314
330
8425
100
AcDbEntity
  8
3
 62
     0
100
AcDbLine
 10
4484.653931325547
 20
3843.854893949089
 30
0.0
 11
5484.653931325547
 21
3843.854893949089
 31
0.0
  0
INSERT
  5
8315
330
8425
100
AcDbEntity
  8
3
 62
     0
100
AcDbBlockReference
  2
_OPEN
 10
4424.653931325547
 20
3843.854893949089
 30
0.0
 41
60.0
 42
60.0
 43
60.0
 50
180.0
  0
INSERT
  5
8316
330
8425
100
AcDbEntity
  8
3
 62
     0
100
AcDbBlockReference
  2
_OPEN
 10
5544.653931325547
 20
3843.854893949089
 30
0.0
 41
60.0
 42
60.0
 43
60.0
  0
TEXT
  5
838E
330
8425
100
AcDbEntity
  8
3
 62
     0
100
AcDbText
 10
4804.649999999999
 20
3759.55
 30
0.0
 40
90.0
  1
1120
100
AcDbText
  0
POINT
  5
8318
330
8425
100
AcDbEntity
  8
DEFPOINTS
 62
     0
100
AcDbPoint
 10
4424.653931325547
 20
3661.436606431396
 30
0.0
  0
POINT
  5
8319
330
8425
100
AcDbEntity
  8
DEFPOINTS
 62
     0
100
AcDbPoint
 10
5544.653931325547
 20
3664.479999769124
 30
0.0
  0
POINT
  5
831A
330
8425
100
AcDbEntity
  8
DEFPOINTS
 62
     0
100
AcDbPoint
 10
5544.653931325547
 20
3843.854893949089
 30
0.0
  0
ENDBLK
  5
80F7
330
8425
100
AcDbEntity
  8
0
100
AcDbBlockEnd
  0
BLOCK
  5
8428
330
8427
100
AcDbEntity
  8
0
100
AcDbBlockBegin
  2
*D7
 70
     1
 10
0.0
 20
0.0
 30
0.0
  3
*D7
  1

  0
LINE
  5
831B
330
8427
100
AcDbEntity
  8
3
 62
     0
100
AcDbLine
 10
4086.653931325545
 20
3366.978022216089
 30
0.0
 11
4086.653931325545
 21
4063.408500703403
 31
0.0
  0
LINE
  5
831C
330
8427
100
AcDbEntity
  8
3
 62
     0
100
AcDbLine
 10
4984.653931325547
 20
4003.869590203787
 30
0.0
 11
4984.653931325547
 21
4063.408500703403
 31
0.0
  0
LINE
  5
831D
330
8427
100
AcDbEntity
  8
3
 62
     0
100
AcDbLine
 10
4146.653931325545
 20
4033.408500703401
 30
0.0
 11
4924.653931325547
 21
4033.408500703401
 31
0.0
  0
INSERT
  5
831E
330
8427
100
AcDbEntity
  8
3
 62
     0
100
AcDbBlockReference
  2
_OPEN
 10
4086.653931325545
 20
4033.408500703401
 30
0.0
 41
60.0
 42
60.0
 43
60.0
 50
180.0
  0
INSERT
  5
831F
330
8427
100
AcDbEntity
  8
3
 62
     0
100
AcDbBlockReference
  2
_OPEN
 10
4984.653931325547
 20
4033.408500703401
 30
0.0
 41
60.0
 42
60.0
 43
60.0
  0
TEXT
  5
838F
330
8427
100
AcDbEntity
  8
3
 62
     0
100
AcDbText
 10
4355.649999999999
 20
4024.11
 30
0.0
 40
90.0
  1
MAX
100
AcDbText
  0
TEXT
  5
8390
330
8427
100
AcDbEntity
  8
3
 62
     0
100
AcDbText
 10
4355.649999999999
 20
3907.11
 30
0.0
 40
90.0
  1
920
100
AcDbText
  0
POINT
  5
8321
330
8427
100
AcDbEntity
  8
DEFPOINTS
 62
     0
100
AcDbPoint
 10
4086.653931325545
 20
3351.978022216088
 30
0.0
  0
POINT
  5
8322
330
8427
100
AcDbEntity
  8
DEFPOINTS
 62
     0
100
AcDbPoint
 10
4984.653931325547
 20
3988.869590203789
 30
0.0
  0
POINT
  5
8323
330
8427
100
AcDbEntity
  8
DEFPOINTS
 62
     0
100
AcDbPoint
 10
4984.653931325547
 20
4033.408500703401
 30
0.0
  0
ENDBLK
  5
80EC
330
8427
100
AcDbEntity
  8
0
100
AcDbBlockEnd
  0
BLOCK
  5
842A
330
8429
100
AcDbEntity
  8
0
100
AcDbBlockBegin
  2
*D8
 70
     1
 10
0.0
 20
0.0
 30
0.0
  3
*D8
  1

  0
LINE
  5
8324
330
8429
100
AcDbEntity
  8
3
 62
     0
100
AcDbLine
 10
4984.653931325547
 20
3978.732107357336
 30
0.0
 11
4984.653931325547
 21
4063.408500703403
 31
0.0
  0
LINE
  5
8325
330
8429
100
AcDbEntity
  8
3
 62
     0
100
AcDbLine
 10
5654.153931325545
 20
3047.478022216088
 30
0.0
 11
5654.153931325545
 21
4063.408500703403
 31
0.0
  0
LINE
  5
8326
330
8429
100
AcDbEntity
  8
3
 62
     0
100
AcDbLine
 10
5044.653931325547
 20
4033.408500703401
 30
0.0
 11
5594.153931325545
 21
4033.408500703401
 31
0.0
  0
INSERT
  5
8327
330
8429
100
AcDbEntity
  8
3
 62
     0
100
AcDbBlockReference
  2
_OPEN
 10
4984.653931325547
 20
4033.408500703401
 30
0.0
 41
60.0
 42
60.0
 43
60.0
 50
180.0
  0
INSERT
  5
8328
330
8429
100
AcDbEntity
  8
3
 62
     0
100
AcDbBlockReference
  2
_OPEN
 10
5654.153931325545
 20
4033.408500703401
 30
0.0
 41
60.0
 42
60.0
 43
60.0
  0
TEXT
  5
8391
330
8429
100
AcDbEntity
  8
3
 62
     0
100
AcDbText
 10
5139.4
 20
3972.68
 30
0.0
 40
90.0
  1
(680)
100
AcDbText
  0
POINT
  5
832A
330
8429
100
AcDbEntity
  8
DEFPOINTS
 62
     0
100
AcDbPoint
 10
4984.653931325547
 20
3963.732107357337
 30
0.0
  0
POINT
  5
832B
330
8429
100
AcDbEntity
  8
DEFPOINTS
 62
     0
100
AcDbPoint
 10
5654.153931325545
 20
3032.478022216089
 30
0.0
  0
POINT
  5
832C
330
8429
100
AcDbEntity
  8
DEFPOINTS
 62
     0
100
AcDbPoint
 10
5654.153931325545
 20
4033.408500703401
 30
0.0
  0
ENDBLK
  5
80E1
330
8429
100
AcDbEntity
  8
0
100
AcDbBlockEnd
  0
BLOCK
  5
842C
330
842B
100
AcDbEntity
  8
0
100
AcDbBlockBegin
  2
*D9
 70
     1
 10
0.0
 20
0.0
 30
0.0
  3
*D9
  1

  0
LINE
  5
832D
330
842B
100
AcDbEntity
  8
3
 62
     0
100
AcDbLine
 10
867.4942023340097
 20
5556.676946236008
 30
0.0
 11
867.4942023340097
 21
6448.691604741229
 31
0.0
  0
LINE
  5
832E
330
842B
100
AcDbEntity
  8
3
 62
     0
100
AcDbLine
 10
1617.49420233401
 20
6131.676946236007
 30
0.0
 11
1617.49420233401
 21
6448.691604741229
 31
0.0
  0
LINE
  5
832F
330
842B
100
AcDbEntity
  8
3
 62
     0
100
AcDbLine
 10
927.4942023340098
 20
6418.691604741228
 30
0.0
 11
1557.49420233401
 21
6418.691604741228
 31
0.0
  0
INSERT
  5
8330
330
842B
100
AcDbEntity
  8
3
 62
     0
100
AcDbBlockReference
  2
_OPEN
 10
867.4942023340097
 20
6418.691604741228
 30
0.0
 41
60.0
 42
60.0
 43
60.0
 50
180.0
  0
INSERT
  5
8331
330
842B
100
AcDbEntity
  8
3
 62
     0
100
AcDbBlockReference
  2
_OPEN
 10
1617.49420233401
 20
6418.691604741228
 30
0.0
 41
60.0
 42
60.0
 43
60.0
  0
TEXT
  5
8392
330
842B
100
AcDbEntity
  8
3
 62
     0
100
AcDbText
 10
1062.49
 20
6334.39
 30
0.0
 40
90.0
  1
750
100
AcDbText
  0
POINT
  5
8333
330
842B
100
AcDbEntity
  8
DEFPOINTS
 62
     0
100
AcDbPoint
 10
867.4942023340097
 20
5541.676946236008
 30
0.0
  0
POINT
  5
8334
330
842B
100
AcDbEntity
  8
DEFPOINTS
 62
     0
100
AcDbPoint
 10
1617.49420233401
 20
6116.676946236007
 30
0.0
  0
POINT
  5
8335
330
842B
100
AcDbEntity
  8
DEFPOINTS
 62
     0
100
AcDbPoint
 10
1617.49420233401
 20
6418.691604741228
 30
0.0
  0
ENDBLK
  5
80D6
330
842B
100
AcDbEntity
  8
0
100
AcDbBlockEnd
  0
BLOCK
  5
842E
330
842D
100
AcDbEntity
  8
0
100
AcDbBlockBegin
  2
*D10
 70
     1
 10
0.0
 20
0.0
 30
0.0
  3
*D10
  1

  0
LINE
  5
8336
330
842D
100
AcDbEntity
  8
3
 62
     0
100
AcDbLine
 10
1617.49420233401
 20
6131.676946236007
 30
0.0
 11
1617.49420233401
 21
6448.691604741229
 31
0.0
  0
LINE
  5
8337
330
842D
100
AcDbEntity
  8
3
 62
     0
100
AcDbLine
 10
2737.494202334008
 20
6131.676946236006
 30
0.0
 11
2737.494202334008
 21
6448.691604741229
 31
0.0
  0
LINE
  5
8338
330
842D
100
AcDbEntity
  8
3
 62
     0
100
AcDbLine
 10
1677.49420233401
 20
6418.691604741228
 30
0.0
 11
2677.494202334009
 21
6418.691604741228
 31
0.0
  0
INSERT
  5
8339
330
842D
100
AcDbEntity
  8
3
 62
     0
100
AcDbBlockReference
  2
_OPEN
 10
1617.49420233401
 20
6418.691604741228
 30
0.0
 41
60.0
 42
60.0
 43
60.0
 50
180.0
  0
INSERT
  5
833A
330
842D
100
AcDbEntity
  8
3
 62
     0
100
AcDbBlockReference
  2
_OPEN
 10
2737.494202334008
 20
6418.691604741228
 30
0.0
 41
60.0
 42
60.0
 43
60.0
  0
TEXT
  5
8393
330
842D
100
AcDbEntity
  8
3
 62
     0
100
AcDbText
 10
1997.49
 20
6334.39
 30
0.0
 40
90.0
  1
1120
100
AcDbText
  0
POINT
  5
833C
330
842D
100
AcDbEntity
  8
DEFPOINTS
 62
     0
100
AcDbPoint
 10
1617.49420233401
 20
6116.676946236007
 30
0.0
  0
POINT
  5
833D
330
842D
100
AcDbEntity
  8
DEFPOINTS
 62
     0
100
AcDbPoint
 10
2737.494202334008
 20
6116.676946236006
 30
0.0
  0
POINT
  5
833E
330
842D
100
AcDbEntity
  8
DEFPOINTS
 62
     0
100
AcDbPoint
 10
2737.494202334008
 20
6418.691604741228
 30
0.0
  0
ENDBLK
  5
80CB
330
842D
100
AcDbEntity
  8
0
100
AcDbBlockEnd
  0
BLOCK
  5
8430
330
842F
100
AcDbEntity
  8
0
100
AcDbBlockBegin
  2
*D11
 70
     1
 10
0.0
 20
0.0
 30
0.0
  3
*D11
  1

  0
LINE
  5
833F
330
842F
100
AcDbEntity
  8
3
 62
     0
100
AcDbLine
 10
2752.494202334009
 20
6116.676946236006
 30
0.0
 11
3067.918424500427
 21
6116.676946236006
 31
0.0
  0
LINE
  5
8340
330
842F
100
AcDbEntity
  8
3
 62
     0
100
AcDbLine
 10
2752.494202334009
 20
4741.676946236006
 30
0.0
 11
3067.918424500425
 21
4741.676946236006
 31
0.0
  0
LINE
  5
8341
330
842F
100
AcDbEntity
  8
3
 62
     0
100
AcDbLine
 10
3037.918424500425
 20
6056.676946236006
 30
0.0
 11
3037.918424500425
 21
4801.676946236006
 31
0.0
  0
INSERT
  5
8342
330
842F
100
AcDbEntity
  8
3
 62
     0
100
AcDbBlockReference
  2
_OPEN
 10
3037.918424500425
 20
6116.676946236006
 30
0.0
 41
60.0
 42
60.0
 43
60.0
 50
90.0
  0
INSERT
  5
8343
330
842F
100
AcDbEntity
  8
3
 62
     0
100
AcDbBlockReference
  2
_OPEN
 10
3037.918424500425
 20
4741.676946236006
 30
0.0
 41
60.0
 42
60.0
 43
60.0
 50
270.0
  0
TEXT
  5
8394
330
842F
100
AcDbEntity
  8
3
 62
     0
100
AcDbText
 10
2782.92
 20
5269.88
 30
0.0
 40
90.0
  1
1375
100
AcDbText
  0
POINT
  5
8345
330
842F
100
AcDbEntity
  8
DEFPOINTS
 62
     0
100
AcDbPoint
 10
2737.494202334008
 20
6116.676946236006
 30
0.0
  0
POINT
  5
8346
330
842F
100
AcDbEntity
  8
DEFPOINTS
 62
     0
100
AcDbPoint
 10
2737.49420233401
 20
4741.676946236006
 30
0.0
  0
POINT
  5
8347
330
842F
100
AcDbEntity
  8
DEFPOINTS
 62
     0
100
AcDbPoint
 10
3037.918424500425
 20
4741.676946236006
 30
0.0
  0
ENDBLK
  5
80C0
330
842F
100
AcDbEntity
  8
0
100
AcDbBlockEnd
  0
BLOCK
  5
8432
330
8431
100
AcDbEntity
  8
0
100
AcDbBlockBegin
  2
*D12
 70
     1
 10
0.0
 20
0.0
 30
0.0
  3
*D12
  1

  0
LINE
  5
8348
330
8431
100
AcDbEntity
  8
3
 62
     0
100
AcDbLine
 10
867.4942023340097
 20
4726.676946236006
 30
0.0
 11
867.4942023340097
 21
4404.529786753934
 31
0.0
  0
LINE
  5
8349
330
8431
100
AcDbEntity
  8
3
 62
     0
100
AcDbLine
 10
2737.49420233401
 20
4726.676946236006
 30
0.0
 11
2737.49420233401
 21
4404.529786753934
 31
0.0
  0
LINE
  5
834A
330
8431
100
AcDbEntity
  8
3
 62
     0
100
AcDbLine
 10
927.4942023340098
 20
4434.529786753933
 30
0.0
 11
2677.49420233401
 21
4434.529786753933
 31
0.0
  0
INSERT
  5
834B
330
8431
100
AcDbEntity
  8
3
 62
     0
100
AcDbBlockReference
  2
_OPEN
 10
867.4942023340097
 20
4434.529786753933
 30
0.0
 41
60.0
 42
60.0
 43
60.0
 50
180.0
  0
INSERT
  5
834C
330
8431
100
AcDbEntity
  8
3
 62
     0
100
AcDbBlockReference
  2
_OPEN
 10
2737.49420233401
 20
4434.529786753933
 30
0.0
 41
60.0
 42
60.0
 43
60.0
  0
TEXT
  5
8395
330
8431
100
AcDbEntity
  8
3
 62
     0
100
AcDbText
 10
1622.49
 20
4350.229999999999
 30
0.0
 40
90.0
  1
1870
100
AcDbText
  0
POINT
  5
834E
330
8431
100
AcDbEntity
  8
DEFPOINTS
 62
     0
100
AcDbPoint
 10
867.4942023340097
 20
4741.676946236006
 30
0.0
  0
POINT
  5
834F
330
8431
100
AcDbEntity
  8
DEFPOINTS
 62
     0
100
AcDbPoint
 10
2737.49420233401
 20
4741.676946236006
 30
0.0
  0
POINT
  5
8350
330
8431
100
AcDbEntity
  8
DEFPOINTS
 62
     0
100
AcDbPoint
 10
2737.49420233401
 20
4434.529786753933
 30
0.0
  0
ENDBLK
  5
80B5
330
8431
100
AcDbEntity
  8
0
100
AcDbBlockEnd
  0
BLOCK
  5
8434
330
8433
100
AcDbEntity
  8
0
100
AcDbBlockBegin
  2
*D13
 70
     1
 10
0.0
 20
0.0
 30
0.0
  3
*D13
  1

  0
LINE
  5
8351
330
8433
100
AcDbEntity
  8
3
 62
     0
100
AcDbLine
 10
852.4942023340097
 20
5541.676946236008
 30
0.0
 11
647.6426948674745
 21
5541.676946236008
 31
0.0
  0
LINE
  5
8352
330
8433
100
AcDbEntity
  8
3
 62
     0
100
AcDbLine
 10
852.4942023340097
 20
4741.676946236006
 30
0.0
 11
647.6426948674743
 21
4741.676946236006
 31
0.0
  0
LINE
  5
8353
330
8433
100
AcDbEntity
  8
3
 62
     0
100
AcDbLine
 10
677.6426948674745
 20
5481.676946236007
 30
0.0
 11
677.6426948674743
 21
4801.676946236006
 31
0.0
  0
INSERT
  5
8354
330
8433
100
AcDbEntity
  8
3
 62
     0
100
AcDbBlockReference
  2
_OPEN
 10
677.6426948674745
 20
5541.676946236008
 30
0.0
 41
60.0
 42
60.0
 43
60.0
 50
90.0
  0
INSERT
  5
8355
330
8433
100
AcDbEntity
  8
3
 62
     0
100
AcDbBlockReference
  2
_OPEN
 10
677.6426948674743
 20
4741.676946236006
 30
0.0
 41
60.0
 42
60.0
 43
60.0
 50
270.0
  0
TEXT
  5
8396
330
8433
100
AcDbEntity
  8
3
 62
     0
100
AcDbText
 10
422.643
 20
4982.38
 30
0.0
 40
90.0
  1
800
100
AcDbText
  0
POINT
  5
8357
330
8433
100
AcDbEntity
  8
DEFPOINTS
 62
     0
100
AcDbPoint
 10
867.4942023340097
 20
5541.676946236008
 30
0.0
  0
POINT
  5
8358
330
8433
100
AcDbEntity
  8
DEFPOINTS
 62
     0
100
AcDbPoint
 10
867.4942023340097
 20
4741.676946236006
 30
0.0
  0
POINT
  5
8359
330
8433
100
AcDbEntity
  8
DEFPOINTS
 62
     0
100
AcDbPoint
 10
677.6426948674743
 20
4741.676946236006
 30
0.0
  0
ENDBLK
  5
80AA
330
8433
100
AcDbEntity
  8
0
100
AcDbBlockEnd
  0
BLOCK
  5
8436
330
8435
100
AcDbEntity
  8
0
100
AcDbBlockBegin
  2
*D14
 70
     1
 10
0.0
 20
0.0
 30
0.0
  3
*D14
  1

  0
LINE
  5
835A
330
8435
100
AcDbEntity
  8
3
 62
     0
100
AcDbLine
 10
5565.153931325546
 20
2596.978022216088
 30
0.0
 11
5898.544925153682
 21
2596.978022216088
 31
0.0
  0
LINE
  5
835B
330
8435
100
AcDbEntity
  8
3
 62
     0
100
AcDbLine
 10
5565.153931325546
 20
3546.978022216087
 30
0.0
 11
5898.544925153682
 21
3546.978022216087
 31
0.0
  0
LINE
  5
835C
330
8435
100
AcDbEntity
  8
3
 62
     0
100
AcDbLine
 10
5868.544925153682
 20
2656.978022216088
 30
0.0
 11
5868.544925153682
 21
3486.978022216089
 31
0.0
  0
INSERT
  5
835D
330
8435
100
AcDbEntity
  8
3
 62
     0
100
AcDbBlockReference
  2
_OPEN
 10
5868.544925153682
 20
2596.978022216088
 30
0.0
 41
60.0
 42
60.0
 43
60.0
 50
270.0
  0
INSERT
  5
835E
330
8435
100
AcDbEntity
  8
3
 62
     0
100
AcDbBlockReference
  2
_OPEN
 10
5868.544925153682
 20
3546.978022216087
 30
0.0
 41
60.0
 42
60.0
 43
60.0
 50
90.0
  0
TEXT
  5
8397
330
8435
100
AcDbEntity
  8
3
 62
     0
100
AcDbText
 10
5613.54
 20
2912.68
 30
0.0
 40
90.0
  1
\U+03C6950
100
AcDbText
  0
POINT
  5
8360
330
8435
100
AcDbEntity
  8
DEFPOINTS
 62
     0
100
AcDbPoint
 10
5550.153931325547
 20
2596.978022216088
 30
0.0
  0
POINT
  5
8361
330
8435
100
AcDbEntity
  8
DEFPOINTS
 62
     0
100
AcDbPoint
 10
5550.153931325547
 20
3546.978022216087
 30
0.0
  0
POINT
  5
8362
330
8435
100
AcDbEntity
  8
DEFPOINTS
 62
     0
100
AcDbPoint
 10
5868.544925153682
 20
3546.978022216087
 30
0.0
  0
ENDBLK
  5
809F
330
8435
100
AcDbEntity
  8
0
100
AcDbBlockEnd
  0
BLOCK
  5
8438
330
8437
100
AcDbEntity
  8
0
100
AcDbBlockBegin
  2
*D15
 70
     1
 10
0.0
 20
0.0
 30
0.0
  3
*D15
  1

  0
LINE
  5
8363
330
8437
100
AcDbEntity
  8
3
 62
     0
100
AcDbLine
 10
2198.994202334008
 20
3691.978022216089
 30
0.0
 11
3075.431187629272
 21
3691.978022216087
 31
0.0
  0
LINE
  5
8364
330
8437
100
AcDbEntity
  8
3
 62
     0
100
AcDbLine
 10
2848.749541112555
 20
3071.978022216089
 30
0.0
 11
3075.43118762927
 21
3071.978022216087
 31
0.0
  0
LINE
  5
8365
330
8437
100
AcDbEntity
  8
3
 62
     0
100
AcDbLine
 10
3045.431187629271
 20
3631.978022216089
 30
0.0
 11
3045.431187629271
 21
3131.978022216089
 31
0.0
  0
INSERT
  5
8366
330
8437
100
AcDbEntity
  8
3
 62
     0
100
AcDbBlockReference
  2
_OPEN
 10
3045.431187629271
 20
3691.978022216089
 30
0.0
 41
60.0
 42
60.0
 43
60.0
 50
90.0
  0
INSERT
  5
8367
330
8437
100
AcDbEntity
  8
3
 62
     0
100
AcDbBlockReference
  2
_OPEN
 10
3045.431187629271
 20
3071.978022216089
 30
0.0
 41
60.0
 42
60.0
 43
60.0
 50
270.0
  0
TEXT
  5
8398
330
8437
100
AcDbEntity
  8
3
 62
     0
100
AcDbText
 10
2790.43
 20
3222.68
 30
0.0
 40
90.0
  1
620
100
AcDbText
  0
POINT
  5
8369
330
8437
100
AcDbEntity
  8
DEFPOINTS
 62
     0
100
AcDbPoint
 10
2183.994202334008
 20
3691.978022216089
 30
0.0
  0
POINT
  5
836A
330
8437
100
AcDbEntity
  8
DEFPOINTS
 62
     0
100
AcDbPoint
 10
2833.749541112554
 20
3071.978022216089
 30
0.0
  0
POINT
  5
836B
330
8437
100
AcDbEntity
  8
DEFPOINTS
 62
     0
100
AcDbPoint
 10
3045.431187629271
 20
3071.978022216089
 30
0.0
  0
ENDBLK
  5
8094
330
8437
100
AcDbEntity
  8
0
100
AcDbBlockEnd
  0
BLOCK
  5
843A
330
8439
100
AcDbEntity
  8
0
100
AcDbBlockBegin
  2
*D16
 70
     1
 10
0.0
 20
0.0
 30
0.0
  3
*D16
  1

  0
LINE
  5
836C
330
8439
100
AcDbEntity
  8
3
 62
     0
100
AcDbLine
 10
2848.749541112555
 20
3071.978022216089
 30
0.0
 11
3075.43118762927
 21
3071.978022216087
 31
0.0
  0
LINE
  5
836D
330
8439
100
AcDbEntity
  8
3
 62
     0
100
AcDbLine
 10
2752.494202334008
 20
2251.978022216087
 30
0.0
 11
3075.43118762927
 21
2251.978022216087
 31
0.0
  0
LINE
  5
836E
330
8439
100
AcDbEntity
  8
3
 62
     0
100
AcDbLine
 10
3045.431187629271
 20
3011.978022216089
 30
0.0
 11
3045.431187629271
 21
2311.978022216087
 31
0.0
  0
INSERT
  5
836F
330
8439
100
AcDbEntity
  8
3
 62
     0
100
AcDbBlockReference
  2
_OPEN
 10
3045.431187629271
 20
3071.978022216089
 30
0.0
 41
60.0
 42
60.0
 43
60.0
 50
90.0
  0
INSERT
  5
8370
330
8439
100
AcDbEntity
  8
3
 62
     0
100
AcDbBlockReference
  2
_OPEN
 10
3045.431187629271
 20
2251.978022216087
 30
0.0
 41
60.0
 42
60.0
 43
60.0
 50
270.0
  0
TEXT
  5
8399
330
8439
100
AcDbEntity
  8
3
 62
     0
100
AcDbText
 10
2790.43
 20
2502.68
 30
0.0
 40
90.0
  1
820
100
AcDbText
  0
POINT
  5
8372
330
8439
100
AcDbEntity
  8
DEFPOINTS
 62
     0
100
AcDbPoint
 10
2833.749541112554
 20
3071.978022216089
 30
0.0
  0
POINT
  5
8373
330
8439
100
AcDbEntity
  8
DEFPOINTS
 62
     0
100
AcDbPoint
 10
2737.494202334008
 20
2251.978022216087
 30
0.0
  0
POINT
  5
8374
330
8439
100
AcDbEntity
  8
DEFPOINTS
 62
     0
100
AcDbPoint
 10
3045.431187629271
 20
2251.978022216087
 30
0.0
  0
ENDBLK
  5
8089
330
8439
100
AcDbEntity
  8
0
100
AcDbBlockEnd
  0
BLOCK
  5
843C
330
843B
100
AcDbEntity
  8
0
100
AcDbBlockBegin
  2
*D17
 70
     1
 10
0.0
 20
0.0
 30
0.0
  3
*D17
  1

  0
LINE
  5
8375
330
843B
100
AcDbEntity
  8
3
 62
     0
100
AcDbLine
 10
2752.494202334009
 20
2136.978022216088
 30
0.0
 11
3075.43118762927
 21
2136.978022216088
 31
0.0
  0
LINE
  5
8376
330
843B
100
AcDbEntity
  8
3
 62
     0
100
AcDbLine
 10
2752.494202334009
 20
2036.978022216088
 30
0.0
 11
3075.43118762927
 21
2036.978022216088
 31
0.0
  0
LINE
  5
8377
330
843B
100
AcDbEntity
  8
3
 62
     0
100
AcDbLine
 10
3045.431187629271
 20
2196.978022216088
 30
0.0
 11
3045.431187629271
 21
2256.978022216088
 31
0.0
  0
LINE
  5
8378
330
843B
100
AcDbEntity
  8
3
 62
     0
100
AcDbLine
 10
3045.431187629271
 20
1976.978022216087
 30
0.0
 11
3045.431187629271
 21
1642.692307930373
 31
0.0
  0
LINE
  5
8379
330
843B
100
AcDbEntity
  8
3
 62
     0
100
AcDbLine
 10
3045.431187629271
 20
2136.978022216088
 30
0.0
 11
3045.431187629271
 21
2036.978022216088
 31
0.0
  0
INSERT
  5
837A
330
843B
100
AcDbEntity
  8
3
 62
     0
100
AcDbBlockReference
  2
_DOT
 10
3045.431187629271
 20
2136.978022216088
 30
0.0
 41
60.0
 42
60.0
 43
60.0
 50
270.0
  0
INSERT
  5
837B
330
843B
100
AcDbEntity
  8
3
 62
     0
100
AcDbBlockReference
  2
_OPEN
 10
3045.431187629271
 20
2036.978022216088
 30
0.0
 41
60.0
 42
60.0
 43
60.0
 50
90.0
  0
TEXT
  5
839A
330
843B
100
AcDbEntity
  8
3
 62
     0
100
AcDbText
 10
2790.43
 20
1620.54
 30
0.0
 40
90.0
  1
100
100
AcDbText
  0
POINT
  5
837D
330
843B
100
AcDbEntity
  8
DEFPOINTS
 62
     0
100
AcDbPoint
 10
2737.49420233401
 20
2136.978022216088
 30
0.0
  0
POINT
  5
837E
330
843B
100
AcDbEntity
  8
DEFPOINTS
 62
     0
100
AcDbPoint
 10
2737.49420233401
 20
2036.978022216088
 30
0.0
  0
POINT
  5
837F
330
843B
100
AcDbEntity
  8
DEFPOINTS
 62
     0
100
AcDbPoint
 10
3045.431187629271
 20
2036.978022216088
 30
0.0
  0
ENDBLK
  5
8187
330
843B
100
AcDbEntity
  8
0
100
AcDbBlockEnd
  0
BLOCK
  5
8440
330
843D
100
AcDbEntity
  8
0
100
AcDbBlockBegin
  2
_DOT
 70
     0
 10
0.0
 20
0.0
 30
0.0
  3
_DOT
  1

  0
LWPOLYLINE
  5
7FC1
330
843D
100
AcDbEntity
  8
0
  6
ByBlock
 62
     0
100
AcDbPolyline
 90
        2
 70
     1
 43
0.25
 10
-0.125
 20
0.0
 42
1.0
 10
0.125
 20
0.0
 42
1.0
  0
LINE
  5
7FC5
330
843D
100
AcDbEntity
  8
0
  6
ByBlock
 62
     0
100
AcDbLine
 10
-0.25
 20
0.0
 30
0.0
 11
-1.0
 21
0.0
 31
0.0
  0
ENDBLK
  5
7FA4
330
843D
100
AcDbEntity
  8
0
100
AcDbBlockEnd
  0
BLOCK
  5
843F
330
843E
100
AcDbEntity
  8
0
100
AcDbBlockBegin
  2
*D19
 70
     1
 10
0.0
 20
0.0
 30
0.0
  3
*D19
  1

  0
LINE
  5
8380
330
843E
100
AcDbEntity
  8
3
 62
     0
100
AcDbLine
 10
2177.494202334008
 20
3743.233360994635
 30
0.0
 11
2177.494202334008
 21
4021.936430757161
 31
0.0
  0
LINE
  5
8381
330
843E
100
AcDbEntity
  8
3
 62
     0
100
AcDbLine
 10
2820.494202334008
 20
3019.978022216089
 30
0.0
 11
2820.494202334008
 21
4021.936430757161
 31
0.0
  0
LINE
  5
8382
330
843E
100
AcDbEntity
  8
3
 62
     0
100
AcDbLine
 10
2237.494202334008
 20
3991.936430757161
 30
0.0
 11
2760.494202334009
 21
3991.936430757161
 31
0.0
  0
INSERT
  5
8383
330
843E
100
AcDbEntity
  8
3
 62
     0
100
AcDbBlockReference
  2
_OPEN
 10
2177.494202334008
 20
3991.936430757161
 30
0.0
 41
60.0
 42
60.0
 43
60.0
 50
180.0
  0
INSERT
  5
8384
330
843E
100
AcDbEntity
  8
3
 62
     0
100
AcDbBlockReference
  2
_OPEN
 10
2820.494202334008
 20
3991.936430757161
 30
0.0
 41
60.0
 42
60.0
 43
60.0
  0
TEXT
  5
839B
330
843E
100
AcDbEntity
  8
3
 62
     0
100
AcDbText
 10
2318.99
 20
3907.64
 30
0.0
 40
90.0
  1
643
100
AcDbText
  0
POINT
  5
8386
330
843E
100
AcDbEntity
  8
DEFPOINTS
 62
     0
100
AcDbPoint
 10
2177.494202334008
 20
3728.233360994634
 30
0.0
  0
POINT
  5
8387
330
843E
100
AcDbEntity
  8
DEFPOINTS
 62
     0
100
AcDbPoint
 10
2820.494202334008
 20
3004.978022216088
 30
0.0
  0
POINT
  5
8388
330
843E
100
AcDbEntity
  8
DEFPOINTS
 62
     0
100
AcDbPoint
 10
2820.494202334008
 20
3991.936430757161
 30
0.0
  0
ENDBLK
  5
8059
330
843E
100
AcDbEntity
  8
0
100
AcDbBlockEnd
  0
BLOCK
  5
8442
330
8441
100
AcDbEntity
  8
0
100
AcDbBlockBegin
  2
*D20
 70
     1
 10
0.0
 20
0.0
 30
0.0
  3
*D20
  1

  0
LINE
  5
8192
330
8441
100
AcDbEntity
  8
0
  6
ByBlock
 62
     0
100
AcDbLine
 10
867.4942023340081
 20
2094.978022216087
 30
0.0
 11
867.4942023340081
 21
1906.61370258695
 31
0.0
  0
LINE
  5
8193
330
8441
100
AcDbEntity
  8
0
  6
ByBlock
 62
     0
100
AcDbLine
 10
2177.494202334008
 20
2094.978022216087
 30
0.0
 11
2177.494202334008
 21
1906.61370258695
 31
0.0
  0
LINE
  5
8194
330
8441
100
AcDbEntity
  8
0
  6
ByBlock
 62
     0
100
AcDbLine
 10
927.4942023340081
 20
1936.61370258695
 30
0.0
 11
2117.494202334007
 21
1936.61370258695
 31
0.0
  0
INSERT
  5
8195
330
8441
100
AcDbEntity
  8
0
  6
ByBlock
 62
     0
100
AcDbBlockReference
  2
_OPEN
 10
867.4942023340081
 20
1936.61370258695
 30
0.0
 41
60.0
 42
60.0
 43
60.0
 50
180.0
  0
INSERT
  5
8196
330
8441
100
AcDbEntity
  8
0
  6
ByBlock
 62
     0
100
AcDbBlockReference
  2
_OPEN
 10
2177.494202334008
 20
1936.61370258695
 30
0.0
 41
60.0
 42
60.0
 43
60.0
  0
TEXT
  5
8197
330
8441
100
AcDbEntity
  8
3
 62
     0
100
AcDbText
 10
1381.065630905436
 20
1966.61370258695
 30
0.0
 40
90.0
  1
1310
100
AcDbText
  0
POINT
  5
8198
330
8441
100
AcDbEntity
  8
DEFPOINTS
  6
ByBlock
 62
     0
100
AcDbPoint
 10
867.4942023340081
 20
2124.978022216088
 30
0.0
  0
POINT
  5
8199
330
8441
100
AcDbEntity
  8
DEFPOINTS
  6
ByBlock
 62
     0
100
AcDbPoint
 10
2177.494202334008
 20
2124.978022216088
 30
0.0
  0
POINT
  5
819A
330
8441
100
AcDbEntity
  8
DEFPOINTS
  6
ByBlock
 62
     0
100
AcDbPoint
 10
2177.494202334008
 20
1936.61370258695
 30
0.0
  0
ENDBLK
  5
819B
330
8441
100
AcDbEntity
  8
0
100
AcDbBlockEnd
  0
BLOCK
  5
8444
330
8443
100
AcDbEntity
  8
0
100
AcDbBlockBegin
  2
*D21
 70
     1
 10
0.0
 20
0.0
 30
0.0
  3
*D21
  1

  0
LINE
  5
819F
330
8443
100
AcDbEntity
  8
0
  6
ByBlock
 62
     0
100
AcDbLine
 10
2177.494202334008
 20
2094.978022216087
 30
0.0
 11
2177.494202334008
 21
1906.61370258695
 31
0.0
  0
LINE
  5
81A0
330
8443
100
AcDbEntity
  8
0
  6
ByBlock
 62
     0
100
AcDbLine
 10
2737.49420233401
 20
2094.978022216087
 30
0.0
 11
2737.49420233401
 21
1906.61370258695
 31
0.0
  0
LINE
  5
81A1
330
8443
100
AcDbEntity
  8
0
  6
ByBlock
 62
     0
100
AcDbLine
 10
2237.494202334008
 20
1936.61370258695
 30
0.0
 11
2677.49420233401
 21
1936.61370258695
 31
0.0
  0
INSERT
  5
81A2
330
8443
100
AcDbEntity
  8
0
  6
ByBlock
 62
     0
100
AcDbBlockReference
  2
_OPEN
 10
2177.494202334008
 20
1936.61370258695
 30
0.0
 41
60.0
 42
60.0
 43
60.0
 50
180.0
  0
INSERT
  5
81A3
330
8443
100
AcDbEntity
  8
0
  6
ByBlock
 62
     0
100
AcDbBlockReference
  2
_OPEN
 10
2737.49420233401
 20
1936.61370258695
 30
0.0
 41
60.0
 42
60.0
 43
60.0
  0
TEXT
  5
81A4
330
8443
100
AcDbEntity
  8
3
 62
     0
100
AcDbText
 10
2341.779916619723
 20
1966.61370258695
 30
0.0
 40
90.0
  1
560
100
AcDbText
  0
POINT
  5
81A5
330
8443
100
AcDbEntity
  8
DEFPOINTS
  6
ByBlock
 62
     0
100
AcDbPoint
 10
2177.494202334008
 20
2124.978022216088
 30
0.0
  0
POINT
  5
81A6
330
8443
100
AcDbEntity
  8
DEFPOINTS
  6
ByBlock
 62
     0
100
AcDbPoint
 10
2737.49420233401
 20
2124.978022216088
 30
0.0
  0
POINT
  5
81A7
330
8443
100
AcDbEntity
  8
DEFPOINTS
  6
ByBlock
 62
     0
100
AcDbPoint
 10
2737.49420233401
 20
1936.61370258695
 30
0.0
  0
ENDBLK
  5
81A8
330
8443
100
AcDbEntity
  8
0
100
AcDbBlockEnd
  0
BLOCK
  5
8446
330
8445
100
AcDbEntity
  8
0
100
AcDbBlockBegin
  2
*D22
 70
     1
 10
0.0
 20
0.0
 30
0.0
  3
*D22
  1

  0
LINE
  5
81AC
330
8445
100
AcDbEntity
  8
0
  6
ByBlock
 62
     0
100
AcDbLine
 10
4222.653931325547
 20
2094.978022216087
 30
0.0
 11
4222.653931325547
 21
1906.61370258695
 31
0.0
  0
LINE
  5
81AD
330
8445
100
AcDbEntity
  8
0
  6
ByBlock
 62
     0
100
AcDbLine
 10
4984.653931325546
 20
2094.978022216087
 30
0.0
 11
4984.653931325546
 21
1906.61370258695
 31
0.0
  0
LINE
  5
81AE
330
8445
100
AcDbEntity
  8
0
  6
ByBlock
 62
     0
100
AcDbLine
 10
4282.653931325547
 20
1936.61370258695
 30
0.0
 11
4924.653931325545
 21
1936.61370258695
 31
0.0
  0
INSERT
  5
81AF
330
8445
100
AcDbEntity
  8
0
  6
ByBlock
 62
     0
100
AcDbBlockReference
  2
_OPEN
 10
4222.653931325547
 20
1936.61370258695
 30
0.0
 41
60.0
 42
60.0
 43
60.0
 50
180.0
  0
INSERT
  5
81B0
330
8445
100
AcDbEntity
  8
0
  6
ByBlock
 62
     0
100
AcDbBlockReference
  2
_OPEN
 10
4984.653931325546
 20
1936.61370258695
 30
0.0
 41
60.0
 42
60.0
 43
60.0
  0
TEXT
  5
81B1
330
8445
100
AcDbEntity
  8
3
 62
     0
100
AcDbText
 10
4487.939645611261
 20
1966.61370258695
 30
0.0
 40
90.0
  1
762
100
AcDbText
  0
POINT
  5
81B2
330
8445
100
AcDbEntity
  8
DEFPOINTS
  6
ByBlock
 62
     0
100
AcDbPoint
 10
4222.653931325547
 20
2124.978022216088
 30
0.0
  0
POINT
  5
81B3
330
8445
100
AcDbEntity
  8
DEFPOINTS
  6
ByBlock
 62
     0
100
AcDbPoint
 10
4984.653931325546
 20
2124.978022216088
 30
0.0
  0
POINT
  5
81B4
330
8445
100
AcDbEntity
  8
DEFPOINTS
  6
ByBlock
 62
     0
100
AcDbPoint
 10
4984.653931325546
 20
1936.61370258695
 30
0.0
  0
ENDBLK
  5
81B5
330
8445
100
AcDbEntity
  8
0
100
AcDbBlockEnd
  0
BLOCK
  5
8448
330
8447
100
AcDbEntity
  8
0
100
AcDbBlockBegin
  2
*D23
 70
     1
 10
0.0
 20
0.0
 30
0.0
  3
*D23
  1

  0
LINE
  5
81B9
330
8447
100
AcDbEntity
  8
0
  6
ByBlock
 62
     0
100
AcDbLine
 10
4984.653931325546
 20
2094.978022216087
 30
0.0
 11
4984.653931325546
 21
1906.61370258695
 31
0.0
  0
LINE
  5
81BA
330
8447
100
AcDbEntity
  8
0
  6
ByBlock
 62
     0
100
AcDbLine
 10
5597.653931325547
 20
2094.978022216087
 30
0.0
 11
5597.653931325547
 21
1906.61370258695
 31
0.0
  0
LINE
  5
81BB
330
8447
100
AcDbEntity
  8
0
  6
ByBlock
 62
     0
100
AcDbLine
 10
5044.653931325545
 20
1936.61370258695
 30
0.0
 11
5537.653931325547
 21
1936.61370258695
 31
0.0
  0
INSERT
  5
81BC
330
8447
100
AcDbEntity
  8
0
  6
ByBlock
 62
     0
100
AcDbBlockReference
  2
_OPEN
 10
4984.653931325546
 20
1936.61370258695
 30
0.0
 41
60.0
 42
60.0
 43
60.0
 50
180.0
  0
INSERT
  5
81BD
330
8447
100
AcDbEntity
  8
0
  6
ByBlock
 62
     0
100
AcDbBlockReference
  2
_OPEN
 10
5597.653931325547
 20
1936.61370258695
 30
0.0
 41
60.0
 42
60.0
 43
60.0
  0
TEXT
  5
81BE
330
8447
100
AcDbEntity
  8
3
 62
     0
100
AcDbText
 10
5184.011074182689
 20
1966.61370258695
 30
0.0
 40
90.0
  1
613
100
AcDbText
  0
POINT
  5
81BF
330
8447
100
AcDbEntity
  8
DEFPOINTS
  6
ByBlock
 62
     0
100
AcDbPoint
 10
4984.653931325546
 20
2124.978022216088
 30
0.0
  0
POINT
  5
81C0
330
8447
100
AcDbEntity
  8
DEFPOINTS
  6
ByBlock
 62
     0
100
AcDbPoint
 10
5597.653931325547
 20
2124.978022216088
 30
0.0
  0
POINT
  5
81C1
330
8447
100
AcDbEntity
  8
DEFPOINTS
  6
ByBlock
 62
     0
100
AcDbPoint
 10
5597.653931325547
 20
1936.61370258695
 30
0.0
  0
ENDBLK
  5
81C2
330
8447
100
AcDbEntity
  8
0
100
AcDbBlockEnd
  0
BLOCK
  5
844A
330
8449
100
AcDbEntity
  8
0
100
AcDbBlockBegin
  2
_NONE
 70
     0
 10
0.0
 20
0.0
 30
0.0
  3
_NONE
  1

  0
CIRCLE
  5
81C6
330
8449
100
AcDbEntity
  8
0
  6
ByBlock
 62
     0
100
AcDbCircle
 10
0.0
 20
0.0
 30
0.0
 40
0.25
  0
ENDBLK
  5
81C7
330
8449
100
AcDbEntity
  8
0
100
AcDbBlockEnd
  0
BLOCK
  5
844C
330
844B
100
AcDbEntity
  8
0
100
AcDbBlockBegin
  2
*D25
 70
     1
 10
0.0
 20
0.0
 30
0.0
  3
*D25
  1

  0
LINE
  5
8219
330
844B
100
AcDbEntity
  8
0
  6
ByBlock
 62
     0
100
AcDbLine
 10
3044.43157844806
 20
2136.978022216088
 30
0.0
 11
3044.43157844806
 21
2251.978022216087
 31
0.0
  0
TEXT
  5
821A
330
844B
100
AcDbEntity
  8
3
 62
     0
100
AcDbText
 10
3218.003007019488
 20
2038.049450787516
 30
0.0
 40
90.0
  1
(115)
 50
90.0
100
AcDbText
  0
POINT
  5
821B
330
844B
100
AcDbEntity
  8
DEFPOINTS
  6
ByBlock
 62
     0
100
AcDbPoint
 10
2737.49420233401
 20
2136.978022216088
 30
0.0
  0
POINT
  5
821C
330
844B
100
AcDbEntity
  8
DEFPOINTS
  6
ByBlock
 62
     0
100
AcDbPoint
 10
2737.494202334008
 20
2251.978022216087
 30
0.0
  0
POINT
  5
821D
330
844B
100
AcDbEntity
  8
DEFPOINTS
  6
ByBlock
 62
     0
100
AcDbPoint
 10
3044.43157844806
 20
2251.978022216087
 30
0.0
  0
ENDBLK
  5
821E
330
844B
100
AcDbEntity
  8
0
100
AcDbBlockEnd
  0
BLOCK
  5
844E
330
844D
100
AcDbEntity
  8
0
100
AcDbBlockBegin
  2
*D26
 70
     1
 10
0.0
 20
0.0
 30
0.0
  3
*D26
  1

  0
LINE
  5
8222
330
844D
100
AcDbEntity
  8
0
  6
ByBlock
 62
     0
100
AcDbLine
 10
2767.49420233401
 20
2036.978022216088
 30
0.0
 11
3321.646915569963
 21
2036.978022216088
 31
0.0
  0
LINE
  5
8223
330
844D
100
AcDbEntity
  8
0
  6
ByBlock
 62
     0
100
AcDbLine
 10
2213.994202334008
 20
3691.978022216089
 30
0.0
 11
3321.646915569963
 21
3691.978022216089
 31
0.0
  0
LINE
  5
8224
330
844D
100
AcDbEntity
  8
0
  6
ByBlock
 62
     0
100
AcDbLine
 10
3291.646915569963
 20
2096.978022216088
 30
0.0
 11
3291.646915569963
 21
3631.978022216089
 31
0.0
  0
INSERT
  5
8225
330
844D
100
AcDbEntity
  8
0
  6
ByBlock
 62
     0
100
AcDbBlockReference
  2
_OPEN
 10
3291.646915569963
 20
2036.978022216088
 30
0.0
 41
60.0
 42
60.0
 43
60.0
 50
270.0
  0
INSERT
  5
8226
330
844D
100
AcDbEntity
  8
0
  6
ByBlock
 62
     0
100
AcDbBlockReference
  2
_OPEN
 10
3291.646915569963
 20
3691.978022216089
 30
0.0
 41
60.0
 42
60.0
 43
60.0
 50
90.0
  0
TEXT
  5
8227
330
844D
100
AcDbEntity
  8
3
 62
     0
100
AcDbText
 10
3223.075486998534
 20
2656.620879358945
 30
0.0
 40
90.0
  1
(1655)
 50
90.0
100
AcDbText
  0
POINT
  5
8228
330
844D
100
AcDbEntity
  8
DEFPOINTS
  6
ByBlock
 62
     0
100
AcDbPoint
 10
2737.49420233401
 20
2036.978022216088
 30
0.0
  0
POINT
  5
8229
330
844D
100
AcDbEntity
  8
DEFPOINTS
  6
ByBlock
 62
     0
100
AcDbPoint
 10
2183.994202334008
 20
3691.978022216089
 30
0.0
  0
POINT
  5
822A
330
844D
100
AcDbEntity
  8
DEFPOINTS
  6
ByBlock
 62
     0
100
AcDbPoint
 10
3291.646915569963
 20
3691.978022216089
 30
0.0
  0
ENDBLK
  5
822B
330
844D
100
AcDbEntity
  8
0
100
AcDbBlockEnd
  0
BLOCK
  5
8455
330
8454
100
AcDbEntity
  8
0
100
AcDbBlockBegin
  2
*D27
 70
     1
 10
0.0
 20
0.0
 30
0.0
  3
*D27
  1

  0
LINE
  5
84CD
330
8454
100
AcDbEntity
  8
3
 62
     0
370
    -2
100
AcDbLine
 10
4034.653931325545
 20
3381.978022216089
 30
0.0
 11
4034.653931325545
 21
4068.317526510196
 31
0.0
  0
LINE
  5
84CE
330
8454
100
AcDbEntity
  8
3
 62
     0
370
    -2
100
AcDbLine
 10
4984.653931325548
 20
4011.268326099274
 30
0.0
 11
4984.653931325548
 21
4068.317526510196
 31
0.0
  0
LINE
  5
84CF
330
8454
100
AcDbEntity
  8
3
 62
     0
370
    -2
100
AcDbLine
 10
4094.653931325544
 20
4038.317526510196
 30
0.0
 11
4924.653931325548
 21
4038.317526510196
 31
0.0
  0
INSERT
  5
84D0
330
8454
100
AcDbEntity
  8
3
 62
     0
370
    -2
100
AcDbBlockReference
  2
_OPEN
 10
4034.653931325545
 20
4038.317526510196
 30
0.0
 41
60.0
 42
60.0
 43
60.0
 50
180.0
  0
INSERT
  5
84D1
330
8454
100
AcDbEntity
  8
3
 62
     0
370
    -2
100
AcDbBlockReference
  2
_OPEN
 10
4984.653931325548
 20
4038.317526510196
 30
0.0
 41
60.0
 42
60.0
 43
60.0
  0
MTEXT
  5
84D2
330
8454
100
AcDbEntity
  8
3
 62
     0
100
AcDbMText
 10
4509.653931325546
 20
4136.888955081625
 30
0.0
 40
90.0
 41
0.0
 71
     5
 72
     1
  1
\A1;(950)
 73
     1
 44
1.0
1001
ACAD
1000
MTEXTBEGIN
1070
    73
1070
     1
1070
    44
1040
1.0
1070
    74
1070
     0
1000
MTEXTEND
  0
POINT
  5
84D3
330
8454
100
AcDbEntity
  8
DEFPOINTS
 62
     0
100
AcDbPoint
 10
4034.653931325545
 20
3351.978022216088
 30
0.0
  0
POINT
  5
84D4
330
8454
100
AcDbEntity
  8
DEFPOINTS
 62
     0
100
AcDbPoint
 10
4984.653931325548
 20
3981.268326099274
 30
0.0
  0
POINT
  5
84D5
330
8454
100
AcDbEntity
  8
DEFPOINTS
 62
     0
100
AcDbPoint
 10
4984.653931325548
 20
4038.317526510196
 30
0.0
  0
ENDBLK
  5
8456
330
8454
100
AcDbEntity
  8
0
100
AcDbBlockEnd
  0
BLOCK
  5
8462
330
8461
100
AcDbEntity
  8
0
100
AcDbBlockBegin
  2
*D28
 70
     1
 10
0.0
 20
0.0
 30
0.0
  3
*D28
  1

  0
LINE
  5
84DF
330
8461
100
AcDbEntity
  8
3
 62
     0
370
    -2
100
AcDbLine
 10
4984.653931325548
 20
4011.268326099274
 30
0.0
 11
4984.653931325548
 21
4068.317526510196
 31
0.0
  0
LINE
  5
84E0
330
8461
100
AcDbEntity
  8
3
 62
     0
370
    -2
100
AcDbLine
 10
5664.653931325545
 20
3062.478022216089
 30
0.0
 11
5664.653931325545
 21
4068.317526510196
 31
0.0
  0
LINE
  5
84E1
330
8461
100
AcDbEntity
  8
3
 62
     0
370
    -2
100
AcDbLine
 10
5044.653931325548
 20
4038.317526510196
 30
0.0
 11
5604.653931325544
 21
4038.317526510196
 31
0.0
  0
INSERT
  5
84E2
330
8461
100
AcDbEntity
  8
3
 62
     0
370
    -2
100
AcDbBlockReference
  2
_OPEN
 10
4984.653931325548
 20
4038.317526510196
 30
0.0
 41
60.0
 42
60.0
 43
60.0
 50
180.0
  0
INSERT
  5
84E3
330
8461
100
AcDbEntity
  8
3
 62
     0
370
    -2
100
AcDbBlockReference
  2
_OPEN
 10
5664.653931325545
 20
4038.317526510196
 30
0.0
 41
60.0
 42
60.0
 43
60.0
  0
MTEXT
  5
84E4
330
8461
100
AcDbEntity
  8
3
 62
     0
100
AcDbMText
 10
5324.653931325546
 20
4136.888955081625
 30
0.0
 40
90.0
 41
0.0
 71
     5
 72
     1
  1
\A1;(680)
 73
     1
 44
1.0
1001
ACAD
1000
MTEXTBEGIN
1070
    73
1070
     1
1070
    44
1040
1.0
1070
    74
1070
     0
1000
MTEXTEND
  0
POINT
  5
84E5
330
8461
100
AcDbEntity
  8
DEFPOINTS
 62
     0
100
AcDbPoint
 10
4984.653931325548
 20
3981.268326099274
 30
0.0
  0
POINT
  5
84E6
330
8461
100
AcDbEntity
  8
DEFPOINTS
 62
     0
100
AcDbPoint
 10
5664.653931325545
 20
3032.478022216089
 30
0.0
  0
POINT
  5
84E7
330
8461
100
AcDbEntity
  8
DEFPOINTS
 62
     0
100
AcDbPoint
 10
5664.653931325545
 20
4038.317526510196
 30
0.0
  0
ENDBLK
  5
8463
330
8461
100
AcDbEntity
  8
0
100
AcDbBlockEnd
  0
BLOCK
  5
846F
330
846E
100
AcDbEntity
  8
0
100
AcDbBlockBegin
  2
*D29
 70
     1
 10
0.0
 20
0.0
 30
0.0
  3
*D29
  1

  0
LINE
  5
8471
330
846E
100
AcDbEntity
  8
3
 62
     0
370
    -2
100
AcDbLine
 10
4424.653931325547
 20
3721.978022216088
 30
0.0
 11
4424.653931325547
 21
3891.268326099274
 31
0.0
  0
LINE
  5
8472
330
846E
100
AcDbEntity
  8
3
 62
     0
370
    -2
100
AcDbLine
 10
5544.653931325547
 20
3721.978022216088
 30
0.0
 11
5544.653931325547
 21
3891.268326099274
 31
0.0
  0
LINE
  5
8473
330
846E
100
AcDbEntity
  8
3
 62
     0
370
    -2
100
AcDbLine
 10
4484.653931325547
 20
3861.268326099274
 30
0.0
 11
5484.653931325547
 21
3861.268326099274
 31
0.0
  0
INSERT
  5
8474
330
846E
100
AcDbEntity
  8
3
 62
     0
370
    -2
100
AcDbBlockReference
  2
_OPEN
 10
4424.653931325547
 20
3861.268326099274
 30
0.0
 41
60.0
 42
60.0
 43
60.0
 50
180.0
  0
INSERT
  5
8475
330
846E
100
AcDbEntity
  8
3
 62
     0
370
    -2
100
AcDbBlockReference
  2
_OPEN
 10
5544.653931325547
 20
3861.268326099274
 30
0.0
 41
60.0
 42
60.0
 43
60.0
  0
MTEXT
  5
8476
330
846E
100
AcDbEntity
  8
3
 62
     0
100
AcDbMText
 10
4984.653931325547
 20
3936.268326099275
 30
0.0
 40
90.0
 41
0.0
 71
     5
 72
     1
  1
\A1;1120
 73
     1
 44
1.0
1001
ACAD
1000
MTEXTBEGIN
1070
    73
1070
     1
1070
    44
1040
1.0
1070
    74
1070
     0
1000
MTEXTEND
  0
POINT
  5
8477
330
846E
100
AcDbEntity
  8
DEFPOINTS
 62
     0
100
AcDbPoint
 10
4424.653931325547
 20
3691.978022216089
 30
0.0
  0
POINT
  5
8478
330
846E
100
AcDbEntity
  8
DEFPOINTS
 62
     0
100
AcDbPoint
 10
5544.653931325547
 20
3691.978022216089
 30
0.0
  0
POINT
  5
8479
330
846E
100
AcDbEntity
  8
DEFPOINTS
 62
     0
100
AcDbPoint
 10
5544.653931325547
 20
3861.268326099274
 30
0.0
  0
ENDBLK
  5
8470
330
846E
100
AcDbEntity
  8
0
100
AcDbBlockEnd
  0
BLOCK
  5
8480
330
847F
100
AcDbEntity
  8
0
100
AcDbBlockBegin
  2
*D30
 70
     1
 10
0.0
 20
0.0
 30
0.0
  3
*D30
  1

  0
LINE
  5
8497
330
847F
100
AcDbEntity
  8
3
 62
     0
370
    -2
100
AcDbLine
 10
5574.653931325547
 20
3546.978022216089
 30
0.0
 11
5898.544925153682
 21
3546.978022216089
 31
0.0
  0
LINE
  5
8498
330
847F
100
AcDbEntity
  8
3
 62
     0
370
    -2
100
AcDbLine
 10
5574.653931325547
 20
2596.978022216088
 30
0.0
 11
5898.544925153682
 21
2596.978022216088
 31
0.0
  0
LINE
  5
8499
330
847F
100
AcDbEntity
  8
3
 62
     0
370
    -2
100
AcDbLine
 10
5868.544925153682
 20
3486.978022216089
 30
0.0
 11
5868.544925153682
 21
2656.978022216089
 31
0.0
  0
INSERT
  5
849A
330
847F
100
AcDbEntity
  8
3
 62
     0
370
    -2
100
AcDbBlockReference
  2
_OPEN
 10
5868.544925153682
 20
3546.978022216089
 30
0.0
 41
60.0
 42
60.0
 43
60.0
 50
90.0
  0
INSERT
  5
849B
330
847F
100
AcDbEntity
  8
3
 62
     0
370
    -2
100
AcDbBlockReference
  2
_OPEN
 10
5868.544925153682
 20
2596.978022216088
 30
0.0
 41
60.0
 42
60.0
 43
60.0
 50
270.0
  0
MTEXT
  5
849C
330
847F
100
AcDbEntity
  8
3
 62
     0
100
AcDbMText
 10
5793.544925153681
 20
3071.978022216089
 30
0.0
 40
90.0
 41
0.0
 71
     5
 72
     1
  1
\A1;\U+03C6950
 11
0.0000000000000001
 21
1.0
 31
0.0
 73
     1
 44
1.0
1001
ACAD
1000
MTEXTBEGIN
1070
    73
1070
     1
1070
    44
1040
1.0
1070
    74
1070
     0
1000
MTEXTEND
  0
POINT
  5
849D
330
847F
100
AcDbEntity
  8
DEFPOINTS
 62
     0
100
AcDbPoint
 10
5544.653931325547
 20
3546.978022216089
 30
0.0
  0
POINT
  5
849E
330
847F
100
AcDbEntity
  8
DEFPOINTS
 62
     0
100
AcDbPoint
 10
5544.653931325547
 20
2596.978022216088
 30
0.0
  0
POINT
  5
849F
330
847F
100
AcDbEntity
  8
DEFPOINTS
 62
     0
100
AcDbPoint
 10
5868.544925153682
 20
2596.978022216088
 30
0.0
  0
ENDBLK
  5
8481
330
847F
100
AcDbEntity
  8
0
100
AcDbBlockEnd
  0
BLOCK
  5
84E9
330
84E8
100
AcDbEntity
  8
0
100
AcDbBlockBegin
  2
*D31
 70
     1
 10
0.0
 20
0.0
 30
0.0
  3
*D31
  1

  0
LINE
  5
84EB
330
84E8
100
AcDbEntity
  8
3
 62
     0
370
    -2
100
AcDbLine
 10
867.4942023340097
 20
4739.801946236005
 30
0.0
 11
867.4942023340097
 21
4339.129786753933
 31
0.0
  0
LINE
  5
84EC
330
84E8
100
AcDbEntity
  8
3
 62
     0
370
    -2
100
AcDbLine
 10
2737.49420233401
 20
4739.801946236005
 30
0.0
 11
2737.49420233401
 21
4339.129786753933
 31
0.0
  0
LINE
  5
84ED
330
84E8
100
AcDbEntity
  8
3
 62
     0
370
    -2
100
AcDbLine
 10
872.8942023340097
 20
4344.529786753933
 30
0.0
 11
1790.79420233401
 21
4344.529786753933
 31
0.0
  0
LINE
  5
84EE
330
84E8
100
AcDbEntity
  8
3
 62
     0
370
    -2
100
AcDbLine
 10
2732.09420233401
 20
4344.529786753933
 30
0.0
 11
1814.19420233401
 21
4344.529786753933
 31
0.0
  0
SOLID
  5
84EF
330
84E8
100
AcDbEntity
  8
3
 62
     0
100
AcDbTrace
 10
872.8942023340097
 20
4345.429786753932
 30
0.0
 11
872.8942023340097
 21
4343.629786753933
 31
0.0
 12
867.4942023340097
 22
4344.529786753933
 32
0.0
 13
867.4942023340097
 23
4344.529786753933
 33
0.0
  0
SOLID
  5
84F0
330
84E8
100
AcDbEntity
  8
3
 62
     0
100
AcDbTrace
 10
2732.09420233401
 20
4345.429786753932
 30
0.0
 11
2732.09420233401
 21
4343.629786753933
 31
0.0
 12
2737.49420233401
 22
4344.529786753933
 32
0.0
 13
2737.49420233401
 23
4344.529786753933
 33
0.0
  0
MTEXT
  5
84F1
330
84E8
100
AcDbEntity
  8
3
 62
     0
100
AcDbMText
 10
1802.49420233401
 20
4344.529786753933
 30
0.0
 40
5.399999999999999
 41
0.0
 71
     5
 72
     1
  1
\A1;1870
 73
     1
 44
1.0
1001
ACAD
1000
MTEXTBEGIN
1070
    73
1070
     1
1070
    44
1040
1.0
1070
    74
1070
     0
1000
MTEXTEND
  0
POINT
  5
84F2
330
84E8
100
AcDbEntity
  8
DEFPOINTS
 62
     0
100
AcDbPoint
 10
867.4942023340097
 20
4741.676946236006
 30
0.0
  0
POINT
  5
84F3
330
84E8
100
AcDbEntity
  8
DEFPOINTS
 62
     0
100
AcDbPoint
 10
2737.49420233401
 20
4741.676946236006
 30
0.0
  0
POINT
  5
84F4
330
84E8
100
AcDbEntity
  8
DEFPOINTS
 62
     0
100
AcDbPoint
 10
2737.49420233401
 20
4344.529786753933
 30
0.0
  0
ENDBLK
  5
84EA
330
84E8
100
AcDbEntity
  8
0
100
AcDbBlockEnd
  0
BLOCK
  5
84F7
330
84F6
100
AcDbEntity
  8
0
100
AcDbBlockBegin
  2
*D32
 70
     1
 10
0.0
 20
0.0
 30
0.0
  3
*D32
  1

  0
LINE
  5
84F9
330
84F6
100
AcDbEntity
  8
3
 62
     0
370
    -2
100
AcDbLine
 10
837.4942023340096
 20
5541.676946236008
 30
0.0
 11
647.6426948674745
 21
5541.676946236008
 31
0.0
  0
LINE
  5
84FA
330
84F6
100
AcDbEntity
  8
3
 62
     0
370
    -2
100
AcDbLine
 10
837.4942023340089
 20
4741.676946236007
 30
0.0
 11
647.6426948674743
 21
4741.676946236007
 31
0.0
  0
LINE
  5
84FB
330
84F6
100
AcDbEntity
  8
3
 62
     0
370
    -2
100
AcDbLine
 10
677.6426948674745
 20
5481.676946236007
 30
0.0
 11
677.6426948674743
 21
4801.676946236007
 31
0.0
  0
INSERT
  5
84FC
330
84F6
100
AcDbEntity
  8
3
 62
     0
370
    -2
100
AcDbBlockReference
  2
_OPEN
 10
677.6426948674745
 20
5541.676946236008
 30
0.0
 41
60.0
 42
60.0
 43
60.0
 50
90.0
  0
INSERT
  5
84FD
330
84F6
100
AcDbEntity
  8
3
 62
     0
370
    -2
100
AcDbBlockReference
  2
_OPEN
 10
677.6426948674743
 20
4741.676946236007
 30
0.0
 41
60.0
 42
60.0
 43
60.0
 50
270.0
  0
MTEXT
  5
84FE
330
84F6
100
AcDbEntity
  8
3
 62
     0
100
AcDbMText
 10
602.6426948674736
 20
5141.676946236008
 30
0.0
 40
90.0
 41
0.0
 71
     5
 72
     1
  1
\A1;800
 11
0.0000000000000001
 21
1.0
 31
0.0
 73
     1
 44
1.0
1001
ACAD
1000
MTEXTBEGIN
1070
    73
1070
     1
1070
    44
1040
1.0
1070
    74
1070
     0
1000
MTEXTEND
  0
POINT
  5
84FF
330
84F6
100
AcDbEntity
  8
DEFPOINTS
 62
     0
100
AcDbPoint
 10
867.4942023340097
 20
5541.676946236008
 30
0.0
  0
POINT
  5
8500
330
84F6
100
AcDbEntity
  8
DEFPOINTS
 62
     0
100
AcDbPoint
 10
867.494202334009
 20
4741.676946236007
 30
0.0
  0
POINT
  5
8501
330
84F6
100
AcDbEntity
  8
DEFPOINTS
 62
     0
100
AcDbPoint
 10
677.6426948674743
 20
4741.676946236007
 30
0.0
  0
ENDBLK
  5
84F8
330
84F6
100
AcDbEntity
  8
0
100
AcDbBlockEnd
  0
BLOCK
  5
8504
330
8503
100
AcDbEntity
  8
0
100
AcDbBlockBegin
  2
*D33
 70
     1
 10
0.0
 20
0.0
 30
0.0
  3
*D33
  1

  0
LINE
  5
8506
330
8503
100
AcDbEntity
  8
3
 62
     0
370
    -2
100
AcDbLine
 10
867.4942023340097
 20
4711.676946236006
 30
0.0
 11
867.4942023340097
 21
4314.529786753933
 31
0.0
  0
LINE
  5
8507
330
8503
100
AcDbEntity
  8
3
 62
     0
370
    -2
100
AcDbLine
 10
2737.494202334008
 20
4711.676946236006
 30
0.0
 11
2737.494202334008
 21
4314.529786753933
 31
0.0
  0
LINE
  5
8508
330
8503
100
AcDbEntity
  8
3
 62
     0
370
    -2
100
AcDbLine
 10
927.4942023340097
 20
4344.529786753933
 30
0.0
 11
2677.494202334008
 21
4344.529786753933
 31
0.0
  0
INSERT
  5
8509
330
8503
100
AcDbEntity
  8
3
 62
     0
370
    -2
100
AcDbBlockReference
  2
_OPEN
 10
867.4942023340097
 20
4344.529786753933
 30
0.0
 41
60.0
 42
60.0
 43
60.0
 50
180.0
  0
INSERT
  5
850A
330
8503
100
AcDbEntity
  8
3
 62
     0
370
    -2
100
AcDbBlockReference
  2
_OPEN
 10
2737.494202334008
 20
4344.529786753933
 30
0.0
 41
60.0
 42
60.0
 43
60.0
  0
MTEXT
  5
850B
330
8503
100
AcDbEntity
  8
3
 62
     0
100
AcDbMText
 10
1802.494202334008
 20
4419.529786753932
 30
0.0
 40
90.0
 41
0.0
 71
     5
 72
     1
  1
\A1;1870
 73
     1
 44
1.0
1001
ACAD
1000
MTEXTBEGIN
1070
    73
1070
     1
1070
    44
1040
1.0
1070
    74
1070
     0
1000
MTEXTEND
  0
POINT
  5
850C
330
8503
100
AcDbEntity
  8
DEFPOINTS
 62
     0
100
AcDbPoint
 10
867.4942023340097
 20
4741.676946236006
 30
0.0
  0
POINT
  5
850D
330
8503
100
AcDbEntity
  8
DEFPOINTS
 62
     0
100
AcDbPoint
 10
2737.494202334008
 20
4741.676946236006
 30
0.0
  0
POINT
  5
850E
330
8503
100
AcDbEntity
  8
DEFPOINTS
 62
     0
100
AcDbPoint
 10
2737.494202334008
 20
4344.529786753933
 30
0.0
  0
ENDBLK
  5
8505
330
8503
100
AcDbEntity
  8
0
100
AcDbBlockEnd
  0
BLOCK
  5
8511
330
8510
100
AcDbEntity
  8
0
100
AcDbBlockBegin
  2
*D34
 70
     1
 10
0.0
 20
0.0
 30
0.0
  3
*D34
  1

  0
LINE
  5
8513
330
8510
100
AcDbEntity
  8
3
 62
     0
370
    -2
100
AcDbLine
 10
2767.49420233401
 20
4741.676946236006
 30
0.0
 11
3067.918424500425
 21
4741.676946236006
 31
0.0
  0
LINE
  5
8514
330
8510
100
AcDbEntity
  8
3
 62
     0
370
    -2
100
AcDbLine
 10
2767.49420233401
 20
6116.676946236006
 30
0.0
 11
3067.918424500425
 21
6116.676946236006
 31
0.0
  0
LINE
  5
8515
330
8510
100
AcDbEntity
  8
3
 62
     0
370
    -2
100
AcDbLine
 10
3037.918424500424
 20
4801.676946236006
 30
0.0
 11
3037.918424500425
 21
6056.676946236006
 31
0.0
  0
INSERT
  5
8516
330
8510
100
AcDbEntity
  8
3
 62
     0
370
    -2
100
AcDbBlockReference
  2
_OPEN
 10
3037.918424500424
 20
4741.676946236006
 30
0.0
 41
60.0
 42
60.0
 43
60.0
 50
270.0
  0
INSERT
  5
8517
330
8510
100
AcDbEntity
  8
3
 62
     0
370
    -2
100
AcDbBlockReference
  2
_OPEN
 10
3037.918424500425
 20
6116.676946236006
 30
0.0
 41
60.0
 42
60.0
 43
60.0
 50
90.0
  0
MTEXT
  5
8518
330
8510
100
AcDbEntity
  8
3
 62
     0
100
AcDbMText
 10
2962.918424500424
 20
5429.176946236007
 30
0.0
 40
90.0
 41
0.0
 71
     5
 72
     1
  1
\A1;1375
 11
0.0000000000000001
 21
1.0
 31
0.0
 73
     1
 44
1.0
1001
ACAD
1000
MTEXTBEGIN
1070
    73
1070
     1
1070
    44
1040
1.0
1070
    74
1070
     0
1000
MTEXTEND
  0
POINT
  5
8519
330
8510
100
AcDbEntity
  8
DEFPOINTS
 62
     0
100
AcDbPoint
 10
2737.49420233401
 20
4741.676946236006
 30
0.0
  0
POINT
  5
851A
330
8510
100
AcDbEntity
  8
DEFPOINTS
 62
     0
100
AcDbPoint
 10
2737.49420233401
 20
6116.676946236006
 30
0.0
  0
POINT
  5
851B
330
8510
100
AcDbEntity
  8
DEFPOINTS
 62
     0
100
AcDbPoint
 10
3037.918424500425
 20
6116.676946236006
 30
0.0
  0
ENDBLK
  5
8512
330
8510
100
AcDbEntity
  8
0
100
AcDbBlockEnd
  0
BLOCK
  5
851E
330
851D
100
AcDbEntity
  8
0
100
AcDbBlockBegin
  2
*D35
 70
     1
 10
0.0
 20
0.0
 30
0.0
  3
*D35
  1

  0
LINE
  5
8520
330
851D
100
AcDbEntity
  8
3
 62
     0
370
    -2
100
AcDbLine
 10
2737.49420233401
 20
6146.676946236006
 30
0.0
 11
2737.49420233401
 21
6448.691604741227
 31
0.0
  0
LINE
  5
8521
330
851D
100
AcDbEntity
  8
3
 62
     0
370
    -2
100
AcDbLine
 10
1617.49420233401
 20
6146.676946236006
 30
0.0
 11
1617.49420233401
 21
6448.691604741227
 31
0.0
  0
LINE
  5
8522
330
851D
100
AcDbEntity
  8
3
 62
     0
370
    -2
100
AcDbLine
 10
2677.49420233401
 20
6418.691604741228
 30
0.0
 11
1677.49420233401
 21
6418.691604741228
 31
0.0
  0
INSERT
  5
8523
330
851D
100
AcDbEntity
  8
3
 62
     0
370
    -2
100
AcDbBlockReference
  2
_OPEN
 10
2737.49420233401
 20
6418.691604741228
 30
0.0
 41
60.0
 42
60.0
 43
60.0
  0
INSERT
  5
8524
330
851D
100
AcDbEntity
  8
3
 62
     0
370
    -2
100
AcDbBlockReference
  2
_OPEN
 10
1617.49420233401
 20
6418.691604741228
 30
0.0
 41
60.0
 42
60.0
 43
60.0
 50
180.0
  0
MTEXT
  5
8525
330
851D
100
AcDbEntity
  8
3
 62
     0
100
AcDbMText
 10
2177.49420233401
 20
6493.691604741228
 30
0.0
 40
90.0
 41
0.0
 71
     5
 72
     1
  1
\A1;1120
 73
     1
 44
1.0
1001
ACAD
1000
MTEXTBEGIN
1070
    73
1070
     1
1070
    44
1040
1.0
1070
    74
1070
     0
1000
MTEXTEND
  0
POINT
  5
8526
330
851D
100
AcDbEntity
  8
DEFPOINTS
 62
     0
100
AcDbPoint
 10
2737.49420233401
 20
6116.676946236006
 30
0.0
  0
POINT
  5
8527
330
851D
100
AcDbEntity
  8
DEFPOINTS
 62
     0
100
AcDbPoint
 10
1617.49420233401
 20
6116.676946236006
 30
0.0
  0
POINT
  5
8528
330
851D
100
AcDbEntity
  8
DEFPOINTS
 62
     0
100
AcDbPoint
 10
1617.49420233401
 20
6418.691604741228
 30
0.0
  0
ENDBLK
  5
851F
330
851D
100
AcDbEntity
  8
0
100
AcDbBlockEnd
  0
BLOCK
  5
852B
330
852A
100
AcDbEntity
  8
0
100
AcDbBlockBegin
  2
*D36
 70
     1
 10
0.0
 20
0.0
 30
0.0
  3
*D36
  1

  0
LINE
  5
852D
330
852A
100
AcDbEntity
  8
3
 62
     0
370
    -2
100
AcDbLine
 10
1617.49420233401
 20
6146.676946236006
 30
0.0
 11
1617.49420233401
 21
6448.691604741227
 31
0.0
  0
LINE
  5
852E
330
852A
100
AcDbEntity
  8
3
 62
     0
370
    -2
100
AcDbLine
 10
867.4942023340097
 20
5571.676946236008
 30
0.0
 11
867.4942023340097
 21
6448.691604741227
 31
0.0
  0
LINE
  5
852F
330
852A
100
AcDbEntity
  8
3
 62
     0
370
    -2
100
AcDbLine
 10
1557.49420233401
 20
6418.691604741228
 30
0.0
 11
927.4942023340097
 21
6418.691604741228
 31
0.0
  0
INSERT
  5
8530
330
852A
100
AcDbEntity
  8
3
 62
     0
370
    -2
100
AcDbBlockReference
  2
_OPEN
 10
1617.49420233401
 20
6418.691604741228
 30
0.0
 41
60.0
 42
60.0
 43
60.0
  0
INSERT
  5
8531
330
852A
100
AcDbEntity
  8
3
 62
     0
370
    -2
100
AcDbBlockReference
  2
_OPEN
 10
867.4942023340097
 20
6418.691604741228
 30
0.0
 41
60.0
 42
60.0
 43
60.0
 50
180.0
  0
MTEXT
  5
8532
330
852A
100
AcDbEntity
  8
3
 62
     0
100
AcDbMText
 10
1242.49420233401
 20
6493.691604741228
 30
0.0
 40
90.0
 41
0.0
 71
     5
 72
     1
  1
\A1;750
 73
     1
 44
1.0
1001
ACAD
1000
MTEXTBEGIN
1070
    73
1070
     1
1070
    44
1040
1.0
1070
    74
1070
     0
1000
MTEXTEND
  0
POINT
  5
8533
330
852A
100
AcDbEntity
  8
DEFPOINTS
 62
     0
100
AcDbPoint
 10
1617.49420233401
 20
6116.676946236006
 30
0.0
  0
POINT
  5
8534
330
852A
100
AcDbEntity
  8
DEFPOINTS
 62
     0
100
AcDbPoint
 10
867.4942023340097
 20
5541.676946236008
 30
0.0
  0
POINT
  5
8535
330
852A
100
AcDbEntity
  8
DEFPOINTS
 62
     0
100
AcDbPoint
 10
867.4942023340097
 20
6418.691604741228
 30
0.0
  0
ENDBLK
  5
852C
330
852A
100
AcDbEntity
  8
0
100
AcDbBlockEnd
  0
BLOCK
  5
8537
330
8536
100
AcDbEntity
  8
0
100
AcDbBlockBegin
  2
*D37
 70
     1
 10
0.0
 20
0.0
 30
0.0
  3
*D37
  1

  0
LINE
  5
8539
330
8536
100
AcDbEntity
  8
3
 62
     0
370
    -2
100
AcDbLine
 10
867.4942023340081
 20
2016.978022216088
 30
0.0
 11
867.4942023340081
 21
1853.21370258695
 31
0.0
  0
LINE
  5
853A
330
8536
100
AcDbEntity
  8
3
 62
     0
370
    -2
100
AcDbLine
 10
2177.494202334008
 20
2016.978022216088
 30
0.0
 11
2177.494202334008
 21
1853.21370258695
 31
0.0
  0
LINE
  5
853B
330
8536
100
AcDbEntity
  8
3
 62
     0
370
    -2
100
AcDbLine
 10
872.8942023340081
 20
1858.61370258695
 30
0.0
 11
1511.308488048294
 21
1858.61370258695
 31
0.0
  0
LINE
  5
853C
330
8536
100
AcDbEntity
  8
3
 62
     0
370
    -2
100
AcDbLine
 10
2172.094202334008
 20
1858.61370258695
 30
0.0
 11
1533.679916619722
 21
1858.61370258695
 31
0.0
  0
SOLID
  5
853D
330
8536
100
AcDbEntity
  8
3
 62
     0
100
AcDbTrace
 10
872.8942023340081
 20
1859.51370258695
 30
0.0
 11
872.8942023340081
 21
1857.71370258695
 31
0.0
 12
867.4942023340081
 22
1858.61370258695
 32
0.0
 13
867.4942023340081
 23
1858.61370258695
 33
0.0
  0
SOLID
  5
853E
330
8536
100
AcDbEntity
  8
3
 62
     0
100
AcDbTrace
 10
2172.094202334008
 20
1859.51370258695
 30
0.0
 11
2172.094202334008
 21
1857.71370258695
 31
0.0
 12
2177.494202334008
 22
1858.61370258695
 32
0.0
 13
2177.494202334008
 23
1858.61370258695
 33
0.0
  0
MTEXT
  5
853F
330
8536
100
AcDbEntity
  8
3
 62
     0
100
AcDbMText
 10
1522.494202334008
 20
1858.61370258695
 30
0.0
 40
5.399999999999999
 41
0.0
 71
     5
 72
     1
  1
\A1;1310
 73
     1
 44
1.0
1001
ACAD
1000
MTEXTBEGIN
1070
    73
1070
     1
1070
    44
1040
1.0
1070
    74
1070
     0
1000
MTEXTEND
  0
POINT
  5
8540
330
8536
100
AcDbEntity
  8
DEFPOINTS
 62
     0
100
AcDbPoint
 10
867.4942023340081
 20
2046.978022216088
 30
0.0
  0
POINT
  5
8541
330
8536
100
AcDbEntity
  8
DEFPOINTS
 62
     0
100
AcDbPoint
 10
2177.494202334008
 20
2046.978022216088
 30
0.0
  0
POINT
  5
8542
330
8536
100
AcDbEntity
  8
DEFPOINTS
 62
     0
100
AcDbPoint
 10
2177.494202334008
 20
1858.61370258695
 30
0.0
  0
ENDBLK
  5
8538
330
8536
100
AcDbEntity
  8
0
100
AcDbBlockEnd
  0
BLOCK
  5
8544
330
8543
100
AcDbEntity
  8
0
100
AcDbBlockBegin
  2
*D38
 70
     1
 10
0.0
 20
0.0
 30
0.0
  3
*D38
  1

  0
LINE
  5
8546
330
8543
100
AcDbEntity
  8
3
 62
     0
370
    -2
100
AcDbLine
 10
2177.494202334008
 20
2016.978022216088
 30
0.0
 11
2177.494202334008
 21
1853.21370258695
 31
0.0
  0
LINE
  5
8547
330
8543
100
AcDbEntity
  8
3
 62
     0
370
    -2
100
AcDbLine
 10
2737.49420233401
 20
2016.978022216088
 30
0.0
 11
2737.49420233401
 21
1853.21370258695
 31
0.0
  0
LINE
  5
8548
330
8543
100
AcDbEntity
  8
3
 62
     0
370
    -2
100
AcDbLine
 10
2182.894202334008
 20
1858.61370258695
 30
0.0
 11
2447.851345191152
 21
1858.61370258695
 31
0.0
  0
LINE
  5
8549
330
8543
100
AcDbEntity
  8
3
 62
     0
370
    -2
100
AcDbLine
 10
2732.09420233401
 20
1858.61370258695
 30
0.0
 11
2467.137059476867
 21
1858.61370258695
 31
0.0
  0
SOLID
  5
854A
330
8543
100
AcDbEntity
  8
3
 62
     0
100
AcDbTrace
 10
2182.894202334008
 20
1859.51370258695
 30
0.0
 11
2182.894202334008
 21
1857.71370258695
 31
0.0
 12
2177.494202334008
 22
1858.61370258695
 32
0.0
 13
2177.494202334008
 23
1858.61370258695
 33
0.0
  0
SOLID
  5
854B
330
8543
100
AcDbEntity
  8
3
 62
     0
100
AcDbTrace
 10
2732.09420233401
 20
1859.51370258695
 30
0.0
 11
2732.09420233401
 21
1857.71370258695
 31
0.0
 12
2737.49420233401
 22
1858.61370258695
 32
0.0
 13
2737.49420233401
 23
1858.61370258695
 33
0.0
  0
MTEXT
  5
854C
330
8543
100
AcDbEntity
  8
3
 62
     0
100
AcDbMText
 10
2457.49420233401
 20
1858.61370258695
 30
0.0
 40
5.399999999999999
 41
0.0
 71
     5
 72
     1
  1
\A1;560
 73
     1
 44
1.0
1001
ACAD
1000
MTEXTBEGIN
1070
    73
1070
     1
1070
    44
1040
1.0
1070
    74
1070
     0
1000
MTEXTEND
  0
POINT
  5
854D
330
8543
100
AcDbEntity
  8
DEFPOINTS
 62
     0
100
AcDbPoint
 10
2177.494202334008
 20
2046.978022216088
 30
0.0
  0
POINT
  5
854E
330
8543
100
AcDbEntity
  8
DEFPOINTS
 62
     0
100
AcDbPoint
 10
2737.49420233401
 20
2046.978022216088
 30
0.0
  0
POINT
  5
854F
330
8543
100
AcDbEntity
  8
DEFPOINTS
 62
     0
100
AcDbPoint
 10
2737.49420233401
 20
1858.61370258695
 30
0.0
  0
ENDBLK
  5
8545
330
8543
100
AcDbEntity
  8
0
100
AcDbBlockEnd
  0
BLOCK
  5
8551
330
8550
100
AcDbEntity
  8
0
100
AcDbBlockBegin
  2
*D39
 70
     1
 10
0.0
 20
0.0
 30
0.0
  3
*D39
  1

  0
LINE
  5
8553
330
8550
100
AcDbEntity
  8
3
 62
     0
370
    -2
100
AcDbLine
 10
4222.653931325547
 20
2016.978022216088
 30
0.0
 11
4222.653931325547
 21
1853.21370258695
 31
0.0
  0
LINE
  5
8554
330
8550
100
AcDbEntity
  8
3
 62
     0
370
    -2
100
AcDbLine
 10
4984.653931325546
 20
2016.978022216088
 30
0.0
 11
4984.653931325546
 21
1853.21370258695
 31
0.0
  0
LINE
  5
8555
330
8550
100
AcDbEntity
  8
3
 62
     0
370
    -2
100
AcDbLine
 10
4228.053931325546
 20
1858.61370258695
 30
0.0
 11
4594.011074182691
 21
1858.61370258695
 31
0.0
  0
LINE
  5
8556
330
8550
100
AcDbEntity
  8
3
 62
     0
370
    -2
100
AcDbLine
 10
4979.253931325547
 20
1858.61370258695
 30
0.0
 11
4613.296788468404
 21
1858.61370258695
 31
0.0
  0
SOLID
  5
8557
330
8550
100
AcDbEntity
  8
3
 62
     0
100
AcDbTrace
 10
4228.053931325546
 20
1859.51370258695
 30
0.0
 11
4228.053931325546
 21
1857.71370258695
 31
0.0
 12
4222.653931325547
 22
1858.61370258695
 32
0.0
 13
4222.653931325547
 23
1858.61370258695
 33
0.0
  0
SOLID
  5
8558
330
8550
100
AcDbEntity
  8
3
 62
     0
100
AcDbTrace
 10
4979.253931325547
 20
1859.51370258695
 30
0.0
 11
4979.253931325547
 21
1857.71370258695
 31
0.0
 12
4984.653931325546
 22
1858.61370258695
 32
0.0
 13
4984.653931325546
 23
1858.61370258695
 33
0.0
  0
MTEXT
  5
8559
330
8550
100
AcDbEntity
  8
3
 62
     0
100
AcDbMText
 10
4603.653931325547
 20
1858.61370258695
 30
0.0
 40
5.399999999999999
 41
0.0
 71
     5
 72
     1
  1
\A1;762
 73
     1
 44
1.0
1001
ACAD
1000
MTEXTBEGIN
1070
    73
1070
     1
1070
    44
1040
1.0
1070
    74
1070
     0
1000
MTEXTEND
  0
POINT
  5
855A
330
8550
100
AcDbEntity
  8
DEFPOINTS
 62
     0
100
AcDbPoint
 10
4222.653931325547
 20
2046.978022216088
 30
0.0
  0
POINT
  5
855B
330
8550
100
AcDbEntity
  8
DEFPOINTS
 62
     0
100
AcDbPoint
 10
4984.653931325546
 20
2046.978022216087
 30
0.0
  0
POINT
  5
855C
330
8550
100
AcDbEntity
  8
DEFPOINTS
 62
     0
100
AcDbPoint
 10
4984.653931325546
 20
1858.61370258695
 30
0.0
  0
ENDBLK
  5
8552
330
8550
100
AcDbEntity
  8
0
100
AcDbBlockEnd
  0
BLOCK
  5
855E
330
855D
100
AcDbEntity
  8
0
100
AcDbBlockBegin
  2
*D40
 70
     1
 10
0.0
 20
0.0
 30
0.0
  3
*D40
  1

  0
LINE
  5
8560
330
855D
100
AcDbEntity
  8
3
 62
     0
370
    -2
100
AcDbLine
 10
4984.653931325546
 20
2016.978022216088
 30
0.0
 11
4984.653931325546
 21
1853.21370258695
 31
0.0
  0
LINE
  5
8561
330
855D
100
AcDbEntity
  8
3
 62
     0
370
    -2
100
AcDbLine
 10
5597.653931325547
 20
2016.978022216088
 30
0.0
 11
5597.653931325547
 21
1853.21370258695
 31
0.0
  0
LINE
  5
8562
330
855D
100
AcDbEntity
  8
3
 62
     0
370
    -2
100
AcDbLine
 10
4990.053931325546
 20
1858.61370258695
 30
0.0
 11
5282.025359896976
 21
1858.61370258695
 31
0.0
  0
LINE
  5
8563
330
855D
100
AcDbEntity
  8
3
 62
     0
370
    -2
100
AcDbLine
 10
5592.253931325547
 20
1858.61370258695
 30
0.0
 11
5300.282502754118
 21
1858.61370258695
 31
0.0
  0
SOLID
  5
8564
330
855D
100
AcDbEntity
  8
3
 62
     0
100
AcDbTrace
 10
4990.053931325546
 20
1859.51370258695
 30
0.0
 11
4990.053931325546
 21
1857.71370258695
 31
0.0
 12
4984.653931325546
 22
1858.61370258695
 32
0.0
 13
4984.653931325546
 23
1858.61370258695
 33
0.0
  0
SOLID
  5
8565
330
855D
100
AcDbEntity
  8
3
 62
     0
100
AcDbTrace
 10
5592.253931325547
 20
1859.51370258695
 30
0.0
 11
5592.253931325547
 21
1857.71370258695
 31
0.0
 12
5597.653931325547
 22
1858.61370258695
 32
0.0
 13
5597.653931325547
 23
1858.61370258695
 33
0.0
  0
MTEXT
  5
8566
330
855D
100
AcDbEntity
  8
3
 62
     0
100
AcDbMText
 10
5291.153931325547
 20
1858.61370258695
 30
0.0
 40
5.399999999999999
 41
0.0
 71
     5
 72
     1
  1
\A1;613
 73
     1
 44
1.0
1001
ACAD
1000
MTEXTBEGIN
1070
    73
1070
     1
1070
    44
1040
1.0
1070
    74
1070
     0
1000
MTEXTEND
  0
POINT
  5
8567
330
855D
100
AcDbEntity
  8
DEFPOINTS
 62
     0
100
AcDbPoint
 10
4984.653931325546
 20
2046.978022216087
 30
0.0
  0
POINT
  5
8568
330
855D
100
AcDbEntity
  8
DEFPOINTS
 62
     0
100
AcDbPoint
 10
5597.653931325547
 20
2046.978022216088
 30
0.0
  0
POINT
  5
8569
330
855D
100
AcDbEntity
  8
DEFPOINTS
 62
     0
100
AcDbPoint
 10
5597.653931325547
 20
1858.61370258695
 30
0.0
  0
ENDBLK
  5
855F
330
855D
100
AcDbEntity
  8
0
100
AcDbBlockEnd
  0
BLOCK
  5
856B
330
856A
100
AcDbEntity
  8
0
100
AcDbBlockBegin
  2
*D41
 70
     1
 10
0.0
 20
0.0
 30
0.0
  3
*D41
  1

  0
LINE
  5
856D
330
856A
100
AcDbEntity
  8
3
 62
     0
370
    -2
100
AcDbLine
 10
3044.43157844806
 20
2152.378022216088
 30
0.0
 11
3044.43157844806
 21
2192.663736501802
 31
0.0
  0
LINE
  5
856E
330
856A
100
AcDbEntity
  8
3
 62
     0
370
    -2
100
AcDbLine
 10
3044.43157844806
 20
2246.578022216087
 30
0.0
 11
3044.43157844806
 21
2206.292307930374
 31
0.0
  0
SOLID
  5
856F
330
856A
100
AcDbEntity
  8
3
 62
     0
100
AcDbTrace
 10
3043.531578448061
 20
2152.378022216088
 30
0.0
 11
3045.331578448061
 21
2152.378022216088
 31
0.0
 12
3044.43157844806
 22
2146.978022216088
 32
0.0
 13
3044.43157844806
 23
2146.978022216088
 33
0.0
  0
SOLID
  5
8570
330
856A
100
AcDbEntity
  8
3
 62
     0
100
AcDbTrace
 10
3043.531578448061
 20
2246.578022216087
 30
0.0
 11
3045.331578448061
 21
2246.578022216087
 31
0.0
 12
3044.43157844806
 22
2251.978022216087
 32
0.0
 13
3044.43157844806
 23
2251.978022216087
 33
0.0
  0
MTEXT
  5
8571
330
856A
100
AcDbEntity
  8
3
 62
     0
100
AcDbMText
 10
3044.43157844806
 20
2199.478022216088
 30
0.0
 40
5.399999999999999
 41
0.0
 71
     5
 72
     1
  1
\A1;(105)
 73
     1
 44
1.0
1001
ACAD
1000
MTEXTBEGIN
1070
    73
1070
     1
1070
    44
1040
1.0
1070
    74
1070
     0
1000
MTEXTEND
  0
POINT
  5
8572
330
856A
100
AcDbEntity
  8
DEFPOINTS
 62
     0
100
AcDbPoint
 10
2737.49420233401
 20
2146.978022216088
 30
0.0
  0
POINT
  5
8573
330
856A
100
AcDbEntity
  8
DEFPOINTS
 62
     0
100
AcDbPoint
 10
2737.494202334008
 20
2251.978022216087
 30
0.0
  0
POINT
  5
8574
330
856A
100
AcDbEntity
  8
DEFPOINTS
 62
     0
100
AcDbPoint
 10
3044.43157844806
 20
2251.978022216087
 30
0.0
  0
ENDBLK
  5
856C
330
856A
100
AcDbEntity
  8
0
100
AcDbBlockEnd
  0
BLOCK
  5
8576
330
8575
100
AcDbEntity
  8
0
100
AcDbBlockBegin
  2
*D42
 70
     1
 10
0.0
 20
0.0
 30
0.0
  3
*D42
  1

  0
LINE
  5
8578
330
8575
100
AcDbEntity
  8
3
 62
     0
370
    -2
100
AcDbLine
 10
2767.49420233401
 20
2046.978022216088
 30
0.0
 11
3297.046915569963
 21
2046.978022216088
 31
0.0
  0
LINE
  5
8579
330
8575
100
AcDbEntity
  8
3
 62
     0
370
    -2
100
AcDbLine
 10
2213.994202334008
 20
3691.978022216089
 30
0.0
 11
3297.046915569963
 21
3691.978022216088
 31
0.0
  0
LINE
  5
857A
330
8575
100
AcDbEntity
  8
3
 62
     0
370
    -2
100
AcDbLine
 10
3291.646915569963
 20
2052.378022216088
 30
0.0
 11
3291.646915569963
 21
2862.663736501803
 31
0.0
  0
LINE
  5
857B
330
8575
100
AcDbEntity
  8
3
 62
     0
370
    -2
100
AcDbLine
 10
3291.646915569963
 20
3686.578022216088
 30
0.0
 11
3291.646915569963
 21
2876.292307930374
 31
0.0
  0
SOLID
  5
857C
330
8575
100
AcDbEntity
  8
3
 62
     0
100
AcDbTrace
 10
3290.746915569962
 20
2052.378022216088
 30
0.0
 11
3292.546915569963
 21
2052.378022216088
 31
0.0
 12
3291.646915569963
 22
2046.978022216088
 32
0.0
 13
3291.646915569963
 23
2046.978022216088
 33
0.0
  0
SOLID
  5
857D
330
8575
100
AcDbEntity
  8
3
 62
     0
100
AcDbTrace
 10
3290.746915569963
 20
3686.578022216088
 30
0.0
 11
3292.546915569963
 21
3686.578022216088
 31
0.0
 12
3291.646915569963
 22
3691.978022216088
 32
0.0
 13
3291.646915569963
 23
3691.978022216088
 33
0.0
  0
MTEXT
  5
857E
330
8575
100
AcDbEntity
  8
3
 62
     0
100
AcDbMText
 10
3291.646915569963
 20
2869.478022216089
 30
0.0
 40
5.399999999999999
 41
0.0
 71
     5
 72
     1
  1
\A1;(1645)
 73
     1
 44
1.0
1001
ACAD
1000
MTEXTBEGIN
1070
    73
1070
     1
1070
    44
1040
1.0
1070
    74
1070
     0
1000
MTEXTEND
  0
POINT
  5
857F
330
8575
100
AcDbEntity
  8
DEFPOINTS
 62
     0
100
AcDbPoint
 10
2737.49420233401
 20
2046.978022216088
 30
0.0
  0
POINT
  5
8580
330
8575
100
AcDbEntity
  8
DEFPOINTS
 62
     0
100
AcDbPoint
 10
2183.994202334008
 20
3691.978022216089
 30
0.0
  0
POINT
  5
8581
330
8575
100
AcDbEntity
  8
DEFPOINTS
 62
     0
100
AcDbPoint
 10
3291.646915569963
 20
3691.978022216088
 30
0.0
  0
ENDBLK
  5
8577
330
8575
100
AcDbEntity
  8
0
100
AcDbBlockEnd
  0
BLOCK
  5
8583
330
8582
100
AcDbEntity
  8
0
100
AcDbBlockBegin
  2
*D43
 70
     1
 10
0.0
 20
0.0
 30
0.0
  3
*D43
  1

  0
LINE
  5
8585
330
8582
100
AcDbEntity
  8
3
 62
     0
370
    -2
100
AcDbLine
 10
2739.36920233401
 20
2146.978022216088
 30
0.0
 11
3050.831187629272
 21
2146.978022216088
 31
0.0
  0
LINE
  5
8586
330
8582
100
AcDbEntity
  8
3
 62
     0
370
    -2
100
AcDbLine
 10
2739.36920233401
 20
2046.978022216088
 30
0.0
 11
3050.831187629272
 21
2046.978022216088
 31
0.0
  0
LINE
  5
8587
330
8582
100
AcDbEntity
  8
3
 62
     0
370
    -2
100
AcDbLine
 10
3045.431187629271
 20
2141.578022216088
 30
0.0
 11
3045.431187629271
 21
2102.378022216088
 31
0.0
  0
LINE
  5
8588
330
8582
100
AcDbEntity
  8
3
 62
     0
370
    -2
100
AcDbLine
 10
3045.431187629271
 20
2052.378022216088
 30
0.0
 11
3045.431187629271
 21
2091.578022216088
 31
0.0
  0
SOLID
  5
8589
330
8582
100
AcDbEntity
  8
3
 62
     0
100
AcDbTrace
 10
3044.531187629271
 20
2141.578022216088
 30
0.0
 11
3046.331187629272
 21
2141.578022216088
 31
0.0
 12
3045.431187629271
 22
2146.978022216088
 32
0.0
 13
3045.431187629271
 23
2146.978022216088
 33
0.0
  0
SOLID
  5
858A
330
8582
100
AcDbEntity
  8
3
 62
     0
100
AcDbTrace
 10
3044.531187629271
 20
2052.378022216088
 30
0.0
 11
3046.331187629272
 21
2052.378022216088
 31
0.0
 12
3045.431187629271
 22
2046.978022216088
 32
0.0
 13
3045.431187629271
 23
2046.978022216088
 33
0.0
  0
MTEXT
  5
858B
330
8582
100
AcDbEntity
  8
3
 62
     0
100
AcDbMText
 10
3045.431187629271
 20
2096.978022216088
 30
0.0
 40
5.399999999999999
 41
0.0
 71
     5
 72
     1
  1
\A1;100
 73
     1
 44
1.0
1001
ACAD
1000
MTEXTBEGIN
1070
    73
1070
     1
1070
    44
1040
1.0
1070
    74
1070
     0
1000
MTEXTEND
  0
POINT
  5
858C
330
8582
100
AcDbEntity
  8
DEFPOINTS
 62
     0
100
AcDbPoint
 10
2737.49420233401
 20
2146.978022216088
 30
0.0
  0
POINT
  5
858D
330
8582
100
AcDbEntity
  8
DEFPOINTS
 62
     0
100
AcDbPoint
 10
2737.49420233401
 20
2046.978022216088
 30
0.0
  0
POINT
  5
858E
330
8582
100
AcDbEntity
  8
DEFPOINTS
 62
     0
100
AcDbPoint
 10
3045.431187629271
 20
2046.978022216088
 30
0.0
  0
ENDBLK
  5
8584
330
8582
100
AcDbEntity
  8
0
100
AcDbBlockEnd
  0
BLOCK
  5
8591
330
8590
100
AcDbEntity
  8
0
100
AcDbBlockBegin
  2
*D44
 70
     1
 10
0.0
 20
0.0
 30
0.0
  3
*D44
  1

  0
LINE
  5
8593
330
8590
100
AcDbEntity
  8
3
 62
     0
370
    -2
100
AcDbLine
 10
4222.653931325547
 20
2016.978022216088
 30
0.0
 11
4222.653931325547
 21
1828.61370258695
 31
0.0
  0
LINE
  5
8594
330
8590
100
AcDbEntity
  8
3
 62
     0
370
    -2
100
AcDbLine
 10
4984.653931325546
 20
2016.978022216088
 30
0.0
 11
4984.653931325546
 21
1828.61370258695
 31
0.0
  0
LINE
  5
8595
330
8590
100
AcDbEntity
  8
3
 62
     0
370
    -2
100
AcDbLine
 10
4282.653931325547
 20
1858.61370258695
 30
0.0
 11
4924.653931325545
 21
1858.61370258695
 31
0.0
  0
INSERT
  5
8596
330
8590
100
AcDbEntity
  8
3
 62
     0
370
    -2
100
AcDbBlockReference
  2
_OPEN
 10
4222.653931325547
 20
1858.61370258695
 30
0.0
 41
60.0
 42
60.0
 43
60.0
 50
180.0
  0
INSERT
  5
8597
330
8590
100
AcDbEntity
  8
3
 62
     0
370
    -2
100
AcDbBlockReference
  2
_OPEN
 10
4984.653931325546
 20
1858.61370258695
 30
0.0
 41
60.0
 42
60.0
 43
60.0
  0
MTEXT
  5
8598
330
8590
100
AcDbEntity
  8
3
 62
     0
100
AcDbMText
 10
4603.653931325546
 20
1933.61370258695
 30
0.0
 40
90.0
 41
0.0
 71
     5
 72
     1
  1
\A1;762
 73
     1
 44
1.0
1001
ACAD
1000
MTEXTBEGIN
1070
    73
1070
     1
1070
    44
1040
1.0
1070
    74
1070
     0
1000
MTEXTEND
  0
POINT
  5
8599
330
8590
100
AcDbEntity
  8
DEFPOINTS
 62
     0
100
AcDbPoint
 10
4222.653931325547
 20
2046.978022216088
 30
0.0
  0
POINT
  5
859A
330
8590
100
AcDbEntity
  8
DEFPOINTS
 62
     0
100
AcDbPoint
 10
4984.653931325546
 20
2046.978022216088
 30
0.0
  0
POINT
  5
859B
330
8590
100
AcDbEntity
  8
DEFPOINTS
 62
     0
100
AcDbPoint
 10
4984.653931325546
 20
1858.61370258695
 30
0.0
  0
ENDBLK
  5
8592
330
8590
100
AcDbEntity
  8
0
100
AcDbBlockEnd
  0
BLOCK
  5
859E
330
859D
100
AcDbEntity
  8
0
100
AcDbBlockBegin
  2
*D45
 70
     1
 10
0.0
 20
0.0
 30
0.0
  3
*D45
  1

  0
LINE
  5
85A0
330
859D
100
AcDbEntity
  8
3
 62
     0
370
    -2
100
AcDbLine
 10
4984.653931325546
 20
2016.978022216088
 30
0.0
 11
4984.653931325546
 21
1828.61370258695
 31
0.0
  0
LINE
  5
85A1
330
859D
100
AcDbEntity
  8
3
 62
     0
370
    -2
100
AcDbLine
 10
5597.653931325547
 20
2016.978022216088
 30
0.0
 11
5597.653931325547
 21
1828.61370258695
 31
0.0
  0
LINE
  5
85A2
330
859D
100
AcDbEntity
  8
3
 62
     0
370
    -2
100
AcDbLine
 10
5044.653931325545
 20
1858.61370258695
 30
0.0
 11
5537.653931325547
 21
1858.61370258695
 31
0.0
  0
INSERT
  5
85A3
330
859D
100
AcDbEntity
  8
3
 62
     0
370
    -2
100
AcDbBlockReference
  2
_OPEN
 10
4984.653931325546
 20
1858.61370258695
 30
0.0
 41
60.0
 42
60.0
 43
60.0
 50
180.0
  0
INSERT
  5
85A4
330
859D
100
AcDbEntity
  8
3
 62
     0
370
    -2
100
AcDbBlockReference
  2
_OPEN
 10
5597.653931325547
 20
1858.61370258695
 30
0.0
 41
60.0
 42
60.0
 43
60.0
  0
MTEXT
  5
85A5
330
859D
100
AcDbEntity
  8
3
 62
     0
100
AcDbMText
 10
5291.153931325546
 20
1933.61370258695
 30
0.0
 40
90.0
 41
0.0
 71
     5
 72
     1
  1
\A1;613
 73
     1
 44
1.0
1001
ACAD
1000
MTEXTBEGIN
1070
    73
1070
     1
1070
    44
1040
1.0
1070
    74
1070
     0
1000
MTEXTEND
  0
POINT
  5
85A6
330
859D
100
AcDbEntity
  8
DEFPOINTS
 62
     0
100
AcDbPoint
 10
4984.653931325546
 20
2046.978022216088
 30
0.0
  0
POINT
  5
85A7
330
859D
100
AcDbEntity
  8
DEFPOINTS
 62
     0
100
AcDbPoint
 10
5597.653931325547
 20
2046.978022216088
 30
0.0
  0
POINT
  5
85A8
330
859D
100
AcDbEntity
  8
DEFPOINTS
 62
     0
100
AcDbPoint
 10
5597.653931325547
 20
1858.61370258695
 30
0.0
  0
ENDBLK
  5
859F
330
859D
100
AcDbEntity
  8
0
100
AcDbBlockEnd
  0
BLOCK
  5
85AB
330
85AA
100
AcDbEntity
  8
0
100
AcDbBlockBegin
  2
*D46
 70
     1
 10
0.0
 20
0.0
 30
0.0
  3
*D46
  1

  0
LINE
  5
85AD
330
85AA
100
AcDbEntity
  8
3
 62
     0
370
    -2
100
AcDbLine
 10
867.4942023340081
 20
2016.978022216088
 30
0.0
 11
867.4942023340081
 21
1828.61370258695
 31
0.0
  0
LINE
  5
85AE
330
85AA
100
AcDbEntity
  8
3
 62
     0
370
    -2
100
AcDbLine
 10
2177.494202334008
 20
2016.978022216088
 30
0.0
 11
2177.494202334008
 21
1828.61370258695
 31
0.0
  0
LINE
  5
85AF
330
85AA
100
AcDbEntity
  8
3
 62
     0
370
    -2
100
AcDbLine
 10
927.4942023340081
 20
1858.61370258695
 30
0.0
 11
2117.494202334007
 21
1858.61370258695
 31
0.0
  0
INSERT
  5
85B0
330
85AA
100
AcDbEntity
  8
3
 62
     0
370
    -2
100
AcDbBlockReference
  2
_OPEN
 10
867.4942023340081
 20
1858.61370258695
 30
0.0
 41
60.0
 42
60.0
 43
60.0
 50
180.0
  0
INSERT
  5
85B1
330
85AA
100
AcDbEntity
  8
3
 62
     0
370
    -2
100
AcDbBlockReference
  2
_OPEN
 10
2177.494202334008
 20
1858.61370258695
 30
0.0
 41
60.0
 42
60.0
 43
60.0
  0
MTEXT
  5
85B2
330
85AA
100
AcDbEntity
  8
3
 62
     0
100
AcDbMText
 10
1522.494202334008
 20
1933.61370258695
 30
0.0
 40
90.0
 41
0.0
 71
     5
 72
     1
  1
\A1;1310
 73
     1
 44
1.0
1001
ACAD
1000
MTEXTBEGIN
1070
    73
1070
     1
1070
    44
1040
1.0
1070
    74
1070
     0
1000
MTEXTEND
  0
POINT
  5
85B3
330
85AA
100
AcDbEntity
  8
DEFPOINTS
 62
     0
100
AcDbPoint
 10
867.4942023340081
 20
2046.978022216088
 30
0.0
  0
POINT
  5
85B4
330
85AA
100
AcDbEntity
  8
DEFPOINTS
 62
     0
100
AcDbPoint
 10
2177.494202334008
 20
2046.978022216088
 30
0.0
  0
POINT
  5
85B5
330
85AA
100
AcDbEntity
  8
DEFPOINTS
 62
     0
100
AcDbPoint
 10
2177.494202334008
 20
1858.61370258695
 30
0.0
  0
ENDBLK
  5
85AC
330
85AA
100
AcDbEntity
  8
0
100
AcDbBlockEnd
  0
BLOCK
  5
85B8
330
85B7
100
AcDbEntity
  8
0
100
AcDbBlockBegin
  2
*D47
 70
     1
 10
0.0
 20
0.0
 30
0.0
  3
*D47
  1

  0
LINE
  5
85BA
330
85B7
100
AcDbEntity
  8
3
 62
     0
370
    -2
100
AcDbLine
 10
2177.494202334008
 20
2016.978022216088
 30
0.0
 11
2177.494202334008
 21
1828.61370258695
 31
0.0
  0
LINE
  5
85BB
330
85B7
100
AcDbEntity
  8
3
 62
     0
370
    -2
100
AcDbLine
 10
2737.49420233401
 20
2016.978022216088
 30
0.0
 11
2737.49420233401
 21
1828.61370258695
 31
0.0
  0
LINE
  5
85BC
330
85B7
100
AcDbEntity
  8
3
 62
     0
370
    -2
100
AcDbLine
 10
2237.494202334008
 20
1858.61370258695
 30
0.0
 11
2677.49420233401
 21
1858.61370258695
 31
0.0
  0
INSERT
  5
85BD
330
85B7
100
AcDbEntity
  8
3
 62
     0
370
    -2
100
AcDbBlockReference
  2
_OPEN
 10
2177.494202334008
 20
1858.61370258695
 30
0.0
 41
60.0
 42
60.0
 43
60.0
 50
180.0
  0
INSERT
  5
85BE
330
85B7
100
AcDbEntity
  8
3
 62
     0
370
    -2
100
AcDbBlockReference
  2
_OPEN
 10
2737.49420233401
 20
1858.61370258695
 30
0.0
 41
60.0
 42
60.0
 43
60.0
  0
MTEXT
  5
85BF
330
85B7
100
AcDbEntity
  8
3
 62
     0
100
AcDbMText
 10
2457.49420233401
 20
1933.61370258695
 30
0.0
 40
90.0
 41
0.0
 71
     5
 72
     1
  1
\A1;560
 73
     1
 44
1.0
1001
ACAD
1000
MTEXTBEGIN
1070
    73
1070
     1
1070
    44
1040
1.0
1070
    74
1070
     0
1000
MTEXTEND
  0
POINT
  5
85C0
330
85B7
100
AcDbEntity
  8
DEFPOINTS
 62
     0
100
AcDbPoint
 10
2177.494202334008
 20
2046.978022216088
 30
0.0
  0
POINT
  5
85C1
330
85B7
100
AcDbEntity
  8
DEFPOINTS
 62
     0
100
AcDbPoint
 10
2737.49420233401
 20
2046.978022216088
 30
0.0
  0
POINT
  5
85C2
330
85B7
100
AcDbEntity
  8
DEFPOINTS
 62
     0
100
AcDbPoint
 10
2737.49420233401
 20
1858.61370258695
 30
0.0
  0
ENDBLK
  5
85B9
330
85B7
100
AcDbEntity
  8
0
100
AcDbBlockEnd
  0
BLOCK
  5
85C5
330
85C4
100
AcDbEntity
  8
0
100
AcDbBlockBegin
  2
*D48
 70
     1
 10
0.0
 20
0.0
 30
0.0
  3
*D48
  1

  0
LINE
  5
85C7
330
85C4
100
AcDbEntity
  8
3
 62
     0
370
    -2
100
AcDbLine
 10
1216.494202334008
 20
3721.978022216088
 30
0.0
 11
1216.494202334008
 21
3871.593130659299
 31
0.0
  0
LINE
  5
85C8
330
85C4
100
AcDbEntity
  8
3
 62
     0
370
    -2
100
AcDbLine
 10
2141.494202334008
 20
3721.978022216088
 30
0.0
 11
2141.494202334008
 21
3871.593130659299
 31
0.0
  0
LINE
  5
85C9
330
85C4
100
AcDbEntity
  8
3
 62
     0
370
    -2
100
AcDbLine
 10
1276.494202334008
 20
3841.593130659299
 30
0.0
 11
2081.494202334008
 21
3841.593130659299
 31
0.0
  0
INSERT
  5
85CA
330
85C4
100
AcDbEntity
  8
3
 62
     0
370
    -2
100
AcDbBlockReference
  2
_OPEN
 10
1216.494202334008
 20
3841.593130659299
 30
0.0
 41
60.0
 42
60.0
 43
60.0
 50
180.0
  0
INSERT
  5
85CB
330
85C4
100
AcDbEntity
  8
3
 62
     0
370
    -2
100
AcDbBlockReference
  2
_OPEN
 10
2141.494202334008
 20
3841.593130659299
 30
0.0
 41
60.0
 42
60.0
 43
60.0
  0
MTEXT
  5
85CC
330
85C4
100
AcDbEntity
  8
3
 62
     0
100
AcDbMText
 10
1678.994202334008
 20
3916.593130659299
 30
0.0
 40
90.0
 41
0.0
 71
     5
 72
     1
  1
\A1;925
 73
     1
 44
1.0
1001
ACAD
1000
MTEXTBEGIN
1070
    73
1070
     1
1070
    44
1040
1.0
1070
    74
1070
     0
1000
MTEXTEND
  0
POINT
  5
85CD
330
85C4
100
AcDbEntity
  8
DEFPOINTS
 62
     0
100
AcDbPoint
 10
1216.494202334008
 20
3691.978022216089
 30
0.0
  0
POINT
  5
85CE
330
85C4
100
AcDbEntity
  8
DEFPOINTS
 62
     0
100
AcDbPoint
 10
2141.494202334008
 20
3691.978022216089
 30
0.0
  0
POINT
  5
85CF
330
85C4
100
AcDbEntity
  8
DEFPOINTS
 62
     0
100
AcDbPoint
 10
2141.494202334008
 20
3841.593130659299
 30
0.0
  0
ENDBLK
  5
85C6
330
85C4
100
AcDbEntity
  8
0
100
AcDbBlockEnd
  0
BLOCK
  5
85D2
330
85D1
100
AcDbEntity
  8
0
100
AcDbBlockBegin
  2
*D49
 70
     1
 10
0.0
 20
0.0
 30
0.0
  3
*D49
  1

  0
LINE
  5
85D4
330
85D1
100
AcDbEntity
  8
3
 62
     0
370
    -2
100
AcDbLine
 10
1216.494202334008
 20
3721.978022216088
 30
0.0
 11
1216.494202334008
 21
4021.936430757161
 31
0.0
  0
LINE
  5
85D5
330
85D1
100
AcDbEntity
  8
3
 62
     0
370
    -2
100
AcDbLine
 10
2177.494202334008
 20
3744.062890704765
 30
0.0
 11
2177.494202334008
 21
4021.936430757161
 31
0.0
  0
LINE
  5
85D6
330
85D1
100
AcDbEntity
  8
3
 62
     0
370
    -2
100
AcDbLine
 10
1276.494202334008
 20
3991.936430757161
 30
0.0
 11
2117.494202334007
 21
3991.936430757161
 31
0.0
  0
INSERT
  5
85D7
330
85D1
100
AcDbEntity
  8
3
 62
     0
370
    -2
100
AcDbBlockReference
  2
_OPEN
 10
1216.494202334008
 20
3991.936430757161
 30
0.0
 41
60.0
 42
60.0
 43
60.0
 50
180.0
  0
INSERT
  5
85D8
330
85D1
100
AcDbEntity
  8
3
 62
     0
370
    -2
100
AcDbBlockReference
  2
_OPEN
 10
2177.494202334008
 20
3991.936430757161
 30
0.0
 41
60.0
 42
60.0
 43
60.0
  0
MTEXT
  5
85D9
330
85D1
100
AcDbEntity
  8
3
 62
     0
100
AcDbMText
 10
1696.994202334008
 20
4066.936430757161
 30
0.0
 40
90.0
 41
0.0
 71
     5
 72
     1
  1
\A1;961
 73
     1
 44
1.0
1001
ACAD
1000
MTEXTBEGIN
1070
    73
1070
     1
1070
    44
1040
1.0
1070
    74
1070
     0
1000
MTEXTEND
  0
POINT
  5
85DA
330
85D1
100
AcDbEntity
  8
DEFPOINTS
 62
     0
100
AcDbPoint
 10
1216.494202334008
 20
3691.978022216089
 30
0.0
  0
POINT
  5
85DB
330
85D1
100
AcDbEntity
  8
DEFPOINTS
 62
     0
100
AcDbPoint
 10
2177.494202334008
 20
3714.062890704765
 30
0.0
  0
POINT
  5
85DC
330
85D1
100
AcDbEntity
  8
DEFPOINTS
 62
     0
100
AcDbPoint
 10
2177.494202334008
 20
3991.936430757161
 30
0.0
  0
ENDBLK
  5
85D3
330
85D1
100
AcDbEntity
  8
0
100
AcDbBlockEnd
  0
BLOCK
  5
85DF
330
85DE
100
AcDbEntity
  8
0
100
AcDbBlockBegin
  2
*D50
 70
     1
 10
0.0
 20
0.0
 30
0.0
  3
*D50
  1

  0
LINE
  5
85E1
330
85DE
100
AcDbEntity
  8
3
 62
     0
370
    -2
100
AcDbLine
 10
2177.494202334008
 20
3744.062890704765
 30
0.0
 11
2177.494202334008
 21
4021.936430757161
 31
0.0
  0
LINE
  5
85E2
330
85DE
100
AcDbEntity
  8
3
 62
     0
370
    -2
100
AcDbLine
 10
2820.494202334008
 20
3034.978022216089
 30
0.0
 11
2820.494202334008
 21
4021.936430757161
 31
0.0
  0
LINE
  5
85E3
330
85DE
100
AcDbEntity
  8
3
 62
     0
370
    -2
100
AcDbLine
 10
2237.494202334008
 20
3991.936430757161
 30
0.0
 11
2760.494202334008
 21
3991.936430757161
 31
0.0
  0
INSERT
  5
85E4
330
85DE
100
AcDbEntity
  8
3
 62
     0
370
    -2
100
AcDbBlockReference
  2
_OPEN
 10
2177.494202334008
 20
3991.936430757161
 30
0.0
 41
60.0
 42
60.0
 43
60.0
 50
180.0
  0
INSERT
  5
85E5
330
85DE
100
AcDbEntity
  8
3
 62
     0
370
    -2
100
AcDbBlockReference
  2
_OPEN
 10
2820.494202334008
 20
3991.936430757161
 30
0.0
 41
60.0
 42
60.0
 43
60.0
  0
MTEXT
  5
85E6
330
85DE
100
AcDbEntity
  8
3
 62
     0
100
AcDbMText
 10
2498.994202334008
 20
4066.936430757161
 30
0.0
 40
90.0
 41
0.0
 71
     5
 72
     1
  1
\A1;643
 73
     1
 44
1.0
1001
ACAD
1000
MTEXTBEGIN
1070
    73
1070
     1
1070
    44
1040
1.0
1070
    74
1070
     0
1000
MTEXTEND
  0
POINT
  5
85E7
330
85DE
100
AcDbEntity
  8
DEFPOINTS
 62
     0
100
AcDbPoint
 10
2177.494202334008
 20
3714.062890704765
 30
0.0
  0
POINT
  5
85E8
330
85DE
100
AcDbEntity
  8
DEFPOINTS
 62
     0
100
AcDbPoint
 10
2820.494202334008
 20
3004.978022216088
 30
0.0
  0
POINT
  5
85E9
330
85DE
100
AcDbEntity
  8
DEFPOINTS
 62
     0
100
AcDbPoint
 10
2820.494202334008
 20
3991.936430757161
 30
0.0
  0
ENDBLK
  5
85E0
330
85DE
100
AcDbEntity
  8
0
100
AcDbBlockEnd
  0
BLOCK
  5
85EC
330
85EB
100
AcDbEntity
  8
0
100
AcDbBlockBegin
  2
*D51
 70
     1
 10
0.0
 20
0.0
 30
0.0
  3
*D51
  1

  0
LINE
  5
85EE
330
85EB
100
AcDbEntity
  8
3
 62
     0
370
    -2
100
AcDbLine
 10
2213.994202334008
 20
3691.978022216089
 30
0.0
 11
3075.431187629272
 21
3691.978022216088
 31
0.0
  0
LINE
  5
85EF
330
85EB
100
AcDbEntity
  8
3
 62
     0
370
    -2
100
AcDbLine
 10
2863.749541112554
 20
3071.978022216089
 30
0.0
 11
3075.431187629272
 21
3071.978022216088
 31
0.0
  0
LINE
  5
85F0
330
85EB
100
AcDbEntity
  8
3
 62
     0
370
    -2
100
AcDbLine
 10
3045.431187629272
 20
3631.978022216089
 30
0.0
 11
3045.431187629272
 21
3131.978022216089
 31
0.0
  0
INSERT
  5
85F1
330
85EB
100
AcDbEntity
  8
3
 62
     0
370
    -2
100
AcDbBlockReference
  2
_OPEN
 10
3045.431187629272
 20
3691.978022216089
 30
0.0
 41
60.0
 42
60.0
 43
60.0
 50
90.0
  0
INSERT
  5
85F2
330
85EB
100
AcDbEntity
  8
3
 62
     0
370
    -2
100
AcDbBlockReference
  2
_OPEN
 10
3045.431187629271
 20
3071.978022216089
 30
0.0
 41
60.0
 42
60.0
 43
60.0
 50
270.0
  0
MTEXT
  5
85F3
330
85EB
100
AcDbEntity
  8
3
 62
     0
100
AcDbMText
 10
2970.431187629271
 20
3381.978022216089
 30
0.0
 40
90.0
 41
0.0
 71
     5
 72
     1
  1
\A1;620
 11
0.0000000000000001
 21
1.0
 31
0.0
 73
     1
 44
1.0
1001
ACAD
1000
MTEXTBEGIN
1070
    73
1070
     1
1070
    44
1040
1.0
1070
    74
1070
     0
1000
MTEXTEND
  0
POINT
  5
85F4
330
85EB
100
AcDbEntity
  8
DEFPOINTS
 62
     0
100
AcDbPoint
 10
2183.994202334008
 20
3691.978022216089
 30
0.0
  0
POINT
  5
85F5
330
85EB
100
AcDbEntity
  8
DEFPOINTS
 62
     0
100
AcDbPoint
 10
2833.749541112554
 20
3071.978022216089
 30
0.0
  0
POINT
  5
85F6
330
85EB
100
AcDbEntity
  8
DEFPOINTS
 62
     0
100
AcDbPoint
 10
3045.431187629271
 20
3071.978022216089
 30
0.0
  0
ENDBLK
  5
85ED
330
85EB
100
AcDbEntity
  8
0
100
AcDbBlockEnd
  0
BLOCK
  5
85F9
330
85F8
100
AcDbEntity
  8
0
100
AcDbBlockBegin
  2
*D52
 70
     1
 10
0.0
 20
0.0
 30
0.0
  3
*D52
  1

  0
LINE
  5
85FB
330
85F8
100
AcDbEntity
  8
3
 62
     0
370
    -2
100
AcDbLine
 10
2863.749541112554
 20
3071.978022216089
 30
0.0
 11
3075.431187629272
 21
3071.978022216088
 31
0.0
  0
LINE
  5
85FC
330
85F8
100
AcDbEntity
  8
3
 62
     0
370
    -2
100
AcDbLine
 10
2767.494202334008
 20
2251.978022216087
 30
0.0
 11
3075.431187629272
 21
2251.978022216087
 31
0.0
  0
LINE
  5
85FD
330
85F8
100
AcDbEntity
  8
3
 62
     0
370
    -2
100
AcDbLine
 10
3045.431187629271
 20
3011.978022216089
 30
0.0
 11
3045.431187629271
 21
2311.978022216087
 31
0.0
  0
INSERT
  5
85FE
330
85F8
100
AcDbEntity
  8
3
 62
     0
370
    -2
100
AcDbBlockReference
  2
_OPEN
 10
3045.431187629271
 20
3071.978022216089
 30
0.0
 41
60.0
 42
60.0
 43
60.0
 50
90.0
  0
INSERT
  5
85FF
330
85F8
100
AcDbEntity
  8
3
 62
     0
370
    -2
100
AcDbBlockReference
  2
_OPEN
 10
3045.431187629271
 20
2251.978022216087
 30
0.0
 41
60.0
 42
60.0
 43
60.0
 50
270.0
  0
MTEXT
  5
8600
330
85F8
100
AcDbEntity
  8
3
 62
     0
100
AcDbMText
 10
2970.431187629271
 20
2661.978022216088
 30
0.0
 40
90.0
 41
0.0
 71
     5
 72
     1
  1
\A1;820
 11
0.0000000000000001
 21
1.0
 31
0.0
 73
     1
 44
1.0
1001
ACAD
1000
MTEXTBEGIN
1070
    73
1070
     1
1070
    44
1040
1.0
1070
    74
1070
     0
1000
MTEXTEND
  0
POINT
  5
8601
330
85F8
100
AcDbEntity
  8
DEFPOINTS
 62
     0
100
AcDbPoint
 10
2833.749541112554
 20
3071.978022216089
 30
0.0
  0
POINT
  5
8602
330
85F8
100
AcDbEntity
  8
DEFPOINTS
 62
     0
100
AcDbPoint
 10
2737.494202334008
 20
2251.978022216087
 30
0.0
  0
POINT
  5
8603
330
85F8
100
AcDbEntity
  8
DEFPOINTS
 62
     0
100
AcDbPoint
 10
3045.431187629271
 20
2251.978022216087
 30
0.0
  0
ENDBLK
  5
85FA
330
85F8
100
AcDbEntity
  8
0
100
AcDbBlockEnd
  0
BLOCK
  5
8606
330
8605
100
AcDbEntity
  8
0
100
AcDbBlockBegin
  2
*D53
 70
     1
 10
0.0
 20
0.0
 30
0.0
  3
*D53
  1

  0
LINE
  5
86D3
330
8605
100
AcDbEntity
  8
3
 62
     0
370
    -2
100
AcDbLine
 10
2767.494202334008
 20
2251.978022216087
 30
0.0
 11
3075.431187629272
 21
2251.978022216087
 31
0.0
  0
LINE
  5
86D4
330
8605
100
AcDbEntity
  8
3
 62
     0
370
    -2
100
AcDbLine
 10
2767.49420233401
 20
2146.978022216088
 30
0.0
 11
3075.431187629272
 21
2146.978022216087
 31
0.0
  0
LINE
  5
86D5
330
8605
100
AcDbEntity
  8
3
 62
     0
370
    -2
100
AcDbLine
 10
3045.431187629271
 20
2311.978022216087
 30
0.0
 11
3045.431187629271
 21
2371.978022216087
 31
0.0
  0
LINE
  5
86D6
330
8605
100
AcDbEntity
  8
3
 62
     0
370
    -2
100
AcDbLine
 10
3045.431187629271
 20
2146.978022216088
 30
0.0
 11
3045.431187629271
 21
2086.978022216088
 31
0.0
  0
LINE
  5
86D7
330
8605
100
AcDbEntity
  8
3
 62
     0
370
    -2
100
AcDbLine
 10
3045.431187629271
 20
2199.478022216088
 30
0.0
 11
3326.145473343557
 21
2283.692307930373
 31
0.0
  0
LINE
  5
86D8
330
8605
100
AcDbEntity
  8
3
 62
     0
370
    -2
100
AcDbLine
 10
3326.145473343557
 20
2283.692307930373
 30
0.0
 11
3326.145473343557
 21
2673.692307930373
 31
0.0
  0
MTEXT
  5
86D9
330
8605
100
AcDbEntity
  8
3
 62
     0
100
AcDbMText
 10
3227.574044772128
 20
2478.692307930374
 30
0.0
 40
90.0
 41
0.0
 71
     5
 72
     1
  1
\A1;(105)
 11
0.0000000000000001
 21
1.0
 31
0.0
 73
     1
 44
1.0
1001
ACAD
1000
MTEXTBEGIN
1070
    73
1070
     1
1070
    44
1040
1.0
1070
    74
1070
     0
1000
MTEXTEND
  0
LINE
  5
86DA
330
8605
100
AcDbEntity
  8
3
 62
     0
370
    -2
100
AcDbLine
 10
3045.431187629271
 20
2251.978022216087
 30
0.0
 11
3045.431187629271
 21
2146.978022216088
 31
0.0
  0
LINE
  5
86DB
330
8605
100
AcDbEntity
  8
3
 62
     0
370
    -2
100
AcDbLine
 10
3045.431187629271
 20
2251.978022216087
 30
0.0
 11
3045.431187629271
 21
2146.978022216088
 31
0.0
  0
INSERT
  5
86DC
330
8605
100
AcDbEntity
  8
3
 62
     0
370
    -2
100
AcDbBlockReference
  2
_OPEN
 10
3045.431187629271
 20
2251.978022216087
 30
0.0
 41
60.0
 42
60.0
 43
60.0
 50
270.0
  0
INSERT
  5
86DD
330
8605
100
AcDbEntity
  8
3
 62
     0
370
    -2
100
AcDbBlockReference
  2
_DotSmall
 10
3045.431187629271
 20
2146.978022216088
 30
0.0
 41
60.0
 42
60.0
 43
60.0
 50
90.0
  0
POINT
  5
86DE
330
8605
100
AcDbEntity
  8
DEFPOINTS
 62
     0
100
AcDbPoint
 10
2737.494202334008
 20
2251.978022216087
 30
0.0
  0
POINT
  5
86DF
330
8605
100
AcDbEntity
  8
DEFPOINTS
 62
     0
100
AcDbPoint
 10
2737.49420233401
 20
2146.978022216088
 30
0.0
  0
POINT
  5
86E0
330
8605
100
AcDbEntity
  8
DEFPOINTS
 62
     0
100
AcDbPoint
 10
3045.431187629271
 20
2146.978022216088
 30
0.0
  0
ENDBLK
  5
8607
330
8605
100
AcDbEntity
  8
0
100
AcDbBlockEnd
  0
BLOCK
  5
8618
330
8617
100
AcDbEntity
  8
0
100
AcDbBlockBegin
  2
*D54
 70
     1
 10
0.0
 20
0.0
 30
0.0
  3
*D54
  1

  0
LINE
  5
872F
330
8617
100
AcDbEntity
  8
3
 62
     0
370
    -2
100
AcDbLine
 10
2767.49420233401
 20
2146.978022216088
 30
0.0
 11
3075.431187629272
 21
2146.978022216087
 31
0.0
  0
LINE
  5
8730
330
8617
100
AcDbEntity
  8
3
 62
     0
370
    -2
100
AcDbLine
 10
2767.49420233401
 20
2046.978022216088
 30
0.0
 11
3075.431187629272
 21
2046.978022216088
 31
0.0
  0
LINE
  5
8731
330
8617
100
AcDbEntity
  8
3
 62
     0
370
    -2
100
AcDbLine
 10
3045.431187629271
 20
2146.978022216088
 30
0.0
 11
3045.431187629271
 21
2206.978022216088
 31
0.0
  0
LINE
  5
8732
330
8617
100
AcDbEntity
  8
3
 62
     0
370
    -2
100
AcDbLine
 10
3045.431187629271
 20
1986.978022216088
 30
0.0
 11
3045.431187629271
 21
1926.978022216088
 31
0.0
  0
MTEXT
  5
8733
330
8617
100
AcDbEntity
  8
3
 62
     0
100
AcDbMText
 10
2960.431187629271
 20
1903.703351630109
 30
0.0
 40
90.0
 41
0.0
 71
     5
 72
     1
  1
\A1;100
 11
0.0000000000000001
 21
1.0
 31
0.0
 73
     1
 44
1.0
1001
ACAD
1000
MTEXTBEGIN
1070
    73
1070
     1
1070
    44
1040
1.0
1070
    74
1070
     0
1000
MTEXTEND
  0
LINE
  5
8734
330
8617
100
AcDbEntity
  8
3
 62
     0
370
    -2
100
AcDbLine
 10
3045.431187629271
 20
2146.978022216088
 30
0.0
 11
3045.431187629271
 21
2046.978022216088
 31
0.0
  0
INSERT
  5
8735
330
8617
100
AcDbEntity
  8
3
 62
     0
370
    -2
100
AcDbBlockReference
  2
_DotSmall
 10
3045.431187629271
 20
2146.978022216088
 30
0.0
 41
60.0
 42
60.0
 43
60.0
 50
270.0
  0
INSERT
  5
8736
330
8617
100
AcDbEntity
  8
3
 62
     0
370
    -2
100
AcDbBlockReference
  2
_OPEN
 10
3045.431187629271
 20
2046.978022216088
 30
0.0
 41
60.0
 42
60.0
 43
60.0
 50
90.0
  0
POINT
  5
8737
330
8617
100
AcDbEntity
  8
DEFPOINTS
 62
     0
100
AcDbPoint
 10
2737.49420233401
 20
2146.978022216088
 30
0.0
  0
POINT
  5
8738
330
8617
100
AcDbEntity
  8
DEFPOINTS
 62
     0
100
AcDbPoint
 10
2737.49420233401
 20
2046.978022216088
 30
0.0
  0
POINT
  5
8739
330
8617
100
AcDbEntity
  8
DEFPOINTS
 62
     0
100
AcDbPoint
 10
3045.431187629271
 20
2046.978022216088
 30
0.0
  0
ENDBLK
  5
8619
330
8617
100
AcDbEntity
  8
0
100
AcDbBlockEnd
  0
BLOCK
  5
8651
330
8650
100
AcDbEntity
  8
0
100
AcDbBlockBegin
  2
*D55
 70
     1
 10
0.0
 20
0.0
 30
0.0
  3
*D55
  1

  0
LINE
  5
873A
330
8650
100
AcDbEntity
  8
3
 62
     0
370
    -2
100
AcDbLine
 10
2767.49420233401
 20
2046.978022216088
 30
0.0
 11
3537.826224898592
 21
2046.978022216088
 31
0.0
  0
LINE
  5
873B
330
8650
100
AcDbEntity
  8
3
 62
     0
370
    -2
100
AcDbLine
 10
2213.994202334008
 20
3691.978022216089
 30
0.0
 11
3537.826224898592
 21
3691.978022216088
 31
0.0
  0
LINE
  5
873C
330
8650
100
AcDbEntity
  8
3
 62
     0
370
    -2
100
AcDbLine
 10
3507.826224898592
 20
2106.978022216088
 30
0.0
 11
3507.826224898592
 21
3631.978022216088
 31
0.0
  0
INSERT
  5
873D
330
8650
100
AcDbEntity
  8
3
 62
     0
370
    -2
100
AcDbBlockReference
  2
_OPEN
 10
3507.826224898592
 20
2046.978022216088
 30
0.0
 41
60.0
 42
60.0
 43
60.0
 50
270.0
  0
INSERT
  5
873E
330
8650
100
AcDbEntity
  8
3
 62
     0
370
    -2
100
AcDbBlockReference
  2
_OPEN
 10
3507.826224898592
 20
3691.978022216088
 30
0.0
 41
60.0
 42
60.0
 43
60.0
 50
90.0
  0
MTEXT
  5
873F
330
8650
100
AcDbEntity
  8
3
 62
     0
100
AcDbMText
 10
3409.254796327163
 20
2869.478022216089
 30
0.0
 40
90.0
 41
0.0
 71
     5
 72
     1
  1
\A1;(1645)
 11
0.0000000000000001
 21
1.0
 31
0.0
 73
     1
 44
1.0
1001
ACAD
1000
MTEXTBEGIN
1070
    73
1070
     1
1070
    44
1040
1.0
1070
    74
1070
     0
1000
MTEXTEND
  0
POINT
  5
8740
330
8650
100
AcDbEntity
  8
DEFPOINTS
 62
     0
100
AcDbPoint
 10
2737.49420233401
 20
2046.978022216088
 30
0.0
  0
POINT
  5
8741
330
8650
100
AcDbEntity
  8
DEFPOINTS
 62
     0
100
AcDbPoint
 10
2183.994202334008
 20
3691.978022216089
 30
0.0
  0
POINT
  5
8742
330
8650
100
AcDbEntity
  8
DEFPOINTS
 62
     0
100
AcDbPoint
 10
3507.826224898592
 20
3691.978022216088
 30
0.0
  0
ENDBLK
  5
8652
330
8650
100
AcDbEntity
  8
0
100
AcDbBlockEnd
  0
BLOCK
  5
86D1
330
86CF
100
AcDbEntity
  8
0
100
AcDbBlockBegin
  2
_DotSmall
 70
     0
 10
0.0
 20
0.0
 30
0.0
  3
_DotSmall
  1

  0
LWPOLYLINE
  5
86D0
330
86CF
100
AcDbEntity
  8
0
  6
ByBlock
 62
     0
100
AcDbPolyline
 90
        2
 70
     1
 43
0.5
 10
-0.0625
 20
0.0
 42
1.0
 10
0.0625
 20
0.0
 42
1.0
  0
ENDBLK
  5
86D2
330
86CF
100
AcDbEntity
  8
0
100
AcDbBlockEnd
  0
ENDSEC
  0
SECTION
  2
ENTITIES
  0
INSERT
  5
7C21
330
840A
100
AcDbEntity
  8
0
100
AcDbBlockReference
  2
YA_N
 10
6.0
 20
5.0
 30
0.0
  0
LINE
  5
7C23
330
840A
100
AcDbEntity
  8
2
100
AcDbLine
 10
2833.749541112554
 20
3071.978022216089
 30
0.0
 11
1127.482955132567
 21
3071.978022216089
 31
0.0
  0
LINE
  5
7C24
330
840A
100
AcDbEntity
  8
2
100
AcDbLine
 10
2177.494202334008
 20
3714.062890704765
 30
0.0
 11
2177.494202334008
 21
2046.978022216088
 31
0.0
  0
ARC
  5
7C25
330
840A
100
AcDbEntity
  8
1
100
AcDbCircle
 10
2110.494202334008
 20
3138.978022216088
 30
0.0
 40
844.0
100
AcDbArc
 50
184.553152387219
 51
248.8222963603614
  0
ARC
  5
7C26
330
840A
100
AcDbEntity
  8
1
100
AcDbCircle
 10
2110.494202334008
 20
3004.978022216088
 30
0.0
 40
710.0
100
AcDbArc
 50
293.1150645561642
 51
5.414841706129411
  0
ARC
  5
7C27
330
840A
100
AcDbEntity
  8
1
100
AcDbCircle
 10
2230.994202334008
 20
3018.478022216088
 30
0.0
 40
589.5
100
AcDbArc
 50
5.207036088349488
 51
95.20703608834947
  0
LINE
  5
7C28
330
840A
100
AcDbEntity
  8
1
100
AcDbLine
 10
1173.994202334008
 20
3691.978022216089
 30
0.0
 11
2183.994202334008
 21
3691.978022216089
 31
0.0
  0
LINE
  5
7C29
330
840A
100
AcDbEntity
  8
1
100
AcDbLine
 10
2141.494202334008
 20
3691.978022216089
 30
0.0
 11
2141.494202334008
 21
3606.767700500926
 31
0.0
  0
LINE
  5
7C2A
330
840A
100
AcDbEntity
  8
1
100
AcDbLine
 10
1216.494202334008
 20
3691.978022216089
 30
0.0
 11
1269.157765467043
 21
3071.978022216089
 31
0.0
  0
LINE
  5
7C2B
330
840A
100
AcDbEntity
  8
1
100
AcDbLine
 10
1173.994202334008
 20
3691.978022216089
 30
0.0
 11
1173.994202334008
 21
3688.978022216089
 31
0.0
  0
LINE
  5
7C2C
330
840A
100
AcDbEntity
  8
1
100
AcDbLine
 10
2183.994202334008
 20
3691.978022216089
 30
0.0
 11
2183.994202334008
 21
3688.978022216089
 31
0.0
  0
LINE
  5
7C2D
330
840A
100
AcDbEntity
  8
1
100
AcDbLine
 10
1219.891851568398
 20
3651.978022216088
 30
0.0
 11
2141.494202334008
 21
3651.978022216088
 31
0.0
  0
LINE
  5
7C2E
330
840A
100
AcDbEntity
  8
1
100
AcDbLine
 10
1173.994202334008
 20
3688.978022216089
 30
0.0
 11
2183.994202334008
 21
3688.978022216089
 31
0.0
  0
LINE
  5
7C2F
330
840A
100
AcDbEntity
  8
1
100
AcDbLine
 10
867.4942023340097
 20
2351.978022216087
 30
0.0
 11
867.4942023340097
 21
2251.978022216087
 31
0.0
  0
LINE
  5
7C30
330
840A
100
AcDbEntity
  8
1
100
AcDbLine
 10
2737.494202334008
 20
2351.978022216087
 30
0.0
 11
2737.494202334008
 21
2251.978022216087
 31
0.0
  0
LINE
  5
7C31
330
840A
100
AcDbEntity
  8
1
100
AcDbLine
 10
867.4942023340097
 20
2251.978022216087
 30
0.0
 11
2737.49420233401
 21
2251.978022216087
 31
0.0
1001
ACAD
1000
ASC_BOUNDS
1002
{
1070
    19
1002
}
  0
LINE
  5
7C32
330
840A
100
AcDbEntity
  8
1
100
AcDbLine
 10
867.4942023340097
 20
2351.978022216087
 30
0.0
 11
2737.49420233401
 21
2351.978022216087
 31
0.0
  0
LINE
  5
7C33
330
840A
100
AcDbEntity
  8
2
100
AcDbLine
 10
1117.494202334008
 20
2919.980513212191
 30
0.0
 11
1117.494202334008
 21
2046.978022216088
 31
0.0
  0
LINE
  5
7C34
330
840A
100
AcDbEntity
  8
2
100
AcDbLine
 10
756.5582342084135
 20
2626.978022216087
 30
0.0
 11
1332.337128787841
 21
2626.978022216087
 31
0.0
  0
LINE
  5
7C35
330
840A
100
AcDbEntity
  8
1
100
AcDbLine
 10
5544.653931325547
 20
3691.978022216089
 30
0.0
 11
5544.653931325547
 21
3107.978022216089
 31
0.0
  0
LINE
  5
7C36
330
840A
100
AcDbEntity
  8
1
100
AcDbLine
 10
4222.653931325537
 20
2251.978022216087
 30
0.0
 11
5597.653931325556
 21
2251.978022216087
 31
0.0
1001
ACAD
1000
ASC_BOUNDS
1002
{
1070
    19
1005
0
1005
0
1005
0
1005
0
1002
}
  0
LINE
  5
7C37
330
840A
100
AcDbEntity
  8
1
100
AcDbLine
 10
4222.653931325547
 20
2351.978022216087
 30
0.0
 11
5597.653931325547
 21
2351.978022216087
 31
0.0
  0
LINE
  5
7C38
330
840A
100
AcDbEntity
  8
1
100
AcDbLine
 10
4222.653931325547
 20
2351.978022216087
 30
0.0
 11
4222.653931325537
 21
2251.978022216087
 31
0.0
  0
LINE
  5
7C39
330
840A
100
AcDbEntity
  8
1
100
AcDbLine
 10
5597.653931325547
 20
2351.978022216087
 30
0.0
 11
5597.653931325556
 21
2251.978022216087
 31
0.0
  0
LINE
  5
7C3A
330
840A
100
AcDbEntity
  8
1
100
AcDbLine
 10
4984.653931325548
 20
3691.978022216089
 30
0.0
 11
5584.653931325547
 21
3691.978022216089
 31
0.0
  0
LINE
  5
7C3B
330
840A
100
AcDbEntity
  8
2
100
AcDbLine
 10
4042.074832679849
 20
3071.978022216089
 30
0.0
 11
5695.173579083284
 21
3071.978022216089
 31
0.0
  0
LINE
  5
7C3C
330
840A
100
AcDbEntity
  8
1
100
AcDbLine
 10
5535.153931325547
 20
2251.978022216087
 30
0.0
 11
5597.653931325556
 21
2251.978022216087
 31
0.0
1001
ACAD
1000
ASC_BOUNDS
1002
{
1070
    19
1005
0
1005
0
1002
}
  0
LINE
  5
7C3D
330
840A
100
AcDbEntity
  8
2
100
AcDbLine
 10
4984.653931325548
 20
3822.881881651485
 30
0.0
 11
4984.653931325546
 21
2046.978022216088
 31
0.0
  0
INSERT
  5
7C3F
330
840A
100
AcDbEntity
  8
0
100
AcDbBlockReference
  2
YA_N
 10
-1638.667820090515
 20
-980.7401201518075
 30
0.0
 41
20.0
 42
20.0
 43
20.0
  0
INSERT
  5
7C41
330
840A
100
AcDbEntity
  8
0
100
AcDbBlockReference
  2
YA_N
 10
-1552.816625123014
 20
-1070.405552057982
 30
0.0
 41
20.0
 42
20.0
 43
20.0
  0
ARC
  5
7C43
330
840A
100
AcDbEntity
  8
1
100
AcDbCircle
 10
1117.494202334008
 20
2626.978022216087
 30
0.0
 40
185.0
100
AcDbArc
 50
287.9452509999999
 51
252.054749
  0
LINE
  5
7C44
330
840A
100
AcDbEntity
  8
1
100
AcDbLine
 10
1174.494202334008
 20
2450.978022216087
 30
0.0
 11
1060.494202334008
 21
2450.978022216087
 31
0.0
  0
LINE
  5
7C46
330
840A
100
AcDbEntity
  8
1
100
AcDbLine
 10
1279.494202334008
 20
2522.237055216087
 30
0.0
 11
1279.494202334008
 21
2446.978022216087
 31
0.0
  0
LINE
  5
7C47
330
840A
100
AcDbEntity
  8
1
100
AcDbLine
 10
1219.994202334008
 20
2452.126581216087
 30
0.0
 11
1210.487488334009
 21
2467.049189216087
 31
0.0
  0
LINE
  5
7C4A
330
840A
100
AcDbEntity
  8
1
100
AcDbLine
 10
1219.994202334008
 20
2463.978022216088
 30
0.0
 11
1219.994202334008
 21
2446.978022216087
 31
0.0
  0
LINE
  5
7C4C
330
840A
100
AcDbEntity
  8
1
100
AcDbLine
 10
1222.994202334008
 20
2466.978022216087
 30
0.0
 11
1276.494202334008
 21
2466.978022216087
 31
0.0
  0
ARC
  5
7C4D
330
840A
100
AcDbEntity
  8
1
100
AcDbCircle
 10
1276.494202334008
 20
2463.978022216088
 30
0.0
 40
3.0
100
AcDbArc
 50
0.0
 51
90.0
  0
LINE
  5
7C54
330
840A
100
AcDbEntity
  8
1
100
AcDbLine
 10
1228.318115334008
 20
2466.978022216087
 30
0.0
 11
1223.138367334007
 21
2475.108637216087
 31
0.0
  0
ARC
  5
7C56
330
840A
100
AcDbEntity
  8
1
100
AcDbCircle
 10
1222.994202334008
 20
2463.978022216088
 30
0.0
 40
3.0
100
AcDbArc
 50
90.0
 51
180.0
  0
LINE
  5
7C57
330
840A
100
AcDbEntity
  8
1
100
AcDbLine
 10
1279.494202334008
 20
2522.237055216087
 30
0.0
 11
1273.110230334008
 21
2526.934809216087
 31
0.0
  0
LINE
  5
7C5C
330
840A
100
AcDbEntity
  8
1
100
AcDbLine
 10
1014.994202334008
 20
2452.126581216087
 30
0.0
 11
1024.500916334009
 21
2467.049189216087
 31
0.0
  0
LINE
  5
7C60
330
840A
100
AcDbEntity
  8
1
100
AcDbLine
 10
1014.994202334008
 20
2463.978022216088
 30
0.0
 11
1014.994202334008
 21
2446.978022216087
 31
0.0
  0
LINE
  5
7C61
330
840A
100
AcDbEntity
  8
1
100
AcDbLine
 10
955.494202334008
 20
2522.237055216087
 30
0.0
 11
955.494202334008
 21
2446.978022216087
 31
0.0
  0
LINE
  5
7C63
330
840A
100
AcDbEntity
  8
1
100
AcDbLine
 10
1011.994202334008
 20
2466.978022216087
 30
0.0
 11
958.4942023340079
 21
2466.978022216087
 31
0.0
  0
LINE
  5
7C65
330
840A
100
AcDbEntity
  8
1
100
AcDbLine
 10
1006.670288334008
 20
2466.978022216087
 30
0.0
 11
1011.850037334008
 21
2475.108637216087
 31
0.0
  0
ARC
  5
7C66
330
840A
100
AcDbEntity
  8
1
100
AcDbCircle
 10
1011.994202334008
 20
2463.978022216088
 30
0.0
 40
3.0
100
AcDbArc
 50
0.0
 51
90.0
  0
ARC
  5
7C67
330
840A
100
AcDbEntity
  8
1
100
AcDbCircle
 10
958.4942023340079
 20
2463.978022216088
 30
0.0
 40
3.0
100
AcDbArc
 50
90.0
 51
180.0
  0
LINE
  5
7C72
330
840A
100
AcDbEntity
  8
1
100
AcDbLine
 10
955.494202334008
 20
2522.237055216087
 30
0.0
 11
961.8781133340089
 21
2526.934809216087
 31
0.0
  0
LINE
  5
7C73
330
840A
100
AcDbEntity
  8
1
100
AcDbLine
 10
892.4942023340081
 20
2391.978022216088
 30
0.0
 11
1342.494202334008
 21
2391.978022216088
 31
0.0
  0
LINE
  5
7C74
330
840A
100
AcDbEntity
  8
1
100
AcDbLine
 10
917.4942023340079
 20
2391.978022216088
 30
0.0
 11
917.4942023340079
 21
2351.978022216087
 31
0.0
  0
LINE
  5
7C75
330
840A
100
AcDbEntity
  8
1
100
AcDbLine
 10
1317.494202334008
 20
2391.978022216088
 30
0.0
 11
1317.494202334008
 21
2351.978022216087
 31
0.0
  0
LINE
  5
7C76
330
840A
100
AcDbEntity
  8
1
100
AcDbLine
 10
907.3926639328856
 20
2446.978022216087
 30
0.0
 11
1047.494202334008
 21
2446.978022216087
 31
0.0
  0
LINE
  5
7C77
330
840A
100
AcDbEntity
  8
1
100
AcDbLine
 10
1342.494202334008
 20
2391.978022216088
 30
0.0
 11
1327.291885699496
 21
2446.978022216087
 31
0.0
  0
LINE
  5
7C78
330
840A
100
AcDbEntity
  8
1
100
AcDbLine
 10
892.4942023340081
 20
2391.978022216088
 30
0.0
 11
907.3926639328856
 21
2446.978022216087
 31
0.0
  0
LINE
  5
7C7A
330
840A
100
AcDbEntity
  8
1
100
AcDbLine
 10
1047.494202334008
 20
2436.978022216087
 30
0.0
 11
1187.494202334008
 21
2436.978022216087
 31
0.0
  0
LINE
  5
7C7B
330
840A
100
AcDbEntity
  8
1
100
AcDbLine
 10
1047.494202334008
 20
2446.978022216087
 30
0.0
 11
1047.494202334008
 21
2436.978022216087
 31
0.0
  0
LINE
  5
7C7C
330
840A
100
AcDbEntity
  8
1
100
AcDbLine
 10
1187.494202334008
 20
2446.978022216087
 30
0.0
 11
1187.494202334008
 21
2436.978022216087
 31
0.0
  0
LINE
  5
7C7D
330
840A
100
AcDbEntity
  8
1
100
AcDbLine
 10
1187.494202334008
 20
2446.978022216087
 30
0.0
 11
1327.291885699496
 21
2446.978022216087
 31
0.0
  0
LINE
  5
7C80
330
840A
100
AcDbEntity
  8
1
100
AcDbLine
 10
867.4942023340081
 20
2146.978022216088
 30
0.0
 11
2737.49420233401
 21
2146.978022216088
 31
0.0
1001
ACAD
1000
ASC_BOUNDS
1002
{
1070
    19
1002
}
  0
LINE
  5
7C81
330
840A
100
AcDbEntity
  8
1
100
AcDbLine
 10
867.4942023340081
 20
2146.978022216088
 30
0.0
 11
867.4942023340081
 21
2046.978022216088
 31
0.0
  0
LINE
  5
7C82
330
840A
100
AcDbEntity
  8
1
100
AcDbLine
 10
2737.49420233401
 20
2146.978022216088
 30
0.0
 11
2737.49420233401
 21
2046.978022216088
 31
0.0
  0
LINE
  5
7C83
330
840A
100
AcDbEntity
  8
1
100
AcDbLine
 10
4222.653931325537
 20
2146.978022216088
 30
0.0
 11
5597.653931325547
 21
2146.978022216088
 31
0.0
1001
ACAD
1000
ASC_BOUNDS
1002
{
1070
    19
1005
0
1005
0
1005
0
1005
0
1005
0
1005
0
1002
}
  0
POINT
  5
7C86
330
840A
100
AcDbEntity
  8
1
100
AcDbPoint
 10
2737.49420233401
 20
2146.978022216088
 30
0.0
  0
POINT
  5
7C87
330
840A
100
AcDbEntity
  8
1
100
AcDbPoint
 10
2737.49420233401
 20
2081.978022216088
 30
0.0
  0
POINT
  5
7C88
330
840A
100
AcDbEntity
  8
1
100
AcDbPoint
 10
2737.49420233401
 20
2146.978022216088
 30
0.0
  0
POINT
  5
7C89
330
840A
100
AcDbEntity
  8
1
100
AcDbPoint
 10
2737.494202334008
 20
2251.978022216087
 30
0.0
  0
CIRCLE
  5
7C8A
330
840A
100
AcDbEntity
  8
1
100
AcDbCircle
 10
1117.494202334008
 20
2626.978022216087
 30
0.0
 40
119.0
  0
LINE
  5
7C8B
330
840A
100
AcDbEntity
  8
1
100
AcDbLine
 10
5544.653931325547
 20
3107.978022216087
 30
0.0
 11
5544.653931325547
 21
2351.978022216087
 31
0.0
  0
LINE
  5
7C8C
330
840A
100
AcDbEntity
  8
1
100
AcDbLine
 10
4424.653931325547
 20
3691.978022216089
 30
0.0
 11
4424.653931325547
 21
3071.978022216089
 31
0.0
  0
LINE
  5
7C8D
330
840A
100
AcDbEntity
  8
1
100
AcDbLine
 10
4984.653931325546
 20
3691.978022216089
 30
0.0
 11
4384.653931325545
 21
3691.978022216089
 31
0.0
  0
LINE
  5
7C8E
330
840A
100
AcDbEntity
  8
1
100
AcDbLine
 10
4424.653931325547
 20
3071.978022216089
 30
0.0
 11
4424.653931325547
 21
2351.978022216087
 31
0.0
  0
LINE
  5
7C8F
330
840A
100
AcDbEntity
  8
1
100
AcDbLine
 10
4296.653931325547
 20
3046.178022216087
 30
0.0
 11
4372.353931325545
 21
3046.178022216087
 31
0.0
  0
LINE
  5
7C90
330
840A
100
AcDbEntity
  8
1
100
AcDbLine
 10
4296.653931325548
 20
2896.178022216087
 30
0.0
 11
4372.353931325545
 21
2896.178022216087
 31
0.0
  0
LINE
  5
7C91
330
840A
100
AcDbEntity
  8
1
100
AcDbLine
 10
4286.653931325547
 20
3036.178022216089
 30
0.0
 11
4286.653931325548
 21
2906.178022216087
 31
0.0
  0
LINE
  5
7C92
330
840A
100
AcDbEntity
  8
1
100
AcDbLine
 10
4411.653931325544
 20
3046.178022216087
 30
0.0
 11
4411.653931325547
 21
2896.178022216087
 31
0.0
  0
ARC
  5
7C93
330
840A
100
AcDbEntity
  8
1
100
AcDbCircle
 10
4296.653931325547
 20
3036.178022216089
 30
0.0
 40
10.0
100
AcDbArc
 50
90.0
 51
180.0000000000003
  0
ARC
  5
7C94
330
840A
100
AcDbEntity
  8
1
100
AcDbCircle
 10
4296.653931325548
 20
2906.178022216087
 30
0.0
 40
10.0
100
AcDbArc
 50
180.0000000000003
 51
270.0
  0
LINE
  5
7C95
330
840A
100
AcDbEntity
  8
1
100
AcDbLine
 10
4372.353931325545
 20
2896.178022216087
 30
0.0
 11
4411.653931325547
 21
2896.178022216087
 31
0.0
  0
LINE
  5
7C96
330
840A
100
AcDbEntity
  8
1
100
AcDbLine
 10
4372.353931325545
 20
3046.178022216087
 30
0.0
 11
4411.653931325547
 21
3046.178022216087
 31
0.0
  0
LINE
  5
7C97
330
840A
100
AcDbEntity
  8
1
100
AcDbLine
 10
5664.653931325545
 20
3032.478022216089
 30
0.0
 11
5664.653931325545
 21
2932.478022216089
 31
0.0
  0
LINE
  5
7C98
330
840A
100
AcDbEntity
  8
1
100
AcDbLine
 10
5564.153931325547
 20
3042.478022216088
 30
0.0
 11
5564.153931325547
 21
2922.478022216088
 31
0.0
  0
LINE
  5
7C99
330
840A
100
AcDbEntity
  8
1
100
AcDbLine
 10
5564.153931325547
 20
3042.478022216088
 30
0.0
 11
5596.953931325547
 21
3042.478022216088
 31
0.0
  0
LINE
  5
7C9A
330
840A
100
AcDbEntity
  8
1
100
AcDbLine
 10
5564.153931325547
 20
2922.478022216088
 30
0.0
 11
5596.953931325547
 21
2922.478022216088
 31
0.0
  0
ARC
  5
7C9B
330
840A
100
AcDbEntity
  8
1
100
AcDbCircle
 10
5654.653931325545
 20
3032.478022216089
 30
0.0
 40
10.0
100
AcDbArc
 50
0.0000000000003257
 51
90.0
  0
ARC
  5
7C9C
330
840A
100
AcDbEntity
  8
1
100
AcDbCircle
 10
5654.653931325545
 20
2932.478022216089
 30
0.0
 40
10.0
100
AcDbArc
 50
270.0
 51
0.0000000000003257
  0
LINE
  5
7C9D
330
840A
100
AcDbEntity
  8
1
100
AcDbLine
 10
5596.953931325547
 20
2922.478022216088
 30
0.0
 11
5654.653931325545
 21
2922.478022216088
 31
0.0
  0
LINE
  5
7C9E
330
840A
100
AcDbEntity
  8
1
100
AcDbLine
 10
5596.953931325547
 20
3042.478022216088
 30
0.0
 11
5654.653931325545
 21
3042.478022216088
 31
0.0
  0
LINE
  5
7C9F
330
840A
100
AcDbEntity
  8
1
100
AcDbLine
 10
4271.653931325547
 20
3101.978022216087
 30
0.0
 11
4271.653931325547
 21
3041.978022216089
 31
0.0
  0
LINE
  5
7CA0
330
840A
100
AcDbEntity
  8
1
100
AcDbLine
 10
4266.653931325547
 20
3099.478022216088
 30
0.0
 11
4271.653931325547
 21
3099.478022216088
 31
0.0
  0
LINE
  5
7CA1
330
840A
100
AcDbEntity
  8
1
100
AcDbLine
 10
4266.653931325547
 20
3044.478022216089
 30
0.0
 11
4271.653931325547
 21
3044.478022216089
 31
0.0
  0
LINE
  5
7CA2
330
840A
100
AcDbEntity
  8
1
100
AcDbLine
 10
4156.653931325549
 20
3275.178022216088
 30
0.0
 11
4156.653931325542
 21
2507.978022216088
 31
0.0
  0
LINE
  5
7CA3
330
840A
100
AcDbEntity
  8
1
100
AcDbLine
 10
4266.653931325548
 20
3275.178022216088
 30
0.0
 11
4266.653931325541
 21
2507.978022216088
 31
0.0
  0
LINE
  5
7CA4
330
840A
100
AcDbEntity
  8
2
100
AcDbLine
 10
4124.009838858214
 20
2626.978022216087
 30
0.0
 11
4627.841449216972
 21
2626.978022216087
 31
0.0
  0
LINE
  5
7CA5
330
840A
100
AcDbEntity
  8
1
100
AcDbLine
 10
4156.653931325545
 20
2745.978022216088
 30
0.0
 11
4266.653931325545
 21
2745.978022216088
 31
0.0
  0
LINE
  5
7CA6
330
840A
100
AcDbEntity
  8
1
100
AcDbLine
 10
4156.653931325543
 20
2507.978022216088
 30
0.0
 11
4266.653931325543
 21
2507.978022216088
 31
0.0
  0
LINE
  5
7CA7
330
840A
100
AcDbEntity
  8
1
100
AcDbLine
 10
4034.653931325545
 20
3351.978022216088
 30
0.0
 11
4034.653931325549
 21
2406.978022216087
 31
0.0
  0
LINE
  5
7CA8
330
840A
100
AcDbEntity
  8
1
100
AcDbLine
 10
4034.653931325549
 20
2406.978022216087
 30
0.0
 11
4286.653931325551
 21
2406.978022216087
 31
0.0
  0
LINE
  5
7CA9
330
840A
100
AcDbEntity
  8
1
100
AcDbLine
 10
4286.653931325541
 20
3351.978022216088
 30
0.0
 11
4286.653931325544
 21
3331.978022216087
 31
0.0
  0
LINE
  5
7CAA
330
840A
100
AcDbEntity
  8
1
100
AcDbLine
 10
4286.653931325548
 20
2426.978022216087
 30
0.0
 11
4286.653931325548
 21
2406.978022216089
 31
0.0
  0
POINT
  5
7CAB
330
840A
100
AcDbEntity
  8
1
100
AcDbPoint
 10
5664.653931325545
 20
3032.478022216089
 30
0.0
  0
LINE
  5
7CAC
330
840A
100
AcDbEntity
  8
2
100
AcDbLine
 10
806.2577694881399
 20
5503.676946236007
 30
0.0
 11
2850.856280047006
 21
5503.676946236006
 31
0.0
  0
LINE
  5
7CAD
330
840A
100
AcDbEntity
  8
2
100
AcDbLine
 10
2177.494202334008
 20
4502.418237481719
 30
0.0
 11
2177.494202334008
 21
6038.185329107333
 31
0.0
  0
INSERT
  5
7CAE
330
840A
100
AcDbEntity
  8
0
100
AcDbBlockReference
  2
YA_N
 10
1902.396177633552
 20
-2784.746590060132
 30
0.0
  0
LINE
  5
7CB0
330
840A
100
AcDbEntity
  8
1
100
AcDbLine
 10
5597.653931325547
 20
2257.509527286754
 30
0.0
 11
5597.653931325547
 21
2251.978022216087
 31
0.0
  0
LINE
  5
7CB1
330
840A
100
AcDbEntity
  8
1
100
AcDbLine
 10
4222.653931325547
 20
2046.978022216088
 30
0.0
 11
5597.653931325547
 21
2046.978022216088
 31
0.0
1001
ACAD
1000
ASC_BOUNDS
1002
{
1070
    19
1002
}
  0
LINE
  5
7CB2
330
840A
100
AcDbEntity
  8
1
100
AcDbLine
 10
5597.653931325547
 20
2146.978022216088
 30
0.0
 11
5597.653931325547
 21
2046.978022216088
 31
0.0
  0
LINE
  5
7CB6
330
840A
100
AcDbEntity
  8
1
100
AcDbLine
 10
4271.653931325547
 20
3101.978022216087
 30
0.0
 11
4424.653931325547
 21
3101.978022216087
 31
0.0
  0
LINE
  5
7CB7
330
840A
100
AcDbEntity
  8
1
100
AcDbLine
 10
4271.653931325547
 20
3041.978022216089
 30
0.0
 11
4288.507766583779
 21
3041.978022216089
 31
0.0
  0
LINE
  5
7CB8
330
840A
100
AcDbEntity
  8
1
100
AcDbLine
 10
867.4942023340081
 20
2046.978022216088
 30
0.0
 11
2737.49420233401
 21
2046.978022216088
 31
0.0
1001
ACAD
1000
ASC_BOUNDS
1002
{
1070
    19
1002
}
  0
POINT
  5
7CBC
330
840A
100
AcDbEntity
  8
1
100
AcDbPoint
 10
2737.49420233401
 20
2146.978022216088
 30
0.0
  0
POINT
  5
7CBD
330
840A
100
AcDbEntity
  8
1
100
AcDbPoint
 10
2737.49420233401
 20
2046.978022216088
 30
0.0
  0
POINT
  5
7CBE
330
840A
100
AcDbEntity
  8
1
100
AcDbPoint
 10
2737.49420233401
 20
2146.978022216088
 30
0.0
  0
POINT
  5
7CBF
330
840A
100
AcDbEntity
  8
1
100
AcDbPoint
 10
2737.49420233401
 20
2251.978022216087
 30
0.0
  0
ARC
  5
7CC0
330
840A
100
AcDbEntity
  8
1
100
AcDbCircle
 10
2177.494202334008
 20
3071.978022216089
 30
0.0
 40
536.0
100
AcDbArc
 50
90.0
 51
93.85112312649772
  0
CIRCLE
  5
7CC1
330
840A
100
AcDbEntity
  8
1
100
AcDbCircle
 10
2177.494202334008
 20
3071.978022216089
 30
0.0
 40
203.2
  0
ARC
  5
7CC2
330
840A
100
AcDbEntity
  8
1
100
AcDbCircle
 10
2177.494202334008
 20
3071.978022216089
 30
0.0
 40
280.0
100
AcDbArc
 50
282.9341812137518
 51
109.1706668005613
  0
ARC
  5
7CC3
330
840A
100
AcDbEntity
  8
1
100
AcDbCircle
 10
1117.494202334008
 20
2626.978022216087
 30
0.0
 40
220.0
100
AcDbArc
 50
109.1706668005613
 51
282.9341812137518
  0
LINE
  5
7CC4
330
840A
100
AcDbEntity
  8
1
100
AcDbLine
 10
2106.563130054561
 20
3262.396043908593
 30
0.0
 11
1075.954844060119
 21
2738.492513266324
 31
0.0
  0
LINE
  5
7CC5
330
840A
100
AcDbEntity
  8
1
100
AcDbLine
 10
2218.611640338309
 20
2872.98154915196
 30
0.0
 11
1141.573804314874
 21
2510.439733364556
 31
0.0
  0
LINE
  5
7CC6
330
840A
100
AcDbEntity
  8
1
100
AcDbLine
 10
2240.167048692558
 20
2799.082228314244
 30
0.0
 11
1166.737153044297
 21
2412.559898436067
 31
0.0
  0
LINE
  5
7CC7
330
840A
100
AcDbEntity
  8
1
100
AcDbLine
 10
4156.653931325549
 20
3275.178022216088
 30
0.0
 11
4266.653931325548
 21
3275.178022216088
 31
0.0
  0
LINE
  5
7CC8
330
840A
100
AcDbEntity
  8
1
100
AcDbLine
 10
4156.653931325545
 20
2868.778022216088
 30
0.0
 11
4266.653931325545
 21
2868.778022216088
 31
0.0
  0
LINE
  5
7CC9
330
840A
100
AcDbEntity
  8
1
100
AcDbLine
 10
4034.653931325545
 20
3351.978022216088
 30
0.0
 11
4286.653931325541
 21
3351.978022216088
 31
0.0
  0
LINE
  5
7CCE
330
840A
100
AcDbEntity
  8
1
100
AcDbLine
 10
1617.49420233401
 20
6116.676946236007
 30
0.0
 11
2737.494202334008
 21
6116.676946236006
 31
0.0
  0
LINE
  5
7CCF
330
840A
100
AcDbEntity
  8
1
100
AcDbLine
 10
867.4942023340097
 20
4741.676946236006
 30
0.0
 11
2737.494202334008
 21
4741.676946236006
 31
0.0
  0
LINE
  5
7CD0
330
840A
100
AcDbEntity
  8
1
100
AcDbLine
 10
2737.49420233401
 20
4741.676946236006
 30
0.0
 11
2737.49420233401
 21
4943.676946236006
 31
0.0
  0
LINE
  5
7CD1
330
840A
100
AcDbEntity
  8
1
100
AcDbLine
 10
1617.49420233401
 20
6063.676946236006
 30
0.0
 11
1617.49420233401
 21
6116.676946236006
 31
0.0
  0
LINE
  5
7CD2
330
840A
100
AcDbEntity
  8
1
100
AcDbLine
 10
867.494202334009
 20
4741.676946236007
 30
0.0
 11
867.4942023340097
 21
5541.676946236008
 31
0.0
  0
LINE
  5
7CD3
330
840A
100
AcDbEntity
  8
1
100
AcDbLine
 10
867.4942023340097
 20
5541.676946236006
 30
0.0
 11
1216.494202334009
 21
5541.676946236007
 31
0.0
  0
LINE
  5
7CD4
330
840A
100
AcDbEntity
  8
2
100
AcDbLine
 10
1117.494202334009
 20
4429.101406057159
 30
0.0
 11
1117.494202334009
 21
5333.775288802218
 31
0.0
  0
CIRCLE
  5
7CDB
330
840A
100
AcDbEntity
  8
1
100
AcDbCircle
 10
2177.494202334008
 20
3071.978022216089
 30
0.0
 40
475.0
  0
CIRCLE
  5
7CDC
330
840A
100
AcDbEntity
  8
1
100
AcDbCircle
 10
2177.494202334008
 20
3071.978022216089
 30
0.0
 40
515.0
  0
LINE
  5
7CDD
330
840A
100
AcDbEntity
  8
1
100
AcDbLine
 10
2085.546928769047
 20
3336.450513950049
 30
0.0
 11
1045.249915961539
 21
2834.777837149914
 31
0.0
  0
LINE
  5
7CDE
330
840A
100
AcDbEntity
  8
1
100
AcDbLine
 10
4222.653931325537
 20
2146.978022216088
 30
0.0
 11
4222.653931325528
 21
2046.978022216088
 31
0.0
  0
LINE
  5
7CDF
330
840A
100
AcDbEntity
  8
1
100
AcDbLine
 10
897.4942023340082
 20
4553.676946236007
 30
0.0
 11
2457.494202334008
 21
4553.676946236006
 31
0.0
  0
LINE
  5
7CE0
330
840A
100
AcDbEntity
  8
1
100
AcDbLine
 10
897.4942023340082
 20
4843.676946236008
 30
0.0
 11
2457.494202334008
 21
4843.676946236006
 31
0.0
  0
LINE
  5
7CE1
330
840A
100
AcDbEntity
  8
1
100
AcDbLine
 10
998.494202334008
 20
4713.676946236008
 30
0.0
 11
1236.494202334008
 21
4713.676946236008
 31
0.0
  0
LINE
  5
7CE2
330
840A
100
AcDbEntity
  8
1
100
AcDbLine
 10
998.494202334008
 20
4823.676946236008
 30
0.0
 11
1236.494202334008
 21
4823.676946236008
 31
0.0
  0
LINE
  5
7CE3
330
840A
100
AcDbEntity
  8
1
100
AcDbLine
 10
2457.494202334008
 20
4553.676946236006
 30
0.0
 11
2457.494202334008
 21
4843.676946236006
 31
0.0
  0
LINE
  5
7CE4
330
840A
100
AcDbEntity
  8
1
100
AcDbLine
 10
897.4942023340082
 20
4553.676946236007
 30
0.0
 11
897.4942023340082
 21
4843.676946236008
 31
0.0
  0
LINE
  5
7CE5
330
840A
100
AcDbEntity
  8
1
100
AcDbLine
 10
2380.694202334008
 20
4713.676946236006
 30
0.0
 11
2380.694202334008
 21
4823.676946236006
 31
0.0
  0
LINE
  5
7CE6
330
840A
100
AcDbEntity
  8
1
100
AcDbLine
 10
1974.294202334007
 20
4713.676946236006
 30
0.0
 11
1974.294202334007
 21
4823.676946236006
 31
0.0
  0
LINE
  5
7CE7
330
840A
100
AcDbEntity
  8
1
100
AcDbLine
 10
1236.494202334008
 20
4713.676946236006
 30
0.0
 11
1236.494202334008
 21
4823.676946236008
 31
0.0
  0
LINE
  5
7CE8
330
840A
100
AcDbEntity
  8
1
100
AcDbLine
 10
998.494202334008
 20
4713.676946236008
 30
0.0
 11
998.494202334008
 21
4823.676946236008
 31
0.0
  0
LINE
  5
7CE9
330
840A
100
AcDbEntity
  8
1
100
AcDbLine
 10
1974.294202334007
 20
4823.676946236006
 30
0.0
 11
2380.694202334008
 21
4823.676946236006
 31
0.0
  0
LINE
  5
7CEA
330
840A
100
AcDbEntity
  8
1
100
AcDbLine
 10
1974.294202334007
 20
4713.676946236007
 30
0.0
 11
2380.694202334008
 21
4713.676946236006
 31
0.0
  0
LINE
  5
7CEB
330
840A
100
AcDbEntity
  8
1
100
AcDbLine
 10
1216.494202334009
 20
6063.676946236006
 30
0.0
 11
2820.494202334009
 21
6063.676946236006
 31
0.0
  0
LINE
  5
7CEC
330
840A
100
AcDbEntity
  8
1
100
AcDbLine
 10
1216.494202334009
 20
4943.676946236006
 30
0.0
 11
2820.494202334009
 21
4943.676946236006
 31
0.0
  0
LINE
  5
7CED
330
840A
100
AcDbEntity
  8
1
100
AcDbLine
 10
934.9942023340089
 20
5390.176946236008
 30
0.0
 11
1216.494202334009
 21
5390.176946236008
 31
0.0
  0
LINE
  5
7CEE
330
840A
100
AcDbEntity
  8
1
100
AcDbLine
 10
1299.99420233401
 20
4828.676946236008
 30
0.0
 11
1299.99420233401
 21
4943.676946236006
 31
0.0
  0
LINE
  5
7CEF
330
840A
100
AcDbEntity
  8
1
100
AcDbLine
 10
934.9942023340098
 20
4828.676946236008
 30
0.0
 11
934.9942023340098
 21
5390.176946236008
 31
0.0
  0
LINE
  5
7CF0
330
840A
100
AcDbEntity
  8
1
100
AcDbLine
 10
934.9942023340098
 20
4828.676946236008
 30
0.0
 11
1299.99420233401
 21
4828.676946236009
 31
0.0
  0
LINE
  5
7CF1
330
840A
100
AcDbEntity
  8
1
100
AcDbLine
 10
1141.494202334009
 20
4823.676946236008
 30
0.0
 11
1141.494202334009
 21
4828.676946236008
 31
0.0
  0
LINE
  5
7CF2
330
840A
100
AcDbEntity
  8
1
100
AcDbLine
 10
1093.494202334009
 20
4823.676946236008
 30
0.0
 11
1093.494202334009
 21
4828.676946236008
 31
0.0
  0
LINE
  5
7CF3
330
840A
100
AcDbEntity
  8
1
100
AcDbLine
 10
2207.49420233401
 20
4823.676946236006
 30
0.0
 11
2207.49420233401
 21
4943.676946236006
 31
0.0
  0
LINE
  5
7CF4
330
840A
100
AcDbEntity
  8
1
100
AcDbLine
 10
2147.49420233401
 20
4823.676946236006
 30
0.0
 11
2147.49420233401
 21
4943.676946236006
 31
0.0
  0
LINE
  5
7CF5
330
840A
100
AcDbEntity
  8
1
100
AcDbLine
 10
4271.653931325545
 20
2809.478022216089
 30
0.0
 11
4424.653931325547
 21
2809.478022216089
 31
0.0
  0
LINE
  5
7CF6
330
840A
100
AcDbEntity
  8
1
100
AcDbLine
 10
4271.653931325545
 20
2444.478022216088
 30
0.0
 11
4424.653931325547
 21
2444.478022216089
 31
0.0
  0
LINE
  5
7CF7
330
840A
100
AcDbEntity
  8
1
100
AcDbLine
 10
4271.653931325545
 20
2809.478022216089
 30
0.0
 11
4271.653931325545
 21
2444.478022216088
 31
0.0
  0
LINE
  5
7CF8
330
840A
100
AcDbEntity
  8
1
100
AcDbLine
 10
4266.653931325545
 20
2650.978022216088
 30
0.0
 11
4271.653931325545
 21
2650.978022216088
 31
0.0
  0
LINE
  5
7CF9
330
840A
100
AcDbEntity
  8
1
100
AcDbLine
 10
4266.653931325545
 20
2602.978022216088
 30
0.0
 11
4271.653931325545
 21
2602.978022216088
 31
0.0
  0
LINE
  5
7D05
330
840A
100
AcDbEntity
  8
1
100
AcDbLine
 10
4384.653931325547
 20
3691.978022216089
 30
0.0
 11
4384.653931325547
 21
3688.978022216089
 31
0.0
  0
LINE
  5
7D06
330
840A
100
AcDbEntity
  8
1
100
AcDbLine
 10
5584.653931325547
 20
3691.978022216089
 30
0.0
 11
5584.653931325547
 21
3688.978022216089
 31
0.0
  0
LINE
  5
7D07
330
840A
100
AcDbEntity
  8
1
100
AcDbLine
 10
4984.653931325546
 20
3688.978022216089
 30
0.0
 11
4384.653931325545
 21
3688.978022216089
 31
0.0
  0
LINE
  5
7D08
330
840A
100
AcDbEntity
  8
1
100
AcDbLine
 10
4984.653931325548
 20
3688.978022216089
 30
0.0
 11
5584.653931325547
 21
3688.978022216089
 31
0.0
  0
LINE
  5
7D09
330
840A
100
AcDbEntity
  8
1
100
AcDbLine
 10
1216.494202334009
 20
4943.676946236006
 30
0.0
 11
1216.494202334009
 21
6063.676946236006
 31
0.0
  0
LINE
  5
7D0B
330
840A
100
AcDbEntity
  8
1
100
AcDbLine
 10
2820.494202334009
 20
4943.676946236006
 30
0.0
 11
2820.49420233401
 21
6063.676946236006
 31
0.0
  0
LINE
  5
7D0C
330
840A
100
AcDbEntity
  8
1
100
AcDbLine
 10
2737.49420233401
 20
6063.676946236006
 30
0.0
 11
2737.49420233401
 21
6116.676946236006
 31
0.0
  0
LINE
  5
7D0D
330
840A
100
AcDbEntity
  8
1
100
AcDbLine
 10
2141.49420233401
 20
4943.676946236006
 30
0.0
 11
2141.49420233401
 21
6063.676946236006
 31
0.0
  0
LINE
  5
7D0E
330
840A
100
AcDbEntity
  8
1
100
AcDbLine
 10
2141.49420233401
 20
6063.676946236006
 30
0.0
 11
1216.494202334009
 21
4943.676946236006
 31
0.0
  0
LINE
  5
7D0F
330
840A
100
AcDbEntity
  8
1
100
AcDbLine
 10
1216.494202334009
 20
6063.676946236006
 30
0.0
 11
2141.49420233401
 21
4943.676946236006
 31
0.0
  0
LINE
  5
7F23
330
840A
100
AcDbEntity
  8
4
100
AcDbLine
 10
5550.0
 20
1500.0
 30
0.0
 11
5550.0
 21
900.0
 31
0.0
  0
LINE
  5
7F24
330
840A
100
AcDbEntity
  8
4
100
AcDbLine
 10
3450.0
 20
1500.0
 30
0.0
 11
3450.0
 21
900.0
 31
0.0
  0
LINE
  5
7F25
330
840A
100
AcDbEntity
  8
4
100
AcDbLine
 10
1950.0
 20
1500.0
 30
0.0
 11
1950.0
 21
900.0
 31
0.0
  0
LINE
  5
7F28
330
840A
100
AcDbEntity
  8
4
100
AcDbLine
 10
1950.0
 20
900.0
 30
0.0
 11
5550.0
 21
900.0
 31
0.0
  0
LINE
  5
7F29
330
840A
100
AcDbEntity
  8
4
100
AcDbLine
 10
1950.0
 20
1200.0
 30
0.0
 11
5550.0
 21
1200.0
 31
0.0
  0
TEXT
  5
7F2A
330
840A
100
AcDbEntity
  8
4
100
AcDbText
 10
2065.506242540704
 20
1294.629077599838
 30
0.0
 40
150.0
  1
機器名称
100
AcDbText
  0
TEXT
  5
7F2B
330
840A
100
AcDbEntity
  8
4
100
AcDbText
 10
2058.774318074392
 20
964.9354701960326
 30
0.0
 40
150.0
  1
機器型番
100
AcDbText
  0
TEXT
  5
7F2C
330
840A
100
AcDbEntity
  8
4
100
AcDbText
 10
3533.036236462995
 20
1267.715306872705
 30
0.0
 40
150.0
  1
ミツヤ多翼送風機
100
AcDbText
  0
TEXT
  5
7F2D
330
840A
100
AcDbEntity
  8
4
100
AcDbText
 10
3559.963486756442
 20
951.4787528398301
 30
0.0
 40
150.0
  1
MF#5 1/2-5
100
AcDbText
  0
TEXT
  5
7F2F
330
840A
100
AcDbEntity
  8
4
100
AcDbText
 10
2381.689741412352
 20
7150.286523997547
 30
0.0
 40
161.9999999999998
  1
床置防振ベット
100
AcDbText
  0
TEXT
  5
7F30
330
840A
100
AcDbEntity
  8
4
100
AcDbText
 10
948.5027799883393
 20
7601.642928597894
 30
0.0
 40
216.0
  1
遠心式両吸込両持多翼ファン
100
AcDbText
  0
LINE
  5
7F31
330
840A
100
AcDbEntity
  8
4
100
AcDbLine
 10
750.0
 20
7408.226262794413
 30
0.0
 11
5550.0
 21
7408.226262794413
 31
0.0
  0
LINE
  5
7F32
330
840A
100
AcDbEntity
  8
4
100
AcDbLine
 10
750.0
 20
8008.226262794414
 30
0.0
 11
5550.0
 21
8008.226262794414
 31
0.0
  0
LINE
  5
7F33
330
840A
100
AcDbEntity
  8
4
100
AcDbLine
 10
1950.0
 20
1500.0
 30
0.0
 11
5550.0
 21
1500.0
 31
0.0
  0
LINE
  5
7F34
330
840A
100
AcDbEntity
  8
4
100
AcDbLine
 10
750.0
 20
8008.226262794414
 30
0.0
 11
750.0
 21
7408.226262794413
 31
0.0
  0
TEXT
  5
7F35
330
840A
100
AcDbEntity
  8
4
100
AcDbText
 10
1074.113244684245
 20
7146.958432639029
 30
0.0
 40
161.9999999999998
  1
右回転上向
100
AcDbText
  0
TEXT
  5
7F36
330
840A
100
AcDbEntity
  8
4
100
AcDbText
 10
4406.908677747869
 20
8118.183244485924
 30
0.0
 40
168.0
  1
No.
100
AcDbText
  0
TEXT
  5
7F37
330
840A
100
AcDbEntity
  8
4
100
AcDbText
 10
3933.888187800039
 20
7150.286523997547
 30
0.0
 40
161.9999999999998
  1
縮尺：1/30
100
AcDbText
  0
LINE
  5
7F38
330
840A
100
AcDbEntity
  8
4
100
AcDbLine
 10
5550.0
 20
8008.226262794414
 30
0.0
 11
5550.0
 21
7408.226262794413
 31
0.0
  0
LINE
  5
7F39
330
840A
100
AcDbEntity
  8
4
100
AcDbLine
 10
6300.0
 20
8850.0
 30
0.0
 11
6300.0
 21
8850.0
 31
0.0
  0
LINE
  5
7F3A
330
840A
100
AcDbEntity
  8
4
100
AcDbLine
 10
4321.852267079594
 20
8043.790749376205
 30
0.0
 11
4321.852267079594
 21
8359.956784649257
 31
0.0
  0
LINE
  5
7F3B
330
840A
100
AcDbEntity
  8
4
100
AcDbLine
 10
4321.852267079594
 20
8359.956784649257
 30
0.0
 11
5550.0
 21
8359.956784649257
 31
0.0
  0
LINE
  5
7F3C
330
840A
100
AcDbEntity
  8
4
100
AcDbLine
 10
5550.0
 20
8359.956784649257
 30
0.0
 11
5550.0
 21
8043.790749376205
 31
0.0
  0
LINE
  5
7F3D
330
840A
100
AcDbEntity
  8
4
100
AcDbLine
 10
5550.0
 20
8043.790749376205
 30
0.0
 11
4321.852267079594
 21
8043.790749376205
 31
0.0
  0
LINE
  5
7F3E
330
840A
100
AcDbEntity
  8
4
100
AcDbLine
 10
0.0
 20
0.0
 30
0.0
 11
0.0
 21
8850.0
 31
0.0
  0
LINE
  5
7F3F
330
840A
100
AcDbEntity
  8
4
100
AcDbLine
 10
0.0
 20
8850.0
 30
0.0
 11
6300.0
 21
8850.0
 31
0.0
  0
LINE
  5
7F40
330
840A
100
AcDbEntity
  8
4
100
AcDbLine
 10
6300.0
 20
8850.0
 30
0.0
 11
6300.0
 21
0.0
 31
0.0
  0
LINE
  5
7F41
330
840A
100
AcDbEntity
  8
4
100
AcDbLine
 10
6300.0
 20
0.0
 30
0.0
 11
0.0
 21
0.0
 31
0.0
  0
DIMENSION
  5
8453
330
840A
100
AcDbEntity
  8
3
100
AcDbDimension
  2
*D27
 10
4984.653931325548
 20
4038.317526510196
 30
0.0
 11
4509.653931325546
 21
4136.888955081625
 31
0.0
 70
    32
  1
(<>)
 71
     5
 42
950.0000000000031
  3
IGA
100
AcDbAlignedDimension
 13
4034.653931325545
 23
3351.978022216088
 33
0.0
 14
4984.653931325548
 24
3981.268326099274
 34
0.0
100
AcDbRotatedDimension
1001
ACAD
1000
DSTYLE
1002
{
1070
    40
1040
30.0
1070
    42
1040
1.0
1070
   143
1040
0.039
1070
   172
1070
     1
1070
   271
1070
     4
1070
   272
1070
     4
1070
   279
1070
     0
1070
   284
1070
     0
1070
   285
1070
     0
1070
   286
1070
     0
1070
   341
1005
841D
1070
   343
1005
841D
1070
   344
1005
841D
1002
}
  0
DIMENSION
  5
8460
330
840A
100
AcDbEntity
  8
3
100
AcDbDimension
  2
*D28
 10
5664.653931325545
 20
4038.317526510196
 30
0.0
 11
5324.653931325546
 21
4136.888955081625
 31
0.0
 70
    32
  1
(<>)
 71
     5
 42
679.9999999999963
  3
IGA
100
AcDbAlignedDimension
 13
4984.653931325548
 23
3981.268326099274
 33
0.0
 14
5664.653931325545
 24
3032.478022216089
 34
0.0
100
AcDbRotatedDimension
1001
ACAD
1000
DSTYLE
1002
{
1070
    40
1040
30.0
1070
    42
1040
1.0
1070
   143
1040
0.039
1070
   172
1070
     1
1070
   271
1070
     4
1070
   272
1070
     4
1070
   279
1070
     1
1070
   284
1070
     0
1070
   285
1070
     0
1070
   286
1070
     0
1070
   341
1005
841D
1070
   343
1005
841D
1070
   344
1005
841D
1002
}
  0
DIMENSION
  5
846D
330
840A
100
AcDbEntity
  8
3
100
AcDbDimension
  2
*D29
 10
5544.653931325547
 20
3861.268326099274
 30
0.0
 11
4984.653931325547
 21
3936.268326099275
 31
0.0
 70
    32
 71
     5
 42
1120.0
  3
IGA
100
AcDbAlignedDimension
 13
4424.653931325547
 23
3691.978022216089
 33
0.0
 14
5544.653931325547
 24
3691.978022216089
 34
0.0
100
AcDbRotatedDimension
1001
ACAD
1000
DSTYLE
1002
{
1070
    40
1040
30.0
1070
    42
1040
1.0
1070
   143
1040
0.039
1070
   172
1070
     1
1070
   271
1070
     4
1070
   272
1070
     4
1070
   279
1070
     0
1070
   284
1070
     0
1070
   285
1070
     0
1070
   286
1070
     0
1070
   341
1005
841D
1070
   343
1005
841D
1070
   344
1005
841D
1002
}
  0
DIMENSION
  5
847E
330
840A
100
AcDbEntity
  8
3
100
AcDbDimension
  2
*D30
 10
5868.544925153682
 20
2596.978022216088
 30
0.0
 11
5793.544925153681
 21
3071.978022216089
 31
0.0
 70
    32
  1
\U+03C6<>
 71
     5
 42
950.0
  3
IGA
100
AcDbAlignedDimension
 13
5544.653931325547
 23
3546.978022216089
 33
0.0
 14
5544.653931325547
 24
2596.978022216088
 34
0.0
 50
90.0
100
AcDbRotatedDimension
1001
ACAD
1000
DSTYLE
1002
{
1070
    40
1040
30.0
1070
    42
1040
1.0
1070
   143
1040
0.039
1070
   172
1070
     1
1070
   271
1070
     4
1070
   272
1070
     4
1070
   279
1070
     0
1070
   284
1070
     0
1070
   285
1070
     0
1070
   286
1070
     0
1070
   341
1005
841D
1070
   343
1005
841D
1070
   344
1005
841D
1002
}
  0
DIMENSION
  5
84F5
330
840A
100
AcDbEntity
  8
3
100
AcDbDimension
  2
*D32
 10
677.6426948674743
 20
4741.676946236007
 30
0.0
 11
602.6426948674736
 21
5141.676946236008
 31
0.0
 70
    32
 71
     5
 42
800.0000000000008
  3
IGA
100
AcDbAlignedDimension
 13
867.4942023340097
 23
5541.676946236008
 33
0.0
 14
867.494202334009
 24
4741.676946236007
 34
0.0
 50
90.0
100
AcDbRotatedDimension
1001
ACAD
1000
DSTYLE
1002
{
1070
    40
1040
30.0
1070
    42
1040
1.0
1070
   143
1040
0.039
1070
   172
1070
     1
1070
   271
1070
     4
1070
   272
1070
     4
1070
   279
1070
     0
1070
   284
1070
     0
1070
   285
1070
     0
1070
   286
1070
     0
1070
   341
1005
841D
1070
   343
1005
841D
1070
   344
1005
841D
1002
}
  0
DIMENSION
  5
8502
330
840A
100
AcDbEntity
  8
3
100
AcDbDimension
  2
*D33
 10
2737.494202334008
 20
4344.529786753933
 30
0.0
 11
1802.494202334008
 21
4419.529786753932
 31
0.0
 70
    32
 71
     5
 42
1869.999999999998
  3
IGA
100
AcDbAlignedDimension
 13
867.4942023340097
 23
4741.676946236006
 33
0.0
 14
2737.494202334008
 24
4741.676946236006
 34
0.0
100
AcDbRotatedDimension
1001
ACAD
1000
DSTYLE
1002
{
1070
    40
1040
30.0
1070
    42
1040
1.0
1070
   143
1040
0.039
1070
   172
1070
     1
1070
   271
1070
     4
1070
   272
1070
     4
1070
   279
1070
     0
1070
   284
1070
     0
1070
   285
1070
     0
1070
   286
1070
     0
1070
   341
1005
841D
1070
   343
1005
841D
1070
   344
1005
841D
1002
}
  0
DIMENSION
  5
850F
330
840A
100
AcDbEntity
  8
3
100
AcDbDimension
  2
*D34
 10
3037.918424500425
 20
6116.676946236006
 30
0.0
 11
2962.918424500424
 21
5429.176946236007
 31
0.0
 70
    32
 71
     5
 42
1375.0
  3
IGA
100
AcDbAlignedDimension
 13
2737.49420233401
 23
4741.676946236006
 33
0.0
 14
2737.49420233401
 24
6116.676946236006
 34
0.0
 50
90.0
100
AcDbRotatedDimension
1001
ACAD
1000
DSTYLE
1002
{
1070
    40
1040
30.0
1070
    42
1040
1.0
1070
   143
1040
0.039
1070
   172
1070
     1
1070
   271
1070
     4
1070
   272
1070
     4
1070
   279
1070
     0
1070
   284
1070
     0
1070
   285
1070
     0
1070
   286
1070
     0
1070
   341
1005
841D
1070
   343
1005
841D
1070
   344
1005
841D
1002
}
  0
DIMENSION
  5
851C
330
840A
100
AcDbEntity
  8
3
100
AcDbDimension
  2
*D35
 10
1617.49420233401
 20
6418.691604741228
 30
0.0
 11
2177.49420233401
 21
6493.691604741228
 31
0.0
 70
    32
 71
     5
 42
1120.0
  3
IGA
100
AcDbAlignedDimension
 13
2737.49420233401
 23
6116.676946236006
 33
0.0
 14
1617.49420233401
 24
6116.676946236006
 34
0.0
100
AcDbRotatedDimension
1001
ACAD
1000
DSTYLE
1002
{
1070
    40
1040
30.0
1070
    42
1040
1.0
1070
   143
1040
0.039
1070
   172
1070
     1
1070
   271
1070
     4
1070
   272
1070
     4
1070
   279
1070
     0
1070
   284
1070
     0
1070
   285
1070
     0
1070
   286
1070
     0
1070
   341
1005
841D
1070
   343
1005
841D
1070
   344
1005
841D
1002
}
  0
DIMENSION
  5
8529
330
840A
100
AcDbEntity
  8
3
100
AcDbDimension
  2
*D36
 10
867.4942023340097
 20
6418.691604741228
 30
0.0
 11
1242.49420233401
 21
6493.691604741228
 31
0.0
 70
    32
 71
     5
 42
750.0000000000002
  3
IGA
100
AcDbAlignedDimension
 13
1617.49420233401
 23
6116.676946236006
 33
0.0
 14
867.4942023340097
 24
5541.676946236008
 34
0.0
100
AcDbRotatedDimension
1001
ACAD
1000
DSTYLE
1002
{
1070
    40
1040
30.0
1070
    42
1040
1.0
1070
   143
1040
0.039
1070
   172
1070
     1
1070
   271
1070
     4
1070
   272
1070
     4
1070
   279
1070
     1
1070
   284
1070
     0
1070
   285
1070
     0
1070
   286
1070
     0
1070
   341
1005
841D
1070
   343
1005
841D
1070
   344
1005
841D
1002
}
  0
DIMENSION
  5
858F
330
840A
100
AcDbEntity
  8
3
100
AcDbDimension
  2
*D44
 10
4984.653931325546
 20
1858.61370258695
 30
0.0
 11
4603.653931325546
 21
1933.61370258695
 31
0.0
 70
    32
 71
     5
 42
761.9999999999982
  3
IGA
100
AcDbAlignedDimension
 13
4222.653931325547
 23
2046.978022216088
 33
0.0
 14
4984.653931325546
 24
2046.978022216088
 34
0.0
100
AcDbRotatedDimension
1001
ACAD
1000
DSTYLE
1002
{
1070
    40
1040
30.0
1070
    42
1040
1.0
1070
   143
1040
0.039
1070
   172
1070
     1
1070
   271
1070
     4
1070
   272
1070
     4
1070
   279
1070
     0
1070
   284
1070
     0
1070
   285
1070
     0
1070
   286
1070
     0
1070
   341
1005
841D
1070
   343
1005
841D
1070
   344
1005
841D
1002
}
  0
DIMENSION
  5
859C
330
840A
100
AcDbEntity
  8
3
100
AcDbDimension
  2
*D45
 10
5597.653931325547
 20
1858.61370258695
 30
0.0
 11
5291.153931325546
 21
1933.61370258695
 31
0.0
 70
    32
 71
     5
 42
613.0000000000018
  3
IGA
100
AcDbAlignedDimension
 13
4984.653931325546
 23
2046.978022216088
 33
0.0
 14
5597.653931325547
 24
2046.978022216088
 34
0.0
100
AcDbRotatedDimension
1001
ACAD
1000
DSTYLE
1002
{
1070
    40
1040
30.0
1070
    42
1040
1.0
1070
   143
1040
0.039
1070
   172
1070
     1
1070
   271
1070
     4
1070
   272
1070
     4
1070
   279
1070
     1
1070
   284
1070
     0
1070
   285
1070
     0
1070
   286
1070
     0
1070
   341
1005
841D
1070
   343
1005
841D
1070
   344
1005
841D
1002
}
  0
DIMENSION
  5
85A9
330
840A
100
AcDbEntity
  8
3
100
AcDbDimension
  2
*D46
 10
2177.494202334008
 20
1858.61370258695
 30
0.0
 11
1522.494202334008
 21
1933.61370258695
 31
0.0
 70
    32
 71
     5
 42
1309.999999999999
  3
IGA
100
AcDbAlignedDimension
 13
867.4942023340081
 23
2046.978022216088
 33
0.0
 14
2177.494202334008
 24
2046.978022216088
 34
0.0
100
AcDbRotatedDimension
1001
ACAD
1000
DSTYLE
1002
{
1070
    40
1040
30.0
1070
    42
1040
1.0
1070
   143
1040
0.039
1070
   172
1070
     1
1070
   271
1070
     4
1070
   272
1070
     4
1070
   279
1070
     0
1070
   284
1070
     0
1070
   285
1070
     0
1070
   286
1070
     0
1070
   341
1005
841D
1070
   343
1005
841D
1070
   344
1005
841D
1002
}
  0
DIMENSION
  5
85B6
330
840A
100
AcDbEntity
  8
3
100
AcDbDimension
  2
*D47
 10
2737.49420233401
 20
1858.61370258695
 30
0.0
 11
2457.49420233401
 21
1933.61370258695
 31
0.0
 70
    32
 71
     5
 42
560.0000000000022
  3
IGA
100
AcDbAlignedDimension
 13
2177.494202334008
 23
2046.978022216088
 33
0.0
 14
2737.49420233401
 24
2046.978022216088
 34
0.0
100
AcDbRotatedDimension
1001
ACAD
1000
DSTYLE
1002
{
1070
    40
1040
30.0
1070
    42
1040
1.0
1070
   143
1040
0.039
1070
   172
1070
     1
1070
   271
1070
     4
1070
   272
1070
     4
1070
   279
1070
     1
1070
   284
1070
     0
1070
   285
1070
     0
1070
   286
1070
     0
1070
   341
1005
841D
1070
   343
1005
841D
1070
   344
1005
841D
1002
}
  0
DIMENSION
  5
85C3
330
840A
100
AcDbEntity
  8
3
100
AcDbDimension
  2
*D48
 10
2141.494202334008
 20
3841.593130659299
 30
0.0
 11
1678.994202334008
 21
3916.593130659299
 31
0.0
 70
    32
 71
     5
 42
924.9999999999998
  3
IGA
100
AcDbAlignedDimension
 13
1216.494202334008
 23
3691.978022216089
 33
0.0
 14
2141.494202334008
 24
3691.978022216089
 34
0.0
100
AcDbRotatedDimension
1001
ACAD
1000
DSTYLE
1002
{
1070
    40
1040
30.0
1070
    42
1040
1.0
1070
   143
1040
0.039
1070
   172
1070
     1
1070
   271
1070
     4
1070
   272
1070
     4
1070
   279
1070
     0
1070
   284
1070
     0
1070
   285
1070
     0
1070
   286
1070
     0
1070
   341
1005
841D
1070
   343
1005
841D
1070
   344
1005
841D
1002
}
  0
DIMENSION
  5
85D0
330
840A
100
AcDbEntity
  8
3
100
AcDbDimension
  2
*D49
 10
2177.494202334008
 20
3991.936430757161
 30
0.0
 11
1696.994202334008
 21
4066.936430757161
 31
0.0
 70
    32
 71
     5
 42
960.9999999999997
  3
IGA
100
AcDbAlignedDimension
 13
1216.494202334008
 23
3691.978022216089
 33
0.0
 14
2177.494202334008
 24
3714.062890704765
 34
0.0
100
AcDbRotatedDimension
1001
ACAD
1000
DSTYLE
1002
{
1070
    40
1040
30.0
1070
    42
1040
1.0
1070
   143
1040
0.039
1070
   172
1070
     1
1070
   271
1070
     4
1070
   272
1070
     4
1070
   279
1070
     0
1070
   284
1070
     0
1070
   285
1070
     0
1070
   286
1070
     0
1070
   341
1005
841D
1070
   343
1005
841D
1070
   344
1005
841D
1002
}
  0
DIMENSION
  5
85DD
330
840A
100
AcDbEntity
  8
3
100
AcDbDimension
  2
*D50
 10
2820.494202334008
 20
3991.936430757161
 30
0.0
 11
2498.994202334008
 21
4066.936430757161
 31
0.0
 70
    32
 71
     5
 42
643.0
  3
IGA
100
AcDbAlignedDimension
 13
2177.494202334008
 23
3714.062890704765
 33
0.0
 14
2820.494202334008
 24
3004.978022216088
 34
0.0
100
AcDbRotatedDimension
1001
ACAD
1000
DSTYLE
1002
{
1070
    40
1040
30.0
1070
    42
1040
1.0
1070
   143
1040
0.039
1070
   172
1070
     1
1070
   271
1070
     4
1070
   272
1070
     4
1070
   279
1070
     1
1070
   284
1070
     0
1070
   285
1070
     0
1070
   286
1070
     0
1070
   341
1005
841D
1070
   343
1005
841D
1070
   344
1005
841D
1002
}
  0
DIMENSION
  5
85EA
330
840A
100
AcDbEntity
  8
3
100
AcDbDimension
  2
*D51
 10
3045.431187629271
 20
3071.978022216089
 30
0.0
 11
2970.431187629271
 21
3381.978022216089
 31
0.0
 70
    32
 71
     5
 42
620.0
  3
IGA
100
AcDbAlignedDimension
 13
2183.994202334008
 23
3691.978022216089
 33
0.0
 14
2833.749541112554
 24
3071.978022216089
 34
0.0
 50
90.0
100
AcDbRotatedDimension
1001
ACAD
1000
DSTYLE
1002
{
1070
    40
1040
30.0
1070
    42
1040
1.0
1070
   143
1040
0.039
1070
   172
1070
     1
1070
   271
1070
     4
1070
   272
1070
     4
1070
   279
1070
     0
1070
   284
1070
     0
1070
   285
1070
     0
1070
   286
1070
     0
1070
   341
1005
841D
1070
   343
1005
841D
1070
   344
1005
841D
1002
}
  0
DIMENSION
  5
85F7
330
840A
100
AcDbEntity
  8
3
100
AcDbDimension
  2
*D52
 10
3045.431187629271
 20
2251.978022216087
 30
0.0
 11
2970.431187629271
 21
2661.978022216088
 31
0.0
 70
    32
 71
     5
 42
820.0000000000013
  3
IGA
100
AcDbAlignedDimension
 13
2833.749541112554
 23
3071.978022216089
 33
0.0
 14
2737.494202334008
 24
2251.978022216087
 34
0.0
 50
90.0
100
AcDbRotatedDimension
1001
ACAD
1000
DSTYLE
1002
{
1070
    40
1040
30.0
1070
    42
1040
1.0
1070
   143
1040
0.039
1070
   172
1070
     1
1070
   271
1070
     4
1070
   272
1070
     4
1070
   279
1070
     1
1070
   284
1070
     0
1070
   285
1070
     0
1070
   286
1070
     0
1070
   341
1005
841D
1070
   343
1005
841D
1070
   344
1005
841D
1002
}
  0
DIMENSION
  5
8604
330
840A
100
AcDbEntity
  8
3
100
AcDbDimension
  2
*D53
 10
3045.431187629271
 20
2146.978022216088
 30
0.0
 11
3227.574044772128
 21
2313.692307930374
 31
0.0
 70
    32
  1
(<>)
 71
     5
 42
104.9999999999991
  3
IGA
100
AcDbAlignedDimension
 13
2737.494202334008
 23
2251.978022216087
 33
0.0
 14
2737.49420233401
 24
2146.978022216088
 34
0.0
 50
90.0
100
AcDbRotatedDimension
1001
ACAD
1000
DSTYLE
1002
{
1070
    40
1040
30.0
1070
    42
1040
1.0
1070
   143
1040
0.039
1070
   172
1070
     1
1070
   271
1070
     4
1070
   272
1070
     4
1070
   279
1070
     1
1070
   284
1070
     0
1070
   285
1070
     0
1070
   286
1070
     0
1070
   341
1005
841D
1070
   343
1005
841D
1070
   344
1005
86CF
1002
}
  0
DIMENSION
  5
8616
330
840A
100
AcDbEntity
  8
3
100
AcDbDimension
  2
*D54
 10
3045.431187629271
 20
2046.978022216088
 30
0.0
 11
3035.431187629271
 21
1903.703351630109
 31
0.0
 70
   160
 71
     5
 42
99.99999999999978
  3
IGA
100
AcDbAlignedDimension
 13
2737.49420233401
 23
2146.978022216088
 33
0.0
 14
2737.49420233401
 24
2046.978022216088
 34
0.0
 50
90.0
100
AcDbRotatedDimension
1001
ACAD
1000
DSTYLE
1002
{
1070
    40
1040
30.0
1070
    42
1040
1.0
1070
   143
1040
0.039
1070
   172
1070
     1
1070
   271
1070
     4
1070
   272
1070
     4
1070
   279
1070
     1
1070
   284
1070
     0
1070
   285
1070
     0
1070
   286
1070
     0
1070
   341
1005
841D
1070
   343
1005
86CF
1070
   344
1005
841D
1002
}
  0
DIMENSION
  5
864F
330
840A
100
AcDbEntity
  8
3
100
AcDbDimension
  2
*D55
 10
3507.826224898592
 20
3691.978022216088
 30
0.0
 11
3409.254796327163
 21
2869.478022216089
 31
0.0
 70
    32
  1
(<>)
 71
     5
 42
1645.0
  3
IGA
100
AcDbAlignedDimension
 13
2737.49420233401
 23
2046.978022216088
 33
0.0
 14
2183.994202334008
 24
3691.978022216089
 34
0.0
 50
90.0
100
AcDbRotatedDimension
1001
ACAD
1000
DSTYLE
1002
{
1070
    40
1040
30.0
1070
    42
1040
1.0
1070
   143
1040
0.039
1070
   172
1070
     1
1070
   271
1070
     4
1070
   272
1070
     4
1070
   279
1070
     0
1070
   284
1070
     0
1070
   285
1070
     0
1070
   286
1070
     0
1070
   341
1005
841D
1070
   343
1005
841D
1070
   344
1005
841D
1002
}
  0
ENDSEC
  0
SECTION
  2
OBJECTS
  0
DICTIONARY
  5
83A7
330
0
100
AcDbDictionary
281
     1
  3
ACAD_CIP_PREVIOUS_PRODUCT_INFO
350
844F
  3
ACAD_COLOR
350
83FD
  3
ACAD_DETAILVIEWSTYLE
350
8404
  3
ACAD_GROUP
350
83A8
  3
ACAD_LAYOUT
350
83FC
  3
ACAD_MATERIAL
350
83AB
  3
ACAD_MLEADERSTYLE
350
8400
  3
ACAD_MLINESTYLE
350
83F9
  3
ACAD_PLOTSETTINGS
350
83FB
  3
ACAD_PLOTSTYLENAME
350
83A9
  3
ACAD_SCALELIST
350
83DD
  3
ACAD_SECTIONVIEWSTYLE
350
8402
  3
ACAD_TABLESTYLE
350
83FE
  3
ACAD_VISUALSTYLE
350
83C4
  3
ACDB_RECOMPOSE_DATA
350
875A
  3
AcDbVariableDictionary
350
874D
  3
DWGPROPS
350
875B
  0
DICTIONARY
  5
8743
330
83EF
100
AcDbDictionary
280
     1
281
     1
  3
ADSK_XREC_LAYER_RECONCILED
360
8744
  0
DICTIONARY
  5
8745
330
840E
100
AcDbDictionary
280
     1
281
     1
  3
ADSK_XREC_LAYER_RECONCILED
360
8746
  0
DICTIONARY
  5
8747
330
8411
100
AcDbDictionary
280
     1
281
     1
  3
ADSK_XREC_LAYER_RECONCILED
360
8748
  0
DICTIONARY
  5
8749
330
8412
100
AcDbDictionary
280
     1
281
     1
  3
ADSK_XREC_LAYER_RECONCILED
360
874A
  0
DICTIONARY
  5
874B
330
8413
100
AcDbDictionary
280
     1
281
     1
  3
ADSK_XREC_LAYER_RECONCILED
360
874C
  0
DICTIONARY
  5
847B
330
840A
100
AcDbDictionary
280
     1
281
     1
  3
ACAD_SORTENTS
360
847C
  0
XRECORD
  5
844F
102
{ACAD_REACTORS
330
83A7
102
}
330
83A7
100
AcDbXrecord
280
     1
300
ACDLT
300
2015
300
INVLTS_F_S
  0
DICTIONARY
  5
83FD
102
{ACAD_REACTORS
330
83A7
102
}
330
83A7
100
AcDbDictionary
281
     1
  0
DICTIONARY
  5
8404
102
{ACAD_REACTORS
330
83A7
102
}
330
83A7
100
AcDbDictionary
281
     1
  3
Imperial24
350
8405
  0
DICTIONARY
  5
83A8
102
{ACAD_REACTORS
330
83A7
102
}
330
83A7
100
AcDbDictionary
281
     1
  0
DICTIONARY
  5
83FC
102
{ACAD_REACTORS
330
83A7
102
}
330
83A7
100
AcDbDictionary
281
     1
  3
Model
350
840D
  3
レイアウト1
350
8409
  0
DICTIONARY
  5
83AB
102
{ACAD_REACTORS
330
83A7
102
}
330
83A7
100
AcDbDictionary
281
     1
  3
ByBlock
350
83B4
  3
ByLayer
350
83AC
  3
Global
350
83BC
  0
DICTIONARY
  5
8400
102
{ACAD_REACTORS
330
83A7
102
}
330
83A7
100
AcDbDictionary
281
     1
  3
Standard
350
8401
  0
DICTIONARY
  5
83F9
102
{ACAD_REACTORS
330
83A7
102
}
330
83A7
100
AcDbDictionary
281
     1
  3
Standard
350
83FA
  0
DICTIONARY
  5
83FB
102
{ACAD_REACTORS
330
83A7
102
}
330
83A7
100
AcDbDictionary
281
     1
  0
ACDBDICTIONARYWDFLT
  5
83A9
102
{ACAD_REACTORS
330
83A7
102
}
330
83A7
100
AcDbDictionary
281
     1
  3
Normal
350
83AA
100
AcDbDictionaryWithDefault
340
83AA
  0
DICTIONARY
  5
83DD
102
{ACAD_REACTORS
330
83A7
102
}
330
83A7
100
AcDbDictionary
281
     1
  3
A0
350
83DE
  3
A1
350
83DF
  3
A2
350
83E0
  3
A3
350
83E1
  3
A4
350
83E2
  3
A5
350
83E3
  3
A6
350
83E4
  3
A7
350
83E5
  3
A8
350
83E6
  3
A9
350
83E7
  3
B0
350
83E8
  3
B1
350
83E9
  3
B2
350
83EA
  3
B3
350
83EB
  3
B4
350
83EC
  3
B5
350
83ED
  3
B6
350
83EE
  0
DICTIONARY
  5
8402
102
{ACAD_REACTORS
330
83A7
102
}
330
83A7
100
AcDbDictionary
281
     1
  3
Imperial24
350
8403
  0
DICTIONARY
  5
83FE
102
{ACAD_REACTORS
330
83A7
102
}
330
83A7
100
AcDbDictionary
281
     1
  3
Standard
350
83FF
  0
DICTIONARY
  5
83C4
102
{ACAD_REACTORS
330
83A7
102
}
330
83A7
100
AcDbDictionary
281
     1
  3
2dWireframe
350
83CA
  3
Basic
350
83C9
  3
Brighten
350
83D0
  3
ColorChange
350
83D4
  3
Conceptual
350
83CD
  3
Dim
350
83CF
  3
EdgeColorOff
350
83DC
  3
Facepattern
350
83D3
  3
Flat
350
83C5
  3
FlatWithEdges
350
83C6
  3
Gouraud
350
83C7
  3
GouraudWithEdges
350
83C8
  3
Hidden
350
83CC
  3
JitterOff
350
83DA
  3
Linepattern
350
83D2
  3
OverhangOff
350
83DB
  3
Realistic
350
83CE
  3
Shaded
350
83D9
  3
Shaded with edges
350
83D8
  3
Shades of Gray
350
83D5
  3
Sketchy
350
83D6
  3
Thicken
350
83D1
  3
Wireframe
350
83CB
  3
X-Ray
350
83D7
  0
XRECORD
  5
875A
102
{ACAD_REACTORS
330
83A7
102
}
330
83A7
100
AcDbXrecord
280
     1
 90
        1
330
83FF
  0
DICTIONARY
  5
874D
102
{ACAD_REACTORS
330
83A7
102
}
330
83A7
100
AcDbDictionary
281
     1
  3
CANNOSCALE
350
8752
  3
CMLEADERSTYLE
350
874F
  3
CTABLESTYLE
350
874E
  3
CVIEWDETAILSTYLE
350
8750
  3
CVIEWSECTIONSTYLE
350
8751
  3
DIMASSOC
350
8755
  3
INDEXCTL
350
8754
  3
SORTENTS
350
8753
  3
XCLIPFRAME
350
8756
  0
XRECORD
  5
875B
102
{ACAD_REACTORS
330
83A7
102
}
330
83A7
100
AcDbXrecord
280
     1
  1
DWGPROPS COOKIE
  2

  3

  4

  6

  7

  8
yasukiyo.ogawa
  9

300
=
301
=
302
=
303
=
304
=
305
=
306
=
307
=
308
=
309
=
 40
0.0192202314814815
 41
2451389.482040394
 42
2460269.623647616
  1

 90
        0
  0
XRECORD
  5
8744
102
{ACAD_REACTORS
330
8743
102
}
330
8743
100
AcDbXrecord
280
     1
290
     1
  0
XRECORD
  5
8746
102
{ACAD_REACTORS
330
8745
102
}
330
8745
100
AcDbXrecord
280
     1
290
     1
  0
XRECORD
  5
8748
102
{ACAD_REACTORS
330
8747
102
}
330
8747
100
AcDbXrecord
280
     1
290
     1
  0
XRECORD
  5
874A
102
{ACAD_REACTORS
330
8749
102
}
330
8749
100
AcDbXrecord
280
     1
290
     1
  0
XRECORD
  5
874C
102
{ACAD_REACTORS
330
874B
102
}
330
874B
100
AcDbXrecord
280
     1
290
     1
  0
SORTENTSTABLE
  5
847C
102
{ACAD_REACTORS
330
847B
102
}
330
847B
100
AcDbSortentsTable
330
840A
331
7F23
  5
7F25
331
7CF1
  5
7CF3
331
7CE0
  5
7CE2
331
7F2C
  5
7F2F
331
7F3D
  5
7F3F
331
7CCF
  5
7CD1
331
7CBE
  5
7CC0
331
7CAD
  5
7CB0
331
7C93
  5
7C95
331
7C82
  5
7C84
331
7C47
  5
7C4C
331
7C36
  5
7C36
331
7C25
  5
7C25
331
7F2D
  5
7F30
331
7F24
  5
7F28
331
7CF2
  5
7CF4
331
7CE1
  5
7CE3
331
7CD0
  5
7CD2
331
7F3E
  5
7F40
331
7CBF
  5
7CC1
331
7CAE
  5
7CB1
331
7C94
  5
7C96
331
7C83
  5
7C85
331
7C72
  5
7C74
331
7C37
  5
7C37
331
7C26
  5
7C26
331
7F25
  5
7F29
331
7CF3
  5
7CF5
331
7CE2
  5
7CE4
331
7CD1
  5
7CD3
331
7CC0
  5
7CC2
331
7F3F
  5
7F41
331
7C95
  5
7C97
331
7C73
  5
7C75
331
7C38
  5
7C38
331
7C27
  5
7C27
331
7F2F
  5
7F31
331
7D05
  5
7D07
331
7CF4
  5
7CF6
331
7CE3
  5
7CE5
331
7CD2
  5
7CD4
331
7CC1
  5
7CC3
331
7CB0
  5
7CB2
331
7F40
  5
819C
331
7C96
  5
7C98
331
7C74
  5
7C76
331
7C4A
  5
7C4D
331
7C39
  5
7C39
331
7C28
  5
7C28
331
7F30
  5
7F32
331
7D06
  5
7D08
331
7CF5
  5
7CF7
331
7CE4
  5
7CE6
331
7CD3
  5
7CD5
331
7CC2
  5
7CC4
331
7CB1
  5
7CB6
331
7CA0
  5
7CA2
331
7F41
  5
81A9
331
7C97
  5
7C99
331
7C86
  5
7C88
331
7C75
  5
7C77
331
7C5C
  5
7C61
331
7C3A
  5
7C3A
331
7C29
  5
7C29
331
7F31
  5
7F33
331
7D07
  5
7D09
331
7CF6
  5
7CF8
331
7CE5
  5
7CE7
331
7CD4
  5
7CD6
331
7CC3
  5
7CC5
331
7CB2
  5
7CB7
331
7CA1
  5
7CA3
331
7C98
  5
7C9A
331
7C4C
  5
7C54
331
7C87
  5
7C89
331
7C76
  5
7C78
331
7C3B
  5
7C3B
331
7C2A
  5
7C2A
331
7F32
  5
7F34
331
7D08
  5
7D0A
331
7CF7
  5
7CF9
331
7CE6
  5
7CE8
331
7CC4
  5
7CC6
331
7CA2
  5
7CA4
331
7C99
  5
7C9B
331
7C88
  5
7C8A
331
846D
  5
847D
331
7C4D
  5
7C56
331
7C3C
  5
7C3F
331
7C77
  5
7C7A
331
7C2B
  5
7C2B
331
7F33
  5
7F35
331
7D09
  5
7D0B
331
7CF8
  5
7D00
331
7CE7
  5
7CE9
331
7CC5
  5
7CC7
331
7CA3
  5
7CA5
331
7C9A
  5
7C9C
331
7C89
  5
7C8B
331
7C78
  5
7C7B
331
7C3D
  5
7C41
331
7C2C
  5
7C2C
331
7F34
  5
7F36
331
7CF9
  5
7D01
331
7CE8
  5
7CEA
331
7CC6
  5
7CC8
331
7CA4
  5
7CA6
331
7C9B
  5
7C9D
331
7C8A
  5
7C8C
331
7C60
  5
7C63
331
7C2D
  5
7C2D
331
7F35
  5
7F37
331
7D0B
  5
7D0D
331
7CE9
  5
7CEB
331
7CC7
  5
7CC9
331
7CB6
  5
7CB8
331
7CA5
  5
7CA7
331
7C9C
  5
7C9E
331
7C8B
  5
7C8D
331
7C7A
  5
7C7C
331
7C61
  5
7C65
331
7C3F
  5
7C43
331
7C2E
  5
7C2E
331
8460
  5
847A
331
7F36
  5
7F38
331
7D0C
  5
7D0E
331
7CEA
  5
7CEC
331
7CC8
  5
7CCE
331
7CB7
  5
7CBC
331
7CA6
  5
7CA8
331
7C9D
  5
7C9F
331
7C8C
  5
7C8E
331
7C7B
  5
7C7D
331
7C2F
  5
7C2F
331
7F37
  5
7F39
331
7D0D
  5
7D0F
331
7CEB
  5
7CED
331
7CC9
  5
7CCF
331
7CB8
  5
7CBD
331
7CA7
  5
7CA9
331
7C9E
  5
7CA0
331
7C8D
  5
7C8F
331
7C7C
  5
7C80
331
7C63
  5
7C66
331
7C41
  5
7C44
331
7C30
  5
7C30
331
7F38
  5
7F3A
331
7D0E
  5
7F23
331
7CEC
  5
7CEE
331
7CDB
  5
7CDD
331
7CA8
  5
7CAA
331
7C9F
  5
7CA1
331
7C8E
  5
7C90
331
7C7D
  5
7C81
331
7C31
  5
7C31
331
7F28
  5
7F2A
331
7F39
  5
7F3B
331
7D0F
  5
7F24
331
7CED
  5
7CEF
331
7CDC
  5
7CDE
331
7CA9
  5
7CAB
331
7C8F
  5
7C91
331
7C65
  5
7C67
331
7C54
  5
7C57
331
7C43
  5
7C46
331
7C32
  5
7C32
331
7C21
  5
7C21
331
7F3A
  5
7F3C
331
7F29
  5
7F2B
331
8453
  5
846D
331
7CEE
  5
7CF0
331
7CDD
  5
7CDF
331
7CAA
  5
7CAC
331
7C90
  5
7C92
331
7C66
  5
7C72
331
7C44
  5
7C47
331
7C33
  5
7C33
331
7F2A
  5
7F2C
331
7F3B
  5
7F3D
331
7CEF
  5
7CF1
331
7CDE
  5
7CE0
331
7CBC
  5
7CBE
331
7CAB
  5
7CAD
331
7C91
  5
7C93
331
7C80
  5
7C82
331
7C67
  5
7C73
331
7C56
  5
7C5C
331
7C34
  5
7C34
331
7C23
  5
7C23
331
7F2B
  5
7F2D
331
7CF0
  5
7CF2
331
7F3C
  5
7F3E
331
7CDF
  5
7CE1
331
7CCE
  5
7CD0
331
7CBD
  5
7CBF
331
7CAC
  5
7CAE
331
7C92
  5
7C94
331
7C81
  5
7C83
331
7C57
  5
7C60
331
7C46
  5
7C4A
331
7C35
  5
7C35
331
7C24
  5
7C24
  0
ACDBDETAILVIEWSTYLE
  5
8405
102
{ACAD_XDICTIONARY
360
8793
102
}
102
{ACAD_REACTORS
330
8404
102
}
330
8404
100
AcDbModelDocViewStyle
 70
     0
  3
Imperial24
290
     0
100
AcDbDetailViewStyle
 70
     0
 71
     0
 90
        3
 71
     1
340
83F0
 40
0.24
340
0
 40
0.24
300

 40
0.36
280
     3
 71
     2
340
83F7
 90
       25
 71
     3
340
83F0
 40
0.24
 90
        1
 40
0.75
 90
        1
300
%<\AcVar ViewType \f "%tc1">% %<\AcVar ViewDetailId>%\PSCALE %<\AcVar ViewScale \f "%sn">%
 71
     4
340
83F7
 90
       25
340
83F7
 90
       25
280
     0
  0
LAYOUT
  5
840D
102
{ACAD_XDICTIONARY
360
8797
102
}
102
{ACAD_REACTORS
330
83FC
102
}
330
83FC
100
AcDbPlotSettings
  1

  2
RICOH imagio MP W3600 RPCS
  4

  6

 40
0.0
 41
0.0
 42
0.0
 43
0.0
 44
0.0
 45
0.0
 46
0.0
 47
0.0
 48
0.0
 49
0.0
140
0.0
141
0.0
142
1.0
143
1.0
 70
  1712
 72
     0
 73
     0
 74
     0
  7

 75
     0
147
1.0
148
0.0
149
0.0
100
AcDbLayout
  1
Model
 70
     1
 71
     0
 10
0.0
 20
0.0
 11
12.0
 21
9.0
 12
0.0
 22
0.0
 32
0.0
 14
0.0
 24
0.0
 34
0.0
 15
0.0
 25
0.0
 35
0.0
146
0.0
 13
0.0
 23
0.0
 33
0.0
 16
1.0
 26
0.0
 36
0.0
 17
0.0
 27
1.0
 37
0.0
 76
     0
330
840A
331
840F
  0
LAYOUT
  5
8409
102
{ACAD_XDICTIONARY
360
8795
102
}
102
{ACAD_REACTORS
330
83FC
102
}
330
83FC
100
AcDbPlotSettings
  1

  2
RICOH imagio MP W3600 RPCS
  4

  6

 40
0.0
 41
0.0
 42
0.0
 43
0.0
 44
0.0
 45
0.0
 46
0.0
 47
0.0
 48
0.0
 49
0.0
140
0.0
141
0.0
142
1.0
143
1.0
 70
   688
 72
     0
 73
     0
 74
     5
  7

 75
    16
147
1.0
148
0.0
149
0.0
100
AcDbLayout
  1
レイアウト1
 70
     1
 71
     1
 10
0.0
 20
0.0
 11
12.0
 21
9.0
 12
0.0
 22
0.0
 32
0.0
 14
1.000000000000000E+20
 24
1.000000000000000E+20
 34
1.000000000000000E+20
 15
-1.000000000000000E+20
 25
-1.000000000000000E+20
 35
-1.000000000000000E+20
146
0.0
 13
0.0
 23
0.0
 33
0.0
 16
1.0
 26
0.0
 36
0.0
 17
0.0
 27
1.0
 37
0.0
 76
     0
330
8406
  0
MATERIAL
  5
83B4
102
{ACAD_XDICTIONARY
360
83B5
102
}
102
{ACAD_REACTORS
330
83AB
102
}
330
83AB
100
AcDbMaterial
  1
ByBlock
 72
     0
 43
0.0208333333333333
 43
0.0
 43
0.0
 43
0.0
 43
0.0
 43
0.0208333333333333
 43
0.0
 43
0.0
 43
0.0
 43
0.0
 43
1.0
 43
0.0
 43
0.0
 43
0.0
 43
0.0
 43
1.0
 77
     0
 47
0.0208333333333333
 47
0.0
 47
0.0
 47
0.0
 47
0.0
 47
0.0208333333333333
 47
0.0
 47
0.0
 47
0.0
 47
0.0
 47
1.0
 47
0.0
 47
0.0
 47
0.0
 47
0.0
 47
1.0
171
     0
 49
0.0208333333333333
 49
0.0
 49
0.0
 49
0.0
 49
0.0
 49
0.0208333333333333
 49
0.0
 49
0.0
 49
0.0
 49
0.0
 49
1.0
 49
0.0
 49
0.0
 49
0.0
 49
0.0
 49
1.0
175
     0
142
0.0208333333333333
142
0.0
142
0.0
142
0.0
142
0.0
142
0.0208333333333333
142
0.0
142
0.0
142
0.0
142
0.0
142
1.0
142
0.0
142
0.0
142
0.0
142
0.0
142
1.0
179
     0
144
0.0208333333333333
144
0.0
144
0.0
144
0.0
144
0.0
144
0.0208333333333333
144
0.0
144
0.0
144
0.0
144
0.0
144
1.0
144
0.0
144
0.0
144
0.0
144
0.0
144
1.0
147
0.0208333333333333
147
0.0
147
0.0
147
0.0
147
0.0
147
0.0208333333333333
147
0.0
147
0.0
147
0.0
147
0.0
147
1.0
147
0.0
147
0.0
147
0.0
147
0.0
147
1.0
  0
MATERIAL
  5
83AC
102
{ACAD_XDICTIONARY
360
83AD
102
}
102
{ACAD_REACTORS
330
83AB
102
}
330
83AB
100
AcDbMaterial
  1
ByLayer
 72
     0
 43
0.0208333333333333
 43
0.0
 43
0.0
 43
0.0
 43
0.0
 43
0.0208333333333333
 43
0.0
 43
0.0
 43
0.0
 43
0.0
 43
1.0
 43
0.0
 43
0.0
 43
0.0
 43
0.0
 43
1.0
 77
     0
 47
0.0208333333333333
 47
0.0
 47
0.0
 47
0.0
 47
0.0
 47
0.0208333333333333
 47
0.0
 47
0.0
 47
0.0
 47
0.0
 47
1.0
 47
0.0
 47
0.0
 47
0.0
 47
0.0
 47
1.0
171
     0
 49
0.0208333333333333
 49
0.0
 49
0.0
 49
0.0
 49
0.0
 49
0.0208333333333333
 49
0.0
 49
0.0
 49
0.0
 49
0.0
 49
1.0
 49
0.0
 49
0.0
 49
0.0
 49
0.0
 49
1.0
175
     0
142
0.0208333333333333
142
0.0
142
0.0
142
0.0
142
0.0
142
0.0208333333333333
142
0.0
142
0.0
142
0.0
142
0.0
142
1.0
142
0.0
142
0.0
142
0.0
142
0.0
142
1.0
179
     0
144
0.0208333333333333
144
0.0
144
0.0
144
0.0
144
0.0
144
0.0208333333333333
144
0.0
144
0.0
144
0.0
144
0.0
144
1.0
144
0.0
144
0.0
144
0.0
144
0.0
144
1.0
147
0.0208333333333333
147
0.0
147
0.0
147
0.0
147
0.0
147
0.0208333333333333
147
0.0
147
0.0
147
0.0
147
0.0
147
1.0
147
0.0
147
0.0
147
0.0
147
0.0
147
1.0
  0
MATERIAL
  5
83BC
102
{ACAD_XDICTIONARY
360
83BD
102
}
102
{ACAD_REACTORS
330
83AB
102
}
330
83AB
100
AcDbMaterial
  1
Global
 72
     0
 43
0.0208333333333333
 43
0.0
 43
0.0
 43
0.0
 43
0.0
 43
0.0208333333333333
 43
0.0
 43
0.0
 43
0.0
 43
0.0
 43
1.0
 43
0.0
 43
0.0
 43
0.0
 43
0.0
 43
1.0
 77
     0
 47
0.0208333333333333
 47
0.0
 47
0.0
 47
0.0
 47
0.0
 47
0.0208333333333333
 47
0.0
 47
0.0
 47
0.0
 47
0.0
 47
1.0
 47
0.0
 47
0.0
 47
0.0
 47
0.0
 47
1.0
171
     0
 49
0.0208333333333333
 49
0.0
 49
0.0
 49
0.0
 49
0.0
 49
0.0208333333333333
 49
0.0
 49
0.0
 49
0.0
 49
0.0
 49
1.0
 49
0.0
 49
0.0
 49
0.0
 49
0.0
 49
1.0
175
     0
142
0.0208333333333333
142
0.0
142
0.0
142
0.0
142
0.0
142
0.0208333333333333
142
0.0
142
0.0
142
0.0
142
0.0
142
1.0
142
0.0
142
0.0
142
0.0
142
0.0
142
1.0
179
     0
144
0.0208333333333333
144
0.0
144
0.0
144
0.0
144
0.0
144
0.0208333333333333
144
0.0
144
0.0
144
0.0
144
0.0
144
1.0
144
0.0
144
0.0
144
0.0
144
0.0
144
1.0
147
0.0208333333333333
147
0.0
147
0.0
147
0.0
147
0.0
147
0.0208333333333333
147
0.0
147
0.0
147
0.0
147
0.0
147
1.0
147
0.0
147
0.0
147
0.0
147
0.0
147
1.0
  0
MLEADERSTYLE
  5
8401
102
{ACAD_REACTORS
330
8400
102
}
330
8400
100
AcDbMLeaderStyle
170
     2
171
     1
172
     0
 90
        2
 40
0.0
 41
0.0
173
     1
 91
-1056964608
340
83F5
 92
       -2
290
     1
 42
0.09
291
     1
 43
0.36
  3
Standard
 44
0.18
300

342
83F0
174
     1
178
     6
175
     1
176
     0
 93
-1056964608
 45
0.18
292
     0
297
     0
 46
0.18
 94
-1056964608
 47
1.0
 49
1.0
140
1.0
293
     1
141
0.0
294
     1
177
     0
142
1.0
295
     0
296
     0
143
0.125
1001
ACAD_MLEADERVER
1070
     2
  0
MLINESTYLE
  5
83FA
102
{ACAD_REACTORS
330
83F9
102
}
330
83F9
100
AcDbMlineStyle
  2
STANDARD
 70
     0
  3

 62
   256
 51
90.0
 52
90.0
 71
     2
 49
0.5
 62
   256
  6
BYLAYER
 49
-0.5
 62
   256
  6
BYLAYER
  0
ACDBPLACEHOLDER
  5
83AA
102
{ACAD_REACTORS
330
83A9
102
}
330
83A9
  0
SCALE
  5
83DE
102
{ACAD_REACTORS
330
83DD
102
}
330
83DD
100
AcDbScale
 70
     0
300
1:1
140
1.0
141
1.0
290
     1
  0
SCALE
  5
83DF
102
{ACAD_REACTORS
330
83DD
102
}
330
83DD
100
AcDbScale
 70
     0
300
1/128" = 1'-0"
140
0.0078125
141
12.0
290
     0
  0
SCALE
  5
83E0
102
{ACAD_REACTORS
330
83DD
102
}
330
83DD
100
AcDbScale
 70
     0
300
1/64" = 1'-0"
140
0.015625
141
12.0
290
     0
  0
SCALE
  5
83E1
102
{ACAD_REACTORS
330
83DD
102
}
330
83DD
100
AcDbScale
 70
     0
300
1/32" = 1'-0"
140
0.03125
141
12.0
290
     0
  0
SCALE
  5
83E2
102
{ACAD_REACTORS
330
83DD
102
}
330
83DD
100
AcDbScale
 70
     0
300
1/16" = 1'-0"
140
0.0625
141
12.0
290
     0
  0
SCALE
  5
83E3
102
{ACAD_REACTORS
330
83DD
102
}
330
83DD
100
AcDbScale
 70
     0
300
3/32" = 1'-0"
140
0.09375
141
12.0
290
     0
  0
SCALE
  5
83E4
102
{ACAD_REACTORS
330
83DD
102
}
330
83DD
100
AcDbScale
 70
     0
300
1/8" = 1'-0"
140
0.125
141
12.0
290
     0
  0
SCALE
  5
83E5
102
{ACAD_REACTORS
330
83DD
102
}
330
83DD
100
AcDbScale
 70
     0
300
3/16" = 1'-0"
140
0.1875
141
12.0
290
     0
  0
SCALE
  5
83E6
102
{ACAD_REACTORS
330
83DD
102
}
330
83DD
100
AcDbScale
 70
     0
300
1/4" = 1'-0"
140
0.25
141
12.0
290
     0
  0
SCALE
  5
83E7
102
{ACAD_REACTORS
330
83DD
102
}
330
83DD
100
AcDbScale
 70
     0
300
3/8" = 1'-0"
140
0.375
141
12.0
290
     0
  0
SCALE
  5
83E8
102
{ACAD_REACTORS
330
83DD
102
}
330
83DD
100
AcDbScale
 70
     0
300
1/2" = 1'-0"
140
0.5
141
12.0
290
     0
  0
SCALE
  5
83E9
102
{ACAD_REACTORS
330
83DD
102
}
330
83DD
100
AcDbScale
 70
     0
300
3/4" = 1'-0"
140
0.75
141
12.0
290
     0
  0
SCALE
  5
83EA
102
{ACAD_REACTORS
330
83DD
102
}
330
83DD
100
AcDbScale
 70
     0
300
1" = 1'-0"
140
1.0
141
12.0
290
     0
  0
SCALE
  5
83EB
102
{ACAD_REACTORS
330
83DD
102
}
330
83DD
100
AcDbScale
 70
     0
300
1-1/2" = 1'-0"
140
1.5
141
12.0
290
     0
  0
SCALE
  5
83EC
102
{ACAD_REACTORS
330
83DD
102
}
330
83DD
100
AcDbScale
 70
     0
300
3" = 1'-0"
140
3.0
141
12.0
290
     0
  0
SCALE
  5
83ED
102
{ACAD_REACTORS
330
83DD
102
}
330
83DD
100
AcDbScale
 70
     0
300
6" = 1'-0"
140
6.0
141
12.0
290
     0
  0
SCALE
  5
83EE
102
{ACAD_REACTORS
330
83DD
102
}
330
83DD
100
AcDbScale
 70
     0
300
1'-0" = 1'-0"
140
12.0
141
12.0
290
     0
  0
ACDBSECTIONVIEWSTYLE
  5
8403
102
{ACAD_XDICTIONARY
360
8791
102
}
102
{ACAD_REACTORS
330
8402
102
}
330
8402
100
AcDbModelDocViewStyle
 70
     0
  3
Imperial24
290
     0
100
AcDbSectionViewStyle
 70
     0
 71
     0
 90
       78
 71
     1
340
83F0
 40
0.24
340
0
340
0
 40
0.24
300
I, O, Q, S, X, Z
 40
0.48
 90
        3
 40
0.18
 90
        1
 71
     2
340
83F7
 90
       25
340
83F7
 90
       50
 40
0.24
 40
0.0
 40
0.24
 71
     3
340
83F0
 40
0.24
 90
        1
 40
0.75
 90
        1
300
%<\AcVar ViewType \f "%tc1">% %<\AcVar ViewSectionStartId>%-%<\AcVar ViewSectionEndId>%\PSCALE %<\AcVar ViewScale \f "%sn">%
 71
     4
300
ANSI31
 40
1.0
 90
        0
290
     0
290
     0
 90
        6
 40
0.0
 40
1.570796326794896
 40
0.2617993877991494
 40
1.308996938995747
 40
-0.2617993877991494
 40
1.832595714594046
  0
TABLESTYLE
  5
83FF
102
{ACAD_XDICTIONARY
360
8758
102
}
102
{ACAD_REACTORS
330
83FE
102
}
330
83FE
100
AcDbTableStyle
  3
Standard
 70
     0
 71
     0
 40
0.06
 41
0.06
280
     0
281
     0
  7
STANDARD
140
0.18
170
     2
 62
     0
 63
     7
283
     0
274
    -2
284
     1
 64
     0
275
    -2
285
     1
 65
     0
276
    -2
286
     1
 66
     0
277
    -2
287
     1
 67
     0
278
    -2
288
     1
 68
     0
279
    -2
289
     1
 69
     0
  7
STANDARD
140
0.25
170
     5
 62
     0
 63
     7
283
     0
274
    -2
284
     1
 64
     0
275
    -2
285
     1
 65
     0
276
    -2
286
     1
 66
     0
277
    -2
287
     1
 67
     0
278
    -2
288
     1
 68
     0
279
    -2
289
     1
 69
     0
  7
STANDARD
140
0.18
170
     5
 62
     0
 63
     7
283
     0
274
    -2
284
     1
 64
     0
275
    -2
285
     1
 65
     0
276
    -2
286
     1
 66
     0
277
    -2
287
     1
 67
     0
278
    -2
288
     1
 68
     0
279
    -2
289
     1
 69
     0
  0
VISUALSTYLE
  5
83CA
102
{ACAD_XDICTIONARY
360
8769
102
}
102
{ACAD_REACTORS
330
83C4
102
}
330
83C4
100
AcDbVisualStyle
  2
2dWireframe
 70
     4
 71
     0
 72
     2
 73
     0
 90
        0
 40
-0.6
 41
-30.0
 62
     5
 63
     7
 74
     1
 91
        4
 64
     7
 65
   257
 75
     1
175
     1
 42
1.0
 92
        0
 66
   257
 43
1.0
 76
     1
 77
     6
 78
     2
 67
     7
 79
     5
170
     0
171
     0
290
     0
174
     0
 93
        1
 44
0.0
173
     0
291
     0
 45
0.0
1001
ACAD
1000
AcDbSavedByObjectVersion
1070
     0
  0
VISUALSTYLE
  5
83C9
102
{ACAD_XDICTIONARY
360
8767
102
}
102
{ACAD_REACTORS
330
83C4
102
}
330
83C4
100
AcDbVisualStyle
  2
Basic
 70
     7
 71
     1
 72
     0
 73
     1
 90
        0
 40
-0.6
 41
-30.0
 62
     5
 63
     7
 74
     0
 91
        4
 64
     7
 65
   257
 75
     1
175
     1
 42
1.0
 92
        8
 66
     7
 43
1.0
 76
     1
 77
     6
 78
     2
 67
     7
 79
     5
170
     0
171
     0
290
     0
174
     0
 93
        1
 44
0.0
173
     0
291
     1
 45
0.0
1001
ACAD
1000
AcDbSavedByObjectVersion
1070
     0
  0
VISUALSTYLE
  5
83D0
102
{ACAD_XDICTIONARY
360
8775
102
}
102
{ACAD_REACTORS
330
83C4
102
}
330
83C4
100
AcDbVisualStyle
  2
Brighten
 70
    12
 71
     2
 72
     2
 73
     0
 90
        0
 40
-0.6
 41
-30.0
 62
     5
 63
     7
 74
     1
 91
        4
 64
     7
 65
   257
 75
     1
175
     1
 42
1.0
 92
        8
 66
     7
 43
1.0
 76
     1
 77
     6
 78
     2
 67
     7
 79
     5
170
     0
171
     0
290
     0
174
     0
 93
        1
 44
50.0
173
     0
291
     1
 45
0.0
1001
ACAD
1000
AcDbSavedByObjectVersion
1070
     0
  0
VISUALSTYLE
  5
83D4
102
{ACAD_XDICTIONARY
360
877D
102
}
102
{ACAD_REACTORS
330
83C4
102
}
330
83C4
100
AcDbVisualStyle
  2
ColorChange
 70
    16
 71
     2
 72
     2
 73
     3
 90
        0
 40
-0.6
 41
-30.0
 62
     5
 63
     8
 74
     1
 91
        4
 64
     7
 65
   257
 75
     1
175
     1
 42
1.0
 92
        8
 66
     8
 43
1.0
 76
     1
 77
     6
 78
     2
 67
     7
 79
     5
170
     0
171
     0
290
     0
174
     0
 93
        1
 44
0.0
173
     0
291
     1
 45
0.0
1001
ACAD
1000
AcDbSavedByObjectVersion
1070
     0
  0
VISUALSTYLE
  5
83CD
102
{ACAD_XDICTIONARY
360
876F
102
}
102
{ACAD_REACTORS
330
83C4
102
}
330
83C4
100
AcDbVisualStyle
  2
Conceptual
 70
     9
 71
     3
 72
     2
 73
     0
 90
        0
 40
-0.6
 41
-30.0
 62
     5
 63
     7
 74
     2
 91
        2
 64
     7
 65
   257
 75
     1
175
     1
 42
179.0
 92
        8
 66
     7
 43
1.0
 76
     1
 77
     6
 78
     2
 67
     7
 79
     3
170
     0
171
     0
290
     0
174
     0
 93
        1
 44
0.0
173
     0
291
     0
 45
0.0
1001
ACAD
1000
AcDbSavedByObjectVersion
1070
     0
  0
VISUALSTYLE
  5
83CF
102
{ACAD_XDICTIONARY
360
8773
102
}
102
{ACAD_REACTORS
330
83C4
102
}
330
83C4
100
AcDbVisualStyle
  2
Dim
 70
    11
 71
     2
 72
     2
 73
     0
 90
        0
 40
-0.6
 41
-30.0
 62
     5
 63
     7
 74
     1
 91
        4
 64
     7
 65
   257
 75
     1
175
     1
 42
1.0
 92
        8
 66
     7
 43
1.0
 76
     1
 77
     6
 78
     2
 67
     7
 79
     5
170
     0
171
     0
290
     0
174
     0
 93
        1
 44
-50.0
173
     0
291
     1
 45
0.0
1001
ACAD
1000
AcDbSavedByObjectVersion
1070
     0
  0
VISUALSTYLE
  5
83DC
102
{ACAD_XDICTIONARY
360
878D
102
}
102
{ACAD_REACTORS
330
83C4
102
}
330
83C4
100
AcDbVisualStyle
  2
EdgeColorOff
 70
    22
 71
     2
 72
     2
 73
     0
 90
        0
 40
-0.6
 41
-30.0
 62
     5
 63
     7
 74
     1
 91
        4
 64
     7
 65
   257
 75
     1
175
     1
 42
1.0
 92
        8
 66
     7
 43
1.0
 76
     1
 77
     6
 78
     2
 67
     7
 79
     5
170
     0
171
     0
290
     0
174
     0
 93
        1
 44
0.0
173
     0
291
     1
 45
0.0
1001
ACAD
1000
AcDbSavedByObjectVersion
1070
     0
  0
VISUALSTYLE
  5
83D3
102
{ACAD_XDICTIONARY
360
877B
102
}
102
{ACAD_REACTORS
330
83C4
102
}
330
83C4
100
AcDbVisualStyle
  2
Facepattern
 70
    15
 71
     2
 72
     2
 73
     0
 90
        0
 40
-0.6
 41
-30.0
 62
     5
 63
     7
 74
     1
 91
        4
 64
     7
 65
   257
 75
     1
175
     1
 42
1.0
 92
        8
 66
     7
 43
1.0
 76
     1
 77
     6
 78
     2
 67
     7
 79
     5
170
     0
171
     0
290
     0
174
     0
 93
        1
 44
0.0
173
     0
291
     1
 45
0.0
1001
ACAD
1000
AcDbSavedByObjectVersion
1070
     0
  0
VISUALSTYLE
  5
83C5
102
{ACAD_XDICTIONARY
360
875F
102
}
102
{ACAD_REACTORS
330
83C4
102
}
330
83C4
100
AcDbVisualStyle
  2
Flat
 70
     0
 71
     2
 72
     1
 73
     1
 90
        2
 40
-0.6
 41
30.0
 62
     5
 63
     7
 74
     0
 91
        0
 64
     7
 65
   257
 75
     1
175
     1
 42
1.0
 92
        8
 66
     7
 43
1.0
 76
     1
 77
     6
 78
     2
 67
     7
 79
     5
170
     0
171
     0
290
     0
174
     0
 93
       13
 44
0.0
173
     0
291
     1
 45
0.0
1001
ACAD
1000
AcDbSavedByObjectVersion
1070
     0
  0
VISUALSTYLE
  5
83C6
102
{ACAD_XDICTIONARY
360
8761
102
}
102
{ACAD_REACTORS
330
83C4
102
}
330
83C4
100
AcDbVisualStyle
  2
FlatWithEdges
 70
     1
 71
     2
 72
     1
 73
     1
 90
        2
 40
-0.6
 41
30.0
 62
     5
 63
     7
 74
     1
 91
        0
 64
     7
 65
   257
 75
     1
175
     1
 42
1.0
 92
        0
 66
   257
 43
1.0
 76
     1
 77
     6
 78
     2
 67
     7
 79
     5
170
     0
171
     0
290
     0
174
     0
 93
       13
 44
0.0
173
     0
291
     1
 45
0.0
1001
ACAD
1000
AcDbSavedByObjectVersion
1070
     0
  0
VISUALSTYLE
  5
83C7
102
{ACAD_XDICTIONARY
360
8763
102
}
102
{ACAD_REACTORS
330
83C4
102
}
330
83C4
100
AcDbVisualStyle
  2
Gouraud
 70
     2
 71
     2
 72
     2
 73
     1
 90
        2
 40
-0.6
 41
30.0
 62
     5
 63
     7
 74
     0
 91
        0
 64
     7
 65
   257
 75
     1
175
     1
 42
1.0
 92
        0
 66
     7
 43
1.0
 76
     1
 77
     6
 78
     2
 67
     7
 79
     5
170
     0
171
     0
290
     0
174
     0
 93
       13
 44
0.0
173
     0
291
     1
 45
0.0
1001
ACAD
1000
AcDbSavedByObjectVersion
1070
     0
  0
VISUALSTYLE
  5
83C8
102
{ACAD_XDICTIONARY
360
8765
102
}
102
{ACAD_REACTORS
330
83C4
102
}
330
83C4
100
AcDbVisualStyle
  2
GouraudWithEdges
 70
     3
 71
     2
 72
     2
 73
     1
 90
        2
 40
-0.6
 41
30.0
 62
     5
 63
     7
 74
     1
 91
        0
 64
     7
 65
   257
 75
     1
175
     1
 42
1.0
 92
        0
 66
   257
 43
1.0
 76
     1
 77
     6
 78
     2
 67
     7
 79
     5
170
     0
171
     0
290
     0
174
     0
 93
       13
 44
0.0
173
     0
291
     1
 45
0.0
1001
ACAD
1000
AcDbSavedByObjectVersion
1070
     0
  0
VISUALSTYLE
  5
83CC
102
{ACAD_XDICTIONARY
360
876D
102
}
102
{ACAD_REACTORS
330
83C4
102
}
330
83C4
100
AcDbVisualStyle
  2
Hidden
 70
     6
 71
     1
 72
     2
 73
     2
 90
        0
 40
-0.6
 41
-30.0
 62
     5
 63
     7
 74
     2
 91
        2
 64
     7
 65
   257
 75
     2
175
     1
 42
40.0
 92
        0
 66
   257
 43
1.0
 76
     1
 77
     6
 78
     2
 67
     7
 79
     3
170
     0
171
     0
290
     0
174
     0
 93
        1
 44
0.0
173
     0
291
     0
 45
0.0
1001
ACAD
1000
AcDbSavedByObjectVersion
1070
     0
  0
VISUALSTYLE
  5
83DA
102
{ACAD_XDICTIONARY
360
8789
102
}
102
{ACAD_REACTORS
330
83C4
102
}
330
83C4
100
AcDbVisualStyle
  2
JitterOff
 70
    20
 71
     2
 72
     2
 73
     0
 90
        0
 40
-0.6
 41
-30.0
 62
     5
 63
     7
 74
     1
 91
        4
 64
     7
 65
   257
 75
     1
175
     1
 42
1.0
 92
       10
 66
     7
 43
1.0
 76
     1
 77
     6
 78
     2
 67
     7
 79
     5
170
     0
171
     0
290
     0
174
     0
 93
        1
 44
0.0
173
     0
291
     1
 45
0.0
1001
ACAD
1000
AcDbSavedByObjectVersion
1070
     0
  0
VISUALSTYLE
  5
83D2
102
{ACAD_XDICTIONARY
360
8779
102
}
102
{ACAD_REACTORS
330
83C4
102
}
330
83C4
100
AcDbVisualStyle
  2
Linepattern
 70
    14
 71
     2
 72
     2
 73
     0
 90
        0
 40
-0.6
 41
-30.0
 62
     5
 63
     7
 74
     1
 91
        4
 64
     7
 65
   257
 75
     7
175
     7
 42
1.0
 92
        8
 66
     7
 43
1.0
 76
     1
 77
     6
 78
     2
 67
     7
 79
     5
170
     0
171
     0
290
     0
174
     0
 93
        1
 44
0.0
173
     0
291
     1
 45
0.0
1001
ACAD
1000
AcDbSavedByObjectVersion
1070
     0
  0
VISUALSTYLE
  5
83DB
102
{ACAD_XDICTIONARY
360
878B
102
}
102
{ACAD_REACTORS
330
83C4
102
}
330
83C4
100
AcDbVisualStyle
  2
OverhangOff
 70
    21
 71
     2
 72
     2
 73
     0
 90
        0
 40
-0.6
 41
-30.0
 62
     5
 63
     7
 74
     1
 91
        4
 64
     7
 65
   257
 75
     1
175
     1
 42
1.0
 92
        9
 66
     7
 43
1.0
 76
     1
 77
     6
 78
     2
 67
     7
 79
     5
170
     0
171
     0
290
     0
174
     0
 93
        1
 44
0.0
173
     0
291
     1
 45
0.0
1001
ACAD
1000
AcDbSavedByObjectVersion
1070
     0
  0
VISUALSTYLE
  5
83CE
102
{ACAD_XDICTIONARY
360
8771
102
}
102
{ACAD_REACTORS
330
83C4
102
}
330
83C4
100
AcDbVisualStyle
  2
Realistic
 70
     8
 71
     2
 72
     3
 73
     0
 90
        2
 40
-0.6
 41
30.0
 62
     5
 63
     7
 74
     0
 91
        0
 64
     7
 65
   257
 75
     1
175
     1
 42
1.0
 92
        8
 66
   257
 43
1.0
 76
     1
 77
     6
 78
     2
 67
     7
 79
     3
170
     0
171
     0
290
     0
174
     0
 93
       13
 44
0.0
173
     0
291
     0
 45
0.0
1001
ACAD
1000
AcDbSavedByObjectVersion
1070
     0
  0
VISUALSTYLE
  5
83D9
102
{ACAD_XDICTIONARY
360
8787
102
}
102
{ACAD_REACTORS
330
83C4
102
}
330
83C4
100
AcDbVisualStyle
  2
Shaded
 70
    27
 71
     2
 72
     2
 73
     1
 90
        2
 40
-0.6
 41
30.0
 62
     5
 63
     7
 74
     0
 91
        4
 64
     7
 65
   257
 75
     1
175
     1
 42
1.0
 92
        8
 66
   257
 43
1.0
 76
     1
 77
     6
 78
     2
 67
     8
 79
     3
170
     0
171
     0
290
     0
174
     0
 93
        5
 44
0.0
173
     0
291
     0
 45
0.0
1001
ACAD
1000
AcDbSavedByObjectVersion
1070
     0
  0
VISUALSTYLE
  5
83D8
102
{ACAD_XDICTIONARY
360
8785
102
}
102
{ACAD_REACTORS
330
83C4
102
}
330
83C4
100
AcDbVisualStyle
  2
Shaded with edges
 70
    26
 71
     2
 72
     2
 73
     1
 90
        2
 40
-0.6
 41
30.0
 62
     5
 63
     7
 74
     1
 91
       10
 64
     7
 65
   257
 75
     2
175
     1
 42
1.0
 92
        8
 66
   257
 43
1.0
 76
     1
 77
     6
 78
     2
 67
     7
 79
     3
170
     0
171
     0
290
     0
174
     0
 93
        5
 44
0.0
173
     0
291
     0
 45
0.0
1001
ACAD
1000
AcDbSavedByObjectVersion
1070
     0
  0
VISUALSTYLE
  5
83D5
102
{ACAD_XDICTIONARY
360
877F
102
}
102
{ACAD_REACTORS
330
83C4
102
}
330
83C4
100
AcDbVisualStyle
  2
Shades of Gray
 70
    23
 71
     2
 72
     2
 73
     3
 90
        0
 40
-0.6
 41
-30.0
 62
     5
 63
     7
 74
     2
 91
        2
 64
     7
 65
     7
 75
     1
175
     1
 42
40.0
 92
        8
 66
     7
 43
1.0
 76
     1
 77
     6
 78
     2
 67
     7
 79
     3
170
     0
171
     0
290
     0
174
     0
 93
        1
 44
0.0
173
     0
291
     0
 45
0.0
1001
ACAD
1000
AcDbSavedByObjectVersion
1070
     0
  0
VISUALSTYLE
  5
83D6
102
{ACAD_XDICTIONARY
360
8781
102
}
102
{ACAD_REACTORS
330
83C4
102
}
330
83C4
100
AcDbVisualStyle
  2
Sketchy
 70
    24
 71
     1
 72
     2
 73
     2
 90
        0
 40
-0.6
 41
-30.0
 62
     5
 63
     7
 74
     2
 91
        2
 64
     7
 65
     7
 75
     1
175
     1
 42
40.0
 92
       11
 66
     7
 43
1.0
 76
     1
 77
     6
 78
     2
 67
     7
 79
     6
170
     0
171
     0
290
     0
174
     0
 93
        1
 44
0.0
173
     0
291
     0
 45
0.0
1001
ACAD
1000
AcDbSavedByObjectVersion
1070
     0
  0
VISUALSTYLE
  5
83D1
102
{ACAD_XDICTIONARY
360
8777
102
}
102
{ACAD_REACTORS
330
83C4
102
}
330
83C4
100
AcDbVisualStyle
  2
Thicken
 70
    13
 71
     2
 72
     2
 73
     0
 90
        0
 40
-0.6
 41
-30.0
 62
     5
 63
     7
 74
     1
 91
        4
 64
     7
 65
   257
 75
     1
175
     1
 42
1.0
 92
       12
 66
     7
 43
1.0
 76
     1
 77
     6
 78
     2
 67
     7
 79
     5
170
     0
171
     0
290
     0
174
     0
 93
        1
 44
0.0
173
     0
291
     1
 45
0.0
1001
ACAD
1000
AcDbSavedByObjectVersion
1070
     0
  0
VISUALSTYLE
  5
83CB
102
{ACAD_XDICTIONARY
360
876B
102
}
102
{ACAD_REACTORS
330
83C4
102
}
330
83C4
100
AcDbVisualStyle
  2
Wireframe
 70
     5
 71
     0
 72
     2
 73
     0
 90
        0
 40
-0.6
 41
-30.0
 62
     5
 63
     7
 74
     1
 91
        4
 64
     7
 65
   257
 75
     1
175
     1
 42
1.0
 92
        0
 66
   257
 43
1.0
 76
     1
 77
     6
 78
     2
 67
     7
 79
     3
170
     0
171
     0
290
     0
174
     0
 93
        1
 44
0.0
173
     0
291
     0
 45
0.0
1001
ACAD
1000
AcDbSavedByObjectVersion
1070
     0
  0
VISUALSTYLE
  5
83D7
102
{ACAD_XDICTIONARY
360
8783
102
}
102
{ACAD_REACTORS
330
83C4
102
}
330
83C4
100
AcDbVisualStyle
  2
X-Ray
 70
    25
 71
     2
 72
     2
 73
     1
 90
        1
 40
0.5
 41
-30.0
 62
     5
 63
     7
 74
     1
 91
        0
 64
     7
 65
   257
 75
     1
175
     1
 42
1.0
 92
        8
 66
     7
 43
1.0
 76
     1
 77
     6
 78
     2
 67
     7
 79
     3
170
     0
171
     0
290
     0
174
     0
 93
       13
 44
0.0
173
     0
291
     0
 45
0.0
1001
ACAD
1000
AcDbSavedByObjectVersion
1070
     0
  0
DICTIONARYVAR
  5
8752
102
{ACAD_REACTORS
330
874D
102
}
330
874D
100
DictionaryVariables
280
     0
  1
1:1
  0
DICTIONARYVAR
  5
874F
102
{ACAD_REACTORS
330
874D
102
}
330
874D
100
DictionaryVariables
280
     0
  1
STANDARD
  0
DICTIONARYVAR
  5
874E
102
{ACAD_REACTORS
330
874D
102
}
330
874D
100
DictionaryVariables
280
     0
  1
STANDARD
  0
DICTIONARYVAR
  5
8750
102
{ACAD_REACTORS
330
874D
102
}
330
874D
100
DictionaryVariables
280
     0
  1
Imperial24
  0
DICTIONARYVAR
  5
8751
102
{ACAD_REACTORS
330
874D
102
}
330
874D
100
DictionaryVariables
280
     0
  1
Imperial24
  0
DICTIONARYVAR
  5
8755
102
{ACAD_REACTORS
330
874D
102
}
330
874D
100
DictionaryVariables
280
     0
  1
1
  0
DICTIONARYVAR
  5
8754
102
{ACAD_REACTORS
330
874D
102
}
330
874D
100
DictionaryVariables
280
     0
  1
0
  0
DICTIONARYVAR
  5
8753
102
{ACAD_REACTORS
330
874D
102
}
330
874D
100
DictionaryVariables
280
     0
  1
127
  0
DICTIONARYVAR
  5
8756
102
{ACAD_REACTORS
330
874D
102
}
330
874D
100
DictionaryVariables
280
     0
  1
2
  0
DICTIONARY
  5
8793
330
8405
100
AcDbDictionary
280
     1
281
     1
  3
ACAD_XREC_ROUNDTRIP
360
8794
  0
DICTIONARY
  5
8797
330
840D
100
AcDbDictionary
280
     1
281
     1
  3
ACAD_XREC_ROUNDTRIP
360
8798
  0
DICTIONARY
  5
8795
330
8409
100
AcDbDictionary
280
     1
281
     1
  3
ACAD_XREC_ROUNDTRIP
360
8796
  0
DICTIONARY
  5
83B5
330
83B4
100
AcDbDictionary
280
     1
281
     1
  3
ACAD_XREC_ROUNDTRIP
360
875D
  3
BUMPTILE
360
83B7
  3
DIFFUSETILE
360
83B6
  3
OPACITYTILE
360
83BA
  3
REFLECTIONTILE
360
83B9
  3
REFRACTIONTILE
360
83BB
  3
SPECULARTILE
360
83B8
  0
DICTIONARY
  5
83AD
330
83AC
100
AcDbDictionary
280
     1
281
     1
  3
ACAD_XREC_ROUNDTRIP
360
875C
  3
BUMPTILE
360
83AF
  3
DIFFUSETILE
360
83AE
  3
OPACITYTILE
360
83B2
  3
REFLECTIONTILE
360
83B1
  3
REFRACTIONTILE
360
83B3
  3
SPECULARTILE
360
83B0
  0
DICTIONARY
  5
83BD
330
83BC
100
AcDbDictionary
280
     1
281
     1
  3
ACAD_XREC_ROUNDTRIP
360
875E
  3
BUMPTILE
360
83BF
  3
DIFFUSETILE
360
83BE
  3
FBXASSET
360
8450
  3
OPACITYTILE
360
83C2
  3
REFLECTIONTILE
360
83C1
  3
REFRACTIONTILE
360
83C3
  3
SPECULARTILE
360
83C0
  0
DICTIONARY
  5
8791
330
8403
100
AcDbDictionary
280
     1
281
     1
  3
ACAD_XREC_ROUNDTRIP
360
8792
  0
DICTIONARY
  5
8758
330
83FF
100
AcDbDictionary
280
     1
281
     1
  3
ACAD_ROUNDTRIP_2008_TABLESTYLE_CELLSTYLEMAP
360
8759
  3
ACAD_XREC_ROUNDTRIP
360
878F
  0
DICTIONARY
  5
8769
330
83CA
100
AcDbDictionary
280
     1
281
     1
  3
ACAD_XREC_ROUNDTRIP
360
876A
  0
DICTIONARY
  5
8767
330
83C9
100
AcDbDictionary
280
     1
281
     1
  3
ACAD_XREC_ROUNDTRIP
360
8768
  0
DICTIONARY
  5
8775
330
83D0
100
AcDbDictionary
280
     1
281
     1
  3
ACAD_XREC_ROUNDTRIP
360
8776
  0
DICTIONARY
  5
877D
330
83D4
100
AcDbDictionary
280
     1
281
     1
  3
ACAD_XREC_ROUNDTRIP
360
877E
  0
DICTIONARY
  5
876F
330
83CD
100
AcDbDictionary
280
     1
281
     1
  3
ACAD_XREC_ROUNDTRIP
360
8770
  0
DICTIONARY
  5
8773
330
83CF
100
AcDbDictionary
280
     1
281
     1
  3
ACAD_XREC_ROUNDTRIP
360
8774
  0
DICTIONARY
  5
878D
330
83DC
100
AcDbDictionary
280
     1
281
     1
  3
ACAD_XREC_ROUNDTRIP
360
878E
  0
DICTIONARY
  5
877B
330
83D3
100
AcDbDictionary
280
     1
281
     1
  3
ACAD_XREC_ROUNDTRIP
360
877C
  0
DICTIONARY
  5
875F
330
83C5
100
AcDbDictionary
280
     1
281
     1
  3
ACAD_XREC_ROUNDTRIP
360
8760
  0
DICTIONARY
  5
8761
330
83C6
100
AcDbDictionary
280
     1
281
     1
  3
ACAD_XREC_ROUNDTRIP
360
8762
  0
DICTIONARY
  5
8763
330
83C7
100
AcDbDictionary
280
     1
281
     1
  3
ACAD_XREC_ROUNDTRIP
360
8764
  0
DICTIONARY
  5
8765
330
83C8
100
AcDbDictionary
280
     1
281
     1
  3
ACAD_XREC_ROUNDTRIP
360
8766
  0
DICTIONARY
  5
876D
330
83CC
100
AcDbDictionary
280
     1
281
     1
  3
ACAD_XREC_ROUNDTRIP
360
876E
  0
DICTIONARY
  5
8789
330
83DA
100
AcDbDictionary
280
     1
281
     1
  3
ACAD_XREC_ROUNDTRIP
360
878A
  0
DICTIONARY
  5
8779
330
83D2
100
AcDbDictionary
280
     1
281
     1
  3
ACAD_XREC_ROUNDTRIP
360
877A
  0
DICTIONARY
  5
878B
330
83DB
100
AcDbDictionary
280
     1
281
     1
  3
ACAD_XREC_ROUNDTRIP
360
878C
  0
DICTIONARY
  5
8771
330
83CE
100
AcDbDictionary
280
     1
281
     1
  3
ACAD_XREC_ROUNDTRIP
360
8772
  0
DICTIONARY
  5
8787
330
83D9
100
AcDbDictionary
280
     1
281
     1
  3
ACAD_XREC_ROUNDTRIP
360
8788
  0
DICTIONARY
  5
8785
330
83D8
100
AcDbDictionary
280
     1
281
     1
  3
ACAD_XREC_ROUNDTRIP
360
8786
  0
DICTIONARY
  5
877F
330
83D5
100
AcDbDictionary
280
     1
281
     1
  3
ACAD_XREC_ROUNDTRIP
360
8780
  0
DICTIONARY
  5
8781
330
83D6
100
AcDbDictionary
280
     1
281
     1
  3
ACAD_XREC_ROUNDTRIP
360
8782
  0
DICTIONARY
  5
8777
330
83D1
100
AcDbDictionary
280
     1
281
     1
  3
ACAD_XREC_ROUNDTRIP
360
8778
  0
DICTIONARY
  5
876B
330
83CB
100
AcDbDictionary
280
     1
281
     1
  3
ACAD_XREC_ROUNDTRIP
360
876C
  0
DICTIONARY
  5
8783
330
83D7
100
AcDbDictionary
280
     1
281
     1
  3
ACAD_XREC_ROUNDTRIP
360
8784
  0
XRECORD
  5
8794
102
{ACAD_REACTORS
330
8793
102
}
330
8793
100
AcDbXrecord
280
     1
102
DISPLAYNAME
  1
Imperial24
102
FLAGS
 90
        0
  0
XRECORD
  5
8798
102
{ACAD_REACTORS
330
8797
102
}
330
8797
100
AcDbXrecord
280
     1
102
SHADEPLOT
 70
     0
102
SHADEPLOTRESLEVEL
 70
     2
102
SHADEPLOTCUSTOMDPI
 70
   300
  0
XRECORD
  5
8796
102
{ACAD_REACTORS
330
8795
102
}
330
8795
100
AcDbXrecord
280
     1
102
SHADEPLOT
 70
     0
102
SHADEPLOTRESLEVEL
 70
     2
102
SHADEPLOTCUSTOMDPI
 70
   300
  0
XRECORD
  5
875D
102
{ACAD_REACTORS
330
83B5
102
}
330
83B5
100
AcDbXrecord
280
     1
102
MATERIAL
148
0.0
149
0.0
149
0.0
 93
        0
 94
      127
282
     0
 72
     0
 77
     0
171
     0
175
     0
179
     0
273
     0
  0
XRECORD
  5
83B7
102
{ACAD_REACTORS
330
83B5
102
}
330
83B5
100
AcDbXrecord
280
     1
270
     1
271
     1
  0
XRECORD
  5
83B6
102
{ACAD_REACTORS
330
83B5
102
}
330
83B5
100
AcDbXrecord
280
     1
270
     1
271
     1
  0
XRECORD
  5
83BA
102
{ACAD_REACTORS
330
83B5
102
}
330
83B5
100
AcDbXrecord
280
     1
270
     1
271
     1
  0
XRECORD
  5
83B9
102
{ACAD_REACTORS
330
83B5
102
}
330
83B5
100
AcDbXrecord
280
     1
270
     1
271
     1
  0
XRECORD
  5
83BB
102
{ACAD_REACTORS
330
83B5
102
}
330
83B5
100
AcDbXrecord
280
     1
270
     1
271
     1
  0
XRECORD
  5
83B8
102
{ACAD_REACTORS
330
83B5
102
}
330
83B5
100
AcDbXrecord
280
     1
270
     1
271
     1
  0
XRECORD
  5
875C
102
{ACAD_REACTORS
330
83AD
102
}
330
83AD
100
AcDbXrecord
280
     1
102
MATERIAL
148
0.0
149
0.0
149
0.0
 93
        0
 94
      127
282
     0
 72
     0
 77
     0
171
     0
175
     0
179
     0
273
     0
  0
XRECORD
  5
83AF
102
{ACAD_REACTORS
330
83AD
102
}
330
83AD
100
AcDbXrecord
280
     1
270
     1
271
     1
  0
XRECORD
  5
83AE
102
{ACAD_REACTORS
330
83AD
102
}
330
83AD
100
AcDbXrecord
280
     1
270
     1
271
     1
  0
XRECORD
  5
83B2
102
{ACAD_REACTORS
330
83AD
102
}
330
83AD
100
AcDbXrecord
280
     1
270
     1
271
     1
  0
XRECORD
  5
83B1
102
{ACAD_REACTORS
330
83AD
102
}
330
83AD
100
AcDbXrecord
280
     1
270
     1
271
     1
  0
XRECORD
  5
83B3
102
{ACAD_REACTORS
330
83AD
102
}
330
83AD
100
AcDbXrecord
280
     1
270
     1
271
     1
  0
XRECORD
  5
83B0
102
{ACAD_REACTORS
330
83AD
102
}
330
83AD
100
AcDbXrecord
280
     1
270
     1
271
     1
  0
XRECORD
  5
875E
102
{ACAD_REACTORS
330
83BD
102
}
330
83BD
100
AcDbXrecord
280
     1
102
MATERIAL
148
0.0
149
0.0
149
0.0
 93
        0
 94
      127
282
     0
 72
     0
 77
     0
171
     0
175
     0
179
     0
273
     0
  0
XRECORD
  5
83BF
102
{ACAD_REACTORS
330
83BD
102
}
330
83BD
100
AcDbXrecord
280
     1
270
     1
271
     1
  0
XRECORD
  5
83BE
102
{ACAD_REACTORS
330
83BD
102
}
330
83BD
100
AcDbXrecord
280
     1
270
     1
271
     1
  0
XRECORD
  5
8450
102
{ACAD_REACTORS
330
83BD
102
}
330
83BD
100
AcDbXrecord
280
     1
 70
     1
 90
1959938040
 71
     1
  1
12C62C23-37B0-47AF-A2C3-A2F658FF2897
311
504B03041400060808008A7674573188872FDA000000200100004F00000038453639464642422D393934432D343034462D413430432D4134344641343535464135422F4173736574446174612F446566696E6974696F6E4974657261746F7250726F706572746965732E62696E454E3D4FC33010350C200686FE83AABBB1E3
311
B4348ADA22DC244C748189A5BA3AD712C949AA38911819F9D770A716F5A477EF3EDFDD8F10E2F76C148A2BC237F97BE2176CB0ABDC9BFBC41AC40D577CBB037F7BE95D53C869867B187CCF5BAF5570E83D34D80E6174191DD7D0931CF8075EBA23FC17022B1C4EC7F8FE86C02F3143794C9F2004EC976ABFFB5249319F3FC6
311
CF46EA22B3726A67B9B479AE6552D8B8D0C95ADB6CAD3A0CEDD0390CCA28BD3D2B6F8FCDA12A578BBEAA71DC408DCB89EB907E2A272BA34D2CA3481AFD1E4DD399498DFE58289EFC03504B03041400060808008A767457FF213231EE000000300200004500000038453639464642422D393934432D343034462D413430432D
311
4134344641343535464135422F4173736574446174612F496E7374616E636550726F706572746965732E62696EEB606060F80F0540260323103700495E20ED9E9A975A94991C9C9C919A9BA802143034723633723632D635367732D035317774D37534723606126E66A6166E6E461696E6EC088D202DC686262EAE46A696BA
311
A62626C6BA26664686BA4E6E4E2EBA86E6C606CE66CECE968EAE964065607B193463FA0F7DD5B8620FA49980620D400CE38369201F083ED843543330083830088085C0848A03828D9505D40801700656654041B8820FCC405E031043B53E80D23C40214C000A47840CDC100C85293B1D30C4500430B5828CD64052F3C19E05
311
C803C5161F10079727962467E83A1525E6A5A4A68064A80112B0180200504B03041400060808008A76745728BB58AF800100009E0500003D00000038453639464642422D393934432D343034462D413430432D4134344641343535464135422F536368656D61732F436F6D6D6F6E536368656D612E786D6CBD544D4FC23018
311
BEFB2B96DE15493C78601010A34B880709DEDFB52FD0D8B54BD70DF6EFED3AC0B12E6442E2716BFB3CEFF3D18E26FB440405EA8C2B1992E1C323095052C5B8DC842437EBFB673219DF8DA659866649B798C078B48AE6410122242F2A4994AC7F93815DF85C049C8564CA0A901499DD886B2EB9B1E02448F358701A9235880C
311
49A0119892A20C89D1B9FD768815CAD268CB5E0355B40B1E47F3E37A2020464BED06AA57CE8FCC20C3C3446D46761A2632A8C1283D07031EFF2AE7CCB1BFEEE916E406DFAC8E36FFD99A9D60A6944090EEDC3B670C7DC13DE86B6B2C5C240D6E503BB85ACD579D513F1B9F9A69DC9CC22AFA80C426D40AF0B21EA168559156
311
B6276F0F726A6BFF04DCD513A87A62CAD41FB24FCB2858B3952E3D852084DA25B9303C15687973CC8E8AAE11DF2836C38C6A9E765E8C1BA1BFB1DC29CDFE518C8B5A7655A4ED7E77291ABEB80DBD82EC866ADE1B8D05AF9E35CF09D7A061F38A986D9EC412B8F0F65E5D81534D9B231D1E5A8FE577A241F3A5FD01504B0304
311
1400060808008A7674572CCEBD668A040000E01200003E00000038453639464642422D393934432D343034462D413430432D4134344641343535464135422F536368656D61732F47656E65726963536368656D612E786D6CD5586D6FDB380CFE7EBF42F0F7A649B70E1B90744856B4970F450FCD7A5F05459613EDE4174872
311
DADCAF3F522F8ED3B88D2F1D06AC4050DBA2493EE4438AF2F8EB73AEC8466823CB62928C06C384888297A92C5693A4B6D9D9E7E4EBD51FE3A931C22EF85AE4EC6AFC38BF261BA626C9AD288496DC3F4FCEAFC63366845F7A10452AF41DB320C0D44EC26EAB20918735565582695670811A6A49643A49A6E9069FA4604A64B2
311
9016DC4B48552F95E4932463CA888468C1D2B250DB4962750DF7CE273069CE8363F1FF4EDB00E0A21999574AE4A2B00C353B93F3BD4777B8A61ED8F604ABFEDD79CE56A2B7BDFBDBC50996E0ADDE16FED26223C5D30956C29BDF4A55EA686E5E58B112DA45CE67F76F4FA27EFA3FB672FD7372FC388FAECDCA5209E693CAD1
311
67BADCD272F943701B3812F8A3D852008B1D2E32DB927B2F833C6EA95879925356D254582695095A3CE982924720BE5774A3CB9CDCDB350427D2DF20DA1B5532EBE2D5D6288D75D4F7E4FD9890A0EF8E3D93EBB8F8BA4758158EF6FB90A6F9520281C93DE7AAC6D24607DA296BB96018123F821A7D6A5C5884050C475DA486
311
5442732C8B95684A50165CBB3A32F25F783A4A480ED59AD7F924B968AEA50131F46303223E6A397B0E52976030DC1DCA81D7E7C1EDEEA42C19FF27635C505E2BD5198A599020DF50A2330FCB3AAF28CB0124108429553EF1B228802E2265D8F7CC2401042B155BCC7070F1E5C55F13B4A9577362CCCE46C32174E010C3C378
311
C44841A4BDA00FE3A12006CE11EE6AEC59894D3526DDE1CD59D503ECC324017F8061B7F162162FA62EDD81AE3308617770796DCBDAD2B2625C5AE8A63DE20B2C8AA5E95E76E5730823955956E33E705425A2187C185D36489A1B44D3DCEC2172F6BA2105C3546287A7194B2331768EBBE64F6E70A9930ABE0ADEA89E9E2C38
311
523B810287AD67A54A039C1606EAFE68F8304610BB9093DBDDABC0B2AE4E290DCDA15376D7E39F72B556F0B32EAB5D3D498B4C41ABADEC3A1434C422D87E8025A84BDCB2B1417ED750FAE4DA8976863974C577C7F902D3F156AD354DEA3540DE6BEAE2BEA52F7A2EB4CA43802ECE5BF2CE2EDC9347179FFB023CE412E60BE1
311
6DA0BE29B374988A553F561DC04615DD35F7D2C8979F60E5955CE93DF29DED8AFA1EE6642D53418086C03C47C377910F75F7E8F5EF665F70B60FFB22AEDF897D119E8423C773E819A3C1E55E550599EE6EDCA34D0C86FD72057DF2CD46F16A470682471C164E4346D5306BF12D7D12D82CFF673D41636C347443FEB51B50D7
311
2EA171A8E4A58623A4A16E0FA2B8B10A0D23268D87C33896EE8FB73305A74BF224EDBADFA0BD674AB354D63DB7BD5D83426761C077DE767728235446A552754EB93B755891C3C4CC6CADE37CF0E912A7BB38DBA010F9DE1282EDF470CA69A9CDA482E334C4A6EA4107987980B17E72F31730EBF88BBD39E7C629F56797A3C0
311
009C2C5AE7951D9A05A02773440F02EEB4DE396A3B6A570C72CCFBCD823B0B8ED3F1D5CEDDFED772FA70236C83FB7D86C385D570B87107535572A60A96035F8F7C6A7192F13007246BBE0521855E6AC46F3E27689CEE7D186A6FD679D98CDCAD13333E04EBE7ED6F55FF01504B03041400060808008A7674576180134D5F01
311
00006B0300004500000038453639464642422D393934432D343034462D413430432D4134344641343535464135422F536368656D61732F52656E6465724D6174657269616C536368656D612E786D6CA5934D6FC2300C86EFFB1551EEE343DBA41D1A103009551ADAD40EAE28A4A68D9426284961FCFBE5A340113B2071746D
311
3F765EBF4DC6BFB5407BD0862B49F0B037C0082453059725C18DDD3EBFE3F1E829991803366715D474942CD30FB4A782E00C64017A412D684E454CE3FE28995203B162A6EA5AC94B66997D225E109CD63B0135484BAD1B3C07E9080CA35DB3119C11BCA5C200461A68A1A438126C75E3E230D40FF81FB3F03C91D1E3A3A0AF
311
79FE28E25BC39EC3E17E4C2A2D94A0833A51AF55BCCA7D88572FCBAC529C4140B020FC3AAFA886621DCED7EAD7664CC86024E806DC297DA1BB393E4156543457A4537DB8817349A70F8ACBF09B3EEE2CB2F33E91B65D60786E4E3B39B77E3FEEEF5650424525DA657FB8B46BE6BF064646F0A0F7327C0BC1BC1B4CBBC1C419
311
FA3CCB23500007872A2580CAAE5461865565294E4EDB4617B62FF579DF9A5B2F54E834076A597573A020912FED777F9B3F504B03041400060808008A7674572A0321E44F000000570000004700000038453639464642422D393934432D343034462D413430432D4134344641343535464135422F4173736574446174612F41
311
737365745461626C654F66436F6E74656E74732E62696E536160603034723633723632D635367732D035317774D37534723606126E66A6166E6E461696E6424075B98925A945998939890505A989458979C9A9404130E00592EEA97940D9E4E0E48CD4DC4400504B03041400060808008A767457F865834058000000680000
311
004500000038453639464642422D393934432D343034462D413430432D4134344641343535464135422F4173736574446174612F53747265616D56657273696F6E5461626C652E696E66558CBD0A80300C06F73E4B117FB66E451741D041DC5BF98480A492E4FDD18EAEC7DD4555D89EF28DF51A0B1BD8340C4DE7DD848B98
311
8C0ACF0649566493F2408C508DDEBB99D5129FF8F1AF8CF5B9503E20FAE5A16B5AF702504B03041400060808008A7674573EE3C61C340100009A0400003600000038453639464642422D393934432D343034462D413430432D4134344641343535464135422F4173736574446174612F636E782E786D6CCD94314FC3301085
311
FF4AE43D7612404295E30AC1D209242A06B6AB7369AD3A76645F10FC7BEC3403A888A943D7F3BBF3F327BF93EBCFC1161F18A2F1AE6535AF58814EFBCEB87DCB26EACB7B56AC950CDED30F192B1C0CD8B25C664AEE839FC6A5D4610F93CD556BDC71293EC488B4859DC5E7FED13B42479115DA428C2D8BFA80037098C87718
311
8FBC03025EF380D14F41639A4466C065920E08841D534DD5DC94755D36D5B6BE5DDD35ABA67A97222B95DC796F17BD4997053F16FA742B539514F958C929984593DFC2D45F1EF9CE38299252C9482131593AE86B4C1D308ED668A0844E784D486512210C529CC44A8ACCE0178927EC8D33B965938C01F9F092EC6120835747
311
E43FAF9727B37191C069BC5E1EE70E2F4FE175FE416FA740CE89B9B69C9C3BE4C6F517488998D7480A4DDE2AEA1B504B03041400060808008A7674570CD84B62080100004F0300003400000038453639464642422D393934432D343034462D413430432D4134344641343535464135422F536368656D61732F636E782E786D
311
6CCD93BD4E042114855F85D02FCC8C9A980DC3161656366A65877077972C7027FC187D7B61A4D84DECB4D80E0E5FC839878BD87D7A473E20268B61A6231B2881A0D1D8709869C9FBCD3D253B2922623EC32809CAC34C9B4CA538442C4B970CEC55714D75369CBAF880DE6378D147F08A12ED544A334DEB96A992D1403A31A3
311
B262238B90B0440DF5866C3DF41B740495C150390DD3CD661C37D3F03ADE6EEFA6ED34BC09DE4829DE115DE76DC81071211AEB22543B83E0ED588A126D675A062ACFBDB1DA86E0959022E5583BE864FE5A2AA996C559AD72AD8AAFE00F23056F512F023F428068F57526BE30F76F919F2118884FF595A255EE3A93FFE6F16F
311
05F075F6EB08B4AF20BF01504B03041400060808008A767457410A3D5871000000A40000002C00000038453639464642422D393934432D343034462D413430432D4134344641343535464135422F636E782E786D6C55CC4D0E82301086E1AB34B31774E7A22D31F1069E60020334B633A63FC6E34B0909B07DDE2F9FEE7EC1
311
AB2FC5E4840DDC9A2B28E25E06C7938192C7CB1D54677514C9871928C640062A83D55394F2D968A0118BAFEA1DBF377CA444F98919176EAB9FEAAB9F2960DA5BBB1E2ED3FA6FFF504B03041400060808008A767457393E3E567D000000A300000007000000636E782E786D6C4D8C410AC3201444AF227F6F6BE15B22688286
311
7A8FD09820355A6C2C3D7EB564D1CD3C78CC8C1C3E5B206F975F3E4505971303E2E23DCD3EAE0ACABED00EC8D0CB9CD2FE570312A7CD29681A7AB9E6549E879ADD3295D06CF0F171C8EE7615D61A4385C09122434B35B2B1065A8D9C5BCD4D5D9CDBA4E2F757D9EEFB2F504B03041400060808008A76745716E99B5DA60000
311
0035010000130000005B436F6E74656E745F54797065735D2E786D6C9590410E82301045AFD2740F4517C6180A0BF5065E60AC53688469D30E066F6F91AD9AB89CF9FFFD3F99BA9DC7413C3026E749CB4D59498164FCCD51A7E5C4B6D84BD136F5E5193089ECA5A465CF1C0E4A25D3E308A9F401292BD6C711388FB15301CC
311
1D3A54DBAADA29E38991B8E0254336F5092D4C038BF39CD76B6FC6A538AEBEA54A4B08617006389FA516557DE4AE8E7E70DE30729138228C5F021CD93F02D4FB0DCD0B504B03041400060808008A7674573DEE336E64000000790000001B0000006175746F6465736B2D64657369676E2D7061636B6167652E786D6C35CBC1
311
0E83200C00D05F21DCA56CA76D41FC96062B120735B69A7DBE268BB7777961F8D5AF396893C2ADB70FE7ADA196782C2DF776D7A97B5933C430F15651E5469C55D70F80A4992A3ADC954792C525AE70A1E4D6AD9816CC044FEFDF01FE3FDE907802504B03041400060808008A7674571E974955F80000009601000037000000
311
38453639464642422D393934432D343034462D413430432D4134344641343535464135422F4173736574446174612F636F72652E786D6C8550CB6EC32010FC156BEFD840123F224CE4A4CA17F4D41BC2C44189C1E251F5F30BB12BB5A79E76353B33BB3BECF4353F8B4FE5BCB6A607526228949176D466EA21861B6AA13871
311
E6AC0DBF68501831AB1E320C9C4DCEC66583A43541998C1A3BAA0D14DEAB00857CA6A6072FEF6A16A5882131FCA35C847C884995A45C799CC5A8C74DAAC7E4A66F5A39E0B4BBB435AD316A0EF580F65742504BE80591A66BBAF340AEC319B32A8B390B7AFED92E9D12418D498FE90E2511C5EF647F3CD023C51FACCA4CCE7C
311
70E9E76D69FE0EF890AF7E1341B06A9DFE718DCBF8BF6BD426ECE8E6BA2A3C70928E7C0D38AB724AA9BC224C3527CABF01504B03041400060808008A767457CE5C7EAFF6000000940100003500000038453639464642422D393934432D343034462D413430432D4134344641343535464135422F536368656D61732F636F72
311
652E786D6C8550CB6E833010FC15B47783ED244022E38844CA0FB4A7DE2CE3102BC1467E54FDFCDA40A5F6D4D3AE66676677879DBFA657F1A99CD7D674404A0C8532D20EDA8C1DC470472D1467CE9CB5E1170D0A2326D5418681B3D1D9386F90B4262893516307B581C27B15A090AFD474E0E5434DA2143124867F96B3904F
311
31AA92942B8FB318F5B049F590DCF45D2B079C1EAF6D4D6B8C9A43DDA3FD8D10D4127A45A43936C74B4F6EFD05B32A8B390B7AFAD92E9D12410D498FE90E2511C5EF647F3AD013C51FACCA4CCE7C70E9E76D69FE0EF8DB72A767D53AFBE319E7E17FCFA84DD8D1CD735578E0249DB80C38AB7246A92C01A69AF3E4DF504B03
311
041400060808008A7674574A98C1A601010000D70100002D00000038453639464642422D393934432D343034462D413430432D4134344641343535464135422F636F72652E786D6C95914D6EC3201085AF62CD1EFF105CC51126B2A3FA045D754761E2A2C460195CF5F885DA55DB5DBB01F4F8DEC09BE1E7F7E99EBDE1E28D
311
B32D547909195AE5B4B1630B6BB892236467C117E7C20F0C322B276C21C920F8B8B875DE25E56C409B54EB34EEA2F41E0364EA1E0F2D78F58A93CCE51A22E16FF92CD54D8E9857F9C6091ECCF465550BCA801A042DE9815415A1E553C54E353DD1F2991789147C35361CE8FE184E2FA8333787180944CD8BED3652ABD13B63
311
74FCA3B91A5C401C1F1F9A61E87BD234EC4258C906D2B1F212173674ACAE87AEEE63916816DC872576662F927AF057FB66FC956C9DF53F936D0E0FA2FA0E55A4360B5E7CCE20EE6924E203504B03041400060808008A767457D3217D4B05010000B201000008000000636F72652E786D6C8D50CB6EC32010FC15C41DDB90C4
311
8F08133991F2053DF54681382836580647EDDF77895DA9BDF5B4681E3BC3F2D3E738A0A79983F5AEC5342B30324E796D5DDFE225DE488DD149F0D9FBF84B869193A3697182B1E0FDEC9769839477D1B8843AAFCD06CA104CC4480DF06871507733CA4C2E1114E1914D523D646F329AAD3AC1A31D7FAC6A36321A8D052BD88E
311
504A58F146F7C7033BB2E29DE74929F8B258BD45590DE9F666CD0C96E65297AC2C4875283BB2BF82BBA6EC4268D554CDB9A3D7EE5CF03C99050F71863F6F4BA06744413E532ECF574AF00FEF874D00A534F26EF8C2023624E24FE965D2FF286D5DDCB16DE1EA08585028F42220385D10C6EBBC30D3B5C537504B0102140014
311
00060808008A7674573188872FDA000000200100004F000000000000000000000000000000000038453639464642422D393934432D343034462D413430432D4134344641343535464135422F4173736574446174612F446566696E6974696F6E4974657261746F7250726F706572746965732E62696E504B01021400140006
311
0808008A767457FF213231EE0000003002000045000000000000000000000000004701000038453639464642422D393934432D343034462D413430432D4134344641343535464135422F4173736574446174612F496E7374616E636550726F706572746965732E62696E504B010214001400060808008A76745728BB58AF80
311
0100009E0500003D000000000000000000000000009802000038453639464642422D393934432D343034462D413430432D4134344641343535464135422F536368656D61732F436F6D6D6F6E536368656D612E786D6C504B010214001400060808008A7674572CCEBD668A040000E01200003E000000000000000000000000
311
007304000038453639464642422D393934432D343034462D413430432D4134344641343535464135422F536368656D61732F47656E65726963536368656D612E786D6C504B010214001400060808008A7674576180134D5F0100006B03000045000000000000000000000000005909000038453639464642422D393934432D
311
343034462D413430432D4134344641343535464135422F536368656D61732F52656E6465724D6174657269616C536368656D612E786D6C504B010214001400060808008A7674572A0321E44F0000005700000047000000000000000000000000001B0B000038453639464642422D393934432D343034462D413430432D4134
311
344641343535464135422F4173736574446174612F41737365745461626C654F66436F6E74656E74732E62696E504B010214001400060808008A767457F865834058000000680000004500000000000000000000000000CF0B000038453639464642422D393934432D343034462D413430432D413434464134353546413542
311
2F4173736574446174612F53747265616D56657273696F6E5461626C652E696E66504B010214001400060808008A7674573EE3C61C340100009A04000036000000000000000000000000008A0C000038453639464642422D393934432D343034462D413430432D4134344641343535464135422F4173736574446174612F63
311
6E782E786D6C504B010214001400060808008A7674570CD84B62080100004F0300003400000000000000000000000000120E000038453639464642422D393934432D343034462D413430432D4134344641343535464135422F536368656D61732F636E782E786D6C504B010214001400060808008A767457410A3D58710000
311
00A40000002C000000000000000000000000006C0F000038453639464642422D393934432D343034462D413430432D4134344641343535464135422F636E782E786D6C504B010214001400060808008A767457393E3E567D000000A3000000070000000000000000000000000027100000636E782E786D6C504B0102140014
311
00060808008A76745716E99B5DA6000000350100001300000000000000000000000000C91000005B436F6E74656E745F54797065735D2E786D6C504B010214001400060808008A7674573DEE336E64000000790000001B00000000000000000000000000A01100006175746F6465736B2D64657369676E2D7061636B616765
311
2E786D6C504B010214001400060808008A7674571E974955F80000009601000037000000000000000000000000003D12000038453639464642422D393934432D343034462D413430432D4134344641343535464135422F4173736574446174612F636F72652E786D6C504B010214001400060808008A767457CE5C7EAFF600
311
00009401000035000000000000000000000000008A13000038453639464642422D393934432D343034462D413430432D4134344641343535464135422F536368656D61732F636F72652E786D6C504B010214001400060808008A7674574A98C1A601010000D70100002D00000000000000000000000000D314000038453639
311
464642422D393934432D343034462D413430432D4134344641343535464135422F636F72652E786D6C504B010214001400060808008A767457D3217D4B05010000B201000008000000000000000000000000001F160000636F72652E786D6C504B050600000000110011005A0600004A1700000000
310
504B03041400060808008A767457000000000000000000000000370000006662782F38354142333935362D394331452D344234392D383434382D3233363038413339364230432F617474726962757465732E62696E504B03041400060808008A767457000000000000000000000000350000006662782F3835414233393536
310
2D394331452D344234392D383434382D3233363038413339364230432F76657274696365732E62696E504B03041400060808008A767457F270F1330600000004000000360000006662782F38354142333935362D394331452D344234392D383434382D3233363038413339364230432F747269616E676C65732E62696E6366
310
60600000504B03041400060808008A76745751464CB48900000043010000360000006662782F38354142333935362D394331452D344234392D383434382D3233363038413339364230432F6469726563746F72792E786D6C9D8F310EC2300C45AF127987122606C71DD918B841D4B851A43646695A717C52A85029031293A5
310
A76FBF6FACEF7DA7264E43906840EF0FA03836E242F406C6DCEE4EA06AC22492573150D1F66C60C640E8938CB705396EEDD86DE9B5042FE27813D640EA63BB001C722AF6E55CB61E4863F58284D5D3F53DD715CE1C3985E63FD7F1B7EBDD617E9F1E504B03041400060808008A767457D853C4C135070000201C0000340000
310
006662782F38354142333935362D394331452D344234392D383434382D3233363038413339364230432F6F626A656374732E786D6CDD595B6FE23814FE2B56F665F721370214469451813242A3CE8C06CD6ADF22130CF53637D9494BF7D7EFB163872404486767A4D1B652498D7D7CCE77EE2793F7872844CF84719AC4B786
310
6B39062271906C69BCBF35F26C678E0CF47E8A262C49B2CA3E03C53822B7865836A6933D4BF2542D6DC90EE761737539FB0BF180C4C440418839BF3578F048226CE13C4BB6843F595B9C616BBF3B58AE556CAC93DD339C3E36AE4A31237106ACC27A0C5414076EFD5F10C99E4E6CB1A1B6ADD76D9B77619B2D05AF334A639E
310
E13838E1AA41A7D78D2BCFED2FEE7B83B139E8F73DB33FECB9E66C395B98EE8DE7CC87F3F9F8EE7E6CA0E964932461A98094C45BD0E2AB317527B6F8A6145FA1D0C67790C43109149A6D1BB644D1A5843731A901EB4AD12A0A2964AD2C781D853FB3AD132835966A686BE1F467D57A93CDDF0002EF62A58C1361E53C63A06B
310
857DE10FCEC42E566B7AA11C4538238CE2108574C3300305C1D642413532C25B04292430935AD4F4AABC82615FF7A5362E7779180AFF35A6D2D37CF0479271C919FD87B023F7D5DB80279036A7713652C266AF2990184F6CB9587CE7F5D49705906817E23D580B88293679BD065E73110B560B63FA71B939AC457C68BF3C65
310
494A58262C4F3AB3F23BADC18A6981F17500A5C0B5AEBB232A5F01FA4F807CC90B9A80E6183DF40F7D2D3BC331DF252C02ED2007990EFC7190783C799AD8E5E12942B558790E5370DB1F84694D8CDADD1548A7936730FA84794AB8758043B0E9071A0B3F07434161024B10EF779B83315D41308545388543901E7E27B67844
310
F051D08178D3D0505BF8EDA028ED304D3F3BEAEA03D80CA341A9AA9A8CE7F01DFC107CEF16EB8FEB9CED70401E94632FC88EC6348364DACE500DF49ACB7F5B7D921E79224F6D5700F7EC1311385AF4B2567A415231C08AC8C3856AE4CA0305770F431C9324E76ABD2D50054998307FF3EA173EDC7AD79FDA088ACBC0BF8505
310
B40633C8EE01A3A900C5982AF1CA48681D7112715019E0BE50AABFC1C19380D70F20627D0F1F60B5983589E651EAE328C96311BE4FCDBB299AE539F2C775C73D67DC1B8D875A582EC96BEFD1A1A1645EDC13E1F4CC25F39AB654D4D0940B3FEA43B46C9320809A29CFFC24C501CDDA6DA12184F25000FB22CB5BBADBE51C82
310
7A2B2C0D8E2DCF1D20A7F2B7BCE432F7EA129F46784FFC1D1619AEF5BE1A4025712D412B32FB30E19CC684CB0AE524723550712C080485DD6AAA2D4648B91F910C7F8FFDC994D7303F4676A10FB55426AAD9EBD6A71954D9F31C4551B925B12FE57FF5398ED2B0A8D2AE61E0F61A37B4E22A9816573C83BDF938F39D2D9145
310
F735EA655CD0F876A23EFE6EF267E061F8A7C3A3AFA0507A438EBCAE59D71AB863F13382A0321CB8DE8D56C435ACF45599A841C21CAAA6E0D57F2174FFD82DA075BA879370E7D330CC23BFC8071989A004C359CE3AF9EB70E09C285FC5858643546EDAD1100AE4CE4153D61EBAFA00A964F1712E6856AE01A1680C3D5A2741
310
4EA4683561A90BD98F8AB6EBBAF6DF4EF53FC7CB6A9FF2445E5F12B66DE5B45E46E80A4C170C225CAA0C57DA91A43C9D549D2F928DCB751CFA9A888A6F4597A02C8491672A0613B2036AED1FF80BCE0208A46BF969CEC023B6647BAC296AE4D498C398C2A59A9AAE53AB9D0E043B913E6A85D74A04D408A60D58C4D907F110
310
7EC5A06AA8FCB8ADAA1ABB585F89C466C160E5C8C7055A9F3FAC1B5460A5F3E92F0223F2D2A0A056E7A290BB40EADBEA58AF36282889BEAD2E1CCF1EF36813632A32A3300BBC4DDFBD97BDE4AD0D8D823D5ADEDC0CBDBB9EE92C1733B33F1BDC9BB3FB7BC71C2D67DED219CD9DD9626E33C2939C0584DB3DDBF175ED94C67B
310
6D1805745D3A0A982A5C6FFDB43D3715FC3FEE28C26483CFD9E2AFDA5094E59E28C81ABED8B5A1680DD49BB755FFEE49A06E4F626FAA9C8B598136F0CB690B8291CEF7DD4B0B4D5A5712ED3C5732E21B13EFD96EE5A7E7985A406FCD0FB51D6D21BF1E8B61F6D492A574775B8C387AF3616FDEF34CEF66E698FD9BBBA579D7
310
9B7BF067391C8C964B68098FB59BCA855DF3CA2F114335B395311A4C8379125218CA932DDA93043A20983A7488AF2C225C76365000A834AEDF087438FD5CCC5433BC09F5E9E011C3603A5419390F60280A5DC7ADA1D6D16F3006159348399CB29E20F1286B3750CEE8AD01269051C82FD606C659727828A937C695A0361CEF
310
45CF549C2AFF3F1E13E880AD1CE52AF774C1454956B34E180EA4F23D01443B5D907CBFE89A1D843378DCE45929CC71E1288D0241BF10288483A9DF9382F70081E7B25CAE25F7D420E93499BF6807055533C36C2FC7EB15BCEF165F6C31195F7D466998EF853A2FE5FB1A2553D419615E0CA12660184ACC148B3E7CFECEFEC2
310
1278C514A125052340BF1F46C33FEC791245495C2CD977EA45155A3FC26BA7ADAD477E50B838EEC096758F1AEBC3DC8A130B6FF9132C806A1915B3D102E29A0194E1A962005A23421770ACB67FB5402A09544AD86AE92AE091337D048E24DEE508B7A96EA80C20C11780AB624E5B3EE88589CD60083EFD17504B0304140006
310
0808008A767457F2E1E7FD3D01000046050000300000006662782F38354142333935362D394331452D344234392D383434382D3233363038413339364230432F636E782E786D6CCD94CF4E032110C65F85705FF68F9A9886A589079FC083F1C6B2D315CBC2060663DF5EA8B46A4C8D8726F546866F92EF37F365F8FA6D36E4
310
157CD0CEF6B4650D2560951BB59D7A1A7153DD52B216DC3B875F64945839434F73990A3E791797521A6123A3C955A3EDB61425A2D743440894282343E86950CF304B2623BA11C2968D12256B9987E0A25790FA51CF50FA9507893052D135DD55D5B655D73CB4D7AB9B6ED5354FBCCE4AC107E74CD16B8BE0DD42944B0F9BCC
310
34BCCEDF8247AF8B261350F1E98C0DDAF23AFD0B1E925B3B151DEE96AC5B16A395C434A6DA2904AC9208E4CCEB0FB1E075E6FD467D7FF778704046ED41A1F3BB0B0DA03D3580A3319692F037FEBDF0776C37BC24DC4B6DFB246CB17536D4435A438AEBCFFDA714493B99FF17FAA3B1F3673E9D12D4EAFF211F7C9D89B8DE9F
310
BCB4F47C01C53B504B03041400060808008A767457657BD2EB7D000000A30000000B0000006662782F636E782E786D6C4D8CD10A832018465F45FE7B379B260A6A64EC416259C84CC3D5D8E34F4717BBFAE0F09DA3BACF1AD0DBE5974F51437321805C7CA4C9C745C3B1CF5800EA8CCA29ED7F3740715C9D868AC1A825A763
310
3BD1E4E6F10895061F9F27146D6FA96C39964373C7CC3289056302DF2827A2A7925B3214E35A9532BF5ED99A375F504B03041400060808008A767457A6D797065F0000008200000007000000636E782E786D6C4DCB3B0E80201045D1AD90E9FD7516806B51190811670C8A61F982B1B0BAC9C97B72CA7B1037C6D3332918DA
310
1E04D2CAC69353902EDB8C20262D23F3F59B81A079470595414B17391D1F19B4730A5583A7ED43BBE4025D9592775E5ADFFA01504B03041400060808008A7674574FEB6A7CA0000000F4000000130000005B436F6E74656E745F54797065735D2E786D6C7D8F4B0EC2300C44AF1279DFA6B0400835ED02B8011730C16D239A
310
8F121795DB93D02D6269CFBC19BBED573B8B17C564BC53B0AB1B10E4B47F18372A5878A88E20FAAEBDBD032591BD2E299898C349CAA427B2986A1FC86565F0D122E7318E32A07EE24872DF3407A9BD63725C71C980AEBDD080CBCCE2BAE6F5D69B7110E7CD57AA146008B3D1C8F92C5954F993BB1BF787F39A89ABC491D096
310
00F9FDA2FB00504B03041400060808008A7674573DEE336E64000000790000001B0000006175746F6465736B2D64657369676E2D7061636B6167652E786D6C35CBC10E83200C00D05F21DCA56CA76D41FC96062B120735B69A7DBE268BB7777961F8D5AF396893C2ADB70FE7ADA196782C2DF776D7A97B5933C430F15651E5
310
469C55D70F80A4992A3ADC954792C525AE70A1E4D6AD9816CC044FEFDF01FE3FDE907802504B03041400060808008A767457458A7EF3F6000000960100003B0000006662782F38354142333935362D394331452D344234392D383434382D3233363038413339364230432F7265736F75726365732F636F72652E786D6C8550
310
CB6E833010FC15B47703361068641CF5F1093DF566D91B6225D8C88FAA9F5F3BA1527BEA6957B333B3BBC34F5FEBADFA441F8CB333D0BA850AAD72DAD8658614CF6482EA24B8772EFEA24165E58A331418045FBC4BDB0E296723DA825AA77107650818A152B7DCCC10D4055759CB1433235CEB4DAAAB5CB0A6F58327784A46
310
EF52A3B39B391BF420A681D1716423E9264A493F0C0732756F3DA17DFB3A1CBAE7A79771E44D110B1ECDFAB35D7994113508D6B28E64256BDF697F1CD891B51FBC294CC143F4F9E77D69F90E84C7E092571878F398FE714D9BFEDF35191B3BB6BB3E140104CD47DE07823725A55CEE11E65A1215DF504B0304140006080800
310
8A76745770BD89C2F1000000B1010000310000006662782F38354142333935362D394331452D344234392D383434382D3233363038413339364230432F636F72652E786D6C8D50CB6EC32010FC156BEFD8801FB2234C1447FD839E7A43405C94182C03553FBF10BB527BCB69D1EC0C333BECFCBD3C8A2FBD79E3EC08A4C450
310
682B9D32761E21861BEAA13873B63917FED0A0B062D1236418389B3717D70392CE066D336A9DD20728BCD7010AF9488F11BCFCD48B28450C89E1EFE52AE45DCCBA24E5CEE32C98E5572A372D8256C029A635220451FC4E9A534B4F147FB02A33398BD1A8C3CAA8E46E6E466FC0FBF632D543DBA1E14ADE50333503EA9BA647
310
B4EE707FA9876EC257566531673E6CE9E6E3937CDDABF25DF82F735CD50B998D0D353D0C7785074E529EE782B32A1798C6B3DD3473D9FC07504B03041400060808008A76745772E17B4C50010000DD0200000C0000006662782F636F72652E786D6C8D52D98E842010FC15C3BB07A8A33B41267B7CC23EED1B838C4B46C120
310
98F9FC6DAFB83EEC111324D55DD5D515E8E5D1B5C128EDA08CAE108E1214482D4CAD745321EF6E6189820BA3D618F7AD0D059A77B242138C186DACF1FD0A09A39DD413AA4D2D57900F837428102D5C2A34884FD9F1887B071DC33DEAB9B8F34646385AFA18F55ED52B55D5A0A66E4A5AC4CA9CE0A2204598961887599E9FC2
310
327DCB429C25AFF9297D7E7A290A1A4F64469DEAB6E9C24AEE648D1849481A029324EF383BE7E44C920F1A4F9D8C0ECEC2CEEBD0693BC46ED7078D17FCA0E7FBFA6F3DAFB44BC9AAB73006C430D89B0B8CC6533EF09BC33B660883213FC7AFEDB6C21DA0510A676C0695DAF8BD34F2D64B904E82F9A3F15205E559E0271DF2
310
8BCEEF1A1014D70D58E30EAE57EFA6E9474FBDB4E1E81E8136B6E3ED6E6EB1B89FFBA0C34A1B5D98D6D8FFB0B755B730E3E961B22F504B03041400060808008A767457ACC9D77504010000B201000008000000636F72652E786D6C8D50CB6EC32010FC15B4776CC076EC4698A88F4FE8A9370AC445B1C132386AFFBE9050A9
310
BDF5B4681E3BC3F2D3E732A3ABD982F56E045A1140C629AFAD9B46D8E3190F804E826FDEC75F32404E2E66840C83E0D3E6F7B540CABB685C469DD7A68032041301A9393D4608EAC32CB2927B4C8A70A956A92E723215ADEE3AC1A35D7EAC6A33321A0D8211D6604A3123AFB43D76ECC8C81BAFB352F07DB7BA44599DD2EDD9
310
9A0DC4D031DAF7ACC7CD908C6DD71DF0D0BCB498B6E4B93B348F0F4F7DCFEB6C163CC42DFDB92C493D230AF29A73797DA7047FF77E2E82544A23EFE62F1084D799F8537A5FF53F4A5B171B5616DE1D01044D856E440ACE174CE376DE34F3B5C537504B010214001400060808008A7674570000000000000000000000003700
310
000000000000000000000000000000006662782F38354142333935362D394331452D344234392D383434382D3233363038413339364230432F617474726962757465732E62696E504B010214001400060808008A7674570000000000000000000000003500000000000000000000000000550000006662782F383541423339
310
35362D394331452D344234392D383434382D3233363038413339364230432F76657274696365732E62696E504B010214001400060808008A767457F270F13306000000040000003600000000000000000000000000A80000006662782F38354142333935362D394331452D344234392D383434382D32333630384133393642
310
30432F747269616E676C65732E62696E504B010214001400060808008A76745751464CB489000000430100003600000000000000000000000000020100006662782F38354142333935362D394331452D344234392D383434382D3233363038413339364230432F6469726563746F72792E786D6C504B010214001400060808
310
008A767457D853C4C135070000201C00003400000000000000000000000000DF0100006662782F38354142333935362D394331452D344234392D383434382D3233363038413339364230432F6F626A656374732E786D6C504B010214001400060808008A767457F2E1E7FD3D01000046050000300000000000000000000000
310
0000660900006662782F38354142333935362D394331452D344234392D383434382D3233363038413339364230432F636E782E786D6C504B010214001400060808008A767457657BD2EB7D000000A30000000B00000000000000000000000000F10A00006662782F636E782E786D6C504B010214001400060808008A767457
310
A6D797065F000000820000000700000000000000000000000000970B0000636E782E786D6C504B010214001400060808008A7674574FEB6A7CA0000000F400000013000000000000000000000000001B0C00005B436F6E74656E745F54797065735D2E786D6C504B010214001400060808008A7674573DEE336E6400000079
310
0000001B00000000000000000000000000EC0C00006175746F6465736B2D64657369676E2D7061636B6167652E786D6C504B010214001400060808008A767457458A7EF3F6000000960100003B00000000000000000000000000890D00006662782F38354142333935362D394331452D344234392D383434382D3233363038
310
413339364230432F7265736F75726365732F636F72652E786D6C504B010214001400060808008A76745770BD89C2F1000000B10100003100000000000000000000000000D80E00006662782F38354142333935362D394331452D344234392D383434382D3233363038413339364230432F636F72652E786D6C504B01021400
310
1400060808008A76745772E17B4C50010000DD0200000C00000000000000000000000000181000006662782F636F72652E786D6C504B010214001400060808008A767457ACC9D77504010000B2010000080000000000000000000000000092110000636F72652E786D6C504B0506000000000E000E0080040000BC12000000
310
00
  0
XRECORD
  5
83C2
102
{ACAD_REACTORS
330
83BD
102
}
330
83BD
100
AcDbXrecord
280
     1
270
     1
271
     1
  0
XRECORD
  5
83C1
102
{ACAD_REACTORS
330
83BD
102
}
330
83BD
100
AcDbXrecord
280
     1
270
     1
271
     1
  0
XRECORD
  5
83C3
102
{ACAD_REACTORS
330
83BD
102
}
330
83BD
100
AcDbXrecord
280
     1
270
     1
271
     1
  0
XRECORD
  5
83C0
102
{ACAD_REACTORS
330
83BD
102
}
330
83BD
100
AcDbXrecord
280
     1
270
     1
271
     1
  0
XRECORD
  5
8792
102
{ACAD_REACTORS
330
8791
102
}
330
8791
100
AcDbXrecord
280
     1
102
DISPLAYNAME
  1
Imperial24
102
FLAGS
 90
        0
  0
CELLSTYLEMAP
  5
8759
102
{ACAD_REACTORS
330
8758
102
}
330
8758
100
AcDbCellStyleMap
 90
        3
300
CELLSTYLE
  1
TABLEFORMAT_BEGIN
 90
        5
170
     1
 91
        0
 92
    32768
 62
   257
 93
        1
300
CONTENTFORMAT
  1
CONTENTFORMAT_BEGIN
 90
        0
 91
        0
 92
      512
 93
        0
300

 40
0.0
140
1.0
 94
        5
 62
     0
340
83F0
144
0.25
309
CONTENTFORMAT_END
171
     0
 94
        0
309
TABLEFORMAT_END
  1
CELLSTYLE_BEGIN
 90
        1
 91
        1
300
_TITLE
309
CELLSTYLE_END
300
CELLSTYLE
  1
TABLEFORMAT_BEGIN
 90
        5
170
     1
 91
        0
 92
        0
 62
   257
 93
        1
300
CONTENTFORMAT
  1
CONTENTFORMAT_BEGIN
 90
        0
 91
        0
 92
      512
 93
        0
300

 40
0.0
140
1.0
 94
        5
 62
     0
340
83F0
144
0.18
309
CONTENTFORMAT_END
171
     0
 94
        0
309
TABLEFORMAT_END
  1
CELLSTYLE_BEGIN
 90
        2
 91
        1
300
_HEADER
309
CELLSTYLE_END
300
CELLSTYLE
  1
TABLEFORMAT_BEGIN
 90
        5
170
     1
 91
        0
 92
        0
 62
   257
 93
        1
300
CONTENTFORMAT
  1
CONTENTFORMAT_BEGIN
 90
        0
 91
        0
 92
      512
 93
        0
300

 40
0.0
140
1.0
 94
        2
 62
     0
340
83F0
144
0.18
309
CONTENTFORMAT_END
171
     0
 94
        0
309
TABLEFORMAT_END
  1
CELLSTYLE_BEGIN
 90
        3
 91
        2
300
_DATA
309
CELLSTYLE_END
  0
XRECORD
  5
878F
102
{ACAD_REACTORS
330
8758
102
}
330
8758
100
AcDbXrecord
280
     1
102
ACAD_ROUNDTRIP_PRE2007_TABLESTYLE
 90
      512
 91
        0
  1

 92
      512
 93
        0
  2

 94
      512
 95
        0
  3

  0
XRECORD
  5
876A
102
{ACAD_REACTORS
330
8769
102
}
330
8769
100
AcDbXrecord
280
     1
102
RTVSPost2010Prop28
280
     1
102
RTVSPost2010PropOp28
 70
     1
102
RTVSPost2010Prop29
280
     1
102
RTVSPost2010PropOp29
 70
     1
102
RTVSPost2010Prop30
280
     0
102
RTVSPost2010PropOp30
 70
     1
102
RTVSPost2010Prop31
280
     0
102
RTVSPost2010PropOp31
 70
     1
102
RTVSPost2010Prop32
280
     0
102
RTVSPost2010PropOp32
 70
     1
102
RTVSPost2010Prop33
280
     0
102
RTVSPost2010PropOp33
 70
     1
102
RTVSPost2010Prop34
280
     0
102
RTVSPost2010PropOp34
 70
     1
102
RTVSPost2010Prop35
280
     0
102
RTVSPost2010PropOp35
 70
     1
102
RTVSPost2010Prop36
280
     0
102
RTVSPost2010PropOp36
 70
     1
102
RTVSPost2010Prop37
 90
       50
102
RTVSPost2010PropOp37
 70
     1
102
RTVSPost2010Prop38
140
0.0
102
RTVSPost2010PropOp38
 70
     1
102
RTVSPost2010Prop39
140
1.0
102
RTVSPost2010PropOp39
 70
     1
102
RTVSPost2010Prop40
 90
        0
102
RTVSPost2010PropOp40
 70
     1
102
RTVSPost2010Prop41ColorIndex
 90
       18
102
RTVSPost2010Prop41ColorRGB
 90
        0
102
RTVSPost2010PropOp41
 70
     1
102
RTVSPost2010Prop42
 90
       50
102
RTVSPost2010PropOp42
 70
     1
102
RTVSPost2010Prop43
 90
        3
102
RTVSPost2010PropOp43
 70
     1
102
RTVSPost2010Prop44ColorIndex
 90
        5
102
RTVSPost2010Prop44ColorRGB
 90
      255
102
RTVSPost2010PropOp44
 70
     1
102
RTVSPost2010Prop45
280
     0
102
RTVSPost2010PropOp45
 70
     1
102
RTVSPost2010Prop46
 90
       50
102
RTVSPost2010PropOp46
 70
     1
102
RTVSPost2010Prop47
 90
       50
102
RTVSPost2010PropOp47
 70
     1
102
RTVSPost2010Prop48
 90
       50
102
RTVSPost2010PropOp48
 70
     1
102
RTVSPost2010Prop49
280
     0
102
RTVSPost2010PropOp49
 70
     1
102
RTVSPost2010Prop50
 90
       50
102
RTVSPost2010PropOp50
 70
     1
102
RTVSPost2010Prop51ColorIndex
 90
      256
102
RTVSPost2010Prop51ColorRGB
 90
-16777216
102
RTVSPost2010PropOp51
 70
     0
102
RTVSPost2010Prop52
140
1.0
102
RTVSPost2010PropOp52
 70
     0
102
RTVSPost2010Prop53
 90
        2
102
RTVSPost2010PropOp53
 70
     1
102
RTVSPost2010Prop54
  1
strokes_ogs.tif
102
RTVSPost2010PropOp54
 70
     1
102
RTVSPost2010Prop55
280
     0
102
RTVSPost2010PropOp55
 70
     1
102
RTVSPost2010Prop56
140
1.0
102
RTVSPost2010PropOp56
 70
     1
102
RTVSPost2010Prop57
140
1.0
102
RTVSPost2010PropOp57
 70
     1
102
RTVSPropertyOp0
 70
     1
102
RTVSPropertyOp1
 70
     1
102
RTVSPropertyOp2
 70
     1
102
RTVSPropertyOp3
 70
     1
102
RTVSPropertyOp4
 70
     1
102
RTVSPropertyOp5
 70
     1
102
RTVSPropertyOp6
 70
     1
102
RTVSPropertyOp7
 70
     1
102
RTVSPropertyOp8
 70
     1
102
RTVSPropertyOp9
 70
     1
102
RTVSPropertyOp10
 70
     1
102
RTVSPropertyOp11
 70
     1
102
RTVSPropertyOp12
 70
     1
102
RTVSPropertyOp13
 70
     1
102
RTVSPropertyOp14
 70
     1
102
RTVSPropertyOp15
 70
     1
102
RTVSPropertyOp16
 70
     1
102
RTVSPropertyOp17
 70
     1
102
RTVSPropertyOp18
 70
     1
102
RTVSPropertyOp19
 70
     1
102
RTVSPropertyOp20
 70
     1
102
RTVSPropertyOp21
 70
     1
102
RTVSPropertyOp22
 70
     1
102
RTVSPropertyOp23
 70
     1
102
RTVSPropertyOp24
 70
     1
102
RTVSPropertyOp25
 70
     1
102
RTVSPropertyOp26
 70
     1
102
RTVSPropertyOp27
 70
     1
102
RTVSPropertyOp28
 70
     1
102
RTVSPropertyOp29
 70
     1
102
RTVSPropertyOp30
 70
     1
102
RTVSPropertyOp31
 70
     1
102
RTVSPropertyOp32
 70
     1
102
RTVSPropertyOp33
 70
     1
102
RTVSPropertyOp34
 70
     1
102
RTVSPropertyOp35
 70
     1
102
RTVSPropertyOp36
 70
     1
102
RTVSPropertyOp37
 70
     1
102
RTVSPropertyOp38
 70
     1
102
RTVSPropertyOp39
 70
     1
102
RTVSPropertyOp40
 70
     1
102
RTVSPropertyOp41
 70
     1
102
RTVSPropertyOp42
 70
     1
102
RTVSPropertyOp43
 70
     1
102
RTVSPropertyOp44
 70
     1
102
RTVSPropertyOp45
 70
     1
102
RTVSPropertyOp46
 70
     1
102
RTVSPropertyOp47
 70
     1
102
RTVSPropertyOp48
 70
     1
102
RTVSPropertyOp49
 70
     1
102
RTVSPropertyOp50
 70
     1
102
RTVSPropertyOp51
 70
     0
102
RTVSPropertyOp52
 70
     0
102
RTVSPropertyOp53
 70
     1
102
RTVSPropertyOp54
 70
     1
102
RTVSPropertyOp55
 70
     1
102
RTVSPropertyOp56
 70
     1
102
RTVSPropertyOp57
 70
     1
102
RTVSPropertyOp58
 70
     1
102
RTVSPropertyOp59
 70
     1
102
RTVSPropertyOp60
 70
     1
102
RTVSPropertyOp61
 70
     1
102
RTVSPropertyOp62
 70
     1
  0
XRECORD
  5
8768
102
{ACAD_REACTORS
330
8767
102
}
330
8767
100
AcDbXrecord
280
     1
102
RTVSPost2010Prop28
280
     0
102
RTVSPost2010PropOp28
 70
     1
102
RTVSPost2010Prop29
280
     1
102
RTVSPost2010PropOp29
 70
     1
102
RTVSPost2010Prop30
280
     1
102
RTVSPost2010PropOp30
 70
     1
102
RTVSPost2010Prop31
280
     0
102
RTVSPost2010PropOp31
 70
     1
102
RTVSPost2010Prop32
280
     0
102
RTVSPost2010PropOp32
 70
     1
102
RTVSPost2010Prop33
280
     0
102
RTVSPost2010PropOp33
 70
     1
102
RTVSPost2010Prop34
280
     0
102
RTVSPost2010PropOp34
 70
     1
102
RTVSPost2010Prop35
280
     0
102
RTVSPost2010PropOp35
 70
     1
102
RTVSPost2010Prop36
280
     0
102
RTVSPost2010PropOp36
 70
     1
102
RTVSPost2010Prop37
 90
       50
102
RTVSPost2010PropOp37
 70
     1
102
RTVSPost2010Prop38
140
0.0
102
RTVSPost2010PropOp38
 70
     1
102
RTVSPost2010Prop39
140
1.0
102
RTVSPost2010PropOp39
 70
     1
102
RTVSPost2010Prop40
 90
        0
102
RTVSPost2010PropOp40
 70
     1
102
RTVSPost2010Prop41ColorIndex
 90
       18
102
RTVSPost2010Prop41ColorRGB
 90
        0
102
RTVSPost2010PropOp41
 70
     1
102
RTVSPost2010Prop42
 90
       50
102
RTVSPost2010PropOp42
 70
     1
102
RTVSPost2010Prop43
 90
        3
102
RTVSPost2010PropOp43
 70
     1
102
RTVSPost2010Prop44ColorIndex
 90
        5
102
RTVSPost2010Prop44ColorRGB
 90
      255
102
RTVSPost2010PropOp44
 70
     1
102
RTVSPost2010Prop45
280
     0
102
RTVSPost2010PropOp45
 70
     1
102
RTVSPost2010Prop46
 90
       50
102
RTVSPost2010PropOp46
 70
     1
102
RTVSPost2010Prop47
 90
       50
102
RTVSPost2010PropOp47
 70
     1
102
RTVSPost2010Prop48
 90
       50
102
RTVSPost2010PropOp48
 70
     1
102
RTVSPost2010Prop49
280
     0
102
RTVSPost2010PropOp49
 70
     1
102
RTVSPost2010Prop50
 90
       50
102
RTVSPost2010PropOp50
 70
     1
102
RTVSPost2010Prop51ColorIndex
 90
      256
102
RTVSPost2010Prop51ColorRGB
 90
-16777216
102
RTVSPost2010PropOp51
 70
     0
102
RTVSPost2010Prop52
140
1.0
102
RTVSPost2010PropOp52
 70
     0
102
RTVSPost2010Prop53
 90
        2
102
RTVSPost2010PropOp53
 70
     1
102
RTVSPost2010Prop54
  1
strokes_ogs.tif
102
RTVSPost2010PropOp54
 70
     1
102
RTVSPost2010Prop55
280
     0
102
RTVSPost2010PropOp55
 70
     1
102
RTVSPost2010Prop56
140
1.0
102
RTVSPost2010PropOp56
 70
     1
102
RTVSPost2010Prop57
140
1.0
102
RTVSPost2010PropOp57
 70
     1
102
RTVSPropertyOp0
 70
     1
102
RTVSPropertyOp1
 70
     1
102
RTVSPropertyOp2
 70
     1
102
RTVSPropertyOp3
 70
     1
102
RTVSPropertyOp4
 70
     1
102
RTVSPropertyOp5
 70
     1
102
RTVSPropertyOp6
 70
     1
102
RTVSPropertyOp7
 70
     1
102
RTVSPropertyOp8
 70
     1
102
RTVSPropertyOp9
 70
     1
102
RTVSPropertyOp10
 70
     1
102
RTVSPropertyOp11
 70
     1
102
RTVSPropertyOp12
 70
     1
102
RTVSPropertyOp13
 70
     1
102
RTVSPropertyOp14
 70
     1
102
RTVSPropertyOp15
 70
     1
102
RTVSPropertyOp16
 70
     1
102
RTVSPropertyOp17
 70
     1
102
RTVSPropertyOp18
 70
     1
102
RTVSPropertyOp19
 70
     1
102
RTVSPropertyOp20
 70
     1
102
RTVSPropertyOp21
 70
     1
102
RTVSPropertyOp22
 70
     1
102
RTVSPropertyOp23
 70
     1
102
RTVSPropertyOp24
 70
     1
102
RTVSPropertyOp25
 70
     1
102
RTVSPropertyOp26
 70
     1
102
RTVSPropertyOp27
 70
     1
102
RTVSPropertyOp28
 70
     1
102
RTVSPropertyOp29
 70
     1
102
RTVSPropertyOp30
 70
     1
102
RTVSPropertyOp31
 70
     1
102
RTVSPropertyOp32
 70
     1
102
RTVSPropertyOp33
 70
     1
102
RTVSPropertyOp34
 70
     1
102
RTVSPropertyOp35
 70
     1
102
RTVSPropertyOp36
 70
     1
102
RTVSPropertyOp37
 70
     1
102
RTVSPropertyOp38
 70
     1
102
RTVSPropertyOp39
 70
     1
102
RTVSPropertyOp40
 70
     1
102
RTVSPropertyOp41
 70
     1
102
RTVSPropertyOp42
 70
     1
102
RTVSPropertyOp43
 70
     1
102
RTVSPropertyOp44
 70
     1
102
RTVSPropertyOp45
 70
     1
102
RTVSPropertyOp46
 70
     1
102
RTVSPropertyOp47
 70
     1
102
RTVSPropertyOp48
 70
     1
102
RTVSPropertyOp49
 70
     1
102
RTVSPropertyOp50
 70
     1
102
RTVSPropertyOp51
 70
     0
102
RTVSPropertyOp52
 70
     0
102
RTVSPropertyOp53
 70
     1
102
RTVSPropertyOp54
 70
     1
102
RTVSPropertyOp55
 70
     1
102
RTVSPropertyOp56
 70
     1
102
RTVSPropertyOp57
 70
     1
102
RTVSPropertyOp58
 70
     1
102
RTVSPropertyOp59
 70
     1
102
RTVSPropertyOp60
 70
     1
102
RTVSPropertyOp61
 70
     1
102
RTVSPropertyOp62
 70
     1
  0
XRECORD
  5
8776
102
{ACAD_REACTORS
330
8775
102
}
330
8775
100
AcDbXrecord
280
     1
102
RTVSPost2010Prop28
280
     0
102
RTVSPost2010PropOp28
 70
     1
102
RTVSPost2010Prop29
280
     1
102
RTVSPost2010PropOp29
 70
     1
102
RTVSPost2010Prop30
280
     1
102
RTVSPost2010PropOp30
 70
     1
102
RTVSPost2010Prop31
280
     0
102
RTVSPost2010PropOp31
 70
     1
102
RTVSPost2010Prop32
280
     0
102
RTVSPost2010PropOp32
 70
     1
102
RTVSPost2010Prop33
280
     0
102
RTVSPost2010PropOp33
 70
     1
102
RTVSPost2010Prop34
280
     0
102
RTVSPost2010PropOp34
 70
     1
102
RTVSPost2010Prop35
280
     0
102
RTVSPost2010PropOp35
 70
     1
102
RTVSPost2010Prop36
280
     0
102
RTVSPost2010PropOp36
 70
     1
102
RTVSPost2010Prop37
 90
       50
102
RTVSPost2010PropOp37
 70
     1
102
RTVSPost2010Prop38
140
0.0
102
RTVSPost2010PropOp38
 70
     1
102
RTVSPost2010Prop39
140
1.0
102
RTVSPost2010PropOp39
 70
     1
102
RTVSPost2010Prop40
 90
        0
102
RTVSPost2010PropOp40
 70
     1
102
RTVSPost2010Prop41ColorIndex
 90
       18
102
RTVSPost2010Prop41ColorRGB
 90
        0
102
RTVSPost2010PropOp41
 70
     1
102
RTVSPost2010Prop42
 90
       50
102
RTVSPost2010PropOp42
 70
     1
102
RTVSPost2010Prop43
 90
        3
102
RTVSPost2010PropOp43
 70
     1
102
RTVSPost2010Prop44ColorIndex
 90
        5
102
RTVSPost2010Prop44ColorRGB
 90
      255
102
RTVSPost2010PropOp44
 70
     1
102
RTVSPost2010Prop45
280
     0
102
RTVSPost2010PropOp45
 70
     1
102
RTVSPost2010Prop46
 90
       50
102
RTVSPost2010PropOp46
 70
     1
102
RTVSPost2010Prop47
 90
       50
102
RTVSPost2010PropOp47
 70
     1
102
RTVSPost2010Prop48
 90
       50
102
RTVSPost2010PropOp48
 70
     1
102
RTVSPost2010Prop49
280
     0
102
RTVSPost2010PropOp49
 70
     1
102
RTVSPost2010Prop50
 90
       50
102
RTVSPost2010PropOp50
 70
     1
102
RTVSPost2010Prop51ColorIndex
 90
      256
102
RTVSPost2010Prop51ColorRGB
 90
-16777216
102
RTVSPost2010PropOp51
 70
     0
102
RTVSPost2010Prop52
140
1.0
102
RTVSPost2010PropOp52
 70
     0
102
RTVSPost2010Prop53
 90
        2
102
RTVSPost2010PropOp53
 70
     1
102
RTVSPost2010Prop54
  1
strokes_ogs.tif
102
RTVSPost2010PropOp54
 70
     1
102
RTVSPost2010Prop55
280
     0
102
RTVSPost2010PropOp55
 70
     1
102
RTVSPost2010Prop56
140
1.0
102
RTVSPost2010PropOp56
 70
     1
102
RTVSPost2010Prop57
140
1.0
102
RTVSPost2010PropOp57
 70
     1
102
RTVSPropertyOp0
 70
     1
102
RTVSPropertyOp1
 70
     1
102
RTVSPropertyOp2
 70
     1
102
RTVSPropertyOp3
 70
     1
102
RTVSPropertyOp4
 70
     1
102
RTVSPropertyOp5
 70
     1
102
RTVSPropertyOp6
 70
     1
102
RTVSPropertyOp7
 70
     1
102
RTVSPropertyOp8
 70
     1
102
RTVSPropertyOp9
 70
     1
102
RTVSPropertyOp10
 70
     1
102
RTVSPropertyOp11
 70
     1
102
RTVSPropertyOp12
 70
     1
102
RTVSPropertyOp13
 70
     1
102
RTVSPropertyOp14
 70
     1
102
RTVSPropertyOp15
 70
     1
102
RTVSPropertyOp16
 70
     1
102
RTVSPropertyOp17
 70
     1
102
RTVSPropertyOp18
 70
     1
102
RTVSPropertyOp19
 70
     1
102
RTVSPropertyOp20
 70
     1
102
RTVSPropertyOp21
 70
     1
102
RTVSPropertyOp22
 70
     1
102
RTVSPropertyOp23
 70
     1
102
RTVSPropertyOp24
 70
     1
102
RTVSPropertyOp25
 70
     1
102
RTVSPropertyOp26
 70
     1
102
RTVSPropertyOp27
 70
     1
102
RTVSPropertyOp28
 70
     1
102
RTVSPropertyOp29
 70
     1
102
RTVSPropertyOp30
 70
     1
102
RTVSPropertyOp31
 70
     1
102
RTVSPropertyOp32
 70
     1
102
RTVSPropertyOp33
 70
     1
102
RTVSPropertyOp34
 70
     1
102
RTVSPropertyOp35
 70
     1
102
RTVSPropertyOp36
 70
     1
102
RTVSPropertyOp37
 70
     1
102
RTVSPropertyOp38
 70
     1
102
RTVSPropertyOp39
 70
     1
102
RTVSPropertyOp40
 70
     1
102
RTVSPropertyOp41
 70
     1
102
RTVSPropertyOp42
 70
     1
102
RTVSPropertyOp43
 70
     1
102
RTVSPropertyOp44
 70
     1
102
RTVSPropertyOp45
 70
     1
102
RTVSPropertyOp46
 70
     1
102
RTVSPropertyOp47
 70
     1
102
RTVSPropertyOp48
 70
     1
102
RTVSPropertyOp49
 70
     1
102
RTVSPropertyOp50
 70
     1
102
RTVSPropertyOp51
 70
     0
102
RTVSPropertyOp52
 70
     0
102
RTVSPropertyOp53
 70
     1
102
RTVSPropertyOp54
 70
     1
102
RTVSPropertyOp55
 70
     1
102
RTVSPropertyOp56
 70
     1
102
RTVSPropertyOp57
 70
     1
102
RTVSPropertyOp58
 70
     1
102
RTVSPropertyOp59
 70
     1
102
RTVSPropertyOp60
 70
     1
102
RTVSPropertyOp61
 70
     1
102
RTVSPropertyOp62
 70
     1
  0
XRECORD
  5
877E
102
{ACAD_REACTORS
330
877D
102
}
330
877D
100
AcDbXrecord
280
     1
102
RTVSPost2010Prop28
280
     0
102
RTVSPost2010PropOp28
 70
     1
102
RTVSPost2010Prop29
280
     1
102
RTVSPost2010PropOp29
 70
     1
102
RTVSPost2010Prop30
280
     1
102
RTVSPost2010PropOp30
 70
     1
102
RTVSPost2010Prop31
280
     0
102
RTVSPost2010PropOp31
 70
     1
102
RTVSPost2010Prop32
280
     0
102
RTVSPost2010PropOp32
 70
     1
102
RTVSPost2010Prop33
280
     0
102
RTVSPost2010PropOp33
 70
     1
102
RTVSPost2010Prop34
280
     0
102
RTVSPost2010PropOp34
 70
     1
102
RTVSPost2010Prop35
280
     0
102
RTVSPost2010PropOp35
 70
     1
102
RTVSPost2010Prop36
280
     0
102
RTVSPost2010PropOp36
 70
     1
102
RTVSPost2010Prop37
 90
       50
102
RTVSPost2010PropOp37
 70
     1
102
RTVSPost2010Prop38
140
0.0
102
RTVSPost2010PropOp38
 70
     1
102
RTVSPost2010Prop39
140
1.0
102
RTVSPost2010PropOp39
 70
     1
102
RTVSPost2010Prop40
 90
        0
102
RTVSPost2010PropOp40
 70
     1
102
RTVSPost2010Prop41ColorIndex
 90
       18
102
RTVSPost2010Prop41ColorRGB
 90
        0
102
RTVSPost2010PropOp41
 70
     1
102
RTVSPost2010Prop42
 90
       50
102
RTVSPost2010PropOp42
 70
     1
102
RTVSPost2010Prop43
 90
        3
102
RTVSPost2010PropOp43
 70
     1
102
RTVSPost2010Prop44ColorIndex
 90
        5
102
RTVSPost2010Prop44ColorRGB
 90
      255
102
RTVSPost2010PropOp44
 70
     1
102
RTVSPost2010Prop45
280
     0
102
RTVSPost2010PropOp45
 70
     1
102
RTVSPost2010Prop46
 90
       50
102
RTVSPost2010PropOp46
 70
     1
102
RTVSPost2010Prop47
 90
       50
102
RTVSPost2010PropOp47
 70
     1
102
RTVSPost2010Prop48
 90
       50
102
RTVSPost2010PropOp48
 70
     1
102
RTVSPost2010Prop49
280
     0
102
RTVSPost2010PropOp49
 70
     1
102
RTVSPost2010Prop50
 90
       50
102
RTVSPost2010PropOp50
 70
     1
102
RTVSPost2010Prop51ColorIndex
 90
      256
102
RTVSPost2010Prop51ColorRGB
 90
-16777216
102
RTVSPost2010PropOp51
 70
     0
102
RTVSPost2010Prop52
140
1.0
102
RTVSPost2010PropOp52
 70
     0
102
RTVSPost2010Prop53
 90
        2
102
RTVSPost2010PropOp53
 70
     1
102
RTVSPost2010Prop54
  1
strokes_ogs.tif
102
RTVSPost2010PropOp54
 70
     1
102
RTVSPost2010Prop55
280
     0
102
RTVSPost2010PropOp55
 70
     1
102
RTVSPost2010Prop56
140
1.0
102
RTVSPost2010PropOp56
 70
     1
102
RTVSPost2010Prop57
140
1.0
102
RTVSPost2010PropOp57
 70
     1
102
RTVSPropertyOp0
 70
     1
102
RTVSPropertyOp1
 70
     1
102
RTVSPropertyOp2
 70
     1
102
RTVSPropertyOp3
 70
     1
102
RTVSPropertyOp4
 70
     1
102
RTVSPropertyOp5
 70
     1
102
RTVSPropertyOp6
 70
     1
102
RTVSPropertyOp7
 70
     1
102
RTVSPropertyOp8
 70
     1
102
RTVSPropertyOp9
 70
     1
102
RTVSPropertyOp10
 70
     1
102
RTVSPropertyOp11
 70
     1
102
RTVSPropertyOp12
 70
     1
102
RTVSPropertyOp13
 70
     1
102
RTVSPropertyOp14
 70
     1
102
RTVSPropertyOp15
 70
     1
102
RTVSPropertyOp16
 70
     1
102
RTVSPropertyOp17
 70
     1
102
RTVSPropertyOp18
 70
     1
102
RTVSPropertyOp19
 70
     1
102
RTVSPropertyOp20
 70
     1
102
RTVSPropertyOp21
 70
     1
102
RTVSPropertyOp22
 70
     1
102
RTVSPropertyOp23
 70
     1
102
RTVSPropertyOp24
 70
     1
102
RTVSPropertyOp25
 70
     1
102
RTVSPropertyOp26
 70
     1
102
RTVSPropertyOp27
 70
     1
102
RTVSPropertyOp28
 70
     1
102
RTVSPropertyOp29
 70
     1
102
RTVSPropertyOp30
 70
     1
102
RTVSPropertyOp31
 70
     1
102
RTVSPropertyOp32
 70
     1
102
RTVSPropertyOp33
 70
     1
102
RTVSPropertyOp34
 70
     1
102
RTVSPropertyOp35
 70
     1
102
RTVSPropertyOp36
 70
     1
102
RTVSPropertyOp37
 70
     1
102
RTVSPropertyOp38
 70
     1
102
RTVSPropertyOp39
 70
     1
102
RTVSPropertyOp40
 70
     1
102
RTVSPropertyOp41
 70
     1
102
RTVSPropertyOp42
 70
     1
102
RTVSPropertyOp43
 70
     1
102
RTVSPropertyOp44
 70
     1
102
RTVSPropertyOp45
 70
     1
102
RTVSPropertyOp46
 70
     1
102
RTVSPropertyOp47
 70
     1
102
RTVSPropertyOp48
 70
     1
102
RTVSPropertyOp49
 70
     1
102
RTVSPropertyOp50
 70
     1
102
RTVSPropertyOp51
 70
     0
102
RTVSPropertyOp52
 70
     0
102
RTVSPropertyOp53
 70
     1
102
RTVSPropertyOp54
 70
     1
102
RTVSPropertyOp55
 70
     1
102
RTVSPropertyOp56
 70
     1
102
RTVSPropertyOp57
 70
     1
102
RTVSPropertyOp58
 70
     1
102
RTVSPropertyOp59
 70
     1
102
RTVSPropertyOp60
 70
     1
102
RTVSPropertyOp61
 70
     1
102
RTVSPropertyOp62
 70
     1
  0
XRECORD
  5
8770
102
{ACAD_REACTORS
330
876F
102
}
330
876F
100
AcDbXrecord
280
     1
102
RTVSPost2010Prop28
280
     0
102
RTVSPost2010PropOp28
 70
     1
102
RTVSPost2010Prop29
280
     1
102
RTVSPost2010PropOp29
 70
     1
102
RTVSPost2010Prop30
280
     1
102
RTVSPost2010PropOp30
 70
     1
102
RTVSPost2010Prop31
280
     0
102
RTVSPost2010PropOp31
 70
     1
102
RTVSPost2010Prop32
280
     0
102
RTVSPost2010PropOp32
 70
     1
102
RTVSPost2010Prop33
280
     0
102
RTVSPost2010PropOp33
 70
     1
102
RTVSPost2010Prop34
280
     0
102
RTVSPost2010PropOp34
 70
     1
102
RTVSPost2010Prop35
280
     0
102
RTVSPost2010PropOp35
 70
     1
102
RTVSPost2010Prop36
280
     0
102
RTVSPost2010PropOp36
 70
     1
102
RTVSPost2010Prop37
 90
       50
102
RTVSPost2010PropOp37
 70
     1
102
RTVSPost2010Prop38
140
0.0
102
RTVSPost2010PropOp38
 70
     1
102
RTVSPost2010Prop39
140
1.0
102
RTVSPost2010PropOp39
 70
     1
102
RTVSPost2010Prop40
 90
        0
102
RTVSPost2010PropOp40
 70
     1
102
RTVSPost2010Prop41ColorIndex
 90
       18
102
RTVSPost2010Prop41ColorRGB
 90
        0
102
RTVSPost2010PropOp41
 70
     1
102
RTVSPost2010Prop42
 90
       50
102
RTVSPost2010PropOp42
 70
     1
102
RTVSPost2010Prop43
 90
        3
102
RTVSPost2010PropOp43
 70
     1
102
RTVSPost2010Prop44ColorIndex
 90
        5
102
RTVSPost2010Prop44ColorRGB
 90
      255
102
RTVSPost2010PropOp44
 70
     1
102
RTVSPost2010Prop45
280
     0
102
RTVSPost2010PropOp45
 70
     1
102
RTVSPost2010Prop46
 90
       50
102
RTVSPost2010PropOp46
 70
     1
102
RTVSPost2010Prop47
 90
       50
102
RTVSPost2010PropOp47
 70
     1
102
RTVSPost2010Prop48
 90
       50
102
RTVSPost2010PropOp48
 70
     1
102
RTVSPost2010Prop49
280
     0
102
RTVSPost2010PropOp49
 70
     1
102
RTVSPost2010Prop50
 90
       50
102
RTVSPost2010PropOp50
 70
     1
102
RTVSPost2010Prop51ColorIndex
 90
      256
102
RTVSPost2010Prop51ColorRGB
 90
-16777216
102
RTVSPost2010PropOp51
 70
     0
102
RTVSPost2010Prop52
140
1.0
102
RTVSPost2010PropOp52
 70
     0
102
RTVSPost2010Prop53
 90
        2
102
RTVSPost2010PropOp53
 70
     1
102
RTVSPost2010Prop54
  1
strokes_ogs.tif
102
RTVSPost2010PropOp54
 70
     1
102
RTVSPost2010Prop55
280
     0
102
RTVSPost2010PropOp55
 70
     1
102
RTVSPost2010Prop56
140
1.0
102
RTVSPost2010PropOp56
 70
     1
102
RTVSPost2010Prop57
140
1.0
102
RTVSPost2010PropOp57
 70
     1
102
RTVSPropertyOp0
 70
     1
102
RTVSPropertyOp1
 70
     1
102
RTVSPropertyOp2
 70
     1
102
RTVSPropertyOp3
 70
     1
102
RTVSPropertyOp4
 70
     1
102
RTVSPropertyOp5
 70
     1
102
RTVSPropertyOp6
 70
     1
102
RTVSPropertyOp7
 70
     1
102
RTVSPropertyOp8
 70
     1
102
RTVSPropertyOp9
 70
     1
102
RTVSPropertyOp10
 70
     1
102
RTVSPropertyOp11
 70
     1
102
RTVSPropertyOp12
 70
     1
102
RTVSPropertyOp13
 70
     1
102
RTVSPropertyOp14
 70
     1
102
RTVSPropertyOp15
 70
     1
102
RTVSPropertyOp16
 70
     1
102
RTVSPropertyOp17
 70
     1
102
RTVSPropertyOp18
 70
     1
102
RTVSPropertyOp19
 70
     1
102
RTVSPropertyOp20
 70
     1
102
RTVSPropertyOp21
 70
     1
102
RTVSPropertyOp22
 70
     1
102
RTVSPropertyOp23
 70
     1
102
RTVSPropertyOp24
 70
     1
102
RTVSPropertyOp25
 70
     1
102
RTVSPropertyOp26
 70
     1
102
RTVSPropertyOp27
 70
     1
102
RTVSPropertyOp28
 70
     1
102
RTVSPropertyOp29
 70
     1
102
RTVSPropertyOp30
 70
     1
102
RTVSPropertyOp31
 70
     1
102
RTVSPropertyOp32
 70
     1
102
RTVSPropertyOp33
 70
     1
102
RTVSPropertyOp34
 70
     1
102
RTVSPropertyOp35
 70
     1
102
RTVSPropertyOp36
 70
     1
102
RTVSPropertyOp37
 70
     1
102
RTVSPropertyOp38
 70
     1
102
RTVSPropertyOp39
 70
     1
102
RTVSPropertyOp40
 70
     1
102
RTVSPropertyOp41
 70
     1
102
RTVSPropertyOp42
 70
     1
102
RTVSPropertyOp43
 70
     1
102
RTVSPropertyOp44
 70
     1
102
RTVSPropertyOp45
 70
     1
102
RTVSPropertyOp46
 70
     1
102
RTVSPropertyOp47
 70
     1
102
RTVSPropertyOp48
 70
     1
102
RTVSPropertyOp49
 70
     1
102
RTVSPropertyOp50
 70
     1
102
RTVSPropertyOp51
 70
     0
102
RTVSPropertyOp52
 70
     0
102
RTVSPropertyOp53
 70
     1
102
RTVSPropertyOp54
 70
     1
102
RTVSPropertyOp55
 70
     1
102
RTVSPropertyOp56
 70
     1
102
RTVSPropertyOp57
 70
     1
102
RTVSPropertyOp58
 70
     1
102
RTVSPropertyOp59
 70
     1
102
RTVSPropertyOp60
 70
     1
102
RTVSPropertyOp61
 70
     1
102
RTVSPropertyOp62
 70
     1
  0
XRECORD
  5
8774
102
{ACAD_REACTORS
330
8773
102
}
330
8773
100
AcDbXrecord
280
     1
102
RTVSPost2010Prop28
280
     0
102
RTVSPost2010PropOp28
 70
     1
102
RTVSPost2010Prop29
280
     1
102
RTVSPost2010PropOp29
 70
     1
102
RTVSPost2010Prop30
280
     1
102
RTVSPost2010PropOp30
 70
     1
102
RTVSPost2010Prop31
280
     0
102
RTVSPost2010PropOp31
 70
     1
102
RTVSPost2010Prop32
280
     0
102
RTVSPost2010PropOp32
 70
     1
102
RTVSPost2010Prop33
280
     0
102
RTVSPost2010PropOp33
 70
     1
102
RTVSPost2010Prop34
280
     0
102
RTVSPost2010PropOp34
 70
     1
102
RTVSPost2010Prop35
280
     0
102
RTVSPost2010PropOp35
 70
     1
102
RTVSPost2010Prop36
280
     0
102
RTVSPost2010PropOp36
 70
     1
102
RTVSPost2010Prop37
 90
       50
102
RTVSPost2010PropOp37
 70
     1
102
RTVSPost2010Prop38
140
0.0
102
RTVSPost2010PropOp38
 70
     1
102
RTVSPost2010Prop39
140
1.0
102
RTVSPost2010PropOp39
 70
     1
102
RTVSPost2010Prop40
 90
        0
102
RTVSPost2010PropOp40
 70
     1
102
RTVSPost2010Prop41ColorIndex
 90
       18
102
RTVSPost2010Prop41ColorRGB
 90
        0
102
RTVSPost2010PropOp41
 70
     1
102
RTVSPost2010Prop42
 90
       50
102
RTVSPost2010PropOp42
 70
     1
102
RTVSPost2010Prop43
 90
        3
102
RTVSPost2010PropOp43
 70
     1
102
RTVSPost2010Prop44ColorIndex
 90
        5
102
RTVSPost2010Prop44ColorRGB
 90
      255
102
RTVSPost2010PropOp44
 70
     1
102
RTVSPost2010Prop45
280
     0
102
RTVSPost2010PropOp45
 70
     1
102
RTVSPost2010Prop46
 90
       50
102
RTVSPost2010PropOp46
 70
     1
102
RTVSPost2010Prop47
 90
       50
102
RTVSPost2010PropOp47
 70
     1
102
RTVSPost2010Prop48
 90
       50
102
RTVSPost2010PropOp48
 70
     1
102
RTVSPost2010Prop49
280
     0
102
RTVSPost2010PropOp49
 70
     1
102
RTVSPost2010Prop50
 90
       50
102
RTVSPost2010PropOp50
 70
     1
102
RTVSPost2010Prop51ColorIndex
 90
      256
102
RTVSPost2010Prop51ColorRGB
 90
-16777216
102
RTVSPost2010PropOp51
 70
     0
102
RTVSPost2010Prop52
140
1.0
102
RTVSPost2010PropOp52
 70
     0
102
RTVSPost2010Prop53
 90
        2
102
RTVSPost2010PropOp53
 70
     1
102
RTVSPost2010Prop54
  1
strokes_ogs.tif
102
RTVSPost2010PropOp54
 70
     1
102
RTVSPost2010Prop55
280
     0
102
RTVSPost2010PropOp55
 70
     1
102
RTVSPost2010Prop56
140
1.0
102
RTVSPost2010PropOp56
 70
     1
102
RTVSPost2010Prop57
140
1.0
102
RTVSPost2010PropOp57
 70
     1
102
RTVSPropertyOp0
 70
     1
102
RTVSPropertyOp1
 70
     1
102
RTVSPropertyOp2
 70
     1
102
RTVSPropertyOp3
 70
     1
102
RTVSPropertyOp4
 70
     1
102
RTVSPropertyOp5
 70
     1
102
RTVSPropertyOp6
 70
     1
102
RTVSPropertyOp7
 70
     1
102
RTVSPropertyOp8
 70
     1
102
RTVSPropertyOp9
 70
     1
102
RTVSPropertyOp10
 70
     1
102
RTVSPropertyOp11
 70
     1
102
RTVSPropertyOp12
 70
     1
102
RTVSPropertyOp13
 70
     1
102
RTVSPropertyOp14
 70
     1
102
RTVSPropertyOp15
 70
     1
102
RTVSPropertyOp16
 70
     1
102
RTVSPropertyOp17
 70
     1
102
RTVSPropertyOp18
 70
     1
102
RTVSPropertyOp19
 70
     1
102
RTVSPropertyOp20
 70
     1
102
RTVSPropertyOp21
 70
     1
102
RTVSPropertyOp22
 70
     1
102
RTVSPropertyOp23
 70
     1
102
RTVSPropertyOp24
 70
     1
102
RTVSPropertyOp25
 70
     1
102
RTVSPropertyOp26
 70
     1
102
RTVSPropertyOp27
 70
     1
102
RTVSPropertyOp28
 70
     1
102
RTVSPropertyOp29
 70
     1
102
RTVSPropertyOp30
 70
     1
102
RTVSPropertyOp31
 70
     1
102
RTVSPropertyOp32
 70
     1
102
RTVSPropertyOp33
 70
     1
102
RTVSPropertyOp34
 70
     1
102
RTVSPropertyOp35
 70
     1
102
RTVSPropertyOp36
 70
     1
102
RTVSPropertyOp37
 70
     1
102
RTVSPropertyOp38
 70
     1
102
RTVSPropertyOp39
 70
     1
102
RTVSPropertyOp40
 70
     1
102
RTVSPropertyOp41
 70
     1
102
RTVSPropertyOp42
 70
     1
102
RTVSPropertyOp43
 70
     1
102
RTVSPropertyOp44
 70
     1
102
RTVSPropertyOp45
 70
     1
102
RTVSPropertyOp46
 70
     1
102
RTVSPropertyOp47
 70
     1
102
RTVSPropertyOp48
 70
     1
102
RTVSPropertyOp49
 70
     1
102
RTVSPropertyOp50
 70
     1
102
RTVSPropertyOp51
 70
     0
102
RTVSPropertyOp52
 70
     0
102
RTVSPropertyOp53
 70
     1
102
RTVSPropertyOp54
 70
     1
102
RTVSPropertyOp55
 70
     1
102
RTVSPropertyOp56
 70
     1
102
RTVSPropertyOp57
 70
     1
102
RTVSPropertyOp58
 70
     1
102
RTVSPropertyOp59
 70
     1
102
RTVSPropertyOp60
 70
     1
102
RTVSPropertyOp61
 70
     1
102
RTVSPropertyOp62
 70
     1
  0
XRECORD
  5
878E
102
{ACAD_REACTORS
330
878D
102
}
330
878D
100
AcDbXrecord
280
     1
102
RTVSPost2010Prop28
280
     0
102
RTVSPost2010PropOp28
 70
     1
102
RTVSPost2010Prop29
280
     1
102
RTVSPost2010PropOp29
 70
     1
102
RTVSPost2010Prop30
280
     1
102
RTVSPost2010PropOp30
 70
     1
102
RTVSPost2010Prop31
280
     0
102
RTVSPost2010PropOp31
 70
     1
102
RTVSPost2010Prop32
280
     0
102
RTVSPost2010PropOp32
 70
     1
102
RTVSPost2010Prop33
280
     0
102
RTVSPost2010PropOp33
 70
     1
102
RTVSPost2010Prop34
280
     0
102
RTVSPost2010PropOp34
 70
     1
102
RTVSPost2010Prop35
280
     0
102
RTVSPost2010PropOp35
 70
     1
102
RTVSPost2010Prop36
280
     0
102
RTVSPost2010PropOp36
 70
     1
102
RTVSPost2010Prop37
 90
       50
102
RTVSPost2010PropOp37
 70
     0
102
RTVSPost2010Prop38
140
0.0
102
RTVSPost2010PropOp38
 70
     0
102
RTVSPost2010Prop39
140
1.0
102
RTVSPost2010PropOp39
 70
     0
102
RTVSPost2010Prop40
 90
        0
102
RTVSPost2010PropOp40
 70
     0
102
RTVSPost2010Prop41ColorIndex
 90
       18
102
RTVSPost2010Prop41ColorRGB
 90
        0
102
RTVSPost2010PropOp41
 70
     0
102
RTVSPost2010Prop42
 90
       50
102
RTVSPost2010PropOp42
 70
     0
102
RTVSPost2010Prop43
 90
        3
102
RTVSPost2010PropOp43
 70
     0
102
RTVSPost2010Prop44ColorIndex
 90
        5
102
RTVSPost2010Prop44ColorRGB
 90
      255
102
RTVSPost2010PropOp44
 70
     0
102
RTVSPost2010Prop45
280
     0
102
RTVSPost2010PropOp45
 70
     1
102
RTVSPost2010Prop46
 90
       50
102
RTVSPost2010PropOp46
 70
     0
102
RTVSPost2010Prop47
 90
       50
102
RTVSPost2010PropOp47
 70
     0
102
RTVSPost2010Prop48
 90
       50
102
RTVSPost2010PropOp48
 70
     0
102
RTVSPost2010Prop49
280
     0
102
RTVSPost2010PropOp49
 70
     1
102
RTVSPost2010Prop50
 90
       50
102
RTVSPost2010PropOp50
 70
     0
102
RTVSPost2010Prop51ColorIndex
 90
      256
102
RTVSPost2010Prop51ColorRGB
 90
-16777216
102
RTVSPost2010PropOp51
 70
     0
102
RTVSPost2010Prop52
140
1.0
102
RTVSPost2010PropOp52
 70
     0
102
RTVSPost2010Prop53
 90
        2
102
RTVSPost2010PropOp53
 70
     0
102
RTVSPost2010Prop54
  1
strokes_ogs.tif
102
RTVSPost2010PropOp54
 70
     0
102
RTVSPost2010Prop55
280
     0
102
RTVSPost2010PropOp55
 70
     1
102
RTVSPost2010Prop56
140
1.0
102
RTVSPost2010PropOp56
 70
     0
102
RTVSPost2010Prop57
140
1.0
102
RTVSPost2010PropOp57
 70
     0
102
RTVSPropertyOp0
 70
     0
102
RTVSPropertyOp1
 70
     0
102
RTVSPropertyOp2
 70
     0
102
RTVSPropertyOp3
 70
     0
102
RTVSPropertyOp4
 70
     0
102
RTVSPropertyOp5
 70
     0
102
RTVSPropertyOp6
 70
     0
102
RTVSPropertyOp7
 70
     0
102
RTVSPropertyOp8
 70
     0
102
RTVSPropertyOp9
 70
     0
102
RTVSPropertyOp10
 70
     0
102
RTVSPropertyOp11
 70
     0
102
RTVSPropertyOp12
 70
     0
102
RTVSPropertyOp13
 70
     0
102
RTVSPropertyOp14
 70
     2
102
RTVSPropertyOp15
 70
     0
102
RTVSPropertyOp16
 70
     0
102
RTVSPropertyOp17
 70
     0
102
RTVSPropertyOp18
 70
     0
102
RTVSPropertyOp19
 70
     0
102
RTVSPropertyOp20
 70
     0
102
RTVSPropertyOp21
 70
     0
102
RTVSPropertyOp22
 70
     0
102
RTVSPropertyOp23
 70
     0
102
RTVSPropertyOp24
 70
     0
102
RTVSPropertyOp25
 70
     0
102
RTVSPropertyOp26
 70
     0
102
RTVSPropertyOp27
 70
     0
102
RTVSPropertyOp28
 70
     1
102
RTVSPropertyOp29
 70
     1
102
RTVSPropertyOp30
 70
     1
102
RTVSPropertyOp31
 70
     1
102
RTVSPropertyOp32
 70
     1
102
RTVSPropertyOp33
 70
     1
102
RTVSPropertyOp34
 70
     1
102
RTVSPropertyOp35
 70
     1
102
RTVSPropertyOp36
 70
     1
102
RTVSPropertyOp37
 70
     0
102
RTVSPropertyOp38
 70
     0
102
RTVSPropertyOp39
 70
     0
102
RTVSPropertyOp40
 70
     0
102
RTVSPropertyOp41
 70
     0
102
RTVSPropertyOp42
 70
     0
102
RTVSPropertyOp43
 70
     0
102
RTVSPropertyOp44
 70
     0
102
RTVSPropertyOp45
 70
     1
102
RTVSPropertyOp46
 70
     0
102
RTVSPropertyOp47
 70
     0
102
RTVSPropertyOp48
 70
     0
102
RTVSPropertyOp49
 70
     1
102
RTVSPropertyOp50
 70
     0
102
RTVSPropertyOp51
 70
     0
102
RTVSPropertyOp52
 70
     0
102
RTVSPropertyOp53
 70
     0
102
RTVSPropertyOp54
 70
     0
102
RTVSPropertyOp55
 70
     1
102
RTVSPropertyOp56
 70
     0
102
RTVSPropertyOp57
 70
     0
102
RTVSPropertyOp58
 70
     0
102
RTVSPropertyOp59
 70
     0
102
RTVSPropertyOp60
 70
     0
102
RTVSPropertyOp61
 70
     0
102
RTVSPropertyOp62
 70
     0
  0
XRECORD
  5
877C
102
{ACAD_REACTORS
330
877B
102
}
330
877B
100
AcDbXrecord
280
     1
102
RTVSPost2010Prop28
280
     0
102
RTVSPost2010PropOp28
 70
     1
102
RTVSPost2010Prop29
280
     1
102
RTVSPost2010PropOp29
 70
     1
102
RTVSPost2010Prop30
280
     1
102
RTVSPost2010PropOp30
 70
     1
102
RTVSPost2010Prop31
280
     0
102
RTVSPost2010PropOp31
 70
     1
102
RTVSPost2010Prop32
280
     0
102
RTVSPost2010PropOp32
 70
     1
102
RTVSPost2010Prop33
280
     0
102
RTVSPost2010PropOp33
 70
     1
102
RTVSPost2010Prop34
280
     0
102
RTVSPost2010PropOp34
 70
     1
102
RTVSPost2010Prop35
280
     0
102
RTVSPost2010PropOp35
 70
     1
102
RTVSPost2010Prop36
280
     0
102
RTVSPost2010PropOp36
 70
     1
102
RTVSPost2010Prop37
 90
       50
102
RTVSPost2010PropOp37
 70
     1
102
RTVSPost2010Prop38
140
0.0
102
RTVSPost2010PropOp38
 70
     1
102
RTVSPost2010Prop39
140
1.0
102
RTVSPost2010PropOp39
 70
     1
102
RTVSPost2010Prop40
 90
        0
102
RTVSPost2010PropOp40
 70
     1
102
RTVSPost2010Prop41ColorIndex
 90
       18
102
RTVSPost2010Prop41ColorRGB
 90
        0
102
RTVSPost2010PropOp41
 70
     1
102
RTVSPost2010Prop42
 90
       50
102
RTVSPost2010PropOp42
 70
     1
102
RTVSPost2010Prop43
 90
        3
102
RTVSPost2010PropOp43
 70
     1
102
RTVSPost2010Prop44ColorIndex
 90
        5
102
RTVSPost2010Prop44ColorRGB
 90
      255
102
RTVSPost2010PropOp44
 70
     1
102
RTVSPost2010Prop45
280
     0
102
RTVSPost2010PropOp45
 70
     1
102
RTVSPost2010Prop46
 90
       50
102
RTVSPost2010PropOp46
 70
     1
102
RTVSPost2010Prop47
 90
       50
102
RTVSPost2010PropOp47
 70
     1
102
RTVSPost2010Prop48
 90
       50
102
RTVSPost2010PropOp48
 70
     1
102
RTVSPost2010Prop49
280
     0
102
RTVSPost2010PropOp49
 70
     1
102
RTVSPost2010Prop50
 90
       50
102
RTVSPost2010PropOp50
 70
     1
102
RTVSPost2010Prop51ColorIndex
 90
      256
102
RTVSPost2010Prop51ColorRGB
 90
-16777216
102
RTVSPost2010PropOp51
 70
     0
102
RTVSPost2010Prop52
140
1.0
102
RTVSPost2010PropOp52
 70
     0
102
RTVSPost2010Prop53
 90
        2
102
RTVSPost2010PropOp53
 70
     1
102
RTVSPost2010Prop54
  1
strokes_ogs.tif
102
RTVSPost2010PropOp54
 70
     1
102
RTVSPost2010Prop55
280
     0
102
RTVSPost2010PropOp55
 70
     1
102
RTVSPost2010Prop56
140
1.0
102
RTVSPost2010PropOp56
 70
     1
102
RTVSPost2010Prop57
140
1.0
102
RTVSPost2010PropOp57
 70
     1
102
RTVSPropertyOp0
 70
     1
102
RTVSPropertyOp1
 70
     1
102
RTVSPropertyOp2
 70
     1
102
RTVSPropertyOp3
 70
     1
102
RTVSPropertyOp4
 70
     1
102
RTVSPropertyOp5
 70
     1
102
RTVSPropertyOp6
 70
     1
102
RTVSPropertyOp7
 70
     1
102
RTVSPropertyOp8
 70
     1
102
RTVSPropertyOp9
 70
     1
102
RTVSPropertyOp10
 70
     1
102
RTVSPropertyOp11
 70
     1
102
RTVSPropertyOp12
 70
     1
102
RTVSPropertyOp13
 70
     1
102
RTVSPropertyOp14
 70
     1
102
RTVSPropertyOp15
 70
     1
102
RTVSPropertyOp16
 70
     1
102
RTVSPropertyOp17
 70
     1
102
RTVSPropertyOp18
 70
     1
102
RTVSPropertyOp19
 70
     1
102
RTVSPropertyOp20
 70
     1
102
RTVSPropertyOp21
 70
     1
102
RTVSPropertyOp22
 70
     1
102
RTVSPropertyOp23
 70
     1
102
RTVSPropertyOp24
 70
     1
102
RTVSPropertyOp25
 70
     1
102
RTVSPropertyOp26
 70
     1
102
RTVSPropertyOp27
 70
     1
102
RTVSPropertyOp28
 70
     1
102
RTVSPropertyOp29
 70
     1
102
RTVSPropertyOp30
 70
     1
102
RTVSPropertyOp31
 70
     1
102
RTVSPropertyOp32
 70
     1
102
RTVSPropertyOp33
 70
     1
102
RTVSPropertyOp34
 70
     1
102
RTVSPropertyOp35
 70
     1
102
RTVSPropertyOp36
 70
     1
102
RTVSPropertyOp37
 70
     1
102
RTVSPropertyOp38
 70
     1
102
RTVSPropertyOp39
 70
     1
102
RTVSPropertyOp40
 70
     1
102
RTVSPropertyOp41
 70
     1
102
RTVSPropertyOp42
 70
     1
102
RTVSPropertyOp43
 70
     1
102
RTVSPropertyOp44
 70
     1
102
RTVSPropertyOp45
 70
     1
102
RTVSPropertyOp46
 70
     1
102
RTVSPropertyOp47
 70
     1
102
RTVSPropertyOp48
 70
     1
102
RTVSPropertyOp49
 70
     1
102
RTVSPropertyOp50
 70
     1
102
RTVSPropertyOp51
 70
     0
102
RTVSPropertyOp52
 70
     0
102
RTVSPropertyOp53
 70
     1
102
RTVSPropertyOp54
 70
     1
102
RTVSPropertyOp55
 70
     1
102
RTVSPropertyOp56
 70
     1
102
RTVSPropertyOp57
 70
     1
102
RTVSPropertyOp58
 70
     1
102
RTVSPropertyOp59
 70
     1
102
RTVSPropertyOp60
 70
     1
102
RTVSPropertyOp61
 70
     1
102
RTVSPropertyOp62
 70
     1
  0
XRECORD
  5
8760
102
{ACAD_REACTORS
330
875F
102
}
330
875F
100
AcDbXrecord
280
     1
102
RTVSPost2010Prop28
280
     0
102
RTVSPost2010PropOp28
 70
     1
102
RTVSPost2010Prop29
280
     1
102
RTVSPost2010PropOp29
 70
     1
102
RTVSPost2010Prop30
280
     1
102
RTVSPost2010PropOp30
 70
     1
102
RTVSPost2010Prop31
280
     0
102
RTVSPost2010PropOp31
 70
     1
102
RTVSPost2010Prop32
280
     0
102
RTVSPost2010PropOp32
 70
     1
102
RTVSPost2010Prop33
280
     0
102
RTVSPost2010PropOp33
 70
     1
102
RTVSPost2010Prop34
280
     0
102
RTVSPost2010PropOp34
 70
     1
102
RTVSPost2010Prop35
280
     0
102
RTVSPost2010PropOp35
 70
     1
102
RTVSPost2010Prop36
280
     0
102
RTVSPost2010PropOp36
 70
     1
102
RTVSPost2010Prop37
 90
       50
102
RTVSPost2010PropOp37
 70
     1
102
RTVSPost2010Prop38
140
0.0
102
RTVSPost2010PropOp38
 70
     1
102
RTVSPost2010Prop39
140
1.0
102
RTVSPost2010PropOp39
 70
     1
102
RTVSPost2010Prop40
 90
        0
102
RTVSPost2010PropOp40
 70
     1
102
RTVSPost2010Prop41ColorIndex
 90
       18
102
RTVSPost2010Prop41ColorRGB
 90
        0
102
RTVSPost2010PropOp41
 70
     1
102
RTVSPost2010Prop42
 90
       50
102
RTVSPost2010PropOp42
 70
     1
102
RTVSPost2010Prop43
 90
        3
102
RTVSPost2010PropOp43
 70
     1
102
RTVSPost2010Prop44ColorIndex
 90
        5
102
RTVSPost2010Prop44ColorRGB
 90
      255
102
RTVSPost2010PropOp44
 70
     1
102
RTVSPost2010Prop45
280
     0
102
RTVSPost2010PropOp45
 70
     1
102
RTVSPost2010Prop46
 90
       50
102
RTVSPost2010PropOp46
 70
     1
102
RTVSPost2010Prop47
 90
       50
102
RTVSPost2010PropOp47
 70
     1
102
RTVSPost2010Prop48
 90
       50
102
RTVSPost2010PropOp48
 70
     1
102
RTVSPost2010Prop49
280
     0
102
RTVSPost2010PropOp49
 70
     1
102
RTVSPost2010Prop50
 90
       50
102
RTVSPost2010PropOp50
 70
     1
102
RTVSPost2010Prop51ColorIndex
 90
      256
102
RTVSPost2010Prop51ColorRGB
 90
-16777216
102
RTVSPost2010PropOp51
 70
     0
102
RTVSPost2010Prop52
140
1.0
102
RTVSPost2010PropOp52
 70
     0
102
RTVSPost2010Prop53
 90
        2
102
RTVSPost2010PropOp53
 70
     1
102
RTVSPost2010Prop54
  1
strokes_ogs.tif
102
RTVSPost2010PropOp54
 70
     1
102
RTVSPost2010Prop55
280
     0
102
RTVSPost2010PropOp55
 70
     1
102
RTVSPost2010Prop56
140
1.0
102
RTVSPost2010PropOp56
 70
     1
102
RTVSPost2010Prop57
140
1.0
102
RTVSPost2010PropOp57
 70
     1
102
RTVSPropertyOp0
 70
     1
102
RTVSPropertyOp1
 70
     1
102
RTVSPropertyOp2
 70
     1
102
RTVSPropertyOp3
 70
     1
102
RTVSPropertyOp4
 70
     1
102
RTVSPropertyOp5
 70
     1
102
RTVSPropertyOp6
 70
     1
102
RTVSPropertyOp7
 70
     1
102
RTVSPropertyOp8
 70
     1
102
RTVSPropertyOp9
 70
     1
102
RTVSPropertyOp10
 70
     1
102
RTVSPropertyOp11
 70
     1
102
RTVSPropertyOp12
 70
     1
102
RTVSPropertyOp13
 70
     1
102
RTVSPropertyOp14
 70
     1
102
RTVSPropertyOp15
 70
     1
102
RTVSPropertyOp16
 70
     1
102
RTVSPropertyOp17
 70
     1
102
RTVSPropertyOp18
 70
     1
102
RTVSPropertyOp19
 70
     1
102
RTVSPropertyOp20
 70
     1
102
RTVSPropertyOp21
 70
     1
102
RTVSPropertyOp22
 70
     1
102
RTVSPropertyOp23
 70
     1
102
RTVSPropertyOp24
 70
     1
102
RTVSPropertyOp25
 70
     1
102
RTVSPropertyOp26
 70
     1
102
RTVSPropertyOp27
 70
     1
102
RTVSPropertyOp28
 70
     1
102
RTVSPropertyOp29
 70
     1
102
RTVSPropertyOp30
 70
     1
102
RTVSPropertyOp31
 70
     1
102
RTVSPropertyOp32
 70
     1
102
RTVSPropertyOp33
 70
     1
102
RTVSPropertyOp34
 70
     1
102
RTVSPropertyOp35
 70
     1
102
RTVSPropertyOp36
 70
     1
102
RTVSPropertyOp37
 70
     1
102
RTVSPropertyOp38
 70
     1
102
RTVSPropertyOp39
 70
     1
102
RTVSPropertyOp40
 70
     1
102
RTVSPropertyOp41
 70
     1
102
RTVSPropertyOp42
 70
     1
102
RTVSPropertyOp43
 70
     1
102
RTVSPropertyOp44
 70
     1
102
RTVSPropertyOp45
 70
     1
102
RTVSPropertyOp46
 70
     1
102
RTVSPropertyOp47
 70
     1
102
RTVSPropertyOp48
 70
     1
102
RTVSPropertyOp49
 70
     1
102
RTVSPropertyOp50
 70
     1
102
RTVSPropertyOp51
 70
     0
102
RTVSPropertyOp52
 70
     0
102
RTVSPropertyOp53
 70
     1
102
RTVSPropertyOp54
 70
     1
102
RTVSPropertyOp55
 70
     1
102
RTVSPropertyOp56
 70
     1
102
RTVSPropertyOp57
 70
     1
102
RTVSPropertyOp58
 70
     1
102
RTVSPropertyOp59
 70
     1
102
RTVSPropertyOp60
 70
     1
102
RTVSPropertyOp61
 70
     1
102
RTVSPropertyOp62
 70
     1
  0
XRECORD
  5
8762
102
{ACAD_REACTORS
330
8761
102
}
330
8761
100
AcDbXrecord
280
     1
102
RTVSPost2010Prop28
280
     0
102
RTVSPost2010PropOp28
 70
     1
102
RTVSPost2010Prop29
280
     1
102
RTVSPost2010PropOp29
 70
     1
102
RTVSPost2010Prop30
280
     1
102
RTVSPost2010PropOp30
 70
     1
102
RTVSPost2010Prop31
280
     0
102
RTVSPost2010PropOp31
 70
     1
102
RTVSPost2010Prop32
280
     0
102
RTVSPost2010PropOp32
 70
     1
102
RTVSPost2010Prop33
280
     0
102
RTVSPost2010PropOp33
 70
     1
102
RTVSPost2010Prop34
280
     0
102
RTVSPost2010PropOp34
 70
     1
102
RTVSPost2010Prop35
280
     0
102
RTVSPost2010PropOp35
 70
     1
102
RTVSPost2010Prop36
280
     0
102
RTVSPost2010PropOp36
 70
     1
102
RTVSPost2010Prop37
 90
       50
102
RTVSPost2010PropOp37
 70
     1
102
RTVSPost2010Prop38
140
0.0
102
RTVSPost2010PropOp38
 70
     1
102
RTVSPost2010Prop39
140
1.0
102
RTVSPost2010PropOp39
 70
     1
102
RTVSPost2010Prop40
 90
        0
102
RTVSPost2010PropOp40
 70
     1
102
RTVSPost2010Prop41ColorIndex
 90
       18
102
RTVSPost2010Prop41ColorRGB
 90
        0
102
RTVSPost2010PropOp41
 70
     1
102
RTVSPost2010Prop42
 90
       50
102
RTVSPost2010PropOp42
 70
     1
102
RTVSPost2010Prop43
 90
        3
102
RTVSPost2010PropOp43
 70
     1
102
RTVSPost2010Prop44ColorIndex
 90
        5
102
RTVSPost2010Prop44ColorRGB
 90
      255
102
RTVSPost2010PropOp44
 70
     1
102
RTVSPost2010Prop45
280
     0
102
RTVSPost2010PropOp45
 70
     1
102
RTVSPost2010Prop46
 90
       50
102
RTVSPost2010PropOp46
 70
     1
102
RTVSPost2010Prop47
 90
       50
102
RTVSPost2010PropOp47
 70
     1
102
RTVSPost2010Prop48
 90
       50
102
RTVSPost2010PropOp48
 70
     1
102
RTVSPost2010Prop49
280
     0
102
RTVSPost2010PropOp49
 70
     1
102
RTVSPost2010Prop50
 90
       50
102
RTVSPost2010PropOp50
 70
     1
102
RTVSPost2010Prop51ColorIndex
 90
      256
102
RTVSPost2010Prop51ColorRGB
 90
-16777216
102
RTVSPost2010PropOp51
 70
     0
102
RTVSPost2010Prop52
140
1.0
102
RTVSPost2010PropOp52
 70
     0
102
RTVSPost2010Prop53
 90
        2
102
RTVSPost2010PropOp53
 70
     1
102
RTVSPost2010Prop54
  1
strokes_ogs.tif
102
RTVSPost2010PropOp54
 70
     1
102
RTVSPost2010Prop55
280
     0
102
RTVSPost2010PropOp55
 70
     1
102
RTVSPost2010Prop56
140
1.0
102
RTVSPost2010PropOp56
 70
     1
102
RTVSPost2010Prop57
140
1.0
102
RTVSPost2010PropOp57
 70
     1
102
RTVSPropertyOp0
 70
     1
102
RTVSPropertyOp1
 70
     1
102
RTVSPropertyOp2
 70
     1
102
RTVSPropertyOp3
 70
     1
102
RTVSPropertyOp4
 70
     1
102
RTVSPropertyOp5
 70
     1
102
RTVSPropertyOp6
 70
     1
102
RTVSPropertyOp7
 70
     1
102
RTVSPropertyOp8
 70
     1
102
RTVSPropertyOp9
 70
     1
102
RTVSPropertyOp10
 70
     1
102
RTVSPropertyOp11
 70
     1
102
RTVSPropertyOp12
 70
     1
102
RTVSPropertyOp13
 70
     1
102
RTVSPropertyOp14
 70
     1
102
RTVSPropertyOp15
 70
     1
102
RTVSPropertyOp16
 70
     1
102
RTVSPropertyOp17
 70
     1
102
RTVSPropertyOp18
 70
     1
102
RTVSPropertyOp19
 70
     1
102
RTVSPropertyOp20
 70
     1
102
RTVSPropertyOp21
 70
     1
102
RTVSPropertyOp22
 70
     1
102
RTVSPropertyOp23
 70
     1
102
RTVSPropertyOp24
 70
     1
102
RTVSPropertyOp25
 70
     1
102
RTVSPropertyOp26
 70
     1
102
RTVSPropertyOp27
 70
     1
102
RTVSPropertyOp28
 70
     1
102
RTVSPropertyOp29
 70
     1
102
RTVSPropertyOp30
 70
     1
102
RTVSPropertyOp31
 70
     1
102
RTVSPropertyOp32
 70
     1
102
RTVSPropertyOp33
 70
     1
102
RTVSPropertyOp34
 70
     1
102
RTVSPropertyOp35
 70
     1
102
RTVSPropertyOp36
 70
     1
102
RTVSPropertyOp37
 70
     1
102
RTVSPropertyOp38
 70
     1
102
RTVSPropertyOp39
 70
     1
102
RTVSPropertyOp40
 70
     1
102
RTVSPropertyOp41
 70
     1
102
RTVSPropertyOp42
 70
     1
102
RTVSPropertyOp43
 70
     1
102
RTVSPropertyOp44
 70
     1
102
RTVSPropertyOp45
 70
     1
102
RTVSPropertyOp46
 70
     1
102
RTVSPropertyOp47
 70
     1
102
RTVSPropertyOp48
 70
     1
102
RTVSPropertyOp49
 70
     1
102
RTVSPropertyOp50
 70
     1
102
RTVSPropertyOp51
 70
     0
102
RTVSPropertyOp52
 70
     0
102
RTVSPropertyOp53
 70
     1
102
RTVSPropertyOp54
 70
     1
102
RTVSPropertyOp55
 70
     1
102
RTVSPropertyOp56
 70
     1
102
RTVSPropertyOp57
 70
     1
102
RTVSPropertyOp58
 70
     1
102
RTVSPropertyOp59
 70
     1
102
RTVSPropertyOp60
 70
     1
102
RTVSPropertyOp61
 70
     1
102
RTVSPropertyOp62
 70
     1
  0
XRECORD
  5
8764
102
{ACAD_REACTORS
330
8763
102
}
330
8763
100
AcDbXrecord
280
     1
102
RTVSPost2010Prop28
280
     0
102
RTVSPost2010PropOp28
 70
     1
102
RTVSPost2010Prop29
280
     1
102
RTVSPost2010PropOp29
 70
     1
102
RTVSPost2010Prop30
280
     1
102
RTVSPost2010PropOp30
 70
     1
102
RTVSPost2010Prop31
280
     0
102
RTVSPost2010PropOp31
 70
     1
102
RTVSPost2010Prop32
280
     0
102
RTVSPost2010PropOp32
 70
     1
102
RTVSPost2010Prop33
280
     0
102
RTVSPost2010PropOp33
 70
     1
102
RTVSPost2010Prop34
280
     0
102
RTVSPost2010PropOp34
 70
     1
102
RTVSPost2010Prop35
280
     0
102
RTVSPost2010PropOp35
 70
     1
102
RTVSPost2010Prop36
280
     0
102
RTVSPost2010PropOp36
 70
     1
102
RTVSPost2010Prop37
 90
       50
102
RTVSPost2010PropOp37
 70
     1
102
RTVSPost2010Prop38
140
0.0
102
RTVSPost2010PropOp38
 70
     1
102
RTVSPost2010Prop39
140
1.0
102
RTVSPost2010PropOp39
 70
     1
102
RTVSPost2010Prop40
 90
        0
102
RTVSPost2010PropOp40
 70
     1
102
RTVSPost2010Prop41ColorIndex
 90
       18
102
RTVSPost2010Prop41ColorRGB
 90
        0
102
RTVSPost2010PropOp41
 70
     1
102
RTVSPost2010Prop42
 90
       50
102
RTVSPost2010PropOp42
 70
     1
102
RTVSPost2010Prop43
 90
        3
102
RTVSPost2010PropOp43
 70
     1
102
RTVSPost2010Prop44ColorIndex
 90
        5
102
RTVSPost2010Prop44ColorRGB
 90
      255
102
RTVSPost2010PropOp44
 70
     1
102
RTVSPost2010Prop45
280
     0
102
RTVSPost2010PropOp45
 70
     1
102
RTVSPost2010Prop46
 90
       50
102
RTVSPost2010PropOp46
 70
     1
102
RTVSPost2010Prop47
 90
       50
102
RTVSPost2010PropOp47
 70
     1
102
RTVSPost2010Prop48
 90
       50
102
RTVSPost2010PropOp48
 70
     1
102
RTVSPost2010Prop49
280
     0
102
RTVSPost2010PropOp49
 70
     1
102
RTVSPost2010Prop50
 90
       50
102
RTVSPost2010PropOp50
 70
     1
102
RTVSPost2010Prop51ColorIndex
 90
      256
102
RTVSPost2010Prop51ColorRGB
 90
-16777216
102
RTVSPost2010PropOp51
 70
     0
102
RTVSPost2010Prop52
140
1.0
102
RTVSPost2010PropOp52
 70
     0
102
RTVSPost2010Prop53
 90
        2
102
RTVSPost2010PropOp53
 70
     1
102
RTVSPost2010Prop54
  1
strokes_ogs.tif
102
RTVSPost2010PropOp54
 70
     1
102
RTVSPost2010Prop55
280
     0
102
RTVSPost2010PropOp55
 70
     1
102
RTVSPost2010Prop56
140
1.0
102
RTVSPost2010PropOp56
 70
     1
102
RTVSPost2010Prop57
140
1.0
102
RTVSPost2010PropOp57
 70
     1
102
RTVSPropertyOp0
 70
     1
102
RTVSPropertyOp1
 70
     1
102
RTVSPropertyOp2
 70
     1
102
RTVSPropertyOp3
 70
     1
102
RTVSPropertyOp4
 70
     1
102
RTVSPropertyOp5
 70
     1
102
RTVSPropertyOp6
 70
     1
102
RTVSPropertyOp7
 70
     1
102
RTVSPropertyOp8
 70
     1
102
RTVSPropertyOp9
 70
     1
102
RTVSPropertyOp10
 70
     1
102
RTVSPropertyOp11
 70
     1
102
RTVSPropertyOp12
 70
     1
102
RTVSPropertyOp13
 70
     1
102
RTVSPropertyOp14
 70
     1
102
RTVSPropertyOp15
 70
     1
102
RTVSPropertyOp16
 70
     1
102
RTVSPropertyOp17
 70
     1
102
RTVSPropertyOp18
 70
     1
102
RTVSPropertyOp19
 70
     1
102
RTVSPropertyOp20
 70
     1
102
RTVSPropertyOp21
 70
     1
102
RTVSPropertyOp22
 70
     1
102
RTVSPropertyOp23
 70
     1
102
RTVSPropertyOp24
 70
     1
102
RTVSPropertyOp25
 70
     1
102
RTVSPropertyOp26
 70
     1
102
RTVSPropertyOp27
 70
     1
102
RTVSPropertyOp28
 70
     1
102
RTVSPropertyOp29
 70
     1
102
RTVSPropertyOp30
 70
     1
102
RTVSPropertyOp31
 70
     1
102
RTVSPropertyOp32
 70
     1
102
RTVSPropertyOp33
 70
     1
102
RTVSPropertyOp34
 70
     1
102
RTVSPropertyOp35
 70
     1
102
RTVSPropertyOp36
 70
     1
102
RTVSPropertyOp37
 70
     1
102
RTVSPropertyOp38
 70
     1
102
RTVSPropertyOp39
 70
     1
102
RTVSPropertyOp40
 70
     1
102
RTVSPropertyOp41
 70
     1
102
RTVSPropertyOp42
 70
     1
102
RTVSPropertyOp43
 70
     1
102
RTVSPropertyOp44
 70
     1
102
RTVSPropertyOp45
 70
     1
102
RTVSPropertyOp46
 70
     1
102
RTVSPropertyOp47
 70
     1
102
RTVSPropertyOp48
 70
     1
102
RTVSPropertyOp49
 70
     1
102
RTVSPropertyOp50
 70
     1
102
RTVSPropertyOp51
 70
     0
102
RTVSPropertyOp52
 70
     0
102
RTVSPropertyOp53
 70
     1
102
RTVSPropertyOp54
 70
     1
102
RTVSPropertyOp55
 70
     1
102
RTVSPropertyOp56
 70
     1
102
RTVSPropertyOp57
 70
     1
102
RTVSPropertyOp58
 70
     1
102
RTVSPropertyOp59
 70
     1
102
RTVSPropertyOp60
 70
     1
102
RTVSPropertyOp61
 70
     1
102
RTVSPropertyOp62
 70
     1
  0
XRECORD
  5
8766
102
{ACAD_REACTORS
330
8765
102
}
330
8765
100
AcDbXrecord
280
     1
102
RTVSPost2010Prop28
280
     0
102
RTVSPost2010PropOp28
 70
     1
102
RTVSPost2010Prop29
280
     1
102
RTVSPost2010PropOp29
 70
     1
102
RTVSPost2010Prop30
280
     1
102
RTVSPost2010PropOp30
 70
     1
102
RTVSPost2010Prop31
280
     0
102
RTVSPost2010PropOp31
 70
     1
102
RTVSPost2010Prop32
280
     0
102
RTVSPost2010PropOp32
 70
     1
102
RTVSPost2010Prop33
280
     0
102
RTVSPost2010PropOp33
 70
     1
102
RTVSPost2010Prop34
280
     0
102
RTVSPost2010PropOp34
 70
     1
102
RTVSPost2010Prop35
280
     0
102
RTVSPost2010PropOp35
 70
     1
102
RTVSPost2010Prop36
280
     0
102
RTVSPost2010PropOp36
 70
     1
102
RTVSPost2010Prop37
 90
       50
102
RTVSPost2010PropOp37
 70
     1
102
RTVSPost2010Prop38
140
0.0
102
RTVSPost2010PropOp38
 70
     1
102
RTVSPost2010Prop39
140
1.0
102
RTVSPost2010PropOp39
 70
     1
102
RTVSPost2010Prop40
 90
        0
102
RTVSPost2010PropOp40
 70
     1
102
RTVSPost2010Prop41ColorIndex
 90
       18
102
RTVSPost2010Prop41ColorRGB
 90
        0
102
RTVSPost2010PropOp41
 70
     1
102
RTVSPost2010Prop42
 90
       50
102
RTVSPost2010PropOp42
 70
     1
102
RTVSPost2010Prop43
 90
        3
102
RTVSPost2010PropOp43
 70
     1
102
RTVSPost2010Prop44ColorIndex
 90
        5
102
RTVSPost2010Prop44ColorRGB
 90
      255
102
RTVSPost2010PropOp44
 70
     1
102
RTVSPost2010Prop45
280
     0
102
RTVSPost2010PropOp45
 70
     1
102
RTVSPost2010Prop46
 90
       50
102
RTVSPost2010PropOp46
 70
     1
102
RTVSPost2010Prop47
 90
       50
102
RTVSPost2010PropOp47
 70
     1
102
RTVSPost2010Prop48
 90
       50
102
RTVSPost2010PropOp48
 70
     1
102
RTVSPost2010Prop49
280
     0
102
RTVSPost2010PropOp49
 70
     1
102
RTVSPost2010Prop50
 90
       50
102
RTVSPost2010PropOp50
 70
     1
102
RTVSPost2010Prop51ColorIndex
 90
      256
102
RTVSPost2010Prop51ColorRGB
 90
-16777216
102
RTVSPost2010PropOp51
 70
     0
102
RTVSPost2010Prop52
140
1.0
102
RTVSPost2010PropOp52
 70
     0
102
RTVSPost2010Prop53
 90
        2
102
RTVSPost2010PropOp53
 70
     1
102
RTVSPost2010Prop54
  1
strokes_ogs.tif
102
RTVSPost2010PropOp54
 70
     1
102
RTVSPost2010Prop55
280
     0
102
RTVSPost2010PropOp55
 70
     1
102
RTVSPost2010Prop56
140
1.0
102
RTVSPost2010PropOp56
 70
     1
102
RTVSPost2010Prop57
140
1.0
102
RTVSPost2010PropOp57
 70
     1
102
RTVSPropertyOp0
 70
     1
102
RTVSPropertyOp1
 70
     1
102
RTVSPropertyOp2
 70
     1
102
RTVSPropertyOp3
 70
     1
102
RTVSPropertyOp4
 70
     1
102
RTVSPropertyOp5
 70
     1
102
RTVSPropertyOp6
 70
     1
102
RTVSPropertyOp7
 70
     1
102
RTVSPropertyOp8
 70
     1
102
RTVSPropertyOp9
 70
     1
102
RTVSPropertyOp10
 70
     1
102
RTVSPropertyOp11
 70
     1
102
RTVSPropertyOp12
 70
     1
102
RTVSPropertyOp13
 70
     1
102
RTVSPropertyOp14
 70
     1
102
RTVSPropertyOp15
 70
     1
102
RTVSPropertyOp16
 70
     1
102
RTVSPropertyOp17
 70
     1
102
RTVSPropertyOp18
 70
     1
102
RTVSPropertyOp19
 70
     1
102
RTVSPropertyOp20
 70
     1
102
RTVSPropertyOp21
 70
     1
102
RTVSPropertyOp22
 70
     1
102
RTVSPropertyOp23
 70
     1
102
RTVSPropertyOp24
 70
     1
102
RTVSPropertyOp25
 70
     1
102
RTVSPropertyOp26
 70
     1
102
RTVSPropertyOp27
 70
     1
102
RTVSPropertyOp28
 70
     1
102
RTVSPropertyOp29
 70
     1
102
RTVSPropertyOp30
 70
     1
102
RTVSPropertyOp31
 70
     1
102
RTVSPropertyOp32
 70
     1
102
RTVSPropertyOp33
 70
     1
102
RTVSPropertyOp34
 70
     1
102
RTVSPropertyOp35
 70
     1
102
RTVSPropertyOp36
 70
     1
102
RTVSPropertyOp37
 70
     1
102
RTVSPropertyOp38
 70
     1
102
RTVSPropertyOp39
 70
     1
102
RTVSPropertyOp40
 70
     1
102
RTVSPropertyOp41
 70
     1
102
RTVSPropertyOp42
 70
     1
102
RTVSPropertyOp43
 70
     1
102
RTVSPropertyOp44
 70
     1
102
RTVSPropertyOp45
 70
     1
102
RTVSPropertyOp46
 70
     1
102
RTVSPropertyOp47
 70
     1
102
RTVSPropertyOp48
 70
     1
102
RTVSPropertyOp49
 70
     1
102
RTVSPropertyOp50
 70
     1
102
RTVSPropertyOp51
 70
     0
102
RTVSPropertyOp52
 70
     0
102
RTVSPropertyOp53
 70
     1
102
RTVSPropertyOp54
 70
     1
102
RTVSPropertyOp55
 70
     1
102
RTVSPropertyOp56
 70
     1
102
RTVSPropertyOp57
 70
     1
102
RTVSPropertyOp58
 70
     1
102
RTVSPropertyOp59
 70
     1
102
RTVSPropertyOp60
 70
     1
102
RTVSPropertyOp61
 70
     1
102
RTVSPropertyOp62
 70
     1
  0
XRECORD
  5
876E
102
{ACAD_REACTORS
330
876D
102
}
330
876D
100
AcDbXrecord
280
     1
102
RTVSPost2010Prop28
280
     0
102
RTVSPost2010PropOp28
 70
     1
102
RTVSPost2010Prop29
280
     1
102
RTVSPost2010PropOp29
 70
     1
102
RTVSPost2010Prop30
280
     1
102
RTVSPost2010PropOp30
 70
     1
102
RTVSPost2010Prop31
280
     0
102
RTVSPost2010PropOp31
 70
     1
102
RTVSPost2010Prop32
280
     0
102
RTVSPost2010PropOp32
 70
     1
102
RTVSPost2010Prop33
280
     0
102
RTVSPost2010PropOp33
 70
     1
102
RTVSPost2010Prop34
280
     0
102
RTVSPost2010PropOp34
 70
     1
102
RTVSPost2010Prop35
280
     0
102
RTVSPost2010PropOp35
 70
     1
102
RTVSPost2010Prop36
280
     0
102
RTVSPost2010PropOp36
 70
     1
102
RTVSPost2010Prop37
 90
       50
102
RTVSPost2010PropOp37
 70
     1
102
RTVSPost2010Prop38
140
0.0
102
RTVSPost2010PropOp38
 70
     1
102
RTVSPost2010Prop39
140
1.0
102
RTVSPost2010PropOp39
 70
     1
102
RTVSPost2010Prop40
 90
        0
102
RTVSPost2010PropOp40
 70
     1
102
RTVSPost2010Prop41ColorIndex
 90
       18
102
RTVSPost2010Prop41ColorRGB
 90
        0
102
RTVSPost2010PropOp41
 70
     1
102
RTVSPost2010Prop42
 90
       50
102
RTVSPost2010PropOp42
 70
     1
102
RTVSPost2010Prop43
 90
        3
102
RTVSPost2010PropOp43
 70
     1
102
RTVSPost2010Prop44ColorIndex
 90
        5
102
RTVSPost2010Prop44ColorRGB
 90
      255
102
RTVSPost2010PropOp44
 70
     1
102
RTVSPost2010Prop45
280
     0
102
RTVSPost2010PropOp45
 70
     1
102
RTVSPost2010Prop46
 90
       50
102
RTVSPost2010PropOp46
 70
     1
102
RTVSPost2010Prop47
 90
       50
102
RTVSPost2010PropOp47
 70
     1
102
RTVSPost2010Prop48
 90
       50
102
RTVSPost2010PropOp48
 70
     1
102
RTVSPost2010Prop49
280
     0
102
RTVSPost2010PropOp49
 70
     1
102
RTVSPost2010Prop50
 90
       50
102
RTVSPost2010PropOp50
 70
     1
102
RTVSPost2010Prop51ColorIndex
 90
      256
102
RTVSPost2010Prop51ColorRGB
 90
-16777216
102
RTVSPost2010PropOp51
 70
     0
102
RTVSPost2010Prop52
140
1.0
102
RTVSPost2010PropOp52
 70
     0
102
RTVSPost2010Prop53
 90
        2
102
RTVSPost2010PropOp53
 70
     1
102
RTVSPost2010Prop54
  1
strokes_ogs.tif
102
RTVSPost2010PropOp54
 70
     1
102
RTVSPost2010Prop55
280
     0
102
RTVSPost2010PropOp55
 70
     1
102
RTVSPost2010Prop56
140
1.0
102
RTVSPost2010PropOp56
 70
     1
102
RTVSPost2010Prop57
140
1.0
102
RTVSPost2010PropOp57
 70
     1
102
RTVSPropertyOp0
 70
     1
102
RTVSPropertyOp1
 70
     1
102
RTVSPropertyOp2
 70
     1
102
RTVSPropertyOp3
 70
     1
102
RTVSPropertyOp4
 70
     1
102
RTVSPropertyOp5
 70
     1
102
RTVSPropertyOp6
 70
     1
102
RTVSPropertyOp7
 70
     1
102
RTVSPropertyOp8
 70
     1
102
RTVSPropertyOp9
 70
     1
102
RTVSPropertyOp10
 70
     1
102
RTVSPropertyOp11
 70
     1
102
RTVSPropertyOp12
 70
     1
102
RTVSPropertyOp13
 70
     1
102
RTVSPropertyOp14
 70
     1
102
RTVSPropertyOp15
 70
     1
102
RTVSPropertyOp16
 70
     1
102
RTVSPropertyOp17
 70
     1
102
RTVSPropertyOp18
 70
     1
102
RTVSPropertyOp19
 70
     1
102
RTVSPropertyOp20
 70
     1
102
RTVSPropertyOp21
 70
     1
102
RTVSPropertyOp22
 70
     1
102
RTVSPropertyOp23
 70
     1
102
RTVSPropertyOp24
 70
     1
102
RTVSPropertyOp25
 70
     1
102
RTVSPropertyOp26
 70
     1
102
RTVSPropertyOp27
 70
     1
102
RTVSPropertyOp28
 70
     1
102
RTVSPropertyOp29
 70
     1
102
RTVSPropertyOp30
 70
     1
102
RTVSPropertyOp31
 70
     1
102
RTVSPropertyOp32
 70
     1
102
RTVSPropertyOp33
 70
     1
102
RTVSPropertyOp34
 70
     1
102
RTVSPropertyOp35
 70
     1
102
RTVSPropertyOp36
 70
     1
102
RTVSPropertyOp37
 70
     1
102
RTVSPropertyOp38
 70
     1
102
RTVSPropertyOp39
 70
     1
102
RTVSPropertyOp40
 70
     1
102
RTVSPropertyOp41
 70
     1
102
RTVSPropertyOp42
 70
     1
102
RTVSPropertyOp43
 70
     1
102
RTVSPropertyOp44
 70
     1
102
RTVSPropertyOp45
 70
     1
102
RTVSPropertyOp46
 70
     1
102
RTVSPropertyOp47
 70
     1
102
RTVSPropertyOp48
 70
     1
102
RTVSPropertyOp49
 70
     1
102
RTVSPropertyOp50
 70
     1
102
RTVSPropertyOp51
 70
     0
102
RTVSPropertyOp52
 70
     0
102
RTVSPropertyOp53
 70
     1
102
RTVSPropertyOp54
 70
     1
102
RTVSPropertyOp55
 70
     1
102
RTVSPropertyOp56
 70
     1
102
RTVSPropertyOp57
 70
     1
102
RTVSPropertyOp58
 70
     1
102
RTVSPropertyOp59
 70
     1
102
RTVSPropertyOp60
 70
     1
102
RTVSPropertyOp61
 70
     1
102
RTVSPropertyOp62
 70
     1
  0
XRECORD
  5
878A
102
{ACAD_REACTORS
330
8789
102
}
330
8789
100
AcDbXrecord
280
     1
102
RTVSPost2010Prop28
280
     0
102
RTVSPost2010PropOp28
 70
     1
102
RTVSPost2010Prop29
280
     1
102
RTVSPost2010PropOp29
 70
     1
102
RTVSPost2010Prop30
280
     1
102
RTVSPost2010PropOp30
 70
     1
102
RTVSPost2010Prop31
280
     0
102
RTVSPost2010PropOp31
 70
     1
102
RTVSPost2010Prop32
280
     0
102
RTVSPost2010PropOp32
 70
     1
102
RTVSPost2010Prop33
280
     0
102
RTVSPost2010PropOp33
 70
     1
102
RTVSPost2010Prop34
280
     0
102
RTVSPost2010PropOp34
 70
     1
102
RTVSPost2010Prop35
280
     0
102
RTVSPost2010PropOp35
 70
     1
102
RTVSPost2010Prop36
280
     0
102
RTVSPost2010PropOp36
 70
     1
102
RTVSPost2010Prop37
 90
       50
102
RTVSPost2010PropOp37
 70
     0
102
RTVSPost2010Prop38
140
0.0
102
RTVSPost2010PropOp38
 70
     0
102
RTVSPost2010Prop39
140
1.0
102
RTVSPost2010PropOp39
 70
     0
102
RTVSPost2010Prop40
 90
        0
102
RTVSPost2010PropOp40
 70
     0
102
RTVSPost2010Prop41ColorIndex
 90
       18
102
RTVSPost2010Prop41ColorRGB
 90
        0
102
RTVSPost2010PropOp41
 70
     0
102
RTVSPost2010Prop42
 90
       50
102
RTVSPost2010PropOp42
 70
     0
102
RTVSPost2010Prop43
 90
        3
102
RTVSPost2010PropOp43
 70
     0
102
RTVSPost2010Prop44ColorIndex
 90
        5
102
RTVSPost2010Prop44ColorRGB
 90
      255
102
RTVSPost2010PropOp44
 70
     0
102
RTVSPost2010Prop45
280
     0
102
RTVSPost2010PropOp45
 70
     1
102
RTVSPost2010Prop46
 90
       50
102
RTVSPost2010PropOp46
 70
     0
102
RTVSPost2010Prop47
 90
       50
102
RTVSPost2010PropOp47
 70
     0
102
RTVSPost2010Prop48
 90
       50
102
RTVSPost2010PropOp48
 70
     0
102
RTVSPost2010Prop49
280
     0
102
RTVSPost2010PropOp49
 70
     1
102
RTVSPost2010Prop50
 90
       50
102
RTVSPost2010PropOp50
 70
     0
102
RTVSPost2010Prop51ColorIndex
 90
      256
102
RTVSPost2010Prop51ColorRGB
 90
-16777216
102
RTVSPost2010PropOp51
 70
     0
102
RTVSPost2010Prop52
140
1.0
102
RTVSPost2010PropOp52
 70
     0
102
RTVSPost2010Prop53
 90
        2
102
RTVSPost2010PropOp53
 70
     0
102
RTVSPost2010Prop54
  1
strokes_ogs.tif
102
RTVSPost2010PropOp54
 70
     0
102
RTVSPost2010Prop55
280
     0
102
RTVSPost2010PropOp55
 70
     1
102
RTVSPost2010Prop56
140
1.0
102
RTVSPost2010PropOp56
 70
     0
102
RTVSPost2010Prop57
140
1.0
102
RTVSPost2010PropOp57
 70
     0
102
RTVSPropertyOp0
 70
     0
102
RTVSPropertyOp1
 70
     0
102
RTVSPropertyOp2
 70
     0
102
RTVSPropertyOp3
 70
     0
102
RTVSPropertyOp4
 70
     0
102
RTVSPropertyOp5
 70
     0
102
RTVSPropertyOp6
 70
     0
102
RTVSPropertyOp7
 70
     0
102
RTVSPropertyOp8
 70
     0
102
RTVSPropertyOp9
 70
     0
102
RTVSPropertyOp10
 70
     0
102
RTVSPropertyOp11
 70
     0
102
RTVSPropertyOp12
 70
     0
102
RTVSPropertyOp13
 70
     0
102
RTVSPropertyOp14
 70
     2
102
RTVSPropertyOp15
 70
     0
102
RTVSPropertyOp16
 70
     0
102
RTVSPropertyOp17
 70
     0
102
RTVSPropertyOp18
 70
     0
102
RTVSPropertyOp19
 70
     0
102
RTVSPropertyOp20
 70
     0
102
RTVSPropertyOp21
 70
     0
102
RTVSPropertyOp22
 70
     0
102
RTVSPropertyOp23
 70
     0
102
RTVSPropertyOp24
 70
     0
102
RTVSPropertyOp25
 70
     0
102
RTVSPropertyOp26
 70
     0
102
RTVSPropertyOp27
 70
     0
102
RTVSPropertyOp28
 70
     1
102
RTVSPropertyOp29
 70
     1
102
RTVSPropertyOp30
 70
     1
102
RTVSPropertyOp31
 70
     1
102
RTVSPropertyOp32
 70
     1
102
RTVSPropertyOp33
 70
     1
102
RTVSPropertyOp34
 70
     1
102
RTVSPropertyOp35
 70
     1
102
RTVSPropertyOp36
 70
     1
102
RTVSPropertyOp37
 70
     0
102
RTVSPropertyOp38
 70
     0
102
RTVSPropertyOp39
 70
     0
102
RTVSPropertyOp40
 70
     0
102
RTVSPropertyOp41
 70
     0
102
RTVSPropertyOp42
 70
     0
102
RTVSPropertyOp43
 70
     0
102
RTVSPropertyOp44
 70
     0
102
RTVSPropertyOp45
 70
     1
102
RTVSPropertyOp46
 70
     0
102
RTVSPropertyOp47
 70
     0
102
RTVSPropertyOp48
 70
     0
102
RTVSPropertyOp49
 70
     1
102
RTVSPropertyOp50
 70
     0
102
RTVSPropertyOp51
 70
     0
102
RTVSPropertyOp52
 70
     0
102
RTVSPropertyOp53
 70
     0
102
RTVSPropertyOp54
 70
     0
102
RTVSPropertyOp55
 70
     1
102
RTVSPropertyOp56
 70
     0
102
RTVSPropertyOp57
 70
     0
102
RTVSPropertyOp58
 70
     0
102
RTVSPropertyOp59
 70
     0
102
RTVSPropertyOp60
 70
     0
102
RTVSPropertyOp61
 70
     0
102
RTVSPropertyOp62
 70
     0
  0
XRECORD
  5
877A
102
{ACAD_REACTORS
330
8779
102
}
330
8779
100
AcDbXrecord
280
     1
102
RTVSPost2010Prop28
280
     0
102
RTVSPost2010PropOp28
 70
     1
102
RTVSPost2010Prop29
280
     1
102
RTVSPost2010PropOp29
 70
     1
102
RTVSPost2010Prop30
280
     1
102
RTVSPost2010PropOp30
 70
     1
102
RTVSPost2010Prop31
280
     0
102
RTVSPost2010PropOp31
 70
     1
102
RTVSPost2010Prop32
280
     0
102
RTVSPost2010PropOp32
 70
     1
102
RTVSPost2010Prop33
280
     0
102
RTVSPost2010PropOp33
 70
     1
102
RTVSPost2010Prop34
280
     0
102
RTVSPost2010PropOp34
 70
     1
102
RTVSPost2010Prop35
280
     0
102
RTVSPost2010PropOp35
 70
     1
102
RTVSPost2010Prop36
280
     0
102
RTVSPost2010PropOp36
 70
     1
102
RTVSPost2010Prop37
 90
       50
102
RTVSPost2010PropOp37
 70
     1
102
RTVSPost2010Prop38
140
0.0
102
RTVSPost2010PropOp38
 70
     1
102
RTVSPost2010Prop39
140
1.0
102
RTVSPost2010PropOp39
 70
     1
102
RTVSPost2010Prop40
 90
        0
102
RTVSPost2010PropOp40
 70
     1
102
RTVSPost2010Prop41ColorIndex
 90
       18
102
RTVSPost2010Prop41ColorRGB
 90
        0
102
RTVSPost2010PropOp41
 70
     1
102
RTVSPost2010Prop42
 90
       50
102
RTVSPost2010PropOp42
 70
     1
102
RTVSPost2010Prop43
 90
        3
102
RTVSPost2010PropOp43
 70
     1
102
RTVSPost2010Prop44ColorIndex
 90
        5
102
RTVSPost2010Prop44ColorRGB
 90
      255
102
RTVSPost2010PropOp44
 70
     1
102
RTVSPost2010Prop45
280
     0
102
RTVSPost2010PropOp45
 70
     1
102
RTVSPost2010Prop46
 90
       50
102
RTVSPost2010PropOp46
 70
     1
102
RTVSPost2010Prop47
 90
       50
102
RTVSPost2010PropOp47
 70
     1
102
RTVSPost2010Prop48
 90
       50
102
RTVSPost2010PropOp48
 70
     1
102
RTVSPost2010Prop49
280
     0
102
RTVSPost2010PropOp49
 70
     1
102
RTVSPost2010Prop50
 90
       50
102
RTVSPost2010PropOp50
 70
     1
102
RTVSPost2010Prop51ColorIndex
 90
      256
102
RTVSPost2010Prop51ColorRGB
 90
-16777216
102
RTVSPost2010PropOp51
 70
     0
102
RTVSPost2010Prop52
140
1.0
102
RTVSPost2010PropOp52
 70
     0
102
RTVSPost2010Prop53
 90
        2
102
RTVSPost2010PropOp53
 70
     1
102
RTVSPost2010Prop54
  1
strokes_ogs.tif
102
RTVSPost2010PropOp54
 70
     1
102
RTVSPost2010Prop55
280
     0
102
RTVSPost2010PropOp55
 70
     1
102
RTVSPost2010Prop56
140
1.0
102
RTVSPost2010PropOp56
 70
     1
102
RTVSPost2010Prop57
140
1.0
102
RTVSPost2010PropOp57
 70
     1
102
RTVSPropertyOp0
 70
     1
102
RTVSPropertyOp1
 70
     1
102
RTVSPropertyOp2
 70
     1
102
RTVSPropertyOp3
 70
     1
102
RTVSPropertyOp4
 70
     1
102
RTVSPropertyOp5
 70
     1
102
RTVSPropertyOp6
 70
     1
102
RTVSPropertyOp7
 70
     1
102
RTVSPropertyOp8
 70
     1
102
RTVSPropertyOp9
 70
     1
102
RTVSPropertyOp10
 70
     1
102
RTVSPropertyOp11
 70
     1
102
RTVSPropertyOp12
 70
     1
102
RTVSPropertyOp13
 70
     1
102
RTVSPropertyOp14
 70
     1
102
RTVSPropertyOp15
 70
     1
102
RTVSPropertyOp16
 70
     1
102
RTVSPropertyOp17
 70
     1
102
RTVSPropertyOp18
 70
     1
102
RTVSPropertyOp19
 70
     1
102
RTVSPropertyOp20
 70
     1
102
RTVSPropertyOp21
 70
     1
102
RTVSPropertyOp22
 70
     1
102
RTVSPropertyOp23
 70
     1
102
RTVSPropertyOp24
 70
     1
102
RTVSPropertyOp25
 70
     1
102
RTVSPropertyOp26
 70
     1
102
RTVSPropertyOp27
 70
     1
102
RTVSPropertyOp28
 70
     1
102
RTVSPropertyOp29
 70
     1
102
RTVSPropertyOp30
 70
     1
102
RTVSPropertyOp31
 70
     1
102
RTVSPropertyOp32
 70
     1
102
RTVSPropertyOp33
 70
     1
102
RTVSPropertyOp34
 70
     1
102
RTVSPropertyOp35
 70
     1
102
RTVSPropertyOp36
 70
     1
102
RTVSPropertyOp37
 70
     1
102
RTVSPropertyOp38
 70
     1
102
RTVSPropertyOp39
 70
     1
102
RTVSPropertyOp40
 70
     1
102
RTVSPropertyOp41
 70
     1
102
RTVSPropertyOp42
 70
     1
102
RTVSPropertyOp43
 70
     1
102
RTVSPropertyOp44
 70
     1
102
RTVSPropertyOp45
 70
     1
102
RTVSPropertyOp46
 70
     1
102
RTVSPropertyOp47
 70
     1
102
RTVSPropertyOp48
 70
     1
102
RTVSPropertyOp49
 70
     1
102
RTVSPropertyOp50
 70
     1
102
RTVSPropertyOp51
 70
     0
102
RTVSPropertyOp52
 70
     0
102
RTVSPropertyOp53
 70
     1
102
RTVSPropertyOp54
 70
     1
102
RTVSPropertyOp55
 70
     1
102
RTVSPropertyOp56
 70
     1
102
RTVSPropertyOp57
 70
     1
102
RTVSPropertyOp58
 70
     1
102
RTVSPropertyOp59
 70
     1
102
RTVSPropertyOp60
 70
     1
102
RTVSPropertyOp61
 70
     1
102
RTVSPropertyOp62
 70
     1
  0
XRECORD
  5
878C
102
{ACAD_REACTORS
330
878B
102
}
330
878B
100
AcDbXrecord
280
     1
102
RTVSPost2010Prop28
280
     0
102
RTVSPost2010PropOp28
 70
     1
102
RTVSPost2010Prop29
280
     1
102
RTVSPost2010PropOp29
 70
     1
102
RTVSPost2010Prop30
280
     1
102
RTVSPost2010PropOp30
 70
     1
102
RTVSPost2010Prop31
280
     0
102
RTVSPost2010PropOp31
 70
     1
102
RTVSPost2010Prop32
280
     0
102
RTVSPost2010PropOp32
 70
     1
102
RTVSPost2010Prop33
280
     0
102
RTVSPost2010PropOp33
 70
     1
102
RTVSPost2010Prop34
280
     0
102
RTVSPost2010PropOp34
 70
     1
102
RTVSPost2010Prop35
280
     0
102
RTVSPost2010PropOp35
 70
     1
102
RTVSPost2010Prop36
280
     0
102
RTVSPost2010PropOp36
 70
     1
102
RTVSPost2010Prop37
 90
       50
102
RTVSPost2010PropOp37
 70
     0
102
RTVSPost2010Prop38
140
0.0
102
RTVSPost2010PropOp38
 70
     0
102
RTVSPost2010Prop39
140
1.0
102
RTVSPost2010PropOp39
 70
     0
102
RTVSPost2010Prop40
 90
        0
102
RTVSPost2010PropOp40
 70
     0
102
RTVSPost2010Prop41ColorIndex
 90
       18
102
RTVSPost2010Prop41ColorRGB
 90
        0
102
RTVSPost2010PropOp41
 70
     0
102
RTVSPost2010Prop42
 90
       50
102
RTVSPost2010PropOp42
 70
     0
102
RTVSPost2010Prop43
 90
        3
102
RTVSPost2010PropOp43
 70
     0
102
RTVSPost2010Prop44ColorIndex
 90
        5
102
RTVSPost2010Prop44ColorRGB
 90
      255
102
RTVSPost2010PropOp44
 70
     0
102
RTVSPost2010Prop45
280
     0
102
RTVSPost2010PropOp45
 70
     1
102
RTVSPost2010Prop46
 90
       50
102
RTVSPost2010PropOp46
 70
     0
102
RTVSPost2010Prop47
 90
       50
102
RTVSPost2010PropOp47
 70
     0
102
RTVSPost2010Prop48
 90
       50
102
RTVSPost2010PropOp48
 70
     0
102
RTVSPost2010Prop49
280
     0
102
RTVSPost2010PropOp49
 70
     1
102
RTVSPost2010Prop50
 90
       50
102
RTVSPost2010PropOp50
 70
     0
102
RTVSPost2010Prop51ColorIndex
 90
      256
102
RTVSPost2010Prop51ColorRGB
 90
-16777216
102
RTVSPost2010PropOp51
 70
     0
102
RTVSPost2010Prop52
140
1.0
102
RTVSPost2010PropOp52
 70
     0
102
RTVSPost2010Prop53
 90
        2
102
RTVSPost2010PropOp53
 70
     0
102
RTVSPost2010Prop54
  1
strokes_ogs.tif
102
RTVSPost2010PropOp54
 70
     0
102
RTVSPost2010Prop55
280
     0
102
RTVSPost2010PropOp55
 70
     1
102
RTVSPost2010Prop56
140
1.0
102
RTVSPost2010PropOp56
 70
     0
102
RTVSPost2010Prop57
140
1.0
102
RTVSPost2010PropOp57
 70
     0
102
RTVSPropertyOp0
 70
     0
102
RTVSPropertyOp1
 70
     0
102
RTVSPropertyOp2
 70
     0
102
RTVSPropertyOp3
 70
     0
102
RTVSPropertyOp4
 70
     0
102
RTVSPropertyOp5
 70
     0
102
RTVSPropertyOp6
 70
     0
102
RTVSPropertyOp7
 70
     0
102
RTVSPropertyOp8
 70
     0
102
RTVSPropertyOp9
 70
     0
102
RTVSPropertyOp10
 70
     0
102
RTVSPropertyOp11
 70
     0
102
RTVSPropertyOp12
 70
     0
102
RTVSPropertyOp13
 70
     0
102
RTVSPropertyOp14
 70
     2
102
RTVSPropertyOp15
 70
     0
102
RTVSPropertyOp16
 70
     0
102
RTVSPropertyOp17
 70
     0
102
RTVSPropertyOp18
 70
     0
102
RTVSPropertyOp19
 70
     0
102
RTVSPropertyOp20
 70
     0
102
RTVSPropertyOp21
 70
     0
102
RTVSPropertyOp22
 70
     0
102
RTVSPropertyOp23
 70
     0
102
RTVSPropertyOp24
 70
     0
102
RTVSPropertyOp25
 70
     0
102
RTVSPropertyOp26
 70
     0
102
RTVSPropertyOp27
 70
     0
102
RTVSPropertyOp28
 70
     1
102
RTVSPropertyOp29
 70
     1
102
RTVSPropertyOp30
 70
     1
102
RTVSPropertyOp31
 70
     1
102
RTVSPropertyOp32
 70
     1
102
RTVSPropertyOp33
 70
     1
102
RTVSPropertyOp34
 70
     1
102
RTVSPropertyOp35
 70
     1
102
RTVSPropertyOp36
 70
     1
102
RTVSPropertyOp37
 70
     0
102
RTVSPropertyOp38
 70
     0
102
RTVSPropertyOp39
 70
     0
102
RTVSPropertyOp40
 70
     0
102
RTVSPropertyOp41
 70
     0
102
RTVSPropertyOp42
 70
     0
102
RTVSPropertyOp43
 70
     0
102
RTVSPropertyOp44
 70
     0
102
RTVSPropertyOp45
 70
     1
102
RTVSPropertyOp46
 70
     0
102
RTVSPropertyOp47
 70
     0
102
RTVSPropertyOp48
 70
     0
102
RTVSPropertyOp49
 70
     1
102
RTVSPropertyOp50
 70
     0
102
RTVSPropertyOp51
 70
     0
102
RTVSPropertyOp52
 70
     0
102
RTVSPropertyOp53
 70
     0
102
RTVSPropertyOp54
 70
     0
102
RTVSPropertyOp55
 70
     1
102
RTVSPropertyOp56
 70
     0
102
RTVSPropertyOp57
 70
     0
102
RTVSPropertyOp58
 70
     0
102
RTVSPropertyOp59
 70
     0
102
RTVSPropertyOp60
 70
     0
102
RTVSPropertyOp61
 70
     0
102
RTVSPropertyOp62
 70
     0
  0
XRECORD
  5
8772
102
{ACAD_REACTORS
330
8771
102
}
330
8771
100
AcDbXrecord
280
     1
102
RTVSPost2010Prop28
280
     0
102
RTVSPost2010PropOp28
 70
     1
102
RTVSPost2010Prop29
280
     1
102
RTVSPost2010PropOp29
 70
     1
102
RTVSPost2010Prop30
280
     1
102
RTVSPost2010PropOp30
 70
     1
102
RTVSPost2010Prop31
280
     0
102
RTVSPost2010PropOp31
 70
     1
102
RTVSPost2010Prop32
280
     0
102
RTVSPost2010PropOp32
 70
     1
102
RTVSPost2010Prop33
280
     0
102
RTVSPost2010PropOp33
 70
     1
102
RTVSPost2010Prop34
280
     0
102
RTVSPost2010PropOp34
 70
     1
102
RTVSPost2010Prop35
280
     0
102
RTVSPost2010PropOp35
 70
     1
102
RTVSPost2010Prop36
280
     0
102
RTVSPost2010PropOp36
 70
     1
102
RTVSPost2010Prop37
 90
       50
102
RTVSPost2010PropOp37
 70
     1
102
RTVSPost2010Prop38
140
0.0
102
RTVSPost2010PropOp38
 70
     1
102
RTVSPost2010Prop39
140
1.0
102
RTVSPost2010PropOp39
 70
     1
102
RTVSPost2010Prop40
 90
        0
102
RTVSPost2010PropOp40
 70
     1
102
RTVSPost2010Prop41ColorIndex
 90
       18
102
RTVSPost2010Prop41ColorRGB
 90
        0
102
RTVSPost2010PropOp41
 70
     1
102
RTVSPost2010Prop42
 90
       50
102
RTVSPost2010PropOp42
 70
     1
102
RTVSPost2010Prop43
 90
        3
102
RTVSPost2010PropOp43
 70
     1
102
RTVSPost2010Prop44ColorIndex
 90
        5
102
RTVSPost2010Prop44ColorRGB
 90
      255
102
RTVSPost2010PropOp44
 70
     1
102
RTVSPost2010Prop45
280
     0
102
RTVSPost2010PropOp45
 70
     1
102
RTVSPost2010Prop46
 90
       50
102
RTVSPost2010PropOp46
 70
     1
102
RTVSPost2010Prop47
 90
       50
102
RTVSPost2010PropOp47
 70
     1
102
RTVSPost2010Prop48
 90
       50
102
RTVSPost2010PropOp48
 70
     1
102
RTVSPost2010Prop49
280
     0
102
RTVSPost2010PropOp49
 70
     1
102
RTVSPost2010Prop50
 90
       50
102
RTVSPost2010PropOp50
 70
     1
102
RTVSPost2010Prop51ColorIndex
 90
      256
102
RTVSPost2010Prop51ColorRGB
 90
-16777216
102
RTVSPost2010PropOp51
 70
     0
102
RTVSPost2010Prop52
140
1.0
102
RTVSPost2010PropOp52
 70
     0
102
RTVSPost2010Prop53
 90
        2
102
RTVSPost2010PropOp53
 70
     1
102
RTVSPost2010Prop54
  1
strokes_ogs.tif
102
RTVSPost2010PropOp54
 70
     1
102
RTVSPost2010Prop55
280
     0
102
RTVSPost2010PropOp55
 70
     1
102
RTVSPost2010Prop56
140
1.0
102
RTVSPost2010PropOp56
 70
     1
102
RTVSPost2010Prop57
140
1.0
102
RTVSPost2010PropOp57
 70
     1
102
RTVSPropertyOp0
 70
     1
102
RTVSPropertyOp1
 70
     1
102
RTVSPropertyOp2
 70
     1
102
RTVSPropertyOp3
 70
     1
102
RTVSPropertyOp4
 70
     1
102
RTVSPropertyOp5
 70
     1
102
RTVSPropertyOp6
 70
     1
102
RTVSPropertyOp7
 70
     1
102
RTVSPropertyOp8
 70
     1
102
RTVSPropertyOp9
 70
     1
102
RTVSPropertyOp10
 70
     1
102
RTVSPropertyOp11
 70
     1
102
RTVSPropertyOp12
 70
     1
102
RTVSPropertyOp13
 70
     1
102
RTVSPropertyOp14
 70
     1
102
RTVSPropertyOp15
 70
     1
102
RTVSPropertyOp16
 70
     1
102
RTVSPropertyOp17
 70
     1
102
RTVSPropertyOp18
 70
     1
102
RTVSPropertyOp19
 70
     1
102
RTVSPropertyOp20
 70
     1
102
RTVSPropertyOp21
 70
     1
102
RTVSPropertyOp22
 70
     1
102
RTVSPropertyOp23
 70
     1
102
RTVSPropertyOp24
 70
     1
102
RTVSPropertyOp25
 70
     1
102
RTVSPropertyOp26
 70
     1
102
RTVSPropertyOp27
 70
     1
102
RTVSPropertyOp28
 70
     1
102
RTVSPropertyOp29
 70
     1
102
RTVSPropertyOp30
 70
     1
102
RTVSPropertyOp31
 70
     1
102
RTVSPropertyOp32
 70
     1
102
RTVSPropertyOp33
 70
     1
102
RTVSPropertyOp34
 70
     1
102
RTVSPropertyOp35
 70
     1
102
RTVSPropertyOp36
 70
     1
102
RTVSPropertyOp37
 70
     1
102
RTVSPropertyOp38
 70
     1
102
RTVSPropertyOp39
 70
     1
102
RTVSPropertyOp40
 70
     1
102
RTVSPropertyOp41
 70
     1
102
RTVSPropertyOp42
 70
     1
102
RTVSPropertyOp43
 70
     1
102
RTVSPropertyOp44
 70
     1
102
RTVSPropertyOp45
 70
     1
102
RTVSPropertyOp46
 70
     1
102
RTVSPropertyOp47
 70
     1
102
RTVSPropertyOp48
 70
     1
102
RTVSPropertyOp49
 70
     1
102
RTVSPropertyOp50
 70
     1
102
RTVSPropertyOp51
 70
     0
102
RTVSPropertyOp52
 70
     0
102
RTVSPropertyOp53
 70
     1
102
RTVSPropertyOp54
 70
     1
102
RTVSPropertyOp55
 70
     1
102
RTVSPropertyOp56
 70
     1
102
RTVSPropertyOp57
 70
     1
102
RTVSPropertyOp58
 70
     1
102
RTVSPropertyOp59
 70
     1
102
RTVSPropertyOp60
 70
     1
102
RTVSPropertyOp61
 70
     1
102
RTVSPropertyOp62
 70
     1
  0
XRECORD
  5
8788
102
{ACAD_REACTORS
330
8787
102
}
330
8787
100
AcDbXrecord
280
     1
102
RTVSPost2010Prop28
280
     0
102
RTVSPost2010PropOp28
 70
     1
102
RTVSPost2010Prop29
280
     1
102
RTVSPost2010PropOp29
 70
     1
102
RTVSPost2010Prop30
280
     1
102
RTVSPost2010PropOp30
 70
     1
102
RTVSPost2010Prop31
280
     0
102
RTVSPost2010PropOp31
 70
     1
102
RTVSPost2010Prop32
280
     0
102
RTVSPost2010PropOp32
 70
     1
102
RTVSPost2010Prop33
280
     0
102
RTVSPost2010PropOp33
 70
     1
102
RTVSPost2010Prop34
280
     0
102
RTVSPost2010PropOp34
 70
     1
102
RTVSPost2010Prop35
280
     0
102
RTVSPost2010PropOp35
 70
     1
102
RTVSPost2010Prop36
280
     0
102
RTVSPost2010PropOp36
 70
     1
102
RTVSPost2010Prop37
 90
       50
102
RTVSPost2010PropOp37
 70
     1
102
RTVSPost2010Prop38
140
0.0
102
RTVSPost2010PropOp38
 70
     1
102
RTVSPost2010Prop39
140
1.0
102
RTVSPost2010PropOp39
 70
     1
102
RTVSPost2010Prop40
 90
        0
102
RTVSPost2010PropOp40
 70
     1
102
RTVSPost2010Prop41ColorIndex
 90
       18
102
RTVSPost2010Prop41ColorRGB
 90
        0
102
RTVSPost2010PropOp41
 70
     1
102
RTVSPost2010Prop42
 90
       50
102
RTVSPost2010PropOp42
 70
     1
102
RTVSPost2010Prop43
 90
        3
102
RTVSPost2010PropOp43
 70
     1
102
RTVSPost2010Prop44ColorIndex
 90
        5
102
RTVSPost2010Prop44ColorRGB
 90
      255
102
RTVSPost2010PropOp44
 70
     1
102
RTVSPost2010Prop45
280
     0
102
RTVSPost2010PropOp45
 70
     1
102
RTVSPost2010Prop46
 90
       50
102
RTVSPost2010PropOp46
 70
     1
102
RTVSPost2010Prop47
 90
       50
102
RTVSPost2010PropOp47
 70
     1
102
RTVSPost2010Prop48
 90
       50
102
RTVSPost2010PropOp48
 70
     1
102
RTVSPost2010Prop49
280
     0
102
RTVSPost2010PropOp49
 70
     1
102
RTVSPost2010Prop50
 90
       50
102
RTVSPost2010PropOp50
 70
     1
102
RTVSPost2010Prop51ColorIndex
 90
      256
102
RTVSPost2010Prop51ColorRGB
 90
-16777216
102
RTVSPost2010PropOp51
 70
     0
102
RTVSPost2010Prop52
140
1.0
102
RTVSPost2010PropOp52
 70
     0
102
RTVSPost2010Prop53
 90
        2
102
RTVSPost2010PropOp53
 70
     1
102
RTVSPost2010Prop54
  1
strokes_ogs.tif
102
RTVSPost2010PropOp54
 70
     1
102
RTVSPost2010Prop55
280
     0
102
RTVSPost2010PropOp55
 70
     1
102
RTVSPost2010Prop56
140
1.0
102
RTVSPost2010PropOp56
 70
     1
102
RTVSPost2010Prop57
140
1.0
102
RTVSPost2010PropOp57
 70
     1
102
RTVSPropertyOp0
 70
     1
102
RTVSPropertyOp1
 70
     1
102
RTVSPropertyOp2
 70
     1
102
RTVSPropertyOp3
 70
     1
102
RTVSPropertyOp4
 70
     1
102
RTVSPropertyOp5
 70
     1
102
RTVSPropertyOp6
 70
     1
102
RTVSPropertyOp7
 70
     1
102
RTVSPropertyOp8
 70
     1
102
RTVSPropertyOp9
 70
     1
102
RTVSPropertyOp10
 70
     1
102
RTVSPropertyOp11
 70
     1
102
RTVSPropertyOp12
 70
     1
102
RTVSPropertyOp13
 70
     1
102
RTVSPropertyOp14
 70
     1
102
RTVSPropertyOp15
 70
     1
102
RTVSPropertyOp16
 70
     1
102
RTVSPropertyOp17
 70
     1
102
RTVSPropertyOp18
 70
     1
102
RTVSPropertyOp19
 70
     1
102
RTVSPropertyOp20
 70
     1
102
RTVSPropertyOp21
 70
     1
102
RTVSPropertyOp22
 70
     1
102
RTVSPropertyOp23
 70
     1
102
RTVSPropertyOp24
 70
     1
102
RTVSPropertyOp25
 70
     1
102
RTVSPropertyOp26
 70
     1
102
RTVSPropertyOp27
 70
     1
102
RTVSPropertyOp28
 70
     1
102
RTVSPropertyOp29
 70
     1
102
RTVSPropertyOp30
 70
     1
102
RTVSPropertyOp31
 70
     1
102
RTVSPropertyOp32
 70
     1
102
RTVSPropertyOp33
 70
     1
102
RTVSPropertyOp34
 70
     1
102
RTVSPropertyOp35
 70
     1
102
RTVSPropertyOp36
 70
     1
102
RTVSPropertyOp37
 70
     1
102
RTVSPropertyOp38
 70
     1
102
RTVSPropertyOp39
 70
     1
102
RTVSPropertyOp40
 70
     1
102
RTVSPropertyOp41
 70
     1
102
RTVSPropertyOp42
 70
     1
102
RTVSPropertyOp43
 70
     1
102
RTVSPropertyOp44
 70
     1
102
RTVSPropertyOp45
 70
     1
102
RTVSPropertyOp46
 70
     1
102
RTVSPropertyOp47
 70
     1
102
RTVSPropertyOp48
 70
     1
102
RTVSPropertyOp49
 70
     1
102
RTVSPropertyOp50
 70
     1
102
RTVSPropertyOp51
 70
     0
102
RTVSPropertyOp52
 70
     0
102
RTVSPropertyOp53
 70
     1
102
RTVSPropertyOp54
 70
     1
102
RTVSPropertyOp55
 70
     1
102
RTVSPropertyOp56
 70
     1
102
RTVSPropertyOp57
 70
     1
102
RTVSPropertyOp58
 70
     1
102
RTVSPropertyOp59
 70
     1
102
RTVSPropertyOp60
 70
     1
102
RTVSPropertyOp61
 70
     1
102
RTVSPropertyOp62
 70
     1
  0
XRECORD
  5
8786
102
{ACAD_REACTORS
330
8785
102
}
330
8785
100
AcDbXrecord
280
     1
102
RTVSPost2010Prop28
280
     0
102
RTVSPost2010PropOp28
 70
     1
102
RTVSPost2010Prop29
280
     1
102
RTVSPost2010PropOp29
 70
     1
102
RTVSPost2010Prop30
280
     1
102
RTVSPost2010PropOp30
 70
     1
102
RTVSPost2010Prop31
280
     0
102
RTVSPost2010PropOp31
 70
     1
102
RTVSPost2010Prop32
280
     0
102
RTVSPost2010PropOp32
 70
     1
102
RTVSPost2010Prop33
280
     0
102
RTVSPost2010PropOp33
 70
     1
102
RTVSPost2010Prop34
280
     0
102
RTVSPost2010PropOp34
 70
     1
102
RTVSPost2010Prop35
280
     0
102
RTVSPost2010PropOp35
 70
     1
102
RTVSPost2010Prop36
280
     0
102
RTVSPost2010PropOp36
 70
     1
102
RTVSPost2010Prop37
 90
       50
102
RTVSPost2010PropOp37
 70
     1
102
RTVSPost2010Prop38
140
0.0
102
RTVSPost2010PropOp38
 70
     1
102
RTVSPost2010Prop39
140
1.0
102
RTVSPost2010PropOp39
 70
     1
102
RTVSPost2010Prop40
 90
        0
102
RTVSPost2010PropOp40
 70
     1
102
RTVSPost2010Prop41ColorIndex
 90
       18
102
RTVSPost2010Prop41ColorRGB
 90
        0
102
RTVSPost2010PropOp41
 70
     1
102
RTVSPost2010Prop42
 90
       50
102
RTVSPost2010PropOp42
 70
     1
102
RTVSPost2010Prop43
 90
        3
102
RTVSPost2010PropOp43
 70
     1
102
RTVSPost2010Prop44ColorIndex
 90
        5
102
RTVSPost2010Prop44ColorRGB
 90
      255
102
RTVSPost2010PropOp44
 70
     1
102
RTVSPost2010Prop45
280
     0
102
RTVSPost2010PropOp45
 70
     1
102
RTVSPost2010Prop46
 90
       50
102
RTVSPost2010PropOp46
 70
     1
102
RTVSPost2010Prop47
 90
       50
102
RTVSPost2010PropOp47
 70
     1
102
RTVSPost2010Prop48
 90
       50
102
RTVSPost2010PropOp48
 70
     1
102
RTVSPost2010Prop49
280
     0
102
RTVSPost2010PropOp49
 70
     1
102
RTVSPost2010Prop50
 90
       50
102
RTVSPost2010PropOp50
 70
     1
102
RTVSPost2010Prop51ColorIndex
 90
      256
102
RTVSPost2010Prop51ColorRGB
 90
-16777216
102
RTVSPost2010PropOp51
 70
     0
102
RTVSPost2010Prop52
140
1.0
102
RTVSPost2010PropOp52
 70
     0
102
RTVSPost2010Prop53
 90
        2
102
RTVSPost2010PropOp53
 70
     1
102
RTVSPost2010Prop54
  1
strokes_ogs.tif
102
RTVSPost2010PropOp54
 70
     1
102
RTVSPost2010Prop55
280
     0
102
RTVSPost2010PropOp55
 70
     1
102
RTVSPost2010Prop56
140
1.0
102
RTVSPost2010PropOp56
 70
     1
102
RTVSPost2010Prop57
140
1.0
102
RTVSPost2010PropOp57
 70
     1
102
RTVSPropertyOp0
 70
     1
102
RTVSPropertyOp1
 70
     1
102
RTVSPropertyOp2
 70
     1
102
RTVSPropertyOp3
 70
     1
102
RTVSPropertyOp4
 70
     1
102
RTVSPropertyOp5
 70
     1
102
RTVSPropertyOp6
 70
     1
102
RTVSPropertyOp7
 70
     1
102
RTVSPropertyOp8
 70
     1
102
RTVSPropertyOp9
 70
     1
102
RTVSPropertyOp10
 70
     1
102
RTVSPropertyOp11
 70
     1
102
RTVSPropertyOp12
 70
     1
102
RTVSPropertyOp13
 70
     1
102
RTVSPropertyOp14
 70
     1
102
RTVSPropertyOp15
 70
     1
102
RTVSPropertyOp16
 70
     1
102
RTVSPropertyOp17
 70
     1
102
RTVSPropertyOp18
 70
     1
102
RTVSPropertyOp19
 70
     1
102
RTVSPropertyOp20
 70
     1
102
RTVSPropertyOp21
 70
     1
102
RTVSPropertyOp22
 70
     1
102
RTVSPropertyOp23
 70
     1
102
RTVSPropertyOp24
 70
     1
102
RTVSPropertyOp25
 70
     1
102
RTVSPropertyOp26
 70
     1
102
RTVSPropertyOp27
 70
     1
102
RTVSPropertyOp28
 70
     1
102
RTVSPropertyOp29
 70
     1
102
RTVSPropertyOp30
 70
     1
102
RTVSPropertyOp31
 70
     1
102
RTVSPropertyOp32
 70
     1
102
RTVSPropertyOp33
 70
     1
102
RTVSPropertyOp34
 70
     1
102
RTVSPropertyOp35
 70
     1
102
RTVSPropertyOp36
 70
     1
102
RTVSPropertyOp37
 70
     1
102
RTVSPropertyOp38
 70
     1
102
RTVSPropertyOp39
 70
     1
102
RTVSPropertyOp40
 70
     1
102
RTVSPropertyOp41
 70
     1
102
RTVSPropertyOp42
 70
     1
102
RTVSPropertyOp43
 70
     1
102
RTVSPropertyOp44
 70
     1
102
RTVSPropertyOp45
 70
     1
102
RTVSPropertyOp46
 70
     1
102
RTVSPropertyOp47
 70
     1
102
RTVSPropertyOp48
 70
     1
102
RTVSPropertyOp49
 70
     1
102
RTVSPropertyOp50
 70
     1
102
RTVSPropertyOp51
 70
     0
102
RTVSPropertyOp52
 70
     0
102
RTVSPropertyOp53
 70
     1
102
RTVSPropertyOp54
 70
     1
102
RTVSPropertyOp55
 70
     1
102
RTVSPropertyOp56
 70
     1
102
RTVSPropertyOp57
 70
     1
102
RTVSPropertyOp58
 70
     1
102
RTVSPropertyOp59
 70
     1
102
RTVSPropertyOp60
 70
     1
102
RTVSPropertyOp61
 70
     1
102
RTVSPropertyOp62
 70
     1
  0
XRECORD
  5
8780
102
{ACAD_REACTORS
330
877F
102
}
330
877F
100
AcDbXrecord
280
     1
102
RTVSPost2010Prop28
280
     0
102
RTVSPost2010PropOp28
 70
     1
102
RTVSPost2010Prop29
280
     1
102
RTVSPost2010PropOp29
 70
     1
102
RTVSPost2010Prop30
280
     1
102
RTVSPost2010PropOp30
 70
     1
102
RTVSPost2010Prop31
280
     0
102
RTVSPost2010PropOp31
 70
     1
102
RTVSPost2010Prop32
280
     0
102
RTVSPost2010PropOp32
 70
     1
102
RTVSPost2010Prop33
280
     0
102
RTVSPost2010PropOp33
 70
     1
102
RTVSPost2010Prop34
280
     0
102
RTVSPost2010PropOp34
 70
     1
102
RTVSPost2010Prop35
280
     0
102
RTVSPost2010PropOp35
 70
     1
102
RTVSPost2010Prop36
280
     0
102
RTVSPost2010PropOp36
 70
     1
102
RTVSPost2010Prop37
 90
       50
102
RTVSPost2010PropOp37
 70
     1
102
RTVSPost2010Prop38
140
0.0
102
RTVSPost2010PropOp38
 70
     1
102
RTVSPost2010Prop39
140
1.0
102
RTVSPost2010PropOp39
 70
     1
102
RTVSPost2010Prop40
 90
        0
102
RTVSPost2010PropOp40
 70
     1
102
RTVSPost2010Prop41ColorIndex
 90
       18
102
RTVSPost2010Prop41ColorRGB
 90
        0
102
RTVSPost2010PropOp41
 70
     1
102
RTVSPost2010Prop42
 90
       50
102
RTVSPost2010PropOp42
 70
     1
102
RTVSPost2010Prop43
 90
        3
102
RTVSPost2010PropOp43
 70
     1
102
RTVSPost2010Prop44ColorIndex
 90
        5
102
RTVSPost2010Prop44ColorRGB
 90
      255
102
RTVSPost2010PropOp44
 70
     1
102
RTVSPost2010Prop45
280
     0
102
RTVSPost2010PropOp45
 70
     1
102
RTVSPost2010Prop46
 90
       50
102
RTVSPost2010PropOp46
 70
     1
102
RTVSPost2010Prop47
 90
       50
102
RTVSPost2010PropOp47
 70
     1
102
RTVSPost2010Prop48
 90
       50
102
RTVSPost2010PropOp48
 70
     1
102
RTVSPost2010Prop49
280
     0
102
RTVSPost2010PropOp49
 70
     1
102
RTVSPost2010Prop50
 90
       50
102
RTVSPost2010PropOp50
 70
     1
102
RTVSPost2010Prop51ColorIndex
 90
      256
102
RTVSPost2010Prop51ColorRGB
 90
-16777216
102
RTVSPost2010PropOp51
 70
     0
102
RTVSPost2010Prop52
140
1.0
102
RTVSPost2010PropOp52
 70
     0
102
RTVSPost2010Prop53
 90
        2
102
RTVSPost2010PropOp53
 70
     1
102
RTVSPost2010Prop54
  1
strokes_ogs.tif
102
RTVSPost2010PropOp54
 70
     1
102
RTVSPost2010Prop55
280
     0
102
RTVSPost2010PropOp55
 70
     1
102
RTVSPost2010Prop56
140
1.0
102
RTVSPost2010PropOp56
 70
     1
102
RTVSPost2010Prop57
140
1.0
102
RTVSPost2010PropOp57
 70
     1
102
RTVSPropertyOp0
 70
     1
102
RTVSPropertyOp1
 70
     1
102
RTVSPropertyOp2
 70
     1
102
RTVSPropertyOp3
 70
     1
102
RTVSPropertyOp4
 70
     1
102
RTVSPropertyOp5
 70
     1
102
RTVSPropertyOp6
 70
     1
102
RTVSPropertyOp7
 70
     1
102
RTVSPropertyOp8
 70
     1
102
RTVSPropertyOp9
 70
     1
102
RTVSPropertyOp10
 70
     1
102
RTVSPropertyOp11
 70
     1
102
RTVSPropertyOp12
 70
     1
102
RTVSPropertyOp13
 70
     1
102
RTVSPropertyOp14
 70
     1
102
RTVSPropertyOp15
 70
     1
102
RTVSPropertyOp16
 70
     1
102
RTVSPropertyOp17
 70
     1
102
RTVSPropertyOp18
 70
     1
102
RTVSPropertyOp19
 70
     1
102
RTVSPropertyOp20
 70
     1
102
RTVSPropertyOp21
 70
     1
102
RTVSPropertyOp22
 70
     1
102
RTVSPropertyOp23
 70
     1
102
RTVSPropertyOp24
 70
     1
102
RTVSPropertyOp25
 70
     1
102
RTVSPropertyOp26
 70
     1
102
RTVSPropertyOp27
 70
     1
102
RTVSPropertyOp28
 70
     1
102
RTVSPropertyOp29
 70
     1
102
RTVSPropertyOp30
 70
     1
102
RTVSPropertyOp31
 70
     1
102
RTVSPropertyOp32
 70
     1
102
RTVSPropertyOp33
 70
     1
102
RTVSPropertyOp34
 70
     1
102
RTVSPropertyOp35
 70
     1
102
RTVSPropertyOp36
 70
     1
102
RTVSPropertyOp37
 70
     1
102
RTVSPropertyOp38
 70
     1
102
RTVSPropertyOp39
 70
     1
102
RTVSPropertyOp40
 70
     1
102
RTVSPropertyOp41
 70
     1
102
RTVSPropertyOp42
 70
     1
102
RTVSPropertyOp43
 70
     1
102
RTVSPropertyOp44
 70
     1
102
RTVSPropertyOp45
 70
     1
102
RTVSPropertyOp46
 70
     1
102
RTVSPropertyOp47
 70
     1
102
RTVSPropertyOp48
 70
     1
102
RTVSPropertyOp49
 70
     1
102
RTVSPropertyOp50
 70
     1
102
RTVSPropertyOp51
 70
     0
102
RTVSPropertyOp52
 70
     0
102
RTVSPropertyOp53
 70
     1
102
RTVSPropertyOp54
 70
     1
102
RTVSPropertyOp55
 70
     1
102
RTVSPropertyOp56
 70
     1
102
RTVSPropertyOp57
 70
     1
102
RTVSPropertyOp58
 70
     1
102
RTVSPropertyOp59
 70
     1
102
RTVSPropertyOp60
 70
     1
102
RTVSPropertyOp61
 70
     1
102
RTVSPropertyOp62
 70
     1
  0
XRECORD
  5
8782
102
{ACAD_REACTORS
330
8781
102
}
330
8781
100
AcDbXrecord
280
     1
102
RTVSPost2010Prop28
280
     0
102
RTVSPost2010PropOp28
 70
     1
102
RTVSPost2010Prop29
280
     1
102
RTVSPost2010PropOp29
 70
     1
102
RTVSPost2010Prop30
280
     1
102
RTVSPost2010PropOp30
 70
     1
102
RTVSPost2010Prop31
280
     0
102
RTVSPost2010PropOp31
 70
     1
102
RTVSPost2010Prop32
280
     0
102
RTVSPost2010PropOp32
 70
     1
102
RTVSPost2010Prop33
280
     0
102
RTVSPost2010PropOp33
 70
     1
102
RTVSPost2010Prop34
280
     0
102
RTVSPost2010PropOp34
 70
     1
102
RTVSPost2010Prop35
280
     0
102
RTVSPost2010PropOp35
 70
     1
102
RTVSPost2010Prop36
280
     0
102
RTVSPost2010PropOp36
 70
     1
102
RTVSPost2010Prop37
 90
       50
102
RTVSPost2010PropOp37
 70
     1
102
RTVSPost2010Prop38
140
0.0
102
RTVSPost2010PropOp38
 70
     1
102
RTVSPost2010Prop39
140
1.0
102
RTVSPost2010PropOp39
 70
     1
102
RTVSPost2010Prop40
 90
        0
102
RTVSPost2010PropOp40
 70
     1
102
RTVSPost2010Prop41ColorIndex
 90
       18
102
RTVSPost2010Prop41ColorRGB
 90
        0
102
RTVSPost2010PropOp41
 70
     1
102
RTVSPost2010Prop42
 90
       50
102
RTVSPost2010PropOp42
 70
     1
102
RTVSPost2010Prop43
 90
        3
102
RTVSPost2010PropOp43
 70
     1
102
RTVSPost2010Prop44ColorIndex
 90
        5
102
RTVSPost2010Prop44ColorRGB
 90
      255
102
RTVSPost2010PropOp44
 70
     1
102
RTVSPost2010Prop45
280
     0
102
RTVSPost2010PropOp45
 70
     1
102
RTVSPost2010Prop46
 90
       50
102
RTVSPost2010PropOp46
 70
     1
102
RTVSPost2010Prop47
 90
       50
102
RTVSPost2010PropOp47
 70
     1
102
RTVSPost2010Prop48
 90
       50
102
RTVSPost2010PropOp48
 70
     1
102
RTVSPost2010Prop49
280
     0
102
RTVSPost2010PropOp49
 70
     1
102
RTVSPost2010Prop50
 90
       50
102
RTVSPost2010PropOp50
 70
     1
102
RTVSPost2010Prop51ColorIndex
 90
      256
102
RTVSPost2010Prop51ColorRGB
 90
-16777216
102
RTVSPost2010PropOp51
 70
     0
102
RTVSPost2010Prop52
140
1.0
102
RTVSPost2010PropOp52
 70
     0
102
RTVSPost2010Prop53
 90
        2
102
RTVSPost2010PropOp53
 70
     1
102
RTVSPost2010Prop54
  1
strokes_ogs.tif
102
RTVSPost2010PropOp54
 70
     1
102
RTVSPost2010Prop55
280
     0
102
RTVSPost2010PropOp55
 70
     1
102
RTVSPost2010Prop56
140
1.0
102
RTVSPost2010PropOp56
 70
     1
102
RTVSPost2010Prop57
140
1.0
102
RTVSPost2010PropOp57
 70
     1
102
RTVSPropertyOp0
 70
     1
102
RTVSPropertyOp1
 70
     1
102
RTVSPropertyOp2
 70
     1
102
RTVSPropertyOp3
 70
     1
102
RTVSPropertyOp4
 70
     1
102
RTVSPropertyOp5
 70
     1
102
RTVSPropertyOp6
 70
     1
102
RTVSPropertyOp7
 70
     1
102
RTVSPropertyOp8
 70
     1
102
RTVSPropertyOp9
 70
     1
102
RTVSPropertyOp10
 70
     1
102
RTVSPropertyOp11
 70
     1
102
RTVSPropertyOp12
 70
     1
102
RTVSPropertyOp13
 70
     1
102
RTVSPropertyOp14
 70
     1
102
RTVSPropertyOp15
 70
     1
102
RTVSPropertyOp16
 70
     1
102
RTVSPropertyOp17
 70
     1
102
RTVSPropertyOp18
 70
     1
102
RTVSPropertyOp19
 70
     1
102
RTVSPropertyOp20
 70
     1
102
RTVSPropertyOp21
 70
     1
102
RTVSPropertyOp22
 70
     1
102
RTVSPropertyOp23
 70
     1
102
RTVSPropertyOp24
 70
     1
102
RTVSPropertyOp25
 70
     1
102
RTVSPropertyOp26
 70
     1
102
RTVSPropertyOp27
 70
     1
102
RTVSPropertyOp28
 70
     1
102
RTVSPropertyOp29
 70
     1
102
RTVSPropertyOp30
 70
     1
102
RTVSPropertyOp31
 70
     1
102
RTVSPropertyOp32
 70
     1
102
RTVSPropertyOp33
 70
     1
102
RTVSPropertyOp34
 70
     1
102
RTVSPropertyOp35
 70
     1
102
RTVSPropertyOp36
 70
     1
102
RTVSPropertyOp37
 70
     1
102
RTVSPropertyOp38
 70
     1
102
RTVSPropertyOp39
 70
     1
102
RTVSPropertyOp40
 70
     1
102
RTVSPropertyOp41
 70
     1
102
RTVSPropertyOp42
 70
     1
102
RTVSPropertyOp43
 70
     1
102
RTVSPropertyOp44
 70
     1
102
RTVSPropertyOp45
 70
     1
102
RTVSPropertyOp46
 70
     1
102
RTVSPropertyOp47
 70
     1
102
RTVSPropertyOp48
 70
     1
102
RTVSPropertyOp49
 70
     1
102
RTVSPropertyOp50
 70
     1
102
RTVSPropertyOp51
 70
     0
102
RTVSPropertyOp52
 70
     0
102
RTVSPropertyOp53
 70
     1
102
RTVSPropertyOp54
 70
     1
102
RTVSPropertyOp55
 70
     1
102
RTVSPropertyOp56
 70
     1
102
RTVSPropertyOp57
 70
     1
102
RTVSPropertyOp58
 70
     1
102
RTVSPropertyOp59
 70
     1
102
RTVSPropertyOp60
 70
     1
102
RTVSPropertyOp61
 70
     1
102
RTVSPropertyOp62
 70
     1
  0
XRECORD
  5
8778
102
{ACAD_REACTORS
330
8777
102
}
330
8777
100
AcDbXrecord
280
     1
102
RTVSPost2010Prop28
280
     0
102
RTVSPost2010PropOp28
 70
     1
102
RTVSPost2010Prop29
280
     1
102
RTVSPost2010PropOp29
 70
     1
102
RTVSPost2010Prop30
280
     1
102
RTVSPost2010PropOp30
 70
     1
102
RTVSPost2010Prop31
280
     0
102
RTVSPost2010PropOp31
 70
     1
102
RTVSPost2010Prop32
280
     0
102
RTVSPost2010PropOp32
 70
     1
102
RTVSPost2010Prop33
280
     0
102
RTVSPost2010PropOp33
 70
     1
102
RTVSPost2010Prop34
280
     0
102
RTVSPost2010PropOp34
 70
     1
102
RTVSPost2010Prop35
280
     0
102
RTVSPost2010PropOp35
 70
     1
102
RTVSPost2010Prop36
280
     0
102
RTVSPost2010PropOp36
 70
     1
102
RTVSPost2010Prop37
 90
       50
102
RTVSPost2010PropOp37
 70
     1
102
RTVSPost2010Prop38
140
0.0
102
RTVSPost2010PropOp38
 70
     1
102
RTVSPost2010Prop39
140
1.0
102
RTVSPost2010PropOp39
 70
     1
102
RTVSPost2010Prop40
 90
        0
102
RTVSPost2010PropOp40
 70
     1
102
RTVSPost2010Prop41ColorIndex
 90
       18
102
RTVSPost2010Prop41ColorRGB
 90
        0
102
RTVSPost2010PropOp41
 70
     1
102
RTVSPost2010Prop42
 90
       50
102
RTVSPost2010PropOp42
 70
     1
102
RTVSPost2010Prop43
 90
        3
102
RTVSPost2010PropOp43
 70
     1
102
RTVSPost2010Prop44ColorIndex
 90
        5
102
RTVSPost2010Prop44ColorRGB
 90
      255
102
RTVSPost2010PropOp44
 70
     1
102
RTVSPost2010Prop45
280
     0
102
RTVSPost2010PropOp45
 70
     1
102
RTVSPost2010Prop46
 90
       50
102
RTVSPost2010PropOp46
 70
     1
102
RTVSPost2010Prop47
 90
       50
102
RTVSPost2010PropOp47
 70
     1
102
RTVSPost2010Prop48
 90
       50
102
RTVSPost2010PropOp48
 70
     1
102
RTVSPost2010Prop49
280
     0
102
RTVSPost2010PropOp49
 70
     1
102
RTVSPost2010Prop50
 90
       50
102
RTVSPost2010PropOp50
 70
     1
102
RTVSPost2010Prop51ColorIndex
 90
      256
102
RTVSPost2010Prop51ColorRGB
 90
-16777216
102
RTVSPost2010PropOp51
 70
     0
102
RTVSPost2010Prop52
140
1.0
102
RTVSPost2010PropOp52
 70
     0
102
RTVSPost2010Prop53
 90
        2
102
RTVSPost2010PropOp53
 70
     1
102
RTVSPost2010Prop54
  1
strokes_ogs.tif
102
RTVSPost2010PropOp54
 70
     1
102
RTVSPost2010Prop55
280
     0
102
RTVSPost2010PropOp55
 70
     1
102
RTVSPost2010Prop56
140
1.0
102
RTVSPost2010PropOp56
 70
     1
102
RTVSPost2010Prop57
140
1.0
102
RTVSPost2010PropOp57
 70
     1
102
RTVSPropertyOp0
 70
     1
102
RTVSPropertyOp1
 70
     1
102
RTVSPropertyOp2
 70
     1
102
RTVSPropertyOp3
 70
     1
102
RTVSPropertyOp4
 70
     1
102
RTVSPropertyOp5
 70
     1
102
RTVSPropertyOp6
 70
     1
102
RTVSPropertyOp7
 70
     1
102
RTVSPropertyOp8
 70
     1
102
RTVSPropertyOp9
 70
     1
102
RTVSPropertyOp10
 70
     1
102
RTVSPropertyOp11
 70
     1
102
RTVSPropertyOp12
 70
     1
102
RTVSPropertyOp13
 70
     1
102
RTVSPropertyOp14
 70
     1
102
RTVSPropertyOp15
 70
     1
102
RTVSPropertyOp16
 70
     1
102
RTVSPropertyOp17
 70
     1
102
RTVSPropertyOp18
 70
     1
102
RTVSPropertyOp19
 70
     1
102
RTVSPropertyOp20
 70
     1
102
RTVSPropertyOp21
 70
     1
102
RTVSPropertyOp22
 70
     1
102
RTVSPropertyOp23
 70
     1
102
RTVSPropertyOp24
 70
     1
102
RTVSPropertyOp25
 70
     1
102
RTVSPropertyOp26
 70
     1
102
RTVSPropertyOp27
 70
     1
102
RTVSPropertyOp28
 70
     1
102
RTVSPropertyOp29
 70
     1
102
RTVSPropertyOp30
 70
     1
102
RTVSPropertyOp31
 70
     1
102
RTVSPropertyOp32
 70
     1
102
RTVSPropertyOp33
 70
     1
102
RTVSPropertyOp34
 70
     1
102
RTVSPropertyOp35
 70
     1
102
RTVSPropertyOp36
 70
     1
102
RTVSPropertyOp37
 70
     1
102
RTVSPropertyOp38
 70
     1
102
RTVSPropertyOp39
 70
     1
102
RTVSPropertyOp40
 70
     1
102
RTVSPropertyOp41
 70
     1
102
RTVSPropertyOp42
 70
     1
102
RTVSPropertyOp43
 70
     1
102
RTVSPropertyOp44
 70
     1
102
RTVSPropertyOp45
 70
     1
102
RTVSPropertyOp46
 70
     1
102
RTVSPropertyOp47
 70
     1
102
RTVSPropertyOp48
 70
     1
102
RTVSPropertyOp49
 70
     1
102
RTVSPropertyOp50
 70
     1
102
RTVSPropertyOp51
 70
     0
102
RTVSPropertyOp52
 70
     0
102
RTVSPropertyOp53
 70
     1
102
RTVSPropertyOp54
 70
     1
102
RTVSPropertyOp55
 70
     1
102
RTVSPropertyOp56
 70
     1
102
RTVSPropertyOp57
 70
     1
102
RTVSPropertyOp58
 70
     1
102
RTVSPropertyOp59
 70
     1
102
RTVSPropertyOp60
 70
     1
102
RTVSPropertyOp61
 70
     1
102
RTVSPropertyOp62
 70
     1
  0
XRECORD
  5
876C
102
{ACAD_REACTORS
330
876B
102
}
330
876B
100
AcDbXrecord
280
     1
102
RTVSPost2010Prop28
280
     0
102
RTVSPost2010PropOp28
 70
     1
102
RTVSPost2010Prop29
280
     1
102
RTVSPost2010PropOp29
 70
     1
102
RTVSPost2010Prop30
280
     1
102
RTVSPost2010PropOp30
 70
     1
102
RTVSPost2010Prop31
280
     0
102
RTVSPost2010PropOp31
 70
     1
102
RTVSPost2010Prop32
280
     0
102
RTVSPost2010PropOp32
 70
     1
102
RTVSPost2010Prop33
280
     0
102
RTVSPost2010PropOp33
 70
     1
102
RTVSPost2010Prop34
280
     0
102
RTVSPost2010PropOp34
 70
     1
102
RTVSPost2010Prop35
280
     0
102
RTVSPost2010PropOp35
 70
     1
102
RTVSPost2010Prop36
280
     0
102
RTVSPost2010PropOp36
 70
     1
102
RTVSPost2010Prop37
 90
       50
102
RTVSPost2010PropOp37
 70
     1
102
RTVSPost2010Prop38
140
0.0
102
RTVSPost2010PropOp38
 70
     1
102
RTVSPost2010Prop39
140
1.0
102
RTVSPost2010PropOp39
 70
     1
102
RTVSPost2010Prop40
 90
        0
102
RTVSPost2010PropOp40
 70
     1
102
RTVSPost2010Prop41ColorIndex
 90
       18
102
RTVSPost2010Prop41ColorRGB
 90
        0
102
RTVSPost2010PropOp41
 70
     1
102
RTVSPost2010Prop42
 90
       50
102
RTVSPost2010PropOp42
 70
     1
102
RTVSPost2010Prop43
 90
        3
102
RTVSPost2010PropOp43
 70
     1
102
RTVSPost2010Prop44ColorIndex
 90
        5
102
RTVSPost2010Prop44ColorRGB
 90
      255
102
RTVSPost2010PropOp44
 70
     1
102
RTVSPost2010Prop45
280
     0
102
RTVSPost2010PropOp45
 70
     1
102
RTVSPost2010Prop46
 90
       50
102
RTVSPost2010PropOp46
 70
     1
102
RTVSPost2010Prop47
 90
       50
102
RTVSPost2010PropOp47
 70
     1
102
RTVSPost2010Prop48
 90
       50
102
RTVSPost2010PropOp48
 70
     1
102
RTVSPost2010Prop49
280
     0
102
RTVSPost2010PropOp49
 70
     1
102
RTVSPost2010Prop50
 90
       50
102
RTVSPost2010PropOp50
 70
     1
102
RTVSPost2010Prop51ColorIndex
 90
      256
102
RTVSPost2010Prop51ColorRGB
 90
-16777216
102
RTVSPost2010PropOp51
 70
     0
102
RTVSPost2010Prop52
140
1.0
102
RTVSPost2010PropOp52
 70
     0
102
RTVSPost2010Prop53
 90
        2
102
RTVSPost2010PropOp53
 70
     1
102
RTVSPost2010Prop54
  1
strokes_ogs.tif
102
RTVSPost2010PropOp54
 70
     1
102
RTVSPost2010Prop55
280
     0
102
RTVSPost2010PropOp55
 70
     1
102
RTVSPost2010Prop56
140
1.0
102
RTVSPost2010PropOp56
 70
     1
102
RTVSPost2010Prop57
140
1.0
102
RTVSPost2010PropOp57
 70
     1
102
RTVSPropertyOp0
 70
     1
102
RTVSPropertyOp1
 70
     1
102
RTVSPropertyOp2
 70
     1
102
RTVSPropertyOp3
 70
     1
102
RTVSPropertyOp4
 70
     1
102
RTVSPropertyOp5
 70
     1
102
RTVSPropertyOp6
 70
     1
102
RTVSPropertyOp7
 70
     1
102
RTVSPropertyOp8
 70
     1
102
RTVSPropertyOp9
 70
     1
102
RTVSPropertyOp10
 70
     1
102
RTVSPropertyOp11
 70
     1
102
RTVSPropertyOp12
 70
     1
102
RTVSPropertyOp13
 70
     1
102
RTVSPropertyOp14
 70
     1
102
RTVSPropertyOp15
 70
     1
102
RTVSPropertyOp16
 70
     1
102
RTVSPropertyOp17
 70
     1
102
RTVSPropertyOp18
 70
     1
102
RTVSPropertyOp19
 70
     1
102
RTVSPropertyOp20
 70
     1
102
RTVSPropertyOp21
 70
     1
102
RTVSPropertyOp22
 70
     1
102
RTVSPropertyOp23
 70
     1
102
RTVSPropertyOp24
 70
     1
102
RTVSPropertyOp25
 70
     1
102
RTVSPropertyOp26
 70
     1
102
RTVSPropertyOp27
 70
     1
102
RTVSPropertyOp28
 70
     1
102
RTVSPropertyOp29
 70
     1
102
RTVSPropertyOp30
 70
     1
102
RTVSPropertyOp31
 70
     1
102
RTVSPropertyOp32
 70
     1
102
RTVSPropertyOp33
 70
     1
102
RTVSPropertyOp34
 70
     1
102
RTVSPropertyOp35
 70
     1
102
RTVSPropertyOp36
 70
     1
102
RTVSPropertyOp37
 70
     1
102
RTVSPropertyOp38
 70
     1
102
RTVSPropertyOp39
 70
     1
102
RTVSPropertyOp40
 70
     1
102
RTVSPropertyOp41
 70
     1
102
RTVSPropertyOp42
 70
     1
102
RTVSPropertyOp43
 70
     1
102
RTVSPropertyOp44
 70
     1
102
RTVSPropertyOp45
 70
     1
102
RTVSPropertyOp46
 70
     1
102
RTVSPropertyOp47
 70
     1
102
RTVSPropertyOp48
 70
     1
102
RTVSPropertyOp49
 70
     1
102
RTVSPropertyOp50
 70
     1
102
RTVSPropertyOp51
 70
     0
102
RTVSPropertyOp52
 70
     0
102
RTVSPropertyOp53
 70
     1
102
RTVSPropertyOp54
 70
     1
102
RTVSPropertyOp55
 70
     1
102
RTVSPropertyOp56
 70
     1
102
RTVSPropertyOp57
 70
     1
102
RTVSPropertyOp58
 70
     1
102
RTVSPropertyOp59
 70
     1
102
RTVSPropertyOp60
 70
     1
102
RTVSPropertyOp61
 70
     1
102
RTVSPropertyOp62
 70
     1
  0
XRECORD
  5
8784
102
{ACAD_REACTORS
330
8783
102
}
330
8783
100
AcDbXrecord
280
     1
102
RTVSPost2010Prop28
280
     0
102
RTVSPost2010PropOp28
 70
     1
102
RTVSPost2010Prop29
280
     1
102
RTVSPost2010PropOp29
 70
     1
102
RTVSPost2010Prop30
280
     1
102
RTVSPost2010PropOp30
 70
     1
102
RTVSPost2010Prop31
280
     0
102
RTVSPost2010PropOp31
 70
     1
102
RTVSPost2010Prop32
280
     0
102
RTVSPost2010PropOp32
 70
     1
102
RTVSPost2010Prop33
280
     0
102
RTVSPost2010PropOp33
 70
     1
102
RTVSPost2010Prop34
280
     0
102
RTVSPost2010PropOp34
 70
     1
102
RTVSPost2010Prop35
280
     0
102
RTVSPost2010PropOp35
 70
     1
102
RTVSPost2010Prop36
280
     0
102
RTVSPost2010PropOp36
 70
     1
102
RTVSPost2010Prop37
 90
       50
102
RTVSPost2010PropOp37
 70
     1
102
RTVSPost2010Prop38
140
0.0
102
RTVSPost2010PropOp38
 70
     1
102
RTVSPost2010Prop39
140
1.0
102
RTVSPost2010PropOp39
 70
     1
102
RTVSPost2010Prop40
 90
        0
102
RTVSPost2010PropOp40
 70
     1
102
RTVSPost2010Prop41ColorIndex
 90
       18
102
RTVSPost2010Prop41ColorRGB
 90
        0
102
RTVSPost2010PropOp41
 70
     1
102
RTVSPost2010Prop42
 90
       50
102
RTVSPost2010PropOp42
 70
     1
102
RTVSPost2010Prop43
 90
        3
102
RTVSPost2010PropOp43
 70
     1
102
RTVSPost2010Prop44ColorIndex
 90
        5
102
RTVSPost2010Prop44ColorRGB
 90
      255
102
RTVSPost2010PropOp44
 70
     1
102
RTVSPost2010Prop45
280
     0
102
RTVSPost2010PropOp45
 70
     1
102
RTVSPost2010Prop46
 90
       50
102
RTVSPost2010PropOp46
 70
     1
102
RTVSPost2010Prop47
 90
       50
102
RTVSPost2010PropOp47
 70
     1
102
RTVSPost2010Prop48
 90
       50
102
RTVSPost2010PropOp48
 70
     1
102
RTVSPost2010Prop49
280
     0
102
RTVSPost2010PropOp49
 70
     1
102
RTVSPost2010Prop50
 90
       50
102
RTVSPost2010PropOp50
 70
     1
102
RTVSPost2010Prop51ColorIndex
 90
      256
102
RTVSPost2010Prop51ColorRGB
 90
-16777216
102
RTVSPost2010PropOp51
 70
     0
102
RTVSPost2010Prop52
140
1.0
102
RTVSPost2010PropOp52
 70
     0
102
RTVSPost2010Prop53
 90
        2
102
RTVSPost2010PropOp53
 70
     1
102
RTVSPost2010Prop54
  1
strokes_ogs.tif
102
RTVSPost2010PropOp54
 70
     1
102
RTVSPost2010Prop55
280
     0
102
RTVSPost2010PropOp55
 70
     1
102
RTVSPost2010Prop56
140
1.0
102
RTVSPost2010PropOp56
 70
     1
102
RTVSPost2010Prop57
140
1.0
102
RTVSPost2010PropOp57
 70
     1
102
RTVSPropertyOp0
 70
     1
102
RTVSPropertyOp1
 70
     1
102
RTVSPropertyOp2
 70
     1
102
RTVSPropertyOp3
 70
     1
102
RTVSPropertyOp4
 70
     1
102
RTVSPropertyOp5
 70
     1
102
RTVSPropertyOp6
 70
     1
102
RTVSPropertyOp7
 70
     1
102
RTVSPropertyOp8
 70
     1
102
RTVSPropertyOp9
 70
     1
102
RTVSPropertyOp10
 70
     1
102
RTVSPropertyOp11
 70
     1
102
RTVSPropertyOp12
 70
     1
102
RTVSPropertyOp13
 70
     1
102
RTVSPropertyOp14
 70
     1
102
RTVSPropertyOp15
 70
     1
102
RTVSPropertyOp16
 70
     1
102
RTVSPropertyOp17
 70
     1
102
RTVSPropertyOp18
 70
     1
102
RTVSPropertyOp19
 70
     1
102
RTVSPropertyOp20
 70
     1
102
RTVSPropertyOp21
 70
     1
102
RTVSPropertyOp22
 70
     1
102
RTVSPropertyOp23
 70
     1
102
RTVSPropertyOp24
 70
     1
102
RTVSPropertyOp25
 70
     1
102
RTVSPropertyOp26
 70
     1
102
RTVSPropertyOp27
 70
     1
102
RTVSPropertyOp28
 70
     1
102
RTVSPropertyOp29
 70
     1
102
RTVSPropertyOp30
 70
     1
102
RTVSPropertyOp31
 70
     1
102
RTVSPropertyOp32
 70
     1
102
RTVSPropertyOp33
 70
     1
102
RTVSPropertyOp34
 70
     1
102
RTVSPropertyOp35
 70
     1
102
RTVSPropertyOp36
 70
     1
102
RTVSPropertyOp37
 70
     1
102
RTVSPropertyOp38
 70
     1
102
RTVSPropertyOp39
 70
     1
102
RTVSPropertyOp40
 70
     1
102
RTVSPropertyOp41
 70
     1
102
RTVSPropertyOp42
 70
     1
102
RTVSPropertyOp43
 70
     1
102
RTVSPropertyOp44
 70
     1
102
RTVSPropertyOp45
 70
     1
102
RTVSPropertyOp46
 70
     1
102
RTVSPropertyOp47
 70
     1
102
RTVSPropertyOp48
 70
     1
102
RTVSPropertyOp49
 70
     1
102
RTVSPropertyOp50
 70
     1
102
RTVSPropertyOp51
 70
     0
102
RTVSPropertyOp52
 70
     0
102
RTVSPropertyOp53
 70
     1
102
RTVSPropertyOp54
 70
     1
102
RTVSPropertyOp55
 70
     1
102
RTVSPropertyOp56
 70
     1
102
RTVSPropertyOp57
 70
     1
102
RTVSPropertyOp58
 70
     1
102
RTVSPropertyOp59
 70
     1
102
RTVSPropertyOp60
 70
     1
102
RTVSPropertyOp61
 70
     1
102
RTVSPropertyOp62
 70
     1
  0
ENDSEC
  0
EOF
