  0
SECTION
  2
HEADER
  9
$ACADVER
  1
AC1015
  9
$ACADMAINTVER
 70
    20
  9
$DWGCODEPAGE
  3
ANSI_932
  9
$INSBASE
 10
0.0
 20
0.0
 30
0.0
  9
$EXTMIN
 10
-0.1922460740788665
 20
-0.2700599612071528
 30
-0.0015258207003583
  9
$EXTMAX
 10
6300.192275410744
 20
8850.270101172235
 30
0.0000000349246037
  9
$LIMMIN
 10
0.0
 20
0.0
  9
$LIMMAX
 10
297.0
 20
210.0
  9
$ORTHOMODE
 70
     1
  9
$REGENMODE
 70
     1
  9
$FILLMODE
 70
     0
  9
$QTEXTMODE
 70
     0
  9
$MIRRTEXT
 70
     1
  9
$LTSCALE
 40
100.0
  9
$ATTMODE
 70
     1
  9
$TEXTSIZE
 40
180.0
  9
$TRACEWID
 40
0.05
  9
$TEXTSTYLE
  7
STANDARD
  9
$CLAYER
  8
3
  9
$CELTYPE
  6
ByLayer
  9
$CECOLOR
 62
   256
  9
$CELTSCALE
 40
1.0
  9
$DISPSILH
 70
     0
  9
$DIMSCALE
 40
30.0
  9
$DIMASZ
 40
2.0
  9
$DIMEXO
 40
1.0
  9
$DIMDLI
 40
10.0
  9
$DIMRND
 40
0.0
  9
$DIMDLE
 40
0.0
  9
$DIMEXE
 40
1.0
  9
$DIMTP
 40
1.0
  9
$DIMTM
 40
1.0
  9
$DIMTXT
 40
3.0
  9
$DIMCEN
 40
0.0
  9
$DIMTSZ
 40
0.0
  9
$DIMTOL
 70
     0
  9
$DIMLIM
 70
     0
  9
$DIMTIH
 70
     0
  9
$DIMTOH
 70
     0
  9
$DIMSE1
 70
     0
  9
$DIMSE2
 70
     0
  9
$DIMTAD
 70
     1
  9
$DIMZIN
 70
     8
  9
$DIMBLK
  1

  9
$DIMASO
 70
     1
  9
$DIMSHO
 70
     1
  9
$DIMPOST
  1

  9
$DIMAPOST
  1

  9
$DIMALT
 70
     0
  9
$DIMALTD
 70
     2
  9
$DIMALTF
 40
0.039
  9
$DIMLFAC
 40
1.0
  9
$DIMTOFL
 70
     1
  9
$DIMTVP
 40
0.0
  9
$DIMTIX
 70
     0
  9
$DIMSOXD
 70
     0
  9
$DIMSAH
 70
     1
  9
$DIMBLK1
  1
OPEN
  9
$DIMBLK2
  1
OPEN
  9
$DIMSTYLE
  2
IGA
  9
$DIMCLRD
 70
     0
  9
$DIMCLRE
 70
     0
  9
$DIMCLRT
 70
     0
  9
$DIMTFAC
 40
10.0
  9
$DIMGAP
 40
1.0
  9
$DIMJUST
 70
     0
  9
$DIMSD1
 70
     0
  9
$DIMSD2
 70
     0
  9
$DIMTOLJ
 70
     1
  9
$DIMTZIN
 70
     0
  9
$DIMALTZ
 70
     0
  9
$DIMALTTZ
 70
     0
  9
$DIMUPT
 70
     0
  9
$DIMDEC
 70
     4
  9
$DIMTDEC
 70
     4
  9
$DIMALTU
 70
     2
  9
$DIMALTTD
 70
     2
  9
$DIMTXSTY
  7
STANDARD
  9
$DIMAUNIT
 70
     0
  9
$DIMADEC
 70
     0
  9
$DIMALTRND
 40
0.0
  9
$DIMAZIN
 70
     0
  9
$DIMDSEP
 70
    46
  9
$DIMATFIT
 70
     3
  9
$DIMFRAC
 70
     0
  9
$DIMLDRBLK
  1
OPEN
  9
$DIMLUNIT
 70
     2
  9
$DIMLWD
 70
    -2
  9
$DIMLWE
 70
    -2
  9
$DIMTMOVE
 70
     0
  9
$LUNITS
 70
     2
  9
$LUPREC
 70
     3
  9
$SKETCHINC
 40
0.1
  9
$FILLETRAD
 40
50.0
  9
$AUNITS
 70
     0
  9
$AUPREC
 70
     0
  9
$MENU
  1
acad
  9
$ELEVATION
 40
0.0
  9
$PELEVATION
 40
0.0
  9
$THICKNESS
 40
0.0
  9
$LIMCHECK
 70
     0
  9
$CHAMFERA
 40
0.5
  9
$CHAMFERB
 40
0.5
  9
$CHAMFERC
 40
0.0
  9
$CHAMFERD
 40
0.0
  9
$SKPOLY
 70
     0
  9
$TDCREATE
 40
2451389.471649768
  9
$TDUCREATE
 40
2451389.096649768
  9
$TDUPDATE
 40
2460270.730402547
  9
$TDUUPDATE
 40
2460270.355402547
  9
$TDINDWG
 40
1.1361145139
  9
$TDUSRTIMER
 40
1.1361142708
  9
$USRTIMER
 70
     1
  9
$ANGBASE
 50
0.0
  9
$ANGDIR
 70
     0
  9
$PDMODE
 70
     0
  9
$PDSIZE
 40
0.0
  9
$PLINEWID
 40
0.0
  9
$SPLFRAME
 70
     0
  9
$SPLINETYPE
 70
     6
  9
$SPLINESEGS
 70
     8
  9
$HANDSEED
  5
88A5
  9
$SURFTAB1
 70
     6
  9
$SURFTAB2
 70
     6
  9
$SURFTYPE
 70
     6
  9
$SURFU
 70
     6
  9
$SURFV
 70
     6
  9
$UCSBASE
  2

  9
$UCSNAME
  2

  9
$UCSORG
 10
0.0
 20
0.0
 30
0.0
  9
$UCSXDIR
 10
1.0
 20
0.0
 30
0.0
  9
$UCSYDIR
 10
0.0
 20
1.0
 30
0.0
  9
$UCSORTHOREF
  2

  9
$UCSORTHOVIEW
 70
     0
  9
$UCSORGTOP
 10
0.0
 20
0.0
 30
0.0
  9
$UCSORGBOTTOM
 10
0.0
 20
0.0
 30
0.0
  9
$UCSORGLEFT
 10
0.0
 20
0.0
 30
0.0
  9
$UCSORGRIGHT
 10
0.0
 20
0.0
 30
0.0
  9
$UCSORGFRONT
 10
0.0
 20
0.0
 30
0.0
  9
$UCSORGBACK
 10
0.0
 20
0.0
 30
0.0
  9
$PUCSBASE
  2

  9
$PUCSNAME
  2

  9
$PUCSORG
 10
0.0
 20
0.0
 30
0.0
  9
$PUCSXDIR
 10
1.0
 20
0.0
 30
0.0
  9
$PUCSYDIR
 10
0.0
 20
1.0
 30
0.0
  9
$PUCSORTHOREF
  2

  9
$PUCSORTHOVIEW
 70
     0
  9
$PUCSORGTOP
 10
0.0
 20
0.0
 30
0.0
  9
$PUCSORGBOTTOM
 10
0.0
 20
0.0
 30
0.0
  9
$PUCSORGLEFT
 10
0.0
 20
0.0
 30
0.0
  9
$PUCSORGRIGHT
 10
0.0
 20
0.0
 30
0.0
  9
$PUCSORGFRONT
 10
0.0
 20
0.0
 30
0.0
  9
$PUCSORGBACK
 10
0.0
 20
0.0
 30
0.0
  9
$USERI1
 70
     0
  9
$USERI2
 70
     0
  9
$USERI3
 70
     0
  9
$USERI4
 70
     0
  9
$USERI5
 70
     0
  9
$USERR1
 40
0.0
  9
$USERR2
 40
0.0
  9
$USERR3
 40
0.0
  9
$USERR4
 40
0.0
  9
$USERR5
 40
0.0
  9
$WORLDVIEW
 70
     1
  9
$SHADEDGE
 70
     3
  9
$SHADEDIF
 70
    70
  9
$TILEMODE
 70
     1
  9
$MAXACTVP
 70
    16
  9
$PINSBASE
 10
0.0
 20
0.0
 30
0.0
  9
$PLIMCHECK
 70
     0
  9
$PEXTMIN
 10
1.000000000000000E+20
 20
1.000000000000000E+20
 30
1.000000000000000E+20
  9
$PEXTMAX
 10
-1.000000000000000E+20
 20
-1.000000000000000E+20
 30
-1.000000000000000E+20
  9
$PLIMMIN
 10
0.0
 20
0.0
  9
$PLIMMAX
 10
12.0
 20
9.0
  9
$UNITMODE
 70
     0
  9
$VISRETAIN
 70
     0
  9
$PLINEGEN
 70
     0
  9
$PSLTSCALE
 70
     1
  9
$TREEDEPTH
 70
  3020
  9
$CMLSTYLE
  2
Standard
  9
$CMLJUST
 70
     0
  9
$CMLSCALE
 40
1.0
  9
$PROXYGRAPHICS
 70
     1
  9
$MEASUREMENT
 70
     0
  9
$CELWEIGHT
370
    -1
  9
$ENDCAPS
280
     0
  9
$JOINSTYLE
280
     0
  9
$LWDISPLAY
290
     0
  9
$INSUNITS
 70
     0
  9
$HYPERLINKBASE
  1

  9
$STYLESHEET
  1

  9
$XEDIT
290
     1
  9
$CEPSNTYPE
380
     0
  9
$PSTYLEMODE
290
     1
  9
$FINGERPRINTGUID
  2
{9F603801-4F4E-4F79-9D14-0ABDE2460DF1}
  9
$VERSIONGUID
  2
{203CF32C-5AE6-46E2-9028-554437479FDC}
  9
$EXTNAMES
290
     1
  9
$PSVPSCALE
 40
0.0
  9
$OLESTARTUP
290
     0
  0
ENDSEC
  0
SECTION
  2
CLASSES
  0
CLASS
  1
ACDBDICTIONARYWDFLT
  2
AcDbDictionaryWithDefault
  3
ObjectDBX Classes
 90
        0
280
     0
281
     0
  0
CLASS
  1
MATERIAL
  2
AcDbMaterial
  3
ObjectDBX Classes
 90
     1153
280
     0
281
     0
  0
CLASS
  1
VISUALSTYLE
  2
AcDbVisualStyle
  3
ObjectDBX Classes
 90
     4095
280
     0
281
     0
  0
CLASS
  1
SCALE
  2
AcDbScale
  3
ObjectDBX Classes
 90
     1153
280
     0
281
     0
  0
CLASS
  1
TABLESTYLE
  2
AcDbTableStyle
  3
ObjectDBX Classes
 90
     4095
280
     0
281
     0
  0
CLASS
  1
MLEADERSTYLE
  2
AcDbMLeaderStyle
  3
ACDB_MLEADERSTYLE_CLASS
 90
     4095
280
     0
281
     0
  0
CLASS
  1
ACDBSECTIONVIEWSTYLE
  2
AcDbSectionViewStyle
  3
ObjectDBX Classes
 90
     1025
280
     0
281
     0
  0
CLASS
  1
ACDBDETAILVIEWSTYLE
  2
AcDbDetailViewStyle
  3
ObjectDBX Classes
 90
     1025
280
     0
281
     0
  0
CLASS
  1
SORTENTSTABLE
  2
AcDbSortentsTable
  3
ObjectDBX Classes
 90
        0
280
     0
281
     0
  0
CLASS
  1
DICTIONARYVAR
  2
AcDbDictionaryVar
  3
ObjectDBX Classes
 90
        0
280
     0
281
     0
  0
CLASS
  1
CELLSTYLEMAP
  2
AcDbCellStyleMap
  3
ObjectDBX Classes
 90
     1152
280
     0
281
     0
  0
CLASS
  1
ACDBPLACEHOLDER
  2
AcDbPlaceHolder
  3
ObjectDBX Classes
 90
        0
280
     0
281
     0
  0
CLASS
  1
LAYOUT
  2
AcDbLayout
  3
ObjectDBX Classes
 90
        0
280
     0
281
     0
  0
ENDSEC
  0
SECTION
  2
TABLES
  0
TABLE
  2
VPORT
  5
844D
330
0
100
AcDbSymbolTable
 70
     1
  0
VPORT
  5
84B9
330
844D
100
AcDbSymbolTableRecord
100
AcDbViewportTableRecord
  2
*ACTIVE
 70
     0
 10
0.0
 20
0.0
 11
1.0
 21
1.0
 12
2154.223539905817
 22
3452.171748136296
 13
0.0
 23
0.0
 14
10.0
 24
10.0
 15
10.0
 25
10.0
 16
0.0
 26
0.0
 36
1.0
 17
0.0
 27
0.0
 37
0.0
 40
6912.379526375454
 41
2.62292817679558
 42
50.0
 43
0.0
 44
0.0
 50
0.0
 51
0.0
 71
     0
 72
   100
 73
     1
 74
     0
 75
     0
 76
     0
 77
     0
 78
     0
281
     0
 65
     1
110
0.0
120
0.0
130
0.0
111
1.0
121
0.0
131
0.0
112
0.0
122
1.0
132
0.0
 79
     0
146
0.0
1001
ACAD_NAV_VCDISPLAY
1070
     3
  0
ENDTAB
  0
TABLE
  2
LTYPE
  5
844A
330
0
100
AcDbSymbolTable
 70
     3
  0
LTYPE
  5
849F
330
844A
100
AcDbSymbolTableRecord
100
AcDbLinetypeTableRecord
  2
ByBlock
 70
     0
  3

 72
    65
 73
     0
 40
0.0
  0
LTYPE
  5
84A0
330
844A
100
AcDbSymbolTableRecord
100
AcDbLinetypeTableRecord
  2
ByLayer
 70
     0
  3

 72
    65
 73
     0
 40
0.0
  0
LTYPE
  5
84A1
330
844A
100
AcDbSymbolTableRecord
100
AcDbLinetypeTableRecord
  2
CONTINUOUS
 70
     0
  3
Solid line
 72
    65
 73
     0
 40
0.0
  0
LTYPE
  5
84BA
330
844A
100
AcDbSymbolTableRecord
100
AcDbLinetypeTableRecord
  2
CENTER
 70
     0
  3
____ _ ____ _ ____ _ ____ _ ____ _ ____ _ ____ 
 72
    65
 73
     4
 40
2.0
 49
1.25
 74
     0
 49
-0.25
 74
     0
 49
0.25
 74
     0
 49
-0.25
 74
     0
  0
ENDTAB
  0
TABLE
  2
LAYER
  5
8447
330
0
100
AcDbSymbolTable
 70
     6
  0
LAYER
  5
8499
102
{ACAD_XDICTIONARY
360
880E
102
}
330
8447
100
AcDbSymbolTableRecord
100
AcDbLayerTableRecord
  2
0
 70
     0
 62
     7
  6
CONTINUOUS
370
    -3
390
8454
  0
LAYER
  5
84B8
102
{ACAD_XDICTIONARY
360
8810
102
}
330
8447
100
AcDbSymbolTableRecord
100
AcDbLayerTableRecord
  2
3
 70
     0
 62
     2
  6
CONTINUOUS
370
    -3
390
8454
  0
LAYER
  5
84BB
102
{ACAD_XDICTIONARY
360
8812
102
}
330
8447
100
AcDbSymbolTableRecord
100
AcDbLayerTableRecord
  2
2
 70
     0
 62
     3
  6
CENTER
370
    -3
390
8454
  0
LAYER
  5
84BC
102
{ACAD_XDICTIONARY
360
8814
102
}
330
8447
100
AcDbSymbolTableRecord
100
AcDbLayerTableRecord
  2
1
 70
     0
 62
     4
  6
CONTINUOUS
370
    -3
390
8454
  0
LAYER
  5
84BD
102
{ACAD_XDICTIONARY
360
8816
102
}
330
8447
100
AcDbSymbolTableRecord
100
AcDbLayerTableRecord
  2
4
 70
     0
 62
     7
  6
CONTINUOUS
370
    -3
390
8454
  0
LAYER
  5
84BE
330
8447
100
AcDbSymbolTableRecord
100
AcDbLayerTableRecord
  2
DEFPOINTS
 70
     0
 62
     7
  6
CONTINUOUS
290
     0
370
    -3
390
8454
  0
ENDTAB
  0
TABLE
  2
STYLE
  5
8448
330
0
100
AcDbSymbolTable
 70
     2
  0
STYLE
  5
849A
330
8448
100
AcDbSymbolTableRecord
100
AcDbTextStyleTableRecord
  2
STANDARD
 70
     0
 40
0.0
 41
1.0
 50
0.0
 71
     0
 42
180.0
  3
simplex.shx
  4
extfont.shx
  0
STYLE
  5
849E
330
8448
100
AcDbSymbolTableRecord
100
AcDbTextStyleTableRecord
  2
Annotative
 70
     0
 40
0.0
 41
1.0
 50
0.0
 71
     0
 42
0.2
  3
txt
  4

1001
AcadAnnotative
1000
AnnotativeData
1002
{
1070
     1
1070
     1
1002
}
  0
ENDTAB
  0
TABLE
  2
VIEW
  5
844B
330
0
100
AcDbSymbolTable
 70
     0
  0
ENDTAB
  0
TABLE
  2
UCS
  5
844C
330
0
100
AcDbSymbolTable
 70
     0
  0
ENDTAB
  0
TABLE
  2
APPID
  5
844E
330
0
100
AcDbSymbolTable
 70
     8
  0
APPID
  5
849B
330
844E
100
AcDbSymbolTableRecord
100
AcDbRegAppTableRecord
  2
ACAD
 70
     0
  0
APPID
  5
84A2
330
844E
100
AcDbSymbolTableRecord
100
AcDbRegAppTableRecord
  2
AcadAnnotative
 70
     0
  0
APPID
  5
84FD
330
844E
100
AcDbSymbolTableRecord
100
AcDbRegAppTableRecord
  2
ACAD_DSTYLE_DIMJAG
 70
     0
  0
APPID
  5
84FE
330
844E
100
AcDbSymbolTableRecord
100
AcDbRegAppTableRecord
  2
ACAD_DSTYLE_DIMTALN
 70
     0
  0
APPID
  5
8537
330
844E
100
AcDbSymbolTableRecord
100
AcDbRegAppTableRecord
  2
AcadAnnoMonitorAlertIconDisabled
 70
     0
  0
APPID
  5
8538
330
844E
100
AcDbSymbolTableRecord
100
AcDbRegAppTableRecord
  2
ACAD_EXEMPT_FROM_CAD_STANDARDS
 70
     0
  0
APPID
  5
8822
330
844E
100
AcDbSymbolTableRecord
100
AcDbRegAppTableRecord
  2
ACAD_NAV_VCDISPLAY
 70
     0
  0
APPID
  5
889C
330
844E
100
AcDbSymbolTableRecord
100
AcDbRegAppTableRecord
  2
ACAD_MLEADERVER
 70
     0
  0
ENDTAB
  0
TABLE
  2
DIMSTYLE
  5
844F
330
0
100
AcDbSymbolTable
 70
     3
100
AcDbDimStyleTable
 71
     1
340
84BF
  0
DIMSTYLE
105
849C
330
844F
100
AcDbSymbolTableRecord
100
AcDbDimStyleTableRecord
  2
Standard
 70
     0
340
849A
  0
DIMSTYLE
105
849D
330
844F
100
AcDbSymbolTableRecord
100
AcDbDimStyleTableRecord
  2
Annotative
 70
     0
340
849A
1001
AcadAnnotative
1000
AnnotativeData
1002
{
1070
     1
1070
     1
1002
}
  0
DIMSTYLE
105
84BF
102
{ACAD_REACTORS
330
84FF
330
850C
330
8519
330
852A
330
85ED
330
85FA
330
8607
330
8614
330
862E
330
863B
330
8648
330
8655
330
8662
330
866F
330
8685
330
8692
330
869F
330
86AC
330
86B9
330
86C6
330
86D8
330
87DD
102
}
330
844F
100
AcDbSymbolTableRecord
100
AcDbDimStyleTableRecord
  2
IGA
 70
     0
 40
2.0
 41
2.0
 42
0.5
 43
10.0
 44
1.0
 47
1.0
 48
1.0
 73
     0
 74
     0
 77
     1
 78
     8
140
3.0
141
0.0
143
0.03937
146
10.0
147
1.0
173
     1
271
     3
272
     3
279
     2
284
     8
285
     8
286
     8
340
849A
  0
ENDTAB
  0
TABLE
  2
BLOCK_RECORD
  5
8446
330
0
100
AcDbSymbolTable
 70
    59
  0
BLOCK_RECORD
  5
84B4
102
{ACAD_XDICTIONARY
360
8527
102
}
330
8446
100
AcDbSymbolTableRecord
100
AcDbBlockTableRecord
  2
*Model_Space
340
84B7
  0
BLOCK_RECORD
  5
84B0
330
8446
100
AcDbSymbolTableRecord
100
AcDbBlockTableRecord
  2
*Paper_Space
340
84B3
  0
BLOCK_RECORD
  5
84C3
330
8446
100
AcDbSymbolTableRecord
100
AcDbBlockTableRecord
  2
$MODEL_SPACE
340
0
  0
BLOCK_RECORD
  5
84C5
330
8446
100
AcDbSymbolTableRecord
100
AcDbBlockTableRecord
  2
$PAPER_SPACE
340
0
  0
BLOCK_RECORD
  5
84C7
330
8446
100
AcDbSymbolTableRecord
100
AcDbBlockTableRecord
  2
_OPEN
340
0
102
{BLKREFS
331
877F
331
83A3
331
83A4
331
83AC
331
83AD
331
83B5
331
83B6
331
83BE
331
83BF
331
83C7
331
83C8
331
8669
331
866A
331
867F
331
8680
331
868C
331
868D
331
8699
331
869A
331
86A6
331
86A7
331
86B3
331
86B4
331
86C0
331
86C1
331
83D0
331
83D1
331
83D9
331
83DA
331
83E2
331
83E3
331
83EB
331
83EC
331
83F4
331
83F5
331
8642
331
8643
331
864F
331
8650
331
865C
331
865D
331
83FD
331
83FE
331
8406
331
8407
331
840F
331
8410
331
8418
331
8419
331
8424
331
842C
331
842D
331
85F4
331
85F5
331
8601
331
8602
331
860E
331
860F
331
861B
331
861C
331
8635
331
8636
331
8585
331
8586
331
858E
331
858F
331
8211
331
8212
331
821E
331
821F
331
822B
331
822C
331
8238
331
8239
331
82BC
331
82BD
331
8520
331
8521
331
8546
331
8547
331
87D9
331
8808
331
8809
102
}
  0
BLOCK_RECORD
  5
84C9
330
8446
100
AcDbSymbolTableRecord
100
AcDbBlockTableRecord
  2
YA_N
340
0
102
{BLKREFS
331
7C31
331
7C4F
331
7C51
331
7CC1
102
}
  0
BLOCK_RECORD
  5
84CB
330
8446
100
AcDbSymbolTableRecord
100
AcDbBlockTableRecord
  2
*D4
340
0
  0
BLOCK_RECORD
  5
84CD
330
8446
100
AcDbSymbolTableRecord
100
AcDbBlockTableRecord
  2
*D5
340
0
  0
BLOCK_RECORD
  5
84CF
330
8446
100
AcDbSymbolTableRecord
100
AcDbBlockTableRecord
  2
*D6
340
0
  0
BLOCK_RECORD
  5
84D1
330
8446
100
AcDbSymbolTableRecord
100
AcDbBlockTableRecord
  2
*D7
340
0
  0
BLOCK_RECORD
  5
84D3
330
8446
100
AcDbSymbolTableRecord
100
AcDbBlockTableRecord
  2
*D8
340
0
  0
BLOCK_RECORD
  5
84D5
330
8446
100
AcDbSymbolTableRecord
100
AcDbBlockTableRecord
  2
*D9
340
0
  0
BLOCK_RECORD
  5
84D7
330
8446
100
AcDbSymbolTableRecord
100
AcDbBlockTableRecord
  2
*D10
340
0
  0
BLOCK_RECORD
  5
84D9
330
8446
100
AcDbSymbolTableRecord
100
AcDbBlockTableRecord
  2
*D11
340
0
  0
BLOCK_RECORD
  5
84DB
330
8446
100
AcDbSymbolTableRecord
100
AcDbBlockTableRecord
  2
*D12
340
0
  0
BLOCK_RECORD
  5
84DD
330
8446
100
AcDbSymbolTableRecord
100
AcDbBlockTableRecord
  2
*D13
340
0
  0
BLOCK_RECORD
  5
84DF
330
8446
100
AcDbSymbolTableRecord
100
AcDbBlockTableRecord
  2
*D14
340
0
  0
BLOCK_RECORD
  5
84E1
330
8446
100
AcDbSymbolTableRecord
100
AcDbBlockTableRecord
  2
*D15
340
0
  0
BLOCK_RECORD
  5
84E3
330
8446
100
AcDbSymbolTableRecord
100
AcDbBlockTableRecord
  2
*D16
340
0
  0
BLOCK_RECORD
  5
84E5
330
8446
100
AcDbSymbolTableRecord
100
AcDbBlockTableRecord
  2
*D17
340
0
  0
BLOCK_RECORD
  5
84E7
330
8446
100
AcDbSymbolTableRecord
100
AcDbBlockTableRecord
  2
*D18
340
0
  0
BLOCK_RECORD
  5
84E9
330
8446
100
AcDbSymbolTableRecord
100
AcDbBlockTableRecord
  2
_DOT
340
0
102
{BLKREFS
331
8423
102
}
  0
BLOCK_RECORD
  5
84EA
330
8446
100
AcDbSymbolTableRecord
100
AcDbBlockTableRecord
  2
*D20
340
0
  0
BLOCK_RECORD
  5
84ED
330
8446
100
AcDbSymbolTableRecord
100
AcDbBlockTableRecord
  2
*D21
340
0
  0
BLOCK_RECORD
  5
84EF
330
8446
100
AcDbSymbolTableRecord
100
AcDbBlockTableRecord
  2
*D22
340
0
  0
BLOCK_RECORD
  5
84F1
330
8446
100
AcDbSymbolTableRecord
100
AcDbBlockTableRecord
  2
*D23
340
0
  0
BLOCK_RECORD
  5
84F3
330
8446
100
AcDbSymbolTableRecord
100
AcDbBlockTableRecord
  2
*D24
340
0
  0
BLOCK_RECORD
  5
84F5
330
8446
100
AcDbSymbolTableRecord
100
AcDbBlockTableRecord
  2
_NONE
340
0
  0
BLOCK_RECORD
  5
84F7
330
8446
100
AcDbSymbolTableRecord
100
AcDbBlockTableRecord
  2
*D26
340
0
  0
BLOCK_RECORD
  5
84F9
330
8446
100
AcDbSymbolTableRecord
100
AcDbBlockTableRecord
  2
*D27
340
0
  0
BLOCK_RECORD
  5
8500
330
8446
100
AcDbSymbolTableRecord
100
AcDbBlockTableRecord
  2
*D28
340
0
  0
BLOCK_RECORD
  5
850D
330
8446
100
AcDbSymbolTableRecord
100
AcDbBlockTableRecord
  2
*D29
340
0
  0
BLOCK_RECORD
  5
851A
330
8446
100
AcDbSymbolTableRecord
100
AcDbBlockTableRecord
  2
*D30
340
0
  0
BLOCK_RECORD
  5
852B
330
8446
100
AcDbSymbolTableRecord
100
AcDbBlockTableRecord
  2
*D31
340
0
  0
BLOCK_RECORD
  5
8594
330
8446
100
AcDbSymbolTableRecord
100
AcDbBlockTableRecord
  2
*D32
340
0
  0
BLOCK_RECORD
  5
85A1
330
8446
100
AcDbSymbolTableRecord
100
AcDbBlockTableRecord
  2
*D33
340
0
  0
BLOCK_RECORD
  5
85AE
330
8446
100
AcDbSymbolTableRecord
100
AcDbBlockTableRecord
  2
*D34
340
0
  0
BLOCK_RECORD
  5
85BB
330
8446
100
AcDbSymbolTableRecord
100
AcDbBlockTableRecord
  2
*D35
340
0
  0
BLOCK_RECORD
  5
85C8
330
8446
100
AcDbSymbolTableRecord
100
AcDbBlockTableRecord
  2
*D36
340
0
  0
BLOCK_RECORD
  5
85D3
330
8446
100
AcDbSymbolTableRecord
100
AcDbBlockTableRecord
  2
*D37
340
0
  0
BLOCK_RECORD
  5
85E0
330
8446
100
AcDbSymbolTableRecord
100
AcDbBlockTableRecord
  2
*D38
340
0
  0
BLOCK_RECORD
  5
85EE
330
8446
100
AcDbSymbolTableRecord
100
AcDbBlockTableRecord
  2
*D39
340
0
  0
BLOCK_RECORD
  5
85FB
330
8446
100
AcDbSymbolTableRecord
100
AcDbBlockTableRecord
  2
*D40
340
0
  0
BLOCK_RECORD
  5
8608
330
8446
100
AcDbSymbolTableRecord
100
AcDbBlockTableRecord
  2
*D41
340
0
  0
BLOCK_RECORD
  5
8615
330
8446
100
AcDbSymbolTableRecord
100
AcDbBlockTableRecord
  2
*D42
340
0
  0
BLOCK_RECORD
  5
8621
330
8446
100
AcDbSymbolTableRecord
100
AcDbBlockTableRecord
  2
*D43
340
0
  0
BLOCK_RECORD
  5
862F
330
8446
100
AcDbSymbolTableRecord
100
AcDbBlockTableRecord
  2
*D44
340
0
  0
BLOCK_RECORD
  5
863C
330
8446
100
AcDbSymbolTableRecord
100
AcDbBlockTableRecord
  2
*D45
340
0
  0
BLOCK_RECORD
  5
8649
330
8446
100
AcDbSymbolTableRecord
100
AcDbBlockTableRecord
  2
*D46
340
0
  0
BLOCK_RECORD
  5
8656
330
8446
100
AcDbSymbolTableRecord
100
AcDbBlockTableRecord
  2
*D47
340
0
  0
BLOCK_RECORD
  5
8663
330
8446
100
AcDbSymbolTableRecord
100
AcDbBlockTableRecord
  2
*D48
340
0
  0
BLOCK_RECORD
  5
8670
330
8446
100
AcDbSymbolTableRecord
100
AcDbBlockTableRecord
  2
*D49
340
0
  0
BLOCK_RECORD
  5
8686
330
8446
100
AcDbSymbolTableRecord
100
AcDbBlockTableRecord
  2
*D50
340
0
  0
BLOCK_RECORD
  5
8693
330
8446
100
AcDbSymbolTableRecord
100
AcDbBlockTableRecord
  2
*D51
340
0
  0
BLOCK_RECORD
  5
86A0
330
8446
100
AcDbSymbolTableRecord
100
AcDbBlockTableRecord
  2
*D52
340
0
  0
BLOCK_RECORD
  5
86AD
330
8446
100
AcDbSymbolTableRecord
100
AcDbBlockTableRecord
  2
*D53
340
0
  0
BLOCK_RECORD
  5
86BA
330
8446
100
AcDbSymbolTableRecord
100
AcDbBlockTableRecord
  2
*D54
340
0
  0
BLOCK_RECORD
  5
86C7
330
8446
100
AcDbSymbolTableRecord
100
AcDbBlockTableRecord
  2
*D55
340
0
  0
BLOCK_RECORD
  5
86D9
330
8446
100
AcDbSymbolTableRecord
100
AcDbBlockTableRecord
  2
*D56
340
0
  0
BLOCK_RECORD
  5
8772
330
8446
100
AcDbSymbolTableRecord
100
AcDbBlockTableRecord
  2
_DotSmall
340
0
102
{BLKREFS
331
8780
331
87D8
102
}
  0
BLOCK_RECORD
  5
87DE
330
8446
100
AcDbSymbolTableRecord
100
AcDbBlockTableRecord
  2
*D58
340
0
  0
ENDTAB
  0
ENDSEC
  0
SECTION
  2
BLOCKS
  0
BLOCK
  5
84B5
330
84B4
100
AcDbEntity
  8
0
100
AcDbBlockBegin
  2
*Model_Space
 70
     0
 10
0.0
 20
0.0
 30
0.0
  3
*Model_Space
  1

  0
ENDBLK
  5
84B6
330
84B4
100
AcDbEntity
  8
0
100
AcDbBlockEnd
  0
BLOCK
  5
84B1
330
84B0
100
AcDbEntity
 67
     1
  8
0
100
AcDbBlockBegin
  2
*Paper_Space
 70
     0
 10
0.0
 20
0.0
 30
0.0
  3
*Paper_Space
  1

  0
ENDBLK
  5
84B2
330
84B0
100
AcDbEntity
 67
     1
  8
0
100
AcDbBlockEnd
  0
BLOCK
  5
84C4
330
84C3
100
AcDbEntity
  8
0
100
AcDbBlockBegin
  2
$MODEL_SPACE
 70
     0
 10
0.0
 20
0.0
 30
0.0
  3
$MODEL_SPACE
  1

  0
ENDBLK
  5
1B
330
84C3
100
AcDbEntity
  8
0
100
AcDbBlockEnd
  0
BLOCK
  5
84C6
330
84C5
100
AcDbEntity
  8
0
100
AcDbBlockBegin
  2
$PAPER_SPACE
 70
     0
 10
0.0
 20
0.0
 30
0.0
  3
$PAPER_SPACE
  1

  0
ENDBLK
  5
18
330
84C5
100
AcDbEntity
  8
0
100
AcDbBlockEnd
  0
BLOCK
  5
84C8
330
84C7
100
AcDbEntity
  8
0
100
AcDbBlockBegin
  2
_OPEN
 70
     0
 10
0.0
 20
0.0
 30
0.0
  3
_OPEN
  1

  0
LINE
  5
79FD
330
84C7
100
AcDbEntity
  8
0
  6
ByBlock
 62
     0
100
AcDbLine
 10
-1.0
 20
0.1666666666666666
 30
0.0
 11
0.0
 21
0.0
 31
0.0
  0
LINE
  5
79FE
330
84C7
100
AcDbEntity
  8
0
  6
ByBlock
 62
     0
100
AcDbLine
 10
0.0
 20
0.0
 30
0.0
 11
-1.0
 21
-0.1666666666666666
 31
0.0
  0
LINE
  5
79FF
330
84C7
100
AcDbEntity
  8
0
  6
ByBlock
 62
     0
100
AcDbLine
 10
0.0
 20
0.0
 30
0.0
 11
-1.0
 21
0.0
 31
0.0
  0
ENDBLK
  5
7A01
330
84C7
100
AcDbEntity
  8
0
100
AcDbBlockEnd
  0
BLOCK
  5
84CA
330
84C9
100
AcDbEntity
  8
0
100
AcDbBlockBegin
  2
YA_N
 70
     0
 10
0.0
 20
0.0
 30
0.0
  3
YA_N
  1

  0
ENDBLK
  5
7A0C
330
84C9
100
AcDbEntity
  8
0
100
AcDbBlockEnd
  0
BLOCK
  5
84CC
330
84CB
100
AcDbEntity
  8
0
100
AcDbBlockBegin
  2
*D4
 70
     1
 10
0.0
 20
0.0
 30
0.0
  3
*D4
  1

  0
LINE
  5
83A0
330
84CB
100
AcDbEntity
  8
3
 62
     0
100
AcDbLine
 10
2790.942858765823
 20
3748.454481859345
 30
0.0
 11
2955.557967209033
 21
3748.454481859345
 31
0.0
  0
LINE
  5
83A1
330
84CB
100
AcDbEntity
  8
3
 62
     0
100
AcDbLine
 10
2790.942858765823
 20
2823.454481859346
 30
0.0
 11
2955.557967209033
 21
2823.454481859346
 31
0.0
  0
LINE
  5
83A2
330
84CB
100
AcDbEntity
  8
3
 62
     0
100
AcDbLine
 10
2925.557967209033
 20
3688.454481859346
 30
0.0
 11
2925.557967209033
 21
2883.454481859345
 31
0.0
  0
INSERT
  5
83A3
330
84CB
100
AcDbEntity
  8
3
 62
     0
100
AcDbBlockReference
  2
_OPEN
 10
2925.557967209033
 20
3748.454481859345
 30
0.0
 41
60.0
 42
60.0
 43
60.0
 50
90.0
  0
INSERT
  5
83A4
330
84CB
100
AcDbEntity
  8
3
 62
     0
100
AcDbBlockReference
  2
_OPEN
 10
2925.557967209033
 20
2823.454481859346
 30
0.0
 41
60.0
 42
60.0
 43
60.0
 50
270.0
  0
TEXT
  5
8435
330
84CB
100
AcDbEntity
  8
3
 62
     0
100
AcDbText
 10
2670.56
 20
3126.65
 30
0.0
 40
90.0
  1
925
100
AcDbText
  0
POINT
  5
83A6
330
84CB
100
AcDbEntity
  8
DEFPOINTS
 62
     0
100
AcDbPoint
 10
2775.942858765823
 20
3748.454481859345
 30
0.0
  0
POINT
  5
83A7
330
84CB
100
AcDbEntity
  8
DEFPOINTS
 62
     0
100
AcDbPoint
 10
2775.942858765823
 20
2823.454481859346
 30
0.0
  0
POINT
  5
83A8
330
84CB
100
AcDbEntity
  8
DEFPOINTS
 62
     0
100
AcDbPoint
 10
2925.557967209033
 20
2823.454481859346
 30
0.0
  0
ENDBLK
  5
81A0
330
84CB
100
AcDbEntity
  8
0
100
AcDbBlockEnd
  0
BLOCK
  5
84CE
330
84CD
100
AcDbEntity
  8
0
100
AcDbBlockBegin
  2
*D5
 70
     1
 10
0.0
 20
0.0
 30
0.0
  3
*D5
  1

  0
LINE
  5
83A9
330
84CD
100
AcDbEntity
  8
3
 62
     0
100
AcDbLine
 10
2790.942858765823
 20
3748.454481859345
 30
0.0
 11
3105.901267306895
 21
3748.454481859345
 31
0.0
  0
LINE
  5
83AA
330
84CD
100
AcDbEntity
  8
3
 62
     0
100
AcDbLine
 10
2827.198197544369
 20
2787.454481859346
 30
0.0
 11
3105.901267306895
 21
2787.454481859345
 31
0.0
  0
LINE
  5
83AB
330
84CD
100
AcDbEntity
  8
3
 62
     0
100
AcDbLine
 10
3075.901267306896
 20
3688.454481859345
 30
0.0
 11
3075.901267306895
 21
2847.454481859345
 31
0.0
  0
INSERT
  5
83AC
330
84CD
100
AcDbEntity
  8
3
 62
     0
100
AcDbBlockReference
  2
_OPEN
 10
3075.901267306896
 20
3748.454481859345
 30
0.0
 41
60.0
 42
60.0
 43
60.0
 50
90.0
  0
INSERT
  5
83AD
330
84CD
100
AcDbEntity
  8
3
 62
     0
100
AcDbBlockReference
  2
_OPEN
 10
3075.901267306895
 20
2787.454481859345
 30
0.0
 41
60.0
 42
60.0
 43
60.0
 50
270.0
  0
TEXT
  5
8436
330
84CD
100
AcDbEntity
  8
3
 62
     0
100
AcDbText
 10
2820.9
 20
3108.65
 30
0.0
 40
90.0
  1
961
100
AcDbText
  0
POINT
  5
83AF
330
84CD
100
AcDbEntity
  8
DEFPOINTS
 62
     0
100
AcDbPoint
 10
2775.942858765823
 20
3748.454481859345
 30
0.0
  0
POINT
  5
83B0
330
84CD
100
AcDbEntity
  8
DEFPOINTS
 62
     0
100
AcDbPoint
 10
2812.198197544368
 20
2787.454481859346
 30
0.0
  0
POINT
  5
83B1
330
84CD
100
AcDbEntity
  8
DEFPOINTS
 62
     0
100
AcDbPoint
 10
3075.901267306895
 20
2787.454481859345
 30
0.0
  0
ENDBLK
  5
81AB
330
84CD
100
AcDbEntity
  8
0
100
AcDbBlockEnd
  0
BLOCK
  5
84D0
330
84CF
100
AcDbEntity
  8
0
100
AcDbBlockBegin
  2
*D6
 70
     1
 10
0.0
 20
0.0
 30
0.0
  3
*D6
  1

  0
LINE
  5
83B2
330
84CF
100
AcDbEntity
  8
3
 62
     0
100
AcDbLine
 10
2827.198197544369
 20
2787.454481859346
 30
0.0
 11
3105.901267306895
 21
2787.454481859345
 31
0.0
  0
LINE
  5
83B3
330
84CF
100
AcDbEntity
  8
3
 62
     0
100
AcDbLine
 10
2730.942858765823
 20
2107.454481859345
 30
0.0
 11
3105.901267306895
 21
2107.454481859345
 31
0.0
  0
LINE
  5
83B4
330
84CF
100
AcDbEntity
  8
3
 62
     0
100
AcDbLine
 10
3075.901267306895
 20
2727.454481859345
 30
0.0
 11
3075.901267306895
 21
2167.454481859345
 31
0.0
  0
INSERT
  5
83B5
330
84CF
100
AcDbEntity
  8
3
 62
     0
100
AcDbBlockReference
  2
_OPEN
 10
3075.901267306895
 20
2787.454481859345
 30
0.0
 41
60.0
 42
60.0
 43
60.0
 50
90.0
  0
INSERT
  5
83B6
330
84CF
100
AcDbEntity
  8
3
 62
     0
100
AcDbBlockReference
  2
_OPEN
 10
3075.901267306895
 20
2107.454481859345
 30
0.0
 41
60.0
 42
60.0
 43
60.0
 50
270.0
  0
TEXT
  5
8437
330
84CF
100
AcDbEntity
  8
3
 62
     0
100
AcDbText
 10
2820.9
 20
2288.15
 30
0.0
 40
90.0
  1
680
100
AcDbText
  0
POINT
  5
83B8
330
84CF
100
AcDbEntity
  8
DEFPOINTS
 62
     0
100
AcDbPoint
 10
2812.198197544368
 20
2787.454481859346
 30
0.0
  0
POINT
  5
83B9
330
84CF
100
AcDbEntity
  8
DEFPOINTS
 62
     0
100
AcDbPoint
 10
2715.942858765824
 20
2107.454481859345
 30
0.0
  0
POINT
  5
83BA
330
84CF
100
AcDbEntity
  8
DEFPOINTS
 62
     0
100
AcDbPoint
 10
3075.901267306895
 20
2107.454481859345
 30
0.0
  0
ENDBLK
  5
81B6
330
84CF
100
AcDbEntity
  8
0
100
AcDbBlockEnd
  0
BLOCK
  5
84D2
330
84D1
100
AcDbEntity
  8
0
100
AcDbBlockBegin
  2
*D7
 70
     1
 10
0.0
 20
0.0
 30
0.0
  3
*D7
  1

  0
LINE
  5
83BB
330
84D1
100
AcDbEntity
  8
3
 62
     0
100
AcDbLine
 10
2775.942858765823
 20
3805.954481859346
 30
0.0
 11
2775.942858765823
 21
3971.848891574977
 31
0.0
  0
LINE
  5
83BC
330
84D1
100
AcDbEntity
  8
3
 62
     0
100
AcDbLine
 10
2155.942858765823
 20
3804.416924202904
 30
0.0
 11
2155.942858765823
 21
3971.848891574977
 31
0.0
  0
LINE
  5
83BD
330
84D1
100
AcDbEntity
  8
3
 62
     0
100
AcDbLine
 10
2715.942858765823
 20
3941.848891574977
 30
0.0
 11
2215.942858765822
 21
3941.848891574977
 31
0.0
  0
INSERT
  5
83BE
330
84D1
100
AcDbEntity
  8
3
 62
     0
100
AcDbBlockReference
  2
_OPEN
 10
2775.942858765823
 20
3941.848891574977
 30
0.0
 41
60.0
 42
60.0
 43
60.0
  0
INSERT
  5
83BF
330
84D1
100
AcDbEntity
  8
3
 62
     0
100
AcDbBlockReference
  2
_OPEN
 10
2155.942858765823
 20
3941.848891574977
 30
0.0
 41
60.0
 42
60.0
 43
60.0
 50
180.0
  0
TEXT
  5
8438
330
84D1
100
AcDbEntity
  8
3
 62
     0
100
AcDbText
 10
2285.94
 20
3857.550000000001
 30
0.0
 40
90.0
  1
620
100
AcDbText
  0
POINT
  5
83C1
330
84D1
100
AcDbEntity
  8
DEFPOINTS
 62
     0
100
AcDbPoint
 10
2775.942858765823
 20
3790.954481859346
 30
0.0
  0
POINT
  5
83C2
330
84D1
100
AcDbEntity
  8
DEFPOINTS
 62
     0
100
AcDbPoint
 10
2155.942858765823
 20
3789.416924202903
 30
0.0
  0
POINT
  5
83C3
330
84D1
100
AcDbEntity
  8
DEFPOINTS
 62
     0
100
AcDbPoint
 10
2155.942858765823
 20
3941.848891574977
 30
0.0
  0
ENDBLK
  5
818A
330
84D1
100
AcDbEntity
  8
0
100
AcDbBlockEnd
  0
BLOCK
  5
84D4
330
84D3
100
AcDbEntity
  8
0
100
AcDbBlockBegin
  2
*D8
 70
     1
 10
0.0
 20
0.0
 30
0.0
  3
*D8
  1

  0
LINE
  5
83C4
330
84D3
100
AcDbEntity
  8
3
 62
     0
100
AcDbLine
 10
2155.942858765823
 20
3804.416924202904
 30
0.0
 11
2155.942858765823
 21
3972.092091564402
 31
0.0
  0
LINE
  5
83C5
330
84D3
100
AcDbEntity
  8
3
 62
     0
100
AcDbLine
 10
1382.11119563803
 20
2802.454481859346
 30
0.0
 11
1382.11119563803
 21
3972.092091564402
 31
0.0
  0
LINE
  5
83C6
330
84D3
100
AcDbEntity
  8
3
 62
     0
100
AcDbLine
 10
2095.942858765823
 20
3942.092091564402
 30
0.0
 11
1442.11119563803
 21
3942.092091564402
 31
0.0
  0
INSERT
  5
83C7
330
84D3
100
AcDbEntity
  8
3
 62
     0
100
AcDbBlockReference
  2
_OPEN
 10
2155.942858765823
 20
3942.092091564402
 30
0.0
 41
60.0
 42
60.0
 43
60.0
  0
INSERT
  5
83C8
330
84D3
100
AcDbEntity
  8
3
 62
     0
100
AcDbBlockReference
  2
_OPEN
 10
1382.11119563803
 20
3942.092091564402
 30
0.0
 41
60.0
 42
60.0
 43
60.0
 50
180.0
  0
TEXT
  5
8439
330
84D3
100
AcDbEntity
  8
3
 62
     0
100
AcDbText
 10
1589.03
 20
3857.79
 30
0.0
 40
90.0
  1
777
100
AcDbText
  0
POINT
  5
83CA
330
84D3
100
AcDbEntity
  8
DEFPOINTS
 62
     0
100
AcDbPoint
 10
2155.942858765823
 20
3789.416924202903
 30
0.0
  0
POINT
  5
83CB
330
84D3
100
AcDbEntity
  8
DEFPOINTS
 62
     0
100
AcDbPoint
 10
1382.11119563803
 20
2787.454481859346
 30
0.0
  0
POINT
  5
83CC
330
84D3
100
AcDbEntity
  8
DEFPOINTS
 62
     0
100
AcDbPoint
 10
1382.11119563803
 20
3942.092091564402
 30
0.0
  0
ENDBLK
  5
817F
330
84D3
100
AcDbEntity
  8
0
100
AcDbBlockEnd
  0
BLOCK
  5
84D6
330
84D5
100
AcDbEntity
  8
0
100
AcDbBlockBegin
  2
*D9
 70
     1
 10
0.0
 20
0.0
 30
0.0
  3
*D9
  1

  0
LINE
  5
83CD
330
84D5
100
AcDbEntity
  8
3
 62
     0
100
AcDbLine
 10
4106.111918802633
 20
3732.913066074655
 30
0.0
 11
4106.111918802633
 21
3971.646435392973
 31
0.0
  0
LINE
  5
83CE
330
84D5
100
AcDbEntity
  8
3
 62
     0
100
AcDbLine
 10
5226.111918802633
 20
3735.956459412383
 30
0.0
 11
5226.111918802633
 21
3971.646435392973
 31
0.0
  0
LINE
  5
83CF
330
84D5
100
AcDbEntity
  8
3
 62
     0
100
AcDbLine
 10
4166.111918802633
 20
3941.646435392974
 30
0.0
 11
5166.111918802633
 21
3941.646435392974
 31
0.0
  0
INSERT
  5
83D0
330
84D5
100
AcDbEntity
  8
3
 62
     0
100
AcDbBlockReference
  2
_OPEN
 10
4106.111918802633
 20
3941.646435392974
 30
0.0
 41
60.0
 42
60.0
 43
60.0
 50
180.0
  0
INSERT
  5
83D1
330
84D5
100
AcDbEntity
  8
3
 62
     0
100
AcDbBlockReference
  2
_OPEN
 10
5226.111918802633
 20
3941.646435392974
 30
0.0
 41
60.0
 42
60.0
 43
60.0
  0
TEXT
  5
843A
330
84D5
100
AcDbEntity
  8
3
 62
     0
100
AcDbText
 10
4486.11
 20
3857.35
 30
0.0
 40
90.0
  1
1120
100
AcDbText
  0
POINT
  5
83D3
330
84D5
100
AcDbEntity
  8
DEFPOINTS
 62
     0
100
AcDbPoint
 10
4106.111918802633
 20
3717.913066074654
 30
0.0
  0
POINT
  5
83D4
330
84D5
100
AcDbEntity
  8
DEFPOINTS
 62
     0
100
AcDbPoint
 10
5226.111918802633
 20
3720.956459412383
 30
0.0
  0
POINT
  5
83D5
330
84D5
100
AcDbEntity
  8
DEFPOINTS
 62
     0
100
AcDbPoint
 10
5226.111918802633
 20
3941.646435392974
 30
0.0
  0
ENDBLK
  5
81E2
330
84D5
100
AcDbEntity
  8
0
100
AcDbBlockEnd
  0
BLOCK
  5
84D8
330
84D7
100
AcDbEntity
  8
0
100
AcDbBlockBegin
  2
*D10
 70
     1
 10
0.0
 20
0.0
 30
0.0
  3
*D10
  1

  0
LINE
  5
83D6
330
84D7
100
AcDbEntity
  8
3
 62
     0
100
AcDbLine
 10
3768.111918802631
 20
3082.454481859346
 30
0.0
 11
3768.111918802631
 21
4179.366356043397
 31
0.0
  0
LINE
  5
83D7
330
84D7
100
AcDbEntity
  8
3
 62
     0
100
AcDbLine
 10
4666.111918802633
 20
4087.237520526025
 30
0.0
 11
4666.111918802633
 21
4179.366356043397
 31
0.0
  0
LINE
  5
83D8
330
84D7
100
AcDbEntity
  8
3
 62
     0
100
AcDbLine
 10
3828.111918802632
 20
4149.366356043397
 30
0.0
 11
4606.111918802633
 21
4149.366356043397
 31
0.0
  0
INSERT
  5
83D9
330
84D7
100
AcDbEntity
  8
3
 62
     0
100
AcDbBlockReference
  2
_OPEN
 10
3768.111918802631
 20
4149.366356043397
 30
0.0
 41
60.0
 42
60.0
 43
60.0
 50
180.0
  0
INSERT
  5
83DA
330
84D7
100
AcDbEntity
  8
3
 62
     0
100
AcDbBlockReference
  2
_OPEN
 10
4666.111918802633
 20
4149.366356043397
 30
0.0
 41
60.0
 42
60.0
 43
60.0
  0
TEXT
  5
843B
330
84D7
100
AcDbEntity
  8
3
 62
     0
100
AcDbText
 10
4037.110000000001
 20
4140.07
 30
0.0
 40
90.0
  1
MAX
100
AcDbText
  0
TEXT
  5
843C
330
84D7
100
AcDbEntity
  8
3
 62
     0
100
AcDbText
 10
4037.110000000001
 20
4023.07
 30
0.0
 40
90.0
  1
920
100
AcDbText
  0
POINT
  5
83DC
330
84D7
100
AcDbEntity
  8
DEFPOINTS
 62
     0
100
AcDbPoint
 10
3768.111918802631
 20
3067.454481859346
 30
0.0
  0
POINT
  5
83DD
330
84D7
100
AcDbEntity
  8
DEFPOINTS
 62
     0
100
AcDbPoint
 10
4666.111918802633
 20
4072.237520526026
 30
0.0
  0
POINT
  5
83DE
330
84D7
100
AcDbEntity
  8
DEFPOINTS
 62
     0
100
AcDbPoint
 10
4666.111918802633
 20
4149.366356043397
 30
0.0
  0
ENDBLK
  5
81ED
330
84D7
100
AcDbEntity
  8
0
100
AcDbBlockEnd
  0
BLOCK
  5
84DA
330
84D9
100
AcDbEntity
  8
0
100
AcDbBlockBegin
  2
*D11
 70
     1
 10
0.0
 20
0.0
 30
0.0
  3
*D11
  1

  0
LINE
  5
83DF
330
84D9
100
AcDbEntity
  8
3
 62
     0
100
AcDbLine
 10
4666.111918802633
 20
4087.237520526025
 30
0.0
 11
4666.111918802633
 21
4179.366356043397
 31
0.0
  0
LINE
  5
83E0
330
84D9
100
AcDbEntity
  8
3
 62
     0
100
AcDbLine
 10
5335.611918802634
 20
2762.954481859345
 30
0.0
 11
5335.611918802634
 21
4179.366356043397
 31
0.0
  0
LINE
  5
83E1
330
84D9
100
AcDbEntity
  8
3
 62
     0
100
AcDbLine
 10
4726.111918802633
 20
4149.366356043397
 30
0.0
 11
5275.611918802631
 21
4149.366356043397
 31
0.0
  0
INSERT
  5
83E2
330
84D9
100
AcDbEntity
  8
3
 62
     0
100
AcDbBlockReference
  2
_OPEN
 10
4666.111918802633
 20
4149.366356043397
 30
0.0
 41
60.0
 42
60.0
 43
60.0
 50
180.0
  0
INSERT
  5
83E3
330
84D9
100
AcDbEntity
  8
3
 62
     0
100
AcDbBlockReference
  2
_OPEN
 10
5335.611918802634
 20
4149.366356043397
 30
0.0
 41
60.0
 42
60.0
 43
60.0
  0
TEXT
  5
843D
330
84D9
100
AcDbEntity
  8
3
 62
     0
100
AcDbText
 10
4820.859999999999
 20
4088.64
 30
0.0
 40
90.0
  1
(680)
100
AcDbText
  0
POINT
  5
83E5
330
84D9
100
AcDbEntity
  8
DEFPOINTS
 62
     0
100
AcDbPoint
 10
4666.111918802633
 20
4072.237520526026
 30
0.0
  0
POINT
  5
83E6
330
84D9
100
AcDbEntity
  8
DEFPOINTS
 62
     0
100
AcDbPoint
 10
5335.611918802634
 20
2747.954481859345
 30
0.0
  0
POINT
  5
83E7
330
84D9
100
AcDbEntity
  8
DEFPOINTS
 62
     0
100
AcDbPoint
 10
5335.611918802634
 20
4149.366356043397
 30
0.0
  0
ENDBLK
  5
81F8
330
84D9
100
AcDbEntity
  8
0
100
AcDbBlockEnd
  0
BLOCK
  5
84DC
330
84DB
100
AcDbEntity
  8
0
100
AcDbBlockBegin
  2
*D12
 70
     1
 10
0.0
 20
0.0
 30
0.0
  3
*D12
  1

  0
LINE
  5
83E8
330
84DB
100
AcDbEntity
  8
3
 62
     0
100
AcDbLine
 10
845.9428587658239
 20
5620.453943093273
 30
0.0
 11
845.9428587658239
 21
6512.468601598492
 31
0.0
  0
LINE
  5
83E9
330
84DB
100
AcDbEntity
  8
3
 62
     0
100
AcDbLine
 10
1595.942858765823
 20
6195.453943093272
 30
0.0
 11
1595.942858765823
 21
6512.468601598492
 31
0.0
  0
LINE
  5
83EA
330
84DB
100
AcDbEntity
  8
3
 62
     0
100
AcDbLine
 10
905.942858765824
 20
6482.468601598494
 30
0.0
 11
1535.942858765823
 21
6482.468601598494
 31
0.0
  0
INSERT
  5
83EB
330
84DB
100
AcDbEntity
  8
3
 62
     0
100
AcDbBlockReference
  2
_OPEN
 10
845.9428587658239
 20
6482.468601598494
 30
0.0
 41
60.0
 42
60.0
 43
60.0
 50
180.0
  0
INSERT
  5
83EC
330
84DB
100
AcDbEntity
  8
3
 62
     0
100
AcDbBlockReference
  2
_OPEN
 10
1595.942858765823
 20
6482.468601598494
 30
0.0
 41
60.0
 42
60.0
 43
60.0
  0
TEXT
  5
843E
330
84DB
100
AcDbEntity
  8
3
 62
     0
100
AcDbText
 10
1040.94
 20
6398.17
 30
0.0
 40
90.0
  1
750
100
AcDbText
  0
POINT
  5
83EE
330
84DB
100
AcDbEntity
  8
DEFPOINTS
 62
     0
100
AcDbPoint
 10
845.9428587658239
 20
5605.453943093273
 30
0.0
  0
POINT
  5
83EF
330
84DB
100
AcDbEntity
  8
DEFPOINTS
 62
     0
100
AcDbPoint
 10
1595.942858765823
 20
6180.453943093272
 30
0.0
  0
POINT
  5
83F0
330
84DB
100
AcDbEntity
  8
DEFPOINTS
 62
     0
100
AcDbPoint
 10
1595.942858765823
 20
6482.468601598494
 30
0.0
  0
ENDBLK
  5
8132
330
84DB
100
AcDbEntity
  8
0
100
AcDbBlockEnd
  0
BLOCK
  5
84DE
330
84DD
100
AcDbEntity
  8
0
100
AcDbBlockBegin
  2
*D13
 70
     1
 10
0.0
 20
0.0
 30
0.0
  3
*D13
  1

  0
LINE
  5
83F1
330
84DD
100
AcDbEntity
  8
3
 62
     0
100
AcDbLine
 10
1595.942858765823
 20
6195.453943093272
 30
0.0
 11
1595.942858765823
 21
6512.468601598492
 31
0.0
  0
LINE
  5
83F2
330
84DD
100
AcDbEntity
  8
3
 62
     0
100
AcDbLine
 10
2715.942858765823
 20
6195.453943093272
 30
0.0
 11
2715.942858765823
 21
6512.468601598492
 31
0.0
  0
LINE
  5
83F3
330
84DD
100
AcDbEntity
  8
3
 62
     0
100
AcDbLine
 10
1655.942858765823
 20
6482.468601598494
 30
0.0
 11
2655.942858765823
 21
6482.468601598494
 31
0.0
  0
INSERT
  5
83F4
330
84DD
100
AcDbEntity
  8
3
 62
     0
100
AcDbBlockReference
  2
_OPEN
 10
1595.942858765823
 20
6482.468601598494
 30
0.0
 41
60.0
 42
60.0
 43
60.0
 50
180.0
  0
INSERT
  5
83F5
330
84DD
100
AcDbEntity
  8
3
 62
     0
100
AcDbBlockReference
  2
_OPEN
 10
2715.942858765823
 20
6482.468601598494
 30
0.0
 41
60.0
 42
60.0
 43
60.0
  0
TEXT
  5
843F
330
84DD
100
AcDbEntity
  8
3
 62
     0
100
AcDbText
 10
1975.94
 20
6398.17
 30
0.0
 40
90.0
  1
1120
100
AcDbText
  0
POINT
  5
83F7
330
84DD
100
AcDbEntity
  8
DEFPOINTS
 62
     0
100
AcDbPoint
 10
1595.942858765823
 20
6180.453943093272
 30
0.0
  0
POINT
  5
83F8
330
84DD
100
AcDbEntity
  8
DEFPOINTS
 62
     0
100
AcDbPoint
 10
2715.942858765823
 20
6180.453943093272
 30
0.0
  0
POINT
  5
83F9
330
84DD
100
AcDbEntity
  8
DEFPOINTS
 62
     0
100
AcDbPoint
 10
2715.942858765823
 20
6482.468601598494
 30
0.0
  0
ENDBLK
  5
813D
330
84DD
100
AcDbEntity
  8
0
100
AcDbBlockEnd
  0
BLOCK
  5
84E0
330
84DF
100
AcDbEntity
  8
0
100
AcDbBlockBegin
  2
*D14
 70
     1
 10
0.0
 20
0.0
 30
0.0
  3
*D14
  1

  0
LINE
  5
83FA
330
84DF
100
AcDbEntity
  8
3
 62
     0
100
AcDbLine
 10
2730.942858765823
 20
6180.453943093272
 30
0.0
 11
3046.36708093224
 21
6180.453943093272
 31
0.0
  0
LINE
  5
83FB
330
84DF
100
AcDbEntity
  8
3
 62
     0
100
AcDbLine
 10
2730.942858765823
 20
4805.453943093271
 30
0.0
 11
3046.367080932239
 21
4805.453943093271
 31
0.0
  0
LINE
  5
83FC
330
84DF
100
AcDbEntity
  8
3
 62
     0
100
AcDbLine
 10
3016.367080932239
 20
6120.453943093272
 30
0.0
 11
3016.367080932239
 21
4865.453943093271
 31
0.0
  0
INSERT
  5
83FD
330
84DF
100
AcDbEntity
  8
3
 62
     0
100
AcDbBlockReference
  2
_OPEN
 10
3016.367080932239
 20
6180.453943093272
 30
0.0
 41
60.0
 42
60.0
 43
60.0
 50
90.0
  0
INSERT
  5
83FE
330
84DF
100
AcDbEntity
  8
3
 62
     0
100
AcDbBlockReference
  2
_OPEN
 10
3016.367080932239
 20
4805.453943093271
 30
0.0
 41
60.0
 42
60.0
 43
60.0
 50
270.0
  0
TEXT
  5
8440
330
84DF
100
AcDbEntity
  8
3
 62
     0
100
AcDbText
 10
2761.37
 20
5333.65
 30
0.0
 40
90.0
  1
1375
100
AcDbText
  0
POINT
  5
8400
330
84DF
100
AcDbEntity
  8
DEFPOINTS
 62
     0
100
AcDbPoint
 10
2715.942858765823
 20
6180.453943093272
 30
0.0
  0
POINT
  5
8401
330
84DF
100
AcDbEntity
  8
DEFPOINTS
 62
     0
100
AcDbPoint
 10
2715.942858765823
 20
4805.453943093271
 30
0.0
  0
POINT
  5
8402
330
84DF
100
AcDbEntity
  8
DEFPOINTS
 62
     0
100
AcDbPoint
 10
3016.367080932239
 20
4805.453943093271
 30
0.0
  0
ENDBLK
  5
815E
330
84DF
100
AcDbEntity
  8
0
100
AcDbBlockEnd
  0
BLOCK
  5
84E2
330
84E1
100
AcDbEntity
  8
0
100
AcDbBlockBegin
  2
*D15
 70
     1
 10
0.0
 20
0.0
 30
0.0
  3
*D15
  1

  0
LINE
  5
8403
330
84E1
100
AcDbEntity
  8
3
 62
     0
100
AcDbLine
 10
845.9428587658239
 20
4790.453943093271
 30
0.0
 11
845.9428587658239
 21
4468.306783611199
 31
0.0
  0
LINE
  5
8404
330
84E1
100
AcDbEntity
  8
3
 62
     0
100
AcDbLine
 10
2715.942858765823
 20
4790.453943093271
 30
0.0
 11
2715.942858765823
 21
4468.306783611199
 31
0.0
  0
LINE
  5
8405
330
84E1
100
AcDbEntity
  8
3
 62
     0
100
AcDbLine
 10
905.942858765824
 20
4498.306783611197
 30
0.0
 11
2655.942858765823
 21
4498.306783611197
 31
0.0
  0
INSERT
  5
8406
330
84E1
100
AcDbEntity
  8
3
 62
     0
100
AcDbBlockReference
  2
_OPEN
 10
845.9428587658239
 20
4498.306783611197
 30
0.0
 41
60.0
 42
60.0
 43
60.0
 50
180.0
  0
INSERT
  5
8407
330
84E1
100
AcDbEntity
  8
3
 62
     0
100
AcDbBlockReference
  2
_OPEN
 10
2715.942858765823
 20
4498.306783611197
 30
0.0
 41
60.0
 42
60.0
 43
60.0
  0
TEXT
  5
8441
330
84E1
100
AcDbEntity
  8
3
 62
     0
100
AcDbText
 10
1600.94
 20
4414.01
 30
0.0
 40
90.0
  1
1870
100
AcDbText
  0
POINT
  5
8409
330
84E1
100
AcDbEntity
  8
DEFPOINTS
 62
     0
100
AcDbPoint
 10
845.9428587658239
 20
4805.453943093271
 30
0.0
  0
POINT
  5
840A
330
84E1
100
AcDbEntity
  8
DEFPOINTS
 62
     0
100
AcDbPoint
 10
2715.942858765823
 20
4805.453943093271
 30
0.0
  0
POINT
  5
840B
330
84E1
100
AcDbEntity
  8
DEFPOINTS
 62
     0
100
AcDbPoint
 10
2715.942858765823
 20
4498.306783611197
 30
0.0
  0
ENDBLK
  5
8153
330
84E1
100
AcDbEntity
  8
0
100
AcDbBlockEnd
  0
BLOCK
  5
84E4
330
84E3
100
AcDbEntity
  8
0
100
AcDbBlockBegin
  2
*D16
 70
     1
 10
0.0
 20
0.0
 30
0.0
  3
*D16
  1

  0
LINE
  5
840C
330
84E3
100
AcDbEntity
  8
3
 62
     0
100
AcDbLine
 10
830.942858765824
 20
5605.453943093273
 30
0.0
 11
626.0913512992849
 21
5605.453943093273
 31
0.0
  0
LINE
  5
840D
330
84E3
100
AcDbEntity
  8
3
 62
     0
100
AcDbLine
 10
830.942858765824
 20
4805.453943093271
 30
0.0
 11
626.0913512992847
 21
4805.453943093271
 31
0.0
  0
LINE
  5
840E
330
84E3
100
AcDbEntity
  8
3
 62
     0
100
AcDbLine
 10
656.0913512992849
 20
5545.453943093272
 30
0.0
 11
656.0913512992847
 21
4865.453943093271
 31
0.0
  0
INSERT
  5
840F
330
84E3
100
AcDbEntity
  8
3
 62
     0
100
AcDbBlockReference
  2
_OPEN
 10
656.0913512992849
 20
5605.453943093273
 30
0.0
 41
60.0
 42
60.0
 43
60.0
 50
90.0
  0
INSERT
  5
8410
330
84E3
100
AcDbEntity
  8
3
 62
     0
100
AcDbBlockReference
  2
_OPEN
 10
656.0913512992847
 20
4805.453943093271
 30
0.0
 41
60.0
 42
60.0
 43
60.0
 50
270.0
  0
TEXT
  5
8442
330
84E3
100
AcDbEntity
  8
3
 62
     0
100
AcDbText
 10
401.0909999999999
 20
5046.15
 30
0.0
 40
90.0
  1
800
100
AcDbText
  0
POINT
  5
8412
330
84E3
100
AcDbEntity
  8
DEFPOINTS
 62
     0
100
AcDbPoint
 10
845.9428587658239
 20
5605.453943093273
 30
0.0
  0
POINT
  5
8413
330
84E3
100
AcDbEntity
  8
DEFPOINTS
 62
     0
100
AcDbPoint
 10
845.9428587658239
 20
4805.453943093271
 30
0.0
  0
POINT
  5
8414
330
84E3
100
AcDbEntity
  8
DEFPOINTS
 62
     0
100
AcDbPoint
 10
656.0913512992847
 20
4805.453943093271
 30
0.0
  0
ENDBLK
  5
8148
330
84E3
100
AcDbEntity
  8
0
100
AcDbBlockEnd
  0
BLOCK
  5
84E6
330
84E5
100
AcDbEntity
  8
0
100
AcDbBlockBegin
  2
*D17
 70
     1
 10
0.0
 20
0.0
 30
0.0
  3
*D17
  1

  0
LINE
  5
8415
330
84E5
100
AcDbEntity
  8
3
 62
     0
100
AcDbLine
 10
5246.611918802633
 20
2312.454481859345
 30
0.0
 11
5580.002912630768
 21
2312.454481859345
 31
0.0
  0
LINE
  5
8416
330
84E5
100
AcDbEntity
  8
3
 62
     0
100
AcDbLine
 10
5246.611918802633
 20
3262.454481859345
 30
0.0
 11
5580.002912630768
 21
3262.454481859345
 31
0.0
  0
LINE
  5
8417
330
84E5
100
AcDbEntity
  8
3
 62
     0
100
AcDbLine
 10
5550.002912630768
 20
2372.454481859346
 30
0.0
 11
5550.002912630768
 21
3202.454481859347
 31
0.0
  0
INSERT
  5
8418
330
84E5
100
AcDbEntity
  8
3
 62
     0
100
AcDbBlockReference
  2
_OPEN
 10
5550.002912630768
 20
2312.454481859345
 30
0.0
 41
60.0
 42
60.0
 43
60.0
 50
270.0
  0
INSERT
  5
8419
330
84E5
100
AcDbEntity
  8
3
 62
     0
100
AcDbBlockReference
  2
_OPEN
 10
5550.002912630768
 20
3262.454481859345
 30
0.0
 41
60.0
 42
60.0
 43
60.0
 50
90.0
  0
TEXT
  5
8443
330
84E5
100
AcDbEntity
  8
3
 62
     0
100
AcDbText
 10
5295.0
 20
2628.15
 30
0.0
 40
90.0
  1
\U+03C6950
100
AcDbText
  0
POINT
  5
841B
330
84E5
100
AcDbEntity
  8
DEFPOINTS
 62
     0
100
AcDbPoint
 10
5231.611918802633
 20
2312.454481859345
 30
0.0
  0
POINT
  5
841C
330
84E5
100
AcDbEntity
  8
DEFPOINTS
 62
     0
100
AcDbPoint
 10
5231.611918802633
 20
3262.454481859345
 30
0.0
  0
POINT
  5
841D
330
84E5
100
AcDbEntity
  8
DEFPOINTS
 62
     0
100
AcDbPoint
 10
5550.002912630768
 20
3262.454481859345
 30
0.0
  0
ENDBLK
  5
8203
330
84E5
100
AcDbEntity
  8
0
100
AcDbBlockEnd
  0
BLOCK
  5
84E8
330
84E7
100
AcDbEntity
  8
0
100
AcDbBlockBegin
  2
*D18
 70
     1
 10
0.0
 20
0.0
 30
0.0
  3
*D18
  1

  0
LINE
  5
841E
330
84E7
100
AcDbEntity
  8
3
 62
     0
100
AcDbLine
 10
2730.942858765823
 20
1992.454481859344
 30
0.0
 11
3105.901267306895
 21
1992.454481859344
 31
0.0
  0
LINE
  5
841F
330
84E7
100
AcDbEntity
  8
3
 62
     0
100
AcDbLine
 10
2730.942858765823
 20
1892.454481859344
 30
0.0
 11
3105.901267306895
 21
1892.454481859344
 31
0.0
  0
LINE
  5
8420
330
84E7
100
AcDbEntity
  8
3
 62
     0
100
AcDbLine
 10
3075.901267306895
 20
2052.454481859345
 30
0.0
 11
3075.901267306895
 21
2112.454481859345
 31
0.0
  0
LINE
  5
8421
330
84E7
100
AcDbEntity
  8
3
 62
     0
100
AcDbLine
 10
3075.901267306895
 20
1832.454481859345
 30
0.0
 11
3075.901267306895
 21
1498.168767573631
 31
0.0
  0
LINE
  5
8422
330
84E7
100
AcDbEntity
  8
3
 62
     0
100
AcDbLine
 10
3075.901267306895
 20
1992.454481859344
 30
0.0
 11
3075.901267306895
 21
1892.454481859344
 31
0.0
  0
INSERT
  5
8423
330
84E7
100
AcDbEntity
  8
3
 62
     0
100
AcDbBlockReference
  2
_DOT
 10
3075.901267306895
 20
1992.454481859344
 30
0.0
 41
60.0
 42
60.0
 43
60.0
 50
270.0
  0
INSERT
  5
8424
330
84E7
100
AcDbEntity
  8
3
 62
     0
100
AcDbBlockReference
  2
_OPEN
 10
3075.901267306895
 20
1892.454481859344
 30
0.0
 41
60.0
 42
60.0
 43
60.0
 50
90.0
  0
TEXT
  5
8444
330
84E7
100
AcDbEntity
  8
3
 62
     0
100
AcDbText
 10
2820.9
 20
1476.01
 30
0.0
 40
90.0
  1
100
100
AcDbText
  0
POINT
  5
8426
330
84E7
100
AcDbEntity
  8
DEFPOINTS
 62
     0
100
AcDbPoint
 10
2715.942858765824
 20
1992.454481859344
 30
0.0
  0
POINT
  5
8427
330
84E7
100
AcDbEntity
  8
DEFPOINTS
 62
     0
100
AcDbPoint
 10
2715.942858765824
 20
1892.454481859344
 30
0.0
  0
POINT
  5
8428
330
84E7
100
AcDbEntity
  8
DEFPOINTS
 62
     0
100
AcDbPoint
 10
3075.901267306895
 20
1892.454481859344
 30
0.0
  0
ENDBLK
  5
8127
330
84E7
100
AcDbEntity
  8
0
100
AcDbBlockEnd
  0
BLOCK
  5
84EC
330
84E9
100
AcDbEntity
  8
0
100
AcDbBlockBegin
  2
_DOT
 70
     0
 10
0.0
 20
0.0
 30
0.0
  3
_DOT
  1

  0
LWPOLYLINE
  5
8019
330
84E9
100
AcDbEntity
  8
0
  6
ByBlock
 62
     0
100
AcDbPolyline
 90
        2
 70
     1
 43
0.25
 10
-0.125
 20
0.0
 42
1.0
 10
0.125
 20
0.0
 42
1.0
  0
LINE
  5
801D
330
84E9
100
AcDbEntity
  8
0
  6
ByBlock
 62
     0
100
AcDbLine
 10
-0.25
 20
0.0
 30
0.0
 11
-1.0
 21
0.0
 31
0.0
  0
ENDBLK
  5
7FEF
330
84E9
100
AcDbEntity
  8
0
100
AcDbBlockEnd
  0
BLOCK
  5
84EB
330
84EA
100
AcDbEntity
  8
0
100
AcDbBlockBegin
  2
*D20
 70
     1
 10
0.0
 20
0.0
 30
0.0
  3
*D20
  1

  0
LINE
  5
8429
330
84EA
100
AcDbEntity
  8
3
 62
     0
100
AcDbLine
 10
2775.942858765823
 20
3805.954481859346
 30
0.0
 11
2775.942858765823
 21
4167.110429238729
 31
0.0
  0
LINE
  5
842A
330
84EA
100
AcDbEntity
  8
3
 62
     0
100
AcDbLine
 10
845.9428587658239
 20
2222.454481859345
 30
0.0
 11
845.9428587658241
 21
4167.110429238729
 31
0.0
  0
LINE
  5
842B
330
84EA
100
AcDbEntity
  8
3
 62
     0
100
AcDbLine
 10
2715.942858765823
 20
4137.110429238729
 30
0.0
 11
905.942858765824
 21
4137.110429238729
 31
0.0
  0
INSERT
  5
842C
330
84EA
100
AcDbEntity
  8
3
 62
     0
100
AcDbBlockReference
  2
_OPEN
 10
2775.942858765823
 20
4137.110429238729
 30
0.0
 41
60.0
 42
60.0
 43
60.0
  0
INSERT
  5
842D
330
84EA
100
AcDbEntity
  8
3
 62
     0
100
AcDbBlockReference
  2
_OPEN
 10
845.9428587658241
 20
4137.110429238729
 30
0.0
 41
60.0
 42
60.0
 43
60.0
 50
180.0
  0
TEXT
  5
8445
330
84EA
100
AcDbEntity
  8
3
 62
     0
100
AcDbText
 10
1630.94
 20
4052.81
 30
0.0
 40
90.0
  1
1930
100
AcDbText
  0
POINT
  5
842F
330
84EA
100
AcDbEntity
  8
DEFPOINTS
 62
     0
100
AcDbPoint
 10
2775.942858765823
 20
3790.954481859346
 30
0.0
  0
POINT
  5
8430
330
84EA
100
AcDbEntity
  8
DEFPOINTS
 62
     0
100
AcDbPoint
 10
845.9428587658239
 20
2207.454481859345
 30
0.0
  0
POINT
  5
8431
330
84EA
100
AcDbEntity
  8
DEFPOINTS
 62
     0
100
AcDbPoint
 10
845.9428587658241
 20
4137.110429238729
 30
0.0
  0
ENDBLK
  5
8195
330
84EA
100
AcDbEntity
  8
0
100
AcDbBlockEnd
  0
BLOCK
  5
84EE
330
84ED
100
AcDbEntity
  8
0
100
AcDbBlockBegin
  2
*D21
 70
     1
 10
0.0
 20
0.0
 30
0.0
  3
*D21
  1

  0
LINE
  5
820E
330
84ED
100
AcDbEntity
  8
0
  6
ByBlock
 62
     0
100
AcDbLine
 10
845.9428587658221
 20
1950.454481859345
 30
0.0
 11
845.9428587658221
 21
1752.166200219333
 31
0.0
  0
LINE
  5
820F
330
84ED
100
AcDbEntity
  8
0
  6
ByBlock
 62
     0
100
AcDbLine
 10
2155.942858765823
 20
1950.454481859345
 30
0.0
 11
2155.942858765823
 21
1752.166200219333
 31
0.0
  0
LINE
  5
8210
330
84ED
100
AcDbEntity
  8
0
  6
ByBlock
 62
     0
100
AcDbLine
 10
905.9428587658221
 20
1782.166200219333
 30
0.0
 11
2095.942858765823
 21
1782.166200219333
 31
0.0
  0
INSERT
  5
8211
330
84ED
100
AcDbEntity
  8
0
  6
ByBlock
 62
     0
100
AcDbBlockReference
  2
_OPEN
 10
845.9428587658221
 20
1782.166200219333
 30
0.0
 41
60.0
 42
60.0
 43
60.0
 50
180.0
  0
INSERT
  5
8212
330
84ED
100
AcDbEntity
  8
0
  6
ByBlock
 62
     0
100
AcDbBlockReference
  2
_OPEN
 10
2155.942858765823
 20
1782.166200219333
 30
0.0
 41
60.0
 42
60.0
 43
60.0
  0
TEXT
  5
8213
330
84ED
100
AcDbEntity
  8
3
 62
     0
100
AcDbText
 10
1359.51428733725
 20
1812.166200219333
 30
0.0
 40
90.0
  1
1310
100
AcDbText
  0
POINT
  5
8214
330
84ED
100
AcDbEntity
  8
DEFPOINTS
  6
ByBlock
 62
     0
100
AcDbPoint
 10
845.9428587658221
 20
1980.454481859346
 30
0.0
  0
POINT
  5
8215
330
84ED
100
AcDbEntity
  8
DEFPOINTS
  6
ByBlock
 62
     0
100
AcDbPoint
 10
2155.942858765823
 20
1980.454481859346
 30
0.0
  0
POINT
  5
8216
330
84ED
100
AcDbEntity
  8
DEFPOINTS
  6
ByBlock
 62
     0
100
AcDbPoint
 10
2155.942858765823
 20
1782.166200219333
 30
0.0
  0
ENDBLK
  5
8217
330
84ED
100
AcDbEntity
  8
0
100
AcDbBlockEnd
  0
BLOCK
  5
84F0
330
84EF
100
AcDbEntity
  8
0
100
AcDbBlockBegin
  2
*D22
 70
     1
 10
0.0
 20
0.0
 30
0.0
  3
*D22
  1

  0
LINE
  5
821B
330
84EF
100
AcDbEntity
  8
0
  6
ByBlock
 62
     0
100
AcDbLine
 10
2155.942858765823
 20
1950.454481859345
 30
0.0
 11
2155.942858765823
 21
1752.166200219333
 31
0.0
  0
LINE
  5
821C
330
84EF
100
AcDbEntity
  8
0
  6
ByBlock
 62
     0
100
AcDbLine
 10
2715.942858765824
 20
1950.454481859345
 30
0.0
 11
2715.942858765824
 21
1752.166200219333
 31
0.0
  0
LINE
  5
821D
330
84EF
100
AcDbEntity
  8
0
  6
ByBlock
 62
     0
100
AcDbLine
 10
2215.942858765822
 20
1782.166200219333
 30
0.0
 11
2655.942858765824
 21
1782.166200219333
 31
0.0
  0
INSERT
  5
821E
330
84EF
100
AcDbEntity
  8
0
  6
ByBlock
 62
     0
100
AcDbBlockReference
  2
_OPEN
 10
2155.942858765823
 20
1782.166200219333
 30
0.0
 41
60.0
 42
60.0
 43
60.0
 50
180.0
  0
INSERT
  5
821F
330
84EF
100
AcDbEntity
  8
0
  6
ByBlock
 62
     0
100
AcDbBlockReference
  2
_OPEN
 10
2715.942858765824
 20
1782.166200219333
 30
0.0
 41
60.0
 42
60.0
 43
60.0
  0
TEXT
  5
8220
330
84EF
100
AcDbEntity
  8
3
 62
     0
100
AcDbText
 10
2320.228573051537
 20
1812.166200219333
 30
0.0
 40
90.0
  1
560
100
AcDbText
  0
POINT
  5
8221
330
84EF
100
AcDbEntity
  8
DEFPOINTS
  6
ByBlock
 62
     0
100
AcDbPoint
 10
2155.942858765823
 20
1980.454481859346
 30
0.0
  0
POINT
  5
8222
330
84EF
100
AcDbEntity
  8
DEFPOINTS
  6
ByBlock
 62
     0
100
AcDbPoint
 10
2715.942858765824
 20
1980.454481859346
 30
0.0
  0
POINT
  5
8223
330
84EF
100
AcDbEntity
  8
DEFPOINTS
  6
ByBlock
 62
     0
100
AcDbPoint
 10
2715.942858765824
 20
1782.166200219333
 30
0.0
  0
ENDBLK
  5
8224
330
84EF
100
AcDbEntity
  8
0
100
AcDbBlockEnd
  0
BLOCK
  5
84F2
330
84F1
100
AcDbEntity
  8
0
100
AcDbBlockBegin
  2
*D23
 70
     1
 10
0.0
 20
0.0
 30
0.0
  3
*D23
  1

  0
LINE
  5
8228
330
84F1
100
AcDbEntity
  8
0
  6
ByBlock
 62
     0
100
AcDbLine
 10
3904.111918802615
 20
1950.454481859345
 30
0.0
 11
3904.111918802615
 21
1752.166200219333
 31
0.0
  0
LINE
  5
8229
330
84F1
100
AcDbEntity
  8
0
  6
ByBlock
 62
     0
100
AcDbLine
 10
4666.111918802631
 20
1950.454481859345
 30
0.0
 11
4666.111918802631
 21
1752.166200219333
 31
0.0
  0
LINE
  5
822A
330
84F1
100
AcDbEntity
  8
0
  6
ByBlock
 62
     0
100
AcDbLine
 10
3964.111918802615
 20
1782.166200219333
 30
0.0
 11
4606.111918802631
 21
1782.166200219333
 31
0.0
  0
INSERT
  5
822B
330
84F1
100
AcDbEntity
  8
0
  6
ByBlock
 62
     0
100
AcDbBlockReference
  2
_OPEN
 10
3904.111918802615
 20
1782.166200219333
 30
0.0
 41
60.0
 42
60.0
 43
60.0
 50
180.0
  0
INSERT
  5
822C
330
84F1
100
AcDbEntity
  8
0
  6
ByBlock
 62
     0
100
AcDbBlockReference
  2
_OPEN
 10
4666.111918802631
 20
1782.166200219333
 30
0.0
 41
60.0
 42
60.0
 43
60.0
  0
TEXT
  5
822D
330
84F1
100
AcDbEntity
  8
3
 62
     0
100
AcDbText
 10
4169.397633088339
 20
1812.166200219333
 30
0.0
 40
90.0
  1
762
100
AcDbText
  0
POINT
  5
822E
330
84F1
100
AcDbEntity
  8
DEFPOINTS
  6
ByBlock
 62
     0
100
AcDbPoint
 10
3904.111918802615
 20
1980.454481859346
 30
0.0
  0
POINT
  5
822F
330
84F1
100
AcDbEntity
  8
DEFPOINTS
  6
ByBlock
 62
     0
100
AcDbPoint
 10
4666.111918802631
 20
1980.454481859346
 30
0.0
  0
POINT
  5
8230
330
84F1
100
AcDbEntity
  8
DEFPOINTS
  6
ByBlock
 62
     0
100
AcDbPoint
 10
4666.111918802631
 20
1782.166200219333
 30
0.0
  0
ENDBLK
  5
8231
330
84F1
100
AcDbEntity
  8
0
100
AcDbBlockEnd
  0
BLOCK
  5
84F4
330
84F3
100
AcDbEntity
  8
0
100
AcDbBlockBegin
  2
*D24
 70
     1
 10
0.0
 20
0.0
 30
0.0
  3
*D24
  1

  0
LINE
  5
8235
330
84F3
100
AcDbEntity
  8
0
  6
ByBlock
 62
     0
100
AcDbLine
 10
4666.111918802631
 20
1950.454481859345
 30
0.0
 11
4666.111918802631
 21
1752.166200219333
 31
0.0
  0
LINE
  5
8236
330
84F3
100
AcDbEntity
  8
0
  6
ByBlock
 62
     0
100
AcDbLine
 10
5279.111918802634
 20
1950.454481859345
 30
0.0
 11
5279.111918802634
 21
1752.166200219333
 31
0.0
  0
LINE
  5
8237
330
84F3
100
AcDbEntity
  8
0
  6
ByBlock
 62
     0
100
AcDbLine
 10
4726.111918802631
 20
1782.166200219333
 30
0.0
 11
5219.111918802633
 21
1782.166200219333
 31
0.0
  0
INSERT
  5
8238
330
84F3
100
AcDbEntity
  8
0
  6
ByBlock
 62
     0
100
AcDbBlockReference
  2
_OPEN
 10
4666.111918802631
 20
1782.166200219333
 30
0.0
 41
60.0
 42
60.0
 43
60.0
 50
180.0
  0
INSERT
  5
8239
330
84F3
100
AcDbEntity
  8
0
  6
ByBlock
 62
     0
100
AcDbBlockReference
  2
_OPEN
 10
5279.111918802634
 20
1782.166200219333
 30
0.0
 41
60.0
 42
60.0
 43
60.0
  0
TEXT
  5
823A
330
84F3
100
AcDbEntity
  8
3
 62
     0
100
AcDbText
 10
4865.469061659776
 20
1812.166200219333
 30
0.0
 40
90.0
  1
613
100
AcDbText
  0
POINT
  5
823B
330
84F3
100
AcDbEntity
  8
DEFPOINTS
  6
ByBlock
 62
     0
100
AcDbPoint
 10
4666.111918802631
 20
1980.454481859346
 30
0.0
  0
POINT
  5
823C
330
84F3
100
AcDbEntity
  8
DEFPOINTS
  6
ByBlock
 62
     0
100
AcDbPoint
 10
5279.111918802634
 20
1980.454481859346
 30
0.0
  0
POINT
  5
823D
330
84F3
100
AcDbEntity
  8
DEFPOINTS
  6
ByBlock
 62
     0
100
AcDbPoint
 10
5279.111918802634
 20
1782.166200219333
 30
0.0
  0
ENDBLK
  5
823E
330
84F3
100
AcDbEntity
  8
0
100
AcDbBlockEnd
  0
BLOCK
  5
84F6
330
84F5
100
AcDbEntity
  8
0
100
AcDbBlockBegin
  2
_NONE
 70
     0
 10
0.0
 20
0.0
 30
0.0
  3
_NONE
  1

  0
CIRCLE
  5
8242
330
84F5
100
AcDbEntity
  8
0
  6
ByBlock
 62
     0
100
AcDbCircle
 10
0.0
 20
0.0
 30
0.0
 40
0.25
  0
ENDBLK
  5
8243
330
84F5
100
AcDbEntity
  8
0
100
AcDbBlockEnd
  0
BLOCK
  5
84F8
330
84F7
100
AcDbEntity
  8
0
100
AcDbBlockBegin
  2
*D26
 70
     1
 10
0.0
 20
0.0
 30
0.0
  3
*D26
  1

  0
LINE
  5
82B0
330
84F7
100
AcDbEntity
  8
0
  6
ByBlock
 62
     0
100
AcDbLine
 10
3076.833666164439
 20
1992.454481859344
 30
0.0
 11
3076.833666164439
 21
2107.454481859345
 31
0.0
  0
TEXT
  5
82B1
330
84F7
100
AcDbEntity
  8
3
 62
     0
100
AcDbText
 10
3250.405094735867
 20
1893.525910430774
 30
0.0
 40
90.0
  1
(115)
 50
90.0
100
AcDbText
  0
POINT
  5
82B2
330
84F7
100
AcDbEntity
  8
DEFPOINTS
  6
ByBlock
 62
     0
100
AcDbPoint
 10
2715.942858765824
 20
1992.454481859344
 30
0.0
  0
POINT
  5
82B3
330
84F7
100
AcDbEntity
  8
DEFPOINTS
  6
ByBlock
 62
     0
100
AcDbPoint
 10
2715.942858765823
 20
2107.454481859345
 30
0.0
  0
POINT
  5
82B4
330
84F7
100
AcDbEntity
  8
DEFPOINTS
  6
ByBlock
 62
     0
100
AcDbPoint
 10
3076.833666164439
 20
2107.454481859345
 30
0.0
  0
ENDBLK
  5
82B5
330
84F7
100
AcDbEntity
  8
0
100
AcDbBlockEnd
  0
BLOCK
  5
84FA
330
84F9
100
AcDbEntity
  8
0
100
AcDbBlockBegin
  2
*D27
 70
     1
 10
0.0
 20
0.0
 30
0.0
  3
*D27
  1

  0
LINE
  5
82B9
330
84F9
100
AcDbEntity
  8
0
  6
ByBlock
 62
     0
100
AcDbLine
 10
2745.942858765824
 20
1892.454481859344
 30
0.0
 11
3357.469833961437
 21
1892.454481859344
 31
0.0
  0
LINE
  5
82BA
330
84F9
100
AcDbEntity
  8
0
  6
ByBlock
 62
     0
100
AcDbLine
 10
2805.942858765823
 20
3748.454481859345
 30
0.0
 11
3357.469833961437
 21
3748.454481859345
 31
0.0
  0
LINE
  5
82BB
330
84F9
100
AcDbEntity
  8
0
  6
ByBlock
 62
     0
100
AcDbLine
 10
3327.469833961437
 20
1952.454481859344
 30
0.0
 11
3327.469833961437
 21
3688.454481859346
 31
0.0
  0
INSERT
  5
82BC
330
84F9
100
AcDbEntity
  8
0
  6
ByBlock
 62
     0
100
AcDbBlockReference
  2
_OPEN
 10
3327.469833961437
 20
1892.454481859344
 30
0.0
 41
60.0
 42
60.0
 43
60.0
 50
270.0
  0
INSERT
  5
82BD
330
84F9
100
AcDbEntity
  8
0
  6
ByBlock
 62
     0
100
AcDbBlockReference
  2
_OPEN
 10
3327.469833961437
 20
3748.454481859345
 30
0.0
 41
60.0
 42
60.0
 43
60.0
 50
90.0
  0
TEXT
  5
82BE
330
84F9
100
AcDbEntity
  8
3
 62
     0
100
AcDbText
 10
3258.898405390008
 20
2612.597339002203
 30
0.0
 40
90.0
  1
(1856)
 50
90.0
100
AcDbText
  0
POINT
  5
82BF
330
84F9
100
AcDbEntity
  8
DEFPOINTS
  6
ByBlock
 62
     0
100
AcDbPoint
 10
2715.942858765824
 20
1892.454481859344
 30
0.0
  0
POINT
  5
82C0
330
84F9
100
AcDbEntity
  8
DEFPOINTS
  6
ByBlock
 62
     0
100
AcDbPoint
 10
2775.942858765823
 20
3748.454481859345
 30
0.0
  0
POINT
  5
82C1
330
84F9
100
AcDbEntity
  8
DEFPOINTS
  6
ByBlock
 62
     0
100
AcDbPoint
 10
3327.469833961437
 20
3748.454481859345
 30
0.0
  0
ENDBLK
  5
82C2
330
84F9
100
AcDbEntity
  8
0
100
AcDbBlockEnd
  0
BLOCK
  5
8501
330
8500
100
AcDbEntity
  8
0
100
AcDbBlockBegin
  2
*D28
 70
     1
 10
0.0
 20
0.0
 30
0.0
  3
*D28
  1

  0
LINE
  5
8582
330
8500
100
AcDbEntity
  8
3
 62
     0
370
    -2
100
AcDbLine
 10
3716.111918802631
 20
3097.454481859346
 30
0.0
 11
3716.111918802631
 21
4174.529982258919
 31
0.0
  0
LINE
  5
8583
330
8500
100
AcDbEntity
  8
3
 62
     0
370
    -2
100
AcDbLine
 10
4666.111918802633
 20
4091.646435392973
 30
0.0
 11
4666.111918802633
 21
4174.529982258919
 31
0.0
  0
LINE
  5
8584
330
8500
100
AcDbEntity
  8
3
 62
     0
370
    -2
100
AcDbLine
 10
3776.111918802631
 20
4144.529982258918
 30
0.0
 11
4606.111918802633
 21
4144.529982258918
 31
0.0
  0
INSERT
  5
8585
330
8500
100
AcDbEntity
  8
3
 62
     0
370
    -2
100
AcDbBlockReference
  2
_OPEN
 10
3716.111918802631
 20
4144.529982258918
 30
0.0
 41
60.0
 42
60.0
 43
60.0
 50
180.0
  0
INSERT
  5
8586
330
8500
100
AcDbEntity
  8
3
 62
     0
370
    -2
100
AcDbBlockReference
  2
_OPEN
 10
4666.111918802633
 20
4144.529982258918
 30
0.0
 41
60.0
 42
60.0
 43
60.0
  0
MTEXT
  5
8587
330
8500
100
AcDbEntity
  8
3
 62
     0
100
AcDbMText
 10
4191.111918802632
 20
4243.101410830347
 30
0.0
 40
90.0
 41
0.0
 71
     5
 72
     1
  1
\A1;(950)
 73
     1
 44
1.0
1001
ACAD
1000
MTEXTBEGIN
1070
    73
1070
     1
1070
    44
1040
1.0
1070
    74
1070
     0
1000
MTEXTEND
  0
POINT
  5
8588
330
8500
100
AcDbEntity
  8
DEFPOINTS
 62
     0
100
AcDbPoint
 10
3716.111918802631
 20
3067.454481859346
 30
0.0
  0
POINT
  5
8589
330
8500
100
AcDbEntity
  8
DEFPOINTS
 62
     0
100
AcDbPoint
 10
4666.111918802633
 20
4061.646435392973
 30
0.0
  0
POINT
  5
858A
330
8500
100
AcDbEntity
  8
DEFPOINTS
 62
     0
100
AcDbPoint
 10
4666.111918802633
 20
4144.529982258918
 30
0.0
  0
ENDBLK
  5
8502
330
8500
100
AcDbEntity
  8
0
100
AcDbBlockEnd
  0
BLOCK
  5
850E
330
850D
100
AcDbEntity
  8
0
100
AcDbBlockBegin
  2
*D29
 70
     1
 10
0.0
 20
0.0
 30
0.0
  3
*D29
  1

  0
LINE
  5
858B
330
850D
100
AcDbEntity
  8
3
 62
     0
370
    -2
100
AcDbLine
 10
4666.111918802633
 20
4091.646435392973
 30
0.0
 11
4666.111918802633
 21
4174.529982258919
 31
0.0
  0
LINE
  5
858C
330
850D
100
AcDbEntity
  8
3
 62
     0
370
    -2
100
AcDbLine
 10
5346.111918802631
 20
2777.954481859346
 30
0.0
 11
5346.111918802631
 21
4174.529982258919
 31
0.0
  0
LINE
  5
858D
330
850D
100
AcDbEntity
  8
3
 62
     0
370
    -2
100
AcDbLine
 10
4726.111918802633
 20
4144.529982258918
 30
0.0
 11
5286.111918802632
 21
4144.529982258918
 31
0.0
  0
INSERT
  5
858E
330
850D
100
AcDbEntity
  8
3
 62
     0
370
    -2
100
AcDbBlockReference
  2
_OPEN
 10
4666.111918802633
 20
4144.529982258918
 30
0.0
 41
60.0
 42
60.0
 43
60.0
 50
180.0
  0
INSERT
  5
858F
330
850D
100
AcDbEntity
  8
3
 62
     0
370
    -2
100
AcDbBlockReference
  2
_OPEN
 10
5346.111918802631
 20
4144.529982258918
 30
0.0
 41
60.0
 42
60.0
 43
60.0
  0
MTEXT
  5
8590
330
850D
100
AcDbEntity
  8
3
 62
     0
100
AcDbMText
 10
5006.111918802632
 20
4243.101410830347
 30
0.0
 40
90.0
 41
0.0
 71
     5
 72
     1
  1
\A1;(680)
 73
     1
 44
1.0
1001
ACAD
1000
MTEXTBEGIN
1070
    73
1070
     1
1070
    44
1040
1.0
1070
    74
1070
     0
1000
MTEXTEND
  0
POINT
  5
8591
330
850D
100
AcDbEntity
  8
DEFPOINTS
 62
     0
100
AcDbPoint
 10
4666.111918802633
 20
4061.646435392973
 30
0.0
  0
POINT
  5
8592
330
850D
100
AcDbEntity
  8
DEFPOINTS
 62
     0
100
AcDbPoint
 10
5346.111918802631
 20
2747.954481859345
 30
0.0
  0
POINT
  5
8593
330
850D
100
AcDbEntity
  8
DEFPOINTS
 62
     0
100
AcDbPoint
 10
5346.111918802631
 20
4144.529982258918
 30
0.0
  0
ENDBLK
  5
850F
330
850D
100
AcDbEntity
  8
0
100
AcDbBlockEnd
  0
BLOCK
  5
851B
330
851A
100
AcDbEntity
  8
0
100
AcDbBlockBegin
  2
*D30
 70
     1
 10
0.0
 20
0.0
 30
0.0
  3
*D30
  1

  0
LINE
  5
851D
330
851A
100
AcDbEntity
  8
3
 62
     0
370
    -2
100
AcDbLine
 10
4106.111918802633
 20
3778.454481859345
 30
0.0
 11
4106.111918802633
 21
3971.646435392973
 31
0.0
  0
LINE
  5
851E
330
851A
100
AcDbEntity
  8
3
 62
     0
370
    -2
100
AcDbLine
 10
5226.111918802633
 20
3778.454481859345
 30
0.0
 11
5226.111918802633
 21
3971.646435392973
 31
0.0
  0
LINE
  5
851F
330
851A
100
AcDbEntity
  8
3
 62
     0
370
    -2
100
AcDbLine
 10
4166.111918802633
 20
3941.646435392974
 30
0.0
 11
5166.111918802633
 21
3941.646435392974
 31
0.0
  0
INSERT
  5
8520
330
851A
100
AcDbEntity
  8
3
 62
     0
370
    -2
100
AcDbBlockReference
  2
_OPEN
 10
4106.111918802633
 20
3941.646435392974
 30
0.0
 41
60.0
 42
60.0
 43
60.0
 50
180.0
  0
INSERT
  5
8521
330
851A
100
AcDbEntity
  8
3
 62
     0
370
    -2
100
AcDbBlockReference
  2
_OPEN
 10
5226.111918802633
 20
3941.646435392974
 30
0.0
 41
60.0
 42
60.0
 43
60.0
  0
MTEXT
  5
8522
330
851A
100
AcDbEntity
  8
3
 62
     0
100
AcDbMText
 10
4666.111918802633
 20
4016.646435392973
 30
0.0
 40
90.0
 41
0.0
 71
     5
 72
     1
  1
\A1;1120
 73
     1
 44
1.0
1001
ACAD
1000
MTEXTBEGIN
1070
    73
1070
     1
1070
    44
1040
1.0
1070
    74
1070
     0
1000
MTEXTEND
  0
POINT
  5
8523
330
851A
100
AcDbEntity
  8
DEFPOINTS
 62
     0
100
AcDbPoint
 10
4106.111918802633
 20
3748.454481859345
 30
0.0
  0
POINT
  5
8524
330
851A
100
AcDbEntity
  8
DEFPOINTS
 62
     0
100
AcDbPoint
 10
5226.111918802633
 20
3748.454481859345
 30
0.0
  0
POINT
  5
8525
330
851A
100
AcDbEntity
  8
DEFPOINTS
 62
     0
100
AcDbPoint
 10
5226.111918802633
 20
3941.646435392974
 30
0.0
  0
ENDBLK
  5
851C
330
851A
100
AcDbEntity
  8
0
100
AcDbBlockEnd
  0
BLOCK
  5
852C
330
852B
100
AcDbEntity
  8
0
100
AcDbBlockBegin
  2
*D31
 70
     1
 10
0.0
 20
0.0
 30
0.0
  3
*D31
  1

  0
LINE
  5
8543
330
852B
100
AcDbEntity
  8
3
 62
     0
370
    -2
100
AcDbLine
 10
5256.111918802633
 20
3262.454481859346
 30
0.0
 11
5595.36587154361
 21
3262.454481859346
 31
0.0
  0
LINE
  5
8544
330
852B
100
AcDbEntity
  8
3
 62
     0
370
    -2
100
AcDbLine
 10
5256.111918802633
 20
2312.454481859346
 30
0.0
 11
5595.36587154361
 21
2312.454481859346
 31
0.0
  0
LINE
  5
8545
330
852B
100
AcDbEntity
  8
3
 62
     0
370
    -2
100
AcDbLine
 10
5565.365871543611
 20
3202.454481859347
 30
0.0
 11
5565.365871543611
 21
2372.454481859346
 31
0.0
  0
INSERT
  5
8546
330
852B
100
AcDbEntity
  8
3
 62
     0
370
    -2
100
AcDbBlockReference
  2
_OPEN
 10
5565.365871543611
 20
3262.454481859346
 30
0.0
 41
60.0
 42
60.0
 43
60.0
 50
90.0
  0
INSERT
  5
8547
330
852B
100
AcDbEntity
  8
3
 62
     0
370
    -2
100
AcDbBlockReference
  2
_OPEN
 10
5565.365871543611
 20
2312.454481859346
 30
0.0
 41
60.0
 42
60.0
 43
60.0
 50
270.0
  0
MTEXT
  5
8548
330
852B
100
AcDbEntity
  8
3
 62
     0
100
AcDbMText
 10
5490.365871543609
 20
2787.454481859347
 30
0.0
 40
90.0
 41
0.0
 71
     5
 72
     1
  1
\A1;\U+03C6950
 11
0.0000000000000001
 21
1.0
 31
0.0
 73
     1
 44
1.0
1001
ACAD
1000
MTEXTBEGIN
1070
    73
1070
     1
1070
    44
1040
1.0
1070
    74
1070
     0
1000
MTEXTEND
  0
POINT
  5
8549
330
852B
100
AcDbEntity
  8
DEFPOINTS
 62
     0
100
AcDbPoint
 10
5226.111918802633
 20
3262.454481859346
 30
0.0
  0
POINT
  5
854A
330
852B
100
AcDbEntity
  8
DEFPOINTS
 62
     0
100
AcDbPoint
 10
5226.111918802633
 20
2312.454481859346
 30
0.0
  0
POINT
  5
854B
330
852B
100
AcDbEntity
  8
DEFPOINTS
 62
     0
100
AcDbPoint
 10
5565.365871543611
 20
2312.454481859346
 30
0.0
  0
ENDBLK
  5
852D
330
852B
100
AcDbEntity
  8
0
100
AcDbBlockEnd
  0
BLOCK
  5
8595
330
8594
100
AcDbEntity
  8
0
100
AcDbBlockBegin
  2
*D32
 70
     1
 10
0.0
 20
0.0
 30
0.0
  3
*D32
  1

  0
LINE
  5
8597
330
8594
100
AcDbEntity
  8
3
 62
     0
370
    -2
100
AcDbLine
 10
845.9428587658221
 20
1872.454481859344
 30
0.0
 11
845.9428587658221
 21
1698.766200219333
 31
0.0
  0
LINE
  5
8598
330
8594
100
AcDbEntity
  8
3
 62
     0
370
    -2
100
AcDbLine
 10
2155.942858765823
 20
1872.454481859344
 30
0.0
 11
2155.942858765823
 21
1698.766200219333
 31
0.0
  0
LINE
  5
8599
330
8594
100
AcDbEntity
  8
3
 62
     0
370
    -2
100
AcDbLine
 10
851.3428587658221
 20
1704.166200219333
 30
0.0
 11
1489.757144480108
 21
1704.166200219333
 31
0.0
  0
LINE
  5
859A
330
8594
100
AcDbEntity
  8
3
 62
     0
370
    -2
100
AcDbLine
 10
2150.542858765823
 20
1704.166200219333
 30
0.0
 11
1512.128573051537
 21
1704.166200219333
 31
0.0
  0
SOLID
  5
859B
330
8594
100
AcDbEntity
  8
3
 62
     0
100
AcDbTrace
 10
851.3428587658221
 20
1705.066200219333
 30
0.0
 11
851.3428587658221
 21
1703.266200219333
 31
0.0
 12
845.9428587658221
 22
1704.166200219333
 32
0.0
 13
845.9428587658221
 23
1704.166200219333
 33
0.0
  0
SOLID
  5
859C
330
8594
100
AcDbEntity
  8
3
 62
     0
100
AcDbTrace
 10
2150.542858765823
 20
1705.066200219333
 30
0.0
 11
2150.542858765823
 21
1703.266200219333
 31
0.0
 12
2155.942858765823
 22
1704.166200219333
 32
0.0
 13
2155.942858765823
 23
1704.166200219333
 33
0.0
  0
MTEXT
  5
859D
330
8594
100
AcDbEntity
  8
3
 62
     0
100
AcDbMText
 10
1500.942858765822
 20
1704.166200219333
 30
0.0
 40
5.399999999999999
 41
0.0
 71
     5
 72
     1
  1
\A1;1310
 73
     1
 44
1.0
1001
ACAD
1000
MTEXTBEGIN
1070
    73
1070
     1
1070
    44
1040
1.0
1070
    74
1070
     0
1000
MTEXTEND
  0
POINT
  5
859E
330
8594
100
AcDbEntity
  8
DEFPOINTS
 62
     0
100
AcDbPoint
 10
845.9428587658221
 20
1902.454481859345
 30
0.0
  0
POINT
  5
859F
330
8594
100
AcDbEntity
  8
DEFPOINTS
 62
     0
100
AcDbPoint
 10
2155.942858765823
 20
1902.454481859345
 30
0.0
  0
POINT
  5
85A0
330
8594
100
AcDbEntity
  8
DEFPOINTS
 62
     0
100
AcDbPoint
 10
2155.942858765823
 20
1704.166200219333
 30
0.0
  0
ENDBLK
  5
8596
330
8594
100
AcDbEntity
  8
0
100
AcDbBlockEnd
  0
BLOCK
  5
85A2
330
85A1
100
AcDbEntity
  8
0
100
AcDbBlockBegin
  2
*D33
 70
     1
 10
0.0
 20
0.0
 30
0.0
  3
*D33
  1

  0
LINE
  5
85A4
330
85A1
100
AcDbEntity
  8
3
 62
     0
370
    -2
100
AcDbLine
 10
2155.942858765823
 20
1872.454481859344
 30
0.0
 11
2155.942858765823
 21
1698.766200219333
 31
0.0
  0
LINE
  5
85A5
330
85A1
100
AcDbEntity
  8
3
 62
     0
370
    -2
100
AcDbLine
 10
2715.942858765824
 20
1872.454481859344
 30
0.0
 11
2715.942858765824
 21
1698.766200219333
 31
0.0
  0
LINE
  5
85A6
330
85A1
100
AcDbEntity
  8
3
 62
     0
370
    -2
100
AcDbLine
 10
2161.342858765823
 20
1704.166200219333
 30
0.0
 11
2426.300001622966
 21
1704.166200219333
 31
0.0
  0
LINE
  5
85A7
330
85A1
100
AcDbEntity
  8
3
 62
     0
370
    -2
100
AcDbLine
 10
2710.542858765824
 20
1704.166200219333
 30
0.0
 11
2445.585715908681
 21
1704.166200219333
 31
0.0
  0
SOLID
  5
85A8
330
85A1
100
AcDbEntity
  8
3
 62
     0
100
AcDbTrace
 10
2161.342858765823
 20
1705.066200219333
 30
0.0
 11
2161.342858765823
 21
1703.266200219333
 31
0.0
 12
2155.942858765823
 22
1704.166200219333
 32
0.0
 13
2155.942858765823
 23
1704.166200219333
 33
0.0
  0
SOLID
  5
85A9
330
85A1
100
AcDbEntity
  8
3
 62
     0
100
AcDbTrace
 10
2710.542858765824
 20
1705.066200219333
 30
0.0
 11
2710.542858765824
 21
1703.266200219333
 31
0.0
 12
2715.942858765824
 22
1704.166200219333
 32
0.0
 13
2715.942858765824
 23
1704.166200219333
 33
0.0
  0
MTEXT
  5
85AA
330
85A1
100
AcDbEntity
  8
3
 62
     0
100
AcDbMText
 10
2435.942858765824
 20
1704.166200219333
 30
0.0
 40
5.399999999999999
 41
0.0
 71
     5
 72
     1
  1
\A1;560
 73
     1
 44
1.0
1001
ACAD
1000
MTEXTBEGIN
1070
    73
1070
     1
1070
    44
1040
1.0
1070
    74
1070
     0
1000
MTEXTEND
  0
POINT
  5
85AB
330
85A1
100
AcDbEntity
  8
DEFPOINTS
 62
     0
100
AcDbPoint
 10
2155.942858765823
 20
1902.454481859345
 30
0.0
  0
POINT
  5
85AC
330
85A1
100
AcDbEntity
  8
DEFPOINTS
 62
     0
100
AcDbPoint
 10
2715.942858765824
 20
1902.454481859345
 30
0.0
  0
POINT
  5
85AD
330
85A1
100
AcDbEntity
  8
DEFPOINTS
 62
     0
100
AcDbPoint
 10
2715.942858765824
 20
1704.166200219333
 30
0.0
  0
ENDBLK
  5
85A3
330
85A1
100
AcDbEntity
  8
0
100
AcDbBlockEnd
  0
BLOCK
  5
85AF
330
85AE
100
AcDbEntity
  8
0
100
AcDbBlockBegin
  2
*D34
 70
     1
 10
0.0
 20
0.0
 30
0.0
  3
*D34
  1

  0
LINE
  5
85B1
330
85AE
100
AcDbEntity
  8
3
 62
     0
370
    -2
100
AcDbLine
 10
3904.111918802615
 20
1872.454481859344
 30
0.0
 11
3904.111918802615
 21
1698.766200219333
 31
0.0
  0
LINE
  5
85B2
330
85AE
100
AcDbEntity
  8
3
 62
     0
370
    -2
100
AcDbLine
 10
4666.111918802631
 20
1872.454481859344
 30
0.0
 11
4666.111918802631
 21
1698.766200219333
 31
0.0
  0
LINE
  5
85B3
330
85AE
100
AcDbEntity
  8
3
 62
     0
370
    -2
100
AcDbLine
 10
3909.511918802614
 20
1704.166200219333
 30
0.0
 11
4275.469061659766
 21
1704.166200219333
 31
0.0
  0
LINE
  5
85B4
330
85AE
100
AcDbEntity
  8
3
 62
     0
370
    -2
100
AcDbLine
 10
4660.711918802632
 20
1704.166200219333
 30
0.0
 11
4294.75477594548
 21
1704.166200219333
 31
0.0
  0
SOLID
  5
85B5
330
85AE
100
AcDbEntity
  8
3
 62
     0
100
AcDbTrace
 10
3909.511918802614
 20
1705.066200219333
 30
0.0
 11
3909.511918802614
 21
1703.266200219333
 31
0.0
 12
3904.111918802615
 22
1704.166200219333
 32
0.0
 13
3904.111918802615
 23
1704.166200219333
 33
0.0
  0
SOLID
  5
85B6
330
85AE
100
AcDbEntity
  8
3
 62
     0
100
AcDbTrace
 10
4660.711918802632
 20
1705.066200219333
 30
0.0
 11
4660.711918802632
 21
1703.266200219333
 31
0.0
 12
4666.111918802631
 22
1704.166200219333
 32
0.0
 13
4666.111918802631
 23
1704.166200219333
 33
0.0
  0
MTEXT
  5
85B7
330
85AE
100
AcDbEntity
  8
3
 62
     0
100
AcDbMText
 10
4285.111918802622
 20
1704.166200219333
 30
0.0
 40
5.399999999999999
 41
0.0
 71
     5
 72
     1
  1
\A1;762
 73
     1
 44
1.0
1001
ACAD
1000
MTEXTBEGIN
1070
    73
1070
     1
1070
    44
1040
1.0
1070
    74
1070
     0
1000
MTEXTEND
  0
POINT
  5
85B8
330
85AE
100
AcDbEntity
  8
DEFPOINTS
 62
     0
100
AcDbPoint
 10
3904.111918802615
 20
1902.454481859345
 30
0.0
  0
POINT
  5
85B9
330
85AE
100
AcDbEntity
  8
DEFPOINTS
 62
     0
100
AcDbPoint
 10
4666.111918802631
 20
1902.454481859345
 30
0.0
  0
POINT
  5
85BA
330
85AE
100
AcDbEntity
  8
DEFPOINTS
 62
     0
100
AcDbPoint
 10
4666.111918802631
 20
1704.166200219333
 30
0.0
  0
ENDBLK
  5
85B0
330
85AE
100
AcDbEntity
  8
0
100
AcDbBlockEnd
  0
BLOCK
  5
85BC
330
85BB
100
AcDbEntity
  8
0
100
AcDbBlockBegin
  2
*D35
 70
     1
 10
0.0
 20
0.0
 30
0.0
  3
*D35
  1

  0
LINE
  5
85BE
330
85BB
100
AcDbEntity
  8
3
 62
     0
370
    -2
100
AcDbLine
 10
4666.111918802631
 20
1872.454481859344
 30
0.0
 11
4666.111918802631
 21
1698.766200219333
 31
0.0
  0
LINE
  5
85BF
330
85BB
100
AcDbEntity
  8
3
 62
     0
370
    -2
100
AcDbLine
 10
5279.111918802634
 20
1872.454481859344
 30
0.0
 11
5279.111918802634
 21
1698.766200219333
 31
0.0
  0
LINE
  5
85C0
330
85BB
100
AcDbEntity
  8
3
 62
     0
370
    -2
100
AcDbLine
 10
4671.511918802631
 20
1704.166200219333
 30
0.0
 11
4963.483347374062
 21
1704.166200219333
 31
0.0
  0
LINE
  5
85C1
330
85BB
100
AcDbEntity
  8
3
 62
     0
370
    -2
100
AcDbLine
 10
5273.711918802635
 20
1704.166200219333
 30
0.0
 11
4981.740490231205
 21
1704.166200219333
 31
0.0
  0
SOLID
  5
85C2
330
85BB
100
AcDbEntity
  8
3
 62
     0
100
AcDbTrace
 10
4671.511918802631
 20
1705.066200219333
 30
0.0
 11
4671.511918802631
 21
1703.266200219333
 31
0.0
 12
4666.111918802631
 22
1704.166200219333
 32
0.0
 13
4666.111918802631
 23
1704.166200219333
 33
0.0
  0
SOLID
  5
85C3
330
85BB
100
AcDbEntity
  8
3
 62
     0
100
AcDbTrace
 10
5273.711918802635
 20
1705.066200219333
 30
0.0
 11
5273.711918802635
 21
1703.266200219333
 31
0.0
 12
5279.111918802634
 22
1704.166200219333
 32
0.0
 13
5279.111918802634
 23
1704.166200219333
 33
0.0
  0
MTEXT
  5
85C4
330
85BB
100
AcDbEntity
  8
3
 62
     0
100
AcDbMText
 10
4972.611918802633
 20
1704.166200219333
 30
0.0
 40
5.399999999999999
 41
0.0
 71
     5
 72
     1
  1
\A1;613
 73
     1
 44
1.0
1001
ACAD
1000
MTEXTBEGIN
1070
    73
1070
     1
1070
    44
1040
1.0
1070
    74
1070
     0
1000
MTEXTEND
  0
POINT
  5
85C5
330
85BB
100
AcDbEntity
  8
DEFPOINTS
 62
     0
100
AcDbPoint
 10
4666.111918802631
 20
1902.454481859345
 30
0.0
  0
POINT
  5
85C6
330
85BB
100
AcDbEntity
  8
DEFPOINTS
 62
     0
100
AcDbPoint
 10
5279.111918802634
 20
1902.454481859345
 30
0.0
  0
POINT
  5
85C7
330
85BB
100
AcDbEntity
  8
DEFPOINTS
 62
     0
100
AcDbPoint
 10
5279.111918802634
 20
1704.166200219333
 30
0.0
  0
ENDBLK
  5
85BD
330
85BB
100
AcDbEntity
  8
0
100
AcDbBlockEnd
  0
BLOCK
  5
85C9
330
85C8
100
AcDbEntity
  8
0
100
AcDbBlockBegin
  2
*D36
 70
     1
 10
0.0
 20
0.0
 30
0.0
  3
*D36
  1

  0
LINE
  5
85CB
330
85C8
100
AcDbEntity
  8
3
 62
     0
370
    -2
100
AcDbLine
 10
3076.833666164439
 20
2007.854481859345
 30
0.0
 11
3076.833666164439
 21
2048.140196145059
 31
0.0
  0
LINE
  5
85CC
330
85C8
100
AcDbEntity
  8
3
 62
     0
370
    -2
100
AcDbLine
 10
3076.833666164439
 20
2102.054481859344
 30
0.0
 11
3076.833666164439
 21
2061.76876757363
 31
0.0
  0
SOLID
  5
85CD
330
85C8
100
AcDbEntity
  8
3
 62
     0
100
AcDbTrace
 10
3075.933666164439
 20
2007.854481859345
 30
0.0
 11
3077.733666164439
 21
2007.854481859345
 31
0.0
 12
3076.833666164439
 22
2002.454481859345
 32
0.0
 13
3076.833666164439
 23
2002.454481859345
 33
0.0
  0
SOLID
  5
85CE
330
85C8
100
AcDbEntity
  8
3
 62
     0
100
AcDbTrace
 10
3075.933666164439
 20
2102.054481859344
 30
0.0
 11
3077.733666164439
 21
2102.054481859344
 31
0.0
 12
3076.833666164439
 22
2107.454481859345
 32
0.0
 13
3076.833666164439
 23
2107.454481859345
 33
0.0
  0
MTEXT
  5
85CF
330
85C8
100
AcDbEntity
  8
3
 62
     0
100
AcDbMText
 10
3076.833666164439
 20
2054.954481859345
 30
0.0
 40
5.399999999999999
 41
0.0
 71
     5
 72
     1
  1
\A1;(105)
 73
     1
 44
1.0
1001
ACAD
1000
MTEXTBEGIN
1070
    73
1070
     1
1070
    44
1040
1.0
1070
    74
1070
     0
1000
MTEXTEND
  0
POINT
  5
85D0
330
85C8
100
AcDbEntity
  8
DEFPOINTS
 62
     0
100
AcDbPoint
 10
2715.942858765824
 20
2002.454481859345
 30
0.0
  0
POINT
  5
85D1
330
85C8
100
AcDbEntity
  8
DEFPOINTS
 62
     0
100
AcDbPoint
 10
2715.942858765823
 20
2107.454481859345
 30
0.0
  0
POINT
  5
85D2
330
85C8
100
AcDbEntity
  8
DEFPOINTS
 62
     0
100
AcDbPoint
 10
3076.833666164439
 20
2107.454481859345
 30
0.0
  0
ENDBLK
  5
85CA
330
85C8
100
AcDbEntity
  8
0
100
AcDbBlockEnd
  0
BLOCK
  5
85D4
330
85D3
100
AcDbEntity
  8
0
100
AcDbBlockBegin
  2
*D37
 70
     1
 10
0.0
 20
0.0
 30
0.0
  3
*D37
  1

  0
LINE
  5
85D6
330
85D3
100
AcDbEntity
  8
3
 62
     0
370
    -2
100
AcDbLine
 10
2745.942858765824
 20
1902.454481859345
 30
0.0
 11
3332.869833961437
 21
1902.454481859345
 31
0.0
  0
LINE
  5
85D7
330
85D3
100
AcDbEntity
  8
3
 62
     0
370
    -2
100
AcDbLine
 10
2805.942858765823
 20
3748.454481859345
 30
0.0
 11
3332.869833961437
 21
3748.454481859345
 31
0.0
  0
LINE
  5
85D8
330
85D3
100
AcDbEntity
  8
3
 62
     0
370
    -2
100
AcDbLine
 10
3327.469833961437
 20
1907.854481859345
 30
0.0
 11
3327.469833961437
 21
2818.640196145059
 31
0.0
  0
LINE
  5
85D9
330
85D3
100
AcDbEntity
  8
3
 62
     0
370
    -2
100
AcDbLine
 10
3327.469833961437
 20
3743.054481859345
 30
0.0
 11
3327.469833961437
 21
2832.26876757363
 31
0.0
  0
SOLID
  5
85DA
330
85D3
100
AcDbEntity
  8
3
 62
     0
100
AcDbTrace
 10
3326.569833961437
 20
1907.854481859345
 30
0.0
 11
3328.369833961437
 21
1907.854481859345
 31
0.0
 12
3327.469833961437
 22
1902.454481859345
 32
0.0
 13
3327.469833961437
 23
1902.454481859345
 33
0.0
  0
SOLID
  5
85DB
330
85D3
100
AcDbEntity
  8
3
 62
     0
100
AcDbTrace
 10
3326.569833961437
 20
3743.054481859345
 30
0.0
 11
3328.369833961437
 21
3743.054481859345
 31
0.0
 12
3327.469833961437
 22
3748.454481859345
 32
0.0
 13
3327.469833961437
 23
3748.454481859345
 33
0.0
  0
MTEXT
  5
85DC
330
85D3
100
AcDbEntity
  8
3
 62
     0
100
AcDbMText
 10
3327.469833961436
 20
2825.454481859346
 30
0.0
 40
5.399999999999999
 41
0.0
 71
     5
 72
     1
  1
\A1;(1846)
 73
     1
 44
1.0
1001
ACAD
1000
MTEXTBEGIN
1070
    73
1070
     1
1070
    44
1040
1.0
1070
    74
1070
     0
1000
MTEXTEND
  0
POINT
  5
85DD
330
85D3
100
AcDbEntity
  8
DEFPOINTS
 62
     0
100
AcDbPoint
 10
2715.942858765824
 20
1902.454481859345
 30
0.0
  0
POINT
  5
85DE
330
85D3
100
AcDbEntity
  8
DEFPOINTS
 62
     0
100
AcDbPoint
 10
2775.942858765823
 20
3748.454481859345
 30
0.0
  0
POINT
  5
85DF
330
85D3
100
AcDbEntity
  8
DEFPOINTS
 62
     0
100
AcDbPoint
 10
3327.469833961437
 20
3748.454481859345
 30
0.0
  0
ENDBLK
  5
85D5
330
85D3
100
AcDbEntity
  8
0
100
AcDbBlockEnd
  0
BLOCK
  5
85E1
330
85E0
100
AcDbEntity
  8
0
100
AcDbBlockBegin
  2
*D38
 70
     1
 10
0.0
 20
0.0
 30
0.0
  3
*D38
  1

  0
LINE
  5
85E3
330
85E0
100
AcDbEntity
  8
3
 62
     0
370
    -2
100
AcDbLine
 10
2717.817858765824
 20
2002.454481859345
 30
0.0
 11
3081.301267306896
 21
2002.454481859345
 31
0.0
  0
LINE
  5
85E4
330
85E0
100
AcDbEntity
  8
3
 62
     0
370
    -2
100
AcDbLine
 10
2717.817858765824
 20
1902.454481859345
 30
0.0
 11
3081.301267306896
 21
1902.454481859345
 31
0.0
  0
LINE
  5
85E5
330
85E0
100
AcDbEntity
  8
3
 62
     0
370
    -2
100
AcDbLine
 10
3075.901267306895
 20
1997.054481859344
 30
0.0
 11
3075.901267306895
 21
1957.854481859345
 31
0.0
  0
LINE
  5
85E6
330
85E0
100
AcDbEntity
  8
3
 62
     0
370
    -2
100
AcDbLine
 10
3075.901267306895
 20
1907.854481859345
 30
0.0
 11
3075.901267306895
 21
1947.054481859344
 31
0.0
  0
SOLID
  5
85E7
330
85E0
100
AcDbEntity
  8
3
 62
     0
100
AcDbTrace
 10
3075.001267306895
 20
1997.054481859344
 30
0.0
 11
3076.801267306895
 21
1997.054481859344
 31
0.0
 12
3075.901267306895
 22
2002.454481859345
 32
0.0
 13
3075.901267306895
 23
2002.454481859345
 33
0.0
  0
SOLID
  5
85E8
330
85E0
100
AcDbEntity
  8
3
 62
     0
100
AcDbTrace
 10
3075.001267306895
 20
1907.854481859345
 30
0.0
 11
3076.801267306895
 21
1907.854481859345
 31
0.0
 12
3075.901267306895
 22
1902.454481859345
 32
0.0
 13
3075.901267306895
 23
1902.454481859345
 33
0.0
  0
MTEXT
  5
85E9
330
85E0
100
AcDbEntity
  8
3
 62
     0
100
AcDbMText
 10
3075.901267306895
 20
1952.454481859345
 30
0.0
 40
5.399999999999999
 41
0.0
 71
     5
 72
     1
  1
\A1;100
 73
     1
 44
1.0
1001
ACAD
1000
MTEXTBEGIN
1070
    73
1070
     1
1070
    44
1040
1.0
1070
    74
1070
     0
1000
MTEXTEND
  0
POINT
  5
85EA
330
85E0
100
AcDbEntity
  8
DEFPOINTS
 62
     0
100
AcDbPoint
 10
2715.942858765824
 20
2002.454481859345
 30
0.0
  0
POINT
  5
85EB
330
85E0
100
AcDbEntity
  8
DEFPOINTS
 62
     0
100
AcDbPoint
 10
2715.942858765824
 20
1902.454481859345
 30
0.0
  0
POINT
  5
85EC
330
85E0
100
AcDbEntity
  8
DEFPOINTS
 62
     0
100
AcDbPoint
 10
3075.901267306895
 20
1902.454481859345
 30
0.0
  0
ENDBLK
  5
85E2
330
85E0
100
AcDbEntity
  8
0
100
AcDbBlockEnd
  0
BLOCK
  5
85EF
330
85EE
100
AcDbEntity
  8
0
100
AcDbBlockBegin
  2
*D39
 70
     1
 10
0.0
 20
0.0
 30
0.0
  3
*D39
  1

  0
LINE
  5
85F1
330
85EE
100
AcDbEntity
  8
3
 62
     0
370
    -2
100
AcDbLine
 10
3904.111918802634
 20
1872.454481859344
 30
0.0
 11
3904.111918802634
 21
1674.166200219333
 31
0.0
  0
LINE
  5
85F2
330
85EE
100
AcDbEntity
  8
3
 62
     0
370
    -2
100
AcDbLine
 10
4666.111918802631
 20
1872.454481859344
 30
0.0
 11
4666.111918802631
 21
1674.166200219333
 31
0.0
  0
LINE
  5
85F3
330
85EE
100
AcDbEntity
  8
3
 62
     0
370
    -2
100
AcDbLine
 10
3964.111918802633
 20
1704.166200219333
 30
0.0
 11
4606.111918802631
 21
1704.166200219333
 31
0.0
  0
INSERT
  5
85F4
330
85EE
100
AcDbEntity
  8
3
 62
     0
370
    -2
100
AcDbBlockReference
  2
_OPEN
 10
3904.111918802634
 20
1704.166200219333
 30
0.0
 41
60.0
 42
60.0
 43
60.0
 50
180.0
  0
INSERT
  5
85F5
330
85EE
100
AcDbEntity
  8
3
 62
     0
370
    -2
100
AcDbBlockReference
  2
_OPEN
 10
4666.111918802631
 20
1704.166200219333
 30
0.0
 41
60.0
 42
60.0
 43
60.0
  0
MTEXT
  5
85F6
330
85EE
100
AcDbEntity
  8
3
 62
     0
100
AcDbMText
 10
4285.111918802632
 20
1779.166200219333
 30
0.0
 40
90.0
 41
0.0
 71
     5
 72
     1
  1
\A1;762
 73
     1
 44
1.0
1001
ACAD
1000
MTEXTBEGIN
1070
    73
1070
     1
1070
    44
1040
1.0
1070
    74
1070
     0
1000
MTEXTEND
  0
POINT
  5
85F7
330
85EE
100
AcDbEntity
  8
DEFPOINTS
 62
     0
100
AcDbPoint
 10
3904.111918802634
 20
1902.454481859345
 30
0.0
  0
POINT
  5
85F8
330
85EE
100
AcDbEntity
  8
DEFPOINTS
 62
     0
100
AcDbPoint
 10
4666.111918802631
 20
1902.454481859345
 30
0.0
  0
POINT
  5
85F9
330
85EE
100
AcDbEntity
  8
DEFPOINTS
 62
     0
100
AcDbPoint
 10
4666.111918802631
 20
1704.166200219333
 30
0.0
  0
ENDBLK
  5
85F0
330
85EE
100
AcDbEntity
  8
0
100
AcDbBlockEnd
  0
BLOCK
  5
85FC
330
85FB
100
AcDbEntity
  8
0
100
AcDbBlockBegin
  2
*D40
 70
     1
 10
0.0
 20
0.0
 30
0.0
  3
*D40
  1

  0
LINE
  5
85FE
330
85FB
100
AcDbEntity
  8
3
 62
     0
370
    -2
100
AcDbLine
 10
4666.111918802631
 20
1872.454481859344
 30
0.0
 11
4666.111918802631
 21
1674.166200219333
 31
0.0
  0
LINE
  5
85FF
330
85FB
100
AcDbEntity
  8
3
 62
     0
370
    -2
100
AcDbLine
 10
5279.111918802634
 20
1872.454481859344
 30
0.0
 11
5279.111918802634
 21
1674.166200219333
 31
0.0
  0
LINE
  5
8600
330
85FB
100
AcDbEntity
  8
3
 62
     0
370
    -2
100
AcDbLine
 10
4726.111918802631
 20
1704.166200219333
 30
0.0
 11
5219.111918802634
 21
1704.166200219333
 31
0.0
  0
INSERT
  5
8601
330
85FB
100
AcDbEntity
  8
3
 62
     0
370
    -2
100
AcDbBlockReference
  2
_OPEN
 10
4666.111918802631
 20
1704.166200219333
 30
0.0
 41
60.0
 42
60.0
 43
60.0
 50
180.0
  0
INSERT
  5
8602
330
85FB
100
AcDbEntity
  8
3
 62
     0
370
    -2
100
AcDbBlockReference
  2
_OPEN
 10
5279.111918802634
 20
1704.166200219333
 30
0.0
 41
60.0
 42
60.0
 43
60.0
  0
MTEXT
  5
8603
330
85FB
100
AcDbEntity
  8
3
 62
     0
100
AcDbMText
 10
4972.611918802633
 20
1779.166200219333
 30
0.0
 40
90.0
 41
0.0
 71
     5
 72
     1
  1
\A1;613
 73
     1
 44
1.0
1001
ACAD
1000
MTEXTBEGIN
1070
    73
1070
     1
1070
    44
1040
1.0
1070
    74
1070
     0
1000
MTEXTEND
  0
POINT
  5
8604
330
85FB
100
AcDbEntity
  8
DEFPOINTS
 62
     0
100
AcDbPoint
 10
4666.111918802631
 20
1902.454481859345
 30
0.0
  0
POINT
  5
8605
330
85FB
100
AcDbEntity
  8
DEFPOINTS
 62
     0
100
AcDbPoint
 10
5279.111918802634
 20
1902.454481859345
 30
0.0
  0
POINT
  5
8606
330
85FB
100
AcDbEntity
  8
DEFPOINTS
 62
     0
100
AcDbPoint
 10
5279.111918802634
 20
1704.166200219333
 30
0.0
  0
ENDBLK
  5
85FD
330
85FB
100
AcDbEntity
  8
0
100
AcDbBlockEnd
  0
BLOCK
  5
8609
330
8608
100
AcDbEntity
  8
0
100
AcDbBlockBegin
  2
*D41
 70
     1
 10
0.0
 20
0.0
 30
0.0
  3
*D41
  1

  0
LINE
  5
860B
330
8608
100
AcDbEntity
  8
3
 62
     0
370
    -2
100
AcDbLine
 10
845.9428587658221
 20
1872.454481859344
 30
0.0
 11
845.9428587658221
 21
1674.166200219333
 31
0.0
  0
LINE
  5
860C
330
8608
100
AcDbEntity
  8
3
 62
     0
370
    -2
100
AcDbLine
 10
2155.942858765823
 20
1872.454481859344
 30
0.0
 11
2155.942858765823
 21
1674.166200219333
 31
0.0
  0
LINE
  5
860D
330
8608
100
AcDbEntity
  8
3
 62
     0
370
    -2
100
AcDbLine
 10
905.9428587658221
 20
1704.166200219333
 30
0.0
 11
2095.942858765823
 21
1704.166200219333
 31
0.0
  0
INSERT
  5
860E
330
8608
100
AcDbEntity
  8
3
 62
     0
370
    -2
100
AcDbBlockReference
  2
_OPEN
 10
845.9428587658221
 20
1704.166200219333
 30
0.0
 41
60.0
 42
60.0
 43
60.0
 50
180.0
  0
INSERT
  5
860F
330
8608
100
AcDbEntity
  8
3
 62
     0
370
    -2
100
AcDbBlockReference
  2
_OPEN
 10
2155.942858765823
 20
1704.166200219333
 30
0.0
 41
60.0
 42
60.0
 43
60.0
  0
MTEXT
  5
8610
330
8608
100
AcDbEntity
  8
3
 62
     0
100
AcDbMText
 10
1500.942858765822
 20
1779.166200219333
 30
0.0
 40
90.0
 41
0.0
 71
     5
 72
     1
  1
\A1;1310
 73
     1
 44
1.0
1001
ACAD
1000
MTEXTBEGIN
1070
    73
1070
     1
1070
    44
1040
1.0
1070
    74
1070
     0
1000
MTEXTEND
  0
POINT
  5
8611
330
8608
100
AcDbEntity
  8
DEFPOINTS
 62
     0
100
AcDbPoint
 10
845.9428587658221
 20
1902.454481859345
 30
0.0
  0
POINT
  5
8612
330
8608
100
AcDbEntity
  8
DEFPOINTS
 62
     0
100
AcDbPoint
 10
2155.942858765823
 20
1902.454481859345
 30
0.0
  0
POINT
  5
8613
330
8608
100
AcDbEntity
  8
DEFPOINTS
 62
     0
100
AcDbPoint
 10
2155.942858765823
 20
1704.166200219333
 30
0.0
  0
ENDBLK
  5
860A
330
8608
100
AcDbEntity
  8
0
100
AcDbBlockEnd
  0
BLOCK
  5
8616
330
8615
100
AcDbEntity
  8
0
100
AcDbBlockBegin
  2
*D42
 70
     1
 10
0.0
 20
0.0
 30
0.0
  3
*D42
  1

  0
LINE
  5
8618
330
8615
100
AcDbEntity
  8
3
 62
     0
370
    -2
100
AcDbLine
 10
2155.942858765823
 20
1872.454481859344
 30
0.0
 11
2155.942858765823
 21
1674.166200219333
 31
0.0
  0
LINE
  5
8619
330
8615
100
AcDbEntity
  8
3
 62
     0
370
    -2
100
AcDbLine
 10
2715.942858765824
 20
1872.454481859344
 30
0.0
 11
2715.942858765824
 21
1674.166200219333
 31
0.0
  0
LINE
  5
861A
330
8615
100
AcDbEntity
  8
3
 62
     0
370
    -2
100
AcDbLine
 10
2215.942858765822
 20
1704.166200219333
 30
0.0
 11
2655.942858765824
 21
1704.166200219333
 31
0.0
  0
INSERT
  5
861B
330
8615
100
AcDbEntity
  8
3
 62
     0
370
    -2
100
AcDbBlockReference
  2
_OPEN
 10
2155.942858765823
 20
1704.166200219333
 30
0.0
 41
60.0
 42
60.0
 43
60.0
 50
180.0
  0
INSERT
  5
861C
330
8615
100
AcDbEntity
  8
3
 62
     0
370
    -2
100
AcDbBlockReference
  2
_OPEN
 10
2715.942858765824
 20
1704.166200219333
 30
0.0
 41
60.0
 42
60.0
 43
60.0
  0
MTEXT
  5
861D
330
8615
100
AcDbEntity
  8
3
 62
     0
100
AcDbMText
 10
2435.942858765824
 20
1779.166200219333
 30
0.0
 40
90.0
 41
0.0
 71
     5
 72
     1
  1
\A1;560
 73
     1
 44
1.0
1001
ACAD
1000
MTEXTBEGIN
1070
    73
1070
     1
1070
    44
1040
1.0
1070
    74
1070
     0
1000
MTEXTEND
  0
POINT
  5
861E
330
8615
100
AcDbEntity
  8
DEFPOINTS
 62
     0
100
AcDbPoint
 10
2155.942858765823
 20
1902.454481859345
 30
0.0
  0
POINT
  5
861F
330
8615
100
AcDbEntity
  8
DEFPOINTS
 62
     0
100
AcDbPoint
 10
2715.942858765824
 20
1902.454481859345
 30
0.0
  0
POINT
  5
8620
330
8615
100
AcDbEntity
  8
DEFPOINTS
 62
     0
100
AcDbPoint
 10
2715.942858765824
 20
1704.166200219333
 30
0.0
  0
ENDBLK
  5
8617
330
8615
100
AcDbEntity
  8
0
100
AcDbBlockEnd
  0
BLOCK
  5
8622
330
8621
100
AcDbEntity
  8
0
100
AcDbBlockBegin
  2
*D43
 70
     1
 10
0.0
 20
0.0
 30
0.0
  3
*D43
  1

  0
LINE
  5
8624
330
8621
100
AcDbEntity
  8
3
 62
     0
370
    -2
100
AcDbLine
 10
845.9428587658239
 20
4803.57894309327
 30
0.0
 11
845.9428587658239
 21
4402.906783611198
 31
0.0
  0
LINE
  5
8625
330
8621
100
AcDbEntity
  8
3
 62
     0
370
    -2
100
AcDbLine
 10
2715.942858765823
 20
4803.57894309327
 30
0.0
 11
2715.942858765823
 21
4402.906783611198
 31
0.0
  0
LINE
  5
8626
330
8621
100
AcDbEntity
  8
3
 62
     0
370
    -2
100
AcDbLine
 10
851.3428587658237
 20
4408.306783611197
 30
0.0
 11
1769.242858765823
 21
4408.306783611197
 31
0.0
  0
LINE
  5
8627
330
8621
100
AcDbEntity
  8
3
 62
     0
370
    -2
100
AcDbLine
 10
2710.542858765823
 20
4408.306783611197
 30
0.0
 11
1792.642858765823
 21
4408.306783611197
 31
0.0
  0
SOLID
  5
8628
330
8621
100
AcDbEntity
  8
3
 62
     0
100
AcDbTrace
 10
851.3428587658237
 20
4409.206783611197
 30
0.0
 11
851.3428587658237
 21
4407.406783611198
 31
0.0
 12
845.9428587658239
 22
4408.306783611197
 32
0.0
 13
845.9428587658239
 23
4408.306783611197
 33
0.0
  0
SOLID
  5
8629
330
8621
100
AcDbEntity
  8
3
 62
     0
100
AcDbTrace
 10
2710.542858765823
 20
4409.206783611197
 30
0.0
 11
2710.542858765823
 21
4407.406783611198
 31
0.0
 12
2715.942858765823
 22
4408.306783611197
 32
0.0
 13
2715.942858765823
 23
4408.306783611197
 33
0.0
  0
MTEXT
  5
862A
330
8621
100
AcDbEntity
  8
3
 62
     0
100
AcDbMText
 10
1780.942858765823
 20
4408.306783611197
 30
0.0
 40
5.399999999999999
 41
0.0
 71
     5
 72
     1
  1
\A1;1870
 73
     1
 44
1.0
1001
ACAD
1000
MTEXTBEGIN
1070
    73
1070
     1
1070
    44
1040
1.0
1070
    74
1070
     0
1000
MTEXTEND
  0
POINT
  5
862B
330
8621
100
AcDbEntity
  8
DEFPOINTS
 62
     0
100
AcDbPoint
 10
845.9428587658239
 20
4805.453943093271
 30
0.0
  0
POINT
  5
862C
330
8621
100
AcDbEntity
  8
DEFPOINTS
 62
     0
100
AcDbPoint
 10
2715.942858765823
 20
4805.453943093271
 30
0.0
  0
POINT
  5
862D
330
8621
100
AcDbEntity
  8
DEFPOINTS
 62
     0
100
AcDbPoint
 10
2715.942858765823
 20
4408.306783611197
 30
0.0
  0
ENDBLK
  5
8623
330
8621
100
AcDbEntity
  8
0
100
AcDbBlockEnd
  0
BLOCK
  5
8630
330
862F
100
AcDbEntity
  8
0
100
AcDbBlockBegin
  2
*D44
 70
     1
 10
0.0
 20
0.0
 30
0.0
  3
*D44
  1

  0
LINE
  5
8632
330
862F
100
AcDbEntity
  8
3
 62
     0
370
    -2
100
AcDbLine
 10
845.942858765823
 20
4775.45394309327
 30
0.0
 11
845.942858765823
 21
4378.306783611197
 31
0.0
  0
LINE
  5
8633
330
862F
100
AcDbEntity
  8
3
 62
     0
370
    -2
100
AcDbLine
 10
2715.942858765823
 20
4775.45394309327
 30
0.0
 11
2715.942858765823
 21
4378.306783611197
 31
0.0
  0
LINE
  5
8634
330
862F
100
AcDbEntity
  8
3
 62
     0
370
    -2
100
AcDbLine
 10
905.942858765823
 20
4408.306783611197
 30
0.0
 11
2655.942858765823
 21
4408.306783611197
 31
0.0
  0
INSERT
  5
8635
330
862F
100
AcDbEntity
  8
3
 62
     0
370
    -2
100
AcDbBlockReference
  2
_OPEN
 10
845.942858765823
 20
4408.306783611197
 30
0.0
 41
60.0
 42
60.0
 43
60.0
 50
180.0
  0
INSERT
  5
8636
330
862F
100
AcDbEntity
  8
3
 62
     0
370
    -2
100
AcDbBlockReference
  2
_OPEN
 10
2715.942858765823
 20
4408.306783611197
 30
0.0
 41
60.0
 42
60.0
 43
60.0
  0
MTEXT
  5
8637
330
862F
100
AcDbEntity
  8
3
 62
     0
100
AcDbMText
 10
1780.942858765823
 20
4483.306783611197
 30
0.0
 40
90.0
 41
0.0
 71
     5
 72
     1
  1
\A1;1870
 73
     1
 44
1.0
1001
ACAD
1000
MTEXTBEGIN
1070
    73
1070
     1
1070
    44
1040
1.0
1070
    74
1070
     0
1000
MTEXTEND
  0
POINT
  5
8638
330
862F
100
AcDbEntity
  8
DEFPOINTS
 62
     0
100
AcDbPoint
 10
845.942858765823
 20
4805.453943093271
 30
0.0
  0
POINT
  5
8639
330
862F
100
AcDbEntity
  8
DEFPOINTS
 62
     0
100
AcDbPoint
 10
2715.942858765823
 20
4805.453943093271
 30
0.0
  0
POINT
  5
863A
330
862F
100
AcDbEntity
  8
DEFPOINTS
 62
     0
100
AcDbPoint
 10
2715.942858765823
 20
4408.306783611197
 30
0.0
  0
ENDBLK
  5
8631
330
862F
100
AcDbEntity
  8
0
100
AcDbBlockEnd
  0
BLOCK
  5
863D
330
863C
100
AcDbEntity
  8
0
100
AcDbBlockBegin
  2
*D45
 70
     1
 10
0.0
 20
0.0
 30
0.0
  3
*D45
  1

  0
LINE
  5
863F
330
863C
100
AcDbEntity
  8
3
 62
     0
370
    -2
100
AcDbLine
 10
2745.942858765823
 20
6180.453943093272
 30
0.0
 11
3046.36708093224
 21
6180.453943093272
 31
0.0
  0
LINE
  5
8640
330
863C
100
AcDbEntity
  8
3
 62
     0
370
    -2
100
AcDbLine
 10
2745.942858765823
 20
4805.453943093271
 30
0.0
 11
3046.367080932239
 21
4805.453943093271
 31
0.0
  0
LINE
  5
8641
330
863C
100
AcDbEntity
  8
3
 62
     0
370
    -2
100
AcDbLine
 10
3016.367080932239
 20
6120.453943093272
 30
0.0
 11
3016.367080932239
 21
4865.453943093271
 31
0.0
  0
INSERT
  5
8642
330
863C
100
AcDbEntity
  8
3
 62
     0
370
    -2
100
AcDbBlockReference
  2
_OPEN
 10
3016.367080932239
 20
6180.453943093272
 30
0.0
 41
60.0
 42
60.0
 43
60.0
 50
90.0
  0
INSERT
  5
8643
330
863C
100
AcDbEntity
  8
3
 62
     0
370
    -2
100
AcDbBlockReference
  2
_OPEN
 10
3016.367080932239
 20
4805.453943093271
 30
0.0
 41
60.0
 42
60.0
 43
60.0
 50
270.0
  0
MTEXT
  5
8644
330
863C
100
AcDbEntity
  8
3
 62
     0
100
AcDbMText
 10
2941.367080932238
 20
5492.953943093272
 30
0.0
 40
90.0
 41
0.0
 71
     5
 72
     1
  1
\A1;1375
 11
0.0000000000000001
 21
1.0
 31
0.0
 73
     1
 44
1.0
1001
ACAD
1000
MTEXTBEGIN
1070
    73
1070
     1
1070
    44
1040
1.0
1070
    74
1070
     0
1000
MTEXTEND
  0
POINT
  5
8645
330
863C
100
AcDbEntity
  8
DEFPOINTS
 62
     0
100
AcDbPoint
 10
2715.942858765823
 20
6180.453943093272
 30
0.0
  0
POINT
  5
8646
330
863C
100
AcDbEntity
  8
DEFPOINTS
 62
     0
100
AcDbPoint
 10
2715.942858765823
 20
4805.453943093271
 30
0.0
  0
POINT
  5
8647
330
863C
100
AcDbEntity
  8
DEFPOINTS
 62
     0
100
AcDbPoint
 10
3016.367080932239
 20
4805.453943093271
 30
0.0
  0
ENDBLK
  5
863E
330
863C
100
AcDbEntity
  8
0
100
AcDbBlockEnd
  0
BLOCK
  5
864A
330
8649
100
AcDbEntity
  8
0
100
AcDbBlockBegin
  2
*D46
 70
     1
 10
0.0
 20
0.0
 30
0.0
  3
*D46
  1

  0
LINE
  5
864C
330
8649
100
AcDbEntity
  8
3
 62
     0
370
    -2
100
AcDbLine
 10
2715.942858765823
 20
6210.453943093272
 30
0.0
 11
2715.942858765823
 21
6512.468601598493
 31
0.0
  0
LINE
  5
864D
330
8649
100
AcDbEntity
  8
3
 62
     0
370
    -2
100
AcDbLine
 10
1595.942858765823
 20
6210.453943093272
 30
0.0
 11
1595.942858765823
 21
6512.468601598493
 31
0.0
  0
LINE
  5
864E
330
8649
100
AcDbEntity
  8
3
 62
     0
370
    -2
100
AcDbLine
 10
2655.942858765823
 20
6482.468601598494
 30
0.0
 11
1655.942858765823
 21
6482.468601598494
 31
0.0
  0
INSERT
  5
864F
330
8649
100
AcDbEntity
  8
3
 62
     0
370
    -2
100
AcDbBlockReference
  2
_OPEN
 10
2715.942858765823
 20
6482.468601598494
 30
0.0
 41
60.0
 42
60.0
 43
60.0
  0
INSERT
  5
8650
330
8649
100
AcDbEntity
  8
3
 62
     0
370
    -2
100
AcDbBlockReference
  2
_OPEN
 10
1595.942858765823
 20
6482.468601598494
 30
0.0
 41
60.0
 42
60.0
 43
60.0
 50
180.0
  0
MTEXT
  5
8651
330
8649
100
AcDbEntity
  8
3
 62
     0
100
AcDbMText
 10
2155.942858765823
 20
6557.468601598493
 30
0.0
 40
90.0
 41
0.0
 71
     5
 72
     1
  1
\A1;1120
 73
     1
 44
1.0
1001
ACAD
1000
MTEXTBEGIN
1070
    73
1070
     1
1070
    44
1040
1.0
1070
    74
1070
     0
1000
MTEXTEND
  0
POINT
  5
8652
330
8649
100
AcDbEntity
  8
DEFPOINTS
 62
     0
100
AcDbPoint
 10
2715.942858765823
 20
6180.453943093272
 30
0.0
  0
POINT
  5
8653
330
8649
100
AcDbEntity
  8
DEFPOINTS
 62
     0
100
AcDbPoint
 10
1595.942858765823
 20
6180.453943093272
 30
0.0
  0
POINT
  5
8654
330
8649
100
AcDbEntity
  8
DEFPOINTS
 62
     0
100
AcDbPoint
 10
1595.942858765823
 20
6482.468601598494
 30
0.0
  0
ENDBLK
  5
864B
330
8649
100
AcDbEntity
  8
0
100
AcDbBlockEnd
  0
BLOCK
  5
8657
330
8656
100
AcDbEntity
  8
0
100
AcDbBlockBegin
  2
*D47
 70
     1
 10
0.0
 20
0.0
 30
0.0
  3
*D47
  1

  0
LINE
  5
8659
330
8656
100
AcDbEntity
  8
3
 62
     0
370
    -2
100
AcDbLine
 10
1595.942858765823
 20
6210.453943093272
 30
0.0
 11
1595.942858765823
 21
6512.468601598493
 31
0.0
  0
LINE
  5
865A
330
8656
100
AcDbEntity
  8
3
 62
     0
370
    -2
100
AcDbLine
 10
845.9428587658239
 20
5635.453943093273
 30
0.0
 11
845.9428587658239
 21
6512.468601598493
 31
0.0
  0
LINE
  5
865B
330
8656
100
AcDbEntity
  8
3
 62
     0
370
    -2
100
AcDbLine
 10
1535.942858765823
 20
6482.468601598494
 30
0.0
 11
905.9428587658238
 21
6482.468601598494
 31
0.0
  0
INSERT
  5
865C
330
8656
100
AcDbEntity
  8
3
 62
     0
370
    -2
100
AcDbBlockReference
  2
_OPEN
 10
1595.942858765823
 20
6482.468601598494
 30
0.0
 41
60.0
 42
60.0
 43
60.0
  0
INSERT
  5
865D
330
8656
100
AcDbEntity
  8
3
 62
     0
370
    -2
100
AcDbBlockReference
  2
_OPEN
 10
845.9428587658239
 20
6482.468601598494
 30
0.0
 41
60.0
 42
60.0
 43
60.0
 50
180.0
  0
MTEXT
  5
865E
330
8656
100
AcDbEntity
  8
3
 62
     0
100
AcDbMText
 10
1220.942858765823
 20
6557.468601598493
 30
0.0
 40
90.0
 41
0.0
 71
     5
 72
     1
  1
\A1;750
 73
     1
 44
1.0
1001
ACAD
1000
MTEXTBEGIN
1070
    73
1070
     1
1070
    44
1040
1.0
1070
    74
1070
     0
1000
MTEXTEND
  0
POINT
  5
865F
330
8656
100
AcDbEntity
  8
DEFPOINTS
 62
     0
100
AcDbPoint
 10
1595.942858765823
 20
6180.453943093272
 30
0.0
  0
POINT
  5
8660
330
8656
100
AcDbEntity
  8
DEFPOINTS
 62
     0
100
AcDbPoint
 10
845.9428587658239
 20
5605.453943093273
 30
0.0
  0
POINT
  5
8661
330
8656
100
AcDbEntity
  8
DEFPOINTS
 62
     0
100
AcDbPoint
 10
845.9428587658239
 20
6482.468601598494
 30
0.0
  0
ENDBLK
  5
8658
330
8656
100
AcDbEntity
  8
0
100
AcDbBlockEnd
  0
BLOCK
  5
8664
330
8663
100
AcDbEntity
  8
0
100
AcDbBlockBegin
  2
*D48
 70
     1
 10
0.0
 20
0.0
 30
0.0
  3
*D48
  1

  0
LINE
  5
8666
330
8663
100
AcDbEntity
  8
3
 62
     0
370
    -2
100
AcDbLine
 10
815.9428587658238
 20
5605.453943093272
 30
0.0
 11
626.0913512992849
 21
5605.453943093272
 31
0.0
  0
LINE
  5
8667
330
8663
100
AcDbEntity
  8
3
 62
     0
370
    -2
100
AcDbLine
 10
815.9428587658229
 20
4805.453943093271
 30
0.0
 11
626.0913512992847
 21
4805.453943093271
 31
0.0
  0
LINE
  5
8668
330
8663
100
AcDbEntity
  8
3
 62
     0
370
    -2
100
AcDbLine
 10
656.0913512992849
 20
5545.453943093272
 30
0.0
 11
656.0913512992848
 21
4865.453943093271
 31
0.0
  0
INSERT
  5
8669
330
8663
100
AcDbEntity
  8
3
 62
     0
370
    -2
100
AcDbBlockReference
  2
_OPEN
 10
656.0913512992849
 20
5605.453943093272
 30
0.0
 41
60.0
 42
60.0
 43
60.0
 50
90.0
  0
INSERT
  5
866A
330
8663
100
AcDbEntity
  8
3
 62
     0
370
    -2
100
AcDbBlockReference
  2
_OPEN
 10
656.0913512992847
 20
4805.453943093271
 30
0.0
 41
60.0
 42
60.0
 43
60.0
 50
270.0
  0
MTEXT
  5
866B
330
8663
100
AcDbEntity
  8
3
 62
     0
100
AcDbMText
 10
581.091351299284
 20
5205.453943093271
 30
0.0
 40
90.0
 41
0.0
 71
     5
 72
     1
  1
\A1;800
 11
0.0000000000000001
 21
1.0
 31
0.0
 73
     1
 44
1.0
1001
ACAD
1000
MTEXTBEGIN
1070
    73
1070
     1
1070
    44
1040
1.0
1070
    74
1070
     0
1000
MTEXTEND
  0
POINT
  5
866C
330
8663
100
AcDbEntity
  8
DEFPOINTS
 62
     0
100
AcDbPoint
 10
845.9428587658239
 20
5605.453943093272
 30
0.0
  0
POINT
  5
866D
330
8663
100
AcDbEntity
  8
DEFPOINTS
 62
     0
100
AcDbPoint
 10
845.942858765823
 20
4805.453943093271
 30
0.0
  0
POINT
  5
866E
330
8663
100
AcDbEntity
  8
DEFPOINTS
 62
     0
100
AcDbPoint
 10
656.0913512992847
 20
4805.453943093271
 30
0.0
  0
ENDBLK
  5
8665
330
8663
100
AcDbEntity
  8
0
100
AcDbBlockEnd
  0
BLOCK
  5
8671
330
8670
100
AcDbEntity
  8
0
100
AcDbBlockBegin
  2
*D49
 70
     1
 10
0.0
 20
0.0
 30
0.0
  3
*D49
  1

  0
LINE
  5
867C
330
8670
100
AcDbEntity
  8
3
 62
     0
370
    -2
100
AcDbLine
 10
2775.942858765823
 20
3820.954481859346
 30
0.0
 11
2775.942858765823
 21
4167.110429238729
 31
0.0
  0
LINE
  5
867D
330
8670
100
AcDbEntity
  8
3
 62
     0
370
    -2
100
AcDbLine
 10
845.9428587658239
 20
2237.454481859345
 30
0.0
 11
845.9428587658239
 21
4167.110429238729
 31
0.0
  0
LINE
  5
867E
330
8670
100
AcDbEntity
  8
3
 62
     0
370
    -2
100
AcDbLine
 10
2715.942858765823
 20
4137.110429238729
 30
0.0
 11
905.942858765824
 21
4137.110429238729
 31
0.0
  0
INSERT
  5
867F
330
8670
100
AcDbEntity
  8
3
 62
     0
370
    -2
100
AcDbBlockReference
  2
_OPEN
 10
2775.942858765823
 20
4137.110429238729
 30
0.0
 41
60.0
 42
60.0
 43
60.0
  0
INSERT
  5
8680
330
8670
100
AcDbEntity
  8
3
 62
     0
370
    -2
100
AcDbBlockReference
  2
_OPEN
 10
845.9428587658239
 20
4137.110429238729
 30
0.0
 41
60.0
 42
60.0
 43
60.0
 50
180.0
  0
MTEXT
  5
8681
330
8670
100
AcDbEntity
  8
3
 62
     0
100
AcDbMText
 10
1810.942858765823
 20
4212.110429238729
 30
0.0
 40
90.0
 41
0.0
 71
     5
 72
     1
  1
\A1;1930
 73
     1
 44
1.0
1001
ACAD
1000
MTEXTBEGIN
1070
    73
1070
     1
1070
    44
1040
1.0
1070
    74
1070
     0
1000
MTEXTEND
  0
POINT
  5
8682
330
8670
100
AcDbEntity
  8
DEFPOINTS
 62
     0
100
AcDbPoint
 10
2775.942858765823
 20
3790.954481859346
 30
0.0
  0
POINT
  5
8683
330
8670
100
AcDbEntity
  8
DEFPOINTS
 62
     0
100
AcDbPoint
 10
845.9428587658239
 20
2207.454481859345
 30
0.0
  0
POINT
  5
8684
330
8670
100
AcDbEntity
  8
DEFPOINTS
 62
     0
100
AcDbPoint
 10
845.9428587658239
 20
4137.110429238729
 30
0.0
  0
ENDBLK
  5
8672
330
8670
100
AcDbEntity
  8
0
100
AcDbBlockEnd
  0
BLOCK
  5
8687
330
8686
100
AcDbEntity
  8
0
100
AcDbBlockBegin
  2
*D50
 70
     1
 10
0.0
 20
0.0
 30
0.0
  3
*D50
  1

  0
LINE
  5
8689
330
8686
100
AcDbEntity
  8
3
 62
     0
370
    -2
100
AcDbLine
 10
2775.942858765823
 20
3820.954481859346
 30
0.0
 11
2775.942858765823
 21
3971.848891574977
 31
0.0
  0
LINE
  5
868A
330
8686
100
AcDbEntity
  8
3
 62
     0
370
    -2
100
AcDbLine
 10
2155.942858765823
 20
3819.416924202903
 30
0.0
 11
2155.942858765823
 21
3971.848891574977
 31
0.0
  0
LINE
  5
868B
330
8686
100
AcDbEntity
  8
3
 62
     0
370
    -2
100
AcDbLine
 10
2715.942858765823
 20
3941.848891574977
 30
0.0
 11
2215.942858765822
 21
3941.848891574977
 31
0.0
  0
INSERT
  5
868C
330
8686
100
AcDbEntity
  8
3
 62
     0
370
    -2
100
AcDbBlockReference
  2
_OPEN
 10
2775.942858765823
 20
3941.848891574977
 30
0.0
 41
60.0
 42
60.0
 43
60.0
  0
INSERT
  5
868D
330
8686
100
AcDbEntity
  8
3
 62
     0
370
    -2
100
AcDbBlockReference
  2
_OPEN
 10
2155.942858765823
 20
3941.848891574977
 30
0.0
 41
60.0
 42
60.0
 43
60.0
 50
180.0
  0
MTEXT
  5
868E
330
8686
100
AcDbEntity
  8
3
 62
     0
100
AcDbMText
 10
2465.942858765823
 20
4016.848891574976
 30
0.0
 40
90.0
 41
0.0
 71
     5
 72
     1
  1
\A1;620
 73
     1
 44
1.0
1001
ACAD
1000
MTEXTBEGIN
1070
    73
1070
     1
1070
    44
1040
1.0
1070
    74
1070
     0
1000
MTEXTEND
  0
POINT
  5
868F
330
8686
100
AcDbEntity
  8
DEFPOINTS
 62
     0
100
AcDbPoint
 10
2775.942858765823
 20
3790.954481859346
 30
0.0
  0
POINT
  5
8690
330
8686
100
AcDbEntity
  8
DEFPOINTS
 62
     0
100
AcDbPoint
 10
2155.942858765823
 20
3789.416924202903
 30
0.0
  0
POINT
  5
8691
330
8686
100
AcDbEntity
  8
DEFPOINTS
 62
     0
100
AcDbPoint
 10
2155.942858765823
 20
3941.848891574977
 30
0.0
  0
ENDBLK
  5
8688
330
8686
100
AcDbEntity
  8
0
100
AcDbBlockEnd
  0
BLOCK
  5
8694
330
8693
100
AcDbEntity
  8
0
100
AcDbBlockBegin
  2
*D51
 70
     1
 10
0.0
 20
0.0
 30
0.0
  3
*D51
  1

  0
LINE
  5
8696
330
8693
100
AcDbEntity
  8
3
 62
     0
370
    -2
100
AcDbLine
 10
2155.942858765823
 20
3819.416924202903
 30
0.0
 11
2155.942858765823
 21
3971.848891574977
 31
0.0
  0
LINE
  5
8697
330
8693
100
AcDbEntity
  8
3
 62
     0
370
    -2
100
AcDbLine
 10
1378.942858765823
 20
2884.454481859345
 30
0.0
 11
1378.942858765823
 21
3971.848891574977
 31
0.0
  0
LINE
  5
8698
330
8693
100
AcDbEntity
  8
3
 62
     0
370
    -2
100
AcDbLine
 10
2095.942858765823
 20
3941.848891574977
 30
0.0
 11
1438.942858765823
 21
3941.848891574977
 31
0.0
  0
INSERT
  5
8699
330
8693
100
AcDbEntity
  8
3
 62
     0
370
    -2
100
AcDbBlockReference
  2
_OPEN
 10
2155.942858765823
 20
3941.848891574977
 30
0.0
 41
60.0
 42
60.0
 43
60.0
  0
INSERT
  5
869A
330
8693
100
AcDbEntity
  8
3
 62
     0
370
    -2
100
AcDbBlockReference
  2
_OPEN
 10
1378.942858765823
 20
3941.848891574977
 30
0.0
 41
60.0
 42
60.0
 43
60.0
 50
180.0
  0
MTEXT
  5
869B
330
8693
100
AcDbEntity
  8
3
 62
     0
100
AcDbMText
 10
1767.442858765823
 20
4016.848891574976
 30
0.0
 40
90.0
 41
0.0
 71
     5
 72
     1
  1
\A1;777
 73
     1
 44
1.0
1001
ACAD
1000
MTEXTBEGIN
1070
    73
1070
     1
1070
    44
1040
1.0
1070
    74
1070
     0
1000
MTEXTEND
  0
POINT
  5
869C
330
8693
100
AcDbEntity
  8
DEFPOINTS
 62
     0
100
AcDbPoint
 10
2155.942858765823
 20
3789.416924202903
 30
0.0
  0
POINT
  5
869D
330
8693
100
AcDbEntity
  8
DEFPOINTS
 62
     0
100
AcDbPoint
 10
1378.942858765823
 20
2854.454481859345
 30
0.0
  0
POINT
  5
869E
330
8693
100
AcDbEntity
  8
DEFPOINTS
 62
     0
100
AcDbPoint
 10
1378.942858765823
 20
3941.848891574977
 30
0.0
  0
ENDBLK
  5
8695
330
8693
100
AcDbEntity
  8
0
100
AcDbBlockEnd
  0
BLOCK
  5
86A1
330
86A0
100
AcDbEntity
  8
0
100
AcDbBlockBegin
  2
*D52
 70
     1
 10
0.0
 20
0.0
 30
0.0
  3
*D52
  1

  0
LINE
  5
86A3
330
86A0
100
AcDbEntity
  8
3
 62
     0
370
    -2
100
AcDbLine
 10
2805.942858765823
 20
3748.454481859345
 30
0.0
 11
2955.557967209033
 21
3748.454481859345
 31
0.0
  0
LINE
  5
86A4
330
86A0
100
AcDbEntity
  8
3
 62
     0
370
    -2
100
AcDbLine
 10
2805.942858765823
 20
2823.454481859346
 30
0.0
 11
2955.557967209033
 21
2823.454481859346
 31
0.0
  0
LINE
  5
86A5
330
86A0
100
AcDbEntity
  8
3
 62
     0
370
    -2
100
AcDbLine
 10
2925.557967209034
 20
3688.454481859345
 30
0.0
 11
2925.557967209033
 21
2883.454481859346
 31
0.0
  0
INSERT
  5
86A6
330
86A0
100
AcDbEntity
  8
3
 62
     0
370
    -2
100
AcDbBlockReference
  2
_OPEN
 10
2925.557967209034
 20
3748.454481859345
 30
0.0
 41
60.0
 42
60.0
 43
60.0
 50
90.0
  0
INSERT
  5
86A7
330
86A0
100
AcDbEntity
  8
3
 62
     0
370
    -2
100
AcDbBlockReference
  2
_OPEN
 10
2925.557967209033
 20
2823.454481859346
 30
0.0
 41
60.0
 42
60.0
 43
60.0
 50
270.0
  0
MTEXT
  5
86A8
330
86A0
100
AcDbEntity
  8
3
 62
     0
100
AcDbMText
 10
2850.557967209033
 20
3285.954481859346
 30
0.0
 40
90.0
 41
0.0
 71
     5
 72
     1
  1
\A1;925
 11
0.0000000000000001
 21
1.0
 31
0.0
 73
     1
 44
1.0
1001
ACAD
1000
MTEXTBEGIN
1070
    73
1070
     1
1070
    44
1040
1.0
1070
    74
1070
     0
1000
MTEXTEND
  0
POINT
  5
86A9
330
86A0
100
AcDbEntity
  8
DEFPOINTS
 62
     0
100
AcDbPoint
 10
2775.942858765823
 20
3748.454481859345
 30
0.0
  0
POINT
  5
86AA
330
86A0
100
AcDbEntity
  8
DEFPOINTS
 62
     0
100
AcDbPoint
 10
2775.942858765823
 20
2823.454481859346
 30
0.0
  0
POINT
  5
86AB
330
86A0
100
AcDbEntity
  8
DEFPOINTS
 62
     0
100
AcDbPoint
 10
2925.557967209033
 20
2823.454481859346
 30
0.0
  0
ENDBLK
  5
86A2
330
86A0
100
AcDbEntity
  8
0
100
AcDbBlockEnd
  0
BLOCK
  5
86AE
330
86AD
100
AcDbEntity
  8
0
100
AcDbBlockBegin
  2
*D53
 70
     1
 10
0.0
 20
0.0
 30
0.0
  3
*D53
  1

  0
LINE
  5
86B0
330
86AD
100
AcDbEntity
  8
3
 62
     0
370
    -2
100
AcDbLine
 10
2805.942858765823
 20
3748.454481859345
 30
0.0
 11
3105.901267306896
 21
3748.454481859345
 31
0.0
  0
LINE
  5
86B1
330
86AD
100
AcDbEntity
  8
3
 62
     0
370
    -2
100
AcDbLine
 10
2842.198197544368
 20
2787.454481859346
 30
0.0
 11
3105.901267306895
 21
2787.454481859346
 31
0.0
  0
LINE
  5
86B2
330
86AD
100
AcDbEntity
  8
3
 62
     0
370
    -2
100
AcDbLine
 10
3075.901267306896
 20
3688.454481859345
 30
0.0
 11
3075.901267306895
 21
2847.454481859346
 31
0.0
  0
INSERT
  5
86B3
330
86AD
100
AcDbEntity
  8
3
 62
     0
370
    -2
100
AcDbBlockReference
  2
_OPEN
 10
3075.901267306896
 20
3748.454481859345
 30
0.0
 41
60.0
 42
60.0
 43
60.0
 50
90.0
  0
INSERT
  5
86B4
330
86AD
100
AcDbEntity
  8
3
 62
     0
370
    -2
100
AcDbBlockReference
  2
_OPEN
 10
3075.901267306895
 20
2787.454481859346
 30
0.0
 41
60.0
 42
60.0
 43
60.0
 50
270.0
  0
MTEXT
  5
86B5
330
86AD
100
AcDbEntity
  8
3
 62
     0
100
AcDbMText
 10
3000.901267306895
 20
3267.954481859346
 30
0.0
 40
90.0
 41
0.0
 71
     5
 72
     1
  1
\A1;961
 11
0.0000000000000001
 21
1.0
 31
0.0
 73
     1
 44
1.0
1001
ACAD
1000
MTEXTBEGIN
1070
    73
1070
     1
1070
    44
1040
1.0
1070
    74
1070
     0
1000
MTEXTEND
  0
POINT
  5
86B6
330
86AD
100
AcDbEntity
  8
DEFPOINTS
 62
     0
100
AcDbPoint
 10
2775.942858765823
 20
3748.454481859345
 30
0.0
  0
POINT
  5
86B7
330
86AD
100
AcDbEntity
  8
DEFPOINTS
 62
     0
100
AcDbPoint
 10
2812.198197544368
 20
2787.454481859346
 30
0.0
  0
POINT
  5
86B8
330
86AD
100
AcDbEntity
  8
DEFPOINTS
 62
     0
100
AcDbPoint
 10
3075.901267306895
 20
2787.454481859346
 30
0.0
  0
ENDBLK
  5
86AF
330
86AD
100
AcDbEntity
  8
0
100
AcDbBlockEnd
  0
BLOCK
  5
86BB
330
86BA
100
AcDbEntity
  8
0
100
AcDbBlockBegin
  2
*D54
 70
     1
 10
0.0
 20
0.0
 30
0.0
  3
*D54
  1

  0
LINE
  5
86BD
330
86BA
100
AcDbEntity
  8
3
 62
     0
370
    -2
100
AcDbLine
 10
2842.198197544368
 20
2787.454481859346
 30
0.0
 11
3105.901267306895
 21
2787.454481859346
 31
0.0
  0
LINE
  5
86BE
330
86BA
100
AcDbEntity
  8
3
 62
     0
370
    -2
100
AcDbLine
 10
2745.942858765823
 20
2107.454481859345
 30
0.0
 11
3105.901267306895
 21
2107.454481859345
 31
0.0
  0
LINE
  5
86BF
330
86BA
100
AcDbEntity
  8
3
 62
     0
370
    -2
100
AcDbLine
 10
3075.901267306895
 20
2727.454481859346
 30
0.0
 11
3075.901267306895
 21
2167.454481859345
 31
0.0
  0
INSERT
  5
86C0
330
86BA
100
AcDbEntity
  8
3
 62
     0
370
    -2
100
AcDbBlockReference
  2
_OPEN
 10
3075.901267306895
 20
2787.454481859346
 30
0.0
 41
60.0
 42
60.0
 43
60.0
 50
90.0
  0
INSERT
  5
86C1
330
86BA
100
AcDbEntity
  8
3
 62
     0
370
    -2
100
AcDbBlockReference
  2
_OPEN
 10
3075.901267306895
 20
2107.454481859345
 30
0.0
 41
60.0
 42
60.0
 43
60.0
 50
270.0
  0
MTEXT
  5
86C2
330
86BA
100
AcDbEntity
  8
3
 62
     0
100
AcDbMText
 10
3000.901267306895
 20
2447.454481859346
 30
0.0
 40
90.0
 41
0.0
 71
     5
 72
     1
  1
\A1;680
 11
0.0000000000000001
 21
1.0
 31
0.0
 73
     1
 44
1.0
1001
ACAD
1000
MTEXTBEGIN
1070
    73
1070
     1
1070
    44
1040
1.0
1070
    74
1070
     0
1000
MTEXTEND
  0
POINT
  5
86C3
330
86BA
100
AcDbEntity
  8
DEFPOINTS
 62
     0
100
AcDbPoint
 10
2812.198197544368
 20
2787.454481859346
 30
0.0
  0
POINT
  5
86C4
330
86BA
100
AcDbEntity
  8
DEFPOINTS
 62
     0
100
AcDbPoint
 10
2715.942858765823
 20
2107.454481859345
 30
0.0
  0
POINT
  5
86C5
330
86BA
100
AcDbEntity
  8
DEFPOINTS
 62
     0
100
AcDbPoint
 10
3075.901267306895
 20
2107.454481859345
 30
0.0
  0
ENDBLK
  5
86BC
330
86BA
100
AcDbEntity
  8
0
100
AcDbBlockEnd
  0
BLOCK
  5
86C8
330
86C7
100
AcDbEntity
  8
0
100
AcDbBlockBegin
  2
*D55
 70
     1
 10
0.0
 20
0.0
 30
0.0
  3
*D55
  1

  0
LINE
  5
8776
330
86C7
100
AcDbEntity
  8
3
 62
     0
370
    -2
100
AcDbLine
 10
2745.942858765823
 20
2107.454481859345
 30
0.0
 11
3105.901267306895
 21
2107.454481859345
 31
0.0
  0
LINE
  5
8777
330
86C7
100
AcDbEntity
  8
3
 62
     0
370
    -2
100
AcDbLine
 10
2745.942858765824
 20
2002.454481859345
 30
0.0
 11
3105.901267306895
 21
2002.454481859345
 31
0.0
  0
LINE
  5
8778
330
86C7
100
AcDbEntity
  8
3
 62
     0
370
    -2
100
AcDbLine
 10
3075.901267306895
 20
2167.454481859345
 30
0.0
 11
3075.901267306895
 21
2227.454481859345
 31
0.0
  0
LINE
  5
8779
330
86C7
100
AcDbEntity
  8
3
 62
     0
370
    -2
100
AcDbLine
 10
3075.901267306895
 20
2002.454481859345
 30
0.0
 11
3075.901267306895
 21
1942.454481859344
 31
0.0
  0
LINE
  5
877A
330
86C7
100
AcDbEntity
  8
3
 62
     0
370
    -2
100
AcDbLine
 10
3075.901267306895
 20
2054.954481859345
 30
0.0
 11
3356.615553021181
 21
2139.168767573631
 31
0.0
  0
LINE
  5
877B
330
86C7
100
AcDbEntity
  8
3
 62
     0
370
    -2
100
AcDbLine
 10
3356.615553021181
 20
2139.168767573631
 30
0.0
 11
3356.615553021181
 21
2529.16876757363
 31
0.0
  0
MTEXT
  5
877C
330
86C7
100
AcDbEntity
  8
3
 62
     0
100
AcDbMText
 10
3258.044124449752
 20
2334.168767573631
 30
0.0
 40
90.0
 41
0.0
 71
     5
 72
     1
  1
\A1;(105)
 11
0.0000000000000001
 21
1.0
 31
0.0
 73
     1
 44
1.0
1001
ACAD
1000
MTEXTBEGIN
1070
    73
1070
     1
1070
    44
1040
1.0
1070
    74
1070
     0
1000
MTEXTEND
  0
LINE
  5
877D
330
86C7
100
AcDbEntity
  8
3
 62
     0
370
    -2
100
AcDbLine
 10
3075.901267306895
 20
2107.454481859345
 30
0.0
 11
3075.901267306895
 21
2002.454481859345
 31
0.0
  0
LINE
  5
877E
330
86C7
100
AcDbEntity
  8
3
 62
     0
370
    -2
100
AcDbLine
 10
3075.901267306895
 20
2107.454481859345
 30
0.0
 11
3075.901267306895
 21
2002.454481859345
 31
0.0
  0
INSERT
  5
877F
330
86C7
100
AcDbEntity
  8
3
 62
     0
370
    -2
100
AcDbBlockReference
  2
_OPEN
 10
3075.901267306895
 20
2107.454481859345
 30
0.0
 41
60.0
 42
60.0
 43
60.0
 50
270.0
  0
INSERT
  5
8780
330
86C7
100
AcDbEntity
  8
3
 62
     0
370
    -2
100
AcDbBlockReference
  2
_DotSmall
 10
3075.901267306895
 20
2002.454481859345
 30
0.0
 41
60.0
 42
60.0
 43
60.0
 50
90.0
  0
POINT
  5
8781
330
86C7
100
AcDbEntity
  8
DEFPOINTS
 62
     0
100
AcDbPoint
 10
2715.942858765823
 20
2107.454481859345
 30
0.0
  0
POINT
  5
8782
330
86C7
100
AcDbEntity
  8
DEFPOINTS
 62
     0
100
AcDbPoint
 10
2715.942858765824
 20
2002.454481859345
 30
0.0
  0
POINT
  5
8783
330
86C7
100
AcDbEntity
  8
DEFPOINTS
 62
     0
100
AcDbPoint
 10
3075.901267306895
 20
2002.454481859345
 30
0.0
  0
ENDBLK
  5
86C9
330
86C7
100
AcDbEntity
  8
0
100
AcDbBlockEnd
  0
BLOCK
  5
86DA
330
86D9
100
AcDbEntity
  8
0
100
AcDbBlockBegin
  2
*D56
 70
     1
 10
0.0
 20
0.0
 30
0.0
  3
*D56
  1

  0
LINE
  5
87D2
330
86D9
100
AcDbEntity
  8
3
 62
     0
370
    -2
100
AcDbLine
 10
2745.942858765824
 20
2002.454481859345
 30
0.0
 11
3105.901267306895
 21
2002.454481859345
 31
0.0
  0
LINE
  5
87D3
330
86D9
100
AcDbEntity
  8
3
 62
     0
370
    -2
100
AcDbLine
 10
2745.942858765824
 20
1902.454481859345
 30
0.0
 11
3105.901267306895
 21
1902.454481859345
 31
0.0
  0
LINE
  5
87D4
330
86D9
100
AcDbEntity
  8
3
 62
     0
370
    -2
100
AcDbLine
 10
3075.901267306895
 20
2002.454481859345
 30
0.0
 11
3075.901267306895
 21
2062.454481859345
 31
0.0
  0
LINE
  5
87D5
330
86D9
100
AcDbEntity
  8
3
 62
     0
370
    -2
100
AcDbLine
 10
3075.901267306895
 20
1842.454481859344
 30
0.0
 11
3075.901267306895
 21
1782.454481859345
 31
0.0
  0
MTEXT
  5
87D6
330
86D9
100
AcDbEntity
  8
3
 62
     0
100
AcDbMText
 10
2999.449352884578
 20
1758.173677440365
 30
0.0
 40
90.0
 41
0.0
 71
     5
 72
     1
  1
\A1;100
 11
0.0000000000000001
 21
1.0
 31
0.0
 73
     1
 44
1.0
1001
ACAD
1000
MTEXTBEGIN
1070
    73
1070
     1
1070
    44
1040
1.0
1070
    74
1070
     0
1000
MTEXTEND
  0
LINE
  5
87D7
330
86D9
100
AcDbEntity
  8
3
 62
     0
370
    -2
100
AcDbLine
 10
3075.901267306895
 20
2002.454481859345
 30
0.0
 11
3075.901267306895
 21
1902.454481859345
 31
0.0
  0
INSERT
  5
87D8
330
86D9
100
AcDbEntity
  8
3
 62
     0
370
    -2
100
AcDbBlockReference
  2
_DotSmall
 10
3075.901267306895
 20
2002.454481859345
 30
0.0
 41
60.0
 42
60.0
 43
60.0
 50
270.0
  0
INSERT
  5
87D9
330
86D9
100
AcDbEntity
  8
3
 62
     0
370
    -2
100
AcDbBlockReference
  2
_OPEN
 10
3075.901267306895
 20
1902.454481859345
 30
0.0
 41
60.0
 42
60.0
 43
60.0
 50
90.0
  0
POINT
  5
87DA
330
86D9
100
AcDbEntity
  8
DEFPOINTS
 62
     0
100
AcDbPoint
 10
2715.942858765824
 20
2002.454481859345
 30
0.0
  0
POINT
  5
87DB
330
86D9
100
AcDbEntity
  8
DEFPOINTS
 62
     0
100
AcDbPoint
 10
2715.942858765824
 20
1902.454481859345
 30
0.0
  0
POINT
  5
87DC
330
86D9
100
AcDbEntity
  8
DEFPOINTS
 62
     0
100
AcDbPoint
 10
3075.901267306895
 20
1902.454481859345
 30
0.0
  0
ENDBLK
  5
86DB
330
86D9
100
AcDbEntity
  8
0
100
AcDbBlockEnd
  0
BLOCK
  5
8774
330
8772
100
AcDbEntity
  8
0
100
AcDbBlockBegin
  2
_DotSmall
 70
     0
 10
0.0
 20
0.0
 30
0.0
  3
_DotSmall
  1

  0
LWPOLYLINE
  5
8773
330
8772
100
AcDbEntity
  8
0
  6
ByBlock
 62
     0
100
AcDbPolyline
 90
        2
 70
     1
 43
0.5
 10
-0.0625
 20
0.0
 42
1.0
 10
0.0625
 20
0.0
 42
1.0
  0
ENDBLK
  5
8775
330
8772
100
AcDbEntity
  8
0
100
AcDbBlockEnd
  0
BLOCK
  5
87DF
330
87DE
100
AcDbEntity
  8
0
100
AcDbBlockBegin
  2
*D58
 70
     1
 10
0.0
 20
0.0
 30
0.0
  3
*D58
  1

  0
LINE
  5
8805
330
87DE
100
AcDbEntity
  8
3
 62
     0
370
    -2
100
AcDbLine
 10
2745.942858765824
 20
1902.454481859345
 30
0.0
 11
3448.996076694253
 21
1902.454481859345
 31
0.0
  0
LINE
  5
8806
330
87DE
100
AcDbEntity
  8
3
 62
     0
370
    -2
100
AcDbLine
 10
2805.942858765823
 20
3748.454481859345
 30
0.0
 11
3448.996076694253
 21
3748.454481859345
 31
0.0
  0
LINE
  5
8807
330
87DE
100
AcDbEntity
  8
3
 62
     0
370
    -2
100
AcDbLine
 10
3418.996076694253
 20
1962.454481859344
 30
0.0
 11
3418.996076694253
 21
3688.454481859345
 31
0.0
  0
INSERT
  5
8808
330
87DE
100
AcDbEntity
  8
3
 62
     0
370
    -2
100
AcDbBlockReference
  2
_OPEN
 10
3418.996076694253
 20
1902.454481859345
 30
0.0
 41
60.0
 42
60.0
 43
60.0
 50
270.0
  0
INSERT
  5
8809
330
87DE
100
AcDbEntity
  8
3
 62
     0
370
    -2
100
AcDbBlockReference
  2
_OPEN
 10
3418.996076694253
 20
3748.454481859345
 30
0.0
 41
60.0
 42
60.0
 43
60.0
 50
90.0
  0
MTEXT
  5
880A
330
87DE
100
AcDbEntity
  8
3
 62
     0
100
AcDbMText
 10
3320.424648122824
 20
2825.454481859346
 30
0.0
 40
90.0
 41
0.0
 71
     5
 72
     1
  1
\A1;(1846)
 11
0.0000000000000001
 21
1.0
 31
0.0
 73
     1
 44
1.0
1001
ACAD
1000
MTEXTBEGIN
1070
    73
1070
     1
1070
    44
1040
1.0
1070
    74
1070
     0
1000
MTEXTEND
  0
POINT
  5
880B
330
87DE
100
AcDbEntity
  8
DEFPOINTS
 62
     0
100
AcDbPoint
 10
2715.942858765824
 20
1902.454481859345
 30
0.0
  0
POINT
  5
880C
330
87DE
100
AcDbEntity
  8
DEFPOINTS
 62
     0
100
AcDbPoint
 10
2775.942858765823
 20
3748.454481859345
 30
0.0
  0
POINT
  5
880D
330
87DE
100
AcDbEntity
  8
DEFPOINTS
 62
     0
100
AcDbPoint
 10
3418.996076694253
 20
3748.454481859345
 30
0.0
  0
ENDBLK
  5
87E0
330
87DE
100
AcDbEntity
  8
0
100
AcDbBlockEnd
  0
ENDSEC
  0
SECTION
  2
ENTITIES
  0
INSERT
  5
7C31
330
84B4
100
AcDbEntity
  8
0
100
AcDbBlockReference
  2
YA_N
 10
6.0
 20
5.0
 30
0.0
  0
LINE
  5
7C33
330
84B4
100
AcDbEntity
  8
2
100
AcDbLine
 10
2812.198197544368
 20
2787.454481859346
 30
0.0
 11
1310.61810412713
 21
2787.454481859346
 31
0.0
  0
LINE
  5
7C34
330
84B4
100
AcDbEntity
  8
2
100
AcDbLine
 10
2155.942858765823
 20
3789.416924202903
 30
0.0
 11
2155.942858765823
 21
1902.454481859346
 31
0.0
  0
ARC
  5
7C35
330
84B4
100
AcDbEntity
  8
1
100
AcDbCircle
 10
2222.942858765823
 20
2854.454481859345
 30
0.0
 40
844.0
100
AcDbArc
 50
94.55315238721905
 51
184.553152387219
  0
ARC
  5
7C36
330
84B4
100
AcDbEntity
  8
1
100
AcDbCircle
 10
2088.942858765823
 20
2854.454481859345
 30
0.0
 40
710.0
100
AcDbArc
 50
185.4148417061294
 51
245.6811172079949
  0
ARC
  5
7C37
330
84B4
100
AcDbEntity
  8
1
100
AcDbCircle
 10
2102.442858765823
 20
2733.954481859345
 30
0.0
 40
589.5
100
AcDbArc
 50
296.730793849171
 51
5.207036088349489
  0
LINE
  5
7C38
330
84B4
100
AcDbEntity
  8
1
100
AcDbLine
 10
2775.942858765823
 20
3790.954481859346
 30
0.0
 11
2775.942858765823
 21
2780.954481859346
 31
0.0
  0
LINE
  5
7C39
330
84B4
100
AcDbEntity
  8
1
100
AcDbLine
 10
2775.942858765823
 20
2823.454481859346
 30
0.0
 11
2690.73253705066
 21
2823.454481859346
 31
0.0
  0
LINE
  5
7C3A
330
84B4
100
AcDbEntity
  8
1
100
AcDbLine
 10
2775.942858765823
 20
3748.454481859345
 30
0.0
 11
2155.942858765823
 21
3695.79091872631
 31
0.0
  0
LINE
  5
7C3B
330
84B4
100
AcDbEntity
  8
1
100
AcDbLine
 10
2775.942858765823
 20
3790.954481859346
 30
0.0
 11
2772.942858765823
 21
3790.954481859346
 31
0.0
  0
LINE
  5
7C3C
330
84B4
100
AcDbEntity
  8
1
100
AcDbLine
 10
2775.942858765823
 20
2780.954481859346
 30
0.0
 11
2772.942858765823
 21
2780.954481859346
 31
0.0
  0
LINE
  5
7C3D
330
84B4
100
AcDbEntity
  8
1
100
AcDbLine
 10
2735.942858765822
 20
3745.056832624956
 30
0.0
 11
2735.942858765822
 21
2823.454481859346
 31
0.0
  0
LINE
  5
7C3E
330
84B4
100
AcDbEntity
  8
1
100
AcDbLine
 10
2772.942858765823
 20
3790.954481859346
 30
0.0
 11
2772.942858765823
 21
2780.954481859346
 31
0.0
  0
LINE
  5
7C3F
330
84B4
100
AcDbEntity
  8
1
100
AcDbLine
 10
845.9428587658239
 20
2207.454481859345
 30
0.0
 11
845.9428587658239
 21
2107.454481859345
 31
0.0
  0
LINE
  5
7C40
330
84B4
100
AcDbEntity
  8
1
100
AcDbLine
 10
2715.942858765823
 20
2207.454481859346
 30
0.0
 11
2715.942858765823
 21
2107.454481859345
 31
0.0
  0
LINE
  5
7C41
330
84B4
100
AcDbEntity
  8
1
100
AcDbLine
 10
845.9428587658239
 20
2107.454481859345
 30
0.0
 11
2715.942858765824
 21
2107.454481859345
 31
0.0
1001
ACAD
1000
ASC_BOUNDS
1002
{
1070
    19
1002
}
  0
LINE
  5
7C42
330
84B4
100
AcDbEntity
  8
1
100
AcDbLine
 10
845.9428587658239
 20
2207.454481859345
 30
0.0
 11
2715.942858765824
 21
2207.454481859346
 31
0.0
  0
LINE
  5
7C43
330
84B4
100
AcDbEntity
  8
2
100
AcDbLine
 10
1095.942858765822
 20
2775.45697285545
 30
0.0
 11
1095.942858765822
 21
1902.454481859345
 31
0.0
  0
LINE
  5
7C44
330
84B4
100
AcDbEntity
  8
2
100
AcDbLine
 10
735.0068906402275
 20
2482.454481859345
 30
0.0
 11
1310.785785219655
 21
2482.454481859345
 31
0.0
  0
LINE
  5
7C45
330
84B4
100
AcDbEntity
  8
1
100
AcDbLine
 10
5226.111918802633
 20
3748.454481859345
 30
0.0
 11
5226.111918802633
 21
2823.454481859346
 31
0.0
  0
LINE
  5
7C46
330
84B4
100
AcDbEntity
  8
1
100
AcDbLine
 10
3904.111918802625
 20
2107.454481859345
 30
0.0
 11
5279.111918802642
 21
2107.454481859345
 31
0.0
1001
ACAD
1000
ASC_BOUNDS
1002
{
1070
    19
1005
0
1005
0
1005
0
1005
0
1002
}
  0
LINE
  5
7C47
330
84B4
100
AcDbEntity
  8
1
100
AcDbLine
 10
3904.111918802634
 20
2207.454481859346
 30
0.0
 11
5279.111918802634
 21
2207.454481859346
 31
0.0
  0
LINE
  5
7C48
330
84B4
100
AcDbEntity
  8
1
100
AcDbLine
 10
3904.111918802634
 20
2207.454481859346
 30
0.0
 11
3904.111918802625
 21
2107.454481859345
 31
0.0
  0
LINE
  5
7C49
330
84B4
100
AcDbEntity
  8
1
100
AcDbLine
 10
5279.111918802634
 20
2207.454481859346
 30
0.0
 11
5279.111918802642
 21
2107.454481859345
 31
0.0
  0
LINE
  5
7C4A
330
84B4
100
AcDbEntity
  8
1
100
AcDbLine
 10
4666.111918802633
 20
3748.454481859345
 30
0.0
 11
5226.111918802633
 21
3748.454481859345
 31
0.0
  0
LINE
  5
7C4B
330
84B4
100
AcDbEntity
  8
2
100
AcDbLine
 10
3723.532820156935
 20
2787.454481859346
 30
0.0
 11
5376.631566560369
 21
2787.454481859346
 31
0.0
  0
LINE
  5
7C4C
330
84B4
100
AcDbEntity
  8
1
100
AcDbLine
 10
5216.611918802634
 20
2107.454481859345
 30
0.0
 11
5279.111918802642
 21
2107.454481859345
 31
0.0
1001
ACAD
1000
ASC_BOUNDS
1002
{
1070
    19
1005
0
1005
0
1002
}
  0
LINE
  5
7C4D
330
84B4
100
AcDbEntity
  8
2
100
AcDbLine
 10
4666.111918802633
 20
3920.673423095367
 30
0.0
 11
4666.111918802631
 21
1902.454481859345
 31
0.0
  0
POINT
  5
7C4E
330
84B4
100
AcDbEntity
  8
1
100
AcDbPoint
 10
1382.11119563803
 20
2762.454481859346
 30
0.0
  0
INSERT
  5
7C4F
330
84B4
100
AcDbEntity
  8
0
100
AcDbBlockReference
  2
YA_N
 10
-1638.667820090515
 20
-980.7401201518075
 30
0.0
 41
20.0
 42
20.0
 43
20.0
  0
INSERT
  5
7C51
330
84B4
100
AcDbEntity
  8
0
100
AcDbBlockReference
  2
YA_N
 10
-1552.816625123014
 20
-1070.405552057982
 30
0.0
 41
20.0
 42
20.0
 43
20.0
  0
ARC
  5
7C53
330
84B4
100
AcDbEntity
  8
1
100
AcDbCircle
 10
1095.942858765822
 20
2482.454481859345
 30
0.0
 40
185.0
100
AcDbArc
 50
287.9452509999999
 51
252.054749
  0
LINE
  5
7C54
330
84B4
100
AcDbEntity
  8
1
100
AcDbLine
 10
1152.942858765822
 20
2306.454481859345
 30
0.0
 11
1038.942858765822
 21
2306.454481859345
 31
0.0
  0
LINE
  5
7C56
330
84B4
100
AcDbEntity
  8
1
100
AcDbLine
 10
1257.942858765822
 20
2377.713514859345
 30
0.0
 11
1257.942858765822
 21
2302.454481859345
 31
0.0
  0
LINE
  5
7C57
330
84B4
100
AcDbEntity
  8
1
100
AcDbLine
 10
1198.442858765822
 20
2307.603040859345
 30
0.0
 11
1188.936144765823
 21
2322.525648859345
 31
0.0
  0
LINE
  5
7C5A
330
84B4
100
AcDbEntity
  8
1
100
AcDbLine
 10
1198.442858765822
 20
2319.454481859345
 30
0.0
 11
1198.442858765822
 21
2302.454481859345
 31
0.0
  0
LINE
  5
7C5C
330
84B4
100
AcDbEntity
  8
1
100
AcDbLine
 10
1201.442858765822
 20
2322.454481859345
 30
0.0
 11
1254.942858765822
 21
2322.454481859345
 31
0.0
  0
ARC
  5
7C5D
330
84B4
100
AcDbEntity
  8
1
100
AcDbCircle
 10
1254.942858765822
 20
2319.454481859345
 30
0.0
 40
3.0
100
AcDbArc
 50
0.0
 51
90.0
  0
LINE
  5
7C64
330
84B4
100
AcDbEntity
  8
1
100
AcDbLine
 10
1206.766771765822
 20
2322.454481859345
 30
0.0
 11
1201.587023765822
 21
2330.585096859346
 31
0.0
  0
ARC
  5
7C66
330
84B4
100
AcDbEntity
  8
1
100
AcDbCircle
 10
1201.442858765822
 20
2319.454481859345
 30
0.0
 40
3.0
100
AcDbArc
 50
90.0
 51
180.0
  0
LINE
  5
7C67
330
84B4
100
AcDbEntity
  8
1
100
AcDbLine
 10
1257.942858765822
 20
2377.713514859345
 30
0.0
 11
1251.558886765822
 21
2382.411268859346
 31
0.0
  0
LINE
  5
7C6C
330
84B4
100
AcDbEntity
  8
1
100
AcDbLine
 10
993.4428587658221
 20
2307.603040859345
 30
0.0
 11
1002.949572765823
 21
2322.525648859345
 31
0.0
  0
LINE
  5
7C70
330
84B4
100
AcDbEntity
  8
1
100
AcDbLine
 10
993.4428587658221
 20
2319.454481859345
 30
0.0
 11
993.4428587658221
 21
2302.454481859345
 31
0.0
  0
LINE
  5
7C71
330
84B4
100
AcDbEntity
  8
1
100
AcDbLine
 10
933.9428587658222
 20
2377.713514859345
 30
0.0
 11
933.9428587658222
 21
2302.454481859345
 31
0.0
  0
LINE
  5
7C73
330
84B4
100
AcDbEntity
  8
1
100
AcDbLine
 10
990.4428587658221
 20
2322.454481859345
 30
0.0
 11
936.9428587658221
 21
2322.454481859345
 31
0.0
  0
LINE
  5
7C75
330
84B4
100
AcDbEntity
  8
1
100
AcDbLine
 10
985.1189447658224
 20
2322.454481859345
 30
0.0
 11
990.2986937658225
 21
2330.585096859346
 31
0.0
  0
ARC
  5
7C76
330
84B4
100
AcDbEntity
  8
1
100
AcDbCircle
 10
990.4428587658221
 20
2319.454481859345
 30
0.0
 40
3.0
100
AcDbArc
 50
0.0
 51
90.0
  0
ARC
  5
7C77
330
84B4
100
AcDbEntity
  8
1
100
AcDbCircle
 10
936.9428587658221
 20
2319.454481859345
 30
0.0
 40
3.0
100
AcDbArc
 50
90.0
 51
180.0
  0
LINE
  5
7C82
330
84B4
100
AcDbEntity
  8
1
100
AcDbLine
 10
933.9428587658222
 20
2377.713514859345
 30
0.0
 11
940.3267697658227
 21
2382.411268859346
 31
0.0
  0
LINE
  5
7C83
330
84B4
100
AcDbEntity
  8
1
100
AcDbLine
 10
870.9428587658221
 20
2247.454481859346
 30
0.0
 11
1320.942858765822
 21
2247.454481859346
 31
0.0
  0
LINE
  5
7C84
330
84B4
100
AcDbEntity
  8
1
100
AcDbLine
 10
895.9428587658221
 20
2247.454481859346
 30
0.0
 11
895.9428587658221
 21
2207.454481859346
 31
0.0
  0
LINE
  5
7C85
330
84B4
100
AcDbEntity
  8
1
100
AcDbLine
 10
1295.942858765822
 20
2247.454481859346
 30
0.0
 11
1295.942858765822
 21
2207.454481859346
 31
0.0
  0
LINE
  5
7C86
330
84B4
100
AcDbEntity
  8
1
100
AcDbLine
 10
885.8413203646994
 20
2302.454481859345
 30
0.0
 11
1025.942858765822
 21
2302.454481859345
 31
0.0
  0
LINE
  5
7C87
330
84B4
100
AcDbEntity
  8
1
100
AcDbLine
 10
1320.942858765822
 20
2247.454481859346
 30
0.0
 11
1305.74054213131
 21
2302.454481859345
 31
0.0
  0
LINE
  5
7C88
330
84B4
100
AcDbEntity
  8
1
100
AcDbLine
 10
870.9428587658221
 20
2247.454481859346
 30
0.0
 11
885.8413203646994
 21
2302.454481859345
 31
0.0
  0
LINE
  5
7C8A
330
84B4
100
AcDbEntity
  8
1
100
AcDbLine
 10
1025.942858765822
 20
2292.454481859345
 30
0.0
 11
1165.942858765822
 21
2292.454481859345
 31
0.0
  0
LINE
  5
7C8B
330
84B4
100
AcDbEntity
  8
1
100
AcDbLine
 10
1025.942858765822
 20
2302.454481859345
 30
0.0
 11
1025.942858765822
 21
2292.454481859345
 31
0.0
  0
LINE
  5
7C8C
330
84B4
100
AcDbEntity
  8
1
100
AcDbLine
 10
1165.942858765822
 20
2302.454481859345
 30
0.0
 11
1165.942858765822
 21
2292.454481859345
 31
0.0
  0
LINE
  5
7C8D
330
84B4
100
AcDbEntity
  8
1
100
AcDbLine
 10
1165.942858765822
 20
2302.454481859345
 30
0.0
 11
1305.74054213131
 21
2302.454481859345
 31
0.0
  0
LINE
  5
7C90
330
84B4
100
AcDbEntity
  8
1
100
AcDbLine
 10
845.9428587658221
 20
2002.454481859345
 30
0.0
 11
2715.942858765824
 21
2002.454481859345
 31
0.0
1001
ACAD
1000
ASC_BOUNDS
1002
{
1070
    19
1002
}
  0
LINE
  5
7C91
330
84B4
100
AcDbEntity
  8
1
100
AcDbLine
 10
845.9428587658221
 20
2002.454481859345
 30
0.0
 11
845.9428587658221
 21
1902.454481859345
 31
0.0
  0
LINE
  5
7C92
330
84B4
100
AcDbEntity
  8
1
100
AcDbLine
 10
2715.942858765824
 20
2002.454481859345
 30
0.0
 11
2715.942858765824
 21
1902.454481859345
 31
0.0
  0
LINE
  5
7C93
330
84B4
100
AcDbEntity
  8
1
100
AcDbLine
 10
3904.111918802624
 20
2002.454481859345
 30
0.0
 11
5279.111918802634
 21
2002.454481859345
 31
0.0
1001
ACAD
1000
ASC_BOUNDS
1002
{
1070
    19
1005
0
1005
0
1005
0
1005
0
1005
0
1005
0
1002
}
  0
POINT
  5
7C97
330
84B4
100
AcDbEntity
  8
1
100
AcDbPoint
 10
2715.942858765824
 20
2002.454481859345
 30
0.0
  0
POINT
  5
7C98
330
84B4
100
AcDbEntity
  8
1
100
AcDbPoint
 10
2715.942858765824
 20
1937.454481859346
 30
0.0
  0
POINT
  5
7C99
330
84B4
100
AcDbEntity
  8
1
100
AcDbPoint
 10
2715.942858765824
 20
2002.454481859345
 30
0.0
  0
POINT
  5
7C9A
330
84B4
100
AcDbEntity
  8
1
100
AcDbPoint
 10
2715.942858765823
 20
2107.454481859345
 30
0.0
  0
CIRCLE
  5
7C9D
330
84B4
100
AcDbEntity
  8
1
100
AcDbCircle
 10
1095.942858765822
 20
2482.454481859345
 30
0.0
 40
119.0
  0
LINE
  5
7C9E
330
84B4
100
AcDbEntity
  8
1
100
AcDbLine
 10
5226.111918802633
 20
2823.454481859345
 30
0.0
 11
5226.111918802633
 21
2207.454481859346
 31
0.0
  0
LINE
  5
7C9F
330
84B4
100
AcDbEntity
  8
1
100
AcDbLine
 10
4106.111918802633
 20
3748.454481859345
 30
0.0
 11
4106.111918802633
 21
2787.454481859346
 31
0.0
  0
LINE
  5
7CA0
330
84B4
100
AcDbEntity
  8
1
100
AcDbLine
 10
4666.111918802631
 20
3748.454481859345
 30
0.0
 11
4106.111918802633
 21
3748.454481859345
 31
0.0
  0
LINE
  5
7CA1
330
84B4
100
AcDbEntity
  8
1
100
AcDbLine
 10
4106.111918802633
 20
2787.454481859346
 30
0.0
 11
4106.111918802633
 21
2207.454481859346
 31
0.0
  0
LINE
  5
7CA2
330
84B4
100
AcDbEntity
  8
1
100
AcDbLine
 10
3978.111918802633
 20
2761.654481859345
 30
0.0
 11
4053.811918802634
 21
2761.654481859345
 31
0.0
  0
LINE
  5
7CA3
330
84B4
100
AcDbEntity
  8
1
100
AcDbLine
 10
3978.111918802634
 20
2611.654481859345
 30
0.0
 11
4053.811918802634
 21
2611.654481859345
 31
0.0
  0
LINE
  5
7CA4
330
84B4
100
AcDbEntity
  8
1
100
AcDbLine
 10
3968.111918802634
 20
2751.654481859346
 30
0.0
 11
3968.111918802634
 21
2621.654481859347
 31
0.0
  0
LINE
  5
7CA5
330
84B4
100
AcDbEntity
  8
1
100
AcDbLine
 10
4093.111918802632
 20
2761.654481859345
 30
0.0
 11
4093.111918802633
 21
2611.654481859345
 31
0.0
  0
ARC
  5
7CA6
330
84B4
100
AcDbEntity
  8
1
100
AcDbCircle
 10
3978.111918802633
 20
2751.654481859346
 30
0.0
 40
10.0
100
AcDbArc
 50
90.0
 51
180.0000000000003
  0
ARC
  5
7CA7
330
84B4
100
AcDbEntity
  8
1
100
AcDbCircle
 10
3978.111918802634
 20
2621.654481859347
 30
0.0
 40
10.0
100
AcDbArc
 50
180.0000000000003
 51
270.0
  0
LINE
  5
7CA8
330
84B4
100
AcDbEntity
  8
1
100
AcDbLine
 10
4053.811918802634
 20
2611.654481859345
 30
0.0
 11
4093.111918802633
 21
2611.654481859345
 31
0.0
  0
LINE
  5
7CA9
330
84B4
100
AcDbEntity
  8
1
100
AcDbLine
 10
4053.811918802634
 20
2761.654481859345
 30
0.0
 11
4093.111918802633
 21
2761.654481859345
 31
0.0
  0
LINE
  5
7CAA
330
84B4
100
AcDbEntity
  8
1
100
AcDbLine
 10
5346.111918802631
 20
2747.954481859345
 30
0.0
 11
5346.111918802633
 21
2647.954481859346
 31
0.0
  0
LINE
  5
7CAB
330
84B4
100
AcDbEntity
  8
1
100
AcDbLine
 10
5245.611918802634
 20
2757.954481859345
 30
0.0
 11
5245.611918802634
 21
2637.954481859345
 31
0.0
  0
LINE
  5
7CAC
330
84B4
100
AcDbEntity
  8
1
100
AcDbLine
 10
5245.611918802634
 20
2757.954481859345
 30
0.0
 11
5278.411918802632
 21
2757.954481859345
 31
0.0
  0
LINE
  5
7CAD
330
84B4
100
AcDbEntity
  8
1
100
AcDbLine
 10
5245.611918802634
 20
2637.954481859345
 30
0.0
 11
5278.411918802632
 21
2637.954481859345
 31
0.0
  0
ARC
  5
7CAE
330
84B4
100
AcDbEntity
  8
1
100
AcDbCircle
 10
5336.111918802632
 20
2747.954481859345
 30
0.0
 40
10.0
100
AcDbArc
 50
0.0000000000003257
 51
90.0
  0
ARC
  5
7CAF
330
84B4
100
AcDbEntity
  8
1
100
AcDbCircle
 10
5336.111918802632
 20
2647.954481859346
 30
0.0
 40
10.0
100
AcDbArc
 50
270.0
 51
0.0000000000003257
  0
LINE
  5
7CB0
330
84B4
100
AcDbEntity
  8
1
100
AcDbLine
 10
5278.411918802632
 20
2637.954481859345
 30
0.0
 11
5336.111918802632
 21
2637.954481859345
 31
0.0
  0
LINE
  5
7CB1
330
84B4
100
AcDbEntity
  8
1
100
AcDbLine
 10
5278.411918802632
 20
2757.954481859345
 30
0.0
 11
5336.111918802632
 21
2757.954481859345
 31
0.0
  0
LINE
  5
7CB2
330
84B4
100
AcDbEntity
  8
1
100
AcDbLine
 10
3953.111918802633
 20
2817.454481859346
 30
0.0
 11
3953.111918802633
 21
2757.454481859346
 31
0.0
  0
LINE
  5
7CB3
330
84B4
100
AcDbEntity
  8
1
100
AcDbLine
 10
3948.111918802633
 20
2814.954481859345
 30
0.0
 11
3953.111918802633
 21
2814.954481859345
 31
0.0
  0
LINE
  5
7CB4
330
84B4
100
AcDbEntity
  8
1
100
AcDbLine
 10
3948.111918802633
 20
2759.954481859345
 30
0.0
 11
3953.111918802633
 21
2759.954481859345
 31
0.0
  0
LINE
  5
7CB5
330
84B4
100
AcDbEntity
  8
1
100
AcDbLine
 10
3838.111918802635
 20
2990.654481859345
 30
0.0
 11
3838.11191880263
 21
2363.454481859345
 31
0.0
  0
LINE
  5
7CB6
330
84B4
100
AcDbEntity
  8
1
100
AcDbLine
 10
3948.111918802634
 20
2990.654481859345
 30
0.0
 11
3948.111918802629
 21
2363.454481859345
 31
0.0
  0
LINE
  5
7CB7
330
84B4
100
AcDbEntity
  8
2
100
AcDbLine
 10
3805.467826335302
 20
2482.454481859345
 30
0.0
 11
4309.299436694057
 21
2482.454481859345
 31
0.0
  0
LINE
  5
7CB8
330
84B4
100
AcDbEntity
  8
1
100
AcDbLine
 10
3838.111918802632
 20
2601.454481859346
 30
0.0
 11
3948.111918802631
 21
2601.454481859346
 31
0.0
  0
LINE
  5
7CB9
330
84B4
100
AcDbEntity
  8
1
100
AcDbLine
 10
3838.11191880263
 20
2363.454481859345
 30
0.0
 11
3948.111918802629
 21
2363.454481859345
 31
0.0
  0
LINE
  5
7CBA
330
84B4
100
AcDbEntity
  8
1
100
AcDbLine
 10
3716.111918802631
 20
3067.454481859346
 30
0.0
 11
3716.111918802636
 21
2262.454481859345
 31
0.0
  0
LINE
  5
7CBB
330
84B4
100
AcDbEntity
  8
1
100
AcDbLine
 10
3716.111918802635
 20
2262.454481859345
 30
0.0
 11
3968.111918802637
 21
2262.454481859345
 31
0.0
  0
LINE
  5
7CBC
330
84B4
100
AcDbEntity
  8
1
100
AcDbLine
 10
3968.111918802629
 20
3067.454481859346
 30
0.0
 11
3968.111918802629
 21
3047.454481859345
 31
0.0
  0
LINE
  5
7CBD
330
84B4
100
AcDbEntity
  8
1
100
AcDbLine
 10
3968.111918802635
 20
2282.454481859346
 30
0.0
 11
3968.111918802635
 21
2262.454481859345
 31
0.0
  0
POINT
  5
7CBE
330
84B4
100
AcDbEntity
  8
1
100
AcDbPoint
 10
5346.111918802633
 20
2747.954481859345
 30
0.0
  0
LINE
  5
7CBF
330
84B4
100
AcDbEntity
  8
2
100
AcDbLine
 10
796.9601303210039
 20
5567.453943093272
 30
0.0
 11
2829.30493647882
 21
5567.453943093272
 31
0.0
  0
LINE
  5
7CC0
330
84B4
100
AcDbEntity
  8
2
100
AcDbLine
 10
2155.942858765824
 20
4566.195234338984
 30
0.0
 11
2155.942858765824
 21
6101.962325964599
 31
0.0
  0
INSERT
  5
7CC1
330
84B4
100
AcDbEntity
  8
0
100
AcDbBlockReference
  2
YA_N
 10
1902.396177633552
 20
-2784.746590060132
 30
0.0
  0
LINE
  5
7CC3
330
84B4
100
AcDbEntity
  8
1
100
AcDbLine
 10
5279.111918802634
 20
2112.985986930012
 30
0.0
 11
5279.111918802634
 21
2107.454481859345
 31
0.0
  0
LINE
  5
7CC4
330
84B4
100
AcDbEntity
  8
1
100
AcDbLine
 10
3904.111918802634
 20
1902.454481859345
 30
0.0
 11
5279.111918802634
 21
1902.454481859345
 31
0.0
1001
ACAD
1000
ASC_BOUNDS
1002
{
1070
    19
1002
}
  0
LINE
  5
7CC5
330
84B4
100
AcDbEntity
  8
1
100
AcDbLine
 10
5279.111918802634
 20
2002.454481859345
 30
0.0
 11
5279.111918802634
 21
1902.454481859345
 31
0.0
  0
LINE
  5
7CC9
330
84B4
100
AcDbEntity
  8
1
100
AcDbLine
 10
3953.111918802633
 20
2817.454481859346
 30
0.0
 11
4106.111918802633
 21
2817.454481859346
 31
0.0
  0
LINE
  5
7CCA
330
84B4
100
AcDbEntity
  8
1
100
AcDbLine
 10
3953.111918802633
 20
2757.454481859346
 30
0.0
 11
3969.965754060867
 21
2757.454481859346
 31
0.0
  0
LINE
  5
7CCB
330
84B4
100
AcDbEntity
  8
1
100
AcDbLine
 10
845.9428587658221
 20
1902.454481859345
 30
0.0
 11
2715.942858765824
 21
1902.454481859345
 31
0.0
1001
ACAD
1000
ASC_BOUNDS
1002
{
1070
    19
1002
}
  0
POINT
  5
7CCF
330
84B4
100
AcDbEntity
  8
1
100
AcDbPoint
 10
2715.942858765824
 20
2002.454481859345
 30
0.0
  0
POINT
  5
7CD0
330
84B4
100
AcDbEntity
  8
1
100
AcDbPoint
 10
2715.942858765824
 20
1902.454481859345
 30
0.0
  0
POINT
  5
7CD1
330
84B4
100
AcDbEntity
  8
1
100
AcDbPoint
 10
2715.942858765824
 20
2002.454481859345
 30
0.0
  0
POINT
  5
7CD2
330
84B4
100
AcDbEntity
  8
1
100
AcDbPoint
 10
2715.942858765824
 20
2107.454481859345
 30
0.0
  0
ARC
  5
7CD3
330
84B4
100
AcDbEntity
  8
1
100
AcDbCircle
 10
2155.942858765823
 20
2787.454481859346
 30
0.0
 40
536.0
100
AcDbArc
 50
0.0
 51
3.851123126497708
  0
CIRCLE
  5
7CD4
330
84B4
100
AcDbEntity
  8
1
100
AcDbCircle
 10
2155.942858765823
 20
2787.454481859346
 30
0.0
 40
203.2
  0
ARC
  5
7CD5
330
84B4
100
AcDbEntity
  8
1
100
AcDbCircle
 10
2155.942858765823
 20
2787.454481859346
 30
0.0
 40
280.0
100
AcDbArc
 50
282.9341812137518
 51
109.1706668005613
  0
ARC
  5
7CD6
330
84B4
100
AcDbEntity
  8
1
100
AcDbCircle
 10
1095.942858765822
 20
2482.454481859345
 30
0.0
 40
220.0
100
AcDbArc
 50
109.1706668005613
 51
282.9341812137518
  0
LINE
  5
7CD7
330
84B4
100
AcDbEntity
  8
1
100
AcDbLine
 10
2085.011786486374
 20
2977.872503551852
 30
0.0
 11
1054.403500491933
 21
2593.968972909583
 31
0.0
  0
LINE
  5
7CD8
330
84B4
100
AcDbEntity
  8
1
100
AcDbLine
 10
2197.060296770123
 20
2588.458008795217
 30
0.0
 11
1120.022460746687
 21
2365.916193007814
 31
0.0
  0
LINE
  5
7CD9
330
84B4
100
AcDbEntity
  8
1
100
AcDbLine
 10
2218.615705124372
 20
2514.558687957502
 30
0.0
 11
1145.185809476111
 21
2268.036358079325
 31
0.0
  0
LINE
  5
7CDA
330
84B4
100
AcDbEntity
  8
1
100
AcDbLine
 10
3838.111918802635
 20
2990.654481859345
 30
0.0
 11
3948.111918802634
 21
2990.654481859345
 31
0.0
  0
LINE
  5
7CDB
330
84B4
100
AcDbEntity
  8
1
100
AcDbLine
 10
3838.111918802632
 20
2584.254481859346
 30
0.0
 11
3948.111918802631
 21
2584.254481859346
 31
0.0
  0
LINE
  5
7CDC
330
84B4
100
AcDbEntity
  8
1
100
AcDbLine
 10
3716.111918802631
 20
3067.454481859346
 30
0.0
 11
3968.111918802629
 21
3067.454481859346
 31
0.0
  0
LINE
  5
7CE1
330
84B4
100
AcDbEntity
  8
1
100
AcDbLine
 10
1595.942858765823
 20
6180.453943093272
 30
0.0
 11
2715.942858765823
 21
6180.453943093272
 31
0.0
  0
LINE
  5
7CE2
330
84B4
100
AcDbEntity
  8
1
100
AcDbLine
 10
845.9428587658239
 20
4805.453943093271
 30
0.0
 11
2715.942858765823
 21
4805.453943093271
 31
0.0
  0
LINE
  5
7CE3
330
84B4
100
AcDbEntity
  8
1
100
AcDbLine
 10
2715.942858765823
 20
4805.453943093271
 30
0.0
 11
2715.942858765823
 21
5007.45394309327
 31
0.0
  0
LINE
  5
7CE4
330
84B4
100
AcDbEntity
  8
1
100
AcDbLine
 10
1595.942858765823
 20
6127.453943093271
 30
0.0
 11
1595.942858765823
 21
6180.453943093272
 31
0.0
  0
LINE
  5
7CE5
330
84B4
100
AcDbEntity
  8
1
100
AcDbLine
 10
845.942858765823
 20
4805.453943093272
 30
0.0
 11
845.9428587658239
 21
5605.453943093273
 31
0.0
  0
LINE
  5
7CE6
330
84B4
100
AcDbEntity
  8
1
100
AcDbLine
 10
845.9428587658239
 20
5605.453943093272
 30
0.0
 11
1378.942858765823
 21
5605.453943093272
 31
0.0
  0
LINE
  5
7CE7
330
84B4
100
AcDbEntity
  8
2
100
AcDbLine
 10
1095.942858765823
 20
4492.878402914423
 30
0.0
 11
1095.942858765823
 21
5397.552285659481
 31
0.0
  0
CIRCLE
  5
7CEE
330
84B4
100
AcDbEntity
  8
1
100
AcDbCircle
 10
2155.942858765823
 20
2787.454481859346
 30
0.0
 40
475.0
  0
CIRCLE
  5
7CEF
330
84B4
100
AcDbEntity
  8
1
100
AcDbCircle
 10
2155.942858765823
 20
2787.454481859346
 30
0.0
 40
515.0
  0
LINE
  5
7CF0
330
84B4
100
AcDbEntity
  8
1
100
AcDbLine
 10
2063.995585200861
 20
3051.926973593307
 30
0.0
 11
1023.698572393353
 21
2690.254296793173
 31
0.0
  0
LINE
  5
7CF5
330
84B4
100
AcDbEntity
  8
1
100
AcDbLine
 10
3904.111918802624
 20
2002.454481859345
 30
0.0
 11
3904.111918802615
 21
1902.454481859345
 31
0.0
  0
LINE
  5
7CF6
330
84B4
100
AcDbEntity
  8
1
100
AcDbLine
 10
875.9428587658222
 20
4617.453943093272
 30
0.0
 11
2435.942858765823
 21
4617.453943093271
 31
0.0
  0
LINE
  5
7CF7
330
84B4
100
AcDbEntity
  8
1
100
AcDbLine
 10
875.9428587658222
 20
4907.453943093273
 30
0.0
 11
2435.942858765823
 21
4907.453943093271
 31
0.0
  0
LINE
  5
7CF8
330
84B4
100
AcDbEntity
  8
1
100
AcDbLine
 10
976.9428587658222
 20
4777.453943093273
 30
0.0
 11
1214.942858765822
 21
4777.453943093273
 31
0.0
  0
LINE
  5
7CF9
330
84B4
100
AcDbEntity
  8
1
100
AcDbLine
 10
976.9428587658222
 20
4887.453943093273
 30
0.0
 11
1214.942858765822
 21
4887.453943093273
 31
0.0
  0
LINE
  5
7CFA
330
84B4
100
AcDbEntity
  8
1
100
AcDbLine
 10
2435.942858765823
 20
4617.453943093271
 30
0.0
 11
2435.942858765823
 21
4907.453943093271
 31
0.0
  0
LINE
  5
7CFB
330
84B4
100
AcDbEntity
  8
1
100
AcDbLine
 10
875.9428587658222
 20
4617.453943093272
 30
0.0
 11
875.9428587658222
 21
4907.453943093273
 31
0.0
  0
LINE
  5
7CFC
330
84B4
100
AcDbEntity
  8
1
100
AcDbLine
 10
2359.142858765822
 20
4777.453943093271
 30
0.0
 11
2359.142858765822
 21
4887.453943093271
 31
0.0
  0
LINE
  5
7CFD
330
84B4
100
AcDbEntity
  8
1
100
AcDbLine
 10
1952.742858765821
 20
4777.453943093271
 30
0.0
 11
1952.742858765821
 21
4887.453943093271
 31
0.0
  0
LINE
  5
7CFE
330
84B4
100
AcDbEntity
  8
1
100
AcDbLine
 10
1214.942858765822
 20
4777.453943093271
 30
0.0
 11
1214.942858765822
 21
4887.453943093273
 31
0.0
  0
LINE
  5
7CFF
330
84B4
100
AcDbEntity
  8
1
100
AcDbLine
 10
976.9428587658222
 20
4777.453943093273
 30
0.0
 11
976.9428587658222
 21
4887.453943093273
 31
0.0
  0
LINE
  5
7D00
330
84B4
100
AcDbEntity
  8
1
100
AcDbLine
 10
1952.742858765821
 20
4887.453943093271
 30
0.0
 11
2359.142858765822
 21
4887.453943093271
 31
0.0
  0
LINE
  5
7D01
330
84B4
100
AcDbEntity
  8
1
100
AcDbLine
 10
1952.742858765821
 20
4777.453943093272
 30
0.0
 11
2359.142858765822
 21
4777.453943093271
 31
0.0
  0
LINE
  5
7D02
330
84B4
100
AcDbEntity
  8
1
100
AcDbLine
 10
2775.942858765823
 20
4967.453943093271
 30
0.0
 11
2775.942858765823
 21
6167.453943093271
 31
0.0
  0
LINE
  5
7D03
330
84B4
100
AcDbEntity
  8
1
100
AcDbLine
 10
1378.942858765823
 20
5007.45394309327
 30
0.0
 11
1378.942858765823
 21
6127.453943093271
 31
0.0
  0
LINE
  5
7D04
330
84B4
100
AcDbEntity
  8
1
100
AcDbLine
 10
1378.942858765823
 20
6127.453943093271
 30
0.0
 11
2775.942858765823
 21
6127.453943093271
 31
0.0
  0
LINE
  5
7D05
330
84B4
100
AcDbEntity
  8
1
100
AcDbLine
 10
1378.942858765823
 20
5007.45394309327
 30
0.0
 11
2775.942858765823
 21
5007.45394309327
 31
0.0
  0
LINE
  5
7D06
330
84B4
100
AcDbEntity
  8
1
100
AcDbLine
 10
913.4428587658231
 20
5453.953943093273
 30
0.0
 11
1278.442858765823
 21
5453.953943093273
 31
0.0
  0
LINE
  5
7D07
330
84B4
100
AcDbEntity
  8
1
100
AcDbLine
 10
1278.442858765823
 20
4892.453943093272
 30
0.0
 11
1278.442858765823
 21
5453.953943093273
 31
0.0
  0
LINE
  5
7D08
330
84B4
100
AcDbEntity
  8
1
100
AcDbLine
 10
913.442858765824
 20
4892.453943093272
 30
0.0
 11
913.442858765824
 21
5453.953943093273
 31
0.0
  0
LINE
  5
7D09
330
84B4
100
AcDbEntity
  8
1
100
AcDbLine
 10
913.442858765824
 20
4892.453943093272
 30
0.0
 11
1278.442858765824
 21
4892.453943093274
 31
0.0
  0
LINE
  5
7D0A
330
84B4
100
AcDbEntity
  8
1
100
AcDbLine
 10
1119.942858765823
 20
4887.453943093273
 30
0.0
 11
1119.942858765823
 21
4892.453943093272
 31
0.0
  0
LINE
  5
7D0B
330
84B4
100
AcDbEntity
  8
1
100
AcDbLine
 10
1071.942858765823
 20
4887.453943093273
 30
0.0
 11
1071.942858765823
 21
4892.453943093272
 31
0.0
  0
LINE
  5
7D0C
330
84B4
100
AcDbEntity
  8
1
100
AcDbLine
 10
2185.942858765824
 20
4887.453943093271
 30
0.0
 11
2185.942858765824
 21
5007.45394309327
 31
0.0
  0
LINE
  5
7D0D
330
84B4
100
AcDbEntity
  8
1
100
AcDbLine
 10
2125.942858765824
 20
4887.453943093271
 30
0.0
 11
2125.942858765824
 21
5007.45394309327
 31
0.0
  0
LINE
  5
7D0E
330
84B4
100
AcDbEntity
  8
1
100
AcDbLine
 10
3953.111918802632
 20
2664.954481859347
 30
0.0
 11
3968.111918802634
 21
2664.954481859347
 31
0.0
  0
LINE
  5
7D0F
330
84B4
100
AcDbEntity
  8
1
100
AcDbLine
 10
3953.111918802632
 20
2299.954481859345
 30
0.0
 11
4106.111918802633
 21
2299.954481859347
 31
0.0
  0
LINE
  5
7D10
330
84B4
100
AcDbEntity
  8
1
100
AcDbLine
 10
3953.111918802632
 20
2664.954481859346
 30
0.0
 11
3953.111918802632
 21
2299.954481859345
 31
0.0
  0
LINE
  5
7D11
330
84B4
100
AcDbEntity
  8
1
100
AcDbLine
 10
3948.111918802631
 20
2531.454481859347
 30
0.0
 11
3953.111918802632
 21
2531.454481859347
 31
0.0
  0
LINE
  5
7D12
330
84B4
100
AcDbEntity
  8
1
100
AcDbLine
 10
3948.111918802631
 20
2483.454481859347
 30
0.0
 11
3953.111918802632
 21
2483.454481859347
 31
0.0
  0
LINE
  5
7D13
330
84B4
100
AcDbEntity
  8
1
100
AcDbLine
 10
4093.111918802632
 20
2664.954481859347
 30
0.0
 11
4106.111918802631
 21
2664.954481859347
 31
0.0
  0
LINE
  5
7D14
330
84B4
100
AcDbEntity
  8
1
100
AcDbLine
 10
5226.111918802633
 20
2823.454481859346
 30
0.0
 11
4106.111918802633
 21
2823.454481859346
 31
0.0
  0
LINE
  5
7D15
330
84B4
100
AcDbEntity
  8
1
100
AcDbLine
 10
5226.111918802633
 20
3748.454481859345
 30
0.0
 11
4106.111918802633
 21
2823.454481859346
 31
0.0
  0
LINE
  5
7D16
330
84B4
100
AcDbEntity
  8
1
100
AcDbLine
 10
4106.111918802633
 20
3748.454481859345
 30
0.0
 11
5226.111918802633
 21
2823.454481859346
 31
0.0
  0
LINE
  5
7D1D
330
84B4
100
AcDbEntity
  8
1
100
AcDbLine
 10
2715.942858765823
 20
6127.453943093271
 30
0.0
 11
2715.942858765823
 21
6180.453943093272
 31
0.0
  0
LINE
  5
7D1E
330
84B4
100
AcDbEntity
  8
1
100
AcDbLine
 10
2772.942858765823
 20
6167.453943093271
 30
0.0
 11
2775.942858765823
 21
6167.453943093271
 31
0.0
  0
LINE
  5
7D1F
330
84B4
100
AcDbEntity
  8
1
100
AcDbLine
 10
2772.942858765823
 20
4967.453943093271
 30
0.0
 11
2775.942858765823
 21
4967.453943093271
 31
0.0
  0
LINE
  5
7D20
330
84B4
100
AcDbEntity
  8
1
100
AcDbLine
 10
2772.942858765823
 20
4967.453943093271
 30
0.0
 11
2772.942858765823
 21
6167.453943093271
 31
0.0
  0
LINE
  5
7F51
330
84B4
100
AcDbEntity
  8
4
100
AcDbLine
 10
5550.0
 20
1210.115599408855
 30
0.0
 11
5550.0
 21
610.115599408855
 31
0.0
  0
LINE
  5
7F52
330
84B4
100
AcDbEntity
  8
4
100
AcDbLine
 10
3450.0
 20
1210.115599408855
 30
0.0
 11
3450.0
 21
610.115599408855
 31
0.0
  0
LINE
  5
7F53
330
84B4
100
AcDbEntity
  8
4
100
AcDbLine
 10
1950.0
 20
1210.115599408855
 30
0.0
 11
1950.0
 21
610.115599408855
 31
0.0
  0
LINE
  5
7F56
330
84B4
100
AcDbEntity
  8
4
100
AcDbLine
 10
1950.0
 20
610.1155994088549
 30
0.0
 11
5550.0
 21
610.1155994088549
 31
0.0
  0
LINE
  5
7F57
330
84B4
100
AcDbEntity
  8
4
100
AcDbLine
 10
1950.0
 20
910.1155994088548
 30
0.0
 11
5550.0
 21
910.1155994088548
 31
0.0
  0
TEXT
  5
7F58
330
84B4
100
AcDbEntity
  8
4
100
AcDbText
 10
2065.506242540704
 20
1004.744677008693
 30
0.0
 40
150.0
  1
機器名称
100
AcDbText
  0
TEXT
  5
7F59
330
84B4
100
AcDbEntity
  8
4
100
AcDbText
 10
2058.774318074392
 20
675.0510696048876
 30
0.0
 40
150.0
  1
機器型番
100
AcDbText
  0
TEXT
  5
7F5A
330
84B4
100
AcDbEntity
  8
4
100
AcDbText
 10
3533.036236462995
 20
977.8309062815608
 30
0.0
 40
150.0
  1
ミツヤ多翼送風機
100
AcDbText
  0
TEXT
  5
7F5B
330
84B4
100
AcDbEntity
  8
4
100
AcDbText
 10
3559.963486756442
 20
661.594352248685
 30
0.0
 40
150.0
  1
MF#5 1/2-5
100
AcDbText
  0
TEXT
  5
7F5D
330
84B4
100
AcDbEntity
  8
4
100
AcDbText
 10
2397.531071377358
 20
7150.286523997547
 30
0.0
 40
161.9999999999998
  1
床置防振ベット
100
AcDbText
  0
TEXT
  5
7F5E
330
84B4
100
AcDbEntity
  8
4
100
AcDbText
 10
948.5027799883393
 20
7601.642928597894
 30
0.0
 40
216.0
  1
遠心式両吸込両持多翼ファン
100
AcDbText
  0
LINE
  5
7F5F
330
84B4
100
AcDbEntity
  8
4
100
AcDbLine
 10
750.0
 20
7408.226262794413
 30
0.0
 11
5550.0
 21
7408.226262794413
 31
0.0
  0
LINE
  5
7F60
330
84B4
100
AcDbEntity
  8
4
100
AcDbLine
 10
750.0
 20
8008.226262794414
 30
0.0
 11
5550.0
 21
8008.226262794414
 31
0.0
  0
LINE
  5
7F61
330
84B4
100
AcDbEntity
  8
4
100
AcDbLine
 10
1950.0
 20
1210.115599408855
 30
0.0
 11
5550.0
 21
1210.115599408855
 31
0.0
  0
LINE
  5
7F62
330
84B4
100
AcDbEntity
  8
4
100
AcDbLine
 10
750.0
 20
8008.226262794414
 30
0.0
 11
750.0
 21
7408.226262794413
 31
0.0
  0
TEXT
  5
7F63
330
84B4
100
AcDbEntity
  8
4
100
AcDbText
 10
1089.954574649251
 20
7146.958432639029
 30
0.0
 40
161.9999999999998
  1
右回転右横向
100
AcDbText
  0
TEXT
  5
7F64
330
84B4
100
AcDbEntity
  8
4
100
AcDbText
 10
4406.908677747869
 20
8118.183244485924
 30
0.0
 40
168.0
  1
No.
100
AcDbText
  0
TEXT
  5
7F65
330
84B4
100
AcDbEntity
  8
4
100
AcDbText
 10
3933.888187800039
 20
7150.286523997547
 30
0.0
 40
161.9999999999998
  1
縮尺：1/30
100
AcDbText
  0
LINE
  5
7F66
330
84B4
100
AcDbEntity
  8
4
100
AcDbLine
 10
5550.0
 20
8008.226262794414
 30
0.0
 11
5550.0
 21
7408.226262794413
 31
0.0
  0
LINE
  5
7F67
330
84B4
100
AcDbEntity
  8
4
100
AcDbLine
 10
6300.0
 20
8850.0
 30
0.0
 11
6300.0
 21
8850.0
 31
0.0
  0
LINE
  5
7F68
330
84B4
100
AcDbEntity
  8
4
100
AcDbLine
 10
4321.852267079594
 20
8043.790749376205
 30
0.0
 11
4321.852267079594
 21
8359.956784649257
 31
0.0
  0
LINE
  5
7F69
330
84B4
100
AcDbEntity
  8
4
100
AcDbLine
 10
4321.852267079594
 20
8359.956784649257
 30
0.0
 11
5550.0
 21
8359.956784649257
 31
0.0
  0
LINE
  5
7F6A
330
84B4
100
AcDbEntity
  8
4
100
AcDbLine
 10
5550.0
 20
8359.956784649257
 30
0.0
 11
5550.0
 21
8043.790749376205
 31
0.0
  0
LINE
  5
7F6B
330
84B4
100
AcDbEntity
  8
4
100
AcDbLine
 10
5550.0
 20
8043.790749376205
 30
0.0
 11
4321.852267079594
 21
8043.790749376205
 31
0.0
  0
LINE
  5
7F6C
330
84B4
100
AcDbEntity
  8
4
100
AcDbLine
 10
0.0
 20
0.0
 30
0.0
 11
0.0
 21
8850.0
 31
0.0
  0
LINE
  5
7F6D
330
84B4
100
AcDbEntity
  8
4
100
AcDbLine
 10
0.0
 20
8850.0
 30
0.0
 11
6300.0
 21
8850.0
 31
0.0
  0
LINE
  5
7F6E
330
84B4
100
AcDbEntity
  8
4
100
AcDbLine
 10
6300.0
 20
8850.0
 30
0.0
 11
6300.0
 21
0.0
 31
0.0
  0
LINE
  5
7F6F
330
84B4
100
AcDbEntity
  8
4
100
AcDbLine
 10
6300.0
 20
0.0
 30
0.0
 11
0.0
 21
0.0
 31
0.0
  0
DIMENSION
  5
84FF
330
84B4
100
AcDbEntity
  8
3
100
AcDbDimension
  2
*D28
 10
4666.111918802633
 20
4144.529982258918
 30
0.0
 11
4191.111918802632
 21
4243.101410830347
 31
0.0
 70
    32
  1
(<>)
 71
     5
 42
950.0000000000017
  3
IGA
100
AcDbAlignedDimension
 13
3716.111918802631
 23
3067.454481859346
 33
0.0
 14
4666.111918802633
 24
4061.646435392973
 34
0.0
100
AcDbRotatedDimension
1001
ACAD
1000
DSTYLE
1002
{
1070
    40
1040
30.0
1070
    42
1040
1.0
1070
   143
1040
0.039
1070
   172
1070
     1
1070
   271
1070
     4
1070
   272
1070
     4
1070
   279
1070
     0
1070
   284
1070
     0
1070
   285
1070
     0
1070
   286
1070
     0
1070
   341
1005
84C7
1070
   343
1005
84C7
1070
   344
1005
84C7
1002
}
  0
DIMENSION
  5
850C
330
84B4
100
AcDbEntity
  8
3
100
AcDbDimension
  2
*D29
 10
5346.111918802631
 20
4144.529982258918
 30
0.0
 11
5006.111918802632
 21
4243.101410830347
 31
0.0
 70
    32
  1
(<>)
 71
     5
 42
679.9999999999982
  3
IGA
100
AcDbAlignedDimension
 13
4666.111918802633
 23
4061.646435392973
 33
0.0
 14
5346.111918802631
 24
2747.954481859345
 34
0.0
100
AcDbRotatedDimension
1001
ACAD
1000
DSTYLE
1002
{
1070
    40
1040
30.0
1070
    42
1040
1.0
1070
   143
1040
0.039
1070
   172
1070
     1
1070
   271
1070
     4
1070
   272
1070
     4
1070
   279
1070
     1
1070
   284
1070
     0
1070
   285
1070
     0
1070
   286
1070
     0
1070
   341
1005
84C7
1070
   343
1005
84C7
1070
   344
1005
84C7
1002
}
  0
DIMENSION
  5
8519
330
84B4
100
AcDbEntity
  8
3
100
AcDbDimension
  2
*D30
 10
5226.111918802633
 20
3941.646435392974
 30
0.0
 11
4666.111918802633
 21
4016.646435392973
 31
0.0
 70
    32
 71
     5
 42
1120.0
  3
IGA
100
AcDbAlignedDimension
 13
4106.111918802633
 23
3748.454481859345
 33
0.0
 14
5226.111918802633
 24
3748.454481859345
 34
0.0
100
AcDbRotatedDimension
1001
ACAD
1000
DSTYLE
1002
{
1070
    40
1040
30.0
1070
    42
1040
1.0
1070
   143
1040
0.039
1070
   172
1070
     1
1070
   271
1070
     4
1070
   272
1070
     4
1070
   279
1070
     0
1070
   284
1070
     0
1070
   285
1070
     0
1070
   286
1070
     0
1070
   341
1005
84C7
1070
   343
1005
84C7
1070
   344
1005
84C7
1002
}
  0
DIMENSION
  5
852A
330
84B4
100
AcDbEntity
  8
3
100
AcDbDimension
  2
*D31
 10
5565.365871543611
 20
2312.454481859346
 30
0.0
 11
5490.365871543609
 21
2787.454481859347
 31
0.0
 70
    32
  1
\U+03C6<>
 71
     5
 42
950.0
  3
IGA
100
AcDbAlignedDimension
 13
5226.111918802633
 23
3262.454481859346
 33
0.0
 14
5226.111918802633
 24
2312.454481859346
 34
0.0
 50
90.0
100
AcDbRotatedDimension
1001
ACAD
1000
DSTYLE
1002
{
1070
    40
1040
30.0
1070
    42
1040
1.0
1070
   143
1040
0.039
1070
   172
1070
     1
1070
   271
1070
     4
1070
   272
1070
     4
1070
   279
1070
     0
1070
   284
1070
     0
1070
   285
1070
     0
1070
   286
1070
     0
1070
   341
1005
84C7
1070
   343
1005
84C7
1070
   344
1005
84C7
1002
}
  0
DIMENSION
  5
85ED
330
84B4
100
AcDbEntity
  8
3
100
AcDbDimension
  2
*D39
 10
4666.111918802631
 20
1704.166200219333
 30
0.0
 11
4285.111918802632
 21
1779.166200219333
 31
0.0
 70
    32
 71
     5
 42
761.9999999999982
  3
IGA
100
AcDbAlignedDimension
 13
3904.111918802634
 23
1902.454481859345
 33
0.0
 14
4666.111918802631
 24
1902.454481859345
 34
0.0
100
AcDbRotatedDimension
1001
ACAD
1000
DSTYLE
1002
{
1070
    40
1040
30.0
1070
    42
1040
1.0
1070
   143
1040
0.039
1070
   172
1070
     1
1070
   271
1070
     4
1070
   272
1070
     4
1070
   279
1070
     0
1070
   284
1070
     0
1070
   285
1070
     0
1070
   286
1070
     0
1070
   341
1005
84C7
1070
   343
1005
84C7
1070
   344
1005
84C7
1002
}
  0
DIMENSION
  5
85FA
330
84B4
100
AcDbEntity
  8
3
100
AcDbDimension
  2
*D40
 10
5279.111918802634
 20
1704.166200219333
 30
0.0
 11
4972.611918802633
 21
1779.166200219333
 31
0.0
 70
    32
 71
     5
 42
613.0000000000027
  3
IGA
100
AcDbAlignedDimension
 13
4666.111918802631
 23
1902.454481859345
 33
0.0
 14
5279.111918802634
 24
1902.454481859345
 34
0.0
100
AcDbRotatedDimension
1001
ACAD
1000
DSTYLE
1002
{
1070
    40
1040
30.0
1070
    42
1040
1.0
1070
   143
1040
0.039
1070
   172
1070
     1
1070
   271
1070
     4
1070
   272
1070
     4
1070
   279
1070
     1
1070
   284
1070
     0
1070
   285
1070
     0
1070
   286
1070
     0
1070
   341
1005
84C7
1070
   343
1005
84C7
1070
   344
1005
84C7
1002
}
  0
DIMENSION
  5
8607
330
84B4
100
AcDbEntity
  8
3
100
AcDbDimension
  2
*D41
 10
2155.942858765823
 20
1704.166200219333
 30
0.0
 11
1500.942858765822
 21
1779.166200219333
 31
0.0
 70
    32
 71
     5
 42
1310.0
  3
IGA
100
AcDbAlignedDimension
 13
845.9428587658221
 23
1902.454481859345
 33
0.0
 14
2155.942858765823
 24
1902.454481859345
 34
0.0
100
AcDbRotatedDimension
1001
ACAD
1000
DSTYLE
1002
{
1070
    40
1040
30.0
1070
    42
1040
1.0
1070
   143
1040
0.039
1070
   172
1070
     1
1070
   271
1070
     4
1070
   272
1070
     4
1070
   279
1070
     0
1070
   284
1070
     0
1070
   285
1070
     0
1070
   286
1070
     0
1070
   341
1005
84C7
1070
   343
1005
84C7
1070
   344
1005
84C7
1002
}
  0
DIMENSION
  5
8614
330
84B4
100
AcDbEntity
  8
3
100
AcDbDimension
  2
*D42
 10
2715.942858765824
 20
1704.166200219333
 30
0.0
 11
2435.942858765824
 21
1779.166200219333
 31
0.0
 70
    32
 71
     5
 42
560.0000000000013
  3
IGA
100
AcDbAlignedDimension
 13
2155.942858765823
 23
1902.454481859345
 33
0.0
 14
2715.942858765824
 24
1902.454481859345
 34
0.0
100
AcDbRotatedDimension
1001
ACAD
1000
DSTYLE
1002
{
1070
    40
1040
30.0
1070
    42
1040
1.0
1070
   143
1040
0.039
1070
   172
1070
     1
1070
   271
1070
     4
1070
   272
1070
     4
1070
   279
1070
     1
1070
   284
1070
     0
1070
   285
1070
     0
1070
   286
1070
     0
1070
   341
1005
84C7
1070
   343
1005
84C7
1070
   344
1005
84C7
1002
}
  0
DIMENSION
  5
862E
330
84B4
100
AcDbEntity
  8
3
100
AcDbDimension
  2
*D44
 10
2715.942858765823
 20
4408.306783611197
 30
0.0
 11
1780.942858765823
 21
4483.306783611197
 31
0.0
 70
    32
 71
     5
 42
1870.0
  3
IGA
100
AcDbAlignedDimension
 13
845.942858765823
 23
4805.453943093271
 33
0.0
 14
2715.942858765823
 24
4805.453943093271
 34
0.0
100
AcDbRotatedDimension
1001
ACAD
1000
DSTYLE
1002
{
1070
    40
1040
30.0
1070
    42
1040
1.0
1070
   143
1040
0.039
1070
   172
1070
     1
1070
   271
1070
     4
1070
   272
1070
     4
1070
   279
1070
     0
1070
   284
1070
     0
1070
   285
1070
     0
1070
   286
1070
     0
1070
   341
1005
84C7
1070
   343
1005
84C7
1070
   344
1005
84C7
1002
}
  0
DIMENSION
  5
863B
330
84B4
100
AcDbEntity
  8
3
100
AcDbDimension
  2
*D45
 10
3016.367080932239
 20
4805.453943093271
 30
0.0
 11
2941.367080932238
 21
5492.953943093272
 31
0.0
 70
    32
 71
     5
 42
1375.000000000001
  3
IGA
100
AcDbAlignedDimension
 13
2715.942858765823
 23
6180.453943093272
 33
0.0
 14
2715.942858765823
 24
4805.453943093271
 34
0.0
 50
90.0
100
AcDbRotatedDimension
1001
ACAD
1000
DSTYLE
1002
{
1070
    40
1040
30.0
1070
    42
1040
1.0
1070
   143
1040
0.039
1070
   172
1070
     1
1070
   271
1070
     4
1070
   272
1070
     4
1070
   279
1070
     0
1070
   284
1070
     0
1070
   285
1070
     0
1070
   286
1070
     0
1070
   341
1005
84C7
1070
   343
1005
84C7
1070
   344
1005
84C7
1002
}
  0
DIMENSION
  5
8648
330
84B4
100
AcDbEntity
  8
3
100
AcDbDimension
  2
*D46
 10
1595.942858765823
 20
6482.468601598494
 30
0.0
 11
2155.942858765823
 21
6557.468601598493
 31
0.0
 70
    32
 71
     5
 42
1119.999999999999
  3
IGA
100
AcDbAlignedDimension
 13
2715.942858765823
 23
6180.453943093272
 33
0.0
 14
1595.942858765823
 24
6180.453943093272
 34
0.0
100
AcDbRotatedDimension
1001
ACAD
1000
DSTYLE
1002
{
1070
    40
1040
30.0
1070
    42
1040
1.0
1070
   143
1040
0.039
1070
   172
1070
     1
1070
   271
1070
     4
1070
   272
1070
     4
1070
   279
1070
     0
1070
   284
1070
     0
1070
   285
1070
     0
1070
   286
1070
     0
1070
   341
1005
84C7
1070
   343
1005
84C7
1070
   344
1005
84C7
1002
}
  0
DIMENSION
  5
8655
330
84B4
100
AcDbEntity
  8
3
100
AcDbDimension
  2
*D47
 10
845.9428587658239
 20
6482.468601598494
 30
0.0
 11
1220.942858765823
 21
6557.468601598493
 31
0.0
 70
    32
 71
     5
 42
749.9999999999994
  3
IGA
100
AcDbAlignedDimension
 13
1595.942858765823
 23
6180.453943093272
 33
0.0
 14
845.9428587658239
 24
5605.453943093273
 34
0.0
100
AcDbRotatedDimension
1001
ACAD
1000
DSTYLE
1002
{
1070
    40
1040
30.0
1070
    42
1040
1.0
1070
   143
1040
0.039
1070
   172
1070
     1
1070
   271
1070
     4
1070
   272
1070
     4
1070
   279
1070
     1
1070
   284
1070
     0
1070
   285
1070
     0
1070
   286
1070
     0
1070
   341
1005
84C7
1070
   343
1005
84C7
1070
   344
1005
84C7
1002
}
  0
DIMENSION
  5
8662
330
84B4
100
AcDbEntity
  8
3
100
AcDbDimension
  2
*D48
 10
656.0913512992847
 20
4805.453943093271
 30
0.0
 11
581.091351299284
 21
5205.453943093271
 31
0.0
 70
    32
 71
     5
 42
800.0000000000008
  3
IGA
100
AcDbAlignedDimension
 13
845.9428587658239
 23
5605.453943093272
 33
0.0
 14
845.942858765823
 24
4805.453943093271
 34
0.0
 50
90.0
100
AcDbRotatedDimension
1001
ACAD
1000
DSTYLE
1002
{
1070
    40
1040
30.0
1070
    42
1040
1.0
1070
   143
1040
0.039
1070
   172
1070
     1
1070
   271
1070
     4
1070
   272
1070
     4
1070
   279
1070
     0
1070
   284
1070
     0
1070
   285
1070
     0
1070
   286
1070
     0
1070
   341
1005
84C7
1070
   343
1005
84C7
1070
   344
1005
84C7
1002
}
  0
DIMENSION
  5
866F
330
84B4
100
AcDbEntity
  8
3
100
AcDbDimension
  2
*D49
 10
845.9428587658239
 20
4137.110429238729
 30
0.0
 11
1810.942858765823
 21
4212.110429238729
 31
0.0
 70
    32
 71
     5
 42
1929.999999999999
  3
IGA
100
AcDbAlignedDimension
 13
2775.942858765823
 23
3790.954481859346
 33
0.0
 14
845.9428587658239
 24
2207.454481859345
 34
0.0
100
AcDbRotatedDimension
1001
ACAD
1000
DSTYLE
1002
{
1070
    40
1040
30.0
1070
    42
1040
1.0
1070
   143
1040
0.039
1070
   172
1070
     1
1070
   271
1070
     4
1070
   272
1070
     4
1070
   279
1070
     0
1070
   284
1070
     0
1070
   285
1070
     0
1070
   286
1070
     0
1070
   341
1005
84C7
1070
   343
1005
84C7
1070
   344
1005
84C7
1002
}
  0
DIMENSION
  5
8685
330
84B4
100
AcDbEntity
  8
3
100
AcDbDimension
  2
*D50
 10
2155.942858765823
 20
3941.848891574977
 30
0.0
 11
2465.942858765823
 21
4016.848891574976
 31
0.0
 70
    32
 71
     5
 42
620.0
  3
IGA
100
AcDbAlignedDimension
 13
2775.942858765823
 23
3790.954481859346
 33
0.0
 14
2155.942858765823
 24
3789.416924202903
 34
0.0
100
AcDbRotatedDimension
1001
ACAD
1000
DSTYLE
1002
{
1070
    40
1040
30.0
1070
    42
1040
1.0
1070
   143
1040
0.039
1070
   172
1070
     1
1070
   271
1070
     4
1070
   272
1070
     4
1070
   279
1070
     0
1070
   284
1070
     0
1070
   285
1070
     0
1070
   286
1070
     0
1070
   341
1005
84C7
1070
   343
1005
84C7
1070
   344
1005
84C7
1002
}
  0
DIMENSION
  5
8692
330
84B4
100
AcDbEntity
  8
3
100
AcDbDimension
  2
*D51
 10
1378.942858765823
 20
3941.848891574977
 30
0.0
 11
1767.442858765823
 21
4016.848891574976
 31
0.0
 70
    32
 71
     5
 42
777.0
  3
IGA
100
AcDbAlignedDimension
 13
2155.942858765823
 23
3789.416924202903
 33
0.0
 14
1378.942858765823
 24
2854.454481859345
 34
0.0
100
AcDbRotatedDimension
1001
ACAD
1000
DSTYLE
1002
{
1070
    40
1040
30.0
1070
    42
1040
1.0
1070
   143
1040
0.039
1070
   172
1070
     1
1070
   271
1070
     4
1070
   272
1070
     4
1070
   279
1070
     1
1070
   284
1070
     0
1070
   285
1070
     0
1070
   286
1070
     0
1070
   341
1005
84C7
1070
   343
1005
84C7
1070
   344
1005
84C7
1002
}
  0
DIMENSION
  5
869F
330
84B4
100
AcDbEntity
  8
3
100
AcDbDimension
  2
*D52
 10
2925.557967209033
 20
2823.454481859346
 30
0.0
 11
2850.557967209033
 21
3285.954481859346
 31
0.0
 70
    32
 71
     5
 42
924.9999999999991
  3
IGA
100
AcDbAlignedDimension
 13
2775.942858765823
 23
3748.454481859345
 33
0.0
 14
2775.942858765823
 24
2823.454481859346
 34
0.0
 50
90.0
100
AcDbRotatedDimension
1001
ACAD
1000
DSTYLE
1002
{
1070
    40
1040
30.0
1070
    42
1040
1.0
1070
   143
1040
0.039
1070
   172
1070
     1
1070
   271
1070
     4
1070
   272
1070
     4
1070
   279
1070
     0
1070
   284
1070
     0
1070
   285
1070
     0
1070
   286
1070
     0
1070
   341
1005
84C7
1070
   343
1005
84C7
1070
   344
1005
84C7
1002
}
  0
DIMENSION
  5
86AC
330
84B4
100
AcDbEntity
  8
3
100
AcDbDimension
  2
*D53
 10
3075.901267306895
 20
2787.454481859346
 30
0.0
 11
3000.901267306895
 21
3267.954481859346
 31
0.0
 70
    32
 71
     5
 42
960.999999999999
  3
IGA
100
AcDbAlignedDimension
 13
2775.942858765823
 23
3748.454481859345
 33
0.0
 14
2812.198197544368
 24
2787.454481859346
 34
0.0
 50
90.0
100
AcDbRotatedDimension
1001
ACAD
1000
DSTYLE
1002
{
1070
    40
1040
30.0
1070
    42
1040
1.0
1070
   143
1040
0.039
1070
   172
1070
     1
1070
   271
1070
     4
1070
   272
1070
     4
1070
   279
1070
     0
1070
   284
1070
     0
1070
   285
1070
     0
1070
   286
1070
     0
1070
   341
1005
84C7
1070
   343
1005
84C7
1070
   344
1005
84C7
1002
}
  0
DIMENSION
  5
86B9
330
84B4
100
AcDbEntity
  8
3
100
AcDbDimension
  2
*D54
 10
3075.901267306895
 20
2107.454481859345
 30
0.0
 11
3000.901267306895
 21
2447.454481859346
 31
0.0
 70
    32
 71
     5
 42
680.0000000000009
  3
IGA
100
AcDbAlignedDimension
 13
2812.198197544368
 23
2787.454481859346
 33
0.0
 14
2715.942858765823
 24
2107.454481859345
 34
0.0
 50
90.0
100
AcDbRotatedDimension
1001
ACAD
1000
DSTYLE
1002
{
1070
    40
1040
30.0
1070
    42
1040
1.0
1070
   143
1040
0.039
1070
   172
1070
     1
1070
   271
1070
     4
1070
   272
1070
     4
1070
   279
1070
     1
1070
   284
1070
     0
1070
   285
1070
     0
1070
   286
1070
     0
1070
   341
1005
84C7
1070
   343
1005
84C7
1070
   344
1005
84C7
1002
}
  0
DIMENSION
  5
86C6
330
84B4
100
AcDbEntity
  8
3
100
AcDbDimension
  2
*D55
 10
3075.901267306895
 20
2002.454481859345
 30
0.0
 11
3258.044124449752
 21
2169.168767573631
 31
0.0
 70
    32
  1
(<>)
 71
     5
 42
105.0
  3
IGA
100
AcDbAlignedDimension
 13
2715.942858765823
 23
2107.454481859345
 33
0.0
 14
2715.942858765824
 24
2002.454481859345
 34
0.0
 50
90.0
100
AcDbRotatedDimension
1001
ACAD
1000
DSTYLE
1002
{
1070
    40
1040
30.0
1070
    42
1040
1.0
1070
   143
1040
0.039
1070
   172
1070
     1
1070
   271
1070
     4
1070
   272
1070
     4
1070
   279
1070
     1
1070
   284
1070
     0
1070
   285
1070
     0
1070
   286
1070
     0
1070
   341
1005
84C7
1070
   343
1005
84C7
1070
   344
1005
8772
1002
}
  0
DIMENSION
  5
86D8
330
84B4
100
AcDbEntity
  8
3
100
AcDbDimension
  2
*D56
 10
3075.901267306895
 20
1902.454481859345
 30
0.0
 11
3074.449352884578
 21
1758.173677440365
 31
0.0
 70
   160
 71
     5
 42
100.0
  3
IGA
100
AcDbAlignedDimension
 13
2715.942858765824
 23
2002.454481859345
 33
0.0
 14
2715.942858765824
 24
1902.454481859345
 34
0.0
 50
90.0
100
AcDbRotatedDimension
1001
ACAD
1000
DSTYLE
1002
{
1070
    40
1040
30.0
1070
    42
1040
1.0
1070
   143
1040
0.039
1070
   172
1070
     1
1070
   271
1070
     4
1070
   272
1070
     4
1070
   279
1070
     1
1070
   284
1070
     0
1070
   285
1070
     0
1070
   286
1070
     0
1070
   341
1005
84C7
1070
   343
1005
8772
1070
   344
1005
84C7
1002
}
  0
DIMENSION
  5
87DD
330
84B4
100
AcDbEntity
  8
3
100
AcDbDimension
  2
*D58
 10
3418.996076694253
 20
3748.454481859345
 30
0.0
 11
3320.424648122824
 21
2825.454481859346
 31
0.0
 70
    32
  1
(<>)
 71
     5
 42
1846.0
  3
IGA
100
AcDbAlignedDimension
 13
2715.942858765824
 23
1902.454481859345
 33
0.0
 14
2775.942858765823
 24
3748.454481859345
 34
0.0
 50
90.0
100
AcDbRotatedDimension
1001
ACAD
1000
DSTYLE
1002
{
1070
    40
1040
30.0
1070
    42
1040
1.0
1070
   143
1040
0.039
1070
   172
1070
     1
1070
   271
1070
     4
1070
   272
1070
     4
1070
   279
1070
     0
1070
   284
1070
     0
1070
   285
1070
     0
1070
   286
1070
     0
1070
   341
1005
84C7
1070
   343
1005
84C7
1070
   344
1005
84C7
1002
}
  0
ENDSEC
  0
SECTION
  2
OBJECTS
  0
DICTIONARY
  5
8451
330
0
100
AcDbDictionary
281
     1
  3
ACAD_CIP_PREVIOUS_PRODUCT_INFO
350
84FB
  3
ACAD_COLOR
350
84A7
  3
ACAD_DETAILVIEWSTYLE
350
84AE
  3
ACAD_GROUP
350
8452
  3
ACAD_LAYOUT
350
84A6
  3
ACAD_MATERIAL
350
8455
  3
ACAD_MLEADERSTYLE
350
84AA
  3
ACAD_MLINESTYLE
350
84A3
  3
ACAD_PLOTSETTINGS
350
84A5
  3
ACAD_PLOTSTYLENAME
350
8453
  3
ACAD_SCALELIST
350
8487
  3
ACAD_SECTIONVIEWSTYLE
350
84AC
  3
ACAD_TABLESTYLE
350
84A8
  3
ACAD_VISUALSTYLE
350
846E
  3
ACDB_RECOMPOSE_DATA
350
8866
  3
AcDbVariableDictionary
350
8818
  3
DWGPROPS
350
8867
  0
DICTIONARY
  5
880E
330
8499
100
AcDbDictionary
280
     1
281
     1
  3
ADSK_XREC_LAYER_RECONCILED
360
880F
  0
DICTIONARY
  5
8810
330
84B8
100
AcDbDictionary
280
     1
281
     1
  3
ADSK_XREC_LAYER_RECONCILED
360
8811
  0
DICTIONARY
  5
8812
330
84BB
100
AcDbDictionary
280
     1
281
     1
  3
ADSK_XREC_LAYER_RECONCILED
360
8813
  0
DICTIONARY
  5
8814
330
84BC
100
AcDbDictionary
280
     1
281
     1
  3
ADSK_XREC_LAYER_RECONCILED
360
8815
  0
DICTIONARY
  5
8816
330
84BD
100
AcDbDictionary
280
     1
281
     1
  3
ADSK_XREC_LAYER_RECONCILED
360
8817
  0
DICTIONARY
  5
8527
330
84B4
100
AcDbDictionary
280
     1
281
     1
  3
ACAD_SORTENTS
360
8528
  0
XRECORD
  5
84FB
102
{ACAD_REACTORS
330
8451
102
}
330
8451
100
AcDbXrecord
280
     1
300
ACDLT
300
2015
300
INVLTS_F_S
  0
DICTIONARY
  5
84A7
102
{ACAD_REACTORS
330
8451
102
}
330
8451
100
AcDbDictionary
281
     1
  0
DICTIONARY
  5
84AE
102
{ACAD_REACTORS
330
8451
102
}
330
8451
100
AcDbDictionary
281
     1
  3
Imperial24
350
84AF
  0
DICTIONARY
  5
8452
102
{ACAD_REACTORS
330
8451
102
}
330
8451
100
AcDbDictionary
281
     1
  0
DICTIONARY
  5
84A6
102
{ACAD_REACTORS
330
8451
102
}
330
8451
100
AcDbDictionary
281
     1
  3
Model
350
84B7
  3
レイアウト1
350
84B3
  0
DICTIONARY
  5
8455
102
{ACAD_REACTORS
330
8451
102
}
330
8451
100
AcDbDictionary
281
     1
  3
ByBlock
350
845E
  3
ByLayer
350
8456
  3
Global
350
8466
  0
DICTIONARY
  5
84AA
102
{ACAD_REACTORS
330
8451
102
}
330
8451
100
AcDbDictionary
281
     1
  3
Standard
350
84AB
  0
DICTIONARY
  5
84A3
102
{ACAD_REACTORS
330
8451
102
}
330
8451
100
AcDbDictionary
281
     1
  3
Standard
350
84A4
  0
DICTIONARY
  5
84A5
102
{ACAD_REACTORS
330
8451
102
}
330
8451
100
AcDbDictionary
281
     1
  0
ACDBDICTIONARYWDFLT
  5
8453
102
{ACAD_REACTORS
330
8451
102
}
330
8451
100
AcDbDictionary
281
     1
  3
Normal
350
8454
100
AcDbDictionaryWithDefault
340
8454
  0
DICTIONARY
  5
8487
102
{ACAD_REACTORS
330
8451
102
}
330
8451
100
AcDbDictionary
281
     1
  3
A0
350
8488
  3
A1
350
8489
  3
A2
350
848A
  3
A3
350
848B
  3
A4
350
848C
  3
A5
350
848D
  3
A6
350
848E
  3
A7
350
848F
  3
A8
350
8490
  3
A9
350
8491
  3
B0
350
8492
  3
B1
350
8493
  3
B2
350
8494
  3
B3
350
8495
  3
B4
350
8496
  3
B5
350
8497
  3
B6
350
8498
  0
DICTIONARY
  5
84AC
102
{ACAD_REACTORS
330
8451
102
}
330
8451
100
AcDbDictionary
281
     1
  3
Imperial24
350
84AD
  0
DICTIONARY
  5
84A8
102
{ACAD_REACTORS
330
8451
102
}
330
8451
100
AcDbDictionary
281
     1
  3
Standard
350
84A9
  0
DICTIONARY
  5
846E
102
{ACAD_REACTORS
330
8451
102
}
330
8451
100
AcDbDictionary
281
     1
  3
2dWireframe
350
8474
  3
Basic
350
8473
  3
Brighten
350
847A
  3
ColorChange
350
847E
  3
Conceptual
350
8477
  3
Dim
350
8479
  3
EdgeColorOff
350
8486
  3
Facepattern
350
847D
  3
Flat
350
846F
  3
FlatWithEdges
350
8470
  3
Gouraud
350
8471
  3
GouraudWithEdges
350
8472
  3
Hidden
350
8476
  3
JitterOff
350
8484
  3
Linepattern
350
847C
  3
OverhangOff
350
8485
  3
Realistic
350
8478
  3
Shaded
350
8483
  3
Shaded with edges
350
8482
  3
Shades of Gray
350
847F
  3
Sketchy
350
8480
  3
Thicken
350
847B
  3
Wireframe
350
8475
  3
X-Ray
350
8481
  0
XRECORD
  5
8866
102
{ACAD_REACTORS
330
8451
102
}
330
8451
100
AcDbXrecord
280
     1
 90
        1
330
84A9
  0
DICTIONARY
  5
8818
102
{ACAD_REACTORS
330
8451
102
}
330
8451
100
AcDbDictionary
281
     1
  3
CANNOSCALE
350
881D
  3
CMLEADERSTYLE
350
881A
  3
CTABLESTYLE
350
8819
  3
CVIEWDETAILSTYLE
350
881B
  3
CVIEWSECTIONSTYLE
350
881C
  3
DIMASSOC
350
8820
  3
INDEXCTL
350
881F
  3
SORTENTS
350
881E
  3
XCLIPFRAME
350
8821
  0
XRECORD
  5
8867
102
{ACAD_REACTORS
330
8451
102
}
330
8451
100
AcDbXrecord
280
     1
  1
DWGPROPS COOKIE
  2

  3

  4

  6

  7

  8
yasukiyo.ogawa
  9

300
=
301
=
302
=
303
=
304
=
305
=
306
=
307
=
308
=
309
=
 40
1.136113530092592
 41
2451389.471649768
 42
2460270.730402547
  1

 90
        0
  0
XRECORD
  5
880F
102
{ACAD_REACTORS
330
880E
102
}
330
880E
100
AcDbXrecord
280
     1
290
     1
  0
XRECORD
  5
8811
102
{ACAD_REACTORS
330
8810
102
}
330
8810
100
AcDbXrecord
280
     1
290
     1
  0
XRECORD
  5
8813
102
{ACAD_REACTORS
330
8812
102
}
330
8812
100
AcDbXrecord
280
     1
290
     1
  0
XRECORD
  5
8815
102
{ACAD_REACTORS
330
8814
102
}
330
8814
100
AcDbXrecord
280
     1
290
     1
  0
XRECORD
  5
8817
102
{ACAD_REACTORS
330
8816
102
}
330
8816
100
AcDbXrecord
280
     1
290
     1
  0
SORTENTSTABLE
  5
8528
102
{ACAD_REACTORS
330
8527
102
}
330
8527
100
AcDbSortentsTable
330
84B4
331
7F62
  5
7F64
331
7F51
  5
7F53
331
7D20
  5
7F52
331
7CBA
  5
7CBC
331
7CCB
  5
7CD0
331
7C83
  5
7C85
331
7CDC
  5
7CE2
331
7D0F
  5
7D11
331
7CFE
  5
7D00
331
7CA5
  5
7CA7
331
7C48
  5
7C48
331
7C37
  5
7C37
331
7F63
  5
7F65
331
7F52
  5
7F56
331
7D10
  5
7D12
331
7CBB
  5
7CBD
331
7C5A
  5
7C5D
331
7CFF
  5
7D01
331
7CEE
  5
7CF0
331
7CA6
  5
7CA8
331
7C84
  5
7C86
331
7C49
  5
7C49
331
7C38
  5
7C38
331
7F64
  5
7F66
331
7F53
  5
7F57
331
7D11
  5
7D13
331
7D00
  5
7D02
331
7CBC
  5
7CBE
331
7C6C
  5
7C71
331
7CEF
  5
7CF2
331
7CA7
  5
7CA9
331
7C85
  5
7C87
331
7C4A
  5
7C4A
331
7C39
  5
7C39
331
84FF
  5
8519
331
7F65
  5
7F67
331
7D12
  5
7D14
331
7D01
  5
7D03
331
7CF0
  5
7CF4
331
7CA8
  5
7CAA
331
7CBD
  5
7CBF
331
7C5C
  5
7C64
331
7C97
  5
7C99
331
7C86
  5
7C88
331
7C4B
  5
7C4B
331
7C3A
  5
7C3A
331
7F66
  5
7F68
331
7D13
  5
7D15
331
7D02
  5
7D04
331
7CA9
  5
7CAB
331
7C98
  5
7C9A
331
7CBE
  5
7CC0
331
7C5D
  5
7C66
331
7C4C
  5
7C4E
331
7CCF
  5
7CD1
331
7C87
  5
7C8A
331
7C3B
  5
7C3B
331
7CD0
  5
7CD2
331
7C88
  5
7C8B
331
7CE1
  5
7CE3
331
7C99
  5
7C9B
331
8519
  5
8529
331
7F67
  5
7F69
331
7F56
  5
7F58
331
7D14
  5
7D16
331
7D03
  5
7D05
331
7CAA
  5
7CAC
331
7CBF
  5
7CC1
331
7C4D
  5
7C4F
331
7C3C
  5
7C3C
331
7CD1
  5
7CD3
331
7CC0
  5
7CC3
331
7C70
  5
7C73
331
7CE2
  5
7CE4
331
7C9A
  5
7C9C
331
7F68
  5
7F6A
331
7F57
  5
7F59
331
7D15
  5
7D1D
331
7D04
  5
7D06
331
7CAB
  5
7CAD
331
7C4E
  5
7C51
331
7C3D
  5
7C3D
331
7CB0
  5
7CB2
331
7CC1
  5
7CC4
331
7C71
  5
7C75
331
7CD2
  5
7CD4
331
7C8A
  5
7C8C
331
7CE3
  5
7CE5
331
7F69
  5
7F6B
331
7F58
  5
7F5A
331
7D16
  5
7D1E
331
7D05
  5
7D07
331
7CAC
  5
7CAE
331
7C4F
  5
7C53
331
7C3E
  5
7C3E
331
7CB1
  5
7CB3
331
7CD3
  5
7CD5
331
7C8B
  5
7C8D
331
7CE4
  5
7CE6
331
7F59
  5
7F5B
331
7D06
  5
7D08
331
7CF5
  5
7CF7
331
7F6A
  5
7F6C
331
7CAD
  5
7CAF
331
7C3F
  5
7C3F
331
7CB2
  5
7CB4
331
7C51
  5
7C54
331
7CC3
  5
7CC5
331
7C73
  5
7C76
331
7CD4
  5
7CD6
331
7C8C
  5
7C90
331
7CE5
  5
7CE7
331
850C
  5
8526
331
7F6B
  5
7F6D
331
7F5A
  5
7F5D
331
7D07
  5
7D09
331
7CF6
  5
7CF8
331
7CAE
  5
7CB0
331
7C9D
  5
7C9F
331
7C40
  5
7C40
331
7CC4
  5
7CC9
331
7CB3
  5
7CB5
331
7CD5
  5
7CD7
331
7C8D
  5
7C91
331
7CE6
  5
7CE8
331
7C9E
  5
7CA0
331
7F6C
  5
7F6E
331
7F5B
  5
7F5E
331
7D08
  5
7D0A
331
7CF7
  5
7CF9
331
7CAF
  5
7CB1
331
7C41
  5
7C41
331
7CB4
  5
7CB6
331
7C64
  5
7C67
331
7C53
  5
7C56
331
7CD6
  5
7CD8
331
7CC5
  5
7CCA
331
7C75
  5
7C77
331
7F6D
  5
7F6F
331
7D09
  5
7D0B
331
7CF8
  5
7CFA
331
7CE7
  5
7CE9
331
7C9F
  5
7CA1
331
7C42
  5
7C42
331
7C31
  5
7C31
331
7CB5
  5
7CB7
331
7C54
  5
7C57
331
7CD7
  5
7CD9
331
7C76
  5
7C82
331
7D0A
  5
7D0C
331
7CF9
  5
7CFB
331
7CA0
  5
7CA2
331
7F6E
  5
8218
331
7F5D
  5
7F5F
331
7C43
  5
7C43
331
7CB6
  5
7CB8
331
7C66
  5
7C6C
331
7CD8
  5
7CDA
331
7C90
  5
7C92
331
7C77
  5
7C83
331
7F6F
  5
8225
331
7F5E
  5
7F60
331
7D0B
  5
7D0D
331
7CFA
  5
7CFC
331
7CA1
  5
7CA3
331
7C44
  5
7C44
331
7C33
  5
7C33
331
7CB7
  5
7CB9
331
7C67
  5
7C70
331
7C56
  5
7C5A
331
7CD9
  5
7CDB
331
7C91
  5
7C93
331
7F5F
  5
7F61
331
7D1D
  5
7D1F
331
7D0C
  5
7D0E
331
7CFB
  5
7CFD
331
7CA2
  5
7CA4
331
7C45
  5
7C45
331
7C34
  5
7C34
331
7F60
  5
7F62
331
7CC9
  5
7CCB
331
7CB8
  5
7CBA
331
7C57
  5
7C5C
331
7CDA
  5
7CDC
331
7C92
  5
7C94
331
7D1E
  5
7D20
331
7D0D
  5
7D0F
331
7CFC
  5
7CFE
331
7CA3
  5
7CA5
331
7C46
  5
7C46
331
7C35
  5
7C35
331
7F61
  5
7F63
331
7CB9
  5
7CBB
331
7CCA
  5
7CCF
331
7C82
  5
7C84
331
7CDB
  5
7CE1
331
7C93
  5
7C95
331
7D1F
  5
7F51
331
7D0E
  5
7D10
331
7CFD
  5
7CFF
331
7CA4
  5
7CA6
331
7C47
  5
7C47
331
7C36
  5
7C36
  0
ACDBDETAILVIEWSTYLE
  5
84AF
102
{ACAD_XDICTIONARY
360
889F
102
}
102
{ACAD_REACTORS
330
84AE
102
}
330
84AE
100
AcDbModelDocViewStyle
 70
     0
  3
Imperial24
290
     0
100
AcDbDetailViewStyle
 70
     0
 71
     0
 90
        3
 71
     1
340
849A
 40
0.24
340
0
 40
0.24
300

 40
0.36
280
     3
 71
     2
340
84A1
 90
       25
 71
     3
340
849A
 40
0.24
 90
        1
 40
0.75
 90
        1
300
%<\AcVar ViewType \f "%tc1">% %<\AcVar ViewDetailId>%\PSCALE %<\AcVar ViewScale \f "%sn">%
 71
     4
340
84A1
 90
       25
340
84A1
 90
       25
280
     0
  0
LAYOUT
  5
84B7
102
{ACAD_XDICTIONARY
360
88A3
102
}
102
{ACAD_REACTORS
330
84A6
102
}
330
84A6
100
AcDbPlotSettings
  1

  2
RICOH imagio MP W3600 RPCS
  4

  6

 40
0.0
 41
0.0
 42
0.0
 43
0.0
 44
0.0
 45
0.0
 46
0.0
 47
0.0
 48
0.0
 49
0.0
140
0.0
141
0.0
142
1.0
143
1.0
 70
  1712
 72
     0
 73
     0
 74
     0
  7

 75
     0
147
1.0
148
0.0
149
0.0
100
AcDbLayout
  1
Model
 70
     1
 71
     0
 10
0.0
 20
0.0
 11
12.0
 21
9.0
 12
0.0
 22
0.0
 32
0.0
 14
0.0
 24
0.0
 34
0.0
 15
0.0
 25
0.0
 35
0.0
146
0.0
 13
0.0
 23
0.0
 33
0.0
 16
1.0
 26
0.0
 36
0.0
 17
0.0
 27
1.0
 37
0.0
 76
     0
330
84B4
331
84B9
  0
LAYOUT
  5
84B3
102
{ACAD_XDICTIONARY
360
88A1
102
}
102
{ACAD_REACTORS
330
84A6
102
}
330
84A6
100
AcDbPlotSettings
  1

  2
RICOH imagio MP W3600 RPCS
  4

  6

 40
0.0
 41
0.0
 42
0.0
 43
0.0
 44
0.0
 45
0.0
 46
0.0
 47
0.0
 48
0.0
 49
0.0
140
0.0
141
0.0
142
1.0
143
1.0
 70
   688
 72
     0
 73
     0
 74
     5
  7

 75
    16
147
1.0
148
0.0
149
0.0
100
AcDbLayout
  1
レイアウト1
 70
     1
 71
     1
 10
0.0
 20
0.0
 11
12.0
 21
9.0
 12
0.0
 22
0.0
 32
0.0
 14
1.000000000000000E+20
 24
1.000000000000000E+20
 34
1.000000000000000E+20
 15
-1.000000000000000E+20
 25
-1.000000000000000E+20
 35
-1.000000000000000E+20
146
0.0
 13
0.0
 23
0.0
 33
0.0
 16
1.0
 26
0.0
 36
0.0
 17
0.0
 27
1.0
 37
0.0
 76
     0
330
84B0
  0
MATERIAL
  5
845E
102
{ACAD_XDICTIONARY
360
845F
102
}
102
{ACAD_REACTORS
330
8455
102
}
330
8455
100
AcDbMaterial
  1
ByBlock
 72
     0
 43
0.0208333333333333
 43
0.0
 43
0.0
 43
0.0
 43
0.0
 43
0.0208333333333333
 43
0.0
 43
0.0
 43
0.0
 43
0.0
 43
1.0
 43
0.0
 43
0.0
 43
0.0
 43
0.0
 43
1.0
 77
     0
 47
0.0208333333333333
 47
0.0
 47
0.0
 47
0.0
 47
0.0
 47
0.0208333333333333
 47
0.0
 47
0.0
 47
0.0
 47
0.0
 47
1.0
 47
0.0
 47
0.0
 47
0.0
 47
0.0
 47
1.0
171
     0
 49
0.0208333333333333
 49
0.0
 49
0.0
 49
0.0
 49
0.0
 49
0.0208333333333333
 49
0.0
 49
0.0
 49
0.0
 49
0.0
 49
1.0
 49
0.0
 49
0.0
 49
0.0
 49
0.0
 49
1.0
175
     0
142
0.0208333333333333
142
0.0
142
0.0
142
0.0
142
0.0
142
0.0208333333333333
142
0.0
142
0.0
142
0.0
142
0.0
142
1.0
142
0.0
142
0.0
142
0.0
142
0.0
142
1.0
179
     0
144
0.0208333333333333
144
0.0
144
0.0
144
0.0
144
0.0
144
0.0208333333333333
144
0.0
144
0.0
144
0.0
144
0.0
144
1.0
144
0.0
144
0.0
144
0.0
144
0.0
144
1.0
147
0.0208333333333333
147
0.0
147
0.0
147
0.0
147
0.0
147
0.0208333333333333
147
0.0
147
0.0
147
0.0
147
0.0
147
1.0
147
0.0
147
0.0
147
0.0
147
0.0
147
1.0
  0
MATERIAL
  5
8456
102
{ACAD_XDICTIONARY
360
8457
102
}
102
{ACAD_REACTORS
330
8455
102
}
330
8455
100
AcDbMaterial
  1
ByLayer
 72
     0
 43
0.0208333333333333
 43
0.0
 43
0.0
 43
0.0
 43
0.0
 43
0.0208333333333333
 43
0.0
 43
0.0
 43
0.0
 43
0.0
 43
1.0
 43
0.0
 43
0.0
 43
0.0
 43
0.0
 43
1.0
 77
     0
 47
0.0208333333333333
 47
0.0
 47
0.0
 47
0.0
 47
0.0
 47
0.0208333333333333
 47
0.0
 47
0.0
 47
0.0
 47
0.0
 47
1.0
 47
0.0
 47
0.0
 47
0.0
 47
0.0
 47
1.0
171
     0
 49
0.0208333333333333
 49
0.0
 49
0.0
 49
0.0
 49
0.0
 49
0.0208333333333333
 49
0.0
 49
0.0
 49
0.0
 49
0.0
 49
1.0
 49
0.0
 49
0.0
 49
0.0
 49
0.0
 49
1.0
175
     0
142
0.0208333333333333
142
0.0
142
0.0
142
0.0
142
0.0
142
0.0208333333333333
142
0.0
142
0.0
142
0.0
142
0.0
142
1.0
142
0.0
142
0.0
142
0.0
142
0.0
142
1.0
179
     0
144
0.0208333333333333
144
0.0
144
0.0
144
0.0
144
0.0
144
0.0208333333333333
144
0.0
144
0.0
144
0.0
144
0.0
144
1.0
144
0.0
144
0.0
144
0.0
144
0.0
144
1.0
147
0.0208333333333333
147
0.0
147
0.0
147
0.0
147
0.0
147
0.0208333333333333
147
0.0
147
0.0
147
0.0
147
0.0
147
1.0
147
0.0
147
0.0
147
0.0
147
0.0
147
1.0
  0
MATERIAL
  5
8466
102
{ACAD_XDICTIONARY
360
8467
102
}
102
{ACAD_REACTORS
330
8455
102
}
330
8455
100
AcDbMaterial
  1
Global
 72
     0
 43
0.0208333333333333
 43
0.0
 43
0.0
 43
0.0
 43
0.0
 43
0.0208333333333333
 43
0.0
 43
0.0
 43
0.0
 43
0.0
 43
1.0
 43
0.0
 43
0.0
 43
0.0
 43
0.0
 43
1.0
 77
     0
 47
0.0208333333333333
 47
0.0
 47
0.0
 47
0.0
 47
0.0
 47
0.0208333333333333
 47
0.0
 47
0.0
 47
0.0
 47
0.0
 47
1.0
 47
0.0
 47
0.0
 47
0.0
 47
0.0
 47
1.0
171
     0
 49
0.0208333333333333
 49
0.0
 49
0.0
 49
0.0
 49
0.0
 49
0.0208333333333333
 49
0.0
 49
0.0
 49
0.0
 49
0.0
 49
1.0
 49
0.0
 49
0.0
 49
0.0
 49
0.0
 49
1.0
175
     0
142
0.0208333333333333
142
0.0
142
0.0
142
0.0
142
0.0
142
0.0208333333333333
142
0.0
142
0.0
142
0.0
142
0.0
142
1.0
142
0.0
142
0.0
142
0.0
142
0.0
142
1.0
179
     0
144
0.0208333333333333
144
0.0
144
0.0
144
0.0
144
0.0
144
0.0208333333333333
144
0.0
144
0.0
144
0.0
144
0.0
144
1.0
144
0.0
144
0.0
144
0.0
144
0.0
144
1.0
147
0.0208333333333333
147
0.0
147
0.0
147
0.0
147
0.0
147
0.0208333333333333
147
0.0
147
0.0
147
0.0
147
0.0
147
1.0
147
0.0
147
0.0
147
0.0
147
0.0
147
1.0
  0
MLEADERSTYLE
  5
84AB
102
{ACAD_REACTORS
330
84AA
102
}
330
84AA
100
AcDbMLeaderStyle
170
     2
171
     1
172
     0
 90
        2
 40
0.0
 41
0.0
173
     1
 91
-1056964608
340
849F
 92
       -2
290
     1
 42
0.09
291
     1
 43
0.36
  3
Standard
 44
0.18
300

342
849A
174
     1
178
     6
175
     1
176
     0
 93
-1056964608
 45
0.18
292
     0
297
     0
 46
0.18
 94
-1056964608
 47
1.0
 49
1.0
140
1.0
293
     1
141
0.0
294
     1
177
     0
142
1.0
295
     0
296
     0
143
0.125
1001
ACAD_MLEADERVER
1070
     2
  0
MLINESTYLE
  5
84A4
102
{ACAD_REACTORS
330
84A3
102
}
330
84A3
100
AcDbMlineStyle
  2
STANDARD
 70
     0
  3

 62
   256
 51
90.0
 52
90.0
 71
     2
 49
0.5
 62
   256
  6
BYLAYER
 49
-0.5
 62
   256
  6
BYLAYER
  0
ACDBPLACEHOLDER
  5
8454
102
{ACAD_REACTORS
330
8453
102
}
330
8453
  0
SCALE
  5
8488
102
{ACAD_REACTORS
330
8487
102
}
330
8487
100
AcDbScale
 70
     0
300
1:1
140
1.0
141
1.0
290
     1
  0
SCALE
  5
8489
102
{ACAD_REACTORS
330
8487
102
}
330
8487
100
AcDbScale
 70
     0
300
1/128" = 1'-0"
140
0.0078125
141
12.0
290
     0
  0
SCALE
  5
848A
102
{ACAD_REACTORS
330
8487
102
}
330
8487
100
AcDbScale
 70
     0
300
1/64" = 1'-0"
140
0.015625
141
12.0
290
     0
  0
SCALE
  5
848B
102
{ACAD_REACTORS
330
8487
102
}
330
8487
100
AcDbScale
 70
     0
300
1/32" = 1'-0"
140
0.03125
141
12.0
290
     0
  0
SCALE
  5
848C
102
{ACAD_REACTORS
330
8487
102
}
330
8487
100
AcDbScale
 70
     0
300
1/16" = 1'-0"
140
0.0625
141
12.0
290
     0
  0
SCALE
  5
848D
102
{ACAD_REACTORS
330
8487
102
}
330
8487
100
AcDbScale
 70
     0
300
3/32" = 1'-0"
140
0.09375
141
12.0
290
     0
  0
SCALE
  5
848E
102
{ACAD_REACTORS
330
8487
102
}
330
8487
100
AcDbScale
 70
     0
300
1/8" = 1'-0"
140
0.125
141
12.0
290
     0
  0
SCALE
  5
848F
102
{ACAD_REACTORS
330
8487
102
}
330
8487
100
AcDbScale
 70
     0
300
3/16" = 1'-0"
140
0.1875
141
12.0
290
     0
  0
SCALE
  5
8490
102
{ACAD_REACTORS
330
8487
102
}
330
8487
100
AcDbScale
 70
     0
300
1/4" = 1'-0"
140
0.25
141
12.0
290
     0
  0
SCALE
  5
8491
102
{ACAD_REACTORS
330
8487
102
}
330
8487
100
AcDbScale
 70
     0
300
3/8" = 1'-0"
140
0.375
141
12.0
290
     0
  0
SCALE
  5
8492
102
{ACAD_REACTORS
330
8487
102
}
330
8487
100
AcDbScale
 70
     0
300
1/2" = 1'-0"
140
0.5
141
12.0
290
     0
  0
SCALE
  5
8493
102
{ACAD_REACTORS
330
8487
102
}
330
8487
100
AcDbScale
 70
     0
300
3/4" = 1'-0"
140
0.75
141
12.0
290
     0
  0
SCALE
  5
8494
102
{ACAD_REACTORS
330
8487
102
}
330
8487
100
AcDbScale
 70
     0
300
1" = 1'-0"
140
1.0
141
12.0
290
     0
  0
SCALE
  5
8495
102
{ACAD_REACTORS
330
8487
102
}
330
8487
100
AcDbScale
 70
     0
300
1-1/2" = 1'-0"
140
1.5
141
12.0
290
     0
  0
SCALE
  5
8496
102
{ACAD_REACTORS
330
8487
102
}
330
8487
100
AcDbScale
 70
     0
300
3" = 1'-0"
140
3.0
141
12.0
290
     0
  0
SCALE
  5
8497
102
{ACAD_REACTORS
330
8487
102
}
330
8487
100
AcDbScale
 70
     0
300
6" = 1'-0"
140
6.0
141
12.0
290
     0
  0
SCALE
  5
8498
102
{ACAD_REACTORS
330
8487
102
}
330
8487
100
AcDbScale
 70
     0
300
1'-0" = 1'-0"
140
12.0
141
12.0
290
     0
  0
ACDBSECTIONVIEWSTYLE
  5
84AD
102
{ACAD_XDICTIONARY
360
889D
102
}
102
{ACAD_REACTORS
330
84AC
102
}
330
84AC
100
AcDbModelDocViewStyle
 70
     0
  3
Imperial24
290
     0
100
AcDbSectionViewStyle
 70
     0
 71
     0
 90
       78
 71
     1
340
849A
 40
0.24
340
0
340
0
 40
0.24
300
I, O, Q, S, X, Z
 40
0.48
 90
        3
 40
0.18
 90
        1
 71
     2
340
84A1
 90
       25
340
84A1
 90
       50
 40
0.24
 40
0.0
 40
0.24
 71
     3
340
849A
 40
0.24
 90
        1
 40
0.75
 90
        1
300
%<\AcVar ViewType \f "%tc1">% %<\AcVar ViewSectionStartId>%-%<\AcVar ViewSectionEndId>%\PSCALE %<\AcVar ViewScale \f "%sn">%
 71
     4
300
ANSI31
 40
1.0
 90
        0
290
     0
290
     0
 90
        6
 40
0.0
 40
1.570796326794896
 40
0.2617993877991494
 40
1.308996938995747
 40
-0.2617993877991494
 40
1.832595714594046
  0
TABLESTYLE
  5
84A9
102
{ACAD_XDICTIONARY
360
8864
102
}
102
{ACAD_REACTORS
330
84A8
102
}
330
84A8
100
AcDbTableStyle
  3
Standard
 70
     0
 71
     0
 40
0.06
 41
0.06
280
     0
281
     0
  7
STANDARD
140
0.18
170
     2
 62
     0
 63
     7
283
     0
274
    -2
284
     1
 64
     0
275
    -2
285
     1
 65
     0
276
    -2
286
     1
 66
     0
277
    -2
287
     1
 67
     0
278
    -2
288
     1
 68
     0
279
    -2
289
     1
 69
     0
  7
STANDARD
140
0.25
170
     5
 62
     0
 63
     7
283
     0
274
    -2
284
     1
 64
     0
275
    -2
285
     1
 65
     0
276
    -2
286
     1
 66
     0
277
    -2
287
     1
 67
     0
278
    -2
288
     1
 68
     0
279
    -2
289
     1
 69
     0
  7
STANDARD
140
0.18
170
     5
 62
     0
 63
     7
283
     0
274
    -2
284
     1
 64
     0
275
    -2
285
     1
 65
     0
276
    -2
286
     1
 66
     0
277
    -2
287
     1
 67
     0
278
    -2
288
     1
 68
     0
279
    -2
289
     1
 69
     0
  0
VISUALSTYLE
  5
8474
102
{ACAD_XDICTIONARY
360
8875
102
}
102
{ACAD_REACTORS
330
846E
102
}
330
846E
100
AcDbVisualStyle
  2
2dWireframe
 70
     4
 71
     0
 72
     2
 73
     0
 90
        0
 40
-0.6
 41
-30.0
 62
     5
 63
     7
 74
     1
 91
        4
 64
     7
 65
   257
 75
     1
175
     1
 42
1.0
 92
        0
 66
   257
 43
1.0
 76
     1
 77
     6
 78
     2
 67
     7
 79
     5
170
     0
171
     0
290
     0
174
     0
 93
        1
 44
0.0
173
     0
291
     0
 45
0.0
1001
ACAD
1000
AcDbSavedByObjectVersion
1070
     0
  0
VISUALSTYLE
  5
8473
102
{ACAD_XDICTIONARY
360
8873
102
}
102
{ACAD_REACTORS
330
846E
102
}
330
846E
100
AcDbVisualStyle
  2
Basic
 70
     7
 71
     1
 72
     0
 73
     1
 90
        0
 40
-0.6
 41
-30.0
 62
     5
 63
     7
 74
     0
 91
        4
 64
     7
 65
   257
 75
     1
175
     1
 42
1.0
 92
        8
 66
     7
 43
1.0
 76
     1
 77
     6
 78
     2
 67
     7
 79
     5
170
     0
171
     0
290
     0
174
     0
 93
        1
 44
0.0
173
     0
291
     1
 45
0.0
1001
ACAD
1000
AcDbSavedByObjectVersion
1070
     0
  0
VISUALSTYLE
  5
847A
102
{ACAD_XDICTIONARY
360
8881
102
}
102
{ACAD_REACTORS
330
846E
102
}
330
846E
100
AcDbVisualStyle
  2
Brighten
 70
    12
 71
     2
 72
     2
 73
     0
 90
        0
 40
-0.6
 41
-30.0
 62
     5
 63
     7
 74
     1
 91
        4
 64
     7
 65
   257
 75
     1
175
     1
 42
1.0
 92
        8
 66
     7
 43
1.0
 76
     1
 77
     6
 78
     2
 67
     7
 79
     5
170
     0
171
     0
290
     0
174
     0
 93
        1
 44
50.0
173
     0
291
     1
 45
0.0
1001
ACAD
1000
AcDbSavedByObjectVersion
1070
     0
  0
VISUALSTYLE
  5
847E
102
{ACAD_XDICTIONARY
360
8889
102
}
102
{ACAD_REACTORS
330
846E
102
}
330
846E
100
AcDbVisualStyle
  2
ColorChange
 70
    16
 71
     2
 72
     2
 73
     3
 90
        0
 40
-0.6
 41
-30.0
 62
     5
 63
     8
 74
     1
 91
        4
 64
     7
 65
   257
 75
     1
175
     1
 42
1.0
 92
        8
 66
     8
 43
1.0
 76
     1
 77
     6
 78
     2
 67
     7
 79
     5
170
     0
171
     0
290
     0
174
     0
 93
        1
 44
0.0
173
     0
291
     1
 45
0.0
1001
ACAD
1000
AcDbSavedByObjectVersion
1070
     0
  0
VISUALSTYLE
  5
8477
102
{ACAD_XDICTIONARY
360
887B
102
}
102
{ACAD_REACTORS
330
846E
102
}
330
846E
100
AcDbVisualStyle
  2
Conceptual
 70
     9
 71
     3
 72
     2
 73
     0
 90
        0
 40
-0.6
 41
-30.0
 62
     5
 63
     7
 74
     2
 91
        2
 64
     7
 65
   257
 75
     1
175
     1
 42
179.0
 92
        8
 66
     7
 43
1.0
 76
     1
 77
     6
 78
     2
 67
     7
 79
     3
170
     0
171
     0
290
     0
174
     0
 93
        1
 44
0.0
173
     0
291
     0
 45
0.0
1001
ACAD
1000
AcDbSavedByObjectVersion
1070
     0
  0
VISUALSTYLE
  5
8479
102
{ACAD_XDICTIONARY
360
887F
102
}
102
{ACAD_REACTORS
330
846E
102
}
330
846E
100
AcDbVisualStyle
  2
Dim
 70
    11
 71
     2
 72
     2
 73
     0
 90
        0
 40
-0.6
 41
-30.0
 62
     5
 63
     7
 74
     1
 91
        4
 64
     7
 65
   257
 75
     1
175
     1
 42
1.0
 92
        8
 66
     7
 43
1.0
 76
     1
 77
     6
 78
     2
 67
     7
 79
     5
170
     0
171
     0
290
     0
174
     0
 93
        1
 44
-50.0
173
     0
291
     1
 45
0.0
1001
ACAD
1000
AcDbSavedByObjectVersion
1070
     0
  0
VISUALSTYLE
  5
8486
102
{ACAD_XDICTIONARY
360
8899
102
}
102
{ACAD_REACTORS
330
846E
102
}
330
846E
100
AcDbVisualStyle
  2
EdgeColorOff
 70
    22
 71
     2
 72
     2
 73
     0
 90
        0
 40
-0.6
 41
-30.0
 62
     5
 63
     7
 74
     1
 91
        4
 64
     7
 65
   257
 75
     1
175
     1
 42
1.0
 92
        8
 66
     7
 43
1.0
 76
     1
 77
     6
 78
     2
 67
     7
 79
     5
170
     0
171
     0
290
     0
174
     0
 93
        1
 44
0.0
173
     0
291
     1
 45
0.0
1001
ACAD
1000
AcDbSavedByObjectVersion
1070
     0
  0
VISUALSTYLE
  5
847D
102
{ACAD_XDICTIONARY
360
8887
102
}
102
{ACAD_REACTORS
330
846E
102
}
330
846E
100
AcDbVisualStyle
  2
Facepattern
 70
    15
 71
     2
 72
     2
 73
     0
 90
        0
 40
-0.6
 41
-30.0
 62
     5
 63
     7
 74
     1
 91
        4
 64
     7
 65
   257
 75
     1
175
     1
 42
1.0
 92
        8
 66
     7
 43
1.0
 76
     1
 77
     6
 78
     2
 67
     7
 79
     5
170
     0
171
     0
290
     0
174
     0
 93
        1
 44
0.0
173
     0
291
     1
 45
0.0
1001
ACAD
1000
AcDbSavedByObjectVersion
1070
     0
  0
VISUALSTYLE
  5
846F
102
{ACAD_XDICTIONARY
360
886B
102
}
102
{ACAD_REACTORS
330
846E
102
}
330
846E
100
AcDbVisualStyle
  2
Flat
 70
     0
 71
     2
 72
     1
 73
     1
 90
        2
 40
-0.6
 41
30.0
 62
     5
 63
     7
 74
     0
 91
        0
 64
     7
 65
   257
 75
     1
175
     1
 42
1.0
 92
        8
 66
     7
 43
1.0
 76
     1
 77
     6
 78
     2
 67
     7
 79
     5
170
     0
171
     0
290
     0
174
     0
 93
       13
 44
0.0
173
     0
291
     1
 45
0.0
1001
ACAD
1000
AcDbSavedByObjectVersion
1070
     0
  0
VISUALSTYLE
  5
8470
102
{ACAD_XDICTIONARY
360
886D
102
}
102
{ACAD_REACTORS
330
846E
102
}
330
846E
100
AcDbVisualStyle
  2
FlatWithEdges
 70
     1
 71
     2
 72
     1
 73
     1
 90
        2
 40
-0.6
 41
30.0
 62
     5
 63
     7
 74
     1
 91
        0
 64
     7
 65
   257
 75
     1
175
     1
 42
1.0
 92
        0
 66
   257
 43
1.0
 76
     1
 77
     6
 78
     2
 67
     7
 79
     5
170
     0
171
     0
290
     0
174
     0
 93
       13
 44
0.0
173
     0
291
     1
 45
0.0
1001
ACAD
1000
AcDbSavedByObjectVersion
1070
     0
  0
VISUALSTYLE
  5
8471
102
{ACAD_XDICTIONARY
360
886F
102
}
102
{ACAD_REACTORS
330
846E
102
}
330
846E
100
AcDbVisualStyle
  2
Gouraud
 70
     2
 71
     2
 72
     2
 73
     1
 90
        2
 40
-0.6
 41
30.0
 62
     5
 63
     7
 74
     0
 91
        0
 64
     7
 65
   257
 75
     1
175
     1
 42
1.0
 92
        0
 66
     7
 43
1.0
 76
     1
 77
     6
 78
     2
 67
     7
 79
     5
170
     0
171
     0
290
     0
174
     0
 93
       13
 44
0.0
173
     0
291
     1
 45
0.0
1001
ACAD
1000
AcDbSavedByObjectVersion
1070
     0
  0
VISUALSTYLE
  5
8472
102
{ACAD_XDICTIONARY
360
8871
102
}
102
{ACAD_REACTORS
330
846E
102
}
330
846E
100
AcDbVisualStyle
  2
GouraudWithEdges
 70
     3
 71
     2
 72
     2
 73
     1
 90
        2
 40
-0.6
 41
30.0
 62
     5
 63
     7
 74
     1
 91
        0
 64
     7
 65
   257
 75
     1
175
     1
 42
1.0
 92
        0
 66
   257
 43
1.0
 76
     1
 77
     6
 78
     2
 67
     7
 79
     5
170
     0
171
     0
290
     0
174
     0
 93
       13
 44
0.0
173
     0
291
     1
 45
0.0
1001
ACAD
1000
AcDbSavedByObjectVersion
1070
     0
  0
VISUALSTYLE
  5
8476
102
{ACAD_XDICTIONARY
360
8879
102
}
102
{ACAD_REACTORS
330
846E
102
}
330
846E
100
AcDbVisualStyle
  2
Hidden
 70
     6
 71
     1
 72
     2
 73
     2
 90
        0
 40
-0.6
 41
-30.0
 62
     5
 63
     7
 74
     2
 91
        2
 64
     7
 65
   257
 75
     2
175
     1
 42
40.0
 92
        0
 66
   257
 43
1.0
 76
     1
 77
     6
 78
     2
 67
     7
 79
     3
170
     0
171
     0
290
     0
174
     0
 93
        1
 44
0.0
173
     0
291
     0
 45
0.0
1001
ACAD
1000
AcDbSavedByObjectVersion
1070
     0
  0
VISUALSTYLE
  5
8484
102
{ACAD_XDICTIONARY
360
8895
102
}
102
{ACAD_REACTORS
330
846E
102
}
330
846E
100
AcDbVisualStyle
  2
JitterOff
 70
    20
 71
     2
 72
     2
 73
     0
 90
        0
 40
-0.6
 41
-30.0
 62
     5
 63
     7
 74
     1
 91
        4
 64
     7
 65
   257
 75
     1
175
     1
 42
1.0
 92
       10
 66
     7
 43
1.0
 76
     1
 77
     6
 78
     2
 67
     7
 79
     5
170
     0
171
     0
290
     0
174
     0
 93
        1
 44
0.0
173
     0
291
     1
 45
0.0
1001
ACAD
1000
AcDbSavedByObjectVersion
1070
     0
  0
VISUALSTYLE
  5
847C
102
{ACAD_XDICTIONARY
360
8885
102
}
102
{ACAD_REACTORS
330
846E
102
}
330
846E
100
AcDbVisualStyle
  2
Linepattern
 70
    14
 71
     2
 72
     2
 73
     0
 90
        0
 40
-0.6
 41
-30.0
 62
     5
 63
     7
 74
     1
 91
        4
 64
     7
 65
   257
 75
     7
175
     7
 42
1.0
 92
        8
 66
     7
 43
1.0
 76
     1
 77
     6
 78
     2
 67
     7
 79
     5
170
     0
171
     0
290
     0
174
     0
 93
        1
 44
0.0
173
     0
291
     1
 45
0.0
1001
ACAD
1000
AcDbSavedByObjectVersion
1070
     0
  0
VISUALSTYLE
  5
8485
102
{ACAD_XDICTIONARY
360
8897
102
}
102
{ACAD_REACTORS
330
846E
102
}
330
846E
100
AcDbVisualStyle
  2
OverhangOff
 70
    21
 71
     2
 72
     2
 73
     0
 90
        0
 40
-0.6
 41
-30.0
 62
     5
 63
     7
 74
     1
 91
        4
 64
     7
 65
   257
 75
     1
175
     1
 42
1.0
 92
        9
 66
     7
 43
1.0
 76
     1
 77
     6
 78
     2
 67
     7
 79
     5
170
     0
171
     0
290
     0
174
     0
 93
        1
 44
0.0
173
     0
291
     1
 45
0.0
1001
ACAD
1000
AcDbSavedByObjectVersion
1070
     0
  0
VISUALSTYLE
  5
8478
102
{ACAD_XDICTIONARY
360
887D
102
}
102
{ACAD_REACTORS
330
846E
102
}
330
846E
100
AcDbVisualStyle
  2
Realistic
 70
     8
 71
     2
 72
     3
 73
     0
 90
        2
 40
-0.6
 41
30.0
 62
     5
 63
     7
 74
     0
 91
        0
 64
     7
 65
   257
 75
     1
175
     1
 42
1.0
 92
        8
 66
   257
 43
1.0
 76
     1
 77
     6
 78
     2
 67
     7
 79
     3
170
     0
171
     0
290
     0
174
     0
 93
       13
 44
0.0
173
     0
291
     0
 45
0.0
1001
ACAD
1000
AcDbSavedByObjectVersion
1070
     0
  0
VISUALSTYLE
  5
8483
102
{ACAD_XDICTIONARY
360
8893
102
}
102
{ACAD_REACTORS
330
846E
102
}
330
846E
100
AcDbVisualStyle
  2
Shaded
 70
    27
 71
     2
 72
     2
 73
     1
 90
        2
 40
-0.6
 41
30.0
 62
     5
 63
     7
 74
     0
 91
        4
 64
     7
 65
   257
 75
     1
175
     1
 42
1.0
 92
        8
 66
   257
 43
1.0
 76
     1
 77
     6
 78
     2
 67
     8
 79
     3
170
     0
171
     0
290
     0
174
     0
 93
        5
 44
0.0
173
     0
291
     0
 45
0.0
1001
ACAD
1000
AcDbSavedByObjectVersion
1070
     0
  0
VISUALSTYLE
  5
8482
102
{ACAD_XDICTIONARY
360
8891
102
}
102
{ACAD_REACTORS
330
846E
102
}
330
846E
100
AcDbVisualStyle
  2
Shaded with edges
 70
    26
 71
     2
 72
     2
 73
     1
 90
        2
 40
-0.6
 41
30.0
 62
     5
 63
     7
 74
     1
 91
       10
 64
     7
 65
   257
 75
     2
175
     1
 42
1.0
 92
        8
 66
   257
 43
1.0
 76
     1
 77
     6
 78
     2
 67
     7
 79
     3
170
     0
171
     0
290
     0
174
     0
 93
        5
 44
0.0
173
     0
291
     0
 45
0.0
1001
ACAD
1000
AcDbSavedByObjectVersion
1070
     0
  0
VISUALSTYLE
  5
847F
102
{ACAD_XDICTIONARY
360
888B
102
}
102
{ACAD_REACTORS
330
846E
102
}
330
846E
100
AcDbVisualStyle
  2
Shades of Gray
 70
    23
 71
     2
 72
     2
 73
     3
 90
        0
 40
-0.6
 41
-30.0
 62
     5
 63
     7
 74
     2
 91
        2
 64
     7
 65
     7
 75
     1
175
     1
 42
40.0
 92
        8
 66
     7
 43
1.0
 76
     1
 77
     6
 78
     2
 67
     7
 79
     3
170
     0
171
     0
290
     0
174
     0
 93
        1
 44
0.0
173
     0
291
     0
 45
0.0
1001
ACAD
1000
AcDbSavedByObjectVersion
1070
     0
  0
VISUALSTYLE
  5
8480
102
{ACAD_XDICTIONARY
360
888D
102
}
102
{ACAD_REACTORS
330
846E
102
}
330
846E
100
AcDbVisualStyle
  2
Sketchy
 70
    24
 71
     1
 72
     2
 73
     2
 90
        0
 40
-0.6
 41
-30.0
 62
     5
 63
     7
 74
     2
 91
        2
 64
     7
 65
     7
 75
     1
175
     1
 42
40.0
 92
       11
 66
     7
 43
1.0
 76
     1
 77
     6
 78
     2
 67
     7
 79
     6
170
     0
171
     0
290
     0
174
     0
 93
        1
 44
0.0
173
     0
291
     0
 45
0.0
1001
ACAD
1000
AcDbSavedByObjectVersion
1070
     0
  0
VISUALSTYLE
  5
847B
102
{ACAD_XDICTIONARY
360
8883
102
}
102
{ACAD_REACTORS
330
846E
102
}
330
846E
100
AcDbVisualStyle
  2
Thicken
 70
    13
 71
     2
 72
     2
 73
     0
 90
        0
 40
-0.6
 41
-30.0
 62
     5
 63
     7
 74
     1
 91
        4
 64
     7
 65
   257
 75
     1
175
     1
 42
1.0
 92
       12
 66
     7
 43
1.0
 76
     1
 77
     6
 78
     2
 67
     7
 79
     5
170
     0
171
     0
290
     0
174
     0
 93
        1
 44
0.0
173
     0
291
     1
 45
0.0
1001
ACAD
1000
AcDbSavedByObjectVersion
1070
     0
  0
VISUALSTYLE
  5
8475
102
{ACAD_XDICTIONARY
360
8877
102
}
102
{ACAD_REACTORS
330
846E
102
}
330
846E
100
AcDbVisualStyle
  2
Wireframe
 70
     5
 71
     0
 72
     2
 73
     0
 90
        0
 40
-0.6
 41
-30.0
 62
     5
 63
     7
 74
     1
 91
        4
 64
     7
 65
   257
 75
     1
175
     1
 42
1.0
 92
        0
 66
   257
 43
1.0
 76
     1
 77
     6
 78
     2
 67
     7
 79
     3
170
     0
171
     0
290
     0
174
     0
 93
        1
 44
0.0
173
     0
291
     0
 45
0.0
1001
ACAD
1000
AcDbSavedByObjectVersion
1070
     0
  0
VISUALSTYLE
  5
8481
102
{ACAD_XDICTIONARY
360
888F
102
}
102
{ACAD_REACTORS
330
846E
102
}
330
846E
100
AcDbVisualStyle
  2
X-Ray
 70
    25
 71
     2
 72
     2
 73
     1
 90
        1
 40
0.5
 41
-30.0
 62
     5
 63
     7
 74
     1
 91
        0
 64
     7
 65
   257
 75
     1
175
     1
 42
1.0
 92
        8
 66
     7
 43
1.0
 76
     1
 77
     6
 78
     2
 67
     7
 79
     3
170
     0
171
     0
290
     0
174
     0
 93
       13
 44
0.0
173
     0
291
     0
 45
0.0
1001
ACAD
1000
AcDbSavedByObjectVersion
1070
     0
  0
DICTIONARYVAR
  5
881D
102
{ACAD_REACTORS
330
8818
102
}
330
8818
100
DictionaryVariables
280
     0
  1
1:1
  0
DICTIONARYVAR
  5
881A
102
{ACAD_REACTORS
330
8818
102
}
330
8818
100
DictionaryVariables
280
     0
  1
STANDARD
  0
DICTIONARYVAR
  5
8819
102
{ACAD_REACTORS
330
8818
102
}
330
8818
100
DictionaryVariables
280
     0
  1
STANDARD
  0
DICTIONARYVAR
  5
881B
102
{ACAD_REACTORS
330
8818
102
}
330
8818
100
DictionaryVariables
280
     0
  1
Imperial24
  0
DICTIONARYVAR
  5
881C
102
{ACAD_REACTORS
330
8818
102
}
330
8818
100
DictionaryVariables
280
     0
  1
Imperial24
  0
DICTIONARYVAR
  5
8820
102
{ACAD_REACTORS
330
8818
102
}
330
8818
100
DictionaryVariables
280
     0
  1
1
  0
DICTIONARYVAR
  5
881F
102
{ACAD_REACTORS
330
8818
102
}
330
8818
100
DictionaryVariables
280
     0
  1
0
  0
DICTIONARYVAR
  5
881E
102
{ACAD_REACTORS
330
8818
102
}
330
8818
100
DictionaryVariables
280
     0
  1
127
  0
DICTIONARYVAR
  5
8821
102
{ACAD_REACTORS
330
8818
102
}
330
8818
100
DictionaryVariables
280
     0
  1
2
  0
DICTIONARY
  5
889F
330
84AF
100
AcDbDictionary
280
     1
281
     1
  3
ACAD_XREC_ROUNDTRIP
360
88A0
  0
DICTIONARY
  5
88A3
330
84B7
100
AcDbDictionary
280
     1
281
     1
  3
ACAD_XREC_ROUNDTRIP
360
88A4
  0
DICTIONARY
  5
88A1
330
84B3
100
AcDbDictionary
280
     1
281
     1
  3
ACAD_XREC_ROUNDTRIP
360
88A2
  0
DICTIONARY
  5
845F
330
845E
100
AcDbDictionary
280
     1
281
     1
  3
ACAD_XREC_ROUNDTRIP
360
8869
  3
BUMPTILE
360
8461
  3
DIFFUSETILE
360
8460
  3
OPACITYTILE
360
8464
  3
REFLECTIONTILE
360
8463
  3
REFRACTIONTILE
360
8465
  3
SPECULARTILE
360
8462
  0
DICTIONARY
  5
8457
330
8456
100
AcDbDictionary
280
     1
281
     1
  3
ACAD_XREC_ROUNDTRIP
360
8868
  3
BUMPTILE
360
8459
  3
DIFFUSETILE
360
8458
  3
OPACITYTILE
360
845C
  3
REFLECTIONTILE
360
845B
  3
REFRACTIONTILE
360
845D
  3
SPECULARTILE
360
845A
  0
DICTIONARY
  5
8467
330
8466
100
AcDbDictionary
280
     1
281
     1
  3
ACAD_XREC_ROUNDTRIP
360
886A
  3
BUMPTILE
360
8469
  3
DIFFUSETILE
360
8468
  3
FBXASSET
360
84FC
  3
OPACITYTILE
360
846C
  3
REFLECTIONTILE
360
846B
  3
REFRACTIONTILE
360
846D
  3
SPECULARTILE
360
846A
  0
DICTIONARY
  5
889D
330
84AD
100
AcDbDictionary
280
     1
281
     1
  3
ACAD_XREC_ROUNDTRIP
360
889E
  0
DICTIONARY
  5
8864
330
84A9
100
AcDbDictionary
280
     1
281
     1
  3
ACAD_ROUNDTRIP_2008_TABLESTYLE_CELLSTYLEMAP
360
8865
  3
ACAD_XREC_ROUNDTRIP
360
889B
  0
DICTIONARY
  5
8875
330
8474
100
AcDbDictionary
280
     1
281
     1
  3
ACAD_XREC_ROUNDTRIP
360
8876
  0
DICTIONARY
  5
8873
330
8473
100
AcDbDictionary
280
     1
281
     1
  3
ACAD_XREC_ROUNDTRIP
360
8874
  0
DICTIONARY
  5
8881
330
847A
100
AcDbDictionary
280
     1
281
     1
  3
ACAD_XREC_ROUNDTRIP
360
8882
  0
DICTIONARY
  5
8889
330
847E
100
AcDbDictionary
280
     1
281
     1
  3
ACAD_XREC_ROUNDTRIP
360
888A
  0
DICTIONARY
  5
887B
330
8477
100
AcDbDictionary
280
     1
281
     1
  3
ACAD_XREC_ROUNDTRIP
360
887C
  0
DICTIONARY
  5
887F
330
8479
100
AcDbDictionary
280
     1
281
     1
  3
ACAD_XREC_ROUNDTRIP
360
8880
  0
DICTIONARY
  5
8899
330
8486
100
AcDbDictionary
280
     1
281
     1
  3
ACAD_XREC_ROUNDTRIP
360
889A
  0
DICTIONARY
  5
8887
330
847D
100
AcDbDictionary
280
     1
281
     1
  3
ACAD_XREC_ROUNDTRIP
360
8888
  0
DICTIONARY
  5
886B
330
846F
100
AcDbDictionary
280
     1
281
     1
  3
ACAD_XREC_ROUNDTRIP
360
886C
  0
DICTIONARY
  5
886D
330
8470
100
AcDbDictionary
280
     1
281
     1
  3
ACAD_XREC_ROUNDTRIP
360
886E
  0
DICTIONARY
  5
886F
330
8471
100
AcDbDictionary
280
     1
281
     1
  3
ACAD_XREC_ROUNDTRIP
360
8870
  0
DICTIONARY
  5
8871
330
8472
100
AcDbDictionary
280
     1
281
     1
  3
ACAD_XREC_ROUNDTRIP
360
8872
  0
DICTIONARY
  5
8879
330
8476
100
AcDbDictionary
280
     1
281
     1
  3
ACAD_XREC_ROUNDTRIP
360
887A
  0
DICTIONARY
  5
8895
330
8484
100
AcDbDictionary
280
     1
281
     1
  3
ACAD_XREC_ROUNDTRIP
360
8896
  0
DICTIONARY
  5
8885
330
847C
100
AcDbDictionary
280
     1
281
     1
  3
ACAD_XREC_ROUNDTRIP
360
8886
  0
DICTIONARY
  5
8897
330
8485
100
AcDbDictionary
280
     1
281
     1
  3
ACAD_XREC_ROUNDTRIP
360
8898
  0
DICTIONARY
  5
887D
330
8478
100
AcDbDictionary
280
     1
281
     1
  3
ACAD_XREC_ROUNDTRIP
360
887E
  0
DICTIONARY
  5
8893
330
8483
100
AcDbDictionary
280
     1
281
     1
  3
ACAD_XREC_ROUNDTRIP
360
8894
  0
DICTIONARY
  5
8891
330
8482
100
AcDbDictionary
280
     1
281
     1
  3
ACAD_XREC_ROUNDTRIP
360
8892
  0
DICTIONARY
  5
888B
330
847F
100
AcDbDictionary
280
     1
281
     1
  3
ACAD_XREC_ROUNDTRIP
360
888C
  0
DICTIONARY
  5
888D
330
8480
100
AcDbDictionary
280
     1
281
     1
  3
ACAD_XREC_ROUNDTRIP
360
888E
  0
DICTIONARY
  5
8883
330
847B
100
AcDbDictionary
280
     1
281
     1
  3
ACAD_XREC_ROUNDTRIP
360
8884
  0
DICTIONARY
  5
8877
330
8475
100
AcDbDictionary
280
     1
281
     1
  3
ACAD_XREC_ROUNDTRIP
360
8878
  0
DICTIONARY
  5
888F
330
8481
100
AcDbDictionary
280
     1
281
     1
  3
ACAD_XREC_ROUNDTRIP
360
8890
  0
XRECORD
  5
88A0
102
{ACAD_REACTORS
330
889F
102
}
330
889F
100
AcDbXrecord
280
     1
102
DISPLAYNAME
  1
Imperial24
102
FLAGS
 90
        0
  0
XRECORD
  5
88A4
102
{ACAD_REACTORS
330
88A3
102
}
330
88A3
100
AcDbXrecord
280
     1
102
SHADEPLOT
 70
     0
102
SHADEPLOTRESLEVEL
 70
     2
102
SHADEPLOTCUSTOMDPI
 70
   300
  0
XRECORD
  5
88A2
102
{ACAD_REACTORS
330
88A1
102
}
330
88A1
100
AcDbXrecord
280
     1
102
SHADEPLOT
 70
     0
102
SHADEPLOTRESLEVEL
 70
     2
102
SHADEPLOTCUSTOMDPI
 70
   300
  0
XRECORD
  5
8869
102
{ACAD_REACTORS
330
845F
102
}
330
845F
100
AcDbXrecord
280
     1
102
MATERIAL
148
0.0
149
0.0
149
0.0
 93
        0
 94
      127
282
     0
 72
     0
 77
     0
171
     0
175
     0
179
     0
273
     0
  0
XRECORD
  5
8461
102
{ACAD_REACTORS
330
845F
102
}
330
845F
100
AcDbXrecord
280
     1
270
     1
271
     1
  0
XRECORD
  5
8460
102
{ACAD_REACTORS
330
845F
102
}
330
845F
100
AcDbXrecord
280
     1
270
     1
271
     1
  0
XRECORD
  5
8464
102
{ACAD_REACTORS
330
845F
102
}
330
845F
100
AcDbXrecord
280
     1
270
     1
271
     1
  0
XRECORD
  5
8463
102
{ACAD_REACTORS
330
845F
102
}
330
845F
100
AcDbXrecord
280
     1
270
     1
271
     1
  0
XRECORD
  5
8465
102
{ACAD_REACTORS
330
845F
102
}
330
845F
100
AcDbXrecord
280
     1
270
     1
271
     1
  0
XRECORD
  5
8462
102
{ACAD_REACTORS
330
845F
102
}
330
845F
100
AcDbXrecord
280
     1
270
     1
271
     1
  0
XRECORD
  5
8868
102
{ACAD_REACTORS
330
8457
102
}
330
8457
100
AcDbXrecord
280
     1
102
MATERIAL
148
0.0
149
0.0
149
0.0
 93
        0
 94
      127
282
     0
 72
     0
 77
     0
171
     0
175
     0
179
     0
273
     0
  0
XRECORD
  5
8459
102
{ACAD_REACTORS
330
8457
102
}
330
8457
100
AcDbXrecord
280
     1
270
     1
271
     1
  0
XRECORD
  5
8458
102
{ACAD_REACTORS
330
8457
102
}
330
8457
100
AcDbXrecord
280
     1
270
     1
271
     1
  0
XRECORD
  5
845C
102
{ACAD_REACTORS
330
8457
102
}
330
8457
100
AcDbXrecord
280
     1
270
     1
271
     1
  0
XRECORD
  5
845B
102
{ACAD_REACTORS
330
8457
102
}
330
8457
100
AcDbXrecord
280
     1
270
     1
271
     1
  0
XRECORD
  5
845D
102
{ACAD_REACTORS
330
8457
102
}
330
8457
100
AcDbXrecord
280
     1
270
     1
271
     1
  0
XRECORD
  5
845A
102
{ACAD_REACTORS
330
8457
102
}
330
8457
100
AcDbXrecord
280
     1
270
     1
271
     1
  0
XRECORD
  5
886A
102
{ACAD_REACTORS
330
8467
102
}
330
8467
100
AcDbXrecord
280
     1
102
MATERIAL
148
0.0
149
0.0
149
0.0
 93
        0
 94
      127
282
     0
 72
     0
 77
     0
171
     0
175
     0
179
     0
273
     0
  0
XRECORD
  5
8469
102
{ACAD_REACTORS
330
8467
102
}
330
8467
100
AcDbXrecord
280
     1
270
     1
271
     1
  0
XRECORD
  5
8468
102
{ACAD_REACTORS
330
8467
102
}
330
8467
100
AcDbXrecord
280
     1
270
     1
271
     1
  0
XRECORD
  5
84FC
102
{ACAD_REACTORS
330
8467
102
}
330
8467
100
AcDbXrecord
280
     1
 70
     1
 90
1959938040
 71
     1
  1
2D8763A7-E0C2-4AA6-9163-BB925FE3B953
311
504B03041400060808009C75745726C63317D7000000200100004F00000036363339393344432D313134322D344236382D383642302D3933454531464343464331352F4173736574446174612F446566696E6974696F6E4974657261746F7250726F706572746965732E62696EEB606060F80F0540260323103700495E20ED
311
9E9A975A94991C9C9C919A9BC8C00612C9C94F4ACC6147C831019920AE4B6A5A62694E0948976F6671726A4E4E625E6A7E69B12042A9426E6209D0B8C41C3D90264E20860914834C48875806B2DF0F88414E02D189290556F689C5C5A925B6FA694915FA166EE6E666C68E46BA066E2E4EBA264EA6AEBA4EAEAE06BA166E4E
311
C66E0616CE064E2ECEFA45A9C5F9A545C9A9C5FA46FA06F15093E30BF2D283221DEB0C19188280D6B330BCDF9715AE15501CCE55A107B4C825BD3966A7C1CC4D402612D80700504B03041400060808009C7574574016FD8E03010000300200004500000036363339393344432D313134322D344236382D383642302D393345
311
4531464343464331352F4173736574446174612F496E7374616E636550726F706572746965732E62696EEB606060F80F0540260323103700495E20ED9E9A975A94991C9C9C919A9BA802143072B13037337634D775357036D235717434D3B5343433D67572B2343275733576B23435664768046931363471713532B5D43535
311
3131D635313332D475727372D13534373670367376B67474B5042A03DBCBA019D37FE8ABC6157B20CD04146B0062181F4C03F940F0C11EA29A8141C08141002C0426541C106CAC2CA046088033B02A030AC2157C6006F21A8018AAF50194E6010A610250382264E08660284CD9E98021862280A91564B406929A0FF62C401E
311
28B6F88038B83CB1243943D7A928312F25350524C3C0A0DD70F56A83369809E6AC0A85B251645054A1A983A947A601504B03041400060808009C75745728BB58AF800100009E0500003D00000036363339393344432D313134322D344236382D383642302D3933454531464343464331352F536368656D61732F436F6D6D6F
311
6E536368656D612E786D6CBD544D4FC23018BEFB2B96DE15493C78601010A34B880709DEDFB52FD0D8B54BD70DF6EFED3AC0B12E6442E2716BFB3CEFF3D18E26FB440405EA8C2B1992E1C323095052C5B8DC842437EBFB673219DF8DA659866649B798C078B48AE6410122242F2A4994AC7F93815DF85C049C8564CA0A9014
311
99DD886B2EB9B1E02448F358701A9235880C49A0119892A20C89D1B9FD768815CAD268CB5E0355B40B1E47F3E37A2020464BED06AA57CE8FCC20C3C3446D46761A2632A8C1283D07031EFF2AE7CCB1BFEEE916E406DFAC8E36FFD99A9D60A6944090EEDC3B670C7DC13DE86B6B2C5C240D6E503BB85ACD579D513F1B9F9A69
311
DC9CC22AFA80C426D40AF0B21EA168559156B6276F0F726A6BFF04DCD513A87A62CAD41FB24FCB2858B3952E3D852084DA25B9303C15687973CC8E8AAE11DF2836C38C6A9E765E8C1BA1BFB1DC29CDFE518C8B5A7655A4ED7E77291ABEB80DBD82EC866ADE1B8D05AF9E35CF09D7A061F38A986D9EC412B8F0F65E5D81534D
311
9B231D1E5A8FE577A241F3A5FD01504B03041400060808009C7574572CCEBD668A040000E01200003E00000036363339393344432D313134322D344236382D383642302D3933454531464343464331352F536368656D61732F47656E65726963536368656D612E786D6CD5586D6FDB380CFE7EBF42F0F7A649B70E1B907448
311
56B4970F450FCD7A5F05459613EDE4174872DADCAF3F522F8ED3B88D2F1D06AC4050DBA2493EE4438AF2F8EB73AEC8466823CB62928C06C384888297A92C5693A4B6D9D9E7E4EBD51FE3A931C22EF85AE4EC6AFC38BF261BA626C9AD288496DC3F4FCEAFC63366845F7A10452AF41DB320C0D44EC26EAB2091873556558269
311
5670811A6A49643A49A6E9069FA4604A64B29016DC4B48552F95E4932463CA888468C1D2B250DB4962750DF7CE273069CE8363F1FF4EDB00E0A21999574AE4A2B00C353B93F3BD4777B8A61ED8F604ABFEDD79CE56A2B7BDFBDBC50996E0ADDE16FED26223C5D30956C29BDF4A55EA686E5E58B112DA45CE67F76F4FA27EFA
311
3FB672FD7372FC388FAECDCA5209E693CAD167BADCD272F943701B3812F8A3D852008B1D2E32DB927B2F833C6EA95879925356D254582695095A3CE982924720BE5774A3CB9CDCDB350427D2DF20DA1B5532EBE2D5D6288D75D4F7E4FD9890A0EF8E3D93EBB8F8BA4758158EF6FB90A6F9520281C93DE7AAC6D24607DA296B
311
B96018123F821A7D6A5C5884050C475DA4865442732C8B95684A50165CBB3A32F25F783A4A480ED59AD7F924B968AEA50131F46303223E6A397B0E52976030DC1DCA81D7E7C1EDEEA42C19FF27635C505E2BD5198A599020DF50A2330FCB3AAF28CB0124108429553EF1B228802E2265D8F7CC2401042B155BCC7070F1E5C5
311
5F13B4A9577362CCCE46C32174E010C3C378C44841A4BDA00FE3A12006CE11EE6AEC59894D3526DDE1CD59D503ECC324017F8061B7F162162FA62EDD81AE3308617770796DCBDAD2B2625C5AE8A63DE20B2C8AA5E95E76E5730823955956E33E705425A2187C185D36489A1B44D3DCEC2172F6BA2105C3546287A7194B2331
311
768EBBE64F6E70A9930ABE0ADEA89E9E2C38523B810287AD67A54A039C1606EAFE68F8304610BB9093DBDDABC0B2AE4E290DCDA15376D7E39F72B556F0B32EAB5D3D498B4C41ABADEC3A1434C422D87E8025A84BDCB2B1417ED750FAE4DA8976863974C577C7F902D3F156AD354DEA3540DE6BEAE2BEA52F7A2EB4CA43802E
311
CE5BF2CE2EDC9347179FFB023CE412E60BE16DA0BE29B374988A553F561DC04615DD35F7D2C8979F60E5955CE93DF29DED8AFA1EE6642D53418086C03C47C377910F75F7E8F5EF665F70B60FFB22AEDF897D119E8423C773E819A3C1E55E550599EE6EDCA34D0C86FD72057DF2CD46F16A470682471C164E4346D5306BF12D
311
7D12D82CFF673D41636C347443FEB51B50D72EA171A8E4A58623A4A16E0FA2B8B10A0D23268D87C33896EE8FB73305A74BF224EDBADFA0BD674AB354D63DB7BD5D83426761C077DE767728235446A552754EB93B755891C3C4CC6CADE37CF0E912A7BB38DBA010F9DE1282EDF470CA69A9CDA482E334C4A6EA4107987980B1
311
7E72F31730EBF88BBD39E7C629F56797A3C0009C2C5AE7951D9A05A02773440F02EEB4DE396A3B6A570C72CCFBCD823B0B8ED3F1D5CEDDFED772FA70236C83FB7D86C385D570B87107535572A60A96035F8F7C6A7192F13007246BBE0521855E6AC46F3E27689CEE7D186A6FD679D98CDCAD13333E04EBE7ED6F55FF01504B
311
03041400060808009C7574576180134D5F0100006B0300004500000036363339393344432D313134322D344236382D383642302D3933454531464343464331352F536368656D61732F52656E6465724D6174657269616C536368656D612E786D6CA5934D6FC2300C86EFFB1551EEE343DBA41D1A103009551ADAD40EAE28A4
311
A68D9426284961FCFBE5A340113B2071746D3F765EBF4DC6BFB5407BD0862B49F0B037C0082453059725C18DDD3EBFE3F1E829991803366715D474942CD30FB4A782E00C64017A412D684E454CE3FE28995203B162A6EA5AC94B66997D225E109CD63B0135484BAD1B3C07E9080CA35DB3119C11BCA5C200461A68A1A43812
311
6C75E3E230D40FF81FB3F03C91D1E3A3A0AF79FE28E25BC39EC3E17E4C2A2D94A0833A51AF55BCCA7D88572FCBAC529C4140B020FC3AAFA886621DCED7EAD7664CC86024E806DC297DA1BB393E4156543457A4537DB8817349A70F8ACBF09B3EEE2CB2F33E91B65D60786E4E3B39B77E3FEEEF5650424525DA657FB8B46BE6
311
BF064646F0A0F7327C0BC1BC1B4CBBC1C419FA3CCB23500007872A2580CAAE5461865565294E4EDB4617B62FF579DF9A5B2F54E834076A597573A020912FED777F9B3F504B03041400060808009C757457970E3FD051000000570000004700000036363339393344432D313134322D344236382D383642302D393345453146
311
4343464331352F4173736574446174612F41737365745461626C654F66436F6E74656E74732E62696E536160603072B13037337634D775357036D235717434D3B5343433D67572B2343275733576B234351602AACB4D2C492DCA4CCC492C28484D2C4ACC4B4E050A82012F90744FCD03CA26072767A4E6260200504B030414
311
00060808009C757457F865834058000000680000004500000036363339393344432D313134322D344236382D383642302D3933454531464343464331352F4173736574446174612F53747265616D56657273696F6E5461626C652E696E66558CBD0A80300C06F73E4B117FB66E451741D041DC5BF98480A492E4FDD18EAEC7
311
DD4555D89EF28DF51A0B1BD8340C4DE7DD848B988C0ACF0649566493F2408C508DDEBB99D5129FF8F1AF8CF5B9503E20FAE5A16B5AF702504B03041400060808009C757457EEE9ECF2350100009A0400003600000036363339393344432D313134322D344236382D383642302D3933454531464343464331352F4173736574
311
446174612F636E782E786D6CCD94314FC3301085FF4AE43D76120A4295E30AC1D209242A06B6AB7369AD3A76645F10FC7BEC3603A888A943D7F3BBF3F327BF93ABCFC1161F18A2F1AE6535AF58814EFBCEB85DCB26EACB7B56AC940CDED30F192B1C0CD8B25C664AEE829FC6B9D4610F93CD556BDC612E3EC488B481ADC5E7
311
FED13B42479115DA428C2D8B7A8F037098C877180FBC03025EF380D14F41639A4466C079920E08841D534DD5DC94755D36D5A65E2C178BE5EDDDBB1459A9E4D67B3BEB4DBA2CF8B1D0A75B99AAA4C8C74A4EC1CC9AFC16A6FEF2C8B7C64991944A460A89C9DC415F63EA8071B446032574C26B422A93086190E22456526406
311
BF483C616F9CC92DEB640CC88797640F0319BC3A22FF79BD3C99B58B044EE3F5F2387778790AAFC71FF4760AE43131D796937387DCB8FE022911C735924293B78AFA06504B03041400060808009C7574572EFC194D090100004F0300003400000036363339393344432D313134322D344236382D383642302D393345453146
311
4343464331352F536368656D61732F636E782E786D6CCD93BD4E042114855F6542BF30338EC66C18B6B0B0B2512B3B84BBBB64813BE1C7E8DB0B23C56E62A7C57670F842CE395CF8EED3D9EE034234E86732D09E74E0156AE30F33C969BFB927DD4EF08098CE30D279E960265526821F02E6A5491AF632DBAA5AE34F4D7C40
311
E7D0BFA82338493A65658C3389EB96CA9C50433C512D93A4030D10310705E586641CB41B540099401331F6E3CD66183663FF3A4CDB69DADEDEBD715649C1DF116DE38D4F1070E91496852F767ACEEAB1E03998C6D40C449C7BA3A50DCE0A21784CA174D0C8F4B514522E8B354AA652155BC11F467056A35E047E040FC1A8EB
311
4C7C61EEDF223F83D7109ECA2B0523ED7526FFCDE3DF0A60EBEC9711A85F417C03504B03041400060808009C757457410A3D5871000000A40000002C00000036363339393344432D313134322D344236382D383642302D3933454531464343464331352F636E782E786D6C55CC4D0E82301086E1AB34B31774E7A22D31F106
311
9E60020334B633A63FC6E34B0909B07DDE2F9FEE7EC1AB2FC5E4840DDC9A2B28E25E06C7938192C7CB1D54677514C9871928C640062A83D55394F2D968A0118BAFEA1DBF377CA444F98919176EAB9FEAAB9F2960DA5BBB1E2ED3FA6FFF504B03041400060808009C7574572805E1107E000000A300000007000000636E782E
311
786D6C4D8CD10AC22018465F45FE7B6BE612057530DBDE63343724A761337AFC3476D1D50787EF1CD97D368FDE36BD5C0C0AC8A90164C33DCE2EAC0AF2BE600EA8D332C5B8FFDD008569B30A2A062DD714F3F340B35DA6EC2BF52E3C0EC8181582DE0C26A4BDE0B6671C73D63758D06120A331A321D7629CAB52E6D72B5BF3
311
FA0B504B03041400060808009C75745716E99B5DA600000035010000130000005B436F6E74656E745F54797065735D2E786D6C9590410E82301045AFD2740F4517C6180A0BF5065E60AC53688469D30E066F6F91AD9AB89CF9FFFD3F99BA9DC7413C3026E749CB4D59498164FCCD51A7E5C4B6D84BD136F5E5193089ECA5A4
311
65CF1C0E4A25D3E308A9F401292BD6C711388FB15301CC1D3A54DBAADA29E38991B8E0254336F5092D4C038BF39CD76B6FC6A538AEBEA54A4B08617006389FA516557DE4AE8E7E70DE30729138228C5F021CD93F02D4FB0DCD0B504B03041400060808009C7574573DEE336E64000000790000001B0000006175746F646573
311
6B2D64657369676E2D7061636B6167652E786D6C35CBC10E83200C00D05F21DCA56CA76D41FC96062B120735B69A7DBE268BB7777961F8D5AF396893C2ADB70FE7ADA196782C2DF776D7A97B5933C430F15651E5469C55D70F80A4992A3ADC954792C525AE70A1E4D6AD9816CC044FEFDF01FE3FDE907802504B0304140006
311
0808009C757457A18A1351F8000000960100003700000036363339393344432D313134322D344236382D383642302D3933454531464343464331352F4173736574446174612F636F72652E786D6C8550CB6E833010FC15B477030643D3C8380AB2F8829E7AB38C43AD041BF951F5F36B072AB5A79E76353B33BB3BF4F2B53E
311
8A4FE5BCB666005CD6502823EDACCD32400C377482E2C2A8B336FCA24161C4AA06C83030BA381BB70392D60465326AECAC0E5078AF0214F2919A01BCFC50AB28450C89E1EFE526E45D2CAAC4E5CE6334463D1F523D27377DD3CA017B193B3291D711F51D3F21D2F01A5D27CED1D47282793F75633FD12A8B190D7AFDD92E9D
311
1241CDC09ABA6911C6A8A9DF30391372EEFA775A6526A33EB8F4F3B1347F07EC9AAFE622085AEDD33FAE719BFF778DDA84B6395C77850786D391CF01A3554E29956784A9E644D937504B03041400060808009C757457989B15E1F7000000940100003500000036363339393344432D313134322D344236382D383642302D39
311
33454531464343464331352F536368656D61732F636F72652E786D6C8550CB6E833010FC15B477030643D3C8382AB2F881F6D49B651C6A25D8C88FAA9F5F3B50A93DF5B4ABD999D9DDA197AFF55E7C2AE7B53503E0B286421969676D960162B8A2131417469DB5E1170D0A235635408681D1C5D9B81D90B426289351636775
311
80C27B15A090F7D40CE0E5875A452962480C7F2B37216F6251252E771EA331EAF990EA39B9E9AB560ED8D3D891893C8FA8EFF8099186D7E865E21C4D2D2798F75337F613ADB298D1A0D79FEDD22911D40CACA99B16618C9AFA0D933321E7AE7FA7556632EA834B3F1F4BF377C05E1F777A5AEDB33F9E719BFFF78CDA84B639
311
3C77850786D3898F01A355CE28954780A9E63CD937504B03041400060808009C7574570B5FFDA9FF000000D70100002D00000036363339393344432D313134322D344236382D383642302D3933454531464343464331352F636F72652E786D6C9551416EC32010FC8AB5776C633B96136122C54D5ED0536F14360E4A0C16E0
311
AACF2FD4AEDADEDA136898996566D9F17D7A646FE8BCB6A6079A9790A191566933F6B0842BE9203B72E6AC0D3F68901931610F0906CE4667977983A435014D428D55B881C27B0C90C947BCF4E0E50D27918B254486BFE7B3907731624EF395C759D0D397543A140115F0AAAC6A4229A9CA67DA1C9AE6B06B5F5891989C2DDA
311
84BADA86E1F48A2AB373889180EF58B1BE46D6A2D5C6D12AFE515F353AE06D5BEFF7F5D310CD9B8A34A7B6235D7B2AC9BE3E9FE965182E034D2651CC990F2E36B399A40EFE2A5F85BF922DB3FA67B255E181D3EF5045AA99B3E27307F14C2BE11F504B03041400060808009C75745796FB551807010000B201000008000000
311
636F72652E786D6C8D50C16E842014FC15F2EEA828DAED06D9D418BFA0A7DEA8B096AC8201DCB47F5F586DD2DE7A7A6466DE9B61D8E57399D15D39AFAD698164052065462BB5995AD8C2159F005D3873D6865F3240462CAA8504036793B3DB7A40A3354199841A2BD5010AEF550034CEF1D1821F3FD42232B185A8F0B76C15
311
E34D4C2A23D9AEE32CE8E56775744A04258197455961427059BC127AA6F45C376F2C4F4ACEB64DCBC34ACBE8AEAF5A39E04F5D4D07FADCE1A6EE4F98967D815F86BEC743D553D23743DD3503CBD332673EB8F8E7E348CC199017F7E4CBF29DE2ECDDDAF910C4501259337F012F589E883FA1B755FE23B436A12A8F83FB8607
311
4E62A007118D5383713CEA8D33B5CDBF01504B010214001400060808009C75745726C63317D7000000200100004F000000000000000000000000000000000036363339393344432D313134322D344236382D383642302D3933454531464343464331352F4173736574446174612F446566696E6974696F6E4974657261746F
311
7250726F706572746965732E62696E504B010214001400060808009C7574574016FD8E030100003002000045000000000000000000000000004401000036363339393344432D313134322D344236382D383642302D3933454531464343464331352F4173736574446174612F496E7374616E636550726F706572746965732E
311
62696E504B010214001400060808009C75745728BB58AF800100009E0500003D00000000000000000000000000AA02000036363339393344432D313134322D344236382D383642302D3933454531464343464331352F536368656D61732F436F6D6D6F6E536368656D612E786D6C504B010214001400060808009C7574572C
311
CEBD668A040000E01200003E000000000000000000000000008504000036363339393344432D313134322D344236382D383642302D3933454531464343464331352F536368656D61732F47656E65726963536368656D612E786D6C504B010214001400060808009C7574576180134D5F0100006B0300004500000000000000
311
0000000000006B09000036363339393344432D313134322D344236382D383642302D3933454531464343464331352F536368656D61732F52656E6465724D6174657269616C536368656D612E786D6C504B010214001400060808009C757457970E3FD0510000005700000047000000000000000000000000002D0B00003636
311
3339393344432D313134322D344236382D383642302D3933454531464343464331352F4173736574446174612F41737365745461626C654F66436F6E74656E74732E62696E504B010214001400060808009C757457F865834058000000680000004500000000000000000000000000E30B000036363339393344432D313134
311
322D344236382D383642302D3933454531464343464331352F4173736574446174612F53747265616D56657273696F6E5461626C652E696E66504B010214001400060808009C757457EEE9ECF2350100009A04000036000000000000000000000000009E0C000036363339393344432D313134322D344236382D383642302D
311
3933454531464343464331352F4173736574446174612F636E782E786D6C504B010214001400060808009C7574572EFC194D090100004F0300003400000000000000000000000000270E000036363339393344432D313134322D344236382D383642302D3933454531464343464331352F536368656D61732F636E782E786D
311
6C504B010214001400060808009C757457410A3D5871000000A40000002C00000000000000000000000000820F000036363339393344432D313134322D344236382D383642302D3933454531464343464331352F636E782E786D6C504B010214001400060808009C7574572805E1107E000000A30000000700000000000000
311
0000000000003D100000636E782E786D6C504B010214001400060808009C75745716E99B5DA6000000350100001300000000000000000000000000E01000005B436F6E74656E745F54797065735D2E786D6C504B010214001400060808009C7574573DEE336E64000000790000001B00000000000000000000000000B71100
311
006175746F6465736B2D64657369676E2D7061636B6167652E786D6C504B010214001400060808009C757457A18A1351F80000009601000037000000000000000000000000005412000036363339393344432D313134322D344236382D383642302D3933454531464343464331352F4173736574446174612F636F72652E78
311
6D6C504B010214001400060808009C757457989B15E1F7000000940100003500000000000000000000000000A113000036363339393344432D313134322D344236382D383642302D3933454531464343464331352F536368656D61732F636F72652E786D6C504B010214001400060808009C7574570B5FFDA9FF000000D701
311
00002D00000000000000000000000000EB14000036363339393344432D313134322D344236382D383642302D3933454531464343464331352F636F72652E786D6C504B010214001400060808009C75745796FB551807010000B2010000080000000000000000000000000035160000636F72652E786D6C504B050600000000
311
110011005A060000621700000000
310
504B03041400060808009C757457000000000000000000000000370000006662782F32303637333439442D373530302D343139442D423841302D4636313934453945463943442F617474726962757465732E62696E504B03041400060808009C757457000000000000000000000000350000006662782F3230363733343944
310
2D373530302D343139442D423841302D4636313934453945463943442F76657274696365732E62696E504B03041400060808009C757457F270F1330600000004000000360000006662782F32303637333439442D373530302D343139442D423841302D4636313934453945463943442F747269616E676C65732E62696E6366
310
60600000504B03041400060808009C75745751464CB48900000043010000360000006662782F32303637333439442D373530302D343139442D423841302D4636313934453945463943442F6469726563746F72792E786D6C9D8F310EC2300C45AF127987122606C71DD918B841D4B851A43646695A717C52A85029031293A5
310
A76FBF6FACEF7DA7264E43906840EF0FA03836E242F406C6DCEE4EA06AC22492573150D1F66C60C640E8938CB705396EEDD86DE9B5042FE27813D640EA63BB001C722AF6E55CB61E4863F58284D5D3F53DD715CE1C3985E63FD7F1B7EBDD617E9F1E504B03041400060808009C7574575669847F38070000201C0000340000
310
006662782F32303637333439442D373530302D343139442D423841302D4636313934453945463943442F6F626A656374732E786D6CDD596D6FE23810FE2B56EECBDD87BC11A0B0A2AC0A94155A7577B5684FF72D32C1505FF3263B69E9FDFA1B3B76484280746F575A5D2BB5D475C633CFCC3C339E4CDE1FA2103D13C66912
310
DF1AAEE51888C441B2A5F1FED6C8B39D3932D0FB299AB024C92AFB0C14E388DC1A62D9984EF62CC953B5B4253B9C87CDD5E5EC2FC4031213030521E6FCD6E0C12389B085F32CD912FE646D7186ADFDEE60B956B1B12E76CF70FAD8382AC58CC419A80AEB3148511AB8F53FC1247B3AB1C586DAB65EB76DDE856DB634BCAE28
310
8D7986E3E044AB869C5E37AD3CB7BFB8EF0DC6E6A0DFF7CCFEB0E79AB3E56C61BA379E331FCEE7E3BBFBB181A6934D9284A50352126FC18BAFC6D49DD8E23FA5F90A8536BD83248E49A0D06CDBB0254A2E25BC89490D58579A567148616B65C1EB68FC996D9D40A9A954435B1BA77F57A337D9FC0D20F02E51CA381151CE33
310
06BE56D817F9E04CEC62B5E617CA518433C2280E5148370C3370106C2D1C541323B24588420233E9452DAFAA2B04F6F55C6AD3729787A1C85F632A33CD877C2419979AD17F083B6A5F3D0D74026B731A6723656CF69A8288F1C4968BC5FFBC9EFA670124DA85780FD102668A4D5EAF81D75C70C16A614C3F2E3787B5E087F6
310
C35396A4846522F26432ABBCD31EAC8416045F07500A5CEBBE3BA2F215A0FF04C897BAA009788ED143FFD0D7B6331CF35DC222F00E7290E9C00F07898F279F2676F9F014A11A579EC314D2F607615A33A3767605D2E9E419823E619E326E1DE01062FA81C622CF21505098C012F0FD6E7330A62B20535884A77008D6C3F7C4
310
161F11FC2AE400DF343CD446BF1D1CA513A69967475F7D80986134285D55B3F11CBE831F82EFDD62FD719DB31D0EC8834AEC05D9D19866504CDB15AA815E4BF96FAB4F32234FECA9ED0AE09C7D2288A3C52F6BE517241D03AA883A5CB846AE3C5048F730C4314972AED6DB882A48C284F99B57BFC8E1D6B3FED441501C06F9
310
2D22A095CCA0BA078CA6021463AACC2B99D03AE224785005E0BE70AABFC1C19380D70F80B1BE470F885ACC9A42F328F57194E4B1A0EFD3F06E9A66798EFC72DD71CF19F746E3A136964BF13A7B343594CA8B73229C9E39645EF396620D2DB9C8A33EB0659B0501F44C79E627290E68D61E0B0D23548602D81755DED2DD2EE7
310
40EAADB03434B63C77809CCACFF290CBDAAB437C1AE13DF1775854B8D6F36A0095C2B505ADC8ECC384731A132E3B9413E66AA0E258400445DC6AA92D4148B91F910C7F4FFCC992D7083F4676A10FBD5426BAD9EBD1A71554D5F39C44D1B925B12FED7FF5398ED2B0E8D2AE61E0F61A27B4E22A9416473C43BCF938F39D2D91
310
4DF735E9252F687C3B491F7FB7F833F030FCD3E1D1475068BDA1465EF7AC6B0DDCB1F81A01A90C07AE77A31D710D2B7D54267A903087AE2978F55F08DD3F7623B44EE77012EE7C1A8679E417F5202311B46038CB59A77C1D0E9C13E72B5E682444E5A41D0DA141EE4C9AB2F7D0DD0758259B8F73A45939068CA231DCD13A19
310
7262456B084B5FC8FBA8B8765DF7FEDBA5FE67BEACDE539EC8EB4BC2B6AD9AD6DB08DD81E98641D0A5AA70651C49C9D34935F9227971B98E435F0B51FC56DC12548430F24CC56042DE805AEF0FFC05670110E95AFE366790115BB23DF61435716ACC614CE1502D4DF7A9D59B0E909D281FB5C66B250835826903163CFB203E
310
845F31B81A3A3F6EABAEC62ED657A2B059305839EA7141D6E70FEB861458E9FCF417811179694850AB73D1C85D10F56D75EC571B129445DF56171ECF1EF36813632A2AA3080BBC4DDFBD9777C95B1B2E0AF668797333F4EE7AA6B35CCCCCFE6C706FCEEEEF1D73B49C794B673477668BB9CD084F7216106EF76CC7D7BD531A
310
EF756014D075B951C054E1FAD54FC773D3C1FFE31B45986CF0B958FC552F1465BB271AB2462E76BD50B412F5E66DDDBF7B42D4ED45EC4D9D73312BD0017EB96C0119E97ADFBDB5D0A27527D1AE73A522BEB1F09EBDADFCF41A5323F4D6FA50DBD146F9752E86D9534B95D2B75BC96BBDC548F0D88D79EFCC7B66FFEE6E688E
310
DDA167CE66E3DE6079EFCDC603AF445CD5C2AE75E597E050AD6C658C06D3609E841486F2648BF624811B104C1D3AF02B8B0897371B68005419D76F043A3CFD5CCC5433BC09F5D3C12386C174A82A721EC050146E1DB7865A47BFC118544C22E570CA7A82C2A3A2DD4039A3B706844046A1BE581B1867C9E1A194DE185782DB
310
70BC1777A6E2A9F2EFE363021D8895A35DE59E2EB828CB6AD109C38154BE2700B6D30DC9F79BAED54138838F9B3C2B8D392E1CAD5120E81702857130F57B52F01E80782EDBE55A724F0D924E93F98B7150483533CCF672BC5EC1FB6EF1C51693F1D5679486F95EB8F352BDAF4932459F11E6C5106A0281A1CC4CB1B887CFDF
310
D95F5802AF9822B4A41004E8F7C368F8873D4FA228898B25FB4EBDA842EB4778EDB4B5F5C80F1A17C71DD8B2EF51637D985B7162E12D7F8205702DA362365A405C0B80929E2A01A03D227C018FD5F6AF164815814A0B5B6D5D053C72A68F2091C4BB1C9136D50D950124E4026855CC69CB0F7A61623318824FFF05504B0304
310
1400060808009C757457FA69A0BF3E01000046050000300000006662782F32303637333439442D373530302D343139442D423841302D4636313934453945463943442F636E782E786D6CCD94C14E032110865F8570DF65B756631A96261E7C020FC61BCB4E572C0B1B188C7D7BA1D2AA31351E9AD81B19FE49FE6FE6CFF0F5
310
DB64C82BF8A09DED685B379480556ED076EC68C44D754BC95A70EF1C7E915162E5041DCD652AF8E85D9C4B69808D8C26578DB6DB5294885EF7112150A28C0CA1A3413DC3246B19D10D10B6F52051D66DED21B8E815A47ED413947EE541220C542C9AC555D5B6D5A2796897ABE572757DF3C459560ADE3B678A5E5B04EF66A2
310
5C7AD864A6E12C7F0B1EBD2E9A4C40C5A7B3BAD796B3F42F78486EED5874B89BB36E9E8D5612D398985308582511C889B30FB1E02CF37EA3BEBF7B3C382083F6A0D0F9DD3F0DA03D3580A3B13A25E16FFC7BE1EFD8AE7F49B8FFB5ED93B0C5D6D9500F690D29AE3FF79F5224ED682E2FF44763E7CF7C3A25A8D5E5211F7C9D
310
8998ED4F5E5A7ABE80E21D504B03041400060808009C757457215B16EF7E000000A30000000B0000006662782F636E782E786D6C4D8CD10E822018855F85FDF71824A96C80ABD4F770898E89D0485A8F1F342FBAFACEBE9D7344FBD92C7AEBF032DE49A00501A4DDC34FC62D12E23EE30650AB44F07EFFAB0172E3A625640D
310
4A2CC1C7E7A1263D8FD1666B8D5B0F7926555D32DEE1FA42086634A55B732578A828673DEF077EEFD2E2942709BFBFC47CAFBE504B03041400060808009C757457A6D797065F0000008200000007000000636E782E786D6C4DCB3B0E80201045D1AD90E9FD7516806B51190811670C8A61F982B1B0BAC9C97B72CA7B1037C6
310
D3332918DA1E04D2CAC69353902EDB8C20262D23F3F59B81A079470595414B17391D1F19B4730A5583A7ED43BBE4025D9592775E5ADFFA01504B03041400060808009C7574574FEB6A7CA0000000F4000000130000005B436F6E74656E745F54797065735D2E786D6C7D8F4B0EC2300C44AF1279DFA6B0400835ED02B80117
310
30C16D239A8F121795DB93D02D6269CFBC19BBED573B8B17C564BC53B0AB1B10E4B47F18372A5878A88E20FAAEBDBD032591BD2E299898C349CAA427B2986A1FC86565F0D122E7318E32A07EE24872DF3407A9BD63725C71C980AEBDD080CBCCE2BAE6F5D69B7110E7CD57AA146008B3D1C8F92C5954F993BB1BF787F39A89
310
ABC491D09600F9FDA2FB00504B03041400060808009C7574573DEE336E64000000790000001B0000006175746F6465736B2D64657369676E2D7061636B6167652E786D6C35CBC10E83200C00D05F21DCA56CA76D41FC96062B120735B69A7DBE268BB7777961F8D5AF396893C2ADB70FE7ADA196782C2DF776D7A97B5933C4
310
30F15651E5469C55D70F80A4992A3ADC954792C525AE70A1E4D6AD9816CC044FEFDF01FE3FDE907802504B03041400060808009C757457F0B9BE47F7000000960100003B0000006662782F32303637333439442D373530302D343139442D423841302D4636313934453945463943442F7265736F75726365732F636F72652E
310
786D6C8550CB6E84300CFC15E47B80F0125A85AC8A285FD0536F51F0D2689704E551F5F39B2C546A4F3DD91ACF8CED61D7AFED917DA275CAE801685E42865A9A45E97580E06FA487ECCA9935C6FFA241A6C586032418385BAD09FB0949A33DEA846AB3E0090AE7D043261FB119C0C90FDC442E828F0C77CF7721EF62C59CE6
310
078FB310D4724AD512DDD44DA105DE352F7DDDD09974F47522CDD877A49FDA914C7D5D8F73D94E332D5991C49C79B5FD6C971685C70578555635A19454E51B6D2E4D7369BB7756242667CEDBF8F3B9347D07DCA233C14A74AC38A67F5CC3BEFCEF1A94F67575BA1E0A079CC6239F03CE8A94522CCF08634D89F26F504B0304
310
1400060808009C75745710DF9A37F1000000B1010000310000006662782F32303637333439442D373530302D343139442D423841302D4636313934453945463943442F636F72652E786D6C8D50CB6EC32010FC158B3B36D8E4E10813B54DF2053DF58660E3A2C460F1A8FAF985D895DA5B4EBB1A6698D9E1C7EFE95E7D810F
310
C6D901D19AA00AAC72DAD87140295EF11E5547C1BD73F10F0D55564E30A00223C147EFD2BC42CAD908B6A0D669584119024454A97B5E0614D4274CB296296646B8D5B3543739424DEB85277834D3AF5479901134122D693B4C296EC93B6507C60E9BED076F0A53F0948C5EAD8CCEEEE66AC017C976D7B1FE84771B4230A379
310
7BDDBF107CD9D29E9DFBF3A57F3BF1A688050FD1E79BD74FCA75CFCA17E1BFCC69D64F64363676ED6AB828021234E7793C08DE9402F378B49B67295BFC00504B03041400060808009C757457CAC64E5B53010000DD0200000C0000006662782F636F72652E786D6C8D52DB6E842014FC15C33B2AEA1AB34136DDD8FD823EF5
310
8D45D612150C82D9CF2F7889F5A1DBC604C99C7366CE4CC09767DF0513D7A350B204288C41C02553B5904D09AC79C002041782B552E6471B0824ED79093C0C086EB4B2C30A31250D971E95AAE62B48C7911B10B0CE5D4A30B22FDED3905AE33AC6361C286B69C343142E7D045B2BEA7554D48E4D3C04D780E4D95B9166E806
310
73F45EC1EC5AE4B0A84E575815697ABDC5A7EA86621CF961828DE83775A63935BC0624899314220493F80365E72C3B9FF24F1CF94E8247A39DE755D4BB03E4717FE268C10F7C76A8FFE6B3429A3459F996891110E4D69B0B04473E1FF79BC33B66E8845D7E86DEBBCD42EBA08933A374E62AB5B27B69A29DE58E3A0EE60F47
310
4BD531CF04BFF1242F785E73B8A0A86CDC6AD4B8EBDD1AAF7EDC69E01A4EE61948A57BDAEDCB2D2BEEE72E74B0B48D33D529FD9FE9CDEA1666E41F26F906504B03041400060808009C7574579047CA4405010000B201000008000000636F72652E786D6C8D504B6EC32010BD0A9A3DB6F14F5684896AB93E4157DD51431C14
310
1B2C03517BFB4242A576D7D5A037EFC7D0F3E7B6A2BB3CAC32BA07921580A49E8D507AE9C1BB0BEE009D193D8C71BF688034DF640F11064697C3F83D41B3D14EEA886A236402B9B5D2019AD7F0E8C1CE57B9F18C7B1718F696ED7CBEF14566247BF218756AFB91CE87E44E0A6065515698105C166FA43ED5F5A969DF691E99
310
8C7AAF448A5222A4AB8B9207B0B67EE9AA9A4CB825AF23AE87AEC5DDD80C78ECAA6A988A669C4841F32866D4BA23FC3999849E0E597E8FB9347FAE18FD30664D84504A20A3D72F60C1212EFE94F6BBF84769A55D5526C3A7C20223A1D0631182E305C3789C37CC786DF60D504B010214001400060808009C75745700000000
310
00000000000000003700000000000000000000000000000000006662782F32303637333439442D373530302D343139442D423841302D4636313934453945463943442F617474726962757465732E62696E504B010214001400060808009C757457000000000000000000000000350000000000000000000000000055000000
310
6662782F32303637333439442D373530302D343139442D423841302D4636313934453945463943442F76657274696365732E62696E504B010214001400060808009C757457F270F13306000000040000003600000000000000000000000000A80000006662782F32303637333439442D373530302D343139442D423841302D
310
4636313934453945463943442F747269616E676C65732E62696E504B010214001400060808009C75745751464CB489000000430100003600000000000000000000000000020100006662782F32303637333439442D373530302D343139442D423841302D4636313934453945463943442F6469726563746F72792E786D6C50
310
4B010214001400060808009C7574575669847F38070000201C00003400000000000000000000000000DF0100006662782F32303637333439442D373530302D343139442D423841302D4636313934453945463943442F6F626A656374732E786D6C504B010214001400060808009C757457FA69A0BF3E010000460500003000
310
000000000000000000000000690900006662782F32303637333439442D373530302D343139442D423841302D4636313934453945463943442F636E782E786D6C504B010214001400060808009C757457215B16EF7E000000A30000000B00000000000000000000000000F50A00006662782F636E782E786D6C504B01021400
310
1400060808009C757457A6D797065F0000008200000007000000000000000000000000009C0B0000636E782E786D6C504B010214001400060808009C7574574FEB6A7CA0000000F40000001300000000000000000000000000200C00005B436F6E74656E745F54797065735D2E786D6C504B010214001400060808009C7574
310
573DEE336E64000000790000001B00000000000000000000000000F10C00006175746F6465736B2D64657369676E2D7061636B6167652E786D6C504B010214001400060808009C757457F0B9BE47F7000000960100003B000000000000000000000000008E0D00006662782F32303637333439442D373530302D343139442D
310
423841302D4636313934453945463943442F7265736F75726365732F636F72652E786D6C504B010214001400060808009C75745710DF9A37F1000000B10100003100000000000000000000000000DE0E00006662782F32303637333439442D373530302D343139442D423841302D4636313934453945463943442F636F7265
310
2E786D6C504B010214001400060808009C757457CAC64E5B53010000DD0200000C000000000000000000000000001E1000006662782F636F72652E786D6C504B010214001400060808009C7574579047CA4405010000B201000008000000000000000000000000009B110000636F72652E786D6C504B0506000000000E000E
310
0080040000C61200000000
  0
XRECORD
  5
846C
102
{ACAD_REACTORS
330
8467
102
}
330
8467
100
AcDbXrecord
280
     1
270
     1
271
     1
  0
XRECORD
  5
846B
102
{ACAD_REACTORS
330
8467
102
}
330
8467
100
AcDbXrecord
280
     1
270
     1
271
     1
  0
XRECORD
  5
846D
102
{ACAD_REACTORS
330
8467
102
}
330
8467
100
AcDbXrecord
280
     1
270
     1
271
     1
  0
XRECORD
  5
846A
102
{ACAD_REACTORS
330
8467
102
}
330
8467
100
AcDbXrecord
280
     1
270
     1
271
     1
  0
XRECORD
  5
889E
102
{ACAD_REACTORS
330
889D
102
}
330
889D
100
AcDbXrecord
280
     1
102
DISPLAYNAME
  1
Imperial24
102
FLAGS
 90
        0
  0
CELLSTYLEMAP
  5
8865
102
{ACAD_REACTORS
330
8864
102
}
330
8864
100
AcDbCellStyleMap
 90
        3
300
CELLSTYLE
  1
TABLEFORMAT_BEGIN
 90
        5
170
     1
 91
        0
 92
    32768
 62
   257
 93
        1
300
CONTENTFORMAT
  1
CONTENTFORMAT_BEGIN
 90
        0
 91
        0
 92
      512
 93
        0
300

 40
0.0
140
1.0
 94
        5
 62
     0
340
849A
144
0.25
309
CONTENTFORMAT_END
171
     0
 94
        0
309
TABLEFORMAT_END
  1
CELLSTYLE_BEGIN
 90
        1
 91
        1
300
_TITLE
309
CELLSTYLE_END
300
CELLSTYLE
  1
TABLEFORMAT_BEGIN
 90
        5
170
     1
 91
        0
 92
        0
 62
   257
 93
        1
300
CONTENTFORMAT
  1
CONTENTFORMAT_BEGIN
 90
        0
 91
        0
 92
      512
 93
        0
300

 40
0.0
140
1.0
 94
        5
 62
     0
340
849A
144
0.18
309
CONTENTFORMAT_END
171
     0
 94
        0
309
TABLEFORMAT_END
  1
CELLSTYLE_BEGIN
 90
        2
 91
        1
300
_HEADER
309
CELLSTYLE_END
300
CELLSTYLE
  1
TABLEFORMAT_BEGIN
 90
        5
170
     1
 91
        0
 92
        0
 62
   257
 93
        1
300
CONTENTFORMAT
  1
CONTENTFORMAT_BEGIN
 90
        0
 91
        0
 92
      512
 93
        0
300

 40
0.0
140
1.0
 94
        2
 62
     0
340
849A
144
0.18
309
CONTENTFORMAT_END
171
     0
 94
        0
309
TABLEFORMAT_END
  1
CELLSTYLE_BEGIN
 90
        3
 91
        2
300
_DATA
309
CELLSTYLE_END
  0
XRECORD
  5
889B
102
{ACAD_REACTORS
330
8864
102
}
330
8864
100
AcDbXrecord
280
     1
102
ACAD_ROUNDTRIP_PRE2007_TABLESTYLE
 90
      512
 91
        0
  1

 92
      512
 93
        0
  2

 94
      512
 95
        0
  3

  0
XRECORD
  5
8876
102
{ACAD_REACTORS
330
8875
102
}
330
8875
100
AcDbXrecord
280
     1
102
RTVSPost2010Prop28
280
     1
102
RTVSPost2010PropOp28
 70
     1
102
RTVSPost2010Prop29
280
     1
102
RTVSPost2010PropOp29
 70
     1
102
RTVSPost2010Prop30
280
     0
102
RTVSPost2010PropOp30
 70
     1
102
RTVSPost2010Prop31
280
     0
102
RTVSPost2010PropOp31
 70
     1
102
RTVSPost2010Prop32
280
     0
102
RTVSPost2010PropOp32
 70
     1
102
RTVSPost2010Prop33
280
     0
102
RTVSPost2010PropOp33
 70
     1
102
RTVSPost2010Prop34
280
     0
102
RTVSPost2010PropOp34
 70
     1
102
RTVSPost2010Prop35
280
     0
102
RTVSPost2010PropOp35
 70
     1
102
RTVSPost2010Prop36
280
     0
102
RTVSPost2010PropOp36
 70
     1
102
RTVSPost2010Prop37
 90
       50
102
RTVSPost2010PropOp37
 70
     1
102
RTVSPost2010Prop38
140
0.0
102
RTVSPost2010PropOp38
 70
     1
102
RTVSPost2010Prop39
140
1.0
102
RTVSPost2010PropOp39
 70
     1
102
RTVSPost2010Prop40
 90
        0
102
RTVSPost2010PropOp40
 70
     1
102
RTVSPost2010Prop41ColorIndex
 90
       18
102
RTVSPost2010Prop41ColorRGB
 90
        0
102
RTVSPost2010PropOp41
 70
     1
102
RTVSPost2010Prop42
 90
       50
102
RTVSPost2010PropOp42
 70
     1
102
RTVSPost2010Prop43
 90
        3
102
RTVSPost2010PropOp43
 70
     1
102
RTVSPost2010Prop44ColorIndex
 90
        5
102
RTVSPost2010Prop44ColorRGB
 90
      255
102
RTVSPost2010PropOp44
 70
     1
102
RTVSPost2010Prop45
280
     0
102
RTVSPost2010PropOp45
 70
     1
102
RTVSPost2010Prop46
 90
       50
102
RTVSPost2010PropOp46
 70
     1
102
RTVSPost2010Prop47
 90
       50
102
RTVSPost2010PropOp47
 70
     1
102
RTVSPost2010Prop48
 90
       50
102
RTVSPost2010PropOp48
 70
     1
102
RTVSPost2010Prop49
280
     0
102
RTVSPost2010PropOp49
 70
     1
102
RTVSPost2010Prop50
 90
       50
102
RTVSPost2010PropOp50
 70
     1
102
RTVSPost2010Prop51ColorIndex
 90
      256
102
RTVSPost2010Prop51ColorRGB
 90
-16777216
102
RTVSPost2010PropOp51
 70
     0
102
RTVSPost2010Prop52
140
1.0
102
RTVSPost2010PropOp52
 70
     0
102
RTVSPost2010Prop53
 90
        2
102
RTVSPost2010PropOp53
 70
     1
102
RTVSPost2010Prop54
  1
strokes_ogs.tif
102
RTVSPost2010PropOp54
 70
     1
102
RTVSPost2010Prop55
280
     0
102
RTVSPost2010PropOp55
 70
     1
102
RTVSPost2010Prop56
140
1.0
102
RTVSPost2010PropOp56
 70
     1
102
RTVSPost2010Prop57
140
1.0
102
RTVSPost2010PropOp57
 70
     1
102
RTVSPropertyOp0
 70
     1
102
RTVSPropertyOp1
 70
     1
102
RTVSPropertyOp2
 70
     1
102
RTVSPropertyOp3
 70
     1
102
RTVSPropertyOp4
 70
     1
102
RTVSPropertyOp5
 70
     1
102
RTVSPropertyOp6
 70
     1
102
RTVSPropertyOp7
 70
     1
102
RTVSPropertyOp8
 70
     1
102
RTVSPropertyOp9
 70
     1
102
RTVSPropertyOp10
 70
     1
102
RTVSPropertyOp11
 70
     1
102
RTVSPropertyOp12
 70
     1
102
RTVSPropertyOp13
 70
     1
102
RTVSPropertyOp14
 70
     1
102
RTVSPropertyOp15
 70
     1
102
RTVSPropertyOp16
 70
     1
102
RTVSPropertyOp17
 70
     1
102
RTVSPropertyOp18
 70
     1
102
RTVSPropertyOp19
 70
     1
102
RTVSPropertyOp20
 70
     1
102
RTVSPropertyOp21
 70
     1
102
RTVSPropertyOp22
 70
     1
102
RTVSPropertyOp23
 70
     1
102
RTVSPropertyOp24
 70
     1
102
RTVSPropertyOp25
 70
     1
102
RTVSPropertyOp26
 70
     1
102
RTVSPropertyOp27
 70
     1
102
RTVSPropertyOp28
 70
     1
102
RTVSPropertyOp29
 70
     1
102
RTVSPropertyOp30
 70
     1
102
RTVSPropertyOp31
 70
     1
102
RTVSPropertyOp32
 70
     1
102
RTVSPropertyOp33
 70
     1
102
RTVSPropertyOp34
 70
     1
102
RTVSPropertyOp35
 70
     1
102
RTVSPropertyOp36
 70
     1
102
RTVSPropertyOp37
 70
     1
102
RTVSPropertyOp38
 70
     1
102
RTVSPropertyOp39
 70
     1
102
RTVSPropertyOp40
 70
     1
102
RTVSPropertyOp41
 70
     1
102
RTVSPropertyOp42
 70
     1
102
RTVSPropertyOp43
 70
     1
102
RTVSPropertyOp44
 70
     1
102
RTVSPropertyOp45
 70
     1
102
RTVSPropertyOp46
 70
     1
102
RTVSPropertyOp47
 70
     1
102
RTVSPropertyOp48
 70
     1
102
RTVSPropertyOp49
 70
     1
102
RTVSPropertyOp50
 70
     1
102
RTVSPropertyOp51
 70
     0
102
RTVSPropertyOp52
 70
     0
102
RTVSPropertyOp53
 70
     1
102
RTVSPropertyOp54
 70
     1
102
RTVSPropertyOp55
 70
     1
102
RTVSPropertyOp56
 70
     1
102
RTVSPropertyOp57
 70
     1
102
RTVSPropertyOp58
 70
     1
102
RTVSPropertyOp59
 70
     1
102
RTVSPropertyOp60
 70
     1
102
RTVSPropertyOp61
 70
     1
102
RTVSPropertyOp62
 70
     1
  0
XRECORD
  5
8874
102
{ACAD_REACTORS
330
8873
102
}
330
8873
100
AcDbXrecord
280
     1
102
RTVSPost2010Prop28
280
     0
102
RTVSPost2010PropOp28
 70
     1
102
RTVSPost2010Prop29
280
     1
102
RTVSPost2010PropOp29
 70
     1
102
RTVSPost2010Prop30
280
     1
102
RTVSPost2010PropOp30
 70
     1
102
RTVSPost2010Prop31
280
     0
102
RTVSPost2010PropOp31
 70
     1
102
RTVSPost2010Prop32
280
     0
102
RTVSPost2010PropOp32
 70
     1
102
RTVSPost2010Prop33
280
     0
102
RTVSPost2010PropOp33
 70
     1
102
RTVSPost2010Prop34
280
     0
102
RTVSPost2010PropOp34
 70
     1
102
RTVSPost2010Prop35
280
     0
102
RTVSPost2010PropOp35
 70
     1
102
RTVSPost2010Prop36
280
     0
102
RTVSPost2010PropOp36
 70
     1
102
RTVSPost2010Prop37
 90
       50
102
RTVSPost2010PropOp37
 70
     1
102
RTVSPost2010Prop38
140
0.0
102
RTVSPost2010PropOp38
 70
     1
102
RTVSPost2010Prop39
140
1.0
102
RTVSPost2010PropOp39
 70
     1
102
RTVSPost2010Prop40
 90
        0
102
RTVSPost2010PropOp40
 70
     1
102
RTVSPost2010Prop41ColorIndex
 90
       18
102
RTVSPost2010Prop41ColorRGB
 90
        0
102
RTVSPost2010PropOp41
 70
     1
102
RTVSPost2010Prop42
 90
       50
102
RTVSPost2010PropOp42
 70
     1
102
RTVSPost2010Prop43
 90
        3
102
RTVSPost2010PropOp43
 70
     1
102
RTVSPost2010Prop44ColorIndex
 90
        5
102
RTVSPost2010Prop44ColorRGB
 90
      255
102
RTVSPost2010PropOp44
 70
     1
102
RTVSPost2010Prop45
280
     0
102
RTVSPost2010PropOp45
 70
     1
102
RTVSPost2010Prop46
 90
       50
102
RTVSPost2010PropOp46
 70
     1
102
RTVSPost2010Prop47
 90
       50
102
RTVSPost2010PropOp47
 70
     1
102
RTVSPost2010Prop48
 90
       50
102
RTVSPost2010PropOp48
 70
     1
102
RTVSPost2010Prop49
280
     0
102
RTVSPost2010PropOp49
 70
     1
102
RTVSPost2010Prop50
 90
       50
102
RTVSPost2010PropOp50
 70
     1
102
RTVSPost2010Prop51ColorIndex
 90
      256
102
RTVSPost2010Prop51ColorRGB
 90
-16777216
102
RTVSPost2010PropOp51
 70
     0
102
RTVSPost2010Prop52
140
1.0
102
RTVSPost2010PropOp52
 70
     0
102
RTVSPost2010Prop53
 90
        2
102
RTVSPost2010PropOp53
 70
     1
102
RTVSPost2010Prop54
  1
strokes_ogs.tif
102
RTVSPost2010PropOp54
 70
     1
102
RTVSPost2010Prop55
280
     0
102
RTVSPost2010PropOp55
 70
     1
102
RTVSPost2010Prop56
140
1.0
102
RTVSPost2010PropOp56
 70
     1
102
RTVSPost2010Prop57
140
1.0
102
RTVSPost2010PropOp57
 70
     1
102
RTVSPropertyOp0
 70
     1
102
RTVSPropertyOp1
 70
     1
102
RTVSPropertyOp2
 70
     1
102
RTVSPropertyOp3
 70
     1
102
RTVSPropertyOp4
 70
     1
102
RTVSPropertyOp5
 70
     1
102
RTVSPropertyOp6
 70
     1
102
RTVSPropertyOp7
 70
     1
102
RTVSPropertyOp8
 70
     1
102
RTVSPropertyOp9
 70
     1
102
RTVSPropertyOp10
 70
     1
102
RTVSPropertyOp11
 70
     1
102
RTVSPropertyOp12
 70
     1
102
RTVSPropertyOp13
 70
     1
102
RTVSPropertyOp14
 70
     1
102
RTVSPropertyOp15
 70
     1
102
RTVSPropertyOp16
 70
     1
102
RTVSPropertyOp17
 70
     1
102
RTVSPropertyOp18
 70
     1
102
RTVSPropertyOp19
 70
     1
102
RTVSPropertyOp20
 70
     1
102
RTVSPropertyOp21
 70
     1
102
RTVSPropertyOp22
 70
     1
102
RTVSPropertyOp23
 70
     1
102
RTVSPropertyOp24
 70
     1
102
RTVSPropertyOp25
 70
     1
102
RTVSPropertyOp26
 70
     1
102
RTVSPropertyOp27
 70
     1
102
RTVSPropertyOp28
 70
     1
102
RTVSPropertyOp29
 70
     1
102
RTVSPropertyOp30
 70
     1
102
RTVSPropertyOp31
 70
     1
102
RTVSPropertyOp32
 70
     1
102
RTVSPropertyOp33
 70
     1
102
RTVSPropertyOp34
 70
     1
102
RTVSPropertyOp35
 70
     1
102
RTVSPropertyOp36
 70
     1
102
RTVSPropertyOp37
 70
     1
102
RTVSPropertyOp38
 70
     1
102
RTVSPropertyOp39
 70
     1
102
RTVSPropertyOp40
 70
     1
102
RTVSPropertyOp41
 70
     1
102
RTVSPropertyOp42
 70
     1
102
RTVSPropertyOp43
 70
     1
102
RTVSPropertyOp44
 70
     1
102
RTVSPropertyOp45
 70
     1
102
RTVSPropertyOp46
 70
     1
102
RTVSPropertyOp47
 70
     1
102
RTVSPropertyOp48
 70
     1
102
RTVSPropertyOp49
 70
     1
102
RTVSPropertyOp50
 70
     1
102
RTVSPropertyOp51
 70
     0
102
RTVSPropertyOp52
 70
     0
102
RTVSPropertyOp53
 70
     1
102
RTVSPropertyOp54
 70
     1
102
RTVSPropertyOp55
 70
     1
102
RTVSPropertyOp56
 70
     1
102
RTVSPropertyOp57
 70
     1
102
RTVSPropertyOp58
 70
     1
102
RTVSPropertyOp59
 70
     1
102
RTVSPropertyOp60
 70
     1
102
RTVSPropertyOp61
 70
     1
102
RTVSPropertyOp62
 70
     1
  0
XRECORD
  5
8882
102
{ACAD_REACTORS
330
8881
102
}
330
8881
100
AcDbXrecord
280
     1
102
RTVSPost2010Prop28
280
     0
102
RTVSPost2010PropOp28
 70
     1
102
RTVSPost2010Prop29
280
     1
102
RTVSPost2010PropOp29
 70
     1
102
RTVSPost2010Prop30
280
     1
102
RTVSPost2010PropOp30
 70
     1
102
RTVSPost2010Prop31
280
     0
102
RTVSPost2010PropOp31
 70
     1
102
RTVSPost2010Prop32
280
     0
102
RTVSPost2010PropOp32
 70
     1
102
RTVSPost2010Prop33
280
     0
102
RTVSPost2010PropOp33
 70
     1
102
RTVSPost2010Prop34
280
     0
102
RTVSPost2010PropOp34
 70
     1
102
RTVSPost2010Prop35
280
     0
102
RTVSPost2010PropOp35
 70
     1
102
RTVSPost2010Prop36
280
     0
102
RTVSPost2010PropOp36
 70
     1
102
RTVSPost2010Prop37
 90
       50
102
RTVSPost2010PropOp37
 70
     1
102
RTVSPost2010Prop38
140
0.0
102
RTVSPost2010PropOp38
 70
     1
102
RTVSPost2010Prop39
140
1.0
102
RTVSPost2010PropOp39
 70
     1
102
RTVSPost2010Prop40
 90
        0
102
RTVSPost2010PropOp40
 70
     1
102
RTVSPost2010Prop41ColorIndex
 90
       18
102
RTVSPost2010Prop41ColorRGB
 90
        0
102
RTVSPost2010PropOp41
 70
     1
102
RTVSPost2010Prop42
 90
       50
102
RTVSPost2010PropOp42
 70
     1
102
RTVSPost2010Prop43
 90
        3
102
RTVSPost2010PropOp43
 70
     1
102
RTVSPost2010Prop44ColorIndex
 90
        5
102
RTVSPost2010Prop44ColorRGB
 90
      255
102
RTVSPost2010PropOp44
 70
     1
102
RTVSPost2010Prop45
280
     0
102
RTVSPost2010PropOp45
 70
     1
102
RTVSPost2010Prop46
 90
       50
102
RTVSPost2010PropOp46
 70
     1
102
RTVSPost2010Prop47
 90
       50
102
RTVSPost2010PropOp47
 70
     1
102
RTVSPost2010Prop48
 90
       50
102
RTVSPost2010PropOp48
 70
     1
102
RTVSPost2010Prop49
280
     0
102
RTVSPost2010PropOp49
 70
     1
102
RTVSPost2010Prop50
 90
       50
102
RTVSPost2010PropOp50
 70
     1
102
RTVSPost2010Prop51ColorIndex
 90
      256
102
RTVSPost2010Prop51ColorRGB
 90
-16777216
102
RTVSPost2010PropOp51
 70
     0
102
RTVSPost2010Prop52
140
1.0
102
RTVSPost2010PropOp52
 70
     0
102
RTVSPost2010Prop53
 90
        2
102
RTVSPost2010PropOp53
 70
     1
102
RTVSPost2010Prop54
  1
strokes_ogs.tif
102
RTVSPost2010PropOp54
 70
     1
102
RTVSPost2010Prop55
280
     0
102
RTVSPost2010PropOp55
 70
     1
102
RTVSPost2010Prop56
140
1.0
102
RTVSPost2010PropOp56
 70
     1
102
RTVSPost2010Prop57
140
1.0
102
RTVSPost2010PropOp57
 70
     1
102
RTVSPropertyOp0
 70
     1
102
RTVSPropertyOp1
 70
     1
102
RTVSPropertyOp2
 70
     1
102
RTVSPropertyOp3
 70
     1
102
RTVSPropertyOp4
 70
     1
102
RTVSPropertyOp5
 70
     1
102
RTVSPropertyOp6
 70
     1
102
RTVSPropertyOp7
 70
     1
102
RTVSPropertyOp8
 70
     1
102
RTVSPropertyOp9
 70
     1
102
RTVSPropertyOp10
 70
     1
102
RTVSPropertyOp11
 70
     1
102
RTVSPropertyOp12
 70
     1
102
RTVSPropertyOp13
 70
     1
102
RTVSPropertyOp14
 70
     1
102
RTVSPropertyOp15
 70
     1
102
RTVSPropertyOp16
 70
     1
102
RTVSPropertyOp17
 70
     1
102
RTVSPropertyOp18
 70
     1
102
RTVSPropertyOp19
 70
     1
102
RTVSPropertyOp20
 70
     1
102
RTVSPropertyOp21
 70
     1
102
RTVSPropertyOp22
 70
     1
102
RTVSPropertyOp23
 70
     1
102
RTVSPropertyOp24
 70
     1
102
RTVSPropertyOp25
 70
     1
102
RTVSPropertyOp26
 70
     1
102
RTVSPropertyOp27
 70
     1
102
RTVSPropertyOp28
 70
     1
102
RTVSPropertyOp29
 70
     1
102
RTVSPropertyOp30
 70
     1
102
RTVSPropertyOp31
 70
     1
102
RTVSPropertyOp32
 70
     1
102
RTVSPropertyOp33
 70
     1
102
RTVSPropertyOp34
 70
     1
102
RTVSPropertyOp35
 70
     1
102
RTVSPropertyOp36
 70
     1
102
RTVSPropertyOp37
 70
     1
102
RTVSPropertyOp38
 70
     1
102
RTVSPropertyOp39
 70
     1
102
RTVSPropertyOp40
 70
     1
102
RTVSPropertyOp41
 70
     1
102
RTVSPropertyOp42
 70
     1
102
RTVSPropertyOp43
 70
     1
102
RTVSPropertyOp44
 70
     1
102
RTVSPropertyOp45
 70
     1
102
RTVSPropertyOp46
 70
     1
102
RTVSPropertyOp47
 70
     1
102
RTVSPropertyOp48
 70
     1
102
RTVSPropertyOp49
 70
     1
102
RTVSPropertyOp50
 70
     1
102
RTVSPropertyOp51
 70
     0
102
RTVSPropertyOp52
 70
     0
102
RTVSPropertyOp53
 70
     1
102
RTVSPropertyOp54
 70
     1
102
RTVSPropertyOp55
 70
     1
102
RTVSPropertyOp56
 70
     1
102
RTVSPropertyOp57
 70
     1
102
RTVSPropertyOp58
 70
     1
102
RTVSPropertyOp59
 70
     1
102
RTVSPropertyOp60
 70
     1
102
RTVSPropertyOp61
 70
     1
102
RTVSPropertyOp62
 70
     1
  0
XRECORD
  5
888A
102
{ACAD_REACTORS
330
8889
102
}
330
8889
100
AcDbXrecord
280
     1
102
RTVSPost2010Prop28
280
     0
102
RTVSPost2010PropOp28
 70
     1
102
RTVSPost2010Prop29
280
     1
102
RTVSPost2010PropOp29
 70
     1
102
RTVSPost2010Prop30
280
     1
102
RTVSPost2010PropOp30
 70
     1
102
RTVSPost2010Prop31
280
     0
102
RTVSPost2010PropOp31
 70
     1
102
RTVSPost2010Prop32
280
     0
102
RTVSPost2010PropOp32
 70
     1
102
RTVSPost2010Prop33
280
     0
102
RTVSPost2010PropOp33
 70
     1
102
RTVSPost2010Prop34
280
     0
102
RTVSPost2010PropOp34
 70
     1
102
RTVSPost2010Prop35
280
     0
102
RTVSPost2010PropOp35
 70
     1
102
RTVSPost2010Prop36
280
     0
102
RTVSPost2010PropOp36
 70
     1
102
RTVSPost2010Prop37
 90
       50
102
RTVSPost2010PropOp37
 70
     1
102
RTVSPost2010Prop38
140
0.0
102
RTVSPost2010PropOp38
 70
     1
102
RTVSPost2010Prop39
140
1.0
102
RTVSPost2010PropOp39
 70
     1
102
RTVSPost2010Prop40
 90
        0
102
RTVSPost2010PropOp40
 70
     1
102
RTVSPost2010Prop41ColorIndex
 90
       18
102
RTVSPost2010Prop41ColorRGB
 90
        0
102
RTVSPost2010PropOp41
 70
     1
102
RTVSPost2010Prop42
 90
       50
102
RTVSPost2010PropOp42
 70
     1
102
RTVSPost2010Prop43
 90
        3
102
RTVSPost2010PropOp43
 70
     1
102
RTVSPost2010Prop44ColorIndex
 90
        5
102
RTVSPost2010Prop44ColorRGB
 90
      255
102
RTVSPost2010PropOp44
 70
     1
102
RTVSPost2010Prop45
280
     0
102
RTVSPost2010PropOp45
 70
     1
102
RTVSPost2010Prop46
 90
       50
102
RTVSPost2010PropOp46
 70
     1
102
RTVSPost2010Prop47
 90
       50
102
RTVSPost2010PropOp47
 70
     1
102
RTVSPost2010Prop48
 90
       50
102
RTVSPost2010PropOp48
 70
     1
102
RTVSPost2010Prop49
280
     0
102
RTVSPost2010PropOp49
 70
     1
102
RTVSPost2010Prop50
 90
       50
102
RTVSPost2010PropOp50
 70
     1
102
RTVSPost2010Prop51ColorIndex
 90
      256
102
RTVSPost2010Prop51ColorRGB
 90
-16777216
102
RTVSPost2010PropOp51
 70
     0
102
RTVSPost2010Prop52
140
1.0
102
RTVSPost2010PropOp52
 70
     0
102
RTVSPost2010Prop53
 90
        2
102
RTVSPost2010PropOp53
 70
     1
102
RTVSPost2010Prop54
  1
strokes_ogs.tif
102
RTVSPost2010PropOp54
 70
     1
102
RTVSPost2010Prop55
280
     0
102
RTVSPost2010PropOp55
 70
     1
102
RTVSPost2010Prop56
140
1.0
102
RTVSPost2010PropOp56
 70
     1
102
RTVSPost2010Prop57
140
1.0
102
RTVSPost2010PropOp57
 70
     1
102
RTVSPropertyOp0
 70
     1
102
RTVSPropertyOp1
 70
     1
102
RTVSPropertyOp2
 70
     1
102
RTVSPropertyOp3
 70
     1
102
RTVSPropertyOp4
 70
     1
102
RTVSPropertyOp5
 70
     1
102
RTVSPropertyOp6
 70
     1
102
RTVSPropertyOp7
 70
     1
102
RTVSPropertyOp8
 70
     1
102
RTVSPropertyOp9
 70
     1
102
RTVSPropertyOp10
 70
     1
102
RTVSPropertyOp11
 70
     1
102
RTVSPropertyOp12
 70
     1
102
RTVSPropertyOp13
 70
     1
102
RTVSPropertyOp14
 70
     1
102
RTVSPropertyOp15
 70
     1
102
RTVSPropertyOp16
 70
     1
102
RTVSPropertyOp17
 70
     1
102
RTVSPropertyOp18
 70
     1
102
RTVSPropertyOp19
 70
     1
102
RTVSPropertyOp20
 70
     1
102
RTVSPropertyOp21
 70
     1
102
RTVSPropertyOp22
 70
     1
102
RTVSPropertyOp23
 70
     1
102
RTVSPropertyOp24
 70
     1
102
RTVSPropertyOp25
 70
     1
102
RTVSPropertyOp26
 70
     1
102
RTVSPropertyOp27
 70
     1
102
RTVSPropertyOp28
 70
     1
102
RTVSPropertyOp29
 70
     1
102
RTVSPropertyOp30
 70
     1
102
RTVSPropertyOp31
 70
     1
102
RTVSPropertyOp32
 70
     1
102
RTVSPropertyOp33
 70
     1
102
RTVSPropertyOp34
 70
     1
102
RTVSPropertyOp35
 70
     1
102
RTVSPropertyOp36
 70
     1
102
RTVSPropertyOp37
 70
     1
102
RTVSPropertyOp38
 70
     1
102
RTVSPropertyOp39
 70
     1
102
RTVSPropertyOp40
 70
     1
102
RTVSPropertyOp41
 70
     1
102
RTVSPropertyOp42
 70
     1
102
RTVSPropertyOp43
 70
     1
102
RTVSPropertyOp44
 70
     1
102
RTVSPropertyOp45
 70
     1
102
RTVSPropertyOp46
 70
     1
102
RTVSPropertyOp47
 70
     1
102
RTVSPropertyOp48
 70
     1
102
RTVSPropertyOp49
 70
     1
102
RTVSPropertyOp50
 70
     1
102
RTVSPropertyOp51
 70
     0
102
RTVSPropertyOp52
 70
     0
102
RTVSPropertyOp53
 70
     1
102
RTVSPropertyOp54
 70
     1
102
RTVSPropertyOp55
 70
     1
102
RTVSPropertyOp56
 70
     1
102
RTVSPropertyOp57
 70
     1
102
RTVSPropertyOp58
 70
     1
102
RTVSPropertyOp59
 70
     1
102
RTVSPropertyOp60
 70
     1
102
RTVSPropertyOp61
 70
     1
102
RTVSPropertyOp62
 70
     1
  0
XRECORD
  5
887C
102
{ACAD_REACTORS
330
887B
102
}
330
887B
100
AcDbXrecord
280
     1
102
RTVSPost2010Prop28
280
     0
102
RTVSPost2010PropOp28
 70
     1
102
RTVSPost2010Prop29
280
     1
102
RTVSPost2010PropOp29
 70
     1
102
RTVSPost2010Prop30
280
     1
102
RTVSPost2010PropOp30
 70
     1
102
RTVSPost2010Prop31
280
     0
102
RTVSPost2010PropOp31
 70
     1
102
RTVSPost2010Prop32
280
     0
102
RTVSPost2010PropOp32
 70
     1
102
RTVSPost2010Prop33
280
     0
102
RTVSPost2010PropOp33
 70
     1
102
RTVSPost2010Prop34
280
     0
102
RTVSPost2010PropOp34
 70
     1
102
RTVSPost2010Prop35
280
     0
102
RTVSPost2010PropOp35
 70
     1
102
RTVSPost2010Prop36
280
     0
102
RTVSPost2010PropOp36
 70
     1
102
RTVSPost2010Prop37
 90
       50
102
RTVSPost2010PropOp37
 70
     1
102
RTVSPost2010Prop38
140
0.0
102
RTVSPost2010PropOp38
 70
     1
102
RTVSPost2010Prop39
140
1.0
102
RTVSPost2010PropOp39
 70
     1
102
RTVSPost2010Prop40
 90
        0
102
RTVSPost2010PropOp40
 70
     1
102
RTVSPost2010Prop41ColorIndex
 90
       18
102
RTVSPost2010Prop41ColorRGB
 90
        0
102
RTVSPost2010PropOp41
 70
     1
102
RTVSPost2010Prop42
 90
       50
102
RTVSPost2010PropOp42
 70
     1
102
RTVSPost2010Prop43
 90
        3
102
RTVSPost2010PropOp43
 70
     1
102
RTVSPost2010Prop44ColorIndex
 90
        5
102
RTVSPost2010Prop44ColorRGB
 90
      255
102
RTVSPost2010PropOp44
 70
     1
102
RTVSPost2010Prop45
280
     0
102
RTVSPost2010PropOp45
 70
     1
102
RTVSPost2010Prop46
 90
       50
102
RTVSPost2010PropOp46
 70
     1
102
RTVSPost2010Prop47
 90
       50
102
RTVSPost2010PropOp47
 70
     1
102
RTVSPost2010Prop48
 90
       50
102
RTVSPost2010PropOp48
 70
     1
102
RTVSPost2010Prop49
280
     0
102
RTVSPost2010PropOp49
 70
     1
102
RTVSPost2010Prop50
 90
       50
102
RTVSPost2010PropOp50
 70
     1
102
RTVSPost2010Prop51ColorIndex
 90
      256
102
RTVSPost2010Prop51ColorRGB
 90
-16777216
102
RTVSPost2010PropOp51
 70
     0
102
RTVSPost2010Prop52
140
1.0
102
RTVSPost2010PropOp52
 70
     0
102
RTVSPost2010Prop53
 90
        2
102
RTVSPost2010PropOp53
 70
     1
102
RTVSPost2010Prop54
  1
strokes_ogs.tif
102
RTVSPost2010PropOp54
 70
     1
102
RTVSPost2010Prop55
280
     0
102
RTVSPost2010PropOp55
 70
     1
102
RTVSPost2010Prop56
140
1.0
102
RTVSPost2010PropOp56
 70
     1
102
RTVSPost2010Prop57
140
1.0
102
RTVSPost2010PropOp57
 70
     1
102
RTVSPropertyOp0
 70
     1
102
RTVSPropertyOp1
 70
     1
102
RTVSPropertyOp2
 70
     1
102
RTVSPropertyOp3
 70
     1
102
RTVSPropertyOp4
 70
     1
102
RTVSPropertyOp5
 70
     1
102
RTVSPropertyOp6
 70
     1
102
RTVSPropertyOp7
 70
     1
102
RTVSPropertyOp8
 70
     1
102
RTVSPropertyOp9
 70
     1
102
RTVSPropertyOp10
 70
     1
102
RTVSPropertyOp11
 70
     1
102
RTVSPropertyOp12
 70
     1
102
RTVSPropertyOp13
 70
     1
102
RTVSPropertyOp14
 70
     1
102
RTVSPropertyOp15
 70
     1
102
RTVSPropertyOp16
 70
     1
102
RTVSPropertyOp17
 70
     1
102
RTVSPropertyOp18
 70
     1
102
RTVSPropertyOp19
 70
     1
102
RTVSPropertyOp20
 70
     1
102
RTVSPropertyOp21
 70
     1
102
RTVSPropertyOp22
 70
     1
102
RTVSPropertyOp23
 70
     1
102
RTVSPropertyOp24
 70
     1
102
RTVSPropertyOp25
 70
     1
102
RTVSPropertyOp26
 70
     1
102
RTVSPropertyOp27
 70
     1
102
RTVSPropertyOp28
 70
     1
102
RTVSPropertyOp29
 70
     1
102
RTVSPropertyOp30
 70
     1
102
RTVSPropertyOp31
 70
     1
102
RTVSPropertyOp32
 70
     1
102
RTVSPropertyOp33
 70
     1
102
RTVSPropertyOp34
 70
     1
102
RTVSPropertyOp35
 70
     1
102
RTVSPropertyOp36
 70
     1
102
RTVSPropertyOp37
 70
     1
102
RTVSPropertyOp38
 70
     1
102
RTVSPropertyOp39
 70
     1
102
RTVSPropertyOp40
 70
     1
102
RTVSPropertyOp41
 70
     1
102
RTVSPropertyOp42
 70
     1
102
RTVSPropertyOp43
 70
     1
102
RTVSPropertyOp44
 70
     1
102
RTVSPropertyOp45
 70
     1
102
RTVSPropertyOp46
 70
     1
102
RTVSPropertyOp47
 70
     1
102
RTVSPropertyOp48
 70
     1
102
RTVSPropertyOp49
 70
     1
102
RTVSPropertyOp50
 70
     1
102
RTVSPropertyOp51
 70
     0
102
RTVSPropertyOp52
 70
     0
102
RTVSPropertyOp53
 70
     1
102
RTVSPropertyOp54
 70
     1
102
RTVSPropertyOp55
 70
     1
102
RTVSPropertyOp56
 70
     1
102
RTVSPropertyOp57
 70
     1
102
RTVSPropertyOp58
 70
     1
102
RTVSPropertyOp59
 70
     1
102
RTVSPropertyOp60
 70
     1
102
RTVSPropertyOp61
 70
     1
102
RTVSPropertyOp62
 70
     1
  0
XRECORD
  5
8880
102
{ACAD_REACTORS
330
887F
102
}
330
887F
100
AcDbXrecord
280
     1
102
RTVSPost2010Prop28
280
     0
102
RTVSPost2010PropOp28
 70
     1
102
RTVSPost2010Prop29
280
     1
102
RTVSPost2010PropOp29
 70
     1
102
RTVSPost2010Prop30
280
     1
102
RTVSPost2010PropOp30
 70
     1
102
RTVSPost2010Prop31
280
     0
102
RTVSPost2010PropOp31
 70
     1
102
RTVSPost2010Prop32
280
     0
102
RTVSPost2010PropOp32
 70
     1
102
RTVSPost2010Prop33
280
     0
102
RTVSPost2010PropOp33
 70
     1
102
RTVSPost2010Prop34
280
     0
102
RTVSPost2010PropOp34
 70
     1
102
RTVSPost2010Prop35
280
     0
102
RTVSPost2010PropOp35
 70
     1
102
RTVSPost2010Prop36
280
     0
102
RTVSPost2010PropOp36
 70
     1
102
RTVSPost2010Prop37
 90
       50
102
RTVSPost2010PropOp37
 70
     1
102
RTVSPost2010Prop38
140
0.0
102
RTVSPost2010PropOp38
 70
     1
102
RTVSPost2010Prop39
140
1.0
102
RTVSPost2010PropOp39
 70
     1
102
RTVSPost2010Prop40
 90
        0
102
RTVSPost2010PropOp40
 70
     1
102
RTVSPost2010Prop41ColorIndex
 90
       18
102
RTVSPost2010Prop41ColorRGB
 90
        0
102
RTVSPost2010PropOp41
 70
     1
102
RTVSPost2010Prop42
 90
       50
102
RTVSPost2010PropOp42
 70
     1
102
RTVSPost2010Prop43
 90
        3
102
RTVSPost2010PropOp43
 70
     1
102
RTVSPost2010Prop44ColorIndex
 90
        5
102
RTVSPost2010Prop44ColorRGB
 90
      255
102
RTVSPost2010PropOp44
 70
     1
102
RTVSPost2010Prop45
280
     0
102
RTVSPost2010PropOp45
 70
     1
102
RTVSPost2010Prop46
 90
       50
102
RTVSPost2010PropOp46
 70
     1
102
RTVSPost2010Prop47
 90
       50
102
RTVSPost2010PropOp47
 70
     1
102
RTVSPost2010Prop48
 90
       50
102
RTVSPost2010PropOp48
 70
     1
102
RTVSPost2010Prop49
280
     0
102
RTVSPost2010PropOp49
 70
     1
102
RTVSPost2010Prop50
 90
       50
102
RTVSPost2010PropOp50
 70
     1
102
RTVSPost2010Prop51ColorIndex
 90
      256
102
RTVSPost2010Prop51ColorRGB
 90
-16777216
102
RTVSPost2010PropOp51
 70
     0
102
RTVSPost2010Prop52
140
1.0
102
RTVSPost2010PropOp52
 70
     0
102
RTVSPost2010Prop53
 90
        2
102
RTVSPost2010PropOp53
 70
     1
102
RTVSPost2010Prop54
  1
strokes_ogs.tif
102
RTVSPost2010PropOp54
 70
     1
102
RTVSPost2010Prop55
280
     0
102
RTVSPost2010PropOp55
 70
     1
102
RTVSPost2010Prop56
140
1.0
102
RTVSPost2010PropOp56
 70
     1
102
RTVSPost2010Prop57
140
1.0
102
RTVSPost2010PropOp57
 70
     1
102
RTVSPropertyOp0
 70
     1
102
RTVSPropertyOp1
 70
     1
102
RTVSPropertyOp2
 70
     1
102
RTVSPropertyOp3
 70
     1
102
RTVSPropertyOp4
 70
     1
102
RTVSPropertyOp5
 70
     1
102
RTVSPropertyOp6
 70
     1
102
RTVSPropertyOp7
 70
     1
102
RTVSPropertyOp8
 70
     1
102
RTVSPropertyOp9
 70
     1
102
RTVSPropertyOp10
 70
     1
102
RTVSPropertyOp11
 70
     1
102
RTVSPropertyOp12
 70
     1
102
RTVSPropertyOp13
 70
     1
102
RTVSPropertyOp14
 70
     1
102
RTVSPropertyOp15
 70
     1
102
RTVSPropertyOp16
 70
     1
102
RTVSPropertyOp17
 70
     1
102
RTVSPropertyOp18
 70
     1
102
RTVSPropertyOp19
 70
     1
102
RTVSPropertyOp20
 70
     1
102
RTVSPropertyOp21
 70
     1
102
RTVSPropertyOp22
 70
     1
102
RTVSPropertyOp23
 70
     1
102
RTVSPropertyOp24
 70
     1
102
RTVSPropertyOp25
 70
     1
102
RTVSPropertyOp26
 70
     1
102
RTVSPropertyOp27
 70
     1
102
RTVSPropertyOp28
 70
     1
102
RTVSPropertyOp29
 70
     1
102
RTVSPropertyOp30
 70
     1
102
RTVSPropertyOp31
 70
     1
102
RTVSPropertyOp32
 70
     1
102
RTVSPropertyOp33
 70
     1
102
RTVSPropertyOp34
 70
     1
102
RTVSPropertyOp35
 70
     1
102
RTVSPropertyOp36
 70
     1
102
RTVSPropertyOp37
 70
     1
102
RTVSPropertyOp38
 70
     1
102
RTVSPropertyOp39
 70
     1
102
RTVSPropertyOp40
 70
     1
102
RTVSPropertyOp41
 70
     1
102
RTVSPropertyOp42
 70
     1
102
RTVSPropertyOp43
 70
     1
102
RTVSPropertyOp44
 70
     1
102
RTVSPropertyOp45
 70
     1
102
RTVSPropertyOp46
 70
     1
102
RTVSPropertyOp47
 70
     1
102
RTVSPropertyOp48
 70
     1
102
RTVSPropertyOp49
 70
     1
102
RTVSPropertyOp50
 70
     1
102
RTVSPropertyOp51
 70
     0
102
RTVSPropertyOp52
 70
     0
102
RTVSPropertyOp53
 70
     1
102
RTVSPropertyOp54
 70
     1
102
RTVSPropertyOp55
 70
     1
102
RTVSPropertyOp56
 70
     1
102
RTVSPropertyOp57
 70
     1
102
RTVSPropertyOp58
 70
     1
102
RTVSPropertyOp59
 70
     1
102
RTVSPropertyOp60
 70
     1
102
RTVSPropertyOp61
 70
     1
102
RTVSPropertyOp62
 70
     1
  0
XRECORD
  5
889A
102
{ACAD_REACTORS
330
8899
102
}
330
8899
100
AcDbXrecord
280
     1
102
RTVSPost2010Prop28
280
     0
102
RTVSPost2010PropOp28
 70
     1
102
RTVSPost2010Prop29
280
     1
102
RTVSPost2010PropOp29
 70
     1
102
RTVSPost2010Prop30
280
     1
102
RTVSPost2010PropOp30
 70
     1
102
RTVSPost2010Prop31
280
     0
102
RTVSPost2010PropOp31
 70
     1
102
RTVSPost2010Prop32
280
     0
102
RTVSPost2010PropOp32
 70
     1
102
RTVSPost2010Prop33
280
     0
102
RTVSPost2010PropOp33
 70
     1
102
RTVSPost2010Prop34
280
     0
102
RTVSPost2010PropOp34
 70
     1
102
RTVSPost2010Prop35
280
     0
102
RTVSPost2010PropOp35
 70
     1
102
RTVSPost2010Prop36
280
     0
102
RTVSPost2010PropOp36
 70
     1
102
RTVSPost2010Prop37
 90
       50
102
RTVSPost2010PropOp37
 70
     0
102
RTVSPost2010Prop38
140
0.0
102
RTVSPost2010PropOp38
 70
     0
102
RTVSPost2010Prop39
140
1.0
102
RTVSPost2010PropOp39
 70
     0
102
RTVSPost2010Prop40
 90
        0
102
RTVSPost2010PropOp40
 70
     0
102
RTVSPost2010Prop41ColorIndex
 90
       18
102
RTVSPost2010Prop41ColorRGB
 90
        0
102
RTVSPost2010PropOp41
 70
     0
102
RTVSPost2010Prop42
 90
       50
102
RTVSPost2010PropOp42
 70
     0
102
RTVSPost2010Prop43
 90
        3
102
RTVSPost2010PropOp43
 70
     0
102
RTVSPost2010Prop44ColorIndex
 90
        5
102
RTVSPost2010Prop44ColorRGB
 90
      255
102
RTVSPost2010PropOp44
 70
     0
102
RTVSPost2010Prop45
280
     0
102
RTVSPost2010PropOp45
 70
     1
102
RTVSPost2010Prop46
 90
       50
102
RTVSPost2010PropOp46
 70
     0
102
RTVSPost2010Prop47
 90
       50
102
RTVSPost2010PropOp47
 70
     0
102
RTVSPost2010Prop48
 90
       50
102
RTVSPost2010PropOp48
 70
     0
102
RTVSPost2010Prop49
280
     0
102
RTVSPost2010PropOp49
 70
     1
102
RTVSPost2010Prop50
 90
       50
102
RTVSPost2010PropOp50
 70
     0
102
RTVSPost2010Prop51ColorIndex
 90
      256
102
RTVSPost2010Prop51ColorRGB
 90
-16777216
102
RTVSPost2010PropOp51
 70
     0
102
RTVSPost2010Prop52
140
1.0
102
RTVSPost2010PropOp52
 70
     0
102
RTVSPost2010Prop53
 90
        2
102
RTVSPost2010PropOp53
 70
     0
102
RTVSPost2010Prop54
  1
strokes_ogs.tif
102
RTVSPost2010PropOp54
 70
     0
102
RTVSPost2010Prop55
280
     0
102
RTVSPost2010PropOp55
 70
     1
102
RTVSPost2010Prop56
140
1.0
102
RTVSPost2010PropOp56
 70
     0
102
RTVSPost2010Prop57
140
1.0
102
RTVSPost2010PropOp57
 70
     0
102
RTVSPropertyOp0
 70
     0
102
RTVSPropertyOp1
 70
     0
102
RTVSPropertyOp2
 70
     0
102
RTVSPropertyOp3
 70
     0
102
RTVSPropertyOp4
 70
     0
102
RTVSPropertyOp5
 70
     0
102
RTVSPropertyOp6
 70
     0
102
RTVSPropertyOp7
 70
     0
102
RTVSPropertyOp8
 70
     0
102
RTVSPropertyOp9
 70
     0
102
RTVSPropertyOp10
 70
     0
102
RTVSPropertyOp11
 70
     0
102
RTVSPropertyOp12
 70
     0
102
RTVSPropertyOp13
 70
     0
102
RTVSPropertyOp14
 70
     2
102
RTVSPropertyOp15
 70
     0
102
RTVSPropertyOp16
 70
     0
102
RTVSPropertyOp17
 70
     0
102
RTVSPropertyOp18
 70
     0
102
RTVSPropertyOp19
 70
     0
102
RTVSPropertyOp20
 70
     0
102
RTVSPropertyOp21
 70
     0
102
RTVSPropertyOp22
 70
     0
102
RTVSPropertyOp23
 70
     0
102
RTVSPropertyOp24
 70
     0
102
RTVSPropertyOp25
 70
     0
102
RTVSPropertyOp26
 70
     0
102
RTVSPropertyOp27
 70
     0
102
RTVSPropertyOp28
 70
     1
102
RTVSPropertyOp29
 70
     1
102
RTVSPropertyOp30
 70
     1
102
RTVSPropertyOp31
 70
     1
102
RTVSPropertyOp32
 70
     1
102
RTVSPropertyOp33
 70
     1
102
RTVSPropertyOp34
 70
     1
102
RTVSPropertyOp35
 70
     1
102
RTVSPropertyOp36
 70
     1
102
RTVSPropertyOp37
 70
     0
102
RTVSPropertyOp38
 70
     0
102
RTVSPropertyOp39
 70
     0
102
RTVSPropertyOp40
 70
     0
102
RTVSPropertyOp41
 70
     0
102
RTVSPropertyOp42
 70
     0
102
RTVSPropertyOp43
 70
     0
102
RTVSPropertyOp44
 70
     0
102
RTVSPropertyOp45
 70
     1
102
RTVSPropertyOp46
 70
     0
102
RTVSPropertyOp47
 70
     0
102
RTVSPropertyOp48
 70
     0
102
RTVSPropertyOp49
 70
     1
102
RTVSPropertyOp50
 70
     0
102
RTVSPropertyOp51
 70
     0
102
RTVSPropertyOp52
 70
     0
102
RTVSPropertyOp53
 70
     0
102
RTVSPropertyOp54
 70
     0
102
RTVSPropertyOp55
 70
     1
102
RTVSPropertyOp56
 70
     0
102
RTVSPropertyOp57
 70
     0
102
RTVSPropertyOp58
 70
     0
102
RTVSPropertyOp59
 70
     0
102
RTVSPropertyOp60
 70
     0
102
RTVSPropertyOp61
 70
     0
102
RTVSPropertyOp62
 70
     0
  0
XRECORD
  5
8888
102
{ACAD_REACTORS
330
8887
102
}
330
8887
100
AcDbXrecord
280
     1
102
RTVSPost2010Prop28
280
     0
102
RTVSPost2010PropOp28
 70
     1
102
RTVSPost2010Prop29
280
     1
102
RTVSPost2010PropOp29
 70
     1
102
RTVSPost2010Prop30
280
     1
102
RTVSPost2010PropOp30
 70
     1
102
RTVSPost2010Prop31
280
     0
102
RTVSPost2010PropOp31
 70
     1
102
RTVSPost2010Prop32
280
     0
102
RTVSPost2010PropOp32
 70
     1
102
RTVSPost2010Prop33
280
     0
102
RTVSPost2010PropOp33
 70
     1
102
RTVSPost2010Prop34
280
     0
102
RTVSPost2010PropOp34
 70
     1
102
RTVSPost2010Prop35
280
     0
102
RTVSPost2010PropOp35
 70
     1
102
RTVSPost2010Prop36
280
     0
102
RTVSPost2010PropOp36
 70
     1
102
RTVSPost2010Prop37
 90
       50
102
RTVSPost2010PropOp37
 70
     1
102
RTVSPost2010Prop38
140
0.0
102
RTVSPost2010PropOp38
 70
     1
102
RTVSPost2010Prop39
140
1.0
102
RTVSPost2010PropOp39
 70
     1
102
RTVSPost2010Prop40
 90
        0
102
RTVSPost2010PropOp40
 70
     1
102
RTVSPost2010Prop41ColorIndex
 90
       18
102
RTVSPost2010Prop41ColorRGB
 90
        0
102
RTVSPost2010PropOp41
 70
     1
102
RTVSPost2010Prop42
 90
       50
102
RTVSPost2010PropOp42
 70
     1
102
RTVSPost2010Prop43
 90
        3
102
RTVSPost2010PropOp43
 70
     1
102
RTVSPost2010Prop44ColorIndex
 90
        5
102
RTVSPost2010Prop44ColorRGB
 90
      255
102
RTVSPost2010PropOp44
 70
     1
102
RTVSPost2010Prop45
280
     0
102
RTVSPost2010PropOp45
 70
     1
102
RTVSPost2010Prop46
 90
       50
102
RTVSPost2010PropOp46
 70
     1
102
RTVSPost2010Prop47
 90
       50
102
RTVSPost2010PropOp47
 70
     1
102
RTVSPost2010Prop48
 90
       50
102
RTVSPost2010PropOp48
 70
     1
102
RTVSPost2010Prop49
280
     0
102
RTVSPost2010PropOp49
 70
     1
102
RTVSPost2010Prop50
 90
       50
102
RTVSPost2010PropOp50
 70
     1
102
RTVSPost2010Prop51ColorIndex
 90
      256
102
RTVSPost2010Prop51ColorRGB
 90
-16777216
102
RTVSPost2010PropOp51
 70
     0
102
RTVSPost2010Prop52
140
1.0
102
RTVSPost2010PropOp52
 70
     0
102
RTVSPost2010Prop53
 90
        2
102
RTVSPost2010PropOp53
 70
     1
102
RTVSPost2010Prop54
  1
strokes_ogs.tif
102
RTVSPost2010PropOp54
 70
     1
102
RTVSPost2010Prop55
280
     0
102
RTVSPost2010PropOp55
 70
     1
102
RTVSPost2010Prop56
140
1.0
102
RTVSPost2010PropOp56
 70
     1
102
RTVSPost2010Prop57
140
1.0
102
RTVSPost2010PropOp57
 70
     1
102
RTVSPropertyOp0
 70
     1
102
RTVSPropertyOp1
 70
     1
102
RTVSPropertyOp2
 70
     1
102
RTVSPropertyOp3
 70
     1
102
RTVSPropertyOp4
 70
     1
102
RTVSPropertyOp5
 70
     1
102
RTVSPropertyOp6
 70
     1
102
RTVSPropertyOp7
 70
     1
102
RTVSPropertyOp8
 70
     1
102
RTVSPropertyOp9
 70
     1
102
RTVSPropertyOp10
 70
     1
102
RTVSPropertyOp11
 70
     1
102
RTVSPropertyOp12
 70
     1
102
RTVSPropertyOp13
 70
     1
102
RTVSPropertyOp14
 70
     1
102
RTVSPropertyOp15
 70
     1
102
RTVSPropertyOp16
 70
     1
102
RTVSPropertyOp17
 70
     1
102
RTVSPropertyOp18
 70
     1
102
RTVSPropertyOp19
 70
     1
102
RTVSPropertyOp20
 70
     1
102
RTVSPropertyOp21
 70
     1
102
RTVSPropertyOp22
 70
     1
102
RTVSPropertyOp23
 70
     1
102
RTVSPropertyOp24
 70
     1
102
RTVSPropertyOp25
 70
     1
102
RTVSPropertyOp26
 70
     1
102
RTVSPropertyOp27
 70
     1
102
RTVSPropertyOp28
 70
     1
102
RTVSPropertyOp29
 70
     1
102
RTVSPropertyOp30
 70
     1
102
RTVSPropertyOp31
 70
     1
102
RTVSPropertyOp32
 70
     1
102
RTVSPropertyOp33
 70
     1
102
RTVSPropertyOp34
 70
     1
102
RTVSPropertyOp35
 70
     1
102
RTVSPropertyOp36
 70
     1
102
RTVSPropertyOp37
 70
     1
102
RTVSPropertyOp38
 70
     1
102
RTVSPropertyOp39
 70
     1
102
RTVSPropertyOp40
 70
     1
102
RTVSPropertyOp41
 70
     1
102
RTVSPropertyOp42
 70
     1
102
RTVSPropertyOp43
 70
     1
102
RTVSPropertyOp44
 70
     1
102
RTVSPropertyOp45
 70
     1
102
RTVSPropertyOp46
 70
     1
102
RTVSPropertyOp47
 70
     1
102
RTVSPropertyOp48
 70
     1
102
RTVSPropertyOp49
 70
     1
102
RTVSPropertyOp50
 70
     1
102
RTVSPropertyOp51
 70
     0
102
RTVSPropertyOp52
 70
     0
102
RTVSPropertyOp53
 70
     1
102
RTVSPropertyOp54
 70
     1
102
RTVSPropertyOp55
 70
     1
102
RTVSPropertyOp56
 70
     1
102
RTVSPropertyOp57
 70
     1
102
RTVSPropertyOp58
 70
     1
102
RTVSPropertyOp59
 70
     1
102
RTVSPropertyOp60
 70
     1
102
RTVSPropertyOp61
 70
     1
102
RTVSPropertyOp62
 70
     1
  0
XRECORD
  5
886C
102
{ACAD_REACTORS
330
886B
102
}
330
886B
100
AcDbXrecord
280
     1
102
RTVSPost2010Prop28
280
     0
102
RTVSPost2010PropOp28
 70
     1
102
RTVSPost2010Prop29
280
     1
102
RTVSPost2010PropOp29
 70
     1
102
RTVSPost2010Prop30
280
     1
102
RTVSPost2010PropOp30
 70
     1
102
RTVSPost2010Prop31
280
     0
102
RTVSPost2010PropOp31
 70
     1
102
RTVSPost2010Prop32
280
     0
102
RTVSPost2010PropOp32
 70
     1
102
RTVSPost2010Prop33
280
     0
102
RTVSPost2010PropOp33
 70
     1
102
RTVSPost2010Prop34
280
     0
102
RTVSPost2010PropOp34
 70
     1
102
RTVSPost2010Prop35
280
     0
102
RTVSPost2010PropOp35
 70
     1
102
RTVSPost2010Prop36
280
     0
102
RTVSPost2010PropOp36
 70
     1
102
RTVSPost2010Prop37
 90
       50
102
RTVSPost2010PropOp37
 70
     1
102
RTVSPost2010Prop38
140
0.0
102
RTVSPost2010PropOp38
 70
     1
102
RTVSPost2010Prop39
140
1.0
102
RTVSPost2010PropOp39
 70
     1
102
RTVSPost2010Prop40
 90
        0
102
RTVSPost2010PropOp40
 70
     1
102
RTVSPost2010Prop41ColorIndex
 90
       18
102
RTVSPost2010Prop41ColorRGB
 90
        0
102
RTVSPost2010PropOp41
 70
     1
102
RTVSPost2010Prop42
 90
       50
102
RTVSPost2010PropOp42
 70
     1
102
RTVSPost2010Prop43
 90
        3
102
RTVSPost2010PropOp43
 70
     1
102
RTVSPost2010Prop44ColorIndex
 90
        5
102
RTVSPost2010Prop44ColorRGB
 90
      255
102
RTVSPost2010PropOp44
 70
     1
102
RTVSPost2010Prop45
280
     0
102
RTVSPost2010PropOp45
 70
     1
102
RTVSPost2010Prop46
 90
       50
102
RTVSPost2010PropOp46
 70
     1
102
RTVSPost2010Prop47
 90
       50
102
RTVSPost2010PropOp47
 70
     1
102
RTVSPost2010Prop48
 90
       50
102
RTVSPost2010PropOp48
 70
     1
102
RTVSPost2010Prop49
280
     0
102
RTVSPost2010PropOp49
 70
     1
102
RTVSPost2010Prop50
 90
       50
102
RTVSPost2010PropOp50
 70
     1
102
RTVSPost2010Prop51ColorIndex
 90
      256
102
RTVSPost2010Prop51ColorRGB
 90
-16777216
102
RTVSPost2010PropOp51
 70
     0
102
RTVSPost2010Prop52
140
1.0
102
RTVSPost2010PropOp52
 70
     0
102
RTVSPost2010Prop53
 90
        2
102
RTVSPost2010PropOp53
 70
     1
102
RTVSPost2010Prop54
  1
strokes_ogs.tif
102
RTVSPost2010PropOp54
 70
     1
102
RTVSPost2010Prop55
280
     0
102
RTVSPost2010PropOp55
 70
     1
102
RTVSPost2010Prop56
140
1.0
102
RTVSPost2010PropOp56
 70
     1
102
RTVSPost2010Prop57
140
1.0
102
RTVSPost2010PropOp57
 70
     1
102
RTVSPropertyOp0
 70
     1
102
RTVSPropertyOp1
 70
     1
102
RTVSPropertyOp2
 70
     1
102
RTVSPropertyOp3
 70
     1
102
RTVSPropertyOp4
 70
     1
102
RTVSPropertyOp5
 70
     1
102
RTVSPropertyOp6
 70
     1
102
RTVSPropertyOp7
 70
     1
102
RTVSPropertyOp8
 70
     1
102
RTVSPropertyOp9
 70
     1
102
RTVSPropertyOp10
 70
     1
102
RTVSPropertyOp11
 70
     1
102
RTVSPropertyOp12
 70
     1
102
RTVSPropertyOp13
 70
     1
102
RTVSPropertyOp14
 70
     1
102
RTVSPropertyOp15
 70
     1
102
RTVSPropertyOp16
 70
     1
102
RTVSPropertyOp17
 70
     1
102
RTVSPropertyOp18
 70
     1
102
RTVSPropertyOp19
 70
     1
102
RTVSPropertyOp20
 70
     1
102
RTVSPropertyOp21
 70
     1
102
RTVSPropertyOp22
 70
     1
102
RTVSPropertyOp23
 70
     1
102
RTVSPropertyOp24
 70
     1
102
RTVSPropertyOp25
 70
     1
102
RTVSPropertyOp26
 70
     1
102
RTVSPropertyOp27
 70
     1
102
RTVSPropertyOp28
 70
     1
102
RTVSPropertyOp29
 70
     1
102
RTVSPropertyOp30
 70
     1
102
RTVSPropertyOp31
 70
     1
102
RTVSPropertyOp32
 70
     1
102
RTVSPropertyOp33
 70
     1
102
RTVSPropertyOp34
 70
     1
102
RTVSPropertyOp35
 70
     1
102
RTVSPropertyOp36
 70
     1
102
RTVSPropertyOp37
 70
     1
102
RTVSPropertyOp38
 70
     1
102
RTVSPropertyOp39
 70
     1
102
RTVSPropertyOp40
 70
     1
102
RTVSPropertyOp41
 70
     1
102
RTVSPropertyOp42
 70
     1
102
RTVSPropertyOp43
 70
     1
102
RTVSPropertyOp44
 70
     1
102
RTVSPropertyOp45
 70
     1
102
RTVSPropertyOp46
 70
     1
102
RTVSPropertyOp47
 70
     1
102
RTVSPropertyOp48
 70
     1
102
RTVSPropertyOp49
 70
     1
102
RTVSPropertyOp50
 70
     1
102
RTVSPropertyOp51
 70
     0
102
RTVSPropertyOp52
 70
     0
102
RTVSPropertyOp53
 70
     1
102
RTVSPropertyOp54
 70
     1
102
RTVSPropertyOp55
 70
     1
102
RTVSPropertyOp56
 70
     1
102
RTVSPropertyOp57
 70
     1
102
RTVSPropertyOp58
 70
     1
102
RTVSPropertyOp59
 70
     1
102
RTVSPropertyOp60
 70
     1
102
RTVSPropertyOp61
 70
     1
102
RTVSPropertyOp62
 70
     1
  0
XRECORD
  5
886E
102
{ACAD_REACTORS
330
886D
102
}
330
886D
100
AcDbXrecord
280
     1
102
RTVSPost2010Prop28
280
     0
102
RTVSPost2010PropOp28
 70
     1
102
RTVSPost2010Prop29
280
     1
102
RTVSPost2010PropOp29
 70
     1
102
RTVSPost2010Prop30
280
     1
102
RTVSPost2010PropOp30
 70
     1
102
RTVSPost2010Prop31
280
     0
102
RTVSPost2010PropOp31
 70
     1
102
RTVSPost2010Prop32
280
     0
102
RTVSPost2010PropOp32
 70
     1
102
RTVSPost2010Prop33
280
     0
102
RTVSPost2010PropOp33
 70
     1
102
RTVSPost2010Prop34
280
     0
102
RTVSPost2010PropOp34
 70
     1
102
RTVSPost2010Prop35
280
     0
102
RTVSPost2010PropOp35
 70
     1
102
RTVSPost2010Prop36
280
     0
102
RTVSPost2010PropOp36
 70
     1
102
RTVSPost2010Prop37
 90
       50
102
RTVSPost2010PropOp37
 70
     1
102
RTVSPost2010Prop38
140
0.0
102
RTVSPost2010PropOp38
 70
     1
102
RTVSPost2010Prop39
140
1.0
102
RTVSPost2010PropOp39
 70
     1
102
RTVSPost2010Prop40
 90
        0
102
RTVSPost2010PropOp40
 70
     1
102
RTVSPost2010Prop41ColorIndex
 90
       18
102
RTVSPost2010Prop41ColorRGB
 90
        0
102
RTVSPost2010PropOp41
 70
     1
102
RTVSPost2010Prop42
 90
       50
102
RTVSPost2010PropOp42
 70
     1
102
RTVSPost2010Prop43
 90
        3
102
RTVSPost2010PropOp43
 70
     1
102
RTVSPost2010Prop44ColorIndex
 90
        5
102
RTVSPost2010Prop44ColorRGB
 90
      255
102
RTVSPost2010PropOp44
 70
     1
102
RTVSPost2010Prop45
280
     0
102
RTVSPost2010PropOp45
 70
     1
102
RTVSPost2010Prop46
 90
       50
102
RTVSPost2010PropOp46
 70
     1
102
RTVSPost2010Prop47
 90
       50
102
RTVSPost2010PropOp47
 70
     1
102
RTVSPost2010Prop48
 90
       50
102
RTVSPost2010PropOp48
 70
     1
102
RTVSPost2010Prop49
280
     0
102
RTVSPost2010PropOp49
 70
     1
102
RTVSPost2010Prop50
 90
       50
102
RTVSPost2010PropOp50
 70
     1
102
RTVSPost2010Prop51ColorIndex
 90
      256
102
RTVSPost2010Prop51ColorRGB
 90
-16777216
102
RTVSPost2010PropOp51
 70
     0
102
RTVSPost2010Prop52
140
1.0
102
RTVSPost2010PropOp52
 70
     0
102
RTVSPost2010Prop53
 90
        2
102
RTVSPost2010PropOp53
 70
     1
102
RTVSPost2010Prop54
  1
strokes_ogs.tif
102
RTVSPost2010PropOp54
 70
     1
102
RTVSPost2010Prop55
280
     0
102
RTVSPost2010PropOp55
 70
     1
102
RTVSPost2010Prop56
140
1.0
102
RTVSPost2010PropOp56
 70
     1
102
RTVSPost2010Prop57
140
1.0
102
RTVSPost2010PropOp57
 70
     1
102
RTVSPropertyOp0
 70
     1
102
RTVSPropertyOp1
 70
     1
102
RTVSPropertyOp2
 70
     1
102
RTVSPropertyOp3
 70
     1
102
RTVSPropertyOp4
 70
     1
102
RTVSPropertyOp5
 70
     1
102
RTVSPropertyOp6
 70
     1
102
RTVSPropertyOp7
 70
     1
102
RTVSPropertyOp8
 70
     1
102
RTVSPropertyOp9
 70
     1
102
RTVSPropertyOp10
 70
     1
102
RTVSPropertyOp11
 70
     1
102
RTVSPropertyOp12
 70
     1
102
RTVSPropertyOp13
 70
     1
102
RTVSPropertyOp14
 70
     1
102
RTVSPropertyOp15
 70
     1
102
RTVSPropertyOp16
 70
     1
102
RTVSPropertyOp17
 70
     1
102
RTVSPropertyOp18
 70
     1
102
RTVSPropertyOp19
 70
     1
102
RTVSPropertyOp20
 70
     1
102
RTVSPropertyOp21
 70
     1
102
RTVSPropertyOp22
 70
     1
102
RTVSPropertyOp23
 70
     1
102
RTVSPropertyOp24
 70
     1
102
RTVSPropertyOp25
 70
     1
102
RTVSPropertyOp26
 70
     1
102
RTVSPropertyOp27
 70
     1
102
RTVSPropertyOp28
 70
     1
102
RTVSPropertyOp29
 70
     1
102
RTVSPropertyOp30
 70
     1
102
RTVSPropertyOp31
 70
     1
102
RTVSPropertyOp32
 70
     1
102
RTVSPropertyOp33
 70
     1
102
RTVSPropertyOp34
 70
     1
102
RTVSPropertyOp35
 70
     1
102
RTVSPropertyOp36
 70
     1
102
RTVSPropertyOp37
 70
     1
102
RTVSPropertyOp38
 70
     1
102
RTVSPropertyOp39
 70
     1
102
RTVSPropertyOp40
 70
     1
102
RTVSPropertyOp41
 70
     1
102
RTVSPropertyOp42
 70
     1
102
RTVSPropertyOp43
 70
     1
102
RTVSPropertyOp44
 70
     1
102
RTVSPropertyOp45
 70
     1
102
RTVSPropertyOp46
 70
     1
102
RTVSPropertyOp47
 70
     1
102
RTVSPropertyOp48
 70
     1
102
RTVSPropertyOp49
 70
     1
102
RTVSPropertyOp50
 70
     1
102
RTVSPropertyOp51
 70
     0
102
RTVSPropertyOp52
 70
     0
102
RTVSPropertyOp53
 70
     1
102
RTVSPropertyOp54
 70
     1
102
RTVSPropertyOp55
 70
     1
102
RTVSPropertyOp56
 70
     1
102
RTVSPropertyOp57
 70
     1
102
RTVSPropertyOp58
 70
     1
102
RTVSPropertyOp59
 70
     1
102
RTVSPropertyOp60
 70
     1
102
RTVSPropertyOp61
 70
     1
102
RTVSPropertyOp62
 70
     1
  0
XRECORD
  5
8870
102
{ACAD_REACTORS
330
886F
102
}
330
886F
100
AcDbXrecord
280
     1
102
RTVSPost2010Prop28
280
     0
102
RTVSPost2010PropOp28
 70
     1
102
RTVSPost2010Prop29
280
     1
102
RTVSPost2010PropOp29
 70
     1
102
RTVSPost2010Prop30
280
     1
102
RTVSPost2010PropOp30
 70
     1
102
RTVSPost2010Prop31
280
     0
102
RTVSPost2010PropOp31
 70
     1
102
RTVSPost2010Prop32
280
     0
102
RTVSPost2010PropOp32
 70
     1
102
RTVSPost2010Prop33
280
     0
102
RTVSPost2010PropOp33
 70
     1
102
RTVSPost2010Prop34
280
     0
102
RTVSPost2010PropOp34
 70
     1
102
RTVSPost2010Prop35
280
     0
102
RTVSPost2010PropOp35
 70
     1
102
RTVSPost2010Prop36
280
     0
102
RTVSPost2010PropOp36
 70
     1
102
RTVSPost2010Prop37
 90
       50
102
RTVSPost2010PropOp37
 70
     1
102
RTVSPost2010Prop38
140
0.0
102
RTVSPost2010PropOp38
 70
     1
102
RTVSPost2010Prop39
140
1.0
102
RTVSPost2010PropOp39
 70
     1
102
RTVSPost2010Prop40
 90
        0
102
RTVSPost2010PropOp40
 70
     1
102
RTVSPost2010Prop41ColorIndex
 90
       18
102
RTVSPost2010Prop41ColorRGB
 90
        0
102
RTVSPost2010PropOp41
 70
     1
102
RTVSPost2010Prop42
 90
       50
102
RTVSPost2010PropOp42
 70
     1
102
RTVSPost2010Prop43
 90
        3
102
RTVSPost2010PropOp43
 70
     1
102
RTVSPost2010Prop44ColorIndex
 90
        5
102
RTVSPost2010Prop44ColorRGB
 90
      255
102
RTVSPost2010PropOp44
 70
     1
102
RTVSPost2010Prop45
280
     0
102
RTVSPost2010PropOp45
 70
     1
102
RTVSPost2010Prop46
 90
       50
102
RTVSPost2010PropOp46
 70
     1
102
RTVSPost2010Prop47
 90
       50
102
RTVSPost2010PropOp47
 70
     1
102
RTVSPost2010Prop48
 90
       50
102
RTVSPost2010PropOp48
 70
     1
102
RTVSPost2010Prop49
280
     0
102
RTVSPost2010PropOp49
 70
     1
102
RTVSPost2010Prop50
 90
       50
102
RTVSPost2010PropOp50
 70
     1
102
RTVSPost2010Prop51ColorIndex
 90
      256
102
RTVSPost2010Prop51ColorRGB
 90
-16777216
102
RTVSPost2010PropOp51
 70
     0
102
RTVSPost2010Prop52
140
1.0
102
RTVSPost2010PropOp52
 70
     0
102
RTVSPost2010Prop53
 90
        2
102
RTVSPost2010PropOp53
 70
     1
102
RTVSPost2010Prop54
  1
strokes_ogs.tif
102
RTVSPost2010PropOp54
 70
     1
102
RTVSPost2010Prop55
280
     0
102
RTVSPost2010PropOp55
 70
     1
102
RTVSPost2010Prop56
140
1.0
102
RTVSPost2010PropOp56
 70
     1
102
RTVSPost2010Prop57
140
1.0
102
RTVSPost2010PropOp57
 70
     1
102
RTVSPropertyOp0
 70
     1
102
RTVSPropertyOp1
 70
     1
102
RTVSPropertyOp2
 70
     1
102
RTVSPropertyOp3
 70
     1
102
RTVSPropertyOp4
 70
     1
102
RTVSPropertyOp5
 70
     1
102
RTVSPropertyOp6
 70
     1
102
RTVSPropertyOp7
 70
     1
102
RTVSPropertyOp8
 70
     1
102
RTVSPropertyOp9
 70
     1
102
RTVSPropertyOp10
 70
     1
102
RTVSPropertyOp11
 70
     1
102
RTVSPropertyOp12
 70
     1
102
RTVSPropertyOp13
 70
     1
102
RTVSPropertyOp14
 70
     1
102
RTVSPropertyOp15
 70
     1
102
RTVSPropertyOp16
 70
     1
102
RTVSPropertyOp17
 70
     1
102
RTVSPropertyOp18
 70
     1
102
RTVSPropertyOp19
 70
     1
102
RTVSPropertyOp20
 70
     1
102
RTVSPropertyOp21
 70
     1
102
RTVSPropertyOp22
 70
     1
102
RTVSPropertyOp23
 70
     1
102
RTVSPropertyOp24
 70
     1
102
RTVSPropertyOp25
 70
     1
102
RTVSPropertyOp26
 70
     1
102
RTVSPropertyOp27
 70
     1
102
RTVSPropertyOp28
 70
     1
102
RTVSPropertyOp29
 70
     1
102
RTVSPropertyOp30
 70
     1
102
RTVSPropertyOp31
 70
     1
102
RTVSPropertyOp32
 70
     1
102
RTVSPropertyOp33
 70
     1
102
RTVSPropertyOp34
 70
     1
102
RTVSPropertyOp35
 70
     1
102
RTVSPropertyOp36
 70
     1
102
RTVSPropertyOp37
 70
     1
102
RTVSPropertyOp38
 70
     1
102
RTVSPropertyOp39
 70
     1
102
RTVSPropertyOp40
 70
     1
102
RTVSPropertyOp41
 70
     1
102
RTVSPropertyOp42
 70
     1
102
RTVSPropertyOp43
 70
     1
102
RTVSPropertyOp44
 70
     1
102
RTVSPropertyOp45
 70
     1
102
RTVSPropertyOp46
 70
     1
102
RTVSPropertyOp47
 70
     1
102
RTVSPropertyOp48
 70
     1
102
RTVSPropertyOp49
 70
     1
102
RTVSPropertyOp50
 70
     1
102
RTVSPropertyOp51
 70
     0
102
RTVSPropertyOp52
 70
     0
102
RTVSPropertyOp53
 70
     1
102
RTVSPropertyOp54
 70
     1
102
RTVSPropertyOp55
 70
     1
102
RTVSPropertyOp56
 70
     1
102
RTVSPropertyOp57
 70
     1
102
RTVSPropertyOp58
 70
     1
102
RTVSPropertyOp59
 70
     1
102
RTVSPropertyOp60
 70
     1
102
RTVSPropertyOp61
 70
     1
102
RTVSPropertyOp62
 70
     1
  0
XRECORD
  5
8872
102
{ACAD_REACTORS
330
8871
102
}
330
8871
100
AcDbXrecord
280
     1
102
RTVSPost2010Prop28
280
     0
102
RTVSPost2010PropOp28
 70
     1
102
RTVSPost2010Prop29
280
     1
102
RTVSPost2010PropOp29
 70
     1
102
RTVSPost2010Prop30
280
     1
102
RTVSPost2010PropOp30
 70
     1
102
RTVSPost2010Prop31
280
     0
102
RTVSPost2010PropOp31
 70
     1
102
RTVSPost2010Prop32
280
     0
102
RTVSPost2010PropOp32
 70
     1
102
RTVSPost2010Prop33
280
     0
102
RTVSPost2010PropOp33
 70
     1
102
RTVSPost2010Prop34
280
     0
102
RTVSPost2010PropOp34
 70
     1
102
RTVSPost2010Prop35
280
     0
102
RTVSPost2010PropOp35
 70
     1
102
RTVSPost2010Prop36
280
     0
102
RTVSPost2010PropOp36
 70
     1
102
RTVSPost2010Prop37
 90
       50
102
RTVSPost2010PropOp37
 70
     1
102
RTVSPost2010Prop38
140
0.0
102
RTVSPost2010PropOp38
 70
     1
102
RTVSPost2010Prop39
140
1.0
102
RTVSPost2010PropOp39
 70
     1
102
RTVSPost2010Prop40
 90
        0
102
RTVSPost2010PropOp40
 70
     1
102
RTVSPost2010Prop41ColorIndex
 90
       18
102
RTVSPost2010Prop41ColorRGB
 90
        0
102
RTVSPost2010PropOp41
 70
     1
102
RTVSPost2010Prop42
 90
       50
102
RTVSPost2010PropOp42
 70
     1
102
RTVSPost2010Prop43
 90
        3
102
RTVSPost2010PropOp43
 70
     1
102
RTVSPost2010Prop44ColorIndex
 90
        5
102
RTVSPost2010Prop44ColorRGB
 90
      255
102
RTVSPost2010PropOp44
 70
     1
102
RTVSPost2010Prop45
280
     0
102
RTVSPost2010PropOp45
 70
     1
102
RTVSPost2010Prop46
 90
       50
102
RTVSPost2010PropOp46
 70
     1
102
RTVSPost2010Prop47
 90
       50
102
RTVSPost2010PropOp47
 70
     1
102
RTVSPost2010Prop48
 90
       50
102
RTVSPost2010PropOp48
 70
     1
102
RTVSPost2010Prop49
280
     0
102
RTVSPost2010PropOp49
 70
     1
102
RTVSPost2010Prop50
 90
       50
102
RTVSPost2010PropOp50
 70
     1
102
RTVSPost2010Prop51ColorIndex
 90
      256
102
RTVSPost2010Prop51ColorRGB
 90
-16777216
102
RTVSPost2010PropOp51
 70
     0
102
RTVSPost2010Prop52
140
1.0
102
RTVSPost2010PropOp52
 70
     0
102
RTVSPost2010Prop53
 90
        2
102
RTVSPost2010PropOp53
 70
     1
102
RTVSPost2010Prop54
  1
strokes_ogs.tif
102
RTVSPost2010PropOp54
 70
     1
102
RTVSPost2010Prop55
280
     0
102
RTVSPost2010PropOp55
 70
     1
102
RTVSPost2010Prop56
140
1.0
102
RTVSPost2010PropOp56
 70
     1
102
RTVSPost2010Prop57
140
1.0
102
RTVSPost2010PropOp57
 70
     1
102
RTVSPropertyOp0
 70
     1
102
RTVSPropertyOp1
 70
     1
102
RTVSPropertyOp2
 70
     1
102
RTVSPropertyOp3
 70
     1
102
RTVSPropertyOp4
 70
     1
102
RTVSPropertyOp5
 70
     1
102
RTVSPropertyOp6
 70
     1
102
RTVSPropertyOp7
 70
     1
102
RTVSPropertyOp8
 70
     1
102
RTVSPropertyOp9
 70
     1
102
RTVSPropertyOp10
 70
     1
102
RTVSPropertyOp11
 70
     1
102
RTVSPropertyOp12
 70
     1
102
RTVSPropertyOp13
 70
     1
102
RTVSPropertyOp14
 70
     1
102
RTVSPropertyOp15
 70
     1
102
RTVSPropertyOp16
 70
     1
102
RTVSPropertyOp17
 70
     1
102
RTVSPropertyOp18
 70
     1
102
RTVSPropertyOp19
 70
     1
102
RTVSPropertyOp20
 70
     1
102
RTVSPropertyOp21
 70
     1
102
RTVSPropertyOp22
 70
     1
102
RTVSPropertyOp23
 70
     1
102
RTVSPropertyOp24
 70
     1
102
RTVSPropertyOp25
 70
     1
102
RTVSPropertyOp26
 70
     1
102
RTVSPropertyOp27
 70
     1
102
RTVSPropertyOp28
 70
     1
102
RTVSPropertyOp29
 70
     1
102
RTVSPropertyOp30
 70
     1
102
RTVSPropertyOp31
 70
     1
102
RTVSPropertyOp32
 70
     1
102
RTVSPropertyOp33
 70
     1
102
RTVSPropertyOp34
 70
     1
102
RTVSPropertyOp35
 70
     1
102
RTVSPropertyOp36
 70
     1
102
RTVSPropertyOp37
 70
     1
102
RTVSPropertyOp38
 70
     1
102
RTVSPropertyOp39
 70
     1
102
RTVSPropertyOp40
 70
     1
102
RTVSPropertyOp41
 70
     1
102
RTVSPropertyOp42
 70
     1
102
RTVSPropertyOp43
 70
     1
102
RTVSPropertyOp44
 70
     1
102
RTVSPropertyOp45
 70
     1
102
RTVSPropertyOp46
 70
     1
102
RTVSPropertyOp47
 70
     1
102
RTVSPropertyOp48
 70
     1
102
RTVSPropertyOp49
 70
     1
102
RTVSPropertyOp50
 70
     1
102
RTVSPropertyOp51
 70
     0
102
RTVSPropertyOp52
 70
     0
102
RTVSPropertyOp53
 70
     1
102
RTVSPropertyOp54
 70
     1
102
RTVSPropertyOp55
 70
     1
102
RTVSPropertyOp56
 70
     1
102
RTVSPropertyOp57
 70
     1
102
RTVSPropertyOp58
 70
     1
102
RTVSPropertyOp59
 70
     1
102
RTVSPropertyOp60
 70
     1
102
RTVSPropertyOp61
 70
     1
102
RTVSPropertyOp62
 70
     1
  0
XRECORD
  5
887A
102
{ACAD_REACTORS
330
8879
102
}
330
8879
100
AcDbXrecord
280
     1
102
RTVSPost2010Prop28
280
     0
102
RTVSPost2010PropOp28
 70
     1
102
RTVSPost2010Prop29
280
     1
102
RTVSPost2010PropOp29
 70
     1
102
RTVSPost2010Prop30
280
     1
102
RTVSPost2010PropOp30
 70
     1
102
RTVSPost2010Prop31
280
     0
102
RTVSPost2010PropOp31
 70
     1
102
RTVSPost2010Prop32
280
     0
102
RTVSPost2010PropOp32
 70
     1
102
RTVSPost2010Prop33
280
     0
102
RTVSPost2010PropOp33
 70
     1
102
RTVSPost2010Prop34
280
     0
102
RTVSPost2010PropOp34
 70
     1
102
RTVSPost2010Prop35
280
     0
102
RTVSPost2010PropOp35
 70
     1
102
RTVSPost2010Prop36
280
     0
102
RTVSPost2010PropOp36
 70
     1
102
RTVSPost2010Prop37
 90
       50
102
RTVSPost2010PropOp37
 70
     1
102
RTVSPost2010Prop38
140
0.0
102
RTVSPost2010PropOp38
 70
     1
102
RTVSPost2010Prop39
140
1.0
102
RTVSPost2010PropOp39
 70
     1
102
RTVSPost2010Prop40
 90
        0
102
RTVSPost2010PropOp40
 70
     1
102
RTVSPost2010Prop41ColorIndex
 90
       18
102
RTVSPost2010Prop41ColorRGB
 90
        0
102
RTVSPost2010PropOp41
 70
     1
102
RTVSPost2010Prop42
 90
       50
102
RTVSPost2010PropOp42
 70
     1
102
RTVSPost2010Prop43
 90
        3
102
RTVSPost2010PropOp43
 70
     1
102
RTVSPost2010Prop44ColorIndex
 90
        5
102
RTVSPost2010Prop44ColorRGB
 90
      255
102
RTVSPost2010PropOp44
 70
     1
102
RTVSPost2010Prop45
280
     0
102
RTVSPost2010PropOp45
 70
     1
102
RTVSPost2010Prop46
 90
       50
102
RTVSPost2010PropOp46
 70
     1
102
RTVSPost2010Prop47
 90
       50
102
RTVSPost2010PropOp47
 70
     1
102
RTVSPost2010Prop48
 90
       50
102
RTVSPost2010PropOp48
 70
     1
102
RTVSPost2010Prop49
280
     0
102
RTVSPost2010PropOp49
 70
     1
102
RTVSPost2010Prop50
 90
       50
102
RTVSPost2010PropOp50
 70
     1
102
RTVSPost2010Prop51ColorIndex
 90
      256
102
RTVSPost2010Prop51ColorRGB
 90
-16777216
102
RTVSPost2010PropOp51
 70
     0
102
RTVSPost2010Prop52
140
1.0
102
RTVSPost2010PropOp52
 70
     0
102
RTVSPost2010Prop53
 90
        2
102
RTVSPost2010PropOp53
 70
     1
102
RTVSPost2010Prop54
  1
strokes_ogs.tif
102
RTVSPost2010PropOp54
 70
     1
102
RTVSPost2010Prop55
280
     0
102
RTVSPost2010PropOp55
 70
     1
102
RTVSPost2010Prop56
140
1.0
102
RTVSPost2010PropOp56
 70
     1
102
RTVSPost2010Prop57
140
1.0
102
RTVSPost2010PropOp57
 70
     1
102
RTVSPropertyOp0
 70
     1
102
RTVSPropertyOp1
 70
     1
102
RTVSPropertyOp2
 70
     1
102
RTVSPropertyOp3
 70
     1
102
RTVSPropertyOp4
 70
     1
102
RTVSPropertyOp5
 70
     1
102
RTVSPropertyOp6
 70
     1
102
RTVSPropertyOp7
 70
     1
102
RTVSPropertyOp8
 70
     1
102
RTVSPropertyOp9
 70
     1
102
RTVSPropertyOp10
 70
     1
102
RTVSPropertyOp11
 70
     1
102
RTVSPropertyOp12
 70
     1
102
RTVSPropertyOp13
 70
     1
102
RTVSPropertyOp14
 70
     1
102
RTVSPropertyOp15
 70
     1
102
RTVSPropertyOp16
 70
     1
102
RTVSPropertyOp17
 70
     1
102
RTVSPropertyOp18
 70
     1
102
RTVSPropertyOp19
 70
     1
102
RTVSPropertyOp20
 70
     1
102
RTVSPropertyOp21
 70
     1
102
RTVSPropertyOp22
 70
     1
102
RTVSPropertyOp23
 70
     1
102
RTVSPropertyOp24
 70
     1
102
RTVSPropertyOp25
 70
     1
102
RTVSPropertyOp26
 70
     1
102
RTVSPropertyOp27
 70
     1
102
RTVSPropertyOp28
 70
     1
102
RTVSPropertyOp29
 70
     1
102
RTVSPropertyOp30
 70
     1
102
RTVSPropertyOp31
 70
     1
102
RTVSPropertyOp32
 70
     1
102
RTVSPropertyOp33
 70
     1
102
RTVSPropertyOp34
 70
     1
102
RTVSPropertyOp35
 70
     1
102
RTVSPropertyOp36
 70
     1
102
RTVSPropertyOp37
 70
     1
102
RTVSPropertyOp38
 70
     1
102
RTVSPropertyOp39
 70
     1
102
RTVSPropertyOp40
 70
     1
102
RTVSPropertyOp41
 70
     1
102
RTVSPropertyOp42
 70
     1
102
RTVSPropertyOp43
 70
     1
102
RTVSPropertyOp44
 70
     1
102
RTVSPropertyOp45
 70
     1
102
RTVSPropertyOp46
 70
     1
102
RTVSPropertyOp47
 70
     1
102
RTVSPropertyOp48
 70
     1
102
RTVSPropertyOp49
 70
     1
102
RTVSPropertyOp50
 70
     1
102
RTVSPropertyOp51
 70
     0
102
RTVSPropertyOp52
 70
     0
102
RTVSPropertyOp53
 70
     1
102
RTVSPropertyOp54
 70
     1
102
RTVSPropertyOp55
 70
     1
102
RTVSPropertyOp56
 70
     1
102
RTVSPropertyOp57
 70
     1
102
RTVSPropertyOp58
 70
     1
102
RTVSPropertyOp59
 70
     1
102
RTVSPropertyOp60
 70
     1
102
RTVSPropertyOp61
 70
     1
102
RTVSPropertyOp62
 70
     1
  0
XRECORD
  5
8896
102
{ACAD_REACTORS
330
8895
102
}
330
8895
100
AcDbXrecord
280
     1
102
RTVSPost2010Prop28
280
     0
102
RTVSPost2010PropOp28
 70
     1
102
RTVSPost2010Prop29
280
     1
102
RTVSPost2010PropOp29
 70
     1
102
RTVSPost2010Prop30
280
     1
102
RTVSPost2010PropOp30
 70
     1
102
RTVSPost2010Prop31
280
     0
102
RTVSPost2010PropOp31
 70
     1
102
RTVSPost2010Prop32
280
     0
102
RTVSPost2010PropOp32
 70
     1
102
RTVSPost2010Prop33
280
     0
102
RTVSPost2010PropOp33
 70
     1
102
RTVSPost2010Prop34
280
     0
102
RTVSPost2010PropOp34
 70
     1
102
RTVSPost2010Prop35
280
     0
102
RTVSPost2010PropOp35
 70
     1
102
RTVSPost2010Prop36
280
     0
102
RTVSPost2010PropOp36
 70
     1
102
RTVSPost2010Prop37
 90
       50
102
RTVSPost2010PropOp37
 70
     0
102
RTVSPost2010Prop38
140
0.0
102
RTVSPost2010PropOp38
 70
     0
102
RTVSPost2010Prop39
140
1.0
102
RTVSPost2010PropOp39
 70
     0
102
RTVSPost2010Prop40
 90
        0
102
RTVSPost2010PropOp40
 70
     0
102
RTVSPost2010Prop41ColorIndex
 90
       18
102
RTVSPost2010Prop41ColorRGB
 90
        0
102
RTVSPost2010PropOp41
 70
     0
102
RTVSPost2010Prop42
 90
       50
102
RTVSPost2010PropOp42
 70
     0
102
RTVSPost2010Prop43
 90
        3
102
RTVSPost2010PropOp43
 70
     0
102
RTVSPost2010Prop44ColorIndex
 90
        5
102
RTVSPost2010Prop44ColorRGB
 90
      255
102
RTVSPost2010PropOp44
 70
     0
102
RTVSPost2010Prop45
280
     0
102
RTVSPost2010PropOp45
 70
     1
102
RTVSPost2010Prop46
 90
       50
102
RTVSPost2010PropOp46
 70
     0
102
RTVSPost2010Prop47
 90
       50
102
RTVSPost2010PropOp47
 70
     0
102
RTVSPost2010Prop48
 90
       50
102
RTVSPost2010PropOp48
 70
     0
102
RTVSPost2010Prop49
280
     0
102
RTVSPost2010PropOp49
 70
     1
102
RTVSPost2010Prop50
 90
       50
102
RTVSPost2010PropOp50
 70
     0
102
RTVSPost2010Prop51ColorIndex
 90
      256
102
RTVSPost2010Prop51ColorRGB
 90
-16777216
102
RTVSPost2010PropOp51
 70
     0
102
RTVSPost2010Prop52
140
1.0
102
RTVSPost2010PropOp52
 70
     0
102
RTVSPost2010Prop53
 90
        2
102
RTVSPost2010PropOp53
 70
     0
102
RTVSPost2010Prop54
  1
strokes_ogs.tif
102
RTVSPost2010PropOp54
 70
     0
102
RTVSPost2010Prop55
280
     0
102
RTVSPost2010PropOp55
 70
     1
102
RTVSPost2010Prop56
140
1.0
102
RTVSPost2010PropOp56
 70
     0
102
RTVSPost2010Prop57
140
1.0
102
RTVSPost2010PropOp57
 70
     0
102
RTVSPropertyOp0
 70
     0
102
RTVSPropertyOp1
 70
     0
102
RTVSPropertyOp2
 70
     0
102
RTVSPropertyOp3
 70
     0
102
RTVSPropertyOp4
 70
     0
102
RTVSPropertyOp5
 70
     0
102
RTVSPropertyOp6
 70
     0
102
RTVSPropertyOp7
 70
     0
102
RTVSPropertyOp8
 70
     0
102
RTVSPropertyOp9
 70
     0
102
RTVSPropertyOp10
 70
     0
102
RTVSPropertyOp11
 70
     0
102
RTVSPropertyOp12
 70
     0
102
RTVSPropertyOp13
 70
     0
102
RTVSPropertyOp14
 70
     2
102
RTVSPropertyOp15
 70
     0
102
RTVSPropertyOp16
 70
     0
102
RTVSPropertyOp17
 70
     0
102
RTVSPropertyOp18
 70
     0
102
RTVSPropertyOp19
 70
     0
102
RTVSPropertyOp20
 70
     0
102
RTVSPropertyOp21
 70
     0
102
RTVSPropertyOp22
 70
     0
102
RTVSPropertyOp23
 70
     0
102
RTVSPropertyOp24
 70
     0
102
RTVSPropertyOp25
 70
     0
102
RTVSPropertyOp26
 70
     0
102
RTVSPropertyOp27
 70
     0
102
RTVSPropertyOp28
 70
     1
102
RTVSPropertyOp29
 70
     1
102
RTVSPropertyOp30
 70
     1
102
RTVSPropertyOp31
 70
     1
102
RTVSPropertyOp32
 70
     1
102
RTVSPropertyOp33
 70
     1
102
RTVSPropertyOp34
 70
     1
102
RTVSPropertyOp35
 70
     1
102
RTVSPropertyOp36
 70
     1
102
RTVSPropertyOp37
 70
     0
102
RTVSPropertyOp38
 70
     0
102
RTVSPropertyOp39
 70
     0
102
RTVSPropertyOp40
 70
     0
102
RTVSPropertyOp41
 70
     0
102
RTVSPropertyOp42
 70
     0
102
RTVSPropertyOp43
 70
     0
102
RTVSPropertyOp44
 70
     0
102
RTVSPropertyOp45
 70
     1
102
RTVSPropertyOp46
 70
     0
102
RTVSPropertyOp47
 70
     0
102
RTVSPropertyOp48
 70
     0
102
RTVSPropertyOp49
 70
     1
102
RTVSPropertyOp50
 70
     0
102
RTVSPropertyOp51
 70
     0
102
RTVSPropertyOp52
 70
     0
102
RTVSPropertyOp53
 70
     0
102
RTVSPropertyOp54
 70
     0
102
RTVSPropertyOp55
 70
     1
102
RTVSPropertyOp56
 70
     0
102
RTVSPropertyOp57
 70
     0
102
RTVSPropertyOp58
 70
     0
102
RTVSPropertyOp59
 70
     0
102
RTVSPropertyOp60
 70
     0
102
RTVSPropertyOp61
 70
     0
102
RTVSPropertyOp62
 70
     0
  0
XRECORD
  5
8886
102
{ACAD_REACTORS
330
8885
102
}
330
8885
100
AcDbXrecord
280
     1
102
RTVSPost2010Prop28
280
     0
102
RTVSPost2010PropOp28
 70
     1
102
RTVSPost2010Prop29
280
     1
102
RTVSPost2010PropOp29
 70
     1
102
RTVSPost2010Prop30
280
     1
102
RTVSPost2010PropOp30
 70
     1
102
RTVSPost2010Prop31
280
     0
102
RTVSPost2010PropOp31
 70
     1
102
RTVSPost2010Prop32
280
     0
102
RTVSPost2010PropOp32
 70
     1
102
RTVSPost2010Prop33
280
     0
102
RTVSPost2010PropOp33
 70
     1
102
RTVSPost2010Prop34
280
     0
102
RTVSPost2010PropOp34
 70
     1
102
RTVSPost2010Prop35
280
     0
102
RTVSPost2010PropOp35
 70
     1
102
RTVSPost2010Prop36
280
     0
102
RTVSPost2010PropOp36
 70
     1
102
RTVSPost2010Prop37
 90
       50
102
RTVSPost2010PropOp37
 70
     1
102
RTVSPost2010Prop38
140
0.0
102
RTVSPost2010PropOp38
 70
     1
102
RTVSPost2010Prop39
140
1.0
102
RTVSPost2010PropOp39
 70
     1
102
RTVSPost2010Prop40
 90
        0
102
RTVSPost2010PropOp40
 70
     1
102
RTVSPost2010Prop41ColorIndex
 90
       18
102
RTVSPost2010Prop41ColorRGB
 90
        0
102
RTVSPost2010PropOp41
 70
     1
102
RTVSPost2010Prop42
 90
       50
102
RTVSPost2010PropOp42
 70
     1
102
RTVSPost2010Prop43
 90
        3
102
RTVSPost2010PropOp43
 70
     1
102
RTVSPost2010Prop44ColorIndex
 90
        5
102
RTVSPost2010Prop44ColorRGB
 90
      255
102
RTVSPost2010PropOp44
 70
     1
102
RTVSPost2010Prop45
280
     0
102
RTVSPost2010PropOp45
 70
     1
102
RTVSPost2010Prop46
 90
       50
102
RTVSPost2010PropOp46
 70
     1
102
RTVSPost2010Prop47
 90
       50
102
RTVSPost2010PropOp47
 70
     1
102
RTVSPost2010Prop48
 90
       50
102
RTVSPost2010PropOp48
 70
     1
102
RTVSPost2010Prop49
280
     0
102
RTVSPost2010PropOp49
 70
     1
102
RTVSPost2010Prop50
 90
       50
102
RTVSPost2010PropOp50
 70
     1
102
RTVSPost2010Prop51ColorIndex
 90
      256
102
RTVSPost2010Prop51ColorRGB
 90
-16777216
102
RTVSPost2010PropOp51
 70
     0
102
RTVSPost2010Prop52
140
1.0
102
RTVSPost2010PropOp52
 70
     0
102
RTVSPost2010Prop53
 90
        2
102
RTVSPost2010PropOp53
 70
     1
102
RTVSPost2010Prop54
  1
strokes_ogs.tif
102
RTVSPost2010PropOp54
 70
     1
102
RTVSPost2010Prop55
280
     0
102
RTVSPost2010PropOp55
 70
     1
102
RTVSPost2010Prop56
140
1.0
102
RTVSPost2010PropOp56
 70
     1
102
RTVSPost2010Prop57
140
1.0
102
RTVSPost2010PropOp57
 70
     1
102
RTVSPropertyOp0
 70
     1
102
RTVSPropertyOp1
 70
     1
102
RTVSPropertyOp2
 70
     1
102
RTVSPropertyOp3
 70
     1
102
RTVSPropertyOp4
 70
     1
102
RTVSPropertyOp5
 70
     1
102
RTVSPropertyOp6
 70
     1
102
RTVSPropertyOp7
 70
     1
102
RTVSPropertyOp8
 70
     1
102
RTVSPropertyOp9
 70
     1
102
RTVSPropertyOp10
 70
     1
102
RTVSPropertyOp11
 70
     1
102
RTVSPropertyOp12
 70
     1
102
RTVSPropertyOp13
 70
     1
102
RTVSPropertyOp14
 70
     1
102
RTVSPropertyOp15
 70
     1
102
RTVSPropertyOp16
 70
     1
102
RTVSPropertyOp17
 70
     1
102
RTVSPropertyOp18
 70
     1
102
RTVSPropertyOp19
 70
     1
102
RTVSPropertyOp20
 70
     1
102
RTVSPropertyOp21
 70
     1
102
RTVSPropertyOp22
 70
     1
102
RTVSPropertyOp23
 70
     1
102
RTVSPropertyOp24
 70
     1
102
RTVSPropertyOp25
 70
     1
102
RTVSPropertyOp26
 70
     1
102
RTVSPropertyOp27
 70
     1
102
RTVSPropertyOp28
 70
     1
102
RTVSPropertyOp29
 70
     1
102
RTVSPropertyOp30
 70
     1
102
RTVSPropertyOp31
 70
     1
102
RTVSPropertyOp32
 70
     1
102
RTVSPropertyOp33
 70
     1
102
RTVSPropertyOp34
 70
     1
102
RTVSPropertyOp35
 70
     1
102
RTVSPropertyOp36
 70
     1
102
RTVSPropertyOp37
 70
     1
102
RTVSPropertyOp38
 70
     1
102
RTVSPropertyOp39
 70
     1
102
RTVSPropertyOp40
 70
     1
102
RTVSPropertyOp41
 70
     1
102
RTVSPropertyOp42
 70
     1
102
RTVSPropertyOp43
 70
     1
102
RTVSPropertyOp44
 70
     1
102
RTVSPropertyOp45
 70
     1
102
RTVSPropertyOp46
 70
     1
102
RTVSPropertyOp47
 70
     1
102
RTVSPropertyOp48
 70
     1
102
RTVSPropertyOp49
 70
     1
102
RTVSPropertyOp50
 70
     1
102
RTVSPropertyOp51
 70
     0
102
RTVSPropertyOp52
 70
     0
102
RTVSPropertyOp53
 70
     1
102
RTVSPropertyOp54
 70
     1
102
RTVSPropertyOp55
 70
     1
102
RTVSPropertyOp56
 70
     1
102
RTVSPropertyOp57
 70
     1
102
RTVSPropertyOp58
 70
     1
102
RTVSPropertyOp59
 70
     1
102
RTVSPropertyOp60
 70
     1
102
RTVSPropertyOp61
 70
     1
102
RTVSPropertyOp62
 70
     1
  0
XRECORD
  5
8898
102
{ACAD_REACTORS
330
8897
102
}
330
8897
100
AcDbXrecord
280
     1
102
RTVSPost2010Prop28
280
     0
102
RTVSPost2010PropOp28
 70
     1
102
RTVSPost2010Prop29
280
     1
102
RTVSPost2010PropOp29
 70
     1
102
RTVSPost2010Prop30
280
     1
102
RTVSPost2010PropOp30
 70
     1
102
RTVSPost2010Prop31
280
     0
102
RTVSPost2010PropOp31
 70
     1
102
RTVSPost2010Prop32
280
     0
102
RTVSPost2010PropOp32
 70
     1
102
RTVSPost2010Prop33
280
     0
102
RTVSPost2010PropOp33
 70
     1
102
RTVSPost2010Prop34
280
     0
102
RTVSPost2010PropOp34
 70
     1
102
RTVSPost2010Prop35
280
     0
102
RTVSPost2010PropOp35
 70
     1
102
RTVSPost2010Prop36
280
     0
102
RTVSPost2010PropOp36
 70
     1
102
RTVSPost2010Prop37
 90
       50
102
RTVSPost2010PropOp37
 70
     0
102
RTVSPost2010Prop38
140
0.0
102
RTVSPost2010PropOp38
 70
     0
102
RTVSPost2010Prop39
140
1.0
102
RTVSPost2010PropOp39
 70
     0
102
RTVSPost2010Prop40
 90
        0
102
RTVSPost2010PropOp40
 70
     0
102
RTVSPost2010Prop41ColorIndex
 90
       18
102
RTVSPost2010Prop41ColorRGB
 90
        0
102
RTVSPost2010PropOp41
 70
     0
102
RTVSPost2010Prop42
 90
       50
102
RTVSPost2010PropOp42
 70
     0
102
RTVSPost2010Prop43
 90
        3
102
RTVSPost2010PropOp43
 70
     0
102
RTVSPost2010Prop44ColorIndex
 90
        5
102
RTVSPost2010Prop44ColorRGB
 90
      255
102
RTVSPost2010PropOp44
 70
     0
102
RTVSPost2010Prop45
280
     0
102
RTVSPost2010PropOp45
 70
     1
102
RTVSPost2010Prop46
 90
       50
102
RTVSPost2010PropOp46
 70
     0
102
RTVSPost2010Prop47
 90
       50
102
RTVSPost2010PropOp47
 70
     0
102
RTVSPost2010Prop48
 90
       50
102
RTVSPost2010PropOp48
 70
     0
102
RTVSPost2010Prop49
280
     0
102
RTVSPost2010PropOp49
 70
     1
102
RTVSPost2010Prop50
 90
       50
102
RTVSPost2010PropOp50
 70
     0
102
RTVSPost2010Prop51ColorIndex
 90
      256
102
RTVSPost2010Prop51ColorRGB
 90
-16777216
102
RTVSPost2010PropOp51
 70
     0
102
RTVSPost2010Prop52
140
1.0
102
RTVSPost2010PropOp52
 70
     0
102
RTVSPost2010Prop53
 90
        2
102
RTVSPost2010PropOp53
 70
     0
102
RTVSPost2010Prop54
  1
strokes_ogs.tif
102
RTVSPost2010PropOp54
 70
     0
102
RTVSPost2010Prop55
280
     0
102
RTVSPost2010PropOp55
 70
     1
102
RTVSPost2010Prop56
140
1.0
102
RTVSPost2010PropOp56
 70
     0
102
RTVSPost2010Prop57
140
1.0
102
RTVSPost2010PropOp57
 70
     0
102
RTVSPropertyOp0
 70
     0
102
RTVSPropertyOp1
 70
     0
102
RTVSPropertyOp2
 70
     0
102
RTVSPropertyOp3
 70
     0
102
RTVSPropertyOp4
 70
     0
102
RTVSPropertyOp5
 70
     0
102
RTVSPropertyOp6
 70
     0
102
RTVSPropertyOp7
 70
     0
102
RTVSPropertyOp8
 70
     0
102
RTVSPropertyOp9
 70
     0
102
RTVSPropertyOp10
 70
     0
102
RTVSPropertyOp11
 70
     0
102
RTVSPropertyOp12
 70
     0
102
RTVSPropertyOp13
 70
     0
102
RTVSPropertyOp14
 70
     2
102
RTVSPropertyOp15
 70
     0
102
RTVSPropertyOp16
 70
     0
102
RTVSPropertyOp17
 70
     0
102
RTVSPropertyOp18
 70
     0
102
RTVSPropertyOp19
 70
     0
102
RTVSPropertyOp20
 70
     0
102
RTVSPropertyOp21
 70
     0
102
RTVSPropertyOp22
 70
     0
102
RTVSPropertyOp23
 70
     0
102
RTVSPropertyOp24
 70
     0
102
RTVSPropertyOp25
 70
     0
102
RTVSPropertyOp26
 70
     0
102
RTVSPropertyOp27
 70
     0
102
RTVSPropertyOp28
 70
     1
102
RTVSPropertyOp29
 70
     1
102
RTVSPropertyOp30
 70
     1
102
RTVSPropertyOp31
 70
     1
102
RTVSPropertyOp32
 70
     1
102
RTVSPropertyOp33
 70
     1
102
RTVSPropertyOp34
 70
     1
102
RTVSPropertyOp35
 70
     1
102
RTVSPropertyOp36
 70
     1
102
RTVSPropertyOp37
 70
     0
102
RTVSPropertyOp38
 70
     0
102
RTVSPropertyOp39
 70
     0
102
RTVSPropertyOp40
 70
     0
102
RTVSPropertyOp41
 70
     0
102
RTVSPropertyOp42
 70
     0
102
RTVSPropertyOp43
 70
     0
102
RTVSPropertyOp44
 70
     0
102
RTVSPropertyOp45
 70
     1
102
RTVSPropertyOp46
 70
     0
102
RTVSPropertyOp47
 70
     0
102
RTVSPropertyOp48
 70
     0
102
RTVSPropertyOp49
 70
     1
102
RTVSPropertyOp50
 70
     0
102
RTVSPropertyOp51
 70
     0
102
RTVSPropertyOp52
 70
     0
102
RTVSPropertyOp53
 70
     0
102
RTVSPropertyOp54
 70
     0
102
RTVSPropertyOp55
 70
     1
102
RTVSPropertyOp56
 70
     0
102
RTVSPropertyOp57
 70
     0
102
RTVSPropertyOp58
 70
     0
102
RTVSPropertyOp59
 70
     0
102
RTVSPropertyOp60
 70
     0
102
RTVSPropertyOp61
 70
     0
102
RTVSPropertyOp62
 70
     0
  0
XRECORD
  5
887E
102
{ACAD_REACTORS
330
887D
102
}
330
887D
100
AcDbXrecord
280
     1
102
RTVSPost2010Prop28
280
     0
102
RTVSPost2010PropOp28
 70
     1
102
RTVSPost2010Prop29
280
     1
102
RTVSPost2010PropOp29
 70
     1
102
RTVSPost2010Prop30
280
     1
102
RTVSPost2010PropOp30
 70
     1
102
RTVSPost2010Prop31
280
     0
102
RTVSPost2010PropOp31
 70
     1
102
RTVSPost2010Prop32
280
     0
102
RTVSPost2010PropOp32
 70
     1
102
RTVSPost2010Prop33
280
     0
102
RTVSPost2010PropOp33
 70
     1
102
RTVSPost2010Prop34
280
     0
102
RTVSPost2010PropOp34
 70
     1
102
RTVSPost2010Prop35
280
     0
102
RTVSPost2010PropOp35
 70
     1
102
RTVSPost2010Prop36
280
     0
102
RTVSPost2010PropOp36
 70
     1
102
RTVSPost2010Prop37
 90
       50
102
RTVSPost2010PropOp37
 70
     1
102
RTVSPost2010Prop38
140
0.0
102
RTVSPost2010PropOp38
 70
     1
102
RTVSPost2010Prop39
140
1.0
102
RTVSPost2010PropOp39
 70
     1
102
RTVSPost2010Prop40
 90
        0
102
RTVSPost2010PropOp40
 70
     1
102
RTVSPost2010Prop41ColorIndex
 90
       18
102
RTVSPost2010Prop41ColorRGB
 90
        0
102
RTVSPost2010PropOp41
 70
     1
102
RTVSPost2010Prop42
 90
       50
102
RTVSPost2010PropOp42
 70
     1
102
RTVSPost2010Prop43
 90
        3
102
RTVSPost2010PropOp43
 70
     1
102
RTVSPost2010Prop44ColorIndex
 90
        5
102
RTVSPost2010Prop44ColorRGB
 90
      255
102
RTVSPost2010PropOp44
 70
     1
102
RTVSPost2010Prop45
280
     0
102
RTVSPost2010PropOp45
 70
     1
102
RTVSPost2010Prop46
 90
       50
102
RTVSPost2010PropOp46
 70
     1
102
RTVSPost2010Prop47
 90
       50
102
RTVSPost2010PropOp47
 70
     1
102
RTVSPost2010Prop48
 90
       50
102
RTVSPost2010PropOp48
 70
     1
102
RTVSPost2010Prop49
280
     0
102
RTVSPost2010PropOp49
 70
     1
102
RTVSPost2010Prop50
 90
       50
102
RTVSPost2010PropOp50
 70
     1
102
RTVSPost2010Prop51ColorIndex
 90
      256
102
RTVSPost2010Prop51ColorRGB
 90
-16777216
102
RTVSPost2010PropOp51
 70
     0
102
RTVSPost2010Prop52
140
1.0
102
RTVSPost2010PropOp52
 70
     0
102
RTVSPost2010Prop53
 90
        2
102
RTVSPost2010PropOp53
 70
     1
102
RTVSPost2010Prop54
  1
strokes_ogs.tif
102
RTVSPost2010PropOp54
 70
     1
102
RTVSPost2010Prop55
280
     0
102
RTVSPost2010PropOp55
 70
     1
102
RTVSPost2010Prop56
140
1.0
102
RTVSPost2010PropOp56
 70
     1
102
RTVSPost2010Prop57
140
1.0
102
RTVSPost2010PropOp57
 70
     1
102
RTVSPropertyOp0
 70
     1
102
RTVSPropertyOp1
 70
     1
102
RTVSPropertyOp2
 70
     1
102
RTVSPropertyOp3
 70
     1
102
RTVSPropertyOp4
 70
     1
102
RTVSPropertyOp5
 70
     1
102
RTVSPropertyOp6
 70
     1
102
RTVSPropertyOp7
 70
     1
102
RTVSPropertyOp8
 70
     1
102
RTVSPropertyOp9
 70
     1
102
RTVSPropertyOp10
 70
     1
102
RTVSPropertyOp11
 70
     1
102
RTVSPropertyOp12
 70
     1
102
RTVSPropertyOp13
 70
     1
102
RTVSPropertyOp14
 70
     1
102
RTVSPropertyOp15
 70
     1
102
RTVSPropertyOp16
 70
     1
102
RTVSPropertyOp17
 70
     1
102
RTVSPropertyOp18
 70
     1
102
RTVSPropertyOp19
 70
     1
102
RTVSPropertyOp20
 70
     1
102
RTVSPropertyOp21
 70
     1
102
RTVSPropertyOp22
 70
     1
102
RTVSPropertyOp23
 70
     1
102
RTVSPropertyOp24
 70
     1
102
RTVSPropertyOp25
 70
     1
102
RTVSPropertyOp26
 70
     1
102
RTVSPropertyOp27
 70
     1
102
RTVSPropertyOp28
 70
     1
102
RTVSPropertyOp29
 70
     1
102
RTVSPropertyOp30
 70
     1
102
RTVSPropertyOp31
 70
     1
102
RTVSPropertyOp32
 70
     1
102
RTVSPropertyOp33
 70
     1
102
RTVSPropertyOp34
 70
     1
102
RTVSPropertyOp35
 70
     1
102
RTVSPropertyOp36
 70
     1
102
RTVSPropertyOp37
 70
     1
102
RTVSPropertyOp38
 70
     1
102
RTVSPropertyOp39
 70
     1
102
RTVSPropertyOp40
 70
     1
102
RTVSPropertyOp41
 70
     1
102
RTVSPropertyOp42
 70
     1
102
RTVSPropertyOp43
 70
     1
102
RTVSPropertyOp44
 70
     1
102
RTVSPropertyOp45
 70
     1
102
RTVSPropertyOp46
 70
     1
102
RTVSPropertyOp47
 70
     1
102
RTVSPropertyOp48
 70
     1
102
RTVSPropertyOp49
 70
     1
102
RTVSPropertyOp50
 70
     1
102
RTVSPropertyOp51
 70
     0
102
RTVSPropertyOp52
 70
     0
102
RTVSPropertyOp53
 70
     1
102
RTVSPropertyOp54
 70
     1
102
RTVSPropertyOp55
 70
     1
102
RTVSPropertyOp56
 70
     1
102
RTVSPropertyOp57
 70
     1
102
RTVSPropertyOp58
 70
     1
102
RTVSPropertyOp59
 70
     1
102
RTVSPropertyOp60
 70
     1
102
RTVSPropertyOp61
 70
     1
102
RTVSPropertyOp62
 70
     1
  0
XRECORD
  5
8894
102
{ACAD_REACTORS
330
8893
102
}
330
8893
100
AcDbXrecord
280
     1
102
RTVSPost2010Prop28
280
     0
102
RTVSPost2010PropOp28
 70
     1
102
RTVSPost2010Prop29
280
     1
102
RTVSPost2010PropOp29
 70
     1
102
RTVSPost2010Prop30
280
     1
102
RTVSPost2010PropOp30
 70
     1
102
RTVSPost2010Prop31
280
     0
102
RTVSPost2010PropOp31
 70
     1
102
RTVSPost2010Prop32
280
     0
102
RTVSPost2010PropOp32
 70
     1
102
RTVSPost2010Prop33
280
     0
102
RTVSPost2010PropOp33
 70
     1
102
RTVSPost2010Prop34
280
     0
102
RTVSPost2010PropOp34
 70
     1
102
RTVSPost2010Prop35
280
     0
102
RTVSPost2010PropOp35
 70
     1
102
RTVSPost2010Prop36
280
     0
102
RTVSPost2010PropOp36
 70
     1
102
RTVSPost2010Prop37
 90
       50
102
RTVSPost2010PropOp37
 70
     1
102
RTVSPost2010Prop38
140
0.0
102
RTVSPost2010PropOp38
 70
     1
102
RTVSPost2010Prop39
140
1.0
102
RTVSPost2010PropOp39
 70
     1
102
RTVSPost2010Prop40
 90
        0
102
RTVSPost2010PropOp40
 70
     1
102
RTVSPost2010Prop41ColorIndex
 90
       18
102
RTVSPost2010Prop41ColorRGB
 90
        0
102
RTVSPost2010PropOp41
 70
     1
102
RTVSPost2010Prop42
 90
       50
102
RTVSPost2010PropOp42
 70
     1
102
RTVSPost2010Prop43
 90
        3
102
RTVSPost2010PropOp43
 70
     1
102
RTVSPost2010Prop44ColorIndex
 90
        5
102
RTVSPost2010Prop44ColorRGB
 90
      255
102
RTVSPost2010PropOp44
 70
     1
102
RTVSPost2010Prop45
280
     0
102
RTVSPost2010PropOp45
 70
     1
102
RTVSPost2010Prop46
 90
       50
102
RTVSPost2010PropOp46
 70
     1
102
RTVSPost2010Prop47
 90
       50
102
RTVSPost2010PropOp47
 70
     1
102
RTVSPost2010Prop48
 90
       50
102
RTVSPost2010PropOp48
 70
     1
102
RTVSPost2010Prop49
280
     0
102
RTVSPost2010PropOp49
 70
     1
102
RTVSPost2010Prop50
 90
       50
102
RTVSPost2010PropOp50
 70
     1
102
RTVSPost2010Prop51ColorIndex
 90
      256
102
RTVSPost2010Prop51ColorRGB
 90
-16777216
102
RTVSPost2010PropOp51
 70
     0
102
RTVSPost2010Prop52
140
1.0
102
RTVSPost2010PropOp52
 70
     0
102
RTVSPost2010Prop53
 90
        2
102
RTVSPost2010PropOp53
 70
     1
102
RTVSPost2010Prop54
  1
strokes_ogs.tif
102
RTVSPost2010PropOp54
 70
     1
102
RTVSPost2010Prop55
280
     0
102
RTVSPost2010PropOp55
 70
     1
102
RTVSPost2010Prop56
140
1.0
102
RTVSPost2010PropOp56
 70
     1
102
RTVSPost2010Prop57
140
1.0
102
RTVSPost2010PropOp57
 70
     1
102
RTVSPropertyOp0
 70
     1
102
RTVSPropertyOp1
 70
     1
102
RTVSPropertyOp2
 70
     1
102
RTVSPropertyOp3
 70
     1
102
RTVSPropertyOp4
 70
     1
102
RTVSPropertyOp5
 70
     1
102
RTVSPropertyOp6
 70
     1
102
RTVSPropertyOp7
 70
     1
102
RTVSPropertyOp8
 70
     1
102
RTVSPropertyOp9
 70
     1
102
RTVSPropertyOp10
 70
     1
102
RTVSPropertyOp11
 70
     1
102
RTVSPropertyOp12
 70
     1
102
RTVSPropertyOp13
 70
     1
102
RTVSPropertyOp14
 70
     1
102
RTVSPropertyOp15
 70
     1
102
RTVSPropertyOp16
 70
     1
102
RTVSPropertyOp17
 70
     1
102
RTVSPropertyOp18
 70
     1
102
RTVSPropertyOp19
 70
     1
102
RTVSPropertyOp20
 70
     1
102
RTVSPropertyOp21
 70
     1
102
RTVSPropertyOp22
 70
     1
102
RTVSPropertyOp23
 70
     1
102
RTVSPropertyOp24
 70
     1
102
RTVSPropertyOp25
 70
     1
102
RTVSPropertyOp26
 70
     1
102
RTVSPropertyOp27
 70
     1
102
RTVSPropertyOp28
 70
     1
102
RTVSPropertyOp29
 70
     1
102
RTVSPropertyOp30
 70
     1
102
RTVSPropertyOp31
 70
     1
102
RTVSPropertyOp32
 70
     1
102
RTVSPropertyOp33
 70
     1
102
RTVSPropertyOp34
 70
     1
102
RTVSPropertyOp35
 70
     1
102
RTVSPropertyOp36
 70
     1
102
RTVSPropertyOp37
 70
     1
102
RTVSPropertyOp38
 70
     1
102
RTVSPropertyOp39
 70
     1
102
RTVSPropertyOp40
 70
     1
102
RTVSPropertyOp41
 70
     1
102
RTVSPropertyOp42
 70
     1
102
RTVSPropertyOp43
 70
     1
102
RTVSPropertyOp44
 70
     1
102
RTVSPropertyOp45
 70
     1
102
RTVSPropertyOp46
 70
     1
102
RTVSPropertyOp47
 70
     1
102
RTVSPropertyOp48
 70
     1
102
RTVSPropertyOp49
 70
     1
102
RTVSPropertyOp50
 70
     1
102
RTVSPropertyOp51
 70
     0
102
RTVSPropertyOp52
 70
     0
102
RTVSPropertyOp53
 70
     1
102
RTVSPropertyOp54
 70
     1
102
RTVSPropertyOp55
 70
     1
102
RTVSPropertyOp56
 70
     1
102
RTVSPropertyOp57
 70
     1
102
RTVSPropertyOp58
 70
     1
102
RTVSPropertyOp59
 70
     1
102
RTVSPropertyOp60
 70
     1
102
RTVSPropertyOp61
 70
     1
102
RTVSPropertyOp62
 70
     1
  0
XRECORD
  5
8892
102
{ACAD_REACTORS
330
8891
102
}
330
8891
100
AcDbXrecord
280
     1
102
RTVSPost2010Prop28
280
     0
102
RTVSPost2010PropOp28
 70
     1
102
RTVSPost2010Prop29
280
     1
102
RTVSPost2010PropOp29
 70
     1
102
RTVSPost2010Prop30
280
     1
102
RTVSPost2010PropOp30
 70
     1
102
RTVSPost2010Prop31
280
     0
102
RTVSPost2010PropOp31
 70
     1
102
RTVSPost2010Prop32
280
     0
102
RTVSPost2010PropOp32
 70
     1
102
RTVSPost2010Prop33
280
     0
102
RTVSPost2010PropOp33
 70
     1
102
RTVSPost2010Prop34
280
     0
102
RTVSPost2010PropOp34
 70
     1
102
RTVSPost2010Prop35
280
     0
102
RTVSPost2010PropOp35
 70
     1
102
RTVSPost2010Prop36
280
     0
102
RTVSPost2010PropOp36
 70
     1
102
RTVSPost2010Prop37
 90
       50
102
RTVSPost2010PropOp37
 70
     1
102
RTVSPost2010Prop38
140
0.0
102
RTVSPost2010PropOp38
 70
     1
102
RTVSPost2010Prop39
140
1.0
102
RTVSPost2010PropOp39
 70
     1
102
RTVSPost2010Prop40
 90
        0
102
RTVSPost2010PropOp40
 70
     1
102
RTVSPost2010Prop41ColorIndex
 90
       18
102
RTVSPost2010Prop41ColorRGB
 90
        0
102
RTVSPost2010PropOp41
 70
     1
102
RTVSPost2010Prop42
 90
       50
102
RTVSPost2010PropOp42
 70
     1
102
RTVSPost2010Prop43
 90
        3
102
RTVSPost2010PropOp43
 70
     1
102
RTVSPost2010Prop44ColorIndex
 90
        5
102
RTVSPost2010Prop44ColorRGB
 90
      255
102
RTVSPost2010PropOp44
 70
     1
102
RTVSPost2010Prop45
280
     0
102
RTVSPost2010PropOp45
 70
     1
102
RTVSPost2010Prop46
 90
       50
102
RTVSPost2010PropOp46
 70
     1
102
RTVSPost2010Prop47
 90
       50
102
RTVSPost2010PropOp47
 70
     1
102
RTVSPost2010Prop48
 90
       50
102
RTVSPost2010PropOp48
 70
     1
102
RTVSPost2010Prop49
280
     0
102
RTVSPost2010PropOp49
 70
     1
102
RTVSPost2010Prop50
 90
       50
102
RTVSPost2010PropOp50
 70
     1
102
RTVSPost2010Prop51ColorIndex
 90
      256
102
RTVSPost2010Prop51ColorRGB
 90
-16777216
102
RTVSPost2010PropOp51
 70
     0
102
RTVSPost2010Prop52
140
1.0
102
RTVSPost2010PropOp52
 70
     0
102
RTVSPost2010Prop53
 90
        2
102
RTVSPost2010PropOp53
 70
     1
102
RTVSPost2010Prop54
  1
strokes_ogs.tif
102
RTVSPost2010PropOp54
 70
     1
102
RTVSPost2010Prop55
280
     0
102
RTVSPost2010PropOp55
 70
     1
102
RTVSPost2010Prop56
140
1.0
102
RTVSPost2010PropOp56
 70
     1
102
RTVSPost2010Prop57
140
1.0
102
RTVSPost2010PropOp57
 70
     1
102
RTVSPropertyOp0
 70
     1
102
RTVSPropertyOp1
 70
     1
102
RTVSPropertyOp2
 70
     1
102
RTVSPropertyOp3
 70
     1
102
RTVSPropertyOp4
 70
     1
102
RTVSPropertyOp5
 70
     1
102
RTVSPropertyOp6
 70
     1
102
RTVSPropertyOp7
 70
     1
102
RTVSPropertyOp8
 70
     1
102
RTVSPropertyOp9
 70
     1
102
RTVSPropertyOp10
 70
     1
102
RTVSPropertyOp11
 70
     1
102
RTVSPropertyOp12
 70
     1
102
RTVSPropertyOp13
 70
     1
102
RTVSPropertyOp14
 70
     1
102
RTVSPropertyOp15
 70
     1
102
RTVSPropertyOp16
 70
     1
102
RTVSPropertyOp17
 70
     1
102
RTVSPropertyOp18
 70
     1
102
RTVSPropertyOp19
 70
     1
102
RTVSPropertyOp20
 70
     1
102
RTVSPropertyOp21
 70
     1
102
RTVSPropertyOp22
 70
     1
102
RTVSPropertyOp23
 70
     1
102
RTVSPropertyOp24
 70
     1
102
RTVSPropertyOp25
 70
     1
102
RTVSPropertyOp26
 70
     1
102
RTVSPropertyOp27
 70
     1
102
RTVSPropertyOp28
 70
     1
102
RTVSPropertyOp29
 70
     1
102
RTVSPropertyOp30
 70
     1
102
RTVSPropertyOp31
 70
     1
102
RTVSPropertyOp32
 70
     1
102
RTVSPropertyOp33
 70
     1
102
RTVSPropertyOp34
 70
     1
102
RTVSPropertyOp35
 70
     1
102
RTVSPropertyOp36
 70
     1
102
RTVSPropertyOp37
 70
     1
102
RTVSPropertyOp38
 70
     1
102
RTVSPropertyOp39
 70
     1
102
RTVSPropertyOp40
 70
     1
102
RTVSPropertyOp41
 70
     1
102
RTVSPropertyOp42
 70
     1
102
RTVSPropertyOp43
 70
     1
102
RTVSPropertyOp44
 70
     1
102
RTVSPropertyOp45
 70
     1
102
RTVSPropertyOp46
 70
     1
102
RTVSPropertyOp47
 70
     1
102
RTVSPropertyOp48
 70
     1
102
RTVSPropertyOp49
 70
     1
102
RTVSPropertyOp50
 70
     1
102
RTVSPropertyOp51
 70
     0
102
RTVSPropertyOp52
 70
     0
102
RTVSPropertyOp53
 70
     1
102
RTVSPropertyOp54
 70
     1
102
RTVSPropertyOp55
 70
     1
102
RTVSPropertyOp56
 70
     1
102
RTVSPropertyOp57
 70
     1
102
RTVSPropertyOp58
 70
     1
102
RTVSPropertyOp59
 70
     1
102
RTVSPropertyOp60
 70
     1
102
RTVSPropertyOp61
 70
     1
102
RTVSPropertyOp62
 70
     1
  0
XRECORD
  5
888C
102
{ACAD_REACTORS
330
888B
102
}
330
888B
100
AcDbXrecord
280
     1
102
RTVSPost2010Prop28
280
     0
102
RTVSPost2010PropOp28
 70
     1
102
RTVSPost2010Prop29
280
     1
102
RTVSPost2010PropOp29
 70
     1
102
RTVSPost2010Prop30
280
     1
102
RTVSPost2010PropOp30
 70
     1
102
RTVSPost2010Prop31
280
     0
102
RTVSPost2010PropOp31
 70
     1
102
RTVSPost2010Prop32
280
     0
102
RTVSPost2010PropOp32
 70
     1
102
RTVSPost2010Prop33
280
     0
102
RTVSPost2010PropOp33
 70
     1
102
RTVSPost2010Prop34
280
     0
102
RTVSPost2010PropOp34
 70
     1
102
RTVSPost2010Prop35
280
     0
102
RTVSPost2010PropOp35
 70
     1
102
RTVSPost2010Prop36
280
     0
102
RTVSPost2010PropOp36
 70
     1
102
RTVSPost2010Prop37
 90
       50
102
RTVSPost2010PropOp37
 70
     1
102
RTVSPost2010Prop38
140
0.0
102
RTVSPost2010PropOp38
 70
     1
102
RTVSPost2010Prop39
140
1.0
102
RTVSPost2010PropOp39
 70
     1
102
RTVSPost2010Prop40
 90
        0
102
RTVSPost2010PropOp40
 70
     1
102
RTVSPost2010Prop41ColorIndex
 90
       18
102
RTVSPost2010Prop41ColorRGB
 90
        0
102
RTVSPost2010PropOp41
 70
     1
102
RTVSPost2010Prop42
 90
       50
102
RTVSPost2010PropOp42
 70
     1
102
RTVSPost2010Prop43
 90
        3
102
RTVSPost2010PropOp43
 70
     1
102
RTVSPost2010Prop44ColorIndex
 90
        5
102
RTVSPost2010Prop44ColorRGB
 90
      255
102
RTVSPost2010PropOp44
 70
     1
102
RTVSPost2010Prop45
280
     0
102
RTVSPost2010PropOp45
 70
     1
102
RTVSPost2010Prop46
 90
       50
102
RTVSPost2010PropOp46
 70
     1
102
RTVSPost2010Prop47
 90
       50
102
RTVSPost2010PropOp47
 70
     1
102
RTVSPost2010Prop48
 90
       50
102
RTVSPost2010PropOp48
 70
     1
102
RTVSPost2010Prop49
280
     0
102
RTVSPost2010PropOp49
 70
     1
102
RTVSPost2010Prop50
 90
       50
102
RTVSPost2010PropOp50
 70
     1
102
RTVSPost2010Prop51ColorIndex
 90
      256
102
RTVSPost2010Prop51ColorRGB
 90
-16777216
102
RTVSPost2010PropOp51
 70
     0
102
RTVSPost2010Prop52
140
1.0
102
RTVSPost2010PropOp52
 70
     0
102
RTVSPost2010Prop53
 90
        2
102
RTVSPost2010PropOp53
 70
     1
102
RTVSPost2010Prop54
  1
strokes_ogs.tif
102
RTVSPost2010PropOp54
 70
     1
102
RTVSPost2010Prop55
280
     0
102
RTVSPost2010PropOp55
 70
     1
102
RTVSPost2010Prop56
140
1.0
102
RTVSPost2010PropOp56
 70
     1
102
RTVSPost2010Prop57
140
1.0
102
RTVSPost2010PropOp57
 70
     1
102
RTVSPropertyOp0
 70
     1
102
RTVSPropertyOp1
 70
     1
102
RTVSPropertyOp2
 70
     1
102
RTVSPropertyOp3
 70
     1
102
RTVSPropertyOp4
 70
     1
102
RTVSPropertyOp5
 70
     1
102
RTVSPropertyOp6
 70
     1
102
RTVSPropertyOp7
 70
     1
102
RTVSPropertyOp8
 70
     1
102
RTVSPropertyOp9
 70
     1
102
RTVSPropertyOp10
 70
     1
102
RTVSPropertyOp11
 70
     1
102
RTVSPropertyOp12
 70
     1
102
RTVSPropertyOp13
 70
     1
102
RTVSPropertyOp14
 70
     1
102
RTVSPropertyOp15
 70
     1
102
RTVSPropertyOp16
 70
     1
102
RTVSPropertyOp17
 70
     1
102
RTVSPropertyOp18
 70
     1
102
RTVSPropertyOp19
 70
     1
102
RTVSPropertyOp20
 70
     1
102
RTVSPropertyOp21
 70
     1
102
RTVSPropertyOp22
 70
     1
102
RTVSPropertyOp23
 70
     1
102
RTVSPropertyOp24
 70
     1
102
RTVSPropertyOp25
 70
     1
102
RTVSPropertyOp26
 70
     1
102
RTVSPropertyOp27
 70
     1
102
RTVSPropertyOp28
 70
     1
102
RTVSPropertyOp29
 70
     1
102
RTVSPropertyOp30
 70
     1
102
RTVSPropertyOp31
 70
     1
102
RTVSPropertyOp32
 70
     1
102
RTVSPropertyOp33
 70
     1
102
RTVSPropertyOp34
 70
     1
102
RTVSPropertyOp35
 70
     1
102
RTVSPropertyOp36
 70
     1
102
RTVSPropertyOp37
 70
     1
102
RTVSPropertyOp38
 70
     1
102
RTVSPropertyOp39
 70
     1
102
RTVSPropertyOp40
 70
     1
102
RTVSPropertyOp41
 70
     1
102
RTVSPropertyOp42
 70
     1
102
RTVSPropertyOp43
 70
     1
102
RTVSPropertyOp44
 70
     1
102
RTVSPropertyOp45
 70
     1
102
RTVSPropertyOp46
 70
     1
102
RTVSPropertyOp47
 70
     1
102
RTVSPropertyOp48
 70
     1
102
RTVSPropertyOp49
 70
     1
102
RTVSPropertyOp50
 70
     1
102
RTVSPropertyOp51
 70
     0
102
RTVSPropertyOp52
 70
     0
102
RTVSPropertyOp53
 70
     1
102
RTVSPropertyOp54
 70
     1
102
RTVSPropertyOp55
 70
     1
102
RTVSPropertyOp56
 70
     1
102
RTVSPropertyOp57
 70
     1
102
RTVSPropertyOp58
 70
     1
102
RTVSPropertyOp59
 70
     1
102
RTVSPropertyOp60
 70
     1
102
RTVSPropertyOp61
 70
     1
102
RTVSPropertyOp62
 70
     1
  0
XRECORD
  5
888E
102
{ACAD_REACTORS
330
888D
102
}
330
888D
100
AcDbXrecord
280
     1
102
RTVSPost2010Prop28
280
     0
102
RTVSPost2010PropOp28
 70
     1
102
RTVSPost2010Prop29
280
     1
102
RTVSPost2010PropOp29
 70
     1
102
RTVSPost2010Prop30
280
     1
102
RTVSPost2010PropOp30
 70
     1
102
RTVSPost2010Prop31
280
     0
102
RTVSPost2010PropOp31
 70
     1
102
RTVSPost2010Prop32
280
     0
102
RTVSPost2010PropOp32
 70
     1
102
RTVSPost2010Prop33
280
     0
102
RTVSPost2010PropOp33
 70
     1
102
RTVSPost2010Prop34
280
     0
102
RTVSPost2010PropOp34
 70
     1
102
RTVSPost2010Prop35
280
     0
102
RTVSPost2010PropOp35
 70
     1
102
RTVSPost2010Prop36
280
     0
102
RTVSPost2010PropOp36
 70
     1
102
RTVSPost2010Prop37
 90
       50
102
RTVSPost2010PropOp37
 70
     1
102
RTVSPost2010Prop38
140
0.0
102
RTVSPost2010PropOp38
 70
     1
102
RTVSPost2010Prop39
140
1.0
102
RTVSPost2010PropOp39
 70
     1
102
RTVSPost2010Prop40
 90
        0
102
RTVSPost2010PropOp40
 70
     1
102
RTVSPost2010Prop41ColorIndex
 90
       18
102
RTVSPost2010Prop41ColorRGB
 90
        0
102
RTVSPost2010PropOp41
 70
     1
102
RTVSPost2010Prop42
 90
       50
102
RTVSPost2010PropOp42
 70
     1
102
RTVSPost2010Prop43
 90
        3
102
RTVSPost2010PropOp43
 70
     1
102
RTVSPost2010Prop44ColorIndex
 90
        5
102
RTVSPost2010Prop44ColorRGB
 90
      255
102
RTVSPost2010PropOp44
 70
     1
102
RTVSPost2010Prop45
280
     0
102
RTVSPost2010PropOp45
 70
     1
102
RTVSPost2010Prop46
 90
       50
102
RTVSPost2010PropOp46
 70
     1
102
RTVSPost2010Prop47
 90
       50
102
RTVSPost2010PropOp47
 70
     1
102
RTVSPost2010Prop48
 90
       50
102
RTVSPost2010PropOp48
 70
     1
102
RTVSPost2010Prop49
280
     0
102
RTVSPost2010PropOp49
 70
     1
102
RTVSPost2010Prop50
 90
       50
102
RTVSPost2010PropOp50
 70
     1
102
RTVSPost2010Prop51ColorIndex
 90
      256
102
RTVSPost2010Prop51ColorRGB
 90
-16777216
102
RTVSPost2010PropOp51
 70
     0
102
RTVSPost2010Prop52
140
1.0
102
RTVSPost2010PropOp52
 70
     0
102
RTVSPost2010Prop53
 90
        2
102
RTVSPost2010PropOp53
 70
     1
102
RTVSPost2010Prop54
  1
strokes_ogs.tif
102
RTVSPost2010PropOp54
 70
     1
102
RTVSPost2010Prop55
280
     0
102
RTVSPost2010PropOp55
 70
     1
102
RTVSPost2010Prop56
140
1.0
102
RTVSPost2010PropOp56
 70
     1
102
RTVSPost2010Prop57
140
1.0
102
RTVSPost2010PropOp57
 70
     1
102
RTVSPropertyOp0
 70
     1
102
RTVSPropertyOp1
 70
     1
102
RTVSPropertyOp2
 70
     1
102
RTVSPropertyOp3
 70
     1
102
RTVSPropertyOp4
 70
     1
102
RTVSPropertyOp5
 70
     1
102
RTVSPropertyOp6
 70
     1
102
RTVSPropertyOp7
 70
     1
102
RTVSPropertyOp8
 70
     1
102
RTVSPropertyOp9
 70
     1
102
RTVSPropertyOp10
 70
     1
102
RTVSPropertyOp11
 70
     1
102
RTVSPropertyOp12
 70
     1
102
RTVSPropertyOp13
 70
     1
102
RTVSPropertyOp14
 70
     1
102
RTVSPropertyOp15
 70
     1
102
RTVSPropertyOp16
 70
     1
102
RTVSPropertyOp17
 70
     1
102
RTVSPropertyOp18
 70
     1
102
RTVSPropertyOp19
 70
     1
102
RTVSPropertyOp20
 70
     1
102
RTVSPropertyOp21
 70
     1
102
RTVSPropertyOp22
 70
     1
102
RTVSPropertyOp23
 70
     1
102
RTVSPropertyOp24
 70
     1
102
RTVSPropertyOp25
 70
     1
102
RTVSPropertyOp26
 70
     1
102
RTVSPropertyOp27
 70
     1
102
RTVSPropertyOp28
 70
     1
102
RTVSPropertyOp29
 70
     1
102
RTVSPropertyOp30
 70
     1
102
RTVSPropertyOp31
 70
     1
102
RTVSPropertyOp32
 70
     1
102
RTVSPropertyOp33
 70
     1
102
RTVSPropertyOp34
 70
     1
102
RTVSPropertyOp35
 70
     1
102
RTVSPropertyOp36
 70
     1
102
RTVSPropertyOp37
 70
     1
102
RTVSPropertyOp38
 70
     1
102
RTVSPropertyOp39
 70
     1
102
RTVSPropertyOp40
 70
     1
102
RTVSPropertyOp41
 70
     1
102
RTVSPropertyOp42
 70
     1
102
RTVSPropertyOp43
 70
     1
102
RTVSPropertyOp44
 70
     1
102
RTVSPropertyOp45
 70
     1
102
RTVSPropertyOp46
 70
     1
102
RTVSPropertyOp47
 70
     1
102
RTVSPropertyOp48
 70
     1
102
RTVSPropertyOp49
 70
     1
102
RTVSPropertyOp50
 70
     1
102
RTVSPropertyOp51
 70
     0
102
RTVSPropertyOp52
 70
     0
102
RTVSPropertyOp53
 70
     1
102
RTVSPropertyOp54
 70
     1
102
RTVSPropertyOp55
 70
     1
102
RTVSPropertyOp56
 70
     1
102
RTVSPropertyOp57
 70
     1
102
RTVSPropertyOp58
 70
     1
102
RTVSPropertyOp59
 70
     1
102
RTVSPropertyOp60
 70
     1
102
RTVSPropertyOp61
 70
     1
102
RTVSPropertyOp62
 70
     1
  0
XRECORD
  5
8884
102
{ACAD_REACTORS
330
8883
102
}
330
8883
100
AcDbXrecord
280
     1
102
RTVSPost2010Prop28
280
     0
102
RTVSPost2010PropOp28
 70
     1
102
RTVSPost2010Prop29
280
     1
102
RTVSPost2010PropOp29
 70
     1
102
RTVSPost2010Prop30
280
     1
102
RTVSPost2010PropOp30
 70
     1
102
RTVSPost2010Prop31
280
     0
102
RTVSPost2010PropOp31
 70
     1
102
RTVSPost2010Prop32
280
     0
102
RTVSPost2010PropOp32
 70
     1
102
RTVSPost2010Prop33
280
     0
102
RTVSPost2010PropOp33
 70
     1
102
RTVSPost2010Prop34
280
     0
102
RTVSPost2010PropOp34
 70
     1
102
RTVSPost2010Prop35
280
     0
102
RTVSPost2010PropOp35
 70
     1
102
RTVSPost2010Prop36
280
     0
102
RTVSPost2010PropOp36
 70
     1
102
RTVSPost2010Prop37
 90
       50
102
RTVSPost2010PropOp37
 70
     1
102
RTVSPost2010Prop38
140
0.0
102
RTVSPost2010PropOp38
 70
     1
102
RTVSPost2010Prop39
140
1.0
102
RTVSPost2010PropOp39
 70
     1
102
RTVSPost2010Prop40
 90
        0
102
RTVSPost2010PropOp40
 70
     1
102
RTVSPost2010Prop41ColorIndex
 90
       18
102
RTVSPost2010Prop41ColorRGB
 90
        0
102
RTVSPost2010PropOp41
 70
     1
102
RTVSPost2010Prop42
 90
       50
102
RTVSPost2010PropOp42
 70
     1
102
RTVSPost2010Prop43
 90
        3
102
RTVSPost2010PropOp43
 70
     1
102
RTVSPost2010Prop44ColorIndex
 90
        5
102
RTVSPost2010Prop44ColorRGB
 90
      255
102
RTVSPost2010PropOp44
 70
     1
102
RTVSPost2010Prop45
280
     0
102
RTVSPost2010PropOp45
 70
     1
102
RTVSPost2010Prop46
 90
       50
102
RTVSPost2010PropOp46
 70
     1
102
RTVSPost2010Prop47
 90
       50
102
RTVSPost2010PropOp47
 70
     1
102
RTVSPost2010Prop48
 90
       50
102
RTVSPost2010PropOp48
 70
     1
102
RTVSPost2010Prop49
280
     0
102
RTVSPost2010PropOp49
 70
     1
102
RTVSPost2010Prop50
 90
       50
102
RTVSPost2010PropOp50
 70
     1
102
RTVSPost2010Prop51ColorIndex
 90
      256
102
RTVSPost2010Prop51ColorRGB
 90
-16777216
102
RTVSPost2010PropOp51
 70
     0
102
RTVSPost2010Prop52
140
1.0
102
RTVSPost2010PropOp52
 70
     0
102
RTVSPost2010Prop53
 90
        2
102
RTVSPost2010PropOp53
 70
     1
102
RTVSPost2010Prop54
  1
strokes_ogs.tif
102
RTVSPost2010PropOp54
 70
     1
102
RTVSPost2010Prop55
280
     0
102
RTVSPost2010PropOp55
 70
     1
102
RTVSPost2010Prop56
140
1.0
102
RTVSPost2010PropOp56
 70
     1
102
RTVSPost2010Prop57
140
1.0
102
RTVSPost2010PropOp57
 70
     1
102
RTVSPropertyOp0
 70
     1
102
RTVSPropertyOp1
 70
     1
102
RTVSPropertyOp2
 70
     1
102
RTVSPropertyOp3
 70
     1
102
RTVSPropertyOp4
 70
     1
102
RTVSPropertyOp5
 70
     1
102
RTVSPropertyOp6
 70
     1
102
RTVSPropertyOp7
 70
     1
102
RTVSPropertyOp8
 70
     1
102
RTVSPropertyOp9
 70
     1
102
RTVSPropertyOp10
 70
     1
102
RTVSPropertyOp11
 70
     1
102
RTVSPropertyOp12
 70
     1
102
RTVSPropertyOp13
 70
     1
102
RTVSPropertyOp14
 70
     1
102
RTVSPropertyOp15
 70
     1
102
RTVSPropertyOp16
 70
     1
102
RTVSPropertyOp17
 70
     1
102
RTVSPropertyOp18
 70
     1
102
RTVSPropertyOp19
 70
     1
102
RTVSPropertyOp20
 70
     1
102
RTVSPropertyOp21
 70
     1
102
RTVSPropertyOp22
 70
     1
102
RTVSPropertyOp23
 70
     1
102
RTVSPropertyOp24
 70
     1
102
RTVSPropertyOp25
 70
     1
102
RTVSPropertyOp26
 70
     1
102
RTVSPropertyOp27
 70
     1
102
RTVSPropertyOp28
 70
     1
102
RTVSPropertyOp29
 70
     1
102
RTVSPropertyOp30
 70
     1
102
RTVSPropertyOp31
 70
     1
102
RTVSPropertyOp32
 70
     1
102
RTVSPropertyOp33
 70
     1
102
RTVSPropertyOp34
 70
     1
102
RTVSPropertyOp35
 70
     1
102
RTVSPropertyOp36
 70
     1
102
RTVSPropertyOp37
 70
     1
102
RTVSPropertyOp38
 70
     1
102
RTVSPropertyOp39
 70
     1
102
RTVSPropertyOp40
 70
     1
102
RTVSPropertyOp41
 70
     1
102
RTVSPropertyOp42
 70
     1
102
RTVSPropertyOp43
 70
     1
102
RTVSPropertyOp44
 70
     1
102
RTVSPropertyOp45
 70
     1
102
RTVSPropertyOp46
 70
     1
102
RTVSPropertyOp47
 70
     1
102
RTVSPropertyOp48
 70
     1
102
RTVSPropertyOp49
 70
     1
102
RTVSPropertyOp50
 70
     1
102
RTVSPropertyOp51
 70
     0
102
RTVSPropertyOp52
 70
     0
102
RTVSPropertyOp53
 70
     1
102
RTVSPropertyOp54
 70
     1
102
RTVSPropertyOp55
 70
     1
102
RTVSPropertyOp56
 70
     1
102
RTVSPropertyOp57
 70
     1
102
RTVSPropertyOp58
 70
     1
102
RTVSPropertyOp59
 70
     1
102
RTVSPropertyOp60
 70
     1
102
RTVSPropertyOp61
 70
     1
102
RTVSPropertyOp62
 70
     1
  0
XRECORD
  5
8878
102
{ACAD_REACTORS
330
8877
102
}
330
8877
100
AcDbXrecord
280
     1
102
RTVSPost2010Prop28
280
     0
102
RTVSPost2010PropOp28
 70
     1
102
RTVSPost2010Prop29
280
     1
102
RTVSPost2010PropOp29
 70
     1
102
RTVSPost2010Prop30
280
     1
102
RTVSPost2010PropOp30
 70
     1
102
RTVSPost2010Prop31
280
     0
102
RTVSPost2010PropOp31
 70
     1
102
RTVSPost2010Prop32
280
     0
102
RTVSPost2010PropOp32
 70
     1
102
RTVSPost2010Prop33
280
     0
102
RTVSPost2010PropOp33
 70
     1
102
RTVSPost2010Prop34
280
     0
102
RTVSPost2010PropOp34
 70
     1
102
RTVSPost2010Prop35
280
     0
102
RTVSPost2010PropOp35
 70
     1
102
RTVSPost2010Prop36
280
     0
102
RTVSPost2010PropOp36
 70
     1
102
RTVSPost2010Prop37
 90
       50
102
RTVSPost2010PropOp37
 70
     1
102
RTVSPost2010Prop38
140
0.0
102
RTVSPost2010PropOp38
 70
     1
102
RTVSPost2010Prop39
140
1.0
102
RTVSPost2010PropOp39
 70
     1
102
RTVSPost2010Prop40
 90
        0
102
RTVSPost2010PropOp40
 70
     1
102
RTVSPost2010Prop41ColorIndex
 90
       18
102
RTVSPost2010Prop41ColorRGB
 90
        0
102
RTVSPost2010PropOp41
 70
     1
102
RTVSPost2010Prop42
 90
       50
102
RTVSPost2010PropOp42
 70
     1
102
RTVSPost2010Prop43
 90
        3
102
RTVSPost2010PropOp43
 70
     1
102
RTVSPost2010Prop44ColorIndex
 90
        5
102
RTVSPost2010Prop44ColorRGB
 90
      255
102
RTVSPost2010PropOp44
 70
     1
102
RTVSPost2010Prop45
280
     0
102
RTVSPost2010PropOp45
 70
     1
102
RTVSPost2010Prop46
 90
       50
102
RTVSPost2010PropOp46
 70
     1
102
RTVSPost2010Prop47
 90
       50
102
RTVSPost2010PropOp47
 70
     1
102
RTVSPost2010Prop48
 90
       50
102
RTVSPost2010PropOp48
 70
     1
102
RTVSPost2010Prop49
280
     0
102
RTVSPost2010PropOp49
 70
     1
102
RTVSPost2010Prop50
 90
       50
102
RTVSPost2010PropOp50
 70
     1
102
RTVSPost2010Prop51ColorIndex
 90
      256
102
RTVSPost2010Prop51ColorRGB
 90
-16777216
102
RTVSPost2010PropOp51
 70
     0
102
RTVSPost2010Prop52
140
1.0
102
RTVSPost2010PropOp52
 70
     0
102
RTVSPost2010Prop53
 90
        2
102
RTVSPost2010PropOp53
 70
     1
102
RTVSPost2010Prop54
  1
strokes_ogs.tif
102
RTVSPost2010PropOp54
 70
     1
102
RTVSPost2010Prop55
280
     0
102
RTVSPost2010PropOp55
 70
     1
102
RTVSPost2010Prop56
140
1.0
102
RTVSPost2010PropOp56
 70
     1
102
RTVSPost2010Prop57
140
1.0
102
RTVSPost2010PropOp57
 70
     1
102
RTVSPropertyOp0
 70
     1
102
RTVSPropertyOp1
 70
     1
102
RTVSPropertyOp2
 70
     1
102
RTVSPropertyOp3
 70
     1
102
RTVSPropertyOp4
 70
     1
102
RTVSPropertyOp5
 70
     1
102
RTVSPropertyOp6
 70
     1
102
RTVSPropertyOp7
 70
     1
102
RTVSPropertyOp8
 70
     1
102
RTVSPropertyOp9
 70
     1
102
RTVSPropertyOp10
 70
     1
102
RTVSPropertyOp11
 70
     1
102
RTVSPropertyOp12
 70
     1
102
RTVSPropertyOp13
 70
     1
102
RTVSPropertyOp14
 70
     1
102
RTVSPropertyOp15
 70
     1
102
RTVSPropertyOp16
 70
     1
102
RTVSPropertyOp17
 70
     1
102
RTVSPropertyOp18
 70
     1
102
RTVSPropertyOp19
 70
     1
102
RTVSPropertyOp20
 70
     1
102
RTVSPropertyOp21
 70
     1
102
RTVSPropertyOp22
 70
     1
102
RTVSPropertyOp23
 70
     1
102
RTVSPropertyOp24
 70
     1
102
RTVSPropertyOp25
 70
     1
102
RTVSPropertyOp26
 70
     1
102
RTVSPropertyOp27
 70
     1
102
RTVSPropertyOp28
 70
     1
102
RTVSPropertyOp29
 70
     1
102
RTVSPropertyOp30
 70
     1
102
RTVSPropertyOp31
 70
     1
102
RTVSPropertyOp32
 70
     1
102
RTVSPropertyOp33
 70
     1
102
RTVSPropertyOp34
 70
     1
102
RTVSPropertyOp35
 70
     1
102
RTVSPropertyOp36
 70
     1
102
RTVSPropertyOp37
 70
     1
102
RTVSPropertyOp38
 70
     1
102
RTVSPropertyOp39
 70
     1
102
RTVSPropertyOp40
 70
     1
102
RTVSPropertyOp41
 70
     1
102
RTVSPropertyOp42
 70
     1
102
RTVSPropertyOp43
 70
     1
102
RTVSPropertyOp44
 70
     1
102
RTVSPropertyOp45
 70
     1
102
RTVSPropertyOp46
 70
     1
102
RTVSPropertyOp47
 70
     1
102
RTVSPropertyOp48
 70
     1
102
RTVSPropertyOp49
 70
     1
102
RTVSPropertyOp50
 70
     1
102
RTVSPropertyOp51
 70
     0
102
RTVSPropertyOp52
 70
     0
102
RTVSPropertyOp53
 70
     1
102
RTVSPropertyOp54
 70
     1
102
RTVSPropertyOp55
 70
     1
102
RTVSPropertyOp56
 70
     1
102
RTVSPropertyOp57
 70
     1
102
RTVSPropertyOp58
 70
     1
102
RTVSPropertyOp59
 70
     1
102
RTVSPropertyOp60
 70
     1
102
RTVSPropertyOp61
 70
     1
102
RTVSPropertyOp62
 70
     1
  0
XRECORD
  5
8890
102
{ACAD_REACTORS
330
888F
102
}
330
888F
100
AcDbXrecord
280
     1
102
RTVSPost2010Prop28
280
     0
102
RTVSPost2010PropOp28
 70
     1
102
RTVSPost2010Prop29
280
     1
102
RTVSPost2010PropOp29
 70
     1
102
RTVSPost2010Prop30
280
     1
102
RTVSPost2010PropOp30
 70
     1
102
RTVSPost2010Prop31
280
     0
102
RTVSPost2010PropOp31
 70
     1
102
RTVSPost2010Prop32
280
     0
102
RTVSPost2010PropOp32
 70
     1
102
RTVSPost2010Prop33
280
     0
102
RTVSPost2010PropOp33
 70
     1
102
RTVSPost2010Prop34
280
     0
102
RTVSPost2010PropOp34
 70
     1
102
RTVSPost2010Prop35
280
     0
102
RTVSPost2010PropOp35
 70
     1
102
RTVSPost2010Prop36
280
     0
102
RTVSPost2010PropOp36
 70
     1
102
RTVSPost2010Prop37
 90
       50
102
RTVSPost2010PropOp37
 70
     1
102
RTVSPost2010Prop38
140
0.0
102
RTVSPost2010PropOp38
 70
     1
102
RTVSPost2010Prop39
140
1.0
102
RTVSPost2010PropOp39
 70
     1
102
RTVSPost2010Prop40
 90
        0
102
RTVSPost2010PropOp40
 70
     1
102
RTVSPost2010Prop41ColorIndex
 90
       18
102
RTVSPost2010Prop41ColorRGB
 90
        0
102
RTVSPost2010PropOp41
 70
     1
102
RTVSPost2010Prop42
 90
       50
102
RTVSPost2010PropOp42
 70
     1
102
RTVSPost2010Prop43
 90
        3
102
RTVSPost2010PropOp43
 70
     1
102
RTVSPost2010Prop44ColorIndex
 90
        5
102
RTVSPost2010Prop44ColorRGB
 90
      255
102
RTVSPost2010PropOp44
 70
     1
102
RTVSPost2010Prop45
280
     0
102
RTVSPost2010PropOp45
 70
     1
102
RTVSPost2010Prop46
 90
       50
102
RTVSPost2010PropOp46
 70
     1
102
RTVSPost2010Prop47
 90
       50
102
RTVSPost2010PropOp47
 70
     1
102
RTVSPost2010Prop48
 90
       50
102
RTVSPost2010PropOp48
 70
     1
102
RTVSPost2010Prop49
280
     0
102
RTVSPost2010PropOp49
 70
     1
102
RTVSPost2010Prop50
 90
       50
102
RTVSPost2010PropOp50
 70
     1
102
RTVSPost2010Prop51ColorIndex
 90
      256
102
RTVSPost2010Prop51ColorRGB
 90
-16777216
102
RTVSPost2010PropOp51
 70
     0
102
RTVSPost2010Prop52
140
1.0
102
RTVSPost2010PropOp52
 70
     0
102
RTVSPost2010Prop53
 90
        2
102
RTVSPost2010PropOp53
 70
     1
102
RTVSPost2010Prop54
  1
strokes_ogs.tif
102
RTVSPost2010PropOp54
 70
     1
102
RTVSPost2010Prop55
280
     0
102
RTVSPost2010PropOp55
 70
     1
102
RTVSPost2010Prop56
140
1.0
102
RTVSPost2010PropOp56
 70
     1
102
RTVSPost2010Prop57
140
1.0
102
RTVSPost2010PropOp57
 70
     1
102
RTVSPropertyOp0
 70
     1
102
RTVSPropertyOp1
 70
     1
102
RTVSPropertyOp2
 70
     1
102
RTVSPropertyOp3
 70
     1
102
RTVSPropertyOp4
 70
     1
102
RTVSPropertyOp5
 70
     1
102
RTVSPropertyOp6
 70
     1
102
RTVSPropertyOp7
 70
     1
102
RTVSPropertyOp8
 70
     1
102
RTVSPropertyOp9
 70
     1
102
RTVSPropertyOp10
 70
     1
102
RTVSPropertyOp11
 70
     1
102
RTVSPropertyOp12
 70
     1
102
RTVSPropertyOp13
 70
     1
102
RTVSPropertyOp14
 70
     1
102
RTVSPropertyOp15
 70
     1
102
RTVSPropertyOp16
 70
     1
102
RTVSPropertyOp17
 70
     1
102
RTVSPropertyOp18
 70
     1
102
RTVSPropertyOp19
 70
     1
102
RTVSPropertyOp20
 70
     1
102
RTVSPropertyOp21
 70
     1
102
RTVSPropertyOp22
 70
     1
102
RTVSPropertyOp23
 70
     1
102
RTVSPropertyOp24
 70
     1
102
RTVSPropertyOp25
 70
     1
102
RTVSPropertyOp26
 70
     1
102
RTVSPropertyOp27
 70
     1
102
RTVSPropertyOp28
 70
     1
102
RTVSPropertyOp29
 70
     1
102
RTVSPropertyOp30
 70
     1
102
RTVSPropertyOp31
 70
     1
102
RTVSPropertyOp32
 70
     1
102
RTVSPropertyOp33
 70
     1
102
RTVSPropertyOp34
 70
     1
102
RTVSPropertyOp35
 70
     1
102
RTVSPropertyOp36
 70
     1
102
RTVSPropertyOp37
 70
     1
102
RTVSPropertyOp38
 70
     1
102
RTVSPropertyOp39
 70
     1
102
RTVSPropertyOp40
 70
     1
102
RTVSPropertyOp41
 70
     1
102
RTVSPropertyOp42
 70
     1
102
RTVSPropertyOp43
 70
     1
102
RTVSPropertyOp44
 70
     1
102
RTVSPropertyOp45
 70
     1
102
RTVSPropertyOp46
 70
     1
102
RTVSPropertyOp47
 70
     1
102
RTVSPropertyOp48
 70
     1
102
RTVSPropertyOp49
 70
     1
102
RTVSPropertyOp50
 70
     1
102
RTVSPropertyOp51
 70
     0
102
RTVSPropertyOp52
 70
     0
102
RTVSPropertyOp53
 70
     1
102
RTVSPropertyOp54
 70
     1
102
RTVSPropertyOp55
 70
     1
102
RTVSPropertyOp56
 70
     1
102
RTVSPropertyOp57
 70
     1
102
RTVSPropertyOp58
 70
     1
102
RTVSPropertyOp59
 70
     1
102
RTVSPropertyOp60
 70
     1
102
RTVSPropertyOp61
 70
     1
102
RTVSPropertyOp62
 70
     1
  0
ENDSEC
  0
EOF
