  0
SECTION
  2
HEADER
  9
$ACADVER
  1
AC1015
  9
$ACADMAINTVER
 70
    20
  9
$DWGCODEPAGE
  3
ANSI_932
  9
$INSBASE
 10
0.0
 20
0.0
 30
0.0
  9
$EXTMIN
 10
-0.1922460740788665
 20
-0.2700599612071528
 30
-0.0015258207003583
  9
$EXTMAX
 10
6300.192275410744
 20
8850.270101172235
 30
0.0000000349246037
  9
$LIMMIN
 10
0.0
 20
0.0
  9
$LIMMAX
 10
297.0
 20
210.0
  9
$ORTHOMODE
 70
     1
  9
$REGENMODE
 70
     1
  9
$FILLMODE
 70
     0
  9
$QTEXTMODE
 70
     0
  9
$MIRRTEXT
 70
     1
  9
$LTSCALE
 40
100.0
  9
$ATTMODE
 70
     1
  9
$TEXTSIZE
 40
180.0
  9
$TRACEWID
 40
0.05
  9
$TEXTSTYLE
  7
STANDARD
  9
$CLAYER
  8
3
  9
$CELTYPE
  6
ByLayer
  9
$CECOLOR
 62
   256
  9
$CELTSCALE
 40
1.0
  9
$DISPSILH
 70
     0
  9
$DIMSCALE
 40
30.0
  9
$DIMASZ
 40
2.0
  9
$DIMEXO
 40
1.0
  9
$DIMDLI
 40
10.0
  9
$DIMRND
 40
0.0
  9
$DIMDLE
 40
0.0
  9
$DIMEXE
 40
1.0
  9
$DIMTP
 40
1.0
  9
$DIMTM
 40
1.0
  9
$DIMTXT
 40
3.0
  9
$DIMCEN
 40
0.0
  9
$DIMTSZ
 40
0.0
  9
$DIMTOL
 70
     0
  9
$DIMLIM
 70
     0
  9
$DIMTIH
 70
     0
  9
$DIMTOH
 70
     0
  9
$DIMSE1
 70
     0
  9
$DIMSE2
 70
     0
  9
$DIMTAD
 70
     1
  9
$DIMZIN
 70
     8
  9
$DIMBLK
  1

  9
$DIMASO
 70
     1
  9
$DIMSHO
 70
     1
  9
$DIMPOST
  1

  9
$DIMAPOST
  1

  9
$DIMALT
 70
     0
  9
$DIMALTD
 70
     2
  9
$DIMALTF
 40
0.039
  9
$DIMLFAC
 40
1.0
  9
$DIMTOFL
 70
     1
  9
$DIMTVP
 40
0.0
  9
$DIMTIX
 70
     0
  9
$DIMSOXD
 70
     0
  9
$DIMSAH
 70
     1
  9
$DIMBLK1
  1
OPEN
  9
$DIMBLK2
  1
OPEN
  9
$DIMSTYLE
  2
IGA
  9
$DIMCLRD
 70
     0
  9
$DIMCLRE
 70
     0
  9
$DIMCLRT
 70
     0
  9
$DIMTFAC
 40
10.0
  9
$DIMGAP
 40
1.0
  9
$DIMJUST
 70
     0
  9
$DIMSD1
 70
     0
  9
$DIMSD2
 70
     0
  9
$DIMTOLJ
 70
     1
  9
$DIMTZIN
 70
     0
  9
$DIMALTZ
 70
     0
  9
$DIMALTTZ
 70
     0
  9
$DIMUPT
 70
     0
  9
$DIMDEC
 70
     4
  9
$DIMTDEC
 70
     4
  9
$DIMALTU
 70
     2
  9
$DIMALTTD
 70
     2
  9
$DIMTXSTY
  7
STANDARD
  9
$DIMAUNIT
 70
     0
  9
$DIMADEC
 70
     0
  9
$DIMALTRND
 40
0.0
  9
$DIMAZIN
 70
     0
  9
$DIMDSEP
 70
    46
  9
$DIMATFIT
 70
     3
  9
$DIMFRAC
 70
     0
  9
$DIMLDRBLK
  1
OPEN
  9
$DIMLUNIT
 70
     2
  9
$DIMLWD
 70
    -2
  9
$DIMLWE
 70
    -2
  9
$DIMTMOVE
 70
     0
  9
$LUNITS
 70
     2
  9
$LUPREC
 70
     3
  9
$SKETCHINC
 40
0.1
  9
$FILLETRAD
 40
50.0
  9
$AUNITS
 70
     0
  9
$AUPREC
 70
     0
  9
$MENU
  1
acad
  9
$ELEVATION
 40
0.0
  9
$PELEVATION
 40
0.0
  9
$THICKNESS
 40
0.0
  9
$LIMCHECK
 70
     0
  9
$CHAMFERA
 40
0.5
  9
$CHAMFERB
 40
0.5
  9
$CHAMFERC
 40
0.0
  9
$CHAMFERD
 40
0.0
  9
$SKPOLY
 70
     0
  9
$TDCREATE
 40
2451389.542895833
  9
$TDUCREATE
 40
2451389.167895833
  9
$TDUPDATE
 40
2460269.613928449
  9
$TDUUPDATE
 40
2460269.238928449
  9
$TDINDWG
 40
0.0171728935
  9
$TDUSRTIMER
 40
0.0171726620
  9
$USRTIMER
 70
     1
  9
$ANGBASE
 50
0.0
  9
$ANGDIR
 70
     0
  9
$PDMODE
 70
     0
  9
$PDSIZE
 40
0.0
  9
$PLINEWID
 40
0.0
  9
$SPLFRAME
 70
     0
  9
$SPLINETYPE
 70
     6
  9
$SPLINESEGS
 70
     8
  9
$HANDSEED
  5
85D7
  9
$SURFTAB1
 70
     6
  9
$SURFTAB2
 70
     6
  9
$SURFTYPE
 70
     6
  9
$SURFU
 70
     6
  9
$SURFV
 70
     6
  9
$UCSBASE
  2

  9
$UCSNAME
  2

  9
$UCSORG
 10
0.0
 20
0.0
 30
0.0
  9
$UCSXDIR
 10
1.0
 20
0.0
 30
0.0
  9
$UCSYDIR
 10
0.0
 20
1.0
 30
0.0
  9
$UCSORTHOREF
  2

  9
$UCSORTHOVIEW
 70
     0
  9
$UCSORGTOP
 10
0.0
 20
0.0
 30
0.0
  9
$UCSORGBOTTOM
 10
0.0
 20
0.0
 30
0.0
  9
$UCSORGLEFT
 10
0.0
 20
0.0
 30
0.0
  9
$UCSORGRIGHT
 10
0.0
 20
0.0
 30
0.0
  9
$UCSORGFRONT
 10
0.0
 20
0.0
 30
0.0
  9
$UCSORGBACK
 10
0.0
 20
0.0
 30
0.0
  9
$PUCSBASE
  2

  9
$PUCSNAME
  2

  9
$PUCSORG
 10
0.0
 20
0.0
 30
0.0
  9
$PUCSXDIR
 10
1.0
 20
0.0
 30
0.0
  9
$PUCSYDIR
 10
0.0
 20
1.0
 30
0.0
  9
$PUCSORTHOREF
  2

  9
$PUCSORTHOVIEW
 70
     0
  9
$PUCSORGTOP
 10
0.0
 20
0.0
 30
0.0
  9
$PUCSORGBOTTOM
 10
0.0
 20
0.0
 30
0.0
  9
$PUCSORGLEFT
 10
0.0
 20
0.0
 30
0.0
  9
$PUCSORGRIGHT
 10
0.0
 20
0.0
 30
0.0
  9
$PUCSORGFRONT
 10
0.0
 20
0.0
 30
0.0
  9
$PUCSORGBACK
 10
0.0
 20
0.0
 30
0.0
  9
$USERI1
 70
     0
  9
$USERI2
 70
     0
  9
$USERI3
 70
     0
  9
$USERI4
 70
     0
  9
$USERI5
 70
     0
  9
$USERR1
 40
0.0
  9
$USERR2
 40
0.0
  9
$USERR3
 40
0.0
  9
$USERR4
 40
0.0
  9
$USERR5
 40
0.0
  9
$WORLDVIEW
 70
     1
  9
$SHADEDGE
 70
     3
  9
$SHADEDIF
 70
    70
  9
$TILEMODE
 70
     1
  9
$MAXACTVP
 70
    16
  9
$PINSBASE
 10
0.0
 20
0.0
 30
0.0
  9
$PLIMCHECK
 70
     0
  9
$PEXTMIN
 10
1.000000000000000E+20
 20
1.000000000000000E+20
 30
1.000000000000000E+20
  9
$PEXTMAX
 10
-1.000000000000000E+20
 20
-1.000000000000000E+20
 30
-1.000000000000000E+20
  9
$PLIMMIN
 10
0.0
 20
0.0
  9
$PLIMMAX
 10
12.0
 20
9.0
  9
$UNITMODE
 70
     0
  9
$VISRETAIN
 70
     0
  9
$PLINEGEN
 70
     0
  9
$PSLTSCALE
 70
     1
  9
$TREEDEPTH
 70
  3020
  9
$CMLSTYLE
  2
Standard
  9
$CMLJUST
 70
     0
  9
$CMLSCALE
 40
1.0
  9
$PROXYGRAPHICS
 70
     1
  9
$MEASUREMENT
 70
     0
  9
$CELWEIGHT
370
    -1
  9
$ENDCAPS
280
     0
  9
$JOINSTYLE
280
     0
  9
$LWDISPLAY
290
     0
  9
$INSUNITS
 70
     0
  9
$HYPERLINKBASE
  1

  9
$STYLESHEET
  1

  9
$XEDIT
290
     1
  9
$CEPSNTYPE
380
     0
  9
$PSTYLEMODE
290
     1
  9
$FINGERPRINTGUID
  2
{19B33B1D-D0DA-4E32-8DD2-BC7C427AA1B7}
  9
$VERSIONGUID
  2
{3AD9E672-7A60-4188-BF77-0046E433B839}
  9
$EXTNAMES
290
     1
  9
$PSVPSCALE
 40
0.0
  9
$OLESTARTUP
290
     0
  0
ENDSEC
  0
SECTION
  2
CLASSES
  0
CLASS
  1
ACDBDICTIONARYWDFLT
  2
AcDbDictionaryWithDefault
  3
ObjectDBX Classes
 90
        0
280
     0
281
     0
  0
CLASS
  1
MATERIAL
  2
AcDbMaterial
  3
ObjectDBX Classes
 90
     1153
280
     0
281
     0
  0
CLASS
  1
VISUALSTYLE
  2
AcDbVisualStyle
  3
ObjectDBX Classes
 90
     4095
280
     0
281
     0
  0
CLASS
  1
SCALE
  2
AcDbScale
  3
ObjectDBX Classes
 90
     1153
280
     0
281
     0
  0
CLASS
  1
TABLESTYLE
  2
AcDbTableStyle
  3
ObjectDBX Classes
 90
     4095
280
     0
281
     0
  0
CLASS
  1
MLEADERSTYLE
  2
AcDbMLeaderStyle
  3
ACDB_MLEADERSTYLE_CLASS
 90
     4095
280
     0
281
     0
  0
CLASS
  1
ACDBSECTIONVIEWSTYLE
  2
AcDbSectionViewStyle
  3
ObjectDBX Classes
 90
     1025
280
     0
281
     0
  0
CLASS
  1
ACDBDETAILVIEWSTYLE
  2
AcDbDetailViewStyle
  3
ObjectDBX Classes
 90
     1025
280
     0
281
     0
  0
CLASS
  1
DICTIONARYVAR
  2
AcDbDictionaryVar
  3
ObjectDBX Classes
 90
        0
280
     0
281
     0
  0
CLASS
  1
CELLSTYLEMAP
  2
AcDbCellStyleMap
  3
ObjectDBX Classes
 90
     1152
280
     0
281
     0
  0
CLASS
  1
ACDBPLACEHOLDER
  2
AcDbPlaceHolder
  3
ObjectDBX Classes
 90
        0
280
     0
281
     0
  0
CLASS
  1
LAYOUT
  2
AcDbLayout
  3
ObjectDBX Classes
 90
        0
280
     0
281
     0
  0
ENDSEC
  0
SECTION
  2
TABLES
  0
TABLE
  2
VPORT
  5
8217
330
0
100
AcDbSymbolTable
 70
     1
  0
VPORT
  5
8283
330
8217
100
AcDbSymbolTableRecord
100
AcDbViewportTableRecord
  2
*ACTIVE
 70
     0
 10
0.0
 20
0.0
 11
1.0
 21
1.0
 12
3150.000014668333
 22
4425.000020605514
 13
0.0
 23
0.0
 14
10.0
 24
10.0
 15
10.0
 25
10.0
 16
0.0
 26
0.0
 36
1.0
 17
0.0
 27
0.0
 37
0.0
 40
8907.213844128961
 41
2.050213675213675
 42
50.0
 43
0.0
 44
0.0
 50
0.0
 51
0.0
 71
     0
 72
   100
 73
     1
 74
     0
 75
     0
 76
     0
 77
     0
 78
     0
281
     0
 65
     1
110
0.0
120
0.0
130
0.0
111
1.0
121
0.0
131
0.0
112
0.0
122
1.0
132
0.0
 79
     0
146
0.0
1001
ACAD_NAV_VCDISPLAY
1070
     3
  0
ENDTAB
  0
TABLE
  2
LTYPE
  5
8214
330
0
100
AcDbSymbolTable
 70
     3
  0
LTYPE
  5
8269
330
8214
100
AcDbSymbolTableRecord
100
AcDbLinetypeTableRecord
  2
ByBlock
 70
     0
  3

 72
    65
 73
     0
 40
0.0
  0
LTYPE
  5
826A
330
8214
100
AcDbSymbolTableRecord
100
AcDbLinetypeTableRecord
  2
ByLayer
 70
     0
  3

 72
    65
 73
     0
 40
0.0
  0
LTYPE
  5
826B
330
8214
100
AcDbSymbolTableRecord
100
AcDbLinetypeTableRecord
  2
CONTINUOUS
 70
     0
  3
Solid line
 72
    65
 73
     0
 40
0.0
  0
LTYPE
  5
8284
330
8214
100
AcDbSymbolTableRecord
100
AcDbLinetypeTableRecord
  2
CENTER
 70
     0
  3
____ _ ____ _ ____ _ ____ _ ____ _ ____ _ ____ 
 72
    65
 73
     4
 40
2.0
 49
1.25
 74
     0
 49
-0.25
 74
     0
 49
0.25
 74
     0
 49
-0.25
 74
     0
  0
ENDTAB
  0
TABLE
  2
LAYER
  5
8211
330
0
100
AcDbSymbolTable
 70
     6
  0
LAYER
  5
8263
102
{ACAD_XDICTIONARY
360
8540
102
}
330
8211
100
AcDbSymbolTableRecord
100
AcDbLayerTableRecord
  2
0
 70
     0
 62
     7
  6
CONTINUOUS
370
    -3
390
821E
  0
LAYER
  5
8282
102
{ACAD_XDICTIONARY
360
8542
102
}
330
8211
100
AcDbSymbolTableRecord
100
AcDbLayerTableRecord
  2
3
 70
     0
 62
     2
  6
CONTINUOUS
370
    -3
390
821E
  0
LAYER
  5
8285
102
{ACAD_XDICTIONARY
360
8544
102
}
330
8211
100
AcDbSymbolTableRecord
100
AcDbLayerTableRecord
  2
2
 70
     0
 62
     3
  6
CENTER
370
    -3
390
821E
  0
LAYER
  5
8286
102
{ACAD_XDICTIONARY
360
8546
102
}
330
8211
100
AcDbSymbolTableRecord
100
AcDbLayerTableRecord
  2
1
 70
     0
 62
     4
  6
CONTINUOUS
370
    -3
390
821E
  0
LAYER
  5
8287
102
{ACAD_XDICTIONARY
360
8548
102
}
330
8211
100
AcDbSymbolTableRecord
100
AcDbLayerTableRecord
  2
4
 70
     0
 62
     7
  6
CONTINUOUS
370
    -3
390
821E
  0
LAYER
  5
8288
330
8211
100
AcDbSymbolTableRecord
100
AcDbLayerTableRecord
  2
DEFPOINTS
 70
     0
 62
     7
  6
CONTINUOUS
290
     0
370
    -3
390
821E
  0
ENDTAB
  0
TABLE
  2
STYLE
  5
8212
330
0
100
AcDbSymbolTable
 70
     2
  0
STYLE
  5
8264
330
8212
100
AcDbSymbolTableRecord
100
AcDbTextStyleTableRecord
  2
STANDARD
 70
     0
 40
0.0
 41
1.0
 50
0.0
 71
     0
 42
180.0
  3
simplex.shx
  4
extfont.shx
  0
STYLE
  5
8268
330
8212
100
AcDbSymbolTableRecord
100
AcDbTextStyleTableRecord
  2
Annotative
 70
     0
 40
0.0
 41
1.0
 50
0.0
 71
     0
 42
0.2
  3
txt
  4

1001
AcadAnnotative
1000
AnnotativeData
1002
{
1070
     1
1070
     1
1002
}
  0
ENDTAB
  0
TABLE
  2
VIEW
  5
8215
330
0
100
AcDbSymbolTable
 70
     0
  0
ENDTAB
  0
TABLE
  2
UCS
  5
8216
330
0
100
AcDbSymbolTable
 70
     0
  0
ENDTAB
  0
TABLE
  2
APPID
  5
8218
330
0
100
AcDbSymbolTable
 70
     8
  0
APPID
  5
8265
330
8218
100
AcDbSymbolTableRecord
100
AcDbRegAppTableRecord
  2
ACAD
 70
     0
  0
APPID
  5
826C
330
8218
100
AcDbSymbolTableRecord
100
AcDbRegAppTableRecord
  2
AcadAnnotative
 70
     0
  0
APPID
  5
8370
330
8218
100
AcDbSymbolTableRecord
100
AcDbRegAppTableRecord
  2
ACAD_DSTYLE_DIMJAG
 70
     0
  0
APPID
  5
8371
330
8218
100
AcDbSymbolTableRecord
100
AcDbRegAppTableRecord
  2
ACAD_DSTYLE_DIMTALN
 70
     0
  0
APPID
  5
83F8
330
8218
100
AcDbSymbolTableRecord
100
AcDbRegAppTableRecord
  2
AcadAnnoMonitorAlertIconDisabled
 70
     0
  0
APPID
  5
83F9
330
8218
100
AcDbSymbolTableRecord
100
AcDbRegAppTableRecord
  2
ACAD_EXEMPT_FROM_CAD_STANDARDS
 70
     0
  0
APPID
  5
8554
330
8218
100
AcDbSymbolTableRecord
100
AcDbRegAppTableRecord
  2
ACAD_NAV_VCDISPLAY
 70
     0
  0
APPID
  5
85CE
330
8218
100
AcDbSymbolTableRecord
100
AcDbRegAppTableRecord
  2
ACAD_MLEADERVER
 70
     0
  0
ENDTAB
  0
TABLE
  2
DIMSTYLE
  5
8219
330
0
100
AcDbSymbolTable
 70
     4
100
AcDbDimStyleTable
 71
     1
340
8289
  0
DIMSTYLE
105
8266
102
{ACAD_REACTORS
330
7C9E
330
7C9F
330
7CE1
330
7CEC
330
7CED
330
7CEE
330
7CEF
330
7CF0
330
7CF1
330
7D1D
330
7D1F
330
7D20
102
}
330
8219
100
AcDbSymbolTableRecord
100
AcDbDimStyleTableRecord
  2
Standard
 70
     0
340
8264
  0
DIMSTYLE
105
8267
330
8219
100
AcDbSymbolTableRecord
100
AcDbDimStyleTableRecord
  2
Annotative
 70
     0
340
8264
1001
AcadAnnotative
1000
AnnotativeData
1002
{
1070
     1
1070
     1
1002
}
  0
DIMSTYLE
105
8289
102
{ACAD_REACTORS
330
82CB
330
82D8
330
8372
330
837F
330
838C
330
83A2
330
83AF
330
83BC
330
83C9
330
83DB
330
8521
102
}
330
8219
100
AcDbSymbolTableRecord
100
AcDbDimStyleTableRecord
  2
IGA
 70
     0
 40
2.0
 41
2.0
 42
0.5
 43
10.0
 44
1.0
 47
1.0
 48
1.0
 73
     0
 74
     0
 77
     1
 78
     8
140
3.0
141
0.0
143
0.03937
146
10.0
147
1.0
173
     1
271
     3
272
     3
279
     2
284
     8
285
     8
286
     8
340
8264
  0
DIMSTYLE
105
828A
330
8219
100
AcDbSymbolTableRecord
100
AcDbDimStyleTableRecord
  2
MATSU
 70
     0
 41
2.0
 42
1.0
 43
10.0
 44
1.0
 73
     0
 74
     0
 77
     1
 78
     8
140
3.0
141
0.0
143
0.03937
147
0.5
172
     1
173
     1
176
   256
177
   256
178
   256
271
     3
272
     3
279
     2
284
     8
285
     8
286
     8
340
8264
  0
ENDTAB
  0
TABLE
  2
BLOCK_RECORD
  5
8210
330
0
100
AcDbSymbolTable
 70
    50
  0
BLOCK_RECORD
  5
827E
330
8210
100
AcDbSymbolTableRecord
100
AcDbBlockTableRecord
  2
*Model_Space
340
8281
  0
BLOCK_RECORD
  5
827A
330
8210
100
AcDbSymbolTableRecord
100
AcDbBlockTableRecord
  2
*Paper_Space
340
827D
  0
BLOCK_RECORD
  5
828E
330
8210
100
AcDbSymbolTableRecord
100
AcDbBlockTableRecord
  2
$MODEL_SPACE
340
0
  0
BLOCK_RECORD
  5
8290
330
8210
100
AcDbSymbolTableRecord
100
AcDbBlockTableRecord
  2
$PAPER_SPACE
340
0
  0
BLOCK_RECORD
  5
8292
330
8210
100
AcDbSymbolTableRecord
100
AcDbBlockTableRecord
  2
_OPEN
340
0
102
{BLKREFS
331
8103
331
8104
331
8110
331
8111
331
8179
331
817A
331
8360
331
8361
331
8369
331
836A
331
8379
331
837A
331
8386
331
8387
331
839C
331
839D
331
83A9
331
83AA
331
83B6
331
83B7
331
7E5D
331
7E5E
331
7E68
331
7E69
331
7EB5
331
7EB6
331
80C6
331
80C7
331
80D1
331
80D2
331
7ED6
331
7ED7
331
7EE1
331
7EE2
331
7EEC
331
7EED
331
7EF7
331
7EF8
331
7F02
331
7F03
331
7F0D
331
7F0E
331
7F18
331
7F19
331
81EB
331
81EC
331
81F4
331
81F5
331
7F2D
331
7F2E
331
7F38
331
7F39
331
8200
331
80E9
331
80EA
331
80F6
331
80F7
331
84F4
331
84F5
331
850F
331
851C
331
853A
331
853B
102
}
  0
BLOCK_RECORD
  5
8294
330
8210
100
AcDbSymbolTableRecord
100
AcDbBlockTableRecord
  2
YA_N
340
0
102
{BLKREFS
331
7C3B
331
7C59
331
7C5B
331
7CC8
102
}
  0
BLOCK_RECORD
  5
8296
330
8210
100
AcDbSymbolTableRecord
100
AcDbBlockTableRecord
  2
*D4
340
0
  0
BLOCK_RECORD
  5
8298
330
8210
100
AcDbSymbolTableRecord
100
AcDbBlockTableRecord
  2
*D5
340
0
  0
BLOCK_RECORD
  5
829A
330
8210
100
AcDbSymbolTableRecord
100
AcDbBlockTableRecord
  2
*D6
340
0
  0
BLOCK_RECORD
  5
829C
330
8210
100
AcDbSymbolTableRecord
100
AcDbBlockTableRecord
  2
*D7
340
0
  0
BLOCK_RECORD
  5
829E
330
8210
100
AcDbSymbolTableRecord
100
AcDbBlockTableRecord
  2
*U8
340
0
102
{BLKREFS
331
80C8
102
}
  0
BLOCK_RECORD
  5
829F
330
8210
100
AcDbSymbolTableRecord
100
AcDbBlockTableRecord
  2
*D9
340
0
  0
BLOCK_RECORD
  5
82A1
330
8210
100
AcDbSymbolTableRecord
100
AcDbBlockTableRecord
  2
*D10
340
0
  0
BLOCK_RECORD
  5
82A3
330
8210
100
AcDbSymbolTableRecord
100
AcDbBlockTableRecord
  2
*D11
340
0
  0
BLOCK_RECORD
  5
82A5
330
8210
100
AcDbSymbolTableRecord
100
AcDbBlockTableRecord
  2
*D12
340
0
  0
BLOCK_RECORD
  5
82A7
330
8210
100
AcDbSymbolTableRecord
100
AcDbBlockTableRecord
  2
*D13
340
0
  0
BLOCK_RECORD
  5
82A9
330
8210
100
AcDbSymbolTableRecord
100
AcDbBlockTableRecord
  2
*D14
340
0
  0
BLOCK_RECORD
  5
82AB
330
8210
100
AcDbSymbolTableRecord
100
AcDbBlockTableRecord
  2
*D15
340
0
  0
BLOCK_RECORD
  5
82AD
330
8210
100
AcDbSymbolTableRecord
100
AcDbBlockTableRecord
  2
*D16
340
0
  0
BLOCK_RECORD
  5
82AF
330
8210
100
AcDbSymbolTableRecord
100
AcDbBlockTableRecord
  2
*D17
340
0
  0
BLOCK_RECORD
  5
82B1
330
8210
100
AcDbSymbolTableRecord
100
AcDbBlockTableRecord
  2
*D18
340
0
  0
BLOCK_RECORD
  5
82B3
330
8210
100
AcDbSymbolTableRecord
100
AcDbBlockTableRecord
  2
*D19
340
0
  0
BLOCK_RECORD
  5
82B5
330
8210
100
AcDbSymbolTableRecord
100
AcDbBlockTableRecord
  2
*D20
340
0
  0
BLOCK_RECORD
  5
82B7
330
8210
100
AcDbSymbolTableRecord
100
AcDbBlockTableRecord
  2
*D21
340
0
  0
BLOCK_RECORD
  5
82B9
330
8210
100
AcDbSymbolTableRecord
100
AcDbBlockTableRecord
  2
_DOT
340
0
102
{BLKREFS
331
81FF
102
}
  0
BLOCK_RECORD
  5
82BB
330
8210
100
AcDbSymbolTableRecord
100
AcDbBlockTableRecord
  2
*D23
340
0
  0
BLOCK_RECORD
  5
82BD
330
8210
100
AcDbSymbolTableRecord
100
AcDbBlockTableRecord
  2
*D24
340
0
  0
BLOCK_RECORD
  5
82BF
330
8210
100
AcDbSymbolTableRecord
100
AcDbBlockTableRecord
  2
*D25
340
0
  0
BLOCK_RECORD
  5
82C1
330
8210
100
AcDbSymbolTableRecord
100
AcDbBlockTableRecord
  2
*D26
340
0
  0
BLOCK_RECORD
  5
82C3
330
8210
100
AcDbSymbolTableRecord
100
AcDbBlockTableRecord
  2
_NONE
340
0
  0
BLOCK_RECORD
  5
82C5
330
8210
100
AcDbSymbolTableRecord
100
AcDbBlockTableRecord
  2
*D28
340
0
  0
BLOCK_RECORD
  5
82C7
330
8210
100
AcDbSymbolTableRecord
100
AcDbBlockTableRecord
  2
*D29
340
0
  0
BLOCK_RECORD
  5
82CC
330
8210
100
AcDbSymbolTableRecord
100
AcDbBlockTableRecord
  2
*D30
340
0
  0
BLOCK_RECORD
  5
82D9
330
8210
100
AcDbSymbolTableRecord
100
AcDbBlockTableRecord
  2
*D31
340
0
  0
BLOCK_RECORD
  5
82E5
330
8210
100
AcDbSymbolTableRecord
100
AcDbBlockTableRecord
  2
*D32
340
0
  0
BLOCK_RECORD
  5
82F2
330
8210
100
AcDbSymbolTableRecord
100
AcDbBlockTableRecord
  2
*D33
340
0
  0
BLOCK_RECORD
  5
82FF
330
8210
100
AcDbSymbolTableRecord
100
AcDbBlockTableRecord
  2
*D34
340
0
  0
BLOCK_RECORD
  5
830A
330
8210
100
AcDbSymbolTableRecord
100
AcDbBlockTableRecord
  2
*D35
340
0
  0
BLOCK_RECORD
  5
8317
330
8210
100
AcDbSymbolTableRecord
100
AcDbBlockTableRecord
  2
*D36
340
0
  0
BLOCK_RECORD
  5
8324
330
8210
100
AcDbSymbolTableRecord
100
AcDbBlockTableRecord
  2
*D37
340
0
  0
BLOCK_RECORD
  5
8331
330
8210
100
AcDbSymbolTableRecord
100
AcDbBlockTableRecord
  2
*D38
340
0
  0
BLOCK_RECORD
  5
8350
330
8210
100
AcDbSymbolTableRecord
100
AcDbBlockTableRecord
  2
*D39
340
0
  0
BLOCK_RECORD
  5
8373
330
8210
100
AcDbSymbolTableRecord
100
AcDbBlockTableRecord
  2
*D40
340
0
  0
BLOCK_RECORD
  5
8380
330
8210
100
AcDbSymbolTableRecord
100
AcDbBlockTableRecord
  2
*D41
340
0
  0
BLOCK_RECORD
  5
838D
330
8210
100
AcDbSymbolTableRecord
100
AcDbBlockTableRecord
  2
*D42
340
0
  0
BLOCK_RECORD
  5
83A3
330
8210
100
AcDbSymbolTableRecord
100
AcDbBlockTableRecord
  2
*D43
340
0
  0
BLOCK_RECORD
  5
83B0
330
8210
100
AcDbSymbolTableRecord
100
AcDbBlockTableRecord
  2
*D44
340
0
  0
BLOCK_RECORD
  5
83BD
330
8210
100
AcDbSymbolTableRecord
100
AcDbBlockTableRecord
  2
*D45
340
0
  0
BLOCK_RECORD
  5
83CA
330
8210
100
AcDbSymbolTableRecord
100
AcDbBlockTableRecord
  2
*D46
340
0
  0
BLOCK_RECORD
  5
83DC
330
8210
100
AcDbSymbolTableRecord
100
AcDbBlockTableRecord
  2
*D47
340
0
  0
BLOCK_RECORD
  5
8486
330
8210
100
AcDbSymbolTableRecord
100
AcDbBlockTableRecord
  2
_DotSmall
340
0
102
{BLKREFS
331
850E
331
851D
102
}
  0
BLOCK_RECORD
  5
8522
330
8210
100
AcDbSymbolTableRecord
100
AcDbBlockTableRecord
  2
*D49
340
0
  0
ENDTAB
  0
ENDSEC
  0
SECTION
  2
BLOCKS
  0
BLOCK
  5
827F
330
827E
100
AcDbEntity
  8
0
100
AcDbBlockBegin
  2
*Model_Space
 70
     0
 10
0.0
 20
0.0
 30
0.0
  3
*Model_Space
  1

  0
ENDBLK
  5
8280
330
827E
100
AcDbEntity
  8
0
100
AcDbBlockEnd
  0
BLOCK
  5
827B
330
827A
100
AcDbEntity
 67
     1
  8
0
100
AcDbBlockBegin
  2
*Paper_Space
 70
     0
 10
0.0
 20
0.0
 30
0.0
  3
*Paper_Space
  1

  0
ENDBLK
  5
827C
330
827A
100
AcDbEntity
 67
     1
  8
0
100
AcDbBlockEnd
  0
BLOCK
  5
828F
330
828E
100
AcDbEntity
  8
0
100
AcDbBlockBegin
  2
$MODEL_SPACE
 70
     0
 10
0.0
 20
0.0
 30
0.0
  3
$MODEL_SPACE
  1

  0
ENDBLK
  5
1B
330
828E
100
AcDbEntity
  8
0
100
AcDbBlockEnd
  0
BLOCK
  5
8291
330
8290
100
AcDbEntity
  8
0
100
AcDbBlockBegin
  2
$PAPER_SPACE
 70
     0
 10
0.0
 20
0.0
 30
0.0
  3
$PAPER_SPACE
  1

  0
ENDBLK
  5
18
330
8290
100
AcDbEntity
  8
0
100
AcDbBlockEnd
  0
BLOCK
  5
8293
330
8292
100
AcDbEntity
  8
0
100
AcDbBlockBegin
  2
_OPEN
 70
     0
 10
0.0
 20
0.0
 30
0.0
  3
_OPEN
  1

  0
LINE
  5
79FD
330
8292
100
AcDbEntity
  8
0
  6
ByBlock
 62
     0
100
AcDbLine
 10
-1.0
 20
0.1666666666666666
 30
0.0
 11
0.0
 21
0.0
 31
0.0
  0
LINE
  5
79FE
330
8292
100
AcDbEntity
  8
0
  6
ByBlock
 62
     0
100
AcDbLine
 10
0.0
 20
0.0
 30
0.0
 11
-1.0
 21
-0.1666666666666666
 31
0.0
  0
LINE
  5
79FF
330
8292
100
AcDbEntity
  8
0
  6
ByBlock
 62
     0
100
AcDbLine
 10
0.0
 20
0.0
 30
0.0
 11
-1.0
 21
0.0
 31
0.0
  0
ENDBLK
  5
7A01
330
8292
100
AcDbEntity
  8
0
100
AcDbBlockEnd
  0
BLOCK
  5
8295
330
8294
100
AcDbEntity
  8
0
100
AcDbBlockBegin
  2
YA_N
 70
     0
 10
0.0
 20
0.0
 30
0.0
  3
YA_N
  1

  0
ENDBLK
  5
7A0C
330
8294
100
AcDbEntity
  8
0
100
AcDbBlockEnd
  0
BLOCK
  5
8297
330
8296
100
AcDbEntity
  8
0
100
AcDbBlockBegin
  2
*D4
 70
     1
 10
0.0
 20
0.0
 30
0.0
  3
*D4
  1

  0
LINE
  5
7E5A
330
8296
100
AcDbEntity
  8
0
  6
ByBlock
100
AcDbLine
 10
1307.646099619923
 20
-680.8219045855365
 30
0.0
 11
1457.261208063135
 21
-680.8219045855365
 31
0.0
  0
LINE
  5
7E5B
330
8296
100
AcDbEntity
  8
0
  6
ByBlock
100
AcDbLine
 10
1307.646099619923
 20
244.1780954144633
 30
0.0
 11
1457.261208063135
 21
244.1780954144633
 31
0.0
  0
LINE
  5
7E5C
330
8296
100
AcDbEntity
  8
0
  6
ByBlock
100
AcDbLine
 10
1427.261208063135
 20
-620.8219045855367
 30
0.0
 11
1427.261208063135
 21
184.1780954144633
 31
0.0
  0
INSERT
  5
7E5D
330
8296
100
AcDbEntity
  8
0
  6
ByBlock
100
AcDbBlockReference
  2
_OPEN
 10
1427.261208063135
 20
-680.8219045855365
 30
0.0
 41
60.0
 42
60.0
 43
60.0
 50
270.0
  0
INSERT
  5
7E5E
330
8296
100
AcDbEntity
  8
0
  6
ByBlock
100
AcDbBlockReference
  2
_OPEN
 10
1427.261208063135
 20
244.1780954144633
 30
0.0
 41
60.0
 42
60.0
 43
60.0
 50
90.0
  0
TEXT
  5
7E5F
330
8296
100
AcDbEntity
  8
3
100
AcDbText
 10
1412.261208063135
 20
-334.0361902998222
 30
0.0
 40
90.0
  1
925
 50
90.0
100
AcDbText
  0
POINT
  5
7E60
330
8296
100
AcDbEntity
  8
DEFPOINTS
  6
ByBlock
 62
     0
100
AcDbPoint
 10
1277.646099619923
 20
-680.8219045855365
 30
0.0
  0
POINT
  5
7E61
330
8296
100
AcDbEntity
  8
DEFPOINTS
  6
ByBlock
 62
     0
100
AcDbPoint
 10
1277.646099619923
 20
244.1780954144633
 30
0.0
  0
POINT
  5
7E62
330
8296
100
AcDbEntity
  8
DEFPOINTS
  6
ByBlock
 62
     0
100
AcDbPoint
 10
1427.261208063135
 20
244.1780954144633
 30
0.0
  0
ENDBLK
  5
7E63
330
8296
100
AcDbEntity
  8
0
100
AcDbBlockEnd
  0
BLOCK
  5
8299
330
8298
100
AcDbEntity
  8
0
100
AcDbBlockBegin
  2
*D5
 70
     1
 10
0.0
 20
0.0
 30
0.0
  3
*D5
  1

  0
LINE
  5
7E65
330
8298
100
AcDbEntity
  8
0
  6
ByBlock
100
AcDbLine
 10
1307.646099619923
 20
-680.8219045855365
 30
0.0
 11
1607.604508160997
 21
-680.8219045855365
 31
0.0
  0
LINE
  5
7E66
330
8298
100
AcDbEntity
  8
0
  6
ByBlock
100
AcDbLine
 10
1343.90143839847
 20
280.1780954144632
 30
0.0
 11
1607.604508160997
 21
280.1780954144632
 31
0.0
  0
LINE
  5
7E67
330
8298
100
AcDbEntity
  8
0
  6
ByBlock
100
AcDbLine
 10
1577.604508160997
 20
-620.8219045855367
 30
0.0
 11
1577.604508160997
 21
220.1780954144633
 31
0.0
  0
INSERT
  5
7E68
330
8298
100
AcDbEntity
  8
0
  6
ByBlock
100
AcDbBlockReference
  2
_OPEN
 10
1577.604508160997
 20
-680.8219045855365
 30
0.0
 41
60.0
 42
60.0
 43
60.0
 50
270.0
  0
INSERT
  5
7E69
330
8298
100
AcDbEntity
  8
0
  6
ByBlock
100
AcDbBlockReference
  2
_OPEN
 10
1577.604508160997
 20
280.1780954144632
 30
0.0
 41
60.0
 42
60.0
 43
60.0
 50
90.0
  0
TEXT
  5
7E6A
330
8298
100
AcDbEntity
  8
3
100
AcDbText
 10
1562.604508160997
 20
-296.7504760141081
 30
0.0
 40
90.0
  1
961
 50
90.0
100
AcDbText
  0
POINT
  5
7E6B
330
8298
100
AcDbEntity
  8
DEFPOINTS
  6
ByBlock
 62
     0
100
AcDbPoint
 10
1277.646099619923
 20
-680.8219045855365
 30
0.0
  0
POINT
  5
7E6C
330
8298
100
AcDbEntity
  8
DEFPOINTS
  6
ByBlock
 62
     0
100
AcDbPoint
 10
1313.90143839847
 20
280.1780954144632
 30
0.0
  0
POINT
  5
7E6D
330
8298
100
AcDbEntity
  8
DEFPOINTS
  6
ByBlock
 62
     0
100
AcDbPoint
 10
1577.604508160997
 20
280.1780954144632
 30
0.0
  0
ENDBLK
  5
7E6E
330
8298
100
AcDbEntity
  8
0
100
AcDbBlockEnd
  0
BLOCK
  5
829B
330
829A
100
AcDbEntity
  8
0
100
AcDbBlockBegin
  2
*D6
 70
     1
 10
0.0
 20
0.0
 30
0.0
  3
*D6
  1

  0
LINE
  5
7EB2
330
829A
100
AcDbEntity
  8
0
  6
ByBlock
100
AcDbLine
 10
2904.805828611463
 20
922.6366796297712
 30
0.0
 11
2904.805828611463
 21
1146.37004894809
 31
0.0
  0
LINE
  5
7EB3
330
829A
100
AcDbEntity
  8
0
  6
ByBlock
100
AcDbLine
 10
4024.805828611461
 20
925.6800729674994
 30
0.0
 11
4024.805828611461
 21
1146.37004894809
 31
0.0
  0
LINE
  5
7EB4
330
829A
100
AcDbEntity
  8
0
  6
ByBlock
100
AcDbLine
 10
2964.805828611463
 20
1116.37004894809
 30
0.0
 11
3964.805828611462
 21
1116.37004894809
 31
0.0
  0
INSERT
  5
7EB5
330
829A
100
AcDbEntity
  8
0
  6
ByBlock
100
AcDbBlockReference
  2
_OPEN
 10
2904.805828611463
 20
1116.37004894809
 30
0.0
 41
60.0
 42
60.0
 43
60.0
 50
180.0
  0
INSERT
  5
7EB6
330
829A
100
AcDbEntity
  8
0
  6
ByBlock
100
AcDbBlockReference
  2
_OPEN
 10
4024.805828611461
 20
1116.37004894809
 30
0.0
 41
60.0
 42
60.0
 43
60.0
  0
TEXT
  5
7EB7
330
829A
100
AcDbEntity
  8
3
100
AcDbText
 10
3323.377257182892
 20
1131.37004894809
 30
0.0
 40
90.0
  1
1120
100
AcDbText
  0
POINT
  5
7EB8
330
829A
100
AcDbEntity
  8
DEFPOINTS
  6
ByBlock
 62
     0
100
AcDbPoint
 10
2904.805828611463
 20
892.6366796297712
 30
0.0
  0
POINT
  5
7EB9
330
829A
100
AcDbEntity
  8
DEFPOINTS
  6
ByBlock
 62
     0
100
AcDbPoint
 10
4024.805828611461
 20
895.6800729674993
 30
0.0
  0
POINT
  5
7EBA
330
829A
100
AcDbEntity
  8
DEFPOINTS
  6
ByBlock
 62
     0
100
AcDbPoint
 10
4024.805828611461
 20
1116.37004894809
 30
0.0
  0
ENDBLK
  5
7EBB
330
829A
100
AcDbEntity
  8
0
100
AcDbBlockEnd
  0
BLOCK
  5
829D
330
829C
100
AcDbEntity
  8
0
100
AcDbBlockBegin
  2
*D7
 70
     1
 10
0.0
 20
0.0
 30
0.0
  3
*D7
  1

  0
LINE
  5
80C3
330
829C
100
AcDbEntity
  8
0
  6
ByBlock
100
AcDbLine
 10
4057.061241143684
 20
3605.233310273391
 30
0.0
 11
4057.061241143684
 21
4384.456419218762
 31
0.0
  0
LINE
  5
80C4
330
829C
100
AcDbEntity
  8
0
  6
ByBlock
100
AcDbLine
 10
4955.061241143687
 20
4366.808979398128
 30
0.0
 11
4955.061241143687
 21
4384.456419218762
 31
0.0
  0
LINE
  5
80C5
330
829C
100
AcDbEntity
  8
0
  6
ByBlock
100
AcDbLine
 10
4117.061241143685
 20
4354.456419218762
 30
0.0
 11
4895.061241143687
 21
4354.456419218762
 31
0.0
  0
INSERT
  5
80C6
330
829C
100
AcDbEntity
  8
0
  6
ByBlock
100
AcDbBlockReference
  2
_OPEN
 10
4057.061241143684
 20
4354.456419218762
 30
0.0
 41
60.0
 42
60.0
 43
60.0
 50
180.0
  0
INSERT
  5
80C7
330
829C
100
AcDbEntity
  8
0
  6
ByBlock
100
AcDbBlockReference
  2
_OPEN
 10
4955.061241143687
 20
4354.456419218762
 30
0.0
 41
60.0
 42
60.0
 43
60.0
  0
INSERT
  5
80C8
330
829C
100
AcDbEntity
  8
3
100
AcDbBlockReference
  2
*U8
 10
0.0
 20
0.0
 30
0.0
  0
POINT
  5
80C9
330
829C
100
AcDbEntity
  8
DEFPOINTS
  6
ByBlock
 62
     0
100
AcDbPoint
 10
4057.061241143684
 20
3575.233310273389
 30
0.0
  0
POINT
  5
80CA
330
829C
100
AcDbEntity
  8
DEFPOINTS
  6
ByBlock
 62
     0
100
AcDbPoint
 10
4955.061241143687
 20
4336.808979398129
 30
0.0
  0
POINT
  5
80CB
330
829C
100
AcDbEntity
  8
DEFPOINTS
  6
ByBlock
 62
     0
100
AcDbPoint
 10
4955.061241143687
 20
4354.456419218762
 30
0.0
  0
ENDBLK
  5
80CC
330
829C
100
AcDbEntity
  8
0
100
AcDbBlockEnd
  0
BLOCK
  5
82C9
330
829E
100
AcDbEntity
  8
0
100
AcDbBlockBegin
  2
*U8
 70
     1
 10
0.0
 20
0.0
 30
0.0
  3
*U8
  1

  0
TEXT
  5
8209
330
829E
100
AcDbEntity
  8
3
100
AcDbText
 10
4377.489812572258
 20
4519.456419218761
 30
0.0
 40
90.0
  1
MAX
100
AcDbText
  0
TEXT
  5
820A
330
829E
100
AcDbEntity
  8
3
100
AcDbText
 10
4390.346955429399
 20
4369.456419218762
 30
0.0
 40
90.0
  1
920
100
AcDbText
  0
ENDBLK
  5
820C
330
829E
100
AcDbEntity
  8
0
100
AcDbBlockEnd
  0
BLOCK
  5
82A0
330
829F
100
AcDbEntity
  8
0
100
AcDbBlockBegin
  2
*D9
 70
     1
 10
0.0
 20
0.0
 30
0.0
  3
*D9
  1

  0
LINE
  5
80CE
330
829F
100
AcDbEntity
  8
0
  6
ByBlock
100
AcDbLine
 10
4955.061241143687
 20
4274.902313297989
 30
0.0
 11
4955.061241143687
 21
4384.456419218762
 31
0.0
  0
LINE
  5
80CF
330
829F
100
AcDbEntity
  8
0
  6
ByBlock
100
AcDbLine
 10
5624.561241143687
 20
3285.73331027339
 30
0.0
 11
5624.561241143687
 21
4384.456419218762
 31
0.0
  0
LINE
  5
80D0
330
829F
100
AcDbEntity
  8
0
  6
ByBlock
100
AcDbLine
 10
5015.061241143687
 20
4354.456419218762
 30
0.0
 11
5564.561241143685
 21
4354.456419218762
 31
0.0
  0
INSERT
  5
80D1
330
829F
100
AcDbEntity
  8
0
  6
ByBlock
100
AcDbBlockReference
  2
_OPEN
 10
4955.061241143687
 20
4354.456419218762
 30
0.0
 41
60.0
 42
60.0
 43
60.0
 50
180.0
  0
INSERT
  5
80D2
330
829F
100
AcDbEntity
  8
0
  6
ByBlock
100
AcDbBlockReference
  2
_OPEN
 10
5624.561241143687
 20
4354.456419218762
 30
0.0
 41
60.0
 42
60.0
 43
60.0
  0
TEXT
  5
80D3
330
829F
100
AcDbEntity
  8
3
100
AcDbText
 10
5116.239812572258
 20
4408.027847790191
 30
0.0
 40
90.0
  1
(680)
100
AcDbText
  0
POINT
  5
80D4
330
829F
100
AcDbEntity
  8
DEFPOINTS
  6
ByBlock
 62
     0
100
AcDbPoint
 10
4955.061241143687
 20
4244.902313297989
 30
0.0
  0
POINT
  5
80D5
330
829F
100
AcDbEntity
  8
DEFPOINTS
  6
ByBlock
 62
     0
100
AcDbPoint
 10
5624.561241143687
 20
3255.73331027339
 30
0.0
  0
POINT
  5
80D6
330
829F
100
AcDbEntity
  8
DEFPOINTS
  6
ByBlock
 62
     0
100
AcDbPoint
 10
5624.561241143687
 20
4354.456419218762
 30
0.0
  0
ENDBLK
  5
80D7
330
829F
100
AcDbEntity
  8
0
100
AcDbBlockEnd
  0
BLOCK
  5
82A2
330
82A1
100
AcDbEntity
  8
0
100
AcDbBlockBegin
  2
*D10
 70
     1
 10
0.0
 20
0.0
 30
0.0
  3
*D10
  1

  0
LINE
  5
7ED3
330
82A1
100
AcDbEntity
  8
0
  6
ByBlock
100
AcDbLine
 10
-652.3539003800747
 20
3444.814411033823
 30
0.0
 11
-652.3539003800747
 21
4321.829069539044
 31
0.0
  0
LINE
  5
7ED4
330
82A1
100
AcDbEntity
  8
0
  6
ByBlock
100
AcDbLine
 10
97.64609961992526
 20
4019.814411033823
 30
0.0
 11
97.64609961992526
 21
4321.829069539044
 31
0.0
  0
LINE
  5
7ED5
330
82A1
100
AcDbEntity
  8
0
  6
ByBlock
100
AcDbLine
 10
-592.3539003800747
 20
4291.829069539044
 30
0.0
 11
37.64609961992526
 21
4291.829069539044
 31
0.0
  0
INSERT
  5
7ED6
330
82A1
100
AcDbEntity
  8
0
  6
ByBlock
100
AcDbBlockReference
  2
_OPEN
 10
-652.3539003800747
 20
4291.829069539044
 30
0.0
 41
60.0
 42
60.0
 43
60.0
 50
180.0
  0
INSERT
  5
7ED7
330
82A1
100
AcDbEntity
  8
0
  6
ByBlock
100
AcDbBlockReference
  2
_OPEN
 10
97.64609961992526
 20
4291.829069539044
 30
0.0
 41
60.0
 42
60.0
 43
60.0
  0
TEXT
  5
7ED8
330
82A1
100
AcDbEntity
  8
3
100
AcDbText
 10
-393.0681860943603
 20
4306.829069539044
 30
0.0
 40
90.0
  1
750
100
AcDbText
  0
POINT
  5
7ED9
330
82A1
100
AcDbEntity
  8
DEFPOINTS
  6
ByBlock
 62
     0
100
AcDbPoint
 10
-652.3539003800747
 20
3414.814411033823
 30
0.0
  0
POINT
  5
7EDA
330
82A1
100
AcDbEntity
  8
DEFPOINTS
  6
ByBlock
 62
     0
100
AcDbPoint
 10
97.64609961992526
 20
3989.814411033823
 30
0.0
  0
POINT
  5
7EDB
330
82A1
100
AcDbEntity
  8
DEFPOINTS
  6
ByBlock
 62
     0
100
AcDbPoint
 10
97.64609961992526
 20
4291.829069539044
 30
0.0
  0
ENDBLK
  5
7EDC
330
82A1
100
AcDbEntity
  8
0
100
AcDbBlockEnd
  0
BLOCK
  5
82A4
330
82A3
100
AcDbEntity
  8
0
100
AcDbBlockBegin
  2
*D11
 70
     1
 10
0.0
 20
0.0
 30
0.0
  3
*D11
  1

  0
LINE
  5
7EDE
330
82A3
100
AcDbEntity
  8
0
  6
ByBlock
100
AcDbLine
 10
97.64609961992526
 20
4019.814411033823
 30
0.0
 11
97.64609961992526
 21
4321.829069539044
 31
0.0
  0
LINE
  5
7EDF
330
82A3
100
AcDbEntity
  8
0
  6
ByBlock
100
AcDbLine
 10
1217.646099619925
 20
4019.814411033823
 30
0.0
 11
1217.646099619925
 21
4321.829069539044
 31
0.0
  0
LINE
  5
7EE0
330
82A3
100
AcDbEntity
  8
0
  6
ByBlock
100
AcDbLine
 10
157.6460996199252
 20
4291.829069539044
 30
0.0
 11
1157.646099619925
 21
4291.829069539044
 31
0.0
  0
INSERT
  5
7EE1
330
82A3
100
AcDbEntity
  8
0
  6
ByBlock
100
AcDbBlockReference
  2
_OPEN
 10
97.64609961992526
 20
4291.829069539044
 30
0.0
 41
60.0
 42
60.0
 43
60.0
 50
180.0
  0
INSERT
  5
7EE2
330
82A3
100
AcDbEntity
  8
0
  6
ByBlock
100
AcDbBlockReference
  2
_OPEN
 10
1217.646099619925
 20
4291.829069539044
 30
0.0
 41
60.0
 42
60.0
 43
60.0
  0
TEXT
  5
7EE3
330
82A3
100
AcDbEntity
  8
3
100
AcDbText
 10
516.2175281913537
 20
4306.829069539044
 30
0.0
 40
90.0
  1
1120
100
AcDbText
  0
POINT
  5
7EE4
330
82A3
100
AcDbEntity
  8
DEFPOINTS
  6
ByBlock
 62
     0
100
AcDbPoint
 10
97.64609961992526
 20
3989.814411033823
 30
0.0
  0
POINT
  5
7EE5
330
82A3
100
AcDbEntity
  8
DEFPOINTS
  6
ByBlock
 62
     0
100
AcDbPoint
 10
1217.646099619925
 20
3989.814411033823
 30
0.0
  0
POINT
  5
7EE6
330
82A3
100
AcDbEntity
  8
DEFPOINTS
  6
ByBlock
 62
     0
100
AcDbPoint
 10
1217.646099619925
 20
4291.829069539044
 30
0.0
  0
ENDBLK
  5
7EE7
330
82A3
100
AcDbEntity
  8
0
100
AcDbBlockEnd
  0
BLOCK
  5
82A6
330
82A5
100
AcDbEntity
  8
0
100
AcDbBlockBegin
  2
*D12
 70
     1
 10
0.0
 20
0.0
 30
0.0
  3
*D12
  1

  0
LINE
  5
7EE9
330
82A5
100
AcDbEntity
  8
0
  6
ByBlock
100
AcDbLine
 10
1247.646099619925
 20
3989.814411033823
 30
0.0
 11
1548.070321786341
 21
3989.814411033823
 31
0.0
  0
LINE
  5
7EEA
330
82A5
100
AcDbEntity
  8
0
  6
ByBlock
100
AcDbLine
 10
1247.646099619925
 20
2614.814411033822
 30
0.0
 11
1548.070321786341
 21
2614.814411033822
 31
0.0
  0
LINE
  5
7EEB
330
82A5
100
AcDbEntity
  8
0
  6
ByBlock
100
AcDbLine
 10
1518.070321786341
 20
3929.814411033823
 30
0.0
 11
1518.070321786341
 21
2674.814411033822
 31
0.0
  0
INSERT
  5
7EEC
330
82A5
100
AcDbEntity
  8
0
  6
ByBlock
100
AcDbBlockReference
  2
_OPEN
 10
1518.070321786341
 20
3989.814411033823
 30
0.0
 41
60.0
 42
60.0
 43
60.0
 50
90.0
  0
INSERT
  5
7EED
330
82A5
100
AcDbEntity
  8
0
  6
ByBlock
100
AcDbBlockReference
  2
_OPEN
 10
1518.070321786341
 20
2614.814411033822
 30
0.0
 41
60.0
 42
60.0
 43
60.0
 50
270.0
  0
TEXT
  5
7EEE
330
82A5
100
AcDbEntity
  8
3
100
AcDbText
 10
1503.070321786341
 20
3152.314411033823
 30
0.0
 40
90.0
  1
1375
 50
90.0
100
AcDbText
  0
POINT
  5
7EEF
330
82A5
100
AcDbEntity
  8
DEFPOINTS
  6
ByBlock
 62
     0
100
AcDbPoint
 10
1217.646099619925
 20
3989.814411033823
 30
0.0
  0
POINT
  5
7EF0
330
82A5
100
AcDbEntity
  8
DEFPOINTS
  6
ByBlock
 62
     0
100
AcDbPoint
 10
1217.646099619925
 20
2614.814411033822
 30
0.0
  0
POINT
  5
7EF1
330
82A5
100
AcDbEntity
  8
DEFPOINTS
  6
ByBlock
 62
     0
100
AcDbPoint
 10
1518.070321786341
 20
2614.814411033822
 30
0.0
  0
ENDBLK
  5
7EF2
330
82A5
100
AcDbEntity
  8
0
100
AcDbBlockEnd
  0
BLOCK
  5
82A8
330
82A7
100
AcDbEntity
  8
0
100
AcDbBlockBegin
  2
*D13
 70
     1
 10
0.0
 20
0.0
 30
0.0
  3
*D13
  1

  0
LINE
  5
7EF4
330
82A7
100
AcDbEntity
  8
0
  6
ByBlock
100
AcDbLine
 10
-652.3539003800747
 20
2584.814411033822
 30
0.0
 11
-652.3539003800747
 21
2277.667251551749
 31
0.0
  0
LINE
  5
7EF5
330
82A7
100
AcDbEntity
  8
0
  6
ByBlock
100
AcDbLine
 10
1217.646099619925
 20
2584.814411033821
 30
0.0
 11
1217.646099619925
 21
2277.667251551749
 31
0.0
  0
LINE
  5
7EF6
330
82A7
100
AcDbEntity
  8
0
  6
ByBlock
100
AcDbLine
 10
-592.3539003800747
 20
2307.667251551749
 30
0.0
 11
1157.646099619925
 21
2307.667251551749
 31
0.0
  0
INSERT
  5
7EF7
330
82A7
100
AcDbEntity
  8
0
  6
ByBlock
100
AcDbBlockReference
  2
_OPEN
 10
-652.3539003800747
 20
2307.667251551749
 30
0.0
 41
60.0
 42
60.0
 43
60.0
 50
180.0
  0
INSERT
  5
7EF8
330
82A7
100
AcDbEntity
  8
0
  6
ByBlock
100
AcDbBlockReference
  2
_OPEN
 10
1217.646099619925
 20
2307.667251551749
 30
0.0
 41
60.0
 42
60.0
 43
60.0
  0
TEXT
  5
7EF9
330
82A7
100
AcDbEntity
  8
3
100
AcDbText
 10
132.6460996199253
 20
2322.667251551749
 30
0.0
 40
90.0
  1
1870
100
AcDbText
  0
POINT
  5
7EFA
330
82A7
100
AcDbEntity
  8
DEFPOINTS
  6
ByBlock
 62
     0
100
AcDbPoint
 10
-652.3539003800747
 20
2614.814411033822
 30
0.0
  0
POINT
  5
7EFB
330
82A7
100
AcDbEntity
  8
DEFPOINTS
  6
ByBlock
 62
     0
100
AcDbPoint
 10
1217.646099619925
 20
2614.814411033822
 30
0.0
  0
POINT
  5
7EFC
330
82A7
100
AcDbEntity
  8
DEFPOINTS
  6
ByBlock
 62
     0
100
AcDbPoint
 10
1217.646099619925
 20
2307.667251551749
 30
0.0
  0
ENDBLK
  5
7EFD
330
82A7
100
AcDbEntity
  8
0
100
AcDbBlockEnd
  0
BLOCK
  5
82AA
330
82A9
100
AcDbEntity
  8
0
100
AcDbBlockBegin
  2
*D14
 70
     1
 10
0.0
 20
0.0
 30
0.0
  3
*D14
  1

  0
LINE
  5
7EFF
330
82A9
100
AcDbEntity
  8
0
  6
ByBlock
100
AcDbLine
 10
-682.3539003800747
 20
3414.814411033823
 30
0.0
 11
-983.0946067666992
 21
3414.814411033823
 31
0.0
  0
LINE
  5
7F00
330
82A9
100
AcDbEntity
  8
0
  6
ByBlock
100
AcDbLine
 10
-682.3539003800747
 20
2614.814411033822
 30
0.0
 11
-983.0946067666992
 21
2614.814411033822
 31
0.0
  0
LINE
  5
7F01
330
82A9
100
AcDbEntity
  8
0
  6
ByBlock
100
AcDbLine
 10
-953.0946067666992
 20
3354.814411033823
 30
0.0
 11
-953.0946067666992
 21
2674.814411033822
 31
0.0
  0
INSERT
  5
7F02
330
82A9
100
AcDbEntity
  8
0
  6
ByBlock
100
AcDbBlockReference
  2
_OPEN
 10
-953.0946067666992
 20
3414.814411033823
 30
0.0
 41
60.0
 42
60.0
 43
60.0
 50
90.0
  0
INSERT
  5
7F03
330
82A9
100
AcDbEntity
  8
0
  6
ByBlock
100
AcDbBlockReference
  2
_OPEN
 10
-953.0946067666992
 20
2614.814411033822
 30
0.0
 41
60.0
 42
60.0
 43
60.0
 50
270.0
  0
TEXT
  5
7F04
330
82A9
100
AcDbEntity
  8
3
100
AcDbText
 10
-968.0946067666992
 20
2899.100125319537
 30
0.0
 40
90.0
  1
800
 50
90.0
100
AcDbText
  0
POINT
  5
7F05
330
82A9
100
AcDbEntity
  8
DEFPOINTS
  6
ByBlock
 62
     0
100
AcDbPoint
 10
-652.3539003800747
 20
3414.814411033823
 30
0.0
  0
POINT
  5
7F06
330
82A9
100
AcDbEntity
  8
DEFPOINTS
  6
ByBlock
 62
     0
100
AcDbPoint
 10
-652.3539003800747
 20
2614.814411033822
 30
0.0
  0
POINT
  5
7F07
330
82A9
100
AcDbEntity
  8
DEFPOINTS
  6
ByBlock
 62
     0
100
AcDbPoint
 10
-953.0946067666992
 20
2614.814411033822
 30
0.0
  0
ENDBLK
  5
7F08
330
82A9
100
AcDbEntity
  8
0
100
AcDbBlockEnd
  0
BLOCK
  5
82AC
330
82AB
100
AcDbEntity
  8
0
100
AcDbBlockBegin
  2
*D15
 70
     1
 10
0.0
 20
0.0
 30
0.0
  3
*D15
  1

  0
LINE
  5
7F0A
330
82AB
100
AcDbEntity
  8
0
  6
ByBlock
100
AcDbLine
 10
4060.305828611461
 20
-194.8219045855367
 30
0.0
 11
4378.696822439597
 21
-194.8219045855367
 31
0.0
  0
LINE
  5
7F0B
330
82AB
100
AcDbEntity
  8
0
  6
ByBlock
100
AcDbLine
 10
4060.305828611461
 20
755.1780954144633
 30
0.0
 11
4378.696822439597
 21
755.1780954144633
 31
0.0
  0
LINE
  5
7F0C
330
82AB
100
AcDbEntity
  8
0
  6
ByBlock
100
AcDbLine
 10
4348.696822439597
 20
-134.8219045855366
 30
0.0
 11
4348.696822439597
 21
695.1780954144632
 31
0.0
  0
INSERT
  5
7F0D
330
82AB
100
AcDbEntity
  8
0
  6
ByBlock
100
AcDbBlockReference
  2
_OPEN
 10
4348.696822439597
 20
-194.8219045855367
 30
0.0
 41
60.0
 42
60.0
 43
60.0
 50
270.0
  0
INSERT
  5
7F0E
330
82AB
100
AcDbEntity
  8
0
  6
ByBlock
100
AcDbBlockReference
  2
_OPEN
 10
4348.696822439597
 20
755.1780954144633
 30
0.0
 41
60.0
 42
60.0
 43
60.0
 50
90.0
  0
TEXT
  5
7F0F
330
82AB
100
AcDbEntity
  8
3
100
AcDbText
 10
4333.696822439597
 20
119.4638097001776
 30
0.0
 40
90.0
  1
\U+03C6950
 50
90.0
100
AcDbText
  0
POINT
  5
7F10
330
82AB
100
AcDbEntity
  8
DEFPOINTS
  6
ByBlock
 62
     0
100
AcDbPoint
 10
4030.305828611463
 20
-194.8219045855367
 30
0.0
  0
POINT
  5
7F11
330
82AB
100
AcDbEntity
  8
DEFPOINTS
  6
ByBlock
 62
     0
100
AcDbPoint
 10
4030.305828611463
 20
755.1780954144633
 30
0.0
  0
POINT
  5
7F12
330
82AB
100
AcDbEntity
  8
DEFPOINTS
  6
ByBlock
 62
     0
100
AcDbPoint
 10
4348.696822439597
 20
755.1780954144633
 30
0.0
  0
ENDBLK
  5
7F13
330
82AB
100
AcDbEntity
  8
0
100
AcDbBlockEnd
  0
BLOCK
  5
82AE
330
82AD
100
AcDbEntity
  8
0
100
AcDbBlockBegin
  2
*D16
 70
     1
 10
0.0
 20
0.0
 30
0.0
  3
*D16
  1

  0
LINE
  5
7F15
330
82AD
100
AcDbEntity
  8
0
  6
ByBlock
100
AcDbLine
 10
1277.646099619923
 20
316.6780954144633
 30
0.0
 11
1277.646099619923
 21
1219.071631558228
 31
0.0
  0
LINE
  5
7F16
330
82AD
100
AcDbEntity
  8
0
  6
ByBlock
100
AcDbLine
 10
657.6460996199237
 20
1000.264970047074
 30
0.0
 11
657.6460996199237
 21
1219.071631558228
 31
0.0
  0
LINE
  5
7F17
330
82AD
100
AcDbEntity
  8
0
  6
ByBlock
100
AcDbLine
 10
1217.646099619924
 20
1189.071631558228
 30
0.0
 11
717.6460996199238
 21
1189.071631558228
 31
0.0
  0
INSERT
  5
7F18
330
82AD
100
AcDbEntity
  8
0
  6
ByBlock
100
AcDbBlockReference
  2
_OPEN
 10
1277.646099619923
 20
1189.071631558228
 30
0.0
 41
60.0
 42
60.0
 43
60.0
  0
INSERT
  5
7F19
330
82AD
100
AcDbEntity
  8
0
  6
ByBlock
100
AcDbBlockReference
  2
_OPEN
 10
657.6460996199237
 20
1189.071631558228
 30
0.0
 41
60.0
 42
60.0
 43
60.0
 50
180.0
  0
TEXT
  5
7F1A
330
82AD
100
AcDbEntity
  8
3
100
AcDbText
 10
851.931813905638
 20
1204.071631558228
 30
0.0
 40
90.0
  1
620
100
AcDbText
  0
POINT
  5
7F1B
330
82AD
100
AcDbEntity
  8
DEFPOINTS
  6
ByBlock
 62
     0
100
AcDbPoint
 10
1277.646099619923
 20
286.6780954144632
 30
0.0
  0
POINT
  5
7F1C
330
82AD
100
AcDbEntity
  8
DEFPOINTS
  6
ByBlock
 62
     0
100
AcDbPoint
 10
657.6460996199237
 20
970.2649700470738
 30
0.0
  0
POINT
  5
7F1D
330
82AD
100
AcDbEntity
  8
DEFPOINTS
  6
ByBlock
 62
     0
100
AcDbPoint
 10
657.6460996199237
 20
1189.071631558228
 30
0.0
  0
ENDBLK
  5
7F1E
330
82AD
100
AcDbEntity
  8
0
100
AcDbBlockEnd
  0
BLOCK
  5
82B0
330
82AF
100
AcDbEntity
  8
0
100
AcDbBlockBegin
  2
*D17
 70
     1
 10
0.0
 20
0.0
 30
0.0
  3
*D17
  1

  0
LINE
  5
81E9
330
82AF
100
AcDbEntity
  8
3
100
AcDbLine
 10
1370.901512152148
 20
3258.233310273389
 30
0.0
 11
1370.901512152148
 21
4234.126846417155
 31
0.0
  0
LINE
  5
81EA
330
82AF
100
AcDbEntity
  8
3
100
AcDbLine
 10
2087.901512152148
 20
4204.126846417155
 30
0.0
 11
1430.901512152147
 21
4204.126846417155
 31
0.0
  0
INSERT
  5
81EB
330
82AF
100
AcDbEntity
  8
3
100
AcDbBlockReference
  2
_OPEN
 10
2147.901512152148
 20
4204.126846417155
 30
0.0
 41
60.0
 42
60.0
 43
60.0
  0
INSERT
  5
81EC
330
82AF
100
AcDbEntity
  8
3
100
AcDbBlockReference
  2
_OPEN
 10
1370.901512152148
 20
4204.126846417155
 30
0.0
 41
60.0
 42
60.0
 43
60.0
 50
180.0
  0
TEXT
  5
820D
330
82AF
100
AcDbEntity
  8
3
100
AcDbText
 10
1579.4
 20
4104.829999999999
 30
0.0
 40
90.0
  1
777
100
AcDbText
  0
POINT
  5
81EE
330
82AF
100
AcDbEntity
  8
DEFPOINTS
 62
     0
100
AcDbPoint
 10
2147.901512152148
 20
3985.320184906001
 30
0.0
  0
POINT
  5
81EF
330
82AF
100
AcDbEntity
  8
DEFPOINTS
 62
     0
100
AcDbPoint
 10
1370.901512152148
 20
3228.23331027339
 30
0.0
  0
POINT
  5
81F0
330
82AF
100
AcDbEntity
  8
DEFPOINTS
 62
     0
100
AcDbPoint
 10
1370.901512152148
 20
4204.126846417155
 30
0.0
  0
ENDBLK
  5
7F28
330
82AF
100
AcDbEntity
  8
0
100
AcDbBlockEnd
  0
BLOCK
  5
82B2
330
82B1
100
AcDbEntity
  8
0
100
AcDbBlockBegin
  2
*D18
 70
     1
 10
0.0
 20
0.0
 30
0.0
  3
*D18
  1

  0
LINE
  5
7F2A
330
82B1
100
AcDbEntity
  8
0
  6
ByBlock
100
AcDbLine
 10
1277.646099619923
 20
274.1780954144632
 30
0.0
 11
1277.646099619923
 21
1415.243121188919
 31
0.0
  0
LINE
  5
7F2B
330
82B1
100
AcDbEntity
  8
0
  6
ByBlock
100
AcDbLine
 10
-652.3539003800741
 20
-689.8219045855371
 30
0.0
 11
-652.3539003800741
 21
1415.243121188919
 31
0.0
  0
LINE
  5
7F2C
330
82B1
100
AcDbEntity
  8
0
  6
ByBlock
100
AcDbLine
 10
1217.646099619924
 20
1385.243121188919
 30
0.0
 11
-592.3539003800741
 21
1385.243121188919
 31
0.0
  0
INSERT
  5
7F2D
330
82B1
100
AcDbEntity
  8
0
  6
ByBlock
100
AcDbBlockReference
  2
_OPEN
 10
1277.646099619923
 20
1385.243121188919
 30
0.0
 41
60.0
 42
60.0
 43
60.0
  0
INSERT
  5
7F2E
330
82B1
100
AcDbEntity
  8
0
  6
ByBlock
100
AcDbBlockReference
  2
_OPEN
 10
-652.3539003800741
 20
1385.243121188919
 30
0.0
 41
60.0
 42
60.0
 43
60.0
 50
180.0
  0
TEXT
  5
7F2F
330
82B1
100
AcDbEntity
  8
3
100
AcDbText
 10
162.6460996199248
 20
1400.243121188919
 30
0.0
 40
90.0
  1
1930
100
AcDbText
  0
POINT
  5
7F30
330
82B1
100
AcDbEntity
  8
DEFPOINTS
  6
ByBlock
 62
     0
100
AcDbPoint
 10
1277.646099619923
 20
244.1780954144633
 30
0.0
  0
POINT
  5
7F31
330
82B1
100
AcDbEntity
  8
DEFPOINTS
  6
ByBlock
 62
     0
100
AcDbPoint
 10
-652.3539003800741
 20
-719.8219045855371
 30
0.0
  0
POINT
  5
7F32
330
82B1
100
AcDbEntity
  8
DEFPOINTS
  6
ByBlock
 62
     0
100
AcDbPoint
 10
-652.3539003800741
 20
1385.243121188919
 30
0.0
  0
ENDBLK
  5
7F33
330
82B1
100
AcDbEntity
  8
0
100
AcDbBlockEnd
  0
BLOCK
  5
82B4
330
82B3
100
AcDbEntity
  8
0
100
AcDbBlockBegin
  2
*D19
 70
     1
 10
0.0
 20
0.0
 30
0.0
  3
*D19
  1

  0
LINE
  5
7F35
330
82B3
100
AcDbEntity
  8
0
  6
ByBlock
100
AcDbLine
 10
620.6460996199238
 20
923.1780954144634
 30
0.0
 11
1799.330077344984
 21
923.1780954144634
 31
0.0
  0
LINE
  5
7F36
330
82B3
100
AcDbEntity
  8
0
  6
ByBlock
100
AcDbLine
 10
1373.90143839847
 20
280.1780954144632
 30
0.0
 11
1799.330077344984
 21
280.1780954144632
 31
0.0
  0
LINE
  5
7F37
330
82B3
100
AcDbEntity
  8
0
  6
ByBlock
100
AcDbLine
 10
1769.330077344984
 20
863.1780954144632
 30
0.0
 11
1769.330077344984
 21
340.1780954144633
 31
0.0
  0
INSERT
  5
7F38
330
82B3
100
AcDbEntity
  8
0
  6
ByBlock
100
AcDbBlockReference
  2
_OPEN
 10
1769.330077344984
 20
923.1780954144634
 30
0.0
 41
60.0
 42
60.0
 43
60.0
 50
90.0
  0
INSERT
  5
7F39
330
82B3
100
AcDbEntity
  8
0
  6
ByBlock
100
AcDbBlockReference
  2
_OPEN
 10
1769.330077344984
 20
280.1780954144632
 30
0.0
 41
60.0
 42
60.0
 43
60.0
 50
270.0
  0
TEXT
  5
7F3A
330
82B3
100
AcDbEntity
  8
3
100
AcDbText
 10
1754.330077344984
 20
485.9638097001775
 30
0.0
 40
90.0
  1
643
 50
90.0
100
AcDbText
  0
POINT
  5
7F3B
330
82B3
100
AcDbEntity
  8
DEFPOINTS
  6
ByBlock
 62
     0
100
AcDbPoint
 10
590.6460996199237
 20
923.1780954144634
 30
0.0
  0
POINT
  5
7F3C
330
82B3
100
AcDbEntity
  8
DEFPOINTS
  6
ByBlock
 62
     0
100
AcDbPoint
 10
1343.90143839847
 20
280.1780954144632
 30
0.0
  0
POINT
  5
7F3D
330
82B3
100
AcDbEntity
  8
DEFPOINTS
  6
ByBlock
 62
     0
100
AcDbPoint
 10
1769.330077344984
 20
280.1780954144632
 30
0.0
  0
ENDBLK
  5
7F3E
330
82B3
100
AcDbEntity
  8
0
100
AcDbBlockEnd
  0
BLOCK
  5
82B6
330
82B5
100
AcDbEntity
  8
0
100
AcDbBlockBegin
  2
*D20
 70
     1
 10
0.0
 20
0.0
 30
0.0
  3
*D20
  1

  0
LINE
  5
81F1
330
82B5
100
AcDbEntity
  8
3
 62
     0
100
AcDbLine
 10
2849.156850930694
 20
3295.233310273391
 30
0.0
 11
3289.58548987721
 21
3295.23331027339
 31
0.0
  0
LINE
  5
81F2
330
82B5
100
AcDbEntity
  8
3
 62
     0
100
AcDbLine
 10
2722.901512152148
 20
2195.23331027339
 30
0.0
 11
3289.585489877208
 21
2195.233310273389
 31
0.0
  0
LINE
  5
81F3
330
82B5
100
AcDbEntity
  8
3
 62
     0
100
AcDbLine
 10
3259.585489877208
 20
3235.23331027339
 30
0.0
 11
3259.585489877208
 21
2255.233310273389
 31
0.0
  0
INSERT
  5
81F4
330
82B5
100
AcDbEntity
  8
3
 62
     0
100
AcDbBlockReference
  2
_OPEN
 10
3259.585489877208
 20
3295.23331027339
 30
0.0
 41
60.0
 42
60.0
 43
60.0
 50
90.0
  0
INSERT
  5
81F5
330
82B5
100
AcDbEntity
  8
3
 62
     0
100
AcDbBlockReference
  2
_OPEN
 10
3259.585489877208
 20
2195.233310273389
 30
0.0
 41
60.0
 42
60.0
 43
60.0
 50
270.0
  0
TEXT
  5
820E
330
82B5
100
AcDbEntity
  8
3
 62
     0
100
AcDbText
 10
3004.59
 20
2585.93
 30
0.0
 40
90.0
  1
1100
100
AcDbText
  0
POINT
  5
81F7
330
82B5
100
AcDbEntity
  8
DEFPOINTS
 62
     0
100
AcDbPoint
 10
2834.156850930694
 20
3295.233310273391
 30
0.0
  0
POINT
  5
81F8
330
82B5
100
AcDbEntity
  8
DEFPOINTS
 62
     0
100
AcDbPoint
 10
2707.901512152147
 20
2195.23331027339
 30
0.0
  0
POINT
  5
81F9
330
82B5
100
AcDbEntity
  8
DEFPOINTS
 62
     0
100
AcDbPoint
 10
3259.585489877208
 20
2195.233310273389
 30
0.0
  0
ENDBLK
  5
7FAC
330
82B5
100
AcDbEntity
  8
0
100
AcDbBlockEnd
  0
BLOCK
  5
82B8
330
82B7
100
AcDbEntity
  8
0
100
AcDbBlockBegin
  2
*D21
 70
     1
 10
0.0
 20
0.0
 30
0.0
  3
*D21
  1

  0
LINE
  5
81FA
330
82B7
100
AcDbEntity
  8
3
 62
     0
100
AcDbLine
 10
2722.901512152151
 20
2080.23331027339
 30
0.0
 11
3289.585489877208
 21
2080.233310273388
 31
0.0
  0
LINE
  5
81FB
330
82B7
100
AcDbEntity
  8
3
 62
     0
100
AcDbLine
 10
2722.901512152151
 20
1980.23331027339
 30
0.0
 11
3289.585489877208
 21
1980.23331027339
 31
0.0
  0
LINE
  5
81FC
330
82B7
100
AcDbEntity
  8
3
 62
     0
100
AcDbLine
 10
3259.585489877208
 20
2140.233310273389
 30
0.0
 11
3259.585489877208
 21
2200.233310273389
 31
0.0
  0
LINE
  5
81FD
330
82B7
100
AcDbEntity
  8
3
 62
     0
100
AcDbLine
 10
3259.585489877208
 20
1920.23331027339
 30
0.0
 11
3259.585489877208
 21
1585.947595987676
 31
0.0
  0
LINE
  5
81FE
330
82B7
100
AcDbEntity
  8
3
 62
     0
100
AcDbLine
 10
3259.585489877208
 20
2080.233310273388
 30
0.0
 11
3259.585489877208
 21
1980.23331027339
 31
0.0
  0
INSERT
  5
81FF
330
82B7
100
AcDbEntity
  8
3
 62
     0
100
AcDbBlockReference
  2
_DOT
 10
3259.585489877208
 20
2080.233310273388
 30
0.0
 41
60.0
 42
60.0
 43
60.0
 50
270.0
  0
INSERT
  5
8200
330
82B7
100
AcDbEntity
  8
3
 62
     0
100
AcDbBlockReference
  2
_OPEN
 10
3259.585489877208
 20
1980.23331027339
 30
0.0
 41
60.0
 42
60.0
 43
60.0
 50
90.0
  0
TEXT
  5
820F
330
82B7
100
AcDbEntity
  8
3
 62
     0
100
AcDbText
 10
3004.59
 20
1563.79
 30
0.0
 40
90.0
  1
100
100
AcDbText
  0
POINT
  5
8202
330
82B7
100
AcDbEntity
  8
DEFPOINTS
 62
     0
100
AcDbPoint
 10
2707.901512152149
 20
2080.23331027339
 30
0.0
  0
POINT
  5
8203
330
82B7
100
AcDbEntity
  8
DEFPOINTS
 62
     0
100
AcDbPoint
 10
2707.901512152149
 20
1980.23331027339
 30
0.0
  0
POINT
  5
8204
330
82B7
100
AcDbEntity
  8
DEFPOINTS
 62
     0
100
AcDbPoint
 10
3259.585489877208
 20
1980.23331027339
 30
0.0
  0
ENDBLK
  5
8058
330
82B7
100
AcDbEntity
  8
0
100
AcDbBlockEnd
  0
BLOCK
  5
82BA
330
82B9
100
AcDbEntity
  8
0
100
AcDbBlockBegin
  2
_DOT
 70
     0
 10
0.0
 20
0.0
 30
0.0
  3
_DOT
  1

  0
LWPOLYLINE
  5
8068
330
82B9
100
AcDbEntity
  8
0
  6
ByBlock
 62
     0
100
AcDbPolyline
 90
        2
 70
     1
 43
0.25
 10
-0.125
 20
0.0
 42
1.0
 10
0.125
 20
0.0
 42
1.0
  0
LINE
  5
806C
330
82B9
100
AcDbEntity
  8
0
  6
ByBlock
 62
     0
100
AcDbLine
 10
-0.25
 20
0.0
 30
0.0
 11
-1.0
 21
0.0
 31
0.0
  0
ENDBLK
  5
804B
330
82B9
100
AcDbEntity
  8
0
100
AcDbBlockEnd
  0
BLOCK
  5
82BC
330
82BB
100
AcDbEntity
  8
0
100
AcDbBlockBegin
  2
*D23
 70
     1
 10
0.0
 20
0.0
 30
0.0
  3
*D23
  1

  0
LINE
  5
80E6
330
82BB
100
AcDbEntity
  8
0
  6
ByBlock
 62
     0
100
AcDbLine
 10
837.9015121521478
 20
2038.23331027339
 30
0.0
 11
837.9015121521478
 21
1845.490397878904
 31
0.0
  0
LINE
  5
80E7
330
82BB
100
AcDbEntity
  8
0
  6
ByBlock
 62
     0
100
AcDbLine
 10
2147.901512152148
 20
2038.23331027339
 30
0.0
 11
2147.901512152148
 21
1845.490397878904
 31
0.0
  0
LINE
  5
80E8
330
82BB
100
AcDbEntity
  8
0
  6
ByBlock
 62
     0
100
AcDbLine
 10
897.9015121521477
 20
1875.490397878904
 30
0.0
 11
2087.901512152148
 21
1875.490397878904
 31
0.0
  0
INSERT
  5
80E9
330
82BB
100
AcDbEntity
  8
0
  6
ByBlock
 62
     0
100
AcDbBlockReference
  2
_OPEN
 10
837.9015121521478
 20
1875.490397878904
 30
0.0
 41
60.0
 42
60.0
 43
60.0
 50
180.0
  0
INSERT
  5
80EA
330
82BB
100
AcDbEntity
  8
0
  6
ByBlock
 62
     0
100
AcDbBlockReference
  2
_OPEN
 10
2147.901512152148
 20
1875.490397878904
 30
0.0
 41
60.0
 42
60.0
 43
60.0
  0
TEXT
  5
80EB
330
82BB
100
AcDbEntity
  8
3
 62
     0
100
AcDbText
 10
1351.472940723576
 20
1905.490397878904
 30
0.0
 40
90.0
  1
1310
100
AcDbText
  0
POINT
  5
80EC
330
82BB
100
AcDbEntity
  8
DEFPOINTS
  6
ByBlock
 62
     0
100
AcDbPoint
 10
837.9015121521478
 20
2068.23331027339
 30
0.0
  0
POINT
  5
80ED
330
82BB
100
AcDbEntity
  8
DEFPOINTS
  6
ByBlock
 62
     0
100
AcDbPoint
 10
2147.901512152148
 20
2068.23331027339
 30
0.0
  0
POINT
  5
80EE
330
82BB
100
AcDbEntity
  8
DEFPOINTS
  6
ByBlock
 62
     0
100
AcDbPoint
 10
2147.901512152148
 20
1875.490397878904
 30
0.0
  0
ENDBLK
  5
80EF
330
82BB
100
AcDbEntity
  8
0
100
AcDbBlockEnd
  0
BLOCK
  5
82BE
330
82BD
100
AcDbEntity
  8
0
100
AcDbBlockBegin
  2
*D24
 70
     1
 10
0.0
 20
0.0
 30
0.0
  3
*D24
  1

  0
LINE
  5
80F3
330
82BD
100
AcDbEntity
  8
0
  6
ByBlock
 62
     0
100
AcDbLine
 10
2147.901512152148
 20
2038.23331027339
 30
0.0
 11
2147.901512152148
 21
1845.490397878904
 31
0.0
  0
LINE
  5
80F4
330
82BD
100
AcDbEntity
  8
0
  6
ByBlock
 62
     0
100
AcDbLine
 10
2707.901512152149
 20
2038.23331027339
 30
0.0
 11
2707.901512152149
 21
1845.490397878904
 31
0.0
  0
LINE
  5
80F5
330
82BD
100
AcDbEntity
  8
0
  6
ByBlock
 62
     0
100
AcDbLine
 10
2207.901512152147
 20
1875.490397878904
 30
0.0
 11
2647.901512152151
 21
1875.490397878904
 31
0.0
  0
INSERT
  5
80F6
330
82BD
100
AcDbEntity
  8
0
  6
ByBlock
 62
     0
100
AcDbBlockReference
  2
_OPEN
 10
2147.901512152148
 20
1875.490397878904
 30
0.0
 41
60.0
 42
60.0
 43
60.0
 50
180.0
  0
INSERT
  5
80F7
330
82BD
100
AcDbEntity
  8
0
  6
ByBlock
 62
     0
100
AcDbBlockReference
  2
_OPEN
 10
2707.901512152149
 20
1875.490397878904
 30
0.0
 41
60.0
 42
60.0
 43
60.0
  0
TEXT
  5
80F8
330
82BD
100
AcDbEntity
  8
3
 62
     0
100
AcDbText
 10
2312.187226437863
 20
1905.490397878904
 30
0.0
 40
90.0
  1
560
100
AcDbText
  0
POINT
  5
80F9
330
82BD
100
AcDbEntity
  8
DEFPOINTS
  6
ByBlock
 62
     0
100
AcDbPoint
 10
2147.901512152148
 20
2068.23331027339
 30
0.0
  0
POINT
  5
80FA
330
82BD
100
AcDbEntity
  8
DEFPOINTS
  6
ByBlock
 62
     0
100
AcDbPoint
 10
2707.901512152149
 20
2068.23331027339
 30
0.0
  0
POINT
  5
80FB
330
82BD
100
AcDbEntity
  8
DEFPOINTS
  6
ByBlock
 62
     0
100
AcDbPoint
 10
2707.901512152149
 20
1875.490397878904
 30
0.0
  0
ENDBLK
  5
80FC
330
82BD
100
AcDbEntity
  8
0
100
AcDbBlockEnd
  0
BLOCK
  5
82C0
330
82BF
100
AcDbEntity
  8
0
100
AcDbBlockBegin
  2
*D25
 70
     1
 10
0.0
 20
0.0
 30
0.0
  3
*D25
  1

  0
LINE
  5
8100
330
82BF
100
AcDbEntity
  8
0
  6
ByBlock
 62
     0
100
AcDbLine
 10
4000.890847887129
 20
2038.23331027339
 30
0.0
 11
4000.890847887129
 21
1845.490397878904
 31
0.0
  0
LINE
  5
8101
330
82BF
100
AcDbEntity
  8
0
  6
ByBlock
 62
     0
100
AcDbLine
 10
4762.890847887128
 20
2038.233310273389
 30
0.0
 11
4762.890847887128
 21
1845.490397878904
 31
0.0
  0
LINE
  5
8102
330
82BF
100
AcDbEntity
  8
0
  6
ByBlock
 62
     0
100
AcDbLine
 10
4060.890847887129
 20
1875.490397878904
 30
0.0
 11
4702.890847887128
 21
1875.490397878904
 31
0.0
  0
INSERT
  5
8103
330
82BF
100
AcDbEntity
  8
0
  6
ByBlock
 62
     0
100
AcDbBlockReference
  2
_OPEN
 10
4000.890847887129
 20
1875.490397878904
 30
0.0
 41
60.0
 42
60.0
 43
60.0
 50
180.0
  0
INSERT
  5
8104
330
82BF
100
AcDbEntity
  8
0
  6
ByBlock
 62
     0
100
AcDbBlockReference
  2
_OPEN
 10
4762.890847887128
 20
1875.490397878904
 30
0.0
 41
60.0
 42
60.0
 43
60.0
  0
TEXT
  5
8105
330
82BF
100
AcDbEntity
  8
3
 62
     0
100
AcDbText
 10
4266.176562172844
 20
1905.490397878904
 30
0.0
 40
90.0
  1
762
100
AcDbText
  0
POINT
  5
8106
330
82BF
100
AcDbEntity
  8
DEFPOINTS
  6
ByBlock
 62
     0
100
AcDbPoint
 10
4000.890847887129
 20
2068.23331027339
 30
0.0
  0
POINT
  5
8107
330
82BF
100
AcDbEntity
  8
DEFPOINTS
  6
ByBlock
 62
     0
100
AcDbPoint
 10
4762.890847887128
 20
2068.233310273389
 30
0.0
  0
POINT
  5
8108
330
82BF
100
AcDbEntity
  8
DEFPOINTS
  6
ByBlock
 62
     0
100
AcDbPoint
 10
4762.890847887128
 20
1875.490397878904
 30
0.0
  0
ENDBLK
  5
8109
330
82BF
100
AcDbEntity
  8
0
100
AcDbBlockEnd
  0
BLOCK
  5
82C2
330
82C1
100
AcDbEntity
  8
0
100
AcDbBlockBegin
  2
*D26
 70
     1
 10
0.0
 20
0.0
 30
0.0
  3
*D26
  1

  0
LINE
  5
810D
330
82C1
100
AcDbEntity
  8
0
  6
ByBlock
 62
     0
100
AcDbLine
 10
4762.890847887128
 20
2038.233310273389
 30
0.0
 11
4762.890847887128
 21
1845.490397878904
 31
0.0
  0
LINE
  5
810E
330
82C1
100
AcDbEntity
  8
0
  6
ByBlock
 62
     0
100
AcDbLine
 10
5375.890847887129
 20
2038.23331027339
 30
0.0
 11
5375.890847887129
 21
1845.490397878904
 31
0.0
  0
LINE
  5
810F
330
82C1
100
AcDbEntity
  8
0
  6
ByBlock
 62
     0
100
AcDbLine
 10
4822.890847887128
 20
1875.490397878904
 30
0.0
 11
5315.890847887128
 21
1875.490397878904
 31
0.0
  0
INSERT
  5
8110
330
82C1
100
AcDbEntity
  8
0
  6
ByBlock
 62
     0
100
AcDbBlockReference
  2
_OPEN
 10
4762.890847887128
 20
1875.490397878904
 30
0.0
 41
60.0
 42
60.0
 43
60.0
 50
180.0
  0
INSERT
  5
8111
330
82C1
100
AcDbEntity
  8
0
  6
ByBlock
 62
     0
100
AcDbBlockReference
  2
_OPEN
 10
5375.890847887129
 20
1875.490397878904
 30
0.0
 41
60.0
 42
60.0
 43
60.0
  0
TEXT
  5
8112
330
82C1
100
AcDbEntity
  8
3
 62
     0
100
AcDbText
 10
4962.247990744272
 20
1905.490397878904
 30
0.0
 40
90.0
  1
613
100
AcDbText
  0
POINT
  5
8113
330
82C1
100
AcDbEntity
  8
DEFPOINTS
  6
ByBlock
 62
     0
100
AcDbPoint
 10
4762.890847887128
 20
2068.233310273389
 30
0.0
  0
POINT
  5
8114
330
82C1
100
AcDbEntity
  8
DEFPOINTS
  6
ByBlock
 62
     0
100
AcDbPoint
 10
5375.890847887129
 20
2068.23331027339
 30
0.0
  0
POINT
  5
8115
330
82C1
100
AcDbEntity
  8
DEFPOINTS
  6
ByBlock
 62
     0
100
AcDbPoint
 10
5375.890847887129
 20
1875.490397878904
 30
0.0
  0
ENDBLK
  5
8116
330
82C1
100
AcDbEntity
  8
0
100
AcDbBlockEnd
  0
BLOCK
  5
82C4
330
82C3
100
AcDbEntity
  8
0
100
AcDbBlockBegin
  2
_NONE
 70
     0
 10
0.0
 20
0.0
 30
0.0
  3
_NONE
  1

  0
CIRCLE
  5
811A
330
82C3
100
AcDbEntity
  8
0
  6
ByBlock
 62
     0
100
AcDbCircle
 10
0.0
 20
0.0
 30
0.0
 40
0.25
  0
ENDBLK
  5
811B
330
82C3
100
AcDbEntity
  8
0
100
AcDbBlockEnd
  0
BLOCK
  5
82C6
330
82C5
100
AcDbEntity
  8
0
100
AcDbBlockBegin
  2
*D28
 70
     1
 10
0.0
 20
0.0
 30
0.0
  3
*D28
  1

  0
LINE
  5
816D
330
82C5
100
AcDbEntity
  8
0
  6
ByBlock
 62
     0
100
AcDbLine
 10
3259.191568094608
 20
2080.23331027339
 30
0.0
 11
3259.191568094608
 21
2195.23331027339
 31
0.0
  0
TEXT
  5
816E
330
82C5
100
AcDbEntity
  8
3
 62
     0
100
AcDbText
 10
3432.762996666036
 20
1981.304738844818
 30
0.0
 40
90.0
  1
(115)
 50
90.0
100
AcDbText
  0
POINT
  5
816F
330
82C5
100
AcDbEntity
  8
DEFPOINTS
  6
ByBlock
 62
     0
100
AcDbPoint
 10
2707.901512152149
 20
2080.23331027339
 30
0.0
  0
POINT
  5
8170
330
82C5
100
AcDbEntity
  8
DEFPOINTS
  6
ByBlock
 62
     0
100
AcDbPoint
 10
2707.901512152147
 20
2195.23331027339
 30
0.0
  0
POINT
  5
8171
330
82C5
100
AcDbEntity
  8
DEFPOINTS
  6
ByBlock
 62
     0
100
AcDbPoint
 10
3259.191568094608
 20
2195.23331027339
 30
0.0
  0
ENDBLK
  5
8172
330
82C5
100
AcDbEntity
  8
0
100
AcDbBlockEnd
  0
BLOCK
  5
82C8
330
82C7
100
AcDbEntity
  8
0
100
AcDbBlockBegin
  2
*D29
 70
     1
 10
0.0
 20
0.0
 30
0.0
  3
*D29
  1

  0
LINE
  5
8176
330
82C7
100
AcDbEntity
  8
0
  6
ByBlock
 62
     0
100
AcDbLine
 10
2737.901512152149
 20
1980.23331027339
 30
0.0
 11
3529.165139241257
 21
1980.23331027339
 31
0.0
  0
LINE
  5
8177
330
82C7
100
AcDbEntity
  8
0
  6
ByBlock
 62
     0
100
AcDbLine
 10
2140.901512152148
 20
3938.233310273391
 30
0.0
 11
3529.165139241257
 21
3938.233310273391
 31
0.0
  0
LINE
  5
8178
330
82C7
100
AcDbEntity
  8
0
  6
ByBlock
 62
     0
100
AcDbLine
 10
3499.165139241257
 20
2040.23331027339
 30
0.0
 11
3499.165139241257
 21
3878.233310273391
 31
0.0
  0
INSERT
  5
8179
330
82C7
100
AcDbEntity
  8
0
  6
ByBlock
 62
     0
100
AcDbBlockReference
  2
_OPEN
 10
3499.165139241257
 20
1980.23331027339
 30
0.0
 41
60.0
 42
60.0
 43
60.0
 50
270.0
  0
INSERT
  5
817A
330
82C7
100
AcDbEntity
  8
0
  6
ByBlock
 62
     0
100
AcDbBlockReference
  2
_OPEN
 10
3499.165139241257
 20
3938.233310273391
 30
0.0
 41
60.0
 42
60.0
 43
60.0
 50
90.0
  0
TEXT
  5
817B
330
82C7
100
AcDbEntity
  8
3
 62
     0
100
AcDbText
 10
3430.593710669828
 20
2751.376167416247
 30
0.0
 40
90.0
  1
(1958)
 50
90.0
100
AcDbText
  0
POINT
  5
817C
330
82C7
100
AcDbEntity
  8
DEFPOINTS
  6
ByBlock
 62
     0
100
AcDbPoint
 10
2707.901512152149
 20
1980.23331027339
 30
0.0
  0
POINT
  5
817D
330
82C7
100
AcDbEntity
  8
DEFPOINTS
  6
ByBlock
 62
     0
100
AcDbPoint
 10
2110.901512152147
 20
3938.233310273391
 30
0.0
  0
POINT
  5
817E
330
82C7
100
AcDbEntity
  8
DEFPOINTS
  6
ByBlock
 62
     0
100
AcDbPoint
 10
3499.165139241257
 20
3938.233310273391
 30
0.0
  0
ENDBLK
  5
817F
330
82C7
100
AcDbEntity
  8
0
100
AcDbBlockEnd
  0
BLOCK
  5
82CD
330
82CC
100
AcDbEntity
  8
0
100
AcDbBlockBegin
  2
*D30
 70
     1
 10
0.0
 20
0.0
 30
0.0
  3
*D30
  1

  0
LINE
  5
835D
330
82CC
100
AcDbEntity
  8
3
 62
     0
370
    -2
100
AcDbLine
 10
3812.890847887127
 20
3605.233310273389
 30
0.0
 11
3812.890847887127
 21
4432.478274236014
 31
0.0
  0
LINE
  5
835E
330
82CC
100
AcDbEntity
  8
3
 62
     0
370
    -2
100
AcDbLine
 10
4762.89084788713
 20
4266.425263807017
 30
0.0
 11
4762.89084788713
 21
4432.478274236014
 31
0.0
  0
LINE
  5
835F
330
82CC
100
AcDbEntity
  8
3
 62
     0
370
    -2
100
AcDbLine
 10
3872.890847887127
 20
4402.478274236015
 30
0.0
 11
4702.89084788713
 21
4402.478274236015
 31
0.0
  0
INSERT
  5
8360
330
82CC
100
AcDbEntity
  8
3
 62
     0
370
    -2
100
AcDbBlockReference
  2
_OPEN
 10
3812.890847887127
 20
4402.478274236015
 30
0.0
 41
60.0
 42
60.0
 43
60.0
 50
180.0
  0
INSERT
  5
8361
330
82CC
100
AcDbEntity
  8
3
 62
     0
370
    -2
100
AcDbBlockReference
  2
_OPEN
 10
4762.89084788713
 20
4402.478274236015
 30
0.0
 41
60.0
 42
60.0
 43
60.0
  0
MTEXT
  5
8362
330
82CC
100
AcDbEntity
  8
3
 62
     0
100
AcDbMText
 10
4287.890847887129
 20
4501.049702807443
 30
0.0
 40
90.0
 41
0.0
 71
     5
 72
     1
  1
\A1;(950)
 73
     1
 44
1.0
1001
ACAD
1000
MTEXTBEGIN
1070
    73
1070
     1
1070
    44
1040
1.0
1070
    74
1070
     0
1000
MTEXTEND
  0
POINT
  5
8363
330
82CC
100
AcDbEntity
  8
DEFPOINTS
 62
     0
100
AcDbPoint
 10
3812.890847887127
 20
3575.233310273389
 30
0.0
  0
POINT
  5
8364
330
82CC
100
AcDbEntity
  8
DEFPOINTS
 62
     0
100
AcDbPoint
 10
4762.89084788713
 20
4236.425263807017
 30
0.0
  0
POINT
  5
8365
330
82CC
100
AcDbEntity
  8
DEFPOINTS
 62
     0
100
AcDbPoint
 10
4762.89084788713
 20
4402.478274236015
 30
0.0
  0
ENDBLK
  5
82CE
330
82CC
100
AcDbEntity
  8
0
100
AcDbBlockEnd
  0
BLOCK
  5
82DA
330
82D9
100
AcDbEntity
  8
0
100
AcDbBlockBegin
  2
*D31
 70
     1
 10
0.0
 20
0.0
 30
0.0
  3
*D31
  1

  0
LINE
  5
8366
330
82D9
100
AcDbEntity
  8
3
 62
     0
370
    -2
100
AcDbLine
 10
4762.89084788713
 20
4266.425263807017
 30
0.0
 11
4762.89084788713
 21
4432.478274236014
 31
0.0
  0
LINE
  5
8367
330
82D9
100
AcDbEntity
  8
3
 62
     0
370
    -2
100
AcDbLine
 10
5442.890847887127
 20
3285.73331027339
 30
0.0
 11
5442.890847887127
 21
4432.478274236014
 31
0.0
  0
LINE
  5
8368
330
82D9
100
AcDbEntity
  8
3
 62
     0
370
    -2
100
AcDbLine
 10
4822.89084788713
 20
4402.478274236015
 30
0.0
 11
5382.890847887127
 21
4402.478274236015
 31
0.0
  0
INSERT
  5
8369
330
82D9
100
AcDbEntity
  8
3
 62
     0
370
    -2
100
AcDbBlockReference
  2
_OPEN
 10
4762.89084788713
 20
4402.478274236015
 30
0.0
 41
60.0
 42
60.0
 43
60.0
 50
180.0
  0
INSERT
  5
836A
330
82D9
100
AcDbEntity
  8
3
 62
     0
370
    -2
100
AcDbBlockReference
  2
_OPEN
 10
5442.890847887127
 20
4402.478274236015
 30
0.0
 41
60.0
 42
60.0
 43
60.0
  0
MTEXT
  5
836B
330
82D9
100
AcDbEntity
  8
3
 62
     0
100
AcDbMText
 10
5102.890847887129
 20
4501.049702807443
 30
0.0
 40
90.0
 41
0.0
 71
     5
 72
     1
  1
\A1;(680)
 73
     1
 44
1.0
1001
ACAD
1000
MTEXTBEGIN
1070
    73
1070
     1
1070
    44
1040
1.0
1070
    74
1070
     0
1000
MTEXTEND
  0
POINT
  5
836C
330
82D9
100
AcDbEntity
  8
DEFPOINTS
 62
     0
100
AcDbPoint
 10
4762.89084788713
 20
4236.425263807017
 30
0.0
  0
POINT
  5
836D
330
82D9
100
AcDbEntity
  8
DEFPOINTS
 62
     0
100
AcDbPoint
 10
5442.890847887127
 20
3255.73331027339
 30
0.0
  0
POINT
  5
836E
330
82D9
100
AcDbEntity
  8
DEFPOINTS
 62
     0
100
AcDbPoint
 10
5442.890847887127
 20
4402.478274236015
 30
0.0
  0
ENDBLK
  5
82DB
330
82D9
100
AcDbEntity
  8
0
100
AcDbBlockEnd
  0
BLOCK
  5
82E6
330
82E5
100
AcDbEntity
  8
0
100
AcDbBlockBegin
  2
*D32
 70
     1
 10
0.0
 20
0.0
 30
0.0
  3
*D32
  1

  0
LINE
  5
82E8
330
82E5
100
AcDbEntity
  8
3
 62
     0
370
    -2
100
AcDbLine
 10
4000.890847887129
 20
1960.233310273389
 30
0.0
 11
4000.890847887129
 21
1792.090397878904
 31
0.0
  0
LINE
  5
82E9
330
82E5
100
AcDbEntity
  8
3
 62
     0
370
    -2
100
AcDbLine
 10
4762.890847887128
 20
1960.233310273389
 30
0.0
 11
4762.890847887128
 21
1792.090397878904
 31
0.0
  0
LINE
  5
82EA
330
82E5
100
AcDbEntity
  8
3
 62
     0
370
    -2
100
AcDbLine
 10
4006.290847887129
 20
1797.490397878904
 30
0.0
 11
4372.247990744273
 21
1797.490397878904
 31
0.0
  0
LINE
  5
82EB
330
82E5
100
AcDbEntity
  8
3
 62
     0
370
    -2
100
AcDbLine
 10
4757.490847887129
 20
1797.490397878904
 30
0.0
 11
4391.533705029986
 21
1797.490397878904
 31
0.0
  0
SOLID
  5
82EC
330
82E5
100
AcDbEntity
  8
3
 62
     0
100
AcDbTrace
 10
4006.290847887129
 20
1798.390397878904
 30
0.0
 11
4006.290847887129
 21
1796.590397878904
 31
0.0
 12
4000.890847887129
 22
1797.490397878904
 32
0.0
 13
4000.890847887129
 23
1797.490397878904
 33
0.0
  0
SOLID
  5
82ED
330
82E5
100
AcDbEntity
  8
3
 62
     0
100
AcDbTrace
 10
4757.490847887129
 20
1798.390397878904
 30
0.0
 11
4757.490847887129
 21
1796.590397878904
 31
0.0
 12
4762.890847887128
 22
1797.490397878904
 32
0.0
 13
4762.890847887128
 23
1797.490397878904
 33
0.0
  0
MTEXT
  5
82EE
330
82E5
100
AcDbEntity
  8
3
 62
     0
100
AcDbMText
 10
4381.890847887129
 20
1797.490397878904
 30
0.0
 40
5.399999999999999
 41
0.0
 71
     5
 72
     1
  1
\A1;762
 73
     1
 44
1.0
1001
ACAD
1000
MTEXTBEGIN
1070
    73
1070
     1
1070
    44
1040
1.0
1070
    74
1070
     0
1000
MTEXTEND
  0
POINT
  5
82EF
330
82E5
100
AcDbEntity
  8
DEFPOINTS
 62
     0
100
AcDbPoint
 10
4000.890847887129
 20
1990.23331027339
 30
0.0
  0
POINT
  5
82F0
330
82E5
100
AcDbEntity
  8
DEFPOINTS
 62
     0
100
AcDbPoint
 10
4762.890847887128
 20
1990.233310273389
 30
0.0
  0
POINT
  5
82F1
330
82E5
100
AcDbEntity
  8
DEFPOINTS
 62
     0
100
AcDbPoint
 10
4762.890847887128
 20
1797.490397878904
 30
0.0
  0
ENDBLK
  5
82E7
330
82E5
100
AcDbEntity
  8
0
100
AcDbBlockEnd
  0
BLOCK
  5
82F3
330
82F2
100
AcDbEntity
  8
0
100
AcDbBlockBegin
  2
*D33
 70
     1
 10
0.0
 20
0.0
 30
0.0
  3
*D33
  1

  0
LINE
  5
82F5
330
82F2
100
AcDbEntity
  8
3
 62
     0
370
    -2
100
AcDbLine
 10
4762.890847887128
 20
1960.233310273389
 30
0.0
 11
4762.890847887128
 21
1792.090397878904
 31
0.0
  0
LINE
  5
82F6
330
82F2
100
AcDbEntity
  8
3
 62
     0
370
    -2
100
AcDbLine
 10
5375.890847887129
 20
1960.233310273389
 30
0.0
 11
5375.890847887129
 21
1792.090397878904
 31
0.0
  0
LINE
  5
82F7
330
82F2
100
AcDbEntity
  8
3
 62
     0
370
    -2
100
AcDbLine
 10
4768.290847887127
 20
1797.490397878904
 30
0.0
 11
5060.262276458558
 21
1797.490397878904
 31
0.0
  0
LINE
  5
82F8
330
82F2
100
AcDbEntity
  8
3
 62
     0
370
    -2
100
AcDbLine
 10
5370.490847887129
 20
1797.490397878904
 30
0.0
 11
5078.5194193157
 21
1797.490397878904
 31
0.0
  0
SOLID
  5
82F9
330
82F2
100
AcDbEntity
  8
3
 62
     0
100
AcDbTrace
 10
4768.290847887127
 20
1798.390397878904
 30
0.0
 11
4768.290847887127
 21
1796.590397878904
 31
0.0
 12
4762.890847887128
 22
1797.490397878904
 32
0.0
 13
4762.890847887128
 23
1797.490397878904
 33
0.0
  0
SOLID
  5
82FA
330
82F2
100
AcDbEntity
  8
3
 62
     0
100
AcDbTrace
 10
5370.490847887129
 20
1798.390397878904
 30
0.0
 11
5370.490847887129
 21
1796.590397878904
 31
0.0
 12
5375.890847887129
 22
1797.490397878904
 32
0.0
 13
5375.890847887129
 23
1797.490397878904
 33
0.0
  0
MTEXT
  5
82FB
330
82F2
100
AcDbEntity
  8
3
 62
     0
100
AcDbMText
 10
5069.390847887129
 20
1797.490397878904
 30
0.0
 40
5.399999999999999
 41
0.0
 71
     5
 72
     1
  1
\A1;613
 73
     1
 44
1.0
1001
ACAD
1000
MTEXTBEGIN
1070
    73
1070
     1
1070
    44
1040
1.0
1070
    74
1070
     0
1000
MTEXTEND
  0
POINT
  5
82FC
330
82F2
100
AcDbEntity
  8
DEFPOINTS
 62
     0
100
AcDbPoint
 10
4762.890847887128
 20
1990.233310273389
 30
0.0
  0
POINT
  5
82FD
330
82F2
100
AcDbEntity
  8
DEFPOINTS
 62
     0
100
AcDbPoint
 10
5375.890847887129
 20
1990.23331027339
 30
0.0
  0
POINT
  5
82FE
330
82F2
100
AcDbEntity
  8
DEFPOINTS
 62
     0
100
AcDbPoint
 10
5375.890847887129
 20
1797.490397878904
 30
0.0
  0
ENDBLK
  5
82F4
330
82F2
100
AcDbEntity
  8
0
100
AcDbBlockEnd
  0
BLOCK
  5
8300
330
82FF
100
AcDbEntity
  8
0
100
AcDbBlockBegin
  2
*D34
 70
     1
 10
0.0
 20
0.0
 30
0.0
  3
*D34
  1

  0
LINE
  5
8302
330
82FF
100
AcDbEntity
  8
3
 62
     0
370
    -2
100
AcDbLine
 10
3259.191568094608
 20
2095.63331027339
 30
0.0
 11
3259.191568094608
 21
2135.919024559104
 31
0.0
  0
LINE
  5
8303
330
82FF
100
AcDbEntity
  8
3
 62
     0
370
    -2
100
AcDbLine
 10
3259.191568094608
 20
2189.83331027339
 30
0.0
 11
3259.191568094608
 21
2149.547595987675
 31
0.0
  0
SOLID
  5
8304
330
82FF
100
AcDbEntity
  8
3
 62
     0
100
AcDbTrace
 10
3258.291568094608
 20
2095.63331027339
 30
0.0
 11
3260.091568094608
 21
2095.63331027339
 31
0.0
 12
3259.191568094608
 22
2090.23331027339
 32
0.0
 13
3259.191568094608
 23
2090.23331027339
 33
0.0
  0
SOLID
  5
8305
330
82FF
100
AcDbEntity
  8
3
 62
     0
100
AcDbTrace
 10
3258.291568094608
 20
2189.83331027339
 30
0.0
 11
3260.091568094608
 21
2189.83331027339
 31
0.0
 12
3259.191568094608
 22
2195.23331027339
 32
0.0
 13
3259.191568094608
 23
2195.23331027339
 33
0.0
  0
MTEXT
  5
8306
330
82FF
100
AcDbEntity
  8
3
 62
     0
100
AcDbMText
 10
3259.191568094608
 20
2142.733310273391
 30
0.0
 40
5.399999999999999
 41
0.0
 71
     5
 72
     1
  1
\A1;(105)
 73
     1
 44
1.0
1001
ACAD
1000
MTEXTBEGIN
1070
    73
1070
     1
1070
    44
1040
1.0
1070
    74
1070
     0
1000
MTEXTEND
  0
POINT
  5
8307
330
82FF
100
AcDbEntity
  8
DEFPOINTS
 62
     0
100
AcDbPoint
 10
2707.901512152149
 20
2090.23331027339
 30
0.0
  0
POINT
  5
8308
330
82FF
100
AcDbEntity
  8
DEFPOINTS
 62
     0
100
AcDbPoint
 10
2707.901512152147
 20
2195.23331027339
 30
0.0
  0
POINT
  5
8309
330
82FF
100
AcDbEntity
  8
DEFPOINTS
 62
     0
100
AcDbPoint
 10
3259.191568094608
 20
2195.23331027339
 30
0.0
  0
ENDBLK
  5
8301
330
82FF
100
AcDbEntity
  8
0
100
AcDbBlockEnd
  0
BLOCK
  5
830B
330
830A
100
AcDbEntity
  8
0
100
AcDbBlockBegin
  2
*D35
 70
     1
 10
0.0
 20
0.0
 30
0.0
  3
*D35
  1

  0
LINE
  5
830D
330
830A
100
AcDbEntity
  8
3
 62
     0
370
    -2
100
AcDbLine
 10
837.9015121521478
 20
1960.233310273389
 30
0.0
 11
837.9015121521478
 21
1792.090397878904
 31
0.0
  0
LINE
  5
830E
330
830A
100
AcDbEntity
  8
3
 62
     0
370
    -2
100
AcDbLine
 10
2147.901512152148
 20
1960.233310273389
 30
0.0
 11
2147.901512152148
 21
1792.090397878904
 31
0.0
  0
LINE
  5
830F
330
830A
100
AcDbEntity
  8
3
 62
     0
370
    -2
100
AcDbLine
 10
843.3015121521478
 20
1797.490397878904
 30
0.0
 11
1481.715797866433
 21
1797.490397878904
 31
0.0
  0
LINE
  5
8310
330
830A
100
AcDbEntity
  8
3
 62
     0
370
    -2
100
AcDbLine
 10
2142.501512152148
 20
1797.490397878904
 30
0.0
 11
1504.087226437862
 21
1797.490397878904
 31
0.0
  0
SOLID
  5
8311
330
830A
100
AcDbEntity
  8
3
 62
     0
100
AcDbTrace
 10
843.3015121521478
 20
1798.390397878904
 30
0.0
 11
843.3015121521478
 21
1796.590397878904
 31
0.0
 12
837.9015121521478
 22
1797.490397878904
 32
0.0
 13
837.9015121521478
 23
1797.490397878904
 33
0.0
  0
SOLID
  5
8312
330
830A
100
AcDbEntity
  8
3
 62
     0
100
AcDbTrace
 10
2142.501512152148
 20
1798.390397878904
 30
0.0
 11
2142.501512152148
 21
1796.590397878904
 31
0.0
 12
2147.901512152148
 22
1797.490397878904
 32
0.0
 13
2147.901512152148
 23
1797.490397878904
 33
0.0
  0
MTEXT
  5
8313
330
830A
100
AcDbEntity
  8
3
 62
     0
100
AcDbMText
 10
1492.901512152148
 20
1797.490397878904
 30
0.0
 40
5.399999999999999
 41
0.0
 71
     5
 72
     1
  1
\A1;1310
 73
     1
 44
1.0
1001
ACAD
1000
MTEXTBEGIN
1070
    73
1070
     1
1070
    44
1040
1.0
1070
    74
1070
     0
1000
MTEXTEND
  0
POINT
  5
8314
330
830A
100
AcDbEntity
  8
DEFPOINTS
 62
     0
100
AcDbPoint
 10
837.9015121521478
 20
1990.23331027339
 30
0.0
  0
POINT
  5
8315
330
830A
100
AcDbEntity
  8
DEFPOINTS
 62
     0
100
AcDbPoint
 10
2147.901512152148
 20
1990.23331027339
 30
0.0
  0
POINT
  5
8316
330
830A
100
AcDbEntity
  8
DEFPOINTS
 62
     0
100
AcDbPoint
 10
2147.901512152148
 20
1797.490397878904
 30
0.0
  0
ENDBLK
  5
830C
330
830A
100
AcDbEntity
  8
0
100
AcDbBlockEnd
  0
BLOCK
  5
8318
330
8317
100
AcDbEntity
  8
0
100
AcDbBlockBegin
  2
*D36
 70
     1
 10
0.0
 20
0.0
 30
0.0
  3
*D36
  1

  0
LINE
  5
831A
330
8317
100
AcDbEntity
  8
3
 62
     0
370
    -2
100
AcDbLine
 10
2147.901512152148
 20
1960.233310273389
 30
0.0
 11
2147.901512152148
 21
1792.090397878904
 31
0.0
  0
LINE
  5
831B
330
8317
100
AcDbEntity
  8
3
 62
     0
370
    -2
100
AcDbLine
 10
2707.901512152149
 20
1960.233310273389
 30
0.0
 11
2707.901512152149
 21
1792.090397878904
 31
0.0
  0
LINE
  5
831C
330
8317
100
AcDbEntity
  8
3
 62
     0
370
    -2
100
AcDbLine
 10
2153.301512152148
 20
1797.490397878904
 30
0.0
 11
2418.258655009291
 21
1797.490397878904
 31
0.0
  0
LINE
  5
831D
330
8317
100
AcDbEntity
  8
3
 62
     0
370
    -2
100
AcDbLine
 10
2702.501512152149
 20
1797.490397878904
 30
0.0
 11
2437.544369295006
 21
1797.490397878904
 31
0.0
  0
SOLID
  5
831E
330
8317
100
AcDbEntity
  8
3
 62
     0
100
AcDbTrace
 10
2153.301512152148
 20
1798.390397878904
 30
0.0
 11
2153.301512152148
 21
1796.590397878904
 31
0.0
 12
2147.901512152148
 22
1797.490397878904
 32
0.0
 13
2147.901512152148
 23
1797.490397878904
 33
0.0
  0
SOLID
  5
831F
330
8317
100
AcDbEntity
  8
3
 62
     0
100
AcDbTrace
 10
2702.501512152149
 20
1798.390397878904
 30
0.0
 11
2702.501512152149
 21
1796.590397878904
 31
0.0
 12
2707.901512152149
 22
1797.490397878904
 32
0.0
 13
2707.901512152149
 23
1797.490397878904
 33
0.0
  0
MTEXT
  5
8320
330
8317
100
AcDbEntity
  8
3
 62
     0
100
AcDbMText
 10
2427.901512152148
 20
1797.490397878904
 30
0.0
 40
5.399999999999999
 41
0.0
 71
     5
 72
     1
  1
\A1;560
 73
     1
 44
1.0
1001
ACAD
1000
MTEXTBEGIN
1070
    73
1070
     1
1070
    44
1040
1.0
1070
    74
1070
     0
1000
MTEXTEND
  0
POINT
  5
8321
330
8317
100
AcDbEntity
  8
DEFPOINTS
 62
     0
100
AcDbPoint
 10
2147.901512152148
 20
1990.23331027339
 30
0.0
  0
POINT
  5
8322
330
8317
100
AcDbEntity
  8
DEFPOINTS
 62
     0
100
AcDbPoint
 10
2707.901512152149
 20
1990.23331027339
 30
0.0
  0
POINT
  5
8323
330
8317
100
AcDbEntity
  8
DEFPOINTS
 62
     0
100
AcDbPoint
 10
2707.901512152149
 20
1797.490397878904
 30
0.0
  0
ENDBLK
  5
8319
330
8317
100
AcDbEntity
  8
0
100
AcDbBlockEnd
  0
BLOCK
  5
8325
330
8324
100
AcDbEntity
  8
0
100
AcDbBlockBegin
  2
*D37
 70
     1
 10
0.0
 20
0.0
 30
0.0
  3
*D37
  1

  0
LINE
  5
8327
330
8324
100
AcDbEntity
  8
3
 62
     0
370
    -2
100
AcDbLine
 10
2709.776512152149
 20
2090.23331027339
 30
0.0
 11
3264.985489877208
 21
2090.23331027339
 31
0.0
  0
LINE
  5
8328
330
8324
100
AcDbEntity
  8
3
 62
     0
370
    -2
100
AcDbLine
 10
2709.776512152149
 20
1990.23331027339
 30
0.0
 11
3264.985489877208
 21
1990.23331027339
 31
0.0
  0
LINE
  5
8329
330
8324
100
AcDbEntity
  8
3
 62
     0
370
    -2
100
AcDbLine
 10
3259.585489877208
 20
2084.83331027339
 30
0.0
 11
3259.585489877208
 21
2045.63331027339
 31
0.0
  0
LINE
  5
832A
330
8324
100
AcDbEntity
  8
3
 62
     0
370
    -2
100
AcDbLine
 10
3259.585489877208
 20
1995.63331027339
 30
0.0
 11
3259.585489877208
 21
2034.83331027339
 31
0.0
  0
SOLID
  5
832B
330
8324
100
AcDbEntity
  8
3
 62
     0
100
AcDbTrace
 10
3258.685489877208
 20
2084.83331027339
 30
0.0
 11
3260.485489877208
 21
2084.83331027339
 31
0.0
 12
3259.585489877208
 22
2090.23331027339
 32
0.0
 13
3259.585489877208
 23
2090.23331027339
 33
0.0
  0
SOLID
  5
832C
330
8324
100
AcDbEntity
  8
3
 62
     0
100
AcDbTrace
 10
3258.685489877208
 20
1995.63331027339
 30
0.0
 11
3260.485489877208
 21
1995.63331027339
 31
0.0
 12
3259.585489877208
 22
1990.23331027339
 32
0.0
 13
3259.585489877208
 23
1990.23331027339
 33
0.0
  0
MTEXT
  5
832D
330
8324
100
AcDbEntity
  8
3
 62
     0
100
AcDbMText
 10
3259.585489877208
 20
2040.23331027339
 30
0.0
 40
5.399999999999999
 41
0.0
 71
     5
 72
     1
  1
\A1;100
 73
     1
 44
1.0
1001
ACAD
1000
MTEXTBEGIN
1070
    73
1070
     1
1070
    44
1040
1.0
1070
    74
1070
     0
1000
MTEXTEND
  0
POINT
  5
832E
330
8324
100
AcDbEntity
  8
DEFPOINTS
 62
     0
100
AcDbPoint
 10
2707.901512152149
 20
2090.23331027339
 30
0.0
  0
POINT
  5
832F
330
8324
100
AcDbEntity
  8
DEFPOINTS
 62
     0
100
AcDbPoint
 10
2707.901512152149
 20
1990.23331027339
 30
0.0
  0
POINT
  5
8330
330
8324
100
AcDbEntity
  8
DEFPOINTS
 62
     0
100
AcDbPoint
 10
3259.585489877208
 20
1990.23331027339
 30
0.0
  0
ENDBLK
  5
8326
330
8324
100
AcDbEntity
  8
0
100
AcDbBlockEnd
  0
BLOCK
  5
8332
330
8331
100
AcDbEntity
  8
0
100
AcDbBlockBegin
  2
*D38
 70
     1
 10
0.0
 20
0.0
 30
0.0
  3
*D38
  1

  0
LINE
  5
8334
330
8331
100
AcDbEntity
  8
3
 62
     0
370
    -2
100
AcDbLine
 10
2737.901512152149
 20
1990.23331027339
 30
0.0
 11
3504.565139241257
 21
1990.23331027339
 31
0.0
  0
LINE
  5
8335
330
8331
100
AcDbEntity
  8
3
 62
     0
370
    -2
100
AcDbLine
 10
2140.901512152147
 20
3938.233310273391
 30
0.0
 11
3504.565139241258
 21
3938.23331027339
 31
0.0
  0
LINE
  5
8336
330
8331
100
AcDbEntity
  8
3
 62
     0
370
    -2
100
AcDbLine
 10
3499.165139241256
 20
1995.63331027339
 30
0.0
 11
3499.165139241256
 21
2957.419024559105
 31
0.0
  0
LINE
  5
8337
330
8331
100
AcDbEntity
  8
3
 62
     0
370
    -2
100
AcDbLine
 10
3499.165139241257
 20
3932.83331027339
 30
0.0
 11
3499.165139241256
 21
2971.047595987676
 31
0.0
  0
SOLID
  5
8338
330
8331
100
AcDbEntity
  8
3
 62
     0
100
AcDbTrace
 10
3498.265139241257
 20
1995.63331027339
 30
0.0
 11
3500.065139241256
 21
1995.63331027339
 31
0.0
 12
3499.165139241256
 22
1990.23331027339
 32
0.0
 13
3499.165139241256
 23
1990.23331027339
 33
0.0
  0
SOLID
  5
8339
330
8331
100
AcDbEntity
  8
3
 62
     0
100
AcDbTrace
 10
3498.265139241257
 20
3932.83331027339
 30
0.0
 11
3500.065139241257
 21
3932.83331027339
 31
0.0
 12
3499.165139241257
 22
3938.23331027339
 32
0.0
 13
3499.165139241257
 23
3938.23331027339
 33
0.0
  0
MTEXT
  5
833A
330
8331
100
AcDbEntity
  8
3
 62
     0
100
AcDbMText
 10
3499.165139241256
 20
2964.233310273391
 30
0.0
 40
5.399999999999999
 41
0.0
 71
     5
 72
     1
  1
\A1;(1948)
 73
     1
 44
1.0
1001
ACAD
1000
MTEXTBEGIN
1070
    73
1070
     1
1070
    44
1040
1.0
1070
    74
1070
     0
1000
MTEXTEND
  0
POINT
  5
833B
330
8331
100
AcDbEntity
  8
DEFPOINTS
 62
     0
100
AcDbPoint
 10
2707.901512152149
 20
1990.23331027339
 30
0.0
  0
POINT
  5
833C
330
8331
100
AcDbEntity
  8
DEFPOINTS
 62
     0
100
AcDbPoint
 10
2110.901512152147
 20
3938.233310273391
 30
0.0
  0
POINT
  5
833D
330
8331
100
AcDbEntity
  8
DEFPOINTS
 62
     0
100
AcDbPoint
 10
3499.165139241257
 20
3938.23331027339
 30
0.0
  0
ENDBLK
  5
8333
330
8331
100
AcDbEntity
  8
0
100
AcDbBlockEnd
  0
BLOCK
  5
8351
330
8350
100
AcDbEntity
  8
0
100
AcDbBlockBegin
  2
*D39
 70
     1
 10
0.0
 20
0.0
 30
0.0
  3
*D39
  1

  0
LINE
  5
8353
330
8350
100
AcDbEntity
  8
3
 62
     0
370
    -2
100
AcDbLine
 10
837.9015121521499
 20
5010.552760698954
 30
0.0
 11
837.9015121521499
 21
4609.880601216881
 31
0.0
  0
LINE
  5
8354
330
8350
100
AcDbEntity
  8
3
 62
     0
370
    -2
100
AcDbLine
 10
2707.901512152149
 20
5010.552760698954
 30
0.0
 11
2707.901512152149
 21
4609.880601216881
 31
0.0
  0
LINE
  5
8355
330
8350
100
AcDbEntity
  8
3
 62
     0
370
    -2
100
AcDbLine
 10
843.3015121521497
 20
4615.28060121688
 30
0.0
 11
1749.630083580721
 21
4615.28060121688
 31
0.0
  0
LINE
  5
8356
330
8350
100
AcDbEntity
  8
3
 62
     0
370
    -2
100
AcDbLine
 10
2702.501512152149
 20
4615.28060121688
 30
0.0
 11
1796.172940723578
 21
4615.28060121688
 31
0.0
  0
SOLID
  5
8357
330
8350
100
AcDbEntity
  8
3
 62
     0
100
AcDbTrace
 10
843.3015121521497
 20
4616.18060121688
 30
0.0
 11
843.3015121521497
 21
4614.380601216881
 31
0.0
 12
837.9015121521499
 22
4615.28060121688
 32
0.0
 13
837.9015121521499
 23
4615.28060121688
 33
0.0
  0
SOLID
  5
8358
330
8350
100
AcDbEntity
  8
3
 62
     0
100
AcDbTrace
 10
2702.501512152149
 20
4616.18060121688
 30
0.0
 11
2702.501512152149
 21
4614.380601216881
 31
0.0
 12
2707.901512152149
 22
4615.28060121688
 32
0.0
 13
2707.901512152149
 23
4615.28060121688
 33
0.0
  0
MTEXT
  5
8359
330
8350
100
AcDbEntity
  8
3
 62
     0
100
AcDbMText
 10
1772.90151215215
 20
4615.28060121688
 30
0.0
 40
5.399999999999999
 41
0.0
 71
     5
 72
     1
  1
\A1;1870.0000
 73
     1
 44
1.0
1001
ACAD
1000
MTEXTBEGIN
1070
    73
1070
     1
1070
    44
1040
1.0
1070
    74
1070
     0
1000
MTEXTEND
  0
POINT
  5
835A
330
8350
100
AcDbEntity
  8
DEFPOINTS
 62
     0
100
AcDbPoint
 10
837.9015121521499
 20
5012.427760698954
 30
0.0
  0
POINT
  5
835B
330
8350
100
AcDbEntity
  8
DEFPOINTS
 62
     0
100
AcDbPoint
 10
2707.901512152149
 20
5012.427760698954
 30
0.0
  0
POINT
  5
835C
330
8350
100
AcDbEntity
  8
DEFPOINTS
 62
     0
100
AcDbPoint
 10
2707.901512152149
 20
4615.28060121688
 30
0.0
  0
ENDBLK
  5
8352
330
8350
100
AcDbEntity
  8
0
100
AcDbBlockEnd
  0
BLOCK
  5
8374
330
8373
100
AcDbEntity
  8
0
100
AcDbBlockBegin
  2
*D40
 70
     1
 10
0.0
 20
0.0
 30
0.0
  3
*D40
  1

  0
LINE
  5
8376
330
8373
100
AcDbEntity
  8
3
 62
     0
370
    -2
100
AcDbLine
 10
4000.890847887109
 20
1960.233310273389
 30
0.0
 11
4000.890847887109
 21
1767.490397878904
 31
0.0
  0
LINE
  5
8377
330
8373
100
AcDbEntity
  8
3
 62
     0
370
    -2
100
AcDbLine
 10
4762.890847887128
 20
1960.233310273389
 30
0.0
 11
4762.890847887128
 21
1767.490397878904
 31
0.0
  0
LINE
  5
8378
330
8373
100
AcDbEntity
  8
3
 62
     0
370
    -2
100
AcDbLine
 10
4060.890847887109
 20
1797.490397878904
 30
0.0
 11
4702.890847887128
 21
1797.490397878904
 31
0.0
  0
INSERT
  5
8379
330
8373
100
AcDbEntity
  8
3
 62
     0
370
    -2
100
AcDbBlockReference
  2
_OPEN
 10
4000.890847887109
 20
1797.490397878904
 30
0.0
 41
60.0
 42
60.0
 43
60.0
 50
180.0
  0
INSERT
  5
837A
330
8373
100
AcDbEntity
  8
3
 62
     0
370
    -2
100
AcDbBlockReference
  2
_OPEN
 10
4762.890847887128
 20
1797.490397878904
 30
0.0
 41
60.0
 42
60.0
 43
60.0
  0
MTEXT
  5
837B
330
8373
100
AcDbEntity
  8
3
 62
     0
100
AcDbMText
 10
4381.890847887119
 20
1872.490397878904
 30
0.0
 40
90.0
 41
0.0
 71
     5
 72
     1
  1
\A1;762
 73
     1
 44
1.0
1001
ACAD
1000
MTEXTBEGIN
1070
    73
1070
     1
1070
    44
1040
1.0
1070
    74
1070
     0
1000
MTEXTEND
  0
POINT
  5
837C
330
8373
100
AcDbEntity
  8
DEFPOINTS
 62
     0
100
AcDbPoint
 10
4000.890847887109
 20
1990.23331027339
 30
0.0
  0
POINT
  5
837D
330
8373
100
AcDbEntity
  8
DEFPOINTS
 62
     0
100
AcDbPoint
 10
4762.890847887128
 20
1990.23331027339
 30
0.0
  0
POINT
  5
837E
330
8373
100
AcDbEntity
  8
DEFPOINTS
 62
     0
100
AcDbPoint
 10
4762.890847887128
 20
1797.490397878904
 30
0.0
  0
ENDBLK
  5
8375
330
8373
100
AcDbEntity
  8
0
100
AcDbBlockEnd
  0
BLOCK
  5
8381
330
8380
100
AcDbEntity
  8
0
100
AcDbBlockBegin
  2
*D41
 70
     1
 10
0.0
 20
0.0
 30
0.0
  3
*D41
  1

  0
LINE
  5
8383
330
8380
100
AcDbEntity
  8
3
 62
     0
370
    -2
100
AcDbLine
 10
4762.890847887128
 20
1960.233310273389
 30
0.0
 11
4762.890847887128
 21
1767.490397878904
 31
0.0
  0
LINE
  5
8384
330
8380
100
AcDbEntity
  8
3
 62
     0
370
    -2
100
AcDbLine
 10
5375.890847887129
 20
1960.233310273389
 30
0.0
 11
5375.890847887129
 21
1767.490397878904
 31
0.0
  0
LINE
  5
8385
330
8380
100
AcDbEntity
  8
3
 62
     0
370
    -2
100
AcDbLine
 10
4822.890847887128
 20
1797.490397878904
 30
0.0
 11
5315.890847887128
 21
1797.490397878904
 31
0.0
  0
INSERT
  5
8386
330
8380
100
AcDbEntity
  8
3
 62
     0
370
    -2
100
AcDbBlockReference
  2
_OPEN
 10
4762.890847887128
 20
1797.490397878904
 30
0.0
 41
60.0
 42
60.0
 43
60.0
 50
180.0
  0
INSERT
  5
8387
330
8380
100
AcDbEntity
  8
3
 62
     0
370
    -2
100
AcDbBlockReference
  2
_OPEN
 10
5375.890847887129
 20
1797.490397878904
 30
0.0
 41
60.0
 42
60.0
 43
60.0
  0
MTEXT
  5
8388
330
8380
100
AcDbEntity
  8
3
 62
     0
100
AcDbMText
 10
5069.390847887129
 20
1872.490397878904
 30
0.0
 40
90.0
 41
0.0
 71
     5
 72
     1
  1
\A1;613
 73
     1
 44
1.0
1001
ACAD
1000
MTEXTBEGIN
1070
    73
1070
     1
1070
    44
1040
1.0
1070
    74
1070
     0
1000
MTEXTEND
  0
POINT
  5
8389
330
8380
100
AcDbEntity
  8
DEFPOINTS
 62
     0
100
AcDbPoint
 10
4762.890847887128
 20
1990.23331027339
 30
0.0
  0
POINT
  5
838A
330
8380
100
AcDbEntity
  8
DEFPOINTS
 62
     0
100
AcDbPoint
 10
5375.890847887129
 20
1990.23331027339
 30
0.0
  0
POINT
  5
838B
330
8380
100
AcDbEntity
  8
DEFPOINTS
 62
     0
100
AcDbPoint
 10
5375.890847887129
 20
1797.490397878904
 30
0.0
  0
ENDBLK
  5
8382
330
8380
100
AcDbEntity
  8
0
100
AcDbBlockEnd
  0
BLOCK
  5
838E
330
838D
100
AcDbEntity
  8
0
100
AcDbBlockBegin
  2
*D42
 70
     1
 10
0.0
 20
0.0
 30
0.0
  3
*D42
  1

  0
LINE
  5
8399
330
838D
100
AcDbEntity
  8
3
 62
     0
370
    -2
100
AcDbLine
 10
2147.901512152148
 20
4015.320184906001
 30
0.0
 11
2147.901512152148
 21
4234.126846417155
 31
0.0
  0
LINE
  5
839A
330
838D
100
AcDbEntity
  8
3
 62
     0
370
    -2
100
AcDbLine
 10
1370.901512152148
 20
3258.23331027339
 30
0.0
 11
1370.901512152148
 21
4234.126846417155
 31
0.0
  0
LINE
  5
839B
330
838D
100
AcDbEntity
  8
3
 62
     0
370
    -2
100
AcDbLine
 10
2087.901512152148
 20
4204.126846417155
 30
0.0
 11
1430.901512152148
 21
4204.126846417155
 31
0.0
  0
INSERT
  5
839C
330
838D
100
AcDbEntity
  8
3
 62
     0
370
    -2
100
AcDbBlockReference
  2
_OPEN
 10
2147.901512152148
 20
4204.126846417155
 30
0.0
 41
60.0
 42
60.0
 43
60.0
  0
INSERT
  5
839D
330
838D
100
AcDbEntity
  8
3
 62
     0
370
    -2
100
AcDbBlockReference
  2
_OPEN
 10
1370.901512152148
 20
4204.126846417155
 30
0.0
 41
60.0
 42
60.0
 43
60.0
 50
180.0
  0
MTEXT
  5
839E
330
838D
100
AcDbEntity
  8
3
 62
     0
100
AcDbMText
 10
1759.401512152148
 20
4279.126846417155
 30
0.0
 40
90.0
 41
0.0
 71
     5
 72
     1
  1
\A1;777
 73
     1
 44
1.0
1001
ACAD
1000
MTEXTBEGIN
1070
    73
1070
     1
1070
    44
1040
1.0
1070
    74
1070
     0
1000
MTEXTEND
  0
POINT
  5
839F
330
838D
100
AcDbEntity
  8
DEFPOINTS
 62
     0
100
AcDbPoint
 10
2147.901512152148
 20
3985.320184906001
 30
0.0
  0
POINT
  5
83A0
330
838D
100
AcDbEntity
  8
DEFPOINTS
 62
     0
100
AcDbPoint
 10
1370.901512152148
 20
3228.23331027339
 30
0.0
  0
POINT
  5
83A1
330
838D
100
AcDbEntity
  8
DEFPOINTS
 62
     0
100
AcDbPoint
 10
1370.901512152148
 20
4204.126846417155
 30
0.0
  0
ENDBLK
  5
838F
330
838D
100
AcDbEntity
  8
0
100
AcDbBlockEnd
  0
BLOCK
  5
83A4
330
83A3
100
AcDbEntity
  8
0
100
AcDbBlockBegin
  2
*D43
 70
     1
 10
0.0
 20
0.0
 30
0.0
  3
*D43
  1

  0
LINE
  5
83A6
330
83A3
100
AcDbEntity
  8
3
 62
     0
370
    -2
100
AcDbLine
 10
837.9015121521478
 20
1960.233310273389
 30
0.0
 11
837.9015121521478
 21
1767.490397878904
 31
0.0
  0
LINE
  5
83A7
330
83A3
100
AcDbEntity
  8
3
 62
     0
370
    -2
100
AcDbLine
 10
2147.901512152148
 20
1960.233310273389
 30
0.0
 11
2147.901512152148
 21
1767.490397878904
 31
0.0
  0
LINE
  5
83A8
330
83A3
100
AcDbEntity
  8
3
 62
     0
370
    -2
100
AcDbLine
 10
897.9015121521477
 20
1797.490397878904
 30
0.0
 11
2087.901512152148
 21
1797.490397878904
 31
0.0
  0
INSERT
  5
83A9
330
83A3
100
AcDbEntity
  8
3
 62
     0
370
    -2
100
AcDbBlockReference
  2
_OPEN
 10
837.9015121521478
 20
1797.490397878904
 30
0.0
 41
60.0
 42
60.0
 43
60.0
 50
180.0
  0
INSERT
  5
83AA
330
83A3
100
AcDbEntity
  8
3
 62
     0
370
    -2
100
AcDbBlockReference
  2
_OPEN
 10
2147.901512152148
 20
1797.490397878904
 30
0.0
 41
60.0
 42
60.0
 43
60.0
  0
MTEXT
  5
83AB
330
83A3
100
AcDbEntity
  8
3
 62
     0
100
AcDbMText
 10
1492.901512152148
 20
1872.490397878904
 30
0.0
 40
90.0
 41
0.0
 71
     5
 72
     1
  1
\A1;1310
 73
     1
 44
1.0
1001
ACAD
1000
MTEXTBEGIN
1070
    73
1070
     1
1070
    44
1040
1.0
1070
    74
1070
     0
1000
MTEXTEND
  0
POINT
  5
83AC
330
83A3
100
AcDbEntity
  8
DEFPOINTS
 62
     0
100
AcDbPoint
 10
837.9015121521478
 20
1990.23331027339
 30
0.0
  0
POINT
  5
83AD
330
83A3
100
AcDbEntity
  8
DEFPOINTS
 62
     0
100
AcDbPoint
 10
2147.901512152148
 20
1990.23331027339
 30
0.0
  0
POINT
  5
83AE
330
83A3
100
AcDbEntity
  8
DEFPOINTS
 62
     0
100
AcDbPoint
 10
2147.901512152148
 20
1797.490397878904
 30
0.0
  0
ENDBLK
  5
83A5
330
83A3
100
AcDbEntity
  8
0
100
AcDbBlockEnd
  0
BLOCK
  5
83B1
330
83B0
100
AcDbEntity
  8
0
100
AcDbBlockBegin
  2
*D44
 70
     1
 10
0.0
 20
0.0
 30
0.0
  3
*D44
  1

  0
LINE
  5
83B3
330
83B0
100
AcDbEntity
  8
3
 62
     0
370
    -2
100
AcDbLine
 10
2147.901512152148
 20
1960.233310273389
 30
0.0
 11
2147.901512152148
 21
1767.490397878904
 31
0.0
  0
LINE
  5
83B4
330
83B0
100
AcDbEntity
  8
3
 62
     0
370
    -2
100
AcDbLine
 10
2707.901512152149
 20
1960.233310273389
 30
0.0
 11
2707.901512152149
 21
1767.490397878904
 31
0.0
  0
LINE
  5
83B5
330
83B0
100
AcDbEntity
  8
3
 62
     0
370
    -2
100
AcDbLine
 10
2207.901512152148
 20
1797.490397878904
 30
0.0
 11
2647.901512152149
 21
1797.490397878904
 31
0.0
  0
INSERT
  5
83B6
330
83B0
100
AcDbEntity
  8
3
 62
     0
370
    -2
100
AcDbBlockReference
  2
_OPEN
 10
2147.901512152148
 20
1797.490397878904
 30
0.0
 41
60.0
 42
60.0
 43
60.0
 50
180.0
  0
INSERT
  5
83B7
330
83B0
100
AcDbEntity
  8
3
 62
     0
370
    -2
100
AcDbBlockReference
  2
_OPEN
 10
2707.901512152149
 20
1797.490397878904
 30
0.0
 41
60.0
 42
60.0
 43
60.0
  0
MTEXT
  5
83B8
330
83B0
100
AcDbEntity
  8
3
 62
     0
100
AcDbMText
 10
2427.901512152148
 20
1872.490397878904
 30
0.0
 40
90.0
 41
0.0
 71
     5
 72
     1
  1
\A1;560
 73
     1
 44
1.0
1001
ACAD
1000
MTEXTBEGIN
1070
    73
1070
     1
1070
    44
1040
1.0
1070
    74
1070
     0
1000
MTEXTEND
  0
POINT
  5
83B9
330
83B0
100
AcDbEntity
  8
DEFPOINTS
 62
     0
100
AcDbPoint
 10
2147.901512152148
 20
1990.23331027339
 30
0.0
  0
POINT
  5
83BA
330
83B0
100
AcDbEntity
  8
DEFPOINTS
 62
     0
100
AcDbPoint
 10
2707.901512152149
 20
1990.23331027339
 30
0.0
  0
POINT
  5
83BB
330
83B0
100
AcDbEntity
  8
DEFPOINTS
 62
     0
100
AcDbPoint
 10
2707.901512152149
 20
1797.490397878904
 30
0.0
  0
ENDBLK
  5
83B2
330
83B0
100
AcDbEntity
  8
0
100
AcDbBlockEnd
  0
BLOCK
  5
83BE
330
83BD
100
AcDbEntity
  8
0
100
AcDbBlockBegin
  2
*D45
 70
     1
 10
0.0
 20
0.0
 30
0.0
  3
*D45
  1

  0
LINE
  5
84F1
330
83BD
100
AcDbEntity
  8
3
 62
     0
370
    -2
100
AcDbLine
 10
2834.156850930694
 20
3295.233310273391
 30
0.0
 11
3289.585489877208
 21
3295.23331027339
 31
0.0
  0
LINE
  5
84F2
330
83BD
100
AcDbEntity
  8
3
 62
     0
370
    -2
100
AcDbLine
 10
2737.901512152149
 20
2195.23331027339
 30
0.0
 11
3289.585489877208
 21
2195.23331027339
 31
0.0
  0
LINE
  5
84F3
330
83BD
100
AcDbEntity
  8
3
 62
     0
370
    -2
100
AcDbLine
 10
3259.585489877208
 20
3235.23331027339
 30
0.0
 11
3259.585489877208
 21
2255.23331027339
 31
0.0
  0
INSERT
  5
84F4
330
83BD
100
AcDbEntity
  8
3
 62
     0
370
    -2
100
AcDbBlockReference
  2
_OPEN
 10
3259.585489877208
 20
3295.23331027339
 30
0.0
 41
60.0
 42
60.0
 43
60.0
 50
90.0
  0
INSERT
  5
84F5
330
83BD
100
AcDbEntity
  8
3
 62
     0
370
    -2
100
AcDbBlockReference
  2
_OPEN
 10
3259.585489877208
 20
2195.23331027339
 30
0.0
 41
60.0
 42
60.0
 43
60.0
 50
270.0
  0
MTEXT
  5
84F6
330
83BD
100
AcDbEntity
  8
3
 62
     0
100
AcDbMText
 10
3184.585489877207
 20
2745.233310273391
 30
0.0
 40
90.0
 41
0.0
 71
     5
 72
     1
  1
\A1;1100
 11
0.0000000000000001
 21
1.0
 31
0.0
 73
     1
 44
1.0
1001
ACAD
1000
MTEXTBEGIN
1070
    73
1070
     1
1070
    44
1040
1.0
1070
    74
1070
     0
1000
MTEXTEND
  0
POINT
  5
84F7
330
83BD
100
AcDbEntity
  8
DEFPOINTS
 62
     0
100
AcDbPoint
 10
2804.156850930694
 20
3295.233310273391
 30
0.0
  0
POINT
  5
84F8
330
83BD
100
AcDbEntity
  8
DEFPOINTS
 62
     0
100
AcDbPoint
 10
2707.901512152149
 20
2195.23331027339
 30
0.0
  0
POINT
  5
84F9
330
83BD
100
AcDbEntity
  8
DEFPOINTS
 62
     0
100
AcDbPoint
 10
3259.585489877208
 20
2195.23331027339
 30
0.0
  0
ENDBLK
  5
83BF
330
83BD
100
AcDbEntity
  8
0
100
AcDbBlockEnd
  0
BLOCK
  5
83CB
330
83CA
100
AcDbEntity
  8
0
100
AcDbBlockBegin
  2
*D46
 70
     1
 10
0.0
 20
0.0
 30
0.0
  3
*D46
  1

  0
LINE
  5
8513
330
83CA
100
AcDbEntity
  8
3
 62
     0
370
    -2
100
AcDbLine
 10
2737.901512152149
 20
2195.23331027339
 30
0.0
 11
3289.585489877208
 21
2195.23331027339
 31
0.0
  0
LINE
  5
8514
330
83CA
100
AcDbEntity
  8
3
 62
     0
370
    -2
100
AcDbLine
 10
2737.901512152149
 20
2090.23331027339
 30
0.0
 11
3289.585489877208
 21
2090.23331027339
 31
0.0
  0
LINE
  5
8515
330
83CA
100
AcDbEntity
  8
3
 62
     0
370
    -2
100
AcDbLine
 10
3259.585489877208
 20
2255.23331027339
 30
0.0
 11
3259.585489877208
 21
2315.23331027339
 31
0.0
  0
LINE
  5
8516
330
83CA
100
AcDbEntity
  8
3
 62
     0
370
    -2
100
AcDbLine
 10
3259.585489877208
 20
2090.23331027339
 30
0.0
 11
3259.585489877208
 21
2030.23331027339
 31
0.0
  0
LINE
  5
8517
330
83CA
100
AcDbEntity
  8
3
 62
     0
370
    -2
100
AcDbLine
 10
3259.585489877208
 20
2142.73331027339
 30
0.0
 11
3484.287619000025
 21
2226.947595987676
 31
0.0
  0
LINE
  5
8518
330
83CA
100
AcDbEntity
  8
3
 62
     0
370
    -2
100
AcDbLine
 10
3484.287619000025
 20
2226.947595987676
 30
0.0
 11
3484.287619000025
 21
2616.947595987676
 31
0.0
  0
MTEXT
  5
8519
330
83CA
100
AcDbEntity
  8
3
 62
     0
100
AcDbMText
 10
3385.716190428596
 20
2421.947595987676
 30
0.0
 40
90.0
 41
0.0
 71
     5
 72
     1
  1
\A1;(105)
 11
0.0000000000000001
 21
1.0
 31
0.0
 73
     1
 44
1.0
1001
ACAD
1000
MTEXTBEGIN
1070
    73
1070
     1
1070
    44
1040
1.0
1070
    74
1070
     0
1000
MTEXTEND
  0
LINE
  5
851A
330
83CA
100
AcDbEntity
  8
3
 62
     0
370
    -2
100
AcDbLine
 10
3259.585489877208
 20
2195.23331027339
 30
0.0
 11
3259.585489877208
 21
2090.23331027339
 31
0.0
  0
LINE
  5
851B
330
83CA
100
AcDbEntity
  8
3
 62
     0
370
    -2
100
AcDbLine
 10
3259.585489877208
 20
2195.23331027339
 30
0.0
 11
3259.585489877208
 21
2090.23331027339
 31
0.0
  0
INSERT
  5
851C
330
83CA
100
AcDbEntity
  8
3
 62
     0
370
    -2
100
AcDbBlockReference
  2
_OPEN
 10
3259.585489877208
 20
2195.23331027339
 30
0.0
 41
60.0
 42
60.0
 43
60.0
 50
270.0
  0
INSERT
  5
851D
330
83CA
100
AcDbEntity
  8
3
 62
     0
370
    -2
100
AcDbBlockReference
  2
_DotSmall
 10
3259.585489877208
 20
2090.23331027339
 30
0.0
 41
60.0
 42
60.0
 43
60.0
 50
90.0
  0
POINT
  5
851E
330
83CA
100
AcDbEntity
  8
DEFPOINTS
 62
     0
100
AcDbPoint
 10
2707.901512152149
 20
2195.23331027339
 30
0.0
  0
POINT
  5
851F
330
83CA
100
AcDbEntity
  8
DEFPOINTS
 62
     0
100
AcDbPoint
 10
2707.901512152149
 20
2090.23331027339
 30
0.0
  0
POINT
  5
8520
330
83CA
100
AcDbEntity
  8
DEFPOINTS
 62
     0
100
AcDbPoint
 10
3259.585489877208
 20
2090.23331027339
 30
0.0
  0
ENDBLK
  5
83CC
330
83CA
100
AcDbEntity
  8
0
100
AcDbBlockEnd
  0
BLOCK
  5
83DD
330
83DC
100
AcDbEntity
  8
0
100
AcDbBlockBegin
  2
*D47
 70
     1
 10
0.0
 20
0.0
 30
0.0
  3
*D47
  1

  0
LINE
  5
8508
330
83DC
100
AcDbEntity
  8
3
 62
     0
370
    -2
100
AcDbLine
 10
2737.901512152149
 20
2090.23331027339
 30
0.0
 11
3289.585489877208
 21
2090.23331027339
 31
0.0
  0
LINE
  5
8509
330
83DC
100
AcDbEntity
  8
3
 62
     0
370
    -2
100
AcDbLine
 10
2737.901512152149
 20
1990.23331027339
 30
0.0
 11
3289.585489877208
 21
1990.23331027339
 31
0.0
  0
LINE
  5
850A
330
83DC
100
AcDbEntity
  8
3
 62
     0
370
    -2
100
AcDbLine
 10
3259.585489877208
 20
2090.23331027339
 30
0.0
 11
3259.585489877208
 21
2150.23331027339
 31
0.0
  0
LINE
  5
850B
330
83DC
100
AcDbEntity
  8
3
 62
     0
370
    -2
100
AcDbLine
 10
3259.585489877208
 20
1930.23331027339
 30
0.0
 11
3259.585489877208
 21
1870.23331027339
 31
0.0
  0
MTEXT
  5
850C
330
83DC
100
AcDbEntity
  8
3
 62
     0
100
AcDbMText
 10
3136.574909297648
 20
1870.23331027339
 30
0.0
 40
90.0
 41
0.0
 71
     5
 72
     1
  1
\A1;100
 11
0.0000000000000001
 21
1.0
 31
0.0
 73
     1
 44
1.0
1001
ACAD
1000
MTEXTBEGIN
1070
    73
1070
     1
1070
    44
1040
1.0
1070
    74
1070
     0
1000
MTEXTEND
  0
LINE
  5
850D
330
83DC
100
AcDbEntity
  8
3
 62
     0
370
    -2
100
AcDbLine
 10
3259.585489877208
 20
2090.23331027339
 30
0.0
 11
3259.585489877208
 21
1990.23331027339
 31
0.0
  0
INSERT
  5
850E
330
83DC
100
AcDbEntity
  8
3
 62
     0
370
    -2
100
AcDbBlockReference
  2
_DotSmall
 10
3259.585489877208
 20
2090.23331027339
 30
0.0
 41
60.0
 42
60.0
 43
60.0
 50
270.0
  0
INSERT
  5
850F
330
83DC
100
AcDbEntity
  8
3
 62
     0
370
    -2
100
AcDbBlockReference
  2
_OPEN
 10
3259.585489877208
 20
1990.23331027339
 30
0.0
 41
60.0
 42
60.0
 43
60.0
 50
90.0
  0
POINT
  5
8510
330
83DC
100
AcDbEntity
  8
DEFPOINTS
 62
     0
100
AcDbPoint
 10
2707.901512152149
 20
2090.23331027339
 30
0.0
  0
POINT
  5
8511
330
83DC
100
AcDbEntity
  8
DEFPOINTS
 62
     0
100
AcDbPoint
 10
2707.901512152149
 20
1990.23331027339
 30
0.0
  0
POINT
  5
8512
330
83DC
100
AcDbEntity
  8
DEFPOINTS
 62
     0
100
AcDbPoint
 10
3259.585489877208
 20
1990.23331027339
 30
0.0
  0
ENDBLK
  5
83DE
330
83DC
100
AcDbEntity
  8
0
100
AcDbBlockEnd
  0
BLOCK
  5
8488
330
8486
100
AcDbEntity
  8
0
100
AcDbBlockBegin
  2
_DotSmall
 70
     0
 10
0.0
 20
0.0
 30
0.0
  3
_DotSmall
  1

  0
LWPOLYLINE
  5
8487
330
8486
100
AcDbEntity
  8
0
  6
ByBlock
 62
     0
100
AcDbPolyline
 90
        2
 70
     1
 43
0.5
 10
-0.0625
 20
0.0
 42
1.0
 10
0.0625
 20
0.0
 42
1.0
  0
ENDBLK
  5
8489
330
8486
100
AcDbEntity
  8
0
100
AcDbBlockEnd
  0
BLOCK
  5
8523
330
8522
100
AcDbEntity
  8
0
100
AcDbBlockBegin
  2
*D49
 70
     1
 10
0.0
 20
0.0
 30
0.0
  3
*D49
  1

  0
LINE
  5
8537
330
8522
100
AcDbEntity
  8
3
 62
     0
370
    -2
100
AcDbLine
 10
2737.901512152149
 20
1990.23331027339
 30
0.0
 11
3622.218731344219
 21
1990.23331027339
 31
0.0
  0
LINE
  5
8538
330
8522
100
AcDbEntity
  8
3
 62
     0
370
    -2
100
AcDbLine
 10
2110.901512152148
 20
3938.23331027339
 30
0.0
 11
3622.218731344219
 21
3938.233310273389
 31
0.0
  0
LINE
  5
8539
330
8522
100
AcDbEntity
  8
3
 62
     0
370
    -2
100
AcDbLine
 10
3592.218731344219
 20
2050.23331027339
 30
0.0
 11
3592.21873134422
 21
3878.233310273389
 31
0.0
  0
INSERT
  5
853A
330
8522
100
AcDbEntity
  8
3
 62
     0
370
    -2
100
AcDbBlockReference
  2
_OPEN
 10
3592.218731344219
 20
1990.23331027339
 30
0.0
 41
60.0
 42
60.0
 43
60.0
 50
270.0
  0
INSERT
  5
853B
330
8522
100
AcDbEntity
  8
3
 62
     0
370
    -2
100
AcDbBlockReference
  2
_OPEN
 10
3592.21873134422
 20
3938.233310273389
 30
0.0
 41
60.0
 42
60.0
 43
60.0
 50
90.0
  0
MTEXT
  5
853C
330
8522
100
AcDbEntity
  8
3
 62
     0
100
AcDbMText
 10
3493.64730277279
 20
2964.233310273391
 30
0.0
 40
90.0
 41
0.0
 71
     5
 72
     1
  1
\A1;(1948)
 11
0.0000000000000001
 21
1.0
 31
0.0
 73
     1
 44
1.0
1001
ACAD
1000
MTEXTBEGIN
1070
    73
1070
     1
1070
    44
1040
1.0
1070
    74
1070
     0
1000
MTEXTEND
  0
POINT
  5
853D
330
8522
100
AcDbEntity
  8
DEFPOINTS
 62
     0
100
AcDbPoint
 10
2707.901512152149
 20
1990.23331027339
 30
0.0
  0
POINT
  5
853E
330
8522
100
AcDbEntity
  8
DEFPOINTS
 62
     0
100
AcDbPoint
 10
2080.901512152148
 20
3938.23331027339
 30
0.0
  0
POINT
  5
853F
330
8522
100
AcDbEntity
  8
DEFPOINTS
 62
     0
100
AcDbPoint
 10
3592.21873134422
 20
3938.233310273389
 30
0.0
  0
ENDBLK
  5
8524
330
8522
100
AcDbEntity
  8
0
100
AcDbBlockEnd
  0
ENDSEC
  0
SECTION
  2
ENTITIES
  0
INSERT
  5
7C3B
330
827E
100
AcDbEntity
  8
0
100
AcDbBlockReference
  2
YA_N
 10
6.0
 20
5.0
 30
0.0
  0
LINE
  5
7C3D
330
827E
100
AcDbEntity
  8
2
100
AcDbLine
 10
2804.156850930694
 20
3295.233310273391
 30
0.0
 11
1302.576757513456
 21
3295.233310273391
 31
0.0
  0
LINE
  5
7C3E
330
827E
100
AcDbEntity
  8
2
100
AcDbLine
 10
2147.901512152148
 20
3985.320184906001
 30
0.0
 11
2147.901512152148
 21
1990.23331027339
 31
0.0
  0
ARC
  5
7C3F
330
827E
100
AcDbEntity
  8
1
100
AcDbCircle
 10
2214.901512152148
 20
3228.23331027339
 30
0.0
 40
844.0
100
AcDbArc
 50
175.446847612781
 51
265.4468476127809
  0
ARC
  5
7C40
330
827E
100
AcDbEntity
  8
1
100
AcDbCircle
 10
2080.901512152148
 20
3228.23331027339
 30
0.0
 40
710.0
100
AcDbArc
 50
84.58515829387057
 51
174.5851582938705
  0
ARC
  5
7C41
330
827E
100
AcDbEntity
  8
1
100
AcDbCircle
 10
2094.401512152148
 20
3348.73331027339
 30
0.0
 40
589.5
100
AcDbArc
 50
354.7929639116504
 51
84.79296391165046
  0
LINE
  5
7C42
330
827E
100
AcDbEntity
  8
1
100
AcDbLine
 10
2767.901512152148
 20
2291.73331027339
 30
0.0
 11
2767.901512152148
 21
3301.73331027339
 31
0.0
  0
LINE
  5
7C43
330
827E
100
AcDbEntity
  8
1
100
AcDbLine
 10
2767.901512152148
 20
3259.233310273391
 30
0.0
 11
2682.691190436985
 21
3259.233310273391
 31
0.0
  0
LINE
  5
7C44
330
827E
100
AcDbEntity
  8
1
100
AcDbLine
 10
2767.901512152148
 20
2334.233310273389
 30
0.0
 11
2147.901512152148
 21
2386.896873406425
 31
0.0
  0
LINE
  5
7C45
330
827E
100
AcDbEntity
  8
1
100
AcDbLine
 10
2767.901512152148
 20
2291.73331027339
 30
0.0
 11
2764.901512152148
 21
2291.73331027339
 31
0.0
  0
LINE
  5
7C46
330
827E
100
AcDbEntity
  8
1
100
AcDbLine
 10
2767.901512152148
 20
3301.73331027339
 30
0.0
 11
2764.901512152148
 21
3301.73331027339
 31
0.0
  0
LINE
  5
7C47
330
827E
100
AcDbEntity
  8
1
100
AcDbLine
 10
2727.901512152147
 20
2337.630959507779
 30
0.0
 11
2727.901512152147
 21
3259.233310273391
 31
0.0
  0
LINE
  5
7C48
330
827E
100
AcDbEntity
  8
1
100
AcDbLine
 10
2764.901512152148
 20
2291.73331027339
 30
0.0
 11
2764.901512152148
 21
3301.73331027339
 31
0.0
  0
LINE
  5
7C49
330
827E
100
AcDbEntity
  8
1
100
AcDbLine
 10
837.9015121521499
 20
2295.233310273389
 30
0.0
 11
837.9015121521499
 21
2195.23331027339
 31
0.0
  0
LINE
  5
7C4A
330
827E
100
AcDbEntity
  8
1
100
AcDbLine
 10
2707.901512152147
 20
2295.23331027339
 30
0.0
 11
2707.901512152147
 21
2195.23331027339
 31
0.0
  0
LINE
  5
7C4B
330
827E
100
AcDbEntity
  8
1
100
AcDbLine
 10
837.9015121521499
 20
2195.23331027339
 30
0.0
 11
2707.901512152149
 21
2195.23331027339
 31
0.0
1001
ACAD
1000
ASC_BOUNDS
1002
{
1070
    19
1002
}
  0
LINE
  5
7C4C
330
827E
100
AcDbEntity
  8
1
100
AcDbLine
 10
837.9015121521499
 20
2295.233310273389
 30
0.0
 11
2707.901512152149
 21
2295.23331027339
 31
0.0
  0
LINE
  5
7C4D
330
827E
100
AcDbEntity
  8
2
100
AcDbLine
 10
1087.901512152148
 20
2863.235801269493
 30
0.0
 11
1087.901512152148
 21
1990.23331027339
 31
0.0
  0
LINE
  5
7C4E
330
827E
100
AcDbEntity
  8
2
100
AcDbLine
 10
790.7646249416941
 20
2570.233310273389
 30
0.0
 11
1302.744438605981
 21
2570.233310273389
 31
0.0
  0
LINE
  5
7C4F
330
827E
100
AcDbEntity
  8
1
100
AcDbLine
 10
5322.890847887129
 20
3938.233310273391
 30
0.0
 11
5322.890847887129
 21
3331.23331027339
 31
0.0
  0
LINE
  5
7C50
330
827E
100
AcDbEntity
  8
1
100
AcDbLine
 10
4000.890847887119
 20
2195.23331027339
 30
0.0
 11
5375.890847887138
 21
2195.23331027339
 31
0.0
1001
ACAD
1000
ASC_BOUNDS
1002
{
1070
    19
1005
0
1005
0
1005
0
1005
0
1002
}
  0
LINE
  5
7C51
330
827E
100
AcDbEntity
  8
1
100
AcDbLine
 10
4000.890847887129
 20
2295.23331027339
 30
0.0
 11
5375.890847887129
 21
2295.23331027339
 31
0.0
  0
LINE
  5
7C52
330
827E
100
AcDbEntity
  8
1
100
AcDbLine
 10
4000.890847887129
 20
2295.23331027339
 30
0.0
 11
4000.890847887119
 21
2195.23331027339
 31
0.0
  0
LINE
  5
7C53
330
827E
100
AcDbEntity
  8
1
100
AcDbLine
 10
5375.890847887129
 20
2295.23331027339
 30
0.0
 11
5375.890847887138
 21
2195.23331027339
 31
0.0
  0
LINE
  5
7C54
330
827E
100
AcDbEntity
  8
1
100
AcDbLine
 10
4762.89084788713
 20
3938.233310273391
 30
0.0
 11
5322.890847887129
 21
3938.233310273391
 31
0.0
  0
LINE
  5
7C55
330
827E
100
AcDbEntity
  8
2
100
AcDbLine
 10
3820.311749241432
 20
3295.233310273391
 30
0.0
 11
5473.410495644865
 21
3295.233310273391
 31
0.0
  0
LINE
  5
7C56
330
827E
100
AcDbEntity
  8
1
100
AcDbLine
 10
5313.390847887129
 20
2195.23331027339
 30
0.0
 11
5375.890847887138
 21
2195.23331027339
 31
0.0
1001
ACAD
1000
ASC_BOUNDS
1002
{
1070
    19
1005
0
1005
0
1002
}
  0
LINE
  5
7C57
330
827E
100
AcDbEntity
  8
2
100
AcDbLine
 10
4762.89084788713
 20
4110.452251509412
 30
0.0
 11
4762.890847887128
 21
1990.23331027339
 31
0.0
  0
POINT
  5
7C58
330
827E
100
AcDbEntity
  8
1
100
AcDbPoint
 10
1374.069849024355
 20
3270.23331027339
 30
0.0
  0
INSERT
  5
7C59
330
827E
100
AcDbEntity
  8
0
100
AcDbBlockReference
  2
YA_N
 10
-1638.667820090515
 20
-980.7401201518075
 30
0.0
 41
20.0
 42
20.0
 43
20.0
  0
INSERT
  5
7C5B
330
827E
100
AcDbEntity
  8
0
100
AcDbBlockReference
  2
YA_N
 10
-1552.816625123014
 20
-1070.405552057982
 30
0.0
 41
20.0
 42
20.0
 43
20.0
  0
ARC
  5
7C5D
330
827E
100
AcDbEntity
  8
1
100
AcDbCircle
 10
1087.901512152148
 20
2570.233310273389
 30
0.0
 40
185.0
100
AcDbArc
 50
287.9452509999999
 51
252.054749
  0
LINE
  5
7C5E
330
827E
100
AcDbEntity
  8
1
100
AcDbLine
 10
1144.901512152147
 20
2394.233310273389
 30
0.0
 11
1030.901512152148
 21
2394.233310273389
 31
0.0
  0
LINE
  5
7C60
330
827E
100
AcDbEntity
  8
1
100
AcDbLine
 10
1249.901512152147
 20
2465.492343273389
 30
0.0
 11
1249.901512152147
 21
2390.233310273389
 31
0.0
  0
LINE
  5
7C61
330
827E
100
AcDbEntity
  8
1
100
AcDbLine
 10
1190.401512152148
 20
2395.381869273389
 30
0.0
 11
1180.894798152148
 21
2410.30447727339
 31
0.0
  0
LINE
  5
7C64
330
827E
100
AcDbEntity
  8
1
100
AcDbLine
 10
1190.401512152148
 20
2407.233310273389
 30
0.0
 11
1190.401512152148
 21
2390.233310273389
 31
0.0
  0
LINE
  5
7C66
330
827E
100
AcDbEntity
  8
1
100
AcDbLine
 10
1193.401512152147
 20
2410.233310273389
 30
0.0
 11
1246.901512152148
 21
2410.233310273389
 31
0.0
  0
ARC
  5
7C67
330
827E
100
AcDbEntity
  8
1
100
AcDbCircle
 10
1246.901512152148
 20
2407.233310273389
 30
0.0
 40
3.0
100
AcDbArc
 50
0.0
 51
90.0
  0
LINE
  5
7C6E
330
827E
100
AcDbEntity
  8
1
100
AcDbLine
 10
1198.725425152148
 20
2410.233310273389
 30
0.0
 11
1193.545677152147
 21
2418.363925273389
 31
0.0
  0
ARC
  5
7C70
330
827E
100
AcDbEntity
  8
1
100
AcDbCircle
 10
1193.401512152147
 20
2407.233310273389
 30
0.0
 40
3.0
100
AcDbArc
 50
90.0
 51
180.0
  0
LINE
  5
7C71
330
827E
100
AcDbEntity
  8
1
100
AcDbLine
 10
1249.901512152147
 20
2465.492343273389
 30
0.0
 11
1243.517540152148
 21
2470.190097273389
 31
0.0
  0
LINE
  5
7C76
330
827E
100
AcDbEntity
  8
1
100
AcDbLine
 10
985.4015121521481
 20
2395.381869273389
 30
0.0
 11
994.9082261521487
 21
2410.30447727339
 31
0.0
  0
LINE
  5
7C7A
330
827E
100
AcDbEntity
  8
1
100
AcDbLine
 10
985.4015121521481
 20
2407.233310273389
 30
0.0
 11
985.4015121521481
 21
2390.233310273389
 31
0.0
  0
LINE
  5
7C7B
330
827E
100
AcDbEntity
  8
1
100
AcDbLine
 10
925.9015121521477
 20
2465.492343273389
 30
0.0
 11
925.9015121521477
 21
2390.233310273389
 31
0.0
  0
LINE
  5
7C7D
330
827E
100
AcDbEntity
  8
1
100
AcDbLine
 10
982.401512152148
 20
2410.233310273389
 30
0.0
 11
928.901512152148
 21
2410.233310273389
 31
0.0
  0
LINE
  5
7C7F
330
827E
100
AcDbEntity
  8
1
100
AcDbLine
 10
977.0775981521484
 20
2410.233310273389
 30
0.0
 11
982.2573471521479
 21
2418.363925273389
 31
0.0
  0
ARC
  5
7C80
330
827E
100
AcDbEntity
  8
1
100
AcDbCircle
 10
982.401512152148
 20
2407.233310273389
 30
0.0
 40
3.0
100
AcDbArc
 50
0.0
 51
90.0
  0
ARC
  5
7C81
330
827E
100
AcDbEntity
  8
1
100
AcDbCircle
 10
928.901512152148
 20
2407.233310273389
 30
0.0
 40
3.0
100
AcDbArc
 50
90.0
 51
180.0
  0
LINE
  5
7C8C
330
827E
100
AcDbEntity
  8
1
100
AcDbLine
 10
925.9015121521477
 20
2465.492343273389
 30
0.0
 11
932.2854231521487
 21
2470.190097273389
 31
0.0
  0
LINE
  5
7C8D
330
827E
100
AcDbEntity
  8
1
100
AcDbLine
 10
862.9015121521478
 20
2335.233310273389
 30
0.0
 11
1312.901512152148
 21
2335.233310273389
 31
0.0
  0
LINE
  5
7C8E
330
827E
100
AcDbEntity
  8
1
100
AcDbLine
 10
887.9015121521478
 20
2335.233310273389
 30
0.0
 11
887.9015121521478
 21
2295.233310273389
 31
0.0
  0
LINE
  5
7C8F
330
827E
100
AcDbEntity
  8
1
100
AcDbLine
 10
1287.901512152147
 20
2335.233310273389
 30
0.0
 11
1287.901512152147
 21
2295.233310273389
 31
0.0
  0
LINE
  5
7C90
330
827E
100
AcDbEntity
  8
1
100
AcDbLine
 10
877.7999737510254
 20
2390.233310273389
 30
0.0
 11
1017.901512152147
 21
2390.233310273389
 31
0.0
  0
LINE
  5
7C91
330
827E
100
AcDbEntity
  8
1
100
AcDbLine
 10
1312.901512152148
 20
2335.233310273389
 30
0.0
 11
1297.699195517636
 21
2390.233310273389
 31
0.0
  0
LINE
  5
7C92
330
827E
100
AcDbEntity
  8
1
100
AcDbLine
 10
862.9015121521478
 20
2335.233310273389
 30
0.0
 11
877.7999737510254
 21
2390.233310273389
 31
0.0
  0
LINE
  5
7C94
330
827E
100
AcDbEntity
  8
1
100
AcDbLine
 10
1017.901512152147
 20
2380.233310273389
 30
0.0
 11
1157.901512152147
 21
2380.233310273389
 31
0.0
  0
LINE
  5
7C95
330
827E
100
AcDbEntity
  8
1
100
AcDbLine
 10
1017.901512152147
 20
2390.233310273389
 30
0.0
 11
1017.901512152147
 21
2380.233310273389
 31
0.0
  0
LINE
  5
7C96
330
827E
100
AcDbEntity
  8
1
100
AcDbLine
 10
1157.901512152147
 20
2390.233310273389
 30
0.0
 11
1157.901512152147
 21
2380.233310273389
 31
0.0
  0
LINE
  5
7C97
330
827E
100
AcDbEntity
  8
1
100
AcDbLine
 10
1157.901512152147
 20
2390.233310273389
 30
0.0
 11
1297.699195517636
 21
2390.233310273389
 31
0.0
  0
LINE
  5
7C9A
330
827E
100
AcDbEntity
  8
1
100
AcDbLine
 10
837.9015121521478
 20
2090.23331027339
 30
0.0
 11
2707.901512152149
 21
2090.23331027339
 31
0.0
1001
ACAD
1000
ASC_BOUNDS
1002
{
1070
    19
1002
}
  0
LINE
  5
7C9B
330
827E
100
AcDbEntity
  8
1
100
AcDbLine
 10
837.9015121521478
 20
2090.23331027339
 30
0.0
 11
837.9015121521478
 21
1990.23331027339
 31
0.0
  0
LINE
  5
7C9C
330
827E
100
AcDbEntity
  8
1
100
AcDbLine
 10
2707.901512152149
 20
2090.23331027339
 30
0.0
 11
2707.901512152149
 21
1990.23331027339
 31
0.0
  0
LINE
  5
7C9D
330
827E
100
AcDbEntity
  8
1
100
AcDbLine
 10
4000.890847887119
 20
2090.23331027339
 30
0.0
 11
5375.890847887129
 21
2090.23331027339
 31
0.0
1001
ACAD
1000
ASC_BOUNDS
1002
{
1070
    19
1005
0
1005
0
1005
0
1005
0
1005
0
1005
0
1002
}
  0
DIMENSION
  5
7C9E
330
827E
100
AcDbEntity
  8
3
100
AcDbDimension
  2
*D4
 10
2917.516620595359
 20
3259.233310273391
 30
0.0
 11
2857.516620595359
 21
2796.733310273391
 31
0.0
 12
1490.255412532223
 22
3015.055214858927
 32
0.0
 71
     5
 42
-1.0
  3
Standard
100
AcDbAlignedDimension
 13
2767.901512152148
 23
2334.233310273389
 33
0.0
 14
2767.901512152148
 24
3259.233310273391
 34
0.0
 50
270.0
100
AcDbRotatedDimension
1001
ACAD
1000
DSTYLE
1002
{
1070
    40
1040
30.0
1002
}
  0
DIMENSION
  5
7C9F
330
827E
100
AcDbEntity
  8
3
100
AcDbDimension
  2
*D5
 10
3067.859920693221
 20
3295.233310273391
 30
0.0
 11
3007.859920693221
 21
2814.73331027339
 31
0.0
 12
1490.255412532223
 22
3015.055214858927
 32
0.0
 71
     5
 42
-1.0
  3
Standard
100
AcDbAlignedDimension
 13
2767.901512152148
 23
2334.233310273389
 33
0.0
 14
2804.156850930694
 24
3295.233310273391
 34
0.0
 50
270.0
100
AcDbRotatedDimension
1001
ACAD
1000
DSTYLE
1002
{
1070
    40
1040
30.0
1002
}
  0
POINT
  5
7CA0
330
827E
100
AcDbEntity
  8
1
100
AcDbPoint
 10
2707.901512152149
 20
2090.23331027339
 30
0.0
  0
POINT
  5
7CA1
330
827E
100
AcDbEntity
  8
1
100
AcDbPoint
 10
2707.901512152149
 20
2025.23331027339
 30
0.0
  0
POINT
  5
7CA2
330
827E
100
AcDbEntity
  8
1
100
AcDbPoint
 10
2707.901512152149
 20
2090.23331027339
 30
0.0
  0
POINT
  5
7CA3
330
827E
100
AcDbEntity
  8
1
100
AcDbPoint
 10
2707.901512152147
 20
2195.23331027339
 30
0.0
  0
CIRCLE
  5
7CA4
330
827E
100
AcDbEntity
  8
1
100
AcDbCircle
 10
1087.901512152148
 20
2570.233310273389
 30
0.0
 40
119.0
  0
LINE
  5
7CA5
330
827E
100
AcDbEntity
  8
1
100
AcDbLine
 10
5322.890847887129
 20
3331.23331027339
 30
0.0
 11
5322.890847887129
 21
2334.233310273389
 31
0.0
  0
LINE
  5
7CA6
330
827E
100
AcDbEntity
  8
1
100
AcDbLine
 10
4202.890847887129
 20
3938.233310273391
 30
0.0
 11
4202.890847887129
 21
3295.233310273391
 31
0.0
  0
LINE
  5
7CA7
330
827E
100
AcDbEntity
  8
1
100
AcDbLine
 10
4762.890847887128
 20
3938.233310273391
 30
0.0
 11
4202.890847887129
 21
3938.233310273391
 31
0.0
  0
LINE
  5
7CA8
330
827E
100
AcDbEntity
  8
1
100
AcDbLine
 10
4202.890847887129
 20
3295.233310273391
 30
0.0
 11
4202.890847887129
 21
2334.233310273389
 31
0.0
  0
LINE
  5
7CA9
330
827E
100
AcDbEntity
  8
1
100
AcDbLine
 10
4074.890847887129
 20
3269.433310273389
 30
0.0
 11
4150.590847887129
 21
3269.433310273389
 31
0.0
  0
LINE
  5
7CAA
330
827E
100
AcDbEntity
  8
1
100
AcDbLine
 10
4074.890847887129
 20
3119.43331027339
 30
0.0
 11
4150.590847887129
 21
3119.43331027339
 31
0.0
  0
LINE
  5
7CAB
330
827E
100
AcDbEntity
  8
1
100
AcDbLine
 10
4064.890847887129
 20
3259.43331027339
 30
0.0
 11
4064.89084788713
 21
3129.43331027339
 31
0.0
  0
LINE
  5
7CAC
330
827E
100
AcDbEntity
  8
1
100
AcDbLine
 10
4189.890847887128
 20
3269.433310273389
 30
0.0
 11
4189.890847887129
 21
3119.43331027339
 31
0.0
  0
ARC
  5
7CAD
330
827E
100
AcDbEntity
  8
1
100
AcDbCircle
 10
4074.890847887129
 20
3259.43331027339
 30
0.0
 40
10.0
100
AcDbArc
 50
90.0
 51
180.0000000000003
  0
ARC
  5
7CAE
330
827E
100
AcDbEntity
  8
1
100
AcDbCircle
 10
4074.890847887129
 20
3129.43331027339
 30
0.0
 40
10.0
100
AcDbArc
 50
180.0000000000003
 51
270.0
  0
LINE
  5
7CAF
330
827E
100
AcDbEntity
  8
1
100
AcDbLine
 10
4150.590847887129
 20
3119.43331027339
 30
0.0
 11
4189.890847887129
 21
3119.43331027339
 31
0.0
  0
LINE
  5
7CB0
330
827E
100
AcDbEntity
  8
1
100
AcDbLine
 10
4150.590847887129
 20
3269.433310273389
 30
0.0
 11
4189.890847887129
 21
3269.433310273389
 31
0.0
  0
LINE
  5
7CB1
330
827E
100
AcDbEntity
  8
1
100
AcDbLine
 10
5442.890847887127
 20
3255.73331027339
 30
0.0
 11
5442.890847887127
 21
3155.733310273391
 31
0.0
  0
LINE
  5
7CB2
330
827E
100
AcDbEntity
  8
1
100
AcDbLine
 10
5342.390847887129
 20
3265.73331027339
 30
0.0
 11
5342.390847887129
 21
3145.73331027339
 31
0.0
  0
LINE
  5
7CB3
330
827E
100
AcDbEntity
  8
1
100
AcDbLine
 10
5342.390847887129
 20
3265.73331027339
 30
0.0
 11
5375.190847887129
 21
3265.73331027339
 31
0.0
  0
LINE
  5
7CB4
330
827E
100
AcDbEntity
  8
1
100
AcDbLine
 10
5342.390847887129
 20
3145.73331027339
 30
0.0
 11
5375.190847887129
 21
3145.73331027339
 31
0.0
  0
ARC
  5
7CB5
330
827E
100
AcDbEntity
  8
1
100
AcDbCircle
 10
5432.890847887128
 20
3255.73331027339
 30
0.0
 40
10.0
100
AcDbArc
 50
0.0000000000003257
 51
90.0
  0
ARC
  5
7CB6
330
827E
100
AcDbEntity
  8
1
100
AcDbCircle
 10
5432.890847887128
 20
3155.733310273391
 30
0.0
 40
10.0
100
AcDbArc
 50
270.0
 51
0.0000000000003257
  0
LINE
  5
7CB7
330
827E
100
AcDbEntity
  8
1
100
AcDbLine
 10
5375.190847887129
 20
3145.73331027339
 30
0.0
 11
5432.890847887128
 21
3145.73331027339
 31
0.0
  0
LINE
  5
7CB8
330
827E
100
AcDbEntity
  8
1
100
AcDbLine
 10
5375.190847887129
 20
3265.73331027339
 30
0.0
 11
5432.890847887128
 21
3265.73331027339
 31
0.0
  0
LINE
  5
7CB9
330
827E
100
AcDbEntity
  8
1
100
AcDbLine
 10
4049.890847887129
 20
3325.233310273389
 30
0.0
 11
4049.890847887129
 21
3265.233310273389
 31
0.0
  0
LINE
  5
7CBA
330
827E
100
AcDbEntity
  8
1
100
AcDbLine
 10
4044.890847887129
 20
3322.73331027339
 30
0.0
 11
4049.890847887129
 21
3322.73331027339
 31
0.0
  0
LINE
  5
7CBB
330
827E
100
AcDbEntity
  8
1
100
AcDbLine
 10
4044.890847887129
 20
3267.733310273391
 30
0.0
 11
4049.890847887129
 21
3267.733310273391
 31
0.0
  0
LINE
  5
7CBC
330
827E
100
AcDbEntity
  8
1
100
AcDbLine
 10
3934.89084788713
 20
3498.433310273389
 30
0.0
 11
3934.890847887121
 21
2451.233310273389
 31
0.0
  0
LINE
  5
7CBD
330
827E
100
AcDbEntity
  8
1
100
AcDbLine
 10
4044.890847887129
 20
3498.433310273389
 30
0.0
 11
4044.890847887121
 21
2451.233310273389
 31
0.0
  0
LINE
  5
7CBE
330
827E
100
AcDbEntity
  8
2
100
AcDbLine
 10
3902.246755419798
 20
2570.233310273389
 30
0.0
 11
4406.078365778554
 21
2570.233310273389
 31
0.0
  0
LINE
  5
7CBF
330
827E
100
AcDbEntity
  8
1
100
AcDbLine
 10
3934.890847887127
 20
2689.233310273389
 30
0.0
 11
4044.890847887127
 21
2689.233310273389
 31
0.0
  0
LINE
  5
7CC0
330
827E
100
AcDbEntity
  8
1
100
AcDbLine
 10
3934.890847887125
 20
2451.233310273389
 30
0.0
 11
4044.890847887125
 21
2451.233310273389
 31
0.0
  0
LINE
  5
7CC1
330
827E
100
AcDbEntity
  8
1
100
AcDbLine
 10
3812.890847887127
 20
3575.233310273389
 30
0.0
 11
3812.890847887135
 21
2350.233310273389
 31
0.0
  0
LINE
  5
7CC2
330
827E
100
AcDbEntity
  8
1
100
AcDbLine
 10
3812.890847887131
 20
2350.233310273389
 30
0.0
 11
4064.890847887133
 21
2350.233310273389
 31
0.0
  0
LINE
  5
7CC3
330
827E
100
AcDbEntity
  8
1
100
AcDbLine
 10
4064.890847887124
 20
3575.233310273389
 30
0.0
 11
4064.890847887125
 21
3555.23331027339
 31
0.0
  0
LINE
  5
7CC4
330
827E
100
AcDbEntity
  8
1
100
AcDbLine
 10
4064.890847887132
 20
2370.233310273389
 30
0.0
 11
4064.890847887132
 21
2350.23331027339
 31
0.0
  0
POINT
  5
7CC5
330
827E
100
AcDbEntity
  8
1
100
AcDbPoint
 10
5442.890847887127
 20
3255.73331027339
 30
0.0
  0
LINE
  5
7CC6
330
827E
100
AcDbEntity
  8
2
100
AcDbLine
 10
678.029584787244
 20
5774.427760698952
 30
0.0
 11
2821.263589865146
 21
5774.427760698952
 31
0.0
  0
LINE
  5
7CC7
330
827E
100
AcDbEntity
  8
2
100
AcDbLine
 10
2147.90151215215
 20
4773.169051944666
 30
0.0
 11
2147.90151215215
 21
6308.93614357028
 31
0.0
  0
INSERT
  5
7CC8
330
827E
100
AcDbEntity
  8
0
100
AcDbBlockReference
  2
YA_N
 10
1902.396177633552
 20
-2784.746590060132
 30
0.0
  0
LINE
  5
7CCA
330
827E
100
AcDbEntity
  8
1
100
AcDbLine
 10
5375.890847887129
 20
2200.764815344057
 30
0.0
 11
5375.890847887129
 21
2195.23331027339
 31
0.0
  0
LINE
  5
7CCB
330
827E
100
AcDbEntity
  8
1
100
AcDbLine
 10
4000.890847887129
 20
1990.23331027339
 30
0.0
 11
5375.890847887129
 21
1990.23331027339
 31
0.0
1001
ACAD
1000
ASC_BOUNDS
1002
{
1070
    19
1002
}
  0
LINE
  5
7CCC
330
827E
100
AcDbEntity
  8
1
100
AcDbLine
 10
5375.890847887129
 20
2090.23331027339
 30
0.0
 11
5375.890847887129
 21
1990.23331027339
 31
0.0
  0
LINE
  5
7CD0
330
827E
100
AcDbEntity
  8
1
100
AcDbLine
 10
4049.890847887129
 20
3325.233310273389
 30
0.0
 11
4202.890847887129
 21
3325.233310273389
 31
0.0
  0
LINE
  5
7CD1
330
827E
100
AcDbEntity
  8
1
100
AcDbLine
 10
4049.890847887129
 20
3265.233310273389
 30
0.0
 11
4066.744683145361
 21
3265.233310273389
 31
0.0
  0
LINE
  5
7CD2
330
827E
100
AcDbEntity
  8
1
100
AcDbLine
 10
837.9015121521478
 20
1990.23331027339
 30
0.0
 11
2707.901512152149
 21
1990.23331027339
 31
0.0
1001
ACAD
1000
ASC_BOUNDS
1002
{
1070
    19
1002
}
  0
POINT
  5
7CD6
330
827E
100
AcDbEntity
  8
1
100
AcDbPoint
 10
2707.901512152149
 20
2090.23331027339
 30
0.0
  0
POINT
  5
7CD7
330
827E
100
AcDbEntity
  8
1
100
AcDbPoint
 10
2707.901512152149
 20
1990.23331027339
 30
0.0
  0
POINT
  5
7CD8
330
827E
100
AcDbEntity
  8
1
100
AcDbPoint
 10
2707.901512152149
 20
2090.23331027339
 30
0.0
  0
POINT
  5
7CD9
330
827E
100
AcDbEntity
  8
1
100
AcDbPoint
 10
2707.901512152149
 20
2195.23331027339
 30
0.0
  0
ARC
  5
7CDA
330
827E
100
AcDbEntity
  8
1
100
AcDbCircle
 10
2147.901512152148
 20
3295.233310273391
 30
0.0
 40
536.0
100
AcDbArc
 50
356.1488768735023
 51
0.0
  0
CIRCLE
  5
7CDB
330
827E
100
AcDbEntity
  8
1
100
AcDbCircle
 10
2147.901512152148
 20
3295.233310273391
 30
0.0
 40
203.2
  0
ARC
  5
7CDC
330
827E
100
AcDbEntity
  8
1
100
AcDbCircle
 10
2147.901512152148
 20
3295.233310273391
 30
0.0
 40
280.0
100
AcDbArc
 50
301.6927691141284
 51
127.8941718121952
  0
ARC
  5
7CDD
330
827E
100
AcDbEntity
  8
1
100
AcDbCircle
 10
1087.901512152148
 20
2570.233310273389
 30
0.0
 40
220.0
100
AcDbArc
 50
127.0485407364137
 51
301.6927691141284
  0
LINE
  5
7CDE
330
827E
100
AcDbEntity
  8
1
100
AcDbLine
 10
3934.89084788713
 20
3498.433310273389
 30
0.0
 11
4044.890847887129
 21
3498.433310273389
 31
0.0
  0
LINE
  5
7CDF
330
827E
100
AcDbEntity
  8
1
100
AcDbLine
 10
3934.890847887127
 20
3092.03331027339
 30
0.0
 11
4044.890847887127
 21
3092.03331027339
 31
0.0
  0
LINE
  5
7CE0
330
827E
100
AcDbEntity
  8
1
100
AcDbLine
 10
3812.890847887127
 20
3575.233310273389
 30
0.0
 11
4064.890847887124
 21
3575.233310273389
 31
0.0
  0
DIMENSION
  5
7CE1
330
827E
100
AcDbEntity
  8
3
100
AcDbDimension
  2
*D6
 10
5322.890847887129
 20
4131.425263807017
 30
0.0
 11
4762.890847887129
 21
4191.425263807017
 31
0.0
 12
1298.085019275666
 22
3015.055214858927
 32
0.0
 71
     5
 42
-1.0
  3
Standard
100
AcDbAlignedDimension
 13
4202.890847887129
 23
3907.691894488698
 33
0.0
 14
5322.890847887129
 24
3910.735287826426
 34
0.0
100
AcDbRotatedDimension
1001
ACAD
1000
DSTYLE
1002
{
1070
    40
1040
30.0
1002
}
  0
LINE
  5
7CE5
330
827E
100
AcDbEntity
  8
1
100
AcDbLine
 10
1587.901512152149
 20
6387.427760698954
 30
0.0
 11
2707.901512152149
 21
6387.427760698953
 31
0.0
  0
LINE
  5
7CE6
330
827E
100
AcDbEntity
  8
1
100
AcDbLine
 10
837.9015121521499
 20
5012.427760698954
 30
0.0
 11
2707.901512152149
 21
5012.427760698954
 31
0.0
  0
LINE
  5
7CE7
330
827E
100
AcDbEntity
  8
1
100
AcDbLine
 10
2707.901512152149
 20
5012.427760698954
 30
0.0
 11
2707.901512152149
 21
5214.427760698953
 31
0.0
  0
LINE
  5
7CE8
330
827E
100
AcDbEntity
  8
1
100
AcDbLine
 10
1587.901512152149
 20
6334.427760698953
 30
0.0
 11
1587.901512152149
 21
6387.427760698953
 31
0.0
  0
LINE
  5
7CE9
330
827E
100
AcDbEntity
  8
1
100
AcDbLine
 10
837.9015121521486
 20
5012.427760698954
 30
0.0
 11
837.9015121521499
 21
5812.427760698954
 31
0.0
  0
LINE
  5
7CEA
330
827E
100
AcDbEntity
  8
1
100
AcDbLine
 10
837.9015121521499
 20
5812.427760698953
 30
0.0
 11
1370.901512152149
 21
5812.427760698954
 31
0.0
  0
LINE
  5
7CEB
330
827E
100
AcDbEntity
  8
2
100
AcDbLine
 10
1087.901512152149
 20
4699.852220520106
 30
0.0
 11
1087.901512152149
 21
5604.526103265165
 31
0.0
  0
DIMENSION
  5
7CEC
330
827E
100
AcDbEntity
  8
3
100
AcDbDimension
  2
*D10
 10
1587.901512152149
 20
6689.442419204175
 30
0.0
 11
1212.901512152149
 21
6749.442419204175
 31
0.0
 12
1490.255412532223
 22
2397.613349665131
 32
0.0
 71
     5
 42
-1.0
  3
Standard
100
AcDbAlignedDimension
 13
837.9015121521499
 23
5812.427760698954
 33
0.0
 14
1587.901512152149
 24
6387.427760698954
 34
0.0
100
AcDbRotatedDimension
1001
ACAD
1000
DSTYLE
1002
{
1070
    40
1040
30.0
1002
}
  0
DIMENSION
  5
7CED
330
827E
100
AcDbEntity
  8
3
100
AcDbDimension
  2
*D11
 10
2707.901512152149
 20
6689.442419204175
 30
0.0
 11
2147.90151215215
 21
6749.442419204175
 31
0.0
 12
1490.255412532223
 22
2397.613349665131
 32
0.0
 71
     5
 42
-1.0
  3
Standard
100
AcDbAlignedDimension
 13
1587.901512152149
 23
6387.427760698954
 33
0.0
 14
2707.901512152149
 24
6387.427760698953
 34
0.0
100
AcDbRotatedDimension
1001
ACAD
1000
DSTYLE
1002
{
1070
    40
1040
30.0
1002
}
  0
DIMENSION
  5
7CEE
330
827E
100
AcDbEntity
  8
3
100
AcDbDimension
  2
*D12
 10
3008.325734318565
 20
5012.427760698954
 30
0.0
 11
2948.325734318565
 21
5699.927760698953
 31
0.0
 12
1490.255412532223
 22
2397.613349665131
 32
0.0
 71
     5
 42
-1.0
  3
Standard
100
AcDbAlignedDimension
 13
2707.901512152149
 23
6387.427760698953
 33
0.0
 14
2707.901512152149
 24
5012.427760698954
 34
0.0
 50
90.0
100
AcDbRotatedDimension
1001
ACAD
1000
DSTYLE
1002
{
1070
    40
1040
30.0
1002
}
  0
DIMENSION
  5
7CEF
330
827E
100
AcDbEntity
  8
3
100
AcDbDimension
  2
*D39
 10
2707.901512152149
 20
4615.28060121688
 30
0.0
 11
1772.90151215215
 21
4615.28060121688
 31
0.0
 70
   160
 71
     5
 42
1869.999999999999
  3
Standard
100
AcDbAlignedDimension
 13
837.9015121521499
 23
5012.427760698954
 33
0.0
 14
2707.901512152149
 24
5012.427760698954
 34
0.0
100
AcDbRotatedDimension
1001
ACAD
1000
DSTYLE
1002
{
1070
    40
1040
30.0
1002
}
  0
DIMENSION
  5
7CF0
330
827E
100
AcDbEntity
  8
3
100
AcDbDimension
  2
*D14
 10
537.1608057655248
 20
5012.427760698954
 30
0.0
 11
477.1608057655249
 21
5412.427760698953
 31
0.0
 12
1490.255412532223
 22
2397.613349665131
 32
0.0
 71
     5
 42
-1.0
  3
Standard
100
AcDbAlignedDimension
 13
837.9015121521499
 23
5812.427760698954
 33
0.0
 14
837.9015121521499
 24
5012.427760698954
 34
0.0
 50
90.0
100
AcDbRotatedDimension
1001
ACAD
1000
DSTYLE
1002
{
1070
    40
1040
30.0
1002
}
  0
DIMENSION
  5
7CF1
330
827E
100
AcDbEntity
  8
3
100
AcDbDimension
  2
*D15
 10
5646.781841715262
 20
3770.233310273391
 30
0.0
 11
5646.781841715262
 21
3295.233310273391
 31
0.0
 12
1298.085019275666
 22
3015.055214858927
 32
0.0
 70
   128
  1
\U+03C6<>
 71
     5
 42
-1.0
  3
Standard
100
AcDbAlignedDimension
 13
5328.390847887129
 23
2820.23331027339
 33
0.0
 14
5328.390847887129
 24
3770.233310273391
 34
0.0
 50
90.0
100
AcDbRotatedDimension
1001
ACAD
1000
DSTYLE
1002
{
1070
    40
1040
30.0
1002
}
  0
CIRCLE
  5
7CF2
330
827E
100
AcDbEntity
  8
1
100
AcDbCircle
 10
2147.901512152148
 20
3295.233310273391
 30
0.0
 40
475.0
  0
CIRCLE
  5
7CF3
330
827E
100
AcDbEntity
  8
1
100
AcDbCircle
 10
2147.901512152148
 20
3295.233310273391
 30
0.0
 40
515.0
  0
LINE
  5
7CF4
330
827E
100
AcDbEntity
  8
1
100
AcDbLine
 10
4000.890847887119
 20
2090.23331027339
 30
0.0
 11
4000.890847887109
 21
1990.23331027339
 31
0.0
  0
LINE
  5
7CF5
330
827E
100
AcDbEntity
  8
1
100
AcDbLine
 10
867.9015121521477
 20
4824.427760698953
 30
0.0
 11
2427.901512152148
 21
4824.427760698952
 31
0.0
  0
LINE
  5
7CF6
330
827E
100
AcDbEntity
  8
1
100
AcDbLine
 10
867.9015121521477
 20
5114.427760698955
 30
0.0
 11
2427.901512152148
 21
5114.427760698951
 31
0.0
  0
LINE
  5
7CF7
330
827E
100
AcDbEntity
  8
1
100
AcDbLine
 10
968.9015121521476
 20
4984.427760698953
 30
0.0
 11
1206.901512152148
 21
4984.427760698953
 31
0.0
  0
LINE
  5
7CF8
330
827E
100
AcDbEntity
  8
1
100
AcDbLine
 10
968.9015121521476
 20
5094.427760698954
 30
0.0
 11
1206.901512152148
 21
5094.427760698954
 31
0.0
  0
LINE
  5
7CF9
330
827E
100
AcDbEntity
  8
1
100
AcDbLine
 10
2427.901512152148
 20
4824.427760698952
 30
0.0
 11
2427.901512152148
 21
5114.427760698951
 31
0.0
  0
LINE
  5
7CFA
330
827E
100
AcDbEntity
  8
1
100
AcDbLine
 10
867.9015121521477
 20
4824.427760698953
 30
0.0
 11
867.9015121521477
 21
5114.427760698955
 31
0.0
  0
LINE
  5
7CFB
330
827E
100
AcDbEntity
  8
1
100
AcDbLine
 10
2351.101512152147
 20
4984.427760698952
 30
0.0
 11
2351.101512152147
 21
5094.427760698954
 31
0.0
  0
LINE
  5
7CFC
330
827E
100
AcDbEntity
  8
1
100
AcDbLine
 10
1944.701512152148
 20
4984.427760698952
 30
0.0
 11
1944.701512152148
 21
5094.427760698954
 31
0.0
  0
LINE
  5
7CFD
330
827E
100
AcDbEntity
  8
1
100
AcDbLine
 10
1206.901512152148
 20
4984.427760698952
 30
0.0
 11
1206.901512152148
 21
5094.427760698954
 31
0.0
  0
LINE
  5
7CFE
330
827E
100
AcDbEntity
  8
1
100
AcDbLine
 10
968.9015121521476
 20
4984.427760698953
 30
0.0
 11
968.9015121521476
 21
5094.427760698954
 31
0.0
  0
LINE
  5
7CFF
330
827E
100
AcDbEntity
  8
1
100
AcDbLine
 10
1944.701512152148
 20
5094.427760698954
 30
0.0
 11
2351.101512152147
 21
5094.427760698954
 31
0.0
  0
LINE
  5
7D00
330
827E
100
AcDbEntity
  8
1
100
AcDbLine
 10
1944.701512152148
 20
4984.427760698953
 30
0.0
 11
2351.101512152147
 21
4984.427760698952
 31
0.0
  0
LINE
  5
7D01
330
827E
100
AcDbEntity
  8
1
100
AcDbLine
 10
2767.90151215215
 20
5174.427760698954
 30
0.0
 11
2767.90151215215
 21
6374.427760698953
 31
0.0
  0
LINE
  5
7D02
330
827E
100
AcDbEntity
  8
1
100
AcDbLine
 10
1370.901512152149
 20
5214.427760698953
 30
0.0
 11
1370.901512152149
 21
6334.427760698954
 31
0.0
  0
LINE
  5
7D03
330
827E
100
AcDbEntity
  8
1
100
AcDbLine
 10
1370.901512152149
 20
6334.427760698953
 30
0.0
 11
2767.90151215215
 21
6334.427760698953
 31
0.0
  0
LINE
  5
7D04
330
827E
100
AcDbEntity
  8
1
100
AcDbLine
 10
1370.901512152149
 20
5214.427760698953
 30
0.0
 11
2767.90151215215
 21
5214.427760698953
 31
0.0
  0
LINE
  5
7D05
330
827E
100
AcDbEntity
  8
1
100
AcDbLine
 10
905.4015121521498
 20
5660.927760698953
 30
0.0
 11
1270.401512152149
 21
5660.927760698957
 31
0.0
  0
LINE
  5
7D06
330
827E
100
AcDbEntity
  8
1
100
AcDbLine
 10
1270.401512152149
 20
5099.427760698953
 30
0.0
 11
1270.401512152149
 21
5660.927760698953
 31
0.0
  0
LINE
  5
7D07
330
827E
100
AcDbEntity
  8
1
100
AcDbLine
 10
905.4015121521498
 20
5099.427760698953
 30
0.0
 11
905.4015121521498
 21
5660.927760698953
 31
0.0
  0
LINE
  5
7D08
330
827E
100
AcDbEntity
  8
1
100
AcDbLine
 10
905.4015121521498
 20
5099.427760698953
 30
0.0
 11
1270.401512152149
 21
5099.427760698955
 31
0.0
  0
LINE
  5
7D09
330
827E
100
AcDbEntity
  8
1
100
AcDbLine
 10
1111.901512152149
 20
5094.427760698954
 30
0.0
 11
1111.901512152149
 21
5099.427760698953
 31
0.0
  0
LINE
  5
7D0A
330
827E
100
AcDbEntity
  8
1
100
AcDbLine
 10
1063.901512152149
 20
5094.427760698954
 30
0.0
 11
1063.901512152149
 21
5099.427760698953
 31
0.0
  0
LINE
  5
7D0B
330
827E
100
AcDbEntity
  8
1
100
AcDbLine
 10
2177.901512152149
 20
5094.427760698954
 30
0.0
 11
2177.901512152149
 21
5214.427760698953
 31
0.0
  0
LINE
  5
7D0C
330
827E
100
AcDbEntity
  8
1
100
AcDbLine
 10
2117.901512152149
 20
5094.427760698954
 30
0.0
 11
2117.901512152149
 21
5214.427760698953
 31
0.0
  0
LINE
  5
7D0D
330
827E
100
AcDbEntity
  8
1
100
AcDbLine
 10
4049.890847887127
 20
2752.733310273391
 30
0.0
 11
4202.890847887129
 21
2752.733310273391
 31
0.0
  0
LINE
  5
7D0E
330
827E
100
AcDbEntity
  8
1
100
AcDbLine
 10
4049.890847887127
 20
2387.733310273391
 30
0.0
 11
4202.890847887129
 21
2387.733310273391
 31
0.0
  0
LINE
  5
7D0F
330
827E
100
AcDbEntity
  8
1
100
AcDbLine
 10
4049.890847887127
 20
2752.73331027339
 30
0.0
 11
4049.890847887127
 21
2387.733310273391
 31
0.0
  0
LINE
  5
7D10
330
827E
100
AcDbEntity
  8
1
100
AcDbLine
 10
4044.890847887127
 20
2594.23331027339
 30
0.0
 11
4049.890847887127
 21
2594.23331027339
 31
0.0
  0
LINE
  5
7D11
330
827E
100
AcDbEntity
  8
1
100
AcDbLine
 10
4044.890847887127
 20
2546.23331027339
 30
0.0
 11
4049.890847887127
 21
2546.23331027339
 31
0.0
  0
LINE
  5
7D18
330
827E
100
AcDbEntity
  8
1
100
AcDbLine
 10
2707.901512152149
 20
6334.427760698953
 30
0.0
 11
2707.901512152149
 21
6387.427760698953
 31
0.0
  0
LINE
  5
7D19
330
827E
100
AcDbEntity
  8
1
100
AcDbLine
 10
1979.203918011536
 20
3518.708413430697
 30
0.0
 11
955.3534024702388
 21
2745.82089132556
 31
0.0
  0
LINE
  5
7D1A
330
827E
100
AcDbEntity
  8
1
100
AcDbLine
 10
2295.003508360397
 20
3056.987633058569
 30
0.0
 11
1203.481652030058
 21
2383.040278176031
 31
0.0
  0
LINE
  5
7D1B
330
827E
100
AcDbEntity
  8
1
100
AcDbLine
 10
2022.436252824562
 20
3455.072944600619
 30
0.0
 11
1014.425302211288
 21
2663.840182738645
 31
0.0
  0
LINE
  5
7D1C
330
827E
100
AcDbEntity
  8
1
100
AcDbLine
 10
2251.373403200692
 20
3120.351041981725
 30
0.0
 11
1148.497747559514
 21
2467.817021263999
 31
0.0
  0
DIMENSION
  5
7D1D
330
827E
100
AcDbEntity
  8
3
100
AcDbDimension
  2
*D16
 10
2147.901512152148
 20
4204.126846417155
 30
0.0
 11
2457.901512152147
 21
4264.126846417155
 31
0.0
 12
1490.255412532223
 22
3015.055214858927
 32
0.0
 71
     5
 42
-1.0
  3
Standard
100
AcDbAlignedDimension
 13
2767.901512152148
 23
3301.73331027339
 33
0.0
 14
2147.901512152148
 24
3985.320184906001
 34
0.0
100
AcDbRotatedDimension
1001
ACAD
1000
DSTYLE
1002
{
1070
    40
1040
30.0
1002
}
  0
DIMENSION
  5
7D1F
330
827E
100
AcDbEntity
  8
3
100
AcDbDimension
  2
*D18
 10
837.9015121521499
 20
4400.298336047845
 30
0.0
 11
1802.901512152148
 21
4460.298336047848
 31
0.0
 12
1490.255412532223
 22
3015.055214858927
 32
0.0
 71
     5
 42
-1.0
  3
Standard
100
AcDbAlignedDimension
 13
2767.901512152148
 23
3259.233310273391
 33
0.0
 14
837.9015121521499
 24
2295.233310273389
 34
0.0
100
AcDbRotatedDimension
1001
ACAD
1000
DSTYLE
1002
{
1070
    40
1040
30.0
1002
}
  0
DIMENSION
  5
7D20
330
827E
100
AcDbEntity
  8
3
100
AcDbDimension
  2
*D19
 10
3259.585489877208
 20
3295.233310273391
 30
0.0
 11
3199.585489877208
 21
3616.733310273391
 31
0.0
 12
1490.255412532223
 22
3015.055214858927
 32
0.0
 71
     5
 42
-1.0
  3
Standard
100
AcDbAlignedDimension
 13
2080.901512152148
 23
3938.233310273391
 33
0.0
 14
2834.156850930694
 24
3295.233310273391
 34
0.0
 50
90.0
100
AcDbRotatedDimension
1001
ACAD
1000
DSTYLE
1002
{
1070
    40
1040
30.0
1002
}
  0
LINE
  5
7D25
330
827E
100
AcDbEntity
  8
1
100
AcDbLine
 10
4202.890847887129
 20
2334.233310273389
 30
0.0
 11
5322.890847887129
 21
2334.233310273389
 31
0.0
  0
LINE
  5
7D26
330
827E
100
AcDbEntity
  8
1
100
AcDbLine
 10
4202.890847887129
 20
3259.233310273391
 30
0.0
 11
5322.890847887129
 21
3259.233310273391
 31
0.0
  0
LINE
  5
7D27
330
827E
100
AcDbEntity
  8
1
100
AcDbLine
 10
5322.890847887129
 20
3259.233310273391
 30
0.0
 11
4202.890847887129
 21
2334.233310273389
 31
0.0
  0
LINE
  5
7D28
330
827E
100
AcDbEntity
  8
1
100
AcDbLine
 10
4202.890847887129
 20
3259.233310273391
 30
0.0
 11
5322.890847887129
 21
2334.233310273389
 31
0.0
  0
LINE
  5
7D29
330
827E
100
AcDbEntity
  8
1
100
AcDbLine
 10
2764.90151215215
 20
6374.427760698953
 30
0.0
 11
2767.90151215215
 21
6374.427760698953
 31
0.0
  0
LINE
  5
7D2A
330
827E
100
AcDbEntity
  8
1
100
AcDbLine
 10
2764.90151215215
 20
5174.427760698954
 30
0.0
 11
2767.90151215215
 21
5174.427760698954
 31
0.0
  0
LINE
  5
7D2B
330
827E
100
AcDbEntity
  8
1
100
AcDbLine
 10
2764.90151215215
 20
5174.427760698954
 30
0.0
 11
2764.90151215215
 21
6374.427760698953
 31
0.0
  0
LINE
  5
7F83
330
827E
100
AcDbEntity
  8
4
100
AcDbLine
 10
5550.0
 20
1500.0
 30
0.0
 11
5550.0
 21
900.0
 31
0.0
  0
LINE
  5
7F84
330
827E
100
AcDbEntity
  8
4
100
AcDbLine
 10
3450.0
 20
1500.0
 30
0.0
 11
3450.0
 21
900.0
 31
0.0
  0
LINE
  5
7F85
330
827E
100
AcDbEntity
  8
4
100
AcDbLine
 10
1950.0
 20
1500.0
 30
0.0
 11
1950.0
 21
900.0
 31
0.0
  0
LINE
  5
7F88
330
827E
100
AcDbEntity
  8
4
100
AcDbLine
 10
1950.0
 20
900.0
 30
0.0
 11
5550.0
 21
900.0
 31
0.0
  0
LINE
  5
7F89
330
827E
100
AcDbEntity
  8
4
100
AcDbLine
 10
1950.0
 20
1200.0
 30
0.0
 11
5550.0
 21
1200.0
 31
0.0
  0
TEXT
  5
7F8A
330
827E
100
AcDbEntity
  8
4
100
AcDbText
 10
2065.506242540704
 20
1294.629077599838
 30
0.0
 40
150.0
  1
機器名称
100
AcDbText
  0
TEXT
  5
7F8B
330
827E
100
AcDbEntity
  8
4
100
AcDbText
 10
2058.774318074392
 20
964.9354701960326
 30
0.0
 40
150.0
  1
機器型番
100
AcDbText
  0
TEXT
  5
7F8C
330
827E
100
AcDbEntity
  8
4
100
AcDbText
 10
3533.036236462995
 20
1267.715306872705
 30
0.0
 40
150.0
  1
ミツヤ多翼送風機
100
AcDbText
  0
TEXT
  5
7F8D
330
827E
100
AcDbEntity
  8
4
100
AcDbText
 10
3559.963486756442
 20
951.4787528398301
 30
0.0
 40
150.0
  1
MF#5 1/2-5
100
AcDbText
  0
TEXT
  5
7F8F
330
827E
100
AcDbEntity
  8
4
100
AcDbText
 10
2381.689729328609
 20
7150.286523997547
 30
0.0
 40
161.9999999999998
  1
床置防振ベット
100
AcDbText
  0
TEXT
  5
7F90
330
827E
100
AcDbEntity
  8
4
100
AcDbText
 10
948.5027799883393
 20
7601.642928597894
 30
0.0
 40
216.0
  1
遠心式両吸込両持多翼ファン
100
AcDbText
  0
LINE
  5
7F91
330
827E
100
AcDbEntity
  8
4
100
AcDbLine
 10
750.0
 20
7408.226262794413
 30
0.0
 11
5550.0
 21
7408.226262794413
 31
0.0
  0
LINE
  5
7F92
330
827E
100
AcDbEntity
  8
4
100
AcDbLine
 10
750.0
 20
8008.226262794414
 30
0.0
 11
5550.0
 21
8008.226262794414
 31
0.0
  0
LINE
  5
7F93
330
827E
100
AcDbEntity
  8
4
100
AcDbLine
 10
1950.0
 20
1500.0
 30
0.0
 11
5550.0
 21
1500.0
 31
0.0
  0
LINE
  5
7F94
330
827E
100
AcDbEntity
  8
4
100
AcDbLine
 10
750.0
 20
8008.226262794414
 30
0.0
 11
750.0
 21
7408.226262794413
 31
0.0
  0
TEXT
  5
7F95
330
827E
100
AcDbEntity
  8
4
100
AcDbText
 10
1074.113232600502
 20
7146.958432639029
 30
0.0
 40
161.9999999999998
  1
左回転右横向
100
AcDbText
  0
TEXT
  5
7F96
330
827E
100
AcDbEntity
  8
4
100
AcDbText
 10
4406.908677747869
 20
8118.183244485924
 30
0.0
 40
168.0
  1
No.
100
AcDbText
  0
TEXT
  5
7F97
330
827E
100
AcDbEntity
  8
4
100
AcDbText
 10
3933.888187800039
 20
7150.286523997547
 30
0.0
 40
161.9999999999998
  1
縮尺：1/30
100
AcDbText
  0
LINE
  5
7F98
330
827E
100
AcDbEntity
  8
4
100
AcDbLine
 10
5550.0
 20
8008.226262794414
 30
0.0
 11
5550.0
 21
7408.226262794413
 31
0.0
  0
LINE
  5
7F99
330
827E
100
AcDbEntity
  8
4
100
AcDbLine
 10
6300.0
 20
8850.0
 30
0.0
 11
6300.0
 21
8850.0
 31
0.0
  0
LINE
  5
7F9A
330
827E
100
AcDbEntity
  8
4
100
AcDbLine
 10
4321.852267079594
 20
8043.790749376205
 30
0.0
 11
4321.852267079594
 21
8359.956784649257
 31
0.0
  0
LINE
  5
7F9B
330
827E
100
AcDbEntity
  8
4
100
AcDbLine
 10
4321.852267079594
 20
8359.956784649257
 30
0.0
 11
5550.0
 21
8359.956784649257
 31
0.0
  0
LINE
  5
7F9C
330
827E
100
AcDbEntity
  8
4
100
AcDbLine
 10
5550.0
 20
8359.956784649257
 30
0.0
 11
5550.0
 21
8043.790749376205
 31
0.0
  0
LINE
  5
7F9D
330
827E
100
AcDbEntity
  8
4
100
AcDbLine
 10
5550.0
 20
8043.790749376205
 30
0.0
 11
4321.852267079594
 21
8043.790749376205
 31
0.0
  0
LINE
  5
7F9E
330
827E
100
AcDbEntity
  8
4
100
AcDbLine
 10
0.0
 20
0.0
 30
0.0
 11
0.0
 21
8850.0
 31
0.0
  0
LINE
  5
7F9F
330
827E
100
AcDbEntity
  8
4
100
AcDbLine
 10
0.0
 20
8850.0
 30
0.0
 11
6300.0
 21
8850.0
 31
0.0
  0
LINE
  5
7FA0
330
827E
100
AcDbEntity
  8
4
100
AcDbLine
 10
6300.0
 20
8850.0
 30
0.0
 11
6300.0
 21
0.0
 31
0.0
  0
LINE
  5
7FA1
330
827E
100
AcDbEntity
  8
4
100
AcDbLine
 10
6300.0
 20
0.0
 30
0.0
 11
0.0
 21
0.0
 31
0.0
  0
DIMENSION
  5
82CB
330
827E
100
AcDbEntity
  8
3
100
AcDbDimension
  2
*D30
 10
4762.89084788713
 20
4402.478274236015
 30
0.0
 11
4287.890847887129
 21
4501.049702807443
 31
0.0
 70
    32
 71
     5
 42
950.0000000000026
  3
IGA
100
AcDbAlignedDimension
 13
3812.890847887127
 23
3575.233310273389
 33
0.0
 14
4762.89084788713
 24
4236.425263807017
 34
0.0
100
AcDbRotatedDimension
1001
ACAD
1000
DSTYLE
1002
{
1070
     3
1000
(<>)
1070
    40
1040
30.0
1070
    42
1040
1.0
1070
   143
1040
0.039
1070
   172
1070
     1
1070
   271
1070
     4
1070
   272
1070
     4
1070
   279
1070
     0
1070
   284
1070
     0
1070
   285
1070
     0
1070
   286
1070
     0
1070
   341
1005
8292
1070
   343
1005
8292
1070
   344
1005
8292
1002
}
  0
DIMENSION
  5
82D8
330
827E
100
AcDbEntity
  8
3
100
AcDbDimension
  2
*D31
 10
5442.890847887127
 20
4402.478274236015
 30
0.0
 11
5102.890847887129
 21
4501.049702807443
 31
0.0
 70
    32
 71
     5
 42
679.9999999999973
  3
IGA
100
AcDbAlignedDimension
 13
4762.89084788713
 23
4236.425263807017
 33
0.0
 14
5442.890847887127
 24
3255.73331027339
 34
0.0
100
AcDbRotatedDimension
1001
ACAD
1000
DSTYLE
1002
{
1070
     3
1000
(<>)
1070
    40
1040
30.0
1070
    42
1040
1.0
1070
   143
1040
0.039
1070
   172
1070
     1
1070
   271
1070
     4
1070
   272
1070
     4
1070
   279
1070
     1
1070
   284
1070
     0
1070
   285
1070
     0
1070
   286
1070
     0
1070
   341
1005
8292
1070
   343
1005
8292
1070
   344
1005
8292
1002
}
  0
DIMENSION
  5
8372
330
827E
100
AcDbEntity
  8
3
100
AcDbDimension
  2
*D40
 10
4762.890847887128
 20
1797.490397878904
 30
0.0
 11
4381.890847887119
 21
1872.490397878904
 31
0.0
 70
    32
 71
     5
 42
762.0000000000186
  3
IGA
100
AcDbAlignedDimension
 13
4000.890847887109
 23
1990.23331027339
 33
0.0
 14
4762.890847887128
 24
1990.23331027339
 34
0.0
100
AcDbRotatedDimension
1001
ACAD
1000
DSTYLE
1002
{
1070
    40
1040
30.0
1070
    42
1040
1.0
1070
   143
1040
0.039
1070
   172
1070
     1
1070
   271
1070
     4
1070
   272
1070
     4
1070
   279
1070
     0
1070
   284
1070
     0
1070
   285
1070
     0
1070
   286
1070
     0
1070
   341
1005
8292
1070
   343
1005
8292
1070
   344
1005
8292
1002
}
  0
DIMENSION
  5
837F
330
827E
100
AcDbEntity
  8
3
100
AcDbDimension
  2
*D41
 10
5375.890847887129
 20
1797.490397878904
 30
0.0
 11
5069.390847887129
 21
1872.490397878904
 31
0.0
 70
    32
 71
     5
 42
613.0000000000009
  3
IGA
100
AcDbAlignedDimension
 13
4762.890847887128
 23
1990.23331027339
 33
0.0
 14
5375.890847887129
 24
1990.23331027339
 34
0.0
100
AcDbRotatedDimension
1001
ACAD
1000
DSTYLE
1002
{
1070
    40
1040
30.0
1070
    42
1040
1.0
1070
   143
1040
0.039
1070
   172
1070
     1
1070
   271
1070
     4
1070
   272
1070
     4
1070
   279
1070
     1
1070
   284
1070
     0
1070
   285
1070
     0
1070
   286
1070
     0
1070
   341
1005
8292
1070
   343
1005
8292
1070
   344
1005
8292
1002
}
  0
DIMENSION
  5
838C
330
827E
100
AcDbEntity
  8
3
100
AcDbDimension
  2
*D42
 10
1370.901512152148
 20
4204.126846417155
 30
0.0
 11
1759.401512152148
 21
4279.126846417155
 31
0.0
 70
    32
 71
     5
 42
777.0
  3
IGA
100
AcDbAlignedDimension
 13
2147.901512152148
 23
3985.320184906001
 33
0.0
 14
1370.901512152148
 24
3228.23331027339
 34
0.0
100
AcDbRotatedDimension
1001
ACAD
1000
DSTYLE
1002
{
1070
    40
1040
30.0
1070
    42
1040
1.0
1070
   143
1040
0.039
1070
   172
1070
     1
1070
   271
1070
     4
1070
   272
1070
     4
1070
   279
1070
     0
1070
   284
1070
     0
1070
   285
1070
     0
1070
   286
1070
     0
1070
   341
1005
8292
1070
   343
1005
8292
1070
   344
1005
8292
1002
}
  0
DIMENSION
  5
83A2
330
827E
100
AcDbEntity
  8
3
100
AcDbDimension
  2
*D43
 10
2147.901512152148
 20
1797.490397878904
 30
0.0
 11
1492.901512152148
 21
1872.490397878904
 31
0.0
 70
    32
 71
     5
 42
1310.0
  3
IGA
100
AcDbAlignedDimension
 13
837.9015121521478
 23
1990.23331027339
 33
0.0
 14
2147.901512152148
 24
1990.23331027339
 34
0.0
100
AcDbRotatedDimension
1001
ACAD
1000
DSTYLE
1002
{
1070
    40
1040
30.0
1070
    42
1040
1.0
1070
   143
1040
0.039
1070
   172
1070
     1
1070
   271
1070
     4
1070
   272
1070
     4
1070
   279
1070
     0
1070
   284
1070
     0
1070
   285
1070
     0
1070
   286
1070
     0
1070
   341
1005
8292
1070
   343
1005
8292
1070
   344
1005
8292
1002
}
  0
DIMENSION
  5
83AF
330
827E
100
AcDbEntity
  8
3
100
AcDbDimension
  2
*D44
 10
2707.901512152149
 20
1797.490397878904
 30
0.0
 11
2427.901512152148
 21
1872.490397878904
 31
0.0
 70
    32
 71
     5
 42
560.0000000000009
  3
IGA
100
AcDbAlignedDimension
 13
2147.901512152148
 23
1990.23331027339
 33
0.0
 14
2707.901512152149
 24
1990.23331027339
 34
0.0
100
AcDbRotatedDimension
1001
ACAD
1000
DSTYLE
1002
{
1070
    40
1040
30.0
1070
    42
1040
1.0
1070
   143
1040
0.039
1070
   172
1070
     1
1070
   271
1070
     4
1070
   272
1070
     4
1070
   279
1070
     1
1070
   284
1070
     0
1070
   285
1070
     0
1070
   286
1070
     0
1070
   341
1005
8292
1070
   343
1005
8292
1070
   344
1005
8292
1002
}
  0
DIMENSION
  5
83BC
330
827E
100
AcDbEntity
  8
3
100
AcDbDimension
  2
*D45
 10
3259.585489877208
 20
2195.23331027339
 30
0.0
 11
3184.585489877207
 21
2745.233310273391
 31
0.0
 70
    32
 71
     5
 42
1100.0
  3
IGA
100
AcDbAlignedDimension
 13
2804.156850930694
 23
3295.233310273391
 33
0.0
 14
2707.901512152149
 24
2195.23331027339
 34
0.0
 50
90.0
100
AcDbRotatedDimension
1001
ACAD
1000
DSTYLE
1002
{
1070
    40
1040
30.0
1070
    42
1040
1.0
1070
   143
1040
0.039
1070
   172
1070
     1
1070
   271
1070
     4
1070
   272
1070
     4
1070
   279
1070
     0
1070
   284
1070
     0
1070
   285
1070
     0
1070
   286
1070
     0
1070
   341
1005
8292
1070
   343
1005
8292
1070
   344
1005
8292
1002
}
  0
DIMENSION
  5
83C9
330
827E
100
AcDbEntity
  8
3
100
AcDbDimension
  2
*D46
 10
3259.585489877208
 20
2090.23331027339
 30
0.0
 11
3484.287619000025
 21
2256.947595987677
 31
0.0
 70
   160
  1
(<>)
 71
     5
 42
105.0
  3
IGA
100
AcDbAlignedDimension
 13
2707.901512152149
 23
2195.23331027339
 33
0.0
 14
2707.901512152149
 24
2090.23331027339
 34
0.0
 50
90.0
100
AcDbRotatedDimension
1001
ACAD
1000
DSTYLE
1002
{
1070
    40
1040
30.0
1070
    42
1040
1.0
1070
   143
1040
0.039
1070
   172
1070
     1
1070
   271
1070
     4
1070
   272
1070
     4
1070
   279
1070
     1
1070
   284
1070
     0
1070
   285
1070
     0
1070
   286
1070
     0
1070
   341
1005
8292
1070
   343
1005
8292
1070
   344
1005
8486
1002
}
  0
DIMENSION
  5
83DB
330
827E
100
AcDbEntity
  8
3
100
AcDbDimension
  2
*D47
 10
3259.585489877208
 20
1990.23331027339
 30
0.0
 11
3211.574909297648
 21
1870.23331027339
 31
0.0
 70
   160
 71
     5
 42
100.0
  3
IGA
100
AcDbAlignedDimension
 13
2707.901512152149
 23
2090.23331027339
 33
0.0
 14
2707.901512152149
 24
1990.23331027339
 34
0.0
 50
90.0
100
AcDbRotatedDimension
1001
ACAD
1000
DSTYLE
1002
{
1070
    40
1040
30.0
1070
    42
1040
1.0
1070
   143
1040
0.039
1070
   172
1070
     1
1070
   271
1070
     4
1070
   272
1070
     4
1070
   279
1070
     1
1070
   284
1070
     0
1070
   285
1070
     0
1070
   286
1070
     0
1070
   341
1005
8292
1070
   343
1005
8486
1070
   344
1005
8292
1002
}
  0
DIMENSION
  5
8521
330
827E
100
AcDbEntity
  8
3
100
AcDbDimension
  2
*D49
 10
3592.21873134422
 20
3938.233310273389
 30
0.0
 11
3493.64730277279
 21
2964.233310273391
 31
0.0
 70
    32
  1
(<>)
 71
     5
 42
1948.0
  3
IGA
100
AcDbAlignedDimension
 13
2707.901512152149
 23
1990.23331027339
 33
0.0
 14
2080.901512152148
 24
3938.23331027339
 34
0.0
 50
90.0
100
AcDbRotatedDimension
1001
ACAD
1000
DSTYLE
1002
{
1070
    40
1040
30.0
1070
    42
1040
1.0
1070
   143
1040
0.039
1070
   172
1070
     1
1070
   271
1070
     4
1070
   272
1070
     4
1070
   279
1070
     0
1070
   284
1070
     0
1070
   285
1070
     0
1070
   286
1070
     0
1070
   341
1005
8292
1070
   343
1005
8292
1070
   344
1005
8292
1002
}
  0
ENDSEC
  0
SECTION
  2
OBJECTS
  0
DICTIONARY
  5
821B
330
0
100
AcDbDictionary
281
     1
  3
ACAD_CIP_PREVIOUS_PRODUCT_INFO
350
82CA
  3
ACAD_COLOR
350
8271
  3
ACAD_DETAILVIEWSTYLE
350
8278
  3
ACAD_GROUP
350
821C
  3
ACAD_LAYOUT
350
8270
  3
ACAD_MATERIAL
350
821F
  3
ACAD_MLEADERSTYLE
350
8274
  3
ACAD_MLINESTYLE
350
826D
  3
ACAD_PLOTSETTINGS
350
826F
  3
ACAD_PLOTSTYLENAME
350
821D
  3
ACAD_SCALELIST
350
8251
  3
ACAD_SECTIONVIEWSTYLE
350
8276
  3
ACAD_TABLESTYLE
350
8272
  3
ACAD_VISUALSTYLE
350
8238
  3
ACDB_RECOMPOSE_DATA
350
8598
  3
AcDbVariableDictionary
350
854A
  3
DWGPROPS
350
8599
  0
DICTIONARY
  5
8540
330
8263
100
AcDbDictionary
280
     1
281
     1
  3
ADSK_XREC_LAYER_RECONCILED
360
8541
  0
DICTIONARY
  5
8542
330
8282
100
AcDbDictionary
280
     1
281
     1
  3
ADSK_XREC_LAYER_RECONCILED
360
8543
  0
DICTIONARY
  5
8544
330
8285
100
AcDbDictionary
280
     1
281
     1
  3
ADSK_XREC_LAYER_RECONCILED
360
8545
  0
DICTIONARY
  5
8546
330
8286
100
AcDbDictionary
280
     1
281
     1
  3
ADSK_XREC_LAYER_RECONCILED
360
8547
  0
DICTIONARY
  5
8548
330
8287
100
AcDbDictionary
280
     1
281
     1
  3
ADSK_XREC_LAYER_RECONCILED
360
8549
  0
XRECORD
  5
82CA
102
{ACAD_REACTORS
330
821B
102
}
330
821B
100
AcDbXrecord
280
     1
300
ACDLT
300
2015
300
INVLTS_F_S
  0
DICTIONARY
  5
8271
102
{ACAD_REACTORS
330
821B
102
}
330
821B
100
AcDbDictionary
281
     1
  0
DICTIONARY
  5
8278
102
{ACAD_REACTORS
330
821B
102
}
330
821B
100
AcDbDictionary
281
     1
  3
Imperial24
350
8279
  0
DICTIONARY
  5
821C
102
{ACAD_REACTORS
330
821B
102
}
330
821B
100
AcDbDictionary
281
     1
  0
DICTIONARY
  5
8270
102
{ACAD_REACTORS
330
821B
102
}
330
821B
100
AcDbDictionary
281
     1
  3
Model
350
8281
  3
レイアウト1
350
827D
  0
DICTIONARY
  5
821F
102
{ACAD_REACTORS
330
821B
102
}
330
821B
100
AcDbDictionary
281
     1
  3
ByBlock
350
8228
  3
ByLayer
350
8220
  3
Global
350
8230
  0
DICTIONARY
  5
8274
102
{ACAD_REACTORS
330
821B
102
}
330
821B
100
AcDbDictionary
281
     1
  3
Standard
350
8275
  0
DICTIONARY
  5
826D
102
{ACAD_REACTORS
330
821B
102
}
330
821B
100
AcDbDictionary
281
     1
  3
Standard
350
826E
  0
DICTIONARY
  5
826F
102
{ACAD_REACTORS
330
821B
102
}
330
821B
100
AcDbDictionary
281
     1
  0
ACDBDICTIONARYWDFLT
  5
821D
102
{ACAD_REACTORS
330
821B
102
}
330
821B
100
AcDbDictionary
281
     1
  3
Normal
350
821E
100
AcDbDictionaryWithDefault
340
821E
  0
DICTIONARY
  5
8251
102
{ACAD_REACTORS
330
821B
102
}
330
821B
100
AcDbDictionary
281
     1
  3
A0
350
8252
  3
A1
350
8253
  3
A2
350
8254
  3
A3
350
8255
  3
A4
350
8256
  3
A5
350
8257
  3
A6
350
8258
  3
A7
350
8259
  3
A8
350
825A
  3
A9
350
825B
  3
B0
350
825C
  3
B1
350
825D
  3
B2
350
825E
  3
B3
350
825F
  3
B4
350
8260
  3
B5
350
8261
  3
B6
350
8262
  0
DICTIONARY
  5
8276
102
{ACAD_REACTORS
330
821B
102
}
330
821B
100
AcDbDictionary
281
     1
  3
Imperial24
350
8277
  0
DICTIONARY
  5
8272
102
{ACAD_REACTORS
330
821B
102
}
330
821B
100
AcDbDictionary
281
     1
  3
Standard
350
8273
  0
DICTIONARY
  5
8238
102
{ACAD_REACTORS
330
821B
102
}
330
821B
100
AcDbDictionary
281
     1
  3
2dWireframe
350
823E
  3
Basic
350
823D
  3
Brighten
350
8244
  3
ColorChange
350
8248
  3
Conceptual
350
8241
  3
Dim
350
8243
  3
EdgeColorOff
350
8250
  3
Facepattern
350
8247
  3
Flat
350
8239
  3
FlatWithEdges
350
823A
  3
Gouraud
350
823B
  3
GouraudWithEdges
350
823C
  3
Hidden
350
8240
  3
JitterOff
350
824E
  3
Linepattern
350
8246
  3
OverhangOff
350
824F
  3
Realistic
350
8242
  3
Shaded
350
824D
  3
Shaded with edges
350
824C
  3
Shades of Gray
350
8249
  3
Sketchy
350
824A
  3
Thicken
350
8245
  3
Wireframe
350
823F
  3
X-Ray
350
824B
  0
XRECORD
  5
8598
102
{ACAD_REACTORS
330
821B
102
}
330
821B
100
AcDbXrecord
280
     1
 90
        1
330
8273
  0
DICTIONARY
  5
854A
102
{ACAD_REACTORS
330
821B
102
}
330
821B
100
AcDbDictionary
281
     1
  3
CANNOSCALE
350
854F
  3
CMLEADERSTYLE
350
854C
  3
CTABLESTYLE
350
854B
  3
CVIEWDETAILSTYLE
350
854D
  3
CVIEWSECTIONSTYLE
350
854E
  3
DIMASSOC
350
8552
  3
INDEXCTL
350
8551
  3
SORTENTS
350
8550
  3
XCLIPFRAME
350
8553
  0
XRECORD
  5
8599
102
{ACAD_REACTORS
330
821B
102
}
330
821B
100
AcDbXrecord
280
     1
  1
DWGPROPS COOKIE
  2

  3

  4

  6

  7

  8
yasukiyo.ogawa
  9

300
=
301
=
302
=
303
=
304
=
305
=
306
=
307
=
308
=
309
=
 40
0.0171719444444445
 41
2451389.542895833
 42
2460269.613928449
  1

 90
        0
  0
XRECORD
  5
8541
102
{ACAD_REACTORS
330
8540
102
}
330
8540
100
AcDbXrecord
280
     1
290
     1
  0
XRECORD
  5
8543
102
{ACAD_REACTORS
330
8542
102
}
330
8542
100
AcDbXrecord
280
     1
290
     1
  0
XRECORD
  5
8545
102
{ACAD_REACTORS
330
8544
102
}
330
8544
100
AcDbXrecord
280
     1
290
     1
  0
XRECORD
  5
8547
102
{ACAD_REACTORS
330
8546
102
}
330
8546
100
AcDbXrecord
280
     1
290
     1
  0
XRECORD
  5
8549
102
{ACAD_REACTORS
330
8548
102
}
330
8548
100
AcDbXrecord
280
     1
290
     1
  0
ACDBDETAILVIEWSTYLE
  5
8279
102
{ACAD_XDICTIONARY
360
85D1
102
}
102
{ACAD_REACTORS
330
8278
102
}
330
8278
100
AcDbModelDocViewStyle
 70
     0
  3
Imperial24
290
     0
100
AcDbDetailViewStyle
 70
     0
 71
     0
 90
        3
 71
     1
340
8264
 40
0.24
340
0
 40
0.24
300

 40
0.36
280
     3
 71
     2
340
826B
 90
       25
 71
     3
340
8264
 40
0.24
 90
        1
 40
0.75
 90
        1
300
%<\AcVar ViewType \f "%tc1">% %<\AcVar ViewDetailId>%\PSCALE %<\AcVar ViewScale \f "%sn">%
 71
     4
340
826B
 90
       25
340
826B
 90
       25
280
     0
  0
LAYOUT
  5
8281
102
{ACAD_XDICTIONARY
360
85D5
102
}
102
{ACAD_REACTORS
330
8270
102
}
330
8270
100
AcDbPlotSettings
  1

  2
RICOH imagio MP W3600 RPCS
  4

  6

 40
0.0
 41
0.0
 42
0.0
 43
0.0
 44
0.0
 45
0.0
 46
0.0
 47
0.0
 48
0.0
 49
0.0
140
0.0
141
0.0
142
1.0
143
1.0
 70
  1712
 72
     0
 73
     0
 74
     0
  7

 75
     0
147
1.0
148
0.0
149
0.0
100
AcDbLayout
  1
Model
 70
     1
 71
     0
 10
0.0
 20
0.0
 11
12.0
 21
9.0
 12
0.0
 22
0.0
 32
0.0
 14
0.0
 24
0.0
 34
0.0
 15
0.0
 25
0.0
 35
0.0
146
0.0
 13
0.0
 23
0.0
 33
0.0
 16
1.0
 26
0.0
 36
0.0
 17
0.0
 27
1.0
 37
0.0
 76
     0
330
827E
331
8283
  0
LAYOUT
  5
827D
102
{ACAD_XDICTIONARY
360
85D3
102
}
102
{ACAD_REACTORS
330
8270
102
}
330
8270
100
AcDbPlotSettings
  1

  2
RICOH imagio MP W3600 RPCS
  4

  6

 40
0.0
 41
0.0
 42
0.0
 43
0.0
 44
0.0
 45
0.0
 46
0.0
 47
0.0
 48
0.0
 49
0.0
140
0.0
141
0.0
142
1.0
143
1.0
 70
   688
 72
     0
 73
     0
 74
     5
  7

 75
    16
147
1.0
148
0.0
149
0.0
100
AcDbLayout
  1
レイアウト1
 70
     1
 71
     1
 10
0.0
 20
0.0
 11
12.0
 21
9.0
 12
0.0
 22
0.0
 32
0.0
 14
1.000000000000000E+20
 24
1.000000000000000E+20
 34
1.000000000000000E+20
 15
-1.000000000000000E+20
 25
-1.000000000000000E+20
 35
-1.000000000000000E+20
146
0.0
 13
0.0
 23
0.0
 33
0.0
 16
1.0
 26
0.0
 36
0.0
 17
0.0
 27
1.0
 37
0.0
 76
     0
330
827A
  0
MATERIAL
  5
8228
102
{ACAD_XDICTIONARY
360
8229
102
}
102
{ACAD_REACTORS
330
821F
102
}
330
821F
100
AcDbMaterial
  1
ByBlock
 72
     0
 43
0.0208333333333333
 43
0.0
 43
0.0
 43
0.0
 43
0.0
 43
0.0208333333333333
 43
0.0
 43
0.0
 43
0.0
 43
0.0
 43
1.0
 43
0.0
 43
0.0
 43
0.0
 43
0.0
 43
1.0
 77
     0
 47
0.0208333333333333
 47
0.0
 47
0.0
 47
0.0
 47
0.0
 47
0.0208333333333333
 47
0.0
 47
0.0
 47
0.0
 47
0.0
 47
1.0
 47
0.0
 47
0.0
 47
0.0
 47
0.0
 47
1.0
171
     0
 49
0.0208333333333333
 49
0.0
 49
0.0
 49
0.0
 49
0.0
 49
0.0208333333333333
 49
0.0
 49
0.0
 49
0.0
 49
0.0
 49
1.0
 49
0.0
 49
0.0
 49
0.0
 49
0.0
 49
1.0
175
     0
142
0.0208333333333333
142
0.0
142
0.0
142
0.0
142
0.0
142
0.0208333333333333
142
0.0
142
0.0
142
0.0
142
0.0
142
1.0
142
0.0
142
0.0
142
0.0
142
0.0
142
1.0
179
     0
144
0.0208333333333333
144
0.0
144
0.0
144
0.0
144
0.0
144
0.0208333333333333
144
0.0
144
0.0
144
0.0
144
0.0
144
1.0
144
0.0
144
0.0
144
0.0
144
0.0
144
1.0
147
0.0208333333333333
147
0.0
147
0.0
147
0.0
147
0.0
147
0.0208333333333333
147
0.0
147
0.0
147
0.0
147
0.0
147
1.0
147
0.0
147
0.0
147
0.0
147
0.0
147
1.0
  0
MATERIAL
  5
8220
102
{ACAD_XDICTIONARY
360
8221
102
}
102
{ACAD_REACTORS
330
821F
102
}
330
821F
100
AcDbMaterial
  1
ByLayer
 72
     0
 43
0.0208333333333333
 43
0.0
 43
0.0
 43
0.0
 43
0.0
 43
0.0208333333333333
 43
0.0
 43
0.0
 43
0.0
 43
0.0
 43
1.0
 43
0.0
 43
0.0
 43
0.0
 43
0.0
 43
1.0
 77
     0
 47
0.0208333333333333
 47
0.0
 47
0.0
 47
0.0
 47
0.0
 47
0.0208333333333333
 47
0.0
 47
0.0
 47
0.0
 47
0.0
 47
1.0
 47
0.0
 47
0.0
 47
0.0
 47
0.0
 47
1.0
171
     0
 49
0.0208333333333333
 49
0.0
 49
0.0
 49
0.0
 49
0.0
 49
0.0208333333333333
 49
0.0
 49
0.0
 49
0.0
 49
0.0
 49
1.0
 49
0.0
 49
0.0
 49
0.0
 49
0.0
 49
1.0
175
     0
142
0.0208333333333333
142
0.0
142
0.0
142
0.0
142
0.0
142
0.0208333333333333
142
0.0
142
0.0
142
0.0
142
0.0
142
1.0
142
0.0
142
0.0
142
0.0
142
0.0
142
1.0
179
     0
144
0.0208333333333333
144
0.0
144
0.0
144
0.0
144
0.0
144
0.0208333333333333
144
0.0
144
0.0
144
0.0
144
0.0
144
1.0
144
0.0
144
0.0
144
0.0
144
0.0
144
1.0
147
0.0208333333333333
147
0.0
147
0.0
147
0.0
147
0.0
147
0.0208333333333333
147
0.0
147
0.0
147
0.0
147
0.0
147
1.0
147
0.0
147
0.0
147
0.0
147
0.0
147
1.0
  0
MATERIAL
  5
8230
102
{ACAD_XDICTIONARY
360
8231
102
}
102
{ACAD_REACTORS
330
821F
102
}
330
821F
100
AcDbMaterial
  1
Global
 72
     0
 43
0.0208333333333333
 43
0.0
 43
0.0
 43
0.0
 43
0.0
 43
0.0208333333333333
 43
0.0
 43
0.0
 43
0.0
 43
0.0
 43
1.0
 43
0.0
 43
0.0
 43
0.0
 43
0.0
 43
1.0
 77
     0
 47
0.0208333333333333
 47
0.0
 47
0.0
 47
0.0
 47
0.0
 47
0.0208333333333333
 47
0.0
 47
0.0
 47
0.0
 47
0.0
 47
1.0
 47
0.0
 47
0.0
 47
0.0
 47
0.0
 47
1.0
171
     0
 49
0.0208333333333333
 49
0.0
 49
0.0
 49
0.0
 49
0.0
 49
0.0208333333333333
 49
0.0
 49
0.0
 49
0.0
 49
0.0
 49
1.0
 49
0.0
 49
0.0
 49
0.0
 49
0.0
 49
1.0
175
     0
142
0.0208333333333333
142
0.0
142
0.0
142
0.0
142
0.0
142
0.0208333333333333
142
0.0
142
0.0
142
0.0
142
0.0
142
1.0
142
0.0
142
0.0
142
0.0
142
0.0
142
1.0
179
     0
144
0.0208333333333333
144
0.0
144
0.0
144
0.0
144
0.0
144
0.0208333333333333
144
0.0
144
0.0
144
0.0
144
0.0
144
1.0
144
0.0
144
0.0
144
0.0
144
0.0
144
1.0
147
0.0208333333333333
147
0.0
147
0.0
147
0.0
147
0.0
147
0.0208333333333333
147
0.0
147
0.0
147
0.0
147
0.0
147
1.0
147
0.0
147
0.0
147
0.0
147
0.0
147
1.0
  0
MLEADERSTYLE
  5
8275
102
{ACAD_REACTORS
330
8274
102
}
330
8274
100
AcDbMLeaderStyle
170
     2
171
     1
172
     0
 90
        2
 40
0.0
 41
0.0
173
     1
 91
-1056964608
340
8269
 92
       -2
290
     1
 42
0.09
291
     1
 43
0.36
  3
Standard
 44
0.18
300

342
8264
174
     1
178
     6
175
     1
176
     0
 93
-1056964608
 45
0.18
292
     0
297
     0
 46
0.18
 94
-1056964608
 47
1.0
 49
1.0
140
1.0
293
     1
141
0.0
294
     1
177
     0
142
1.0
295
     0
296
     0
143
0.125
1001
ACAD_MLEADERVER
1070
     2
  0
MLINESTYLE
  5
826E
102
{ACAD_REACTORS
330
826D
102
}
330
826D
100
AcDbMlineStyle
  2
STANDARD
 70
     0
  3

 62
   256
 51
90.0
 52
90.0
 71
     2
 49
0.5
 62
   256
  6
BYLAYER
 49
-0.5
 62
   256
  6
BYLAYER
  0
ACDBPLACEHOLDER
  5
821E
102
{ACAD_REACTORS
330
821D
102
}
330
821D
  0
SCALE
  5
8252
102
{ACAD_REACTORS
330
8251
102
}
330
8251
100
AcDbScale
 70
     0
300
1:1
140
1.0
141
1.0
290
     1
  0
SCALE
  5
8253
102
{ACAD_REACTORS
330
8251
102
}
330
8251
100
AcDbScale
 70
     0
300
1/128" = 1'-0"
140
0.0078125
141
12.0
290
     0
  0
SCALE
  5
8254
102
{ACAD_REACTORS
330
8251
102
}
330
8251
100
AcDbScale
 70
     0
300
1/64" = 1'-0"
140
0.015625
141
12.0
290
     0
  0
SCALE
  5
8255
102
{ACAD_REACTORS
330
8251
102
}
330
8251
100
AcDbScale
 70
     0
300
1/32" = 1'-0"
140
0.03125
141
12.0
290
     0
  0
SCALE
  5
8256
102
{ACAD_REACTORS
330
8251
102
}
330
8251
100
AcDbScale
 70
     0
300
1/16" = 1'-0"
140
0.0625
141
12.0
290
     0
  0
SCALE
  5
8257
102
{ACAD_REACTORS
330
8251
102
}
330
8251
100
AcDbScale
 70
     0
300
3/32" = 1'-0"
140
0.09375
141
12.0
290
     0
  0
SCALE
  5
8258
102
{ACAD_REACTORS
330
8251
102
}
330
8251
100
AcDbScale
 70
     0
300
1/8" = 1'-0"
140
0.125
141
12.0
290
     0
  0
SCALE
  5
8259
102
{ACAD_REACTORS
330
8251
102
}
330
8251
100
AcDbScale
 70
     0
300
3/16" = 1'-0"
140
0.1875
141
12.0
290
     0
  0
SCALE
  5
825A
102
{ACAD_REACTORS
330
8251
102
}
330
8251
100
AcDbScale
 70
     0
300
1/4" = 1'-0"
140
0.25
141
12.0
290
     0
  0
SCALE
  5
825B
102
{ACAD_REACTORS
330
8251
102
}
330
8251
100
AcDbScale
 70
     0
300
3/8" = 1'-0"
140
0.375
141
12.0
290
     0
  0
SCALE
  5
825C
102
{ACAD_REACTORS
330
8251
102
}
330
8251
100
AcDbScale
 70
     0
300
1/2" = 1'-0"
140
0.5
141
12.0
290
     0
  0
SCALE
  5
825D
102
{ACAD_REACTORS
330
8251
102
}
330
8251
100
AcDbScale
 70
     0
300
3/4" = 1'-0"
140
0.75
141
12.0
290
     0
  0
SCALE
  5
825E
102
{ACAD_REACTORS
330
8251
102
}
330
8251
100
AcDbScale
 70
     0
300
1" = 1'-0"
140
1.0
141
12.0
290
     0
  0
SCALE
  5
825F
102
{ACAD_REACTORS
330
8251
102
}
330
8251
100
AcDbScale
 70
     0
300
1-1/2" = 1'-0"
140
1.5
141
12.0
290
     0
  0
SCALE
  5
8260
102
{ACAD_REACTORS
330
8251
102
}
330
8251
100
AcDbScale
 70
     0
300
3" = 1'-0"
140
3.0
141
12.0
290
     0
  0
SCALE
  5
8261
102
{ACAD_REACTORS
330
8251
102
}
330
8251
100
AcDbScale
 70
     0
300
6" = 1'-0"
140
6.0
141
12.0
290
     0
  0
SCALE
  5
8262
102
{ACAD_REACTORS
330
8251
102
}
330
8251
100
AcDbScale
 70
     0
300
1'-0" = 1'-0"
140
12.0
141
12.0
290
     0
  0
ACDBSECTIONVIEWSTYLE
  5
8277
102
{ACAD_XDICTIONARY
360
85CF
102
}
102
{ACAD_REACTORS
330
8276
102
}
330
8276
100
AcDbModelDocViewStyle
 70
     0
  3
Imperial24
290
     0
100
AcDbSectionViewStyle
 70
     0
 71
     0
 90
       78
 71
     1
340
8264
 40
0.24
340
0
340
0
 40
0.24
300
I, O, Q, S, X, Z
 40
0.48
 90
        3
 40
0.18
 90
        1
 71
     2
340
826B
 90
       25
340
826B
 90
       50
 40
0.24
 40
0.0
 40
0.24
 71
     3
340
8264
 40
0.24
 90
        1
 40
0.75
 90
        1
300
%<\AcVar ViewType \f "%tc1">% %<\AcVar ViewSectionStartId>%-%<\AcVar ViewSectionEndId>%\PSCALE %<\AcVar ViewScale \f "%sn">%
 71
     4
300
ANSI31
 40
1.0
 90
        0
290
     0
290
     0
 90
        6
 40
0.0
 40
1.570796326794896
 40
0.2617993877991494
 40
1.308996938995747
 40
-0.2617993877991494
 40
1.832595714594046
  0
TABLESTYLE
  5
8273
102
{ACAD_XDICTIONARY
360
8596
102
}
102
{ACAD_REACTORS
330
8272
102
}
330
8272
100
AcDbTableStyle
  3
Standard
 70
     0
 71
     0
 40
0.06
 41
0.06
280
     0
281
     0
  7
STANDARD
140
0.18
170
     2
 62
     0
 63
     7
283
     0
274
    -2
284
     1
 64
     0
275
    -2
285
     1
 65
     0
276
    -2
286
     1
 66
     0
277
    -2
287
     1
 67
     0
278
    -2
288
     1
 68
     0
279
    -2
289
     1
 69
     0
  7
STANDARD
140
0.25
170
     5
 62
     0
 63
     7
283
     0
274
    -2
284
     1
 64
     0
275
    -2
285
     1
 65
     0
276
    -2
286
     1
 66
     0
277
    -2
287
     1
 67
     0
278
    -2
288
     1
 68
     0
279
    -2
289
     1
 69
     0
  7
STANDARD
140
0.18
170
     5
 62
     0
 63
     7
283
     0
274
    -2
284
     1
 64
     0
275
    -2
285
     1
 65
     0
276
    -2
286
     1
 66
     0
277
    -2
287
     1
 67
     0
278
    -2
288
     1
 68
     0
279
    -2
289
     1
 69
     0
  0
VISUALSTYLE
  5
823E
102
{ACAD_XDICTIONARY
360
85A7
102
}
102
{ACAD_REACTORS
330
8238
102
}
330
8238
100
AcDbVisualStyle
  2
2dWireframe
 70
     4
 71
     0
 72
     2
 73
     0
 90
        0
 40
-0.6
 41
-30.0
 62
     5
 63
     7
 74
     1
 91
        4
 64
     7
 65
   257
 75
     1
175
     1
 42
1.0
 92
        0
 66
   257
 43
1.0
 76
     1
 77
     6
 78
     2
 67
     7
 79
     5
170
     0
171
     0
290
     0
174
     0
 93
        1
 44
0.0
173
     0
291
     0
 45
0.0
1001
ACAD
1000
AcDbSavedByObjectVersion
1070
     0
  0
VISUALSTYLE
  5
823D
102
{ACAD_XDICTIONARY
360
85A5
102
}
102
{ACAD_REACTORS
330
8238
102
}
330
8238
100
AcDbVisualStyle
  2
Basic
 70
     7
 71
     1
 72
     0
 73
     1
 90
        0
 40
-0.6
 41
-30.0
 62
     5
 63
     7
 74
     0
 91
        4
 64
     7
 65
   257
 75
     1
175
     1
 42
1.0
 92
        8
 66
     7
 43
1.0
 76
     1
 77
     6
 78
     2
 67
     7
 79
     5
170
     0
171
     0
290
     0
174
     0
 93
        1
 44
0.0
173
     0
291
     1
 45
0.0
1001
ACAD
1000
AcDbSavedByObjectVersion
1070
     0
  0
VISUALSTYLE
  5
8244
102
{ACAD_XDICTIONARY
360
85B3
102
}
102
{ACAD_REACTORS
330
8238
102
}
330
8238
100
AcDbVisualStyle
  2
Brighten
 70
    12
 71
     2
 72
     2
 73
     0
 90
        0
 40
-0.6
 41
-30.0
 62
     5
 63
     7
 74
     1
 91
        4
 64
     7
 65
   257
 75
     1
175
     1
 42
1.0
 92
        8
 66
     7
 43
1.0
 76
     1
 77
     6
 78
     2
 67
     7
 79
     5
170
     0
171
     0
290
     0
174
     0
 93
        1
 44
50.0
173
     0
291
     1
 45
0.0
1001
ACAD
1000
AcDbSavedByObjectVersion
1070
     0
  0
VISUALSTYLE
  5
8248
102
{ACAD_XDICTIONARY
360
85BB
102
}
102
{ACAD_REACTORS
330
8238
102
}
330
8238
100
AcDbVisualStyle
  2
ColorChange
 70
    16
 71
     2
 72
     2
 73
     3
 90
        0
 40
-0.6
 41
-30.0
 62
     5
 63
     8
 74
     1
 91
        4
 64
     7
 65
   257
 75
     1
175
     1
 42
1.0
 92
        8
 66
     8
 43
1.0
 76
     1
 77
     6
 78
     2
 67
     7
 79
     5
170
     0
171
     0
290
     0
174
     0
 93
        1
 44
0.0
173
     0
291
     1
 45
0.0
1001
ACAD
1000
AcDbSavedByObjectVersion
1070
     0
  0
VISUALSTYLE
  5
8241
102
{ACAD_XDICTIONARY
360
85AD
102
}
102
{ACAD_REACTORS
330
8238
102
}
330
8238
100
AcDbVisualStyle
  2
Conceptual
 70
     9
 71
     3
 72
     2
 73
     0
 90
        0
 40
-0.6
 41
-30.0
 62
     5
 63
     7
 74
     2
 91
        2
 64
     7
 65
   257
 75
     1
175
     1
 42
179.0
 92
        8
 66
     7
 43
1.0
 76
     1
 77
     6
 78
     2
 67
     7
 79
     3
170
     0
171
     0
290
     0
174
     0
 93
        1
 44
0.0
173
     0
291
     0
 45
0.0
1001
ACAD
1000
AcDbSavedByObjectVersion
1070
     0
  0
VISUALSTYLE
  5
8243
102
{ACAD_XDICTIONARY
360
85B1
102
}
102
{ACAD_REACTORS
330
8238
102
}
330
8238
100
AcDbVisualStyle
  2
Dim
 70
    11
 71
     2
 72
     2
 73
     0
 90
        0
 40
-0.6
 41
-30.0
 62
     5
 63
     7
 74
     1
 91
        4
 64
     7
 65
   257
 75
     1
175
     1
 42
1.0
 92
        8
 66
     7
 43
1.0
 76
     1
 77
     6
 78
     2
 67
     7
 79
     5
170
     0
171
     0
290
     0
174
     0
 93
        1
 44
-50.0
173
     0
291
     1
 45
0.0
1001
ACAD
1000
AcDbSavedByObjectVersion
1070
     0
  0
VISUALSTYLE
  5
8250
102
{ACAD_XDICTIONARY
360
85CB
102
}
102
{ACAD_REACTORS
330
8238
102
}
330
8238
100
AcDbVisualStyle
  2
EdgeColorOff
 70
    22
 71
     2
 72
     2
 73
     0
 90
        0
 40
-0.6
 41
-30.0
 62
     5
 63
     7
 74
     1
 91
        4
 64
     7
 65
   257
 75
     1
175
     1
 42
1.0
 92
        8
 66
     7
 43
1.0
 76
     1
 77
     6
 78
     2
 67
     7
 79
     5
170
     0
171
     0
290
     0
174
     0
 93
        1
 44
0.0
173
     0
291
     1
 45
0.0
1001
ACAD
1000
AcDbSavedByObjectVersion
1070
     0
  0
VISUALSTYLE
  5
8247
102
{ACAD_XDICTIONARY
360
85B9
102
}
102
{ACAD_REACTORS
330
8238
102
}
330
8238
100
AcDbVisualStyle
  2
Facepattern
 70
    15
 71
     2
 72
     2
 73
     0
 90
        0
 40
-0.6
 41
-30.0
 62
     5
 63
     7
 74
     1
 91
        4
 64
     7
 65
   257
 75
     1
175
     1
 42
1.0
 92
        8
 66
     7
 43
1.0
 76
     1
 77
     6
 78
     2
 67
     7
 79
     5
170
     0
171
     0
290
     0
174
     0
 93
        1
 44
0.0
173
     0
291
     1
 45
0.0
1001
ACAD
1000
AcDbSavedByObjectVersion
1070
     0
  0
VISUALSTYLE
  5
8239
102
{ACAD_XDICTIONARY
360
859D
102
}
102
{ACAD_REACTORS
330
8238
102
}
330
8238
100
AcDbVisualStyle
  2
Flat
 70
     0
 71
     2
 72
     1
 73
     1
 90
        2
 40
-0.6
 41
30.0
 62
     5
 63
     7
 74
     0
 91
        0
 64
     7
 65
   257
 75
     1
175
     1
 42
1.0
 92
        8
 66
     7
 43
1.0
 76
     1
 77
     6
 78
     2
 67
     7
 79
     5
170
     0
171
     0
290
     0
174
     0
 93
       13
 44
0.0
173
     0
291
     1
 45
0.0
1001
ACAD
1000
AcDbSavedByObjectVersion
1070
     0
  0
VISUALSTYLE
  5
823A
102
{ACAD_XDICTIONARY
360
859F
102
}
102
{ACAD_REACTORS
330
8238
102
}
330
8238
100
AcDbVisualStyle
  2
FlatWithEdges
 70
     1
 71
     2
 72
     1
 73
     1
 90
        2
 40
-0.6
 41
30.0
 62
     5
 63
     7
 74
     1
 91
        0
 64
     7
 65
   257
 75
     1
175
     1
 42
1.0
 92
        0
 66
   257
 43
1.0
 76
     1
 77
     6
 78
     2
 67
     7
 79
     5
170
     0
171
     0
290
     0
174
     0
 93
       13
 44
0.0
173
     0
291
     1
 45
0.0
1001
ACAD
1000
AcDbSavedByObjectVersion
1070
     0
  0
VISUALSTYLE
  5
823B
102
{ACAD_XDICTIONARY
360
85A1
102
}
102
{ACAD_REACTORS
330
8238
102
}
330
8238
100
AcDbVisualStyle
  2
Gouraud
 70
     2
 71
     2
 72
     2
 73
     1
 90
        2
 40
-0.6
 41
30.0
 62
     5
 63
     7
 74
     0
 91
        0
 64
     7
 65
   257
 75
     1
175
     1
 42
1.0
 92
        0
 66
     7
 43
1.0
 76
     1
 77
     6
 78
     2
 67
     7
 79
     5
170
     0
171
     0
290
     0
174
     0
 93
       13
 44
0.0
173
     0
291
     1
 45
0.0
1001
ACAD
1000
AcDbSavedByObjectVersion
1070
     0
  0
VISUALSTYLE
  5
823C
102
{ACAD_XDICTIONARY
360
85A3
102
}
102
{ACAD_REACTORS
330
8238
102
}
330
8238
100
AcDbVisualStyle
  2
GouraudWithEdges
 70
     3
 71
     2
 72
     2
 73
     1
 90
        2
 40
-0.6
 41
30.0
 62
     5
 63
     7
 74
     1
 91
        0
 64
     7
 65
   257
 75
     1
175
     1
 42
1.0
 92
        0
 66
   257
 43
1.0
 76
     1
 77
     6
 78
     2
 67
     7
 79
     5
170
     0
171
     0
290
     0
174
     0
 93
       13
 44
0.0
173
     0
291
     1
 45
0.0
1001
ACAD
1000
AcDbSavedByObjectVersion
1070
     0
  0
VISUALSTYLE
  5
8240
102
{ACAD_XDICTIONARY
360
85AB
102
}
102
{ACAD_REACTORS
330
8238
102
}
330
8238
100
AcDbVisualStyle
  2
Hidden
 70
     6
 71
     1
 72
     2
 73
     2
 90
        0
 40
-0.6
 41
-30.0
 62
     5
 63
     7
 74
     2
 91
        2
 64
     7
 65
   257
 75
     2
175
     1
 42
40.0
 92
        0
 66
   257
 43
1.0
 76
     1
 77
     6
 78
     2
 67
     7
 79
     3
170
     0
171
     0
290
     0
174
     0
 93
        1
 44
0.0
173
     0
291
     0
 45
0.0
1001
ACAD
1000
AcDbSavedByObjectVersion
1070
     0
  0
VISUALSTYLE
  5
824E
102
{ACAD_XDICTIONARY
360
85C7
102
}
102
{ACAD_REACTORS
330
8238
102
}
330
8238
100
AcDbVisualStyle
  2
JitterOff
 70
    20
 71
     2
 72
     2
 73
     0
 90
        0
 40
-0.6
 41
-30.0
 62
     5
 63
     7
 74
     1
 91
        4
 64
     7
 65
   257
 75
     1
175
     1
 42
1.0
 92
       10
 66
     7
 43
1.0
 76
     1
 77
     6
 78
     2
 67
     7
 79
     5
170
     0
171
     0
290
     0
174
     0
 93
        1
 44
0.0
173
     0
291
     1
 45
0.0
1001
ACAD
1000
AcDbSavedByObjectVersion
1070
     0
  0
VISUALSTYLE
  5
8246
102
{ACAD_XDICTIONARY
360
85B7
102
}
102
{ACAD_REACTORS
330
8238
102
}
330
8238
100
AcDbVisualStyle
  2
Linepattern
 70
    14
 71
     2
 72
     2
 73
     0
 90
        0
 40
-0.6
 41
-30.0
 62
     5
 63
     7
 74
     1
 91
        4
 64
     7
 65
   257
 75
     7
175
     7
 42
1.0
 92
        8
 66
     7
 43
1.0
 76
     1
 77
     6
 78
     2
 67
     7
 79
     5
170
     0
171
     0
290
     0
174
     0
 93
        1
 44
0.0
173
     0
291
     1
 45
0.0
1001
ACAD
1000
AcDbSavedByObjectVersion
1070
     0
  0
VISUALSTYLE
  5
824F
102
{ACAD_XDICTIONARY
360
85C9
102
}
102
{ACAD_REACTORS
330
8238
102
}
330
8238
100
AcDbVisualStyle
  2
OverhangOff
 70
    21
 71
     2
 72
     2
 73
     0
 90
        0
 40
-0.6
 41
-30.0
 62
     5
 63
     7
 74
     1
 91
        4
 64
     7
 65
   257
 75
     1
175
     1
 42
1.0
 92
        9
 66
     7
 43
1.0
 76
     1
 77
     6
 78
     2
 67
     7
 79
     5
170
     0
171
     0
290
     0
174
     0
 93
        1
 44
0.0
173
     0
291
     1
 45
0.0
1001
ACAD
1000
AcDbSavedByObjectVersion
1070
     0
  0
VISUALSTYLE
  5
8242
102
{ACAD_XDICTIONARY
360
85AF
102
}
102
{ACAD_REACTORS
330
8238
102
}
330
8238
100
AcDbVisualStyle
  2
Realistic
 70
     8
 71
     2
 72
     3
 73
     0
 90
        2
 40
-0.6
 41
30.0
 62
     5
 63
     7
 74
     0
 91
        0
 64
     7
 65
   257
 75
     1
175
     1
 42
1.0
 92
        8
 66
   257
 43
1.0
 76
     1
 77
     6
 78
     2
 67
     7
 79
     3
170
     0
171
     0
290
     0
174
     0
 93
       13
 44
0.0
173
     0
291
     0
 45
0.0
1001
ACAD
1000
AcDbSavedByObjectVersion
1070
     0
  0
VISUALSTYLE
  5
824D
102
{ACAD_XDICTIONARY
360
85C5
102
}
102
{ACAD_REACTORS
330
8238
102
}
330
8238
100
AcDbVisualStyle
  2
Shaded
 70
    27
 71
     2
 72
     2
 73
     1
 90
        2
 40
-0.6
 41
30.0
 62
     5
 63
     7
 74
     0
 91
        4
 64
     7
 65
   257
 75
     1
175
     1
 42
1.0
 92
        8
 66
   257
 43
1.0
 76
     1
 77
     6
 78
     2
 67
     8
 79
     3
170
     0
171
     0
290
     0
174
     0
 93
        5
 44
0.0
173
     0
291
     0
 45
0.0
1001
ACAD
1000
AcDbSavedByObjectVersion
1070
     0
  0
VISUALSTYLE
  5
824C
102
{ACAD_XDICTIONARY
360
85C3
102
}
102
{ACAD_REACTORS
330
8238
102
}
330
8238
100
AcDbVisualStyle
  2
Shaded with edges
 70
    26
 71
     2
 72
     2
 73
     1
 90
        2
 40
-0.6
 41
30.0
 62
     5
 63
     7
 74
     1
 91
       10
 64
     7
 65
   257
 75
     2
175
     1
 42
1.0
 92
        8
 66
   257
 43
1.0
 76
     1
 77
     6
 78
     2
 67
     7
 79
     3
170
     0
171
     0
290
     0
174
     0
 93
        5
 44
0.0
173
     0
291
     0
 45
0.0
1001
ACAD
1000
AcDbSavedByObjectVersion
1070
     0
  0
VISUALSTYLE
  5
8249
102
{ACAD_XDICTIONARY
360
85BD
102
}
102
{ACAD_REACTORS
330
8238
102
}
330
8238
100
AcDbVisualStyle
  2
Shades of Gray
 70
    23
 71
     2
 72
     2
 73
     3
 90
        0
 40
-0.6
 41
-30.0
 62
     5
 63
     7
 74
     2
 91
        2
 64
     7
 65
     7
 75
     1
175
     1
 42
40.0
 92
        8
 66
     7
 43
1.0
 76
     1
 77
     6
 78
     2
 67
     7
 79
     3
170
     0
171
     0
290
     0
174
     0
 93
        1
 44
0.0
173
     0
291
     0
 45
0.0
1001
ACAD
1000
AcDbSavedByObjectVersion
1070
     0
  0
VISUALSTYLE
  5
824A
102
{ACAD_XDICTIONARY
360
85BF
102
}
102
{ACAD_REACTORS
330
8238
102
}
330
8238
100
AcDbVisualStyle
  2
Sketchy
 70
    24
 71
     1
 72
     2
 73
     2
 90
        0
 40
-0.6
 41
-30.0
 62
     5
 63
     7
 74
     2
 91
        2
 64
     7
 65
     7
 75
     1
175
     1
 42
40.0
 92
       11
 66
     7
 43
1.0
 76
     1
 77
     6
 78
     2
 67
     7
 79
     6
170
     0
171
     0
290
     0
174
     0
 93
        1
 44
0.0
173
     0
291
     0
 45
0.0
1001
ACAD
1000
AcDbSavedByObjectVersion
1070
     0
  0
VISUALSTYLE
  5
8245
102
{ACAD_XDICTIONARY
360
85B5
102
}
102
{ACAD_REACTORS
330
8238
102
}
330
8238
100
AcDbVisualStyle
  2
Thicken
 70
    13
 71
     2
 72
     2
 73
     0
 90
        0
 40
-0.6
 41
-30.0
 62
     5
 63
     7
 74
     1
 91
        4
 64
     7
 65
   257
 75
     1
175
     1
 42
1.0
 92
       12
 66
     7
 43
1.0
 76
     1
 77
     6
 78
     2
 67
     7
 79
     5
170
     0
171
     0
290
     0
174
     0
 93
        1
 44
0.0
173
     0
291
     1
 45
0.0
1001
ACAD
1000
AcDbSavedByObjectVersion
1070
     0
  0
VISUALSTYLE
  5
823F
102
{ACAD_XDICTIONARY
360
85A9
102
}
102
{ACAD_REACTORS
330
8238
102
}
330
8238
100
AcDbVisualStyle
  2
Wireframe
 70
     5
 71
     0
 72
     2
 73
     0
 90
        0
 40
-0.6
 41
-30.0
 62
     5
 63
     7
 74
     1
 91
        4
 64
     7
 65
   257
 75
     1
175
     1
 42
1.0
 92
        0
 66
   257
 43
1.0
 76
     1
 77
     6
 78
     2
 67
     7
 79
     3
170
     0
171
     0
290
     0
174
     0
 93
        1
 44
0.0
173
     0
291
     0
 45
0.0
1001
ACAD
1000
AcDbSavedByObjectVersion
1070
     0
  0
VISUALSTYLE
  5
824B
102
{ACAD_XDICTIONARY
360
85C1
102
}
102
{ACAD_REACTORS
330
8238
102
}
330
8238
100
AcDbVisualStyle
  2
X-Ray
 70
    25
 71
     2
 72
     2
 73
     1
 90
        1
 40
0.5
 41
-30.0
 62
     5
 63
     7
 74
     1
 91
        0
 64
     7
 65
   257
 75
     1
175
     1
 42
1.0
 92
        8
 66
     7
 43
1.0
 76
     1
 77
     6
 78
     2
 67
     7
 79
     3
170
     0
171
     0
290
     0
174
     0
 93
       13
 44
0.0
173
     0
291
     0
 45
0.0
1001
ACAD
1000
AcDbSavedByObjectVersion
1070
     0
  0
DICTIONARYVAR
  5
854F
102
{ACAD_REACTORS
330
854A
102
}
330
854A
100
DictionaryVariables
280
     0
  1
1:1
  0
DICTIONARYVAR
  5
854C
102
{ACAD_REACTORS
330
854A
102
}
330
854A
100
DictionaryVariables
280
     0
  1
STANDARD
  0
DICTIONARYVAR
  5
854B
102
{ACAD_REACTORS
330
854A
102
}
330
854A
100
DictionaryVariables
280
     0
  1
STANDARD
  0
DICTIONARYVAR
  5
854D
102
{ACAD_REACTORS
330
854A
102
}
330
854A
100
DictionaryVariables
280
     0
  1
Imperial24
  0
DICTIONARYVAR
  5
854E
102
{ACAD_REACTORS
330
854A
102
}
330
854A
100
DictionaryVariables
280
     0
  1
Imperial24
  0
DICTIONARYVAR
  5
8552
102
{ACAD_REACTORS
330
854A
102
}
330
854A
100
DictionaryVariables
280
     0
  1
1
  0
DICTIONARYVAR
  5
8551
102
{ACAD_REACTORS
330
854A
102
}
330
854A
100
DictionaryVariables
280
     0
  1
0
  0
DICTIONARYVAR
  5
8550
102
{ACAD_REACTORS
330
854A
102
}
330
854A
100
DictionaryVariables
280
     0
  1
127
  0
DICTIONARYVAR
  5
8553
102
{ACAD_REACTORS
330
854A
102
}
330
854A
100
DictionaryVariables
280
     0
  1
2
  0
DICTIONARY
  5
85D1
330
8279
100
AcDbDictionary
280
     1
281
     1
  3
ACAD_XREC_ROUNDTRIP
360
85D2
  0
DICTIONARY
  5
85D5
330
8281
100
AcDbDictionary
280
     1
281
     1
  3
ACAD_XREC_ROUNDTRIP
360
85D6
  0
DICTIONARY
  5
85D3
330
827D
100
AcDbDictionary
280
     1
281
     1
  3
ACAD_XREC_ROUNDTRIP
360
85D4
  0
DICTIONARY
  5
8229
330
8228
100
AcDbDictionary
280
     1
281
     1
  3
ACAD_XREC_ROUNDTRIP
360
859B
  3
BUMPTILE
360
822B
  3
DIFFUSETILE
360
822A
  3
OPACITYTILE
360
822E
  3
REFLECTIONTILE
360
822D
  3
REFRACTIONTILE
360
822F
  3
SPECULARTILE
360
822C
  0
DICTIONARY
  5
8221
330
8220
100
AcDbDictionary
280
     1
281
     1
  3
ACAD_XREC_ROUNDTRIP
360
859A
  3
BUMPTILE
360
8223
  3
DIFFUSETILE
360
8222
  3
OPACITYTILE
360
8226
  3
REFLECTIONTILE
360
8225
  3
REFRACTIONTILE
360
8227
  3
SPECULARTILE
360
8224
  0
DICTIONARY
  5
8231
330
8230
100
AcDbDictionary
280
     1
281
     1
  3
ACAD_XREC_ROUNDTRIP
360
859C
  3
BUMPTILE
360
8233
  3
DIFFUSETILE
360
8232
  3
FBXASSET
360
836F
  3
OPACITYTILE
360
8236
  3
REFLECTIONTILE
360
8235
  3
REFRACTIONTILE
360
8237
  3
SPECULARTILE
360
8234
  0
DICTIONARY
  5
85CF
330
8277
100
AcDbDictionary
280
     1
281
     1
  3
ACAD_XREC_ROUNDTRIP
360
85D0
  0
DICTIONARY
  5
8596
330
8273
100
AcDbDictionary
280
     1
281
     1
  3
ACAD_ROUNDTRIP_2008_TABLESTYLE_CELLSTYLEMAP
360
8597
  3
ACAD_XREC_ROUNDTRIP
360
85CD
  0
DICTIONARY
  5
85A7
330
823E
100
AcDbDictionary
280
     1
281
     1
  3
ACAD_XREC_ROUNDTRIP
360
85A8
  0
DICTIONARY
  5
85A5
330
823D
100
AcDbDictionary
280
     1
281
     1
  3
ACAD_XREC_ROUNDTRIP
360
85A6
  0
DICTIONARY
  5
85B3
330
8244
100
AcDbDictionary
280
     1
281
     1
  3
ACAD_XREC_ROUNDTRIP
360
85B4
  0
DICTIONARY
  5
85BB
330
8248
100
AcDbDictionary
280
     1
281
     1
  3
ACAD_XREC_ROUNDTRIP
360
85BC
  0
DICTIONARY
  5
85AD
330
8241
100
AcDbDictionary
280
     1
281
     1
  3
ACAD_XREC_ROUNDTRIP
360
85AE
  0
DICTIONARY
  5
85B1
330
8243
100
AcDbDictionary
280
     1
281
     1
  3
ACAD_XREC_ROUNDTRIP
360
85B2
  0
DICTIONARY
  5
85CB
330
8250
100
AcDbDictionary
280
     1
281
     1
  3
ACAD_XREC_ROUNDTRIP
360
85CC
  0
DICTIONARY
  5
85B9
330
8247
100
AcDbDictionary
280
     1
281
     1
  3
ACAD_XREC_ROUNDTRIP
360
85BA
  0
DICTIONARY
  5
859D
330
8239
100
AcDbDictionary
280
     1
281
     1
  3
ACAD_XREC_ROUNDTRIP
360
859E
  0
DICTIONARY
  5
859F
330
823A
100
AcDbDictionary
280
     1
281
     1
  3
ACAD_XREC_ROUNDTRIP
360
85A0
  0
DICTIONARY
  5
85A1
330
823B
100
AcDbDictionary
280
     1
281
     1
  3
ACAD_XREC_ROUNDTRIP
360
85A2
  0
DICTIONARY
  5
85A3
330
823C
100
AcDbDictionary
280
     1
281
     1
  3
ACAD_XREC_ROUNDTRIP
360
85A4
  0
DICTIONARY
  5
85AB
330
8240
100
AcDbDictionary
280
     1
281
     1
  3
ACAD_XREC_ROUNDTRIP
360
85AC
  0
DICTIONARY
  5
85C7
330
824E
100
AcDbDictionary
280
     1
281
     1
  3
ACAD_XREC_ROUNDTRIP
360
85C8
  0
DICTIONARY
  5
85B7
330
8246
100
AcDbDictionary
280
     1
281
     1
  3
ACAD_XREC_ROUNDTRIP
360
85B8
  0
DICTIONARY
  5
85C9
330
824F
100
AcDbDictionary
280
     1
281
     1
  3
ACAD_XREC_ROUNDTRIP
360
85CA
  0
DICTIONARY
  5
85AF
330
8242
100
AcDbDictionary
280
     1
281
     1
  3
ACAD_XREC_ROUNDTRIP
360
85B0
  0
DICTIONARY
  5
85C5
330
824D
100
AcDbDictionary
280
     1
281
     1
  3
ACAD_XREC_ROUNDTRIP
360
85C6
  0
DICTIONARY
  5
85C3
330
824C
100
AcDbDictionary
280
     1
281
     1
  3
ACAD_XREC_ROUNDTRIP
360
85C4
  0
DICTIONARY
  5
85BD
330
8249
100
AcDbDictionary
280
     1
281
     1
  3
ACAD_XREC_ROUNDTRIP
360
85BE
  0
DICTIONARY
  5
85BF
330
824A
100
AcDbDictionary
280
     1
281
     1
  3
ACAD_XREC_ROUNDTRIP
360
85C0
  0
DICTIONARY
  5
85B5
330
8245
100
AcDbDictionary
280
     1
281
     1
  3
ACAD_XREC_ROUNDTRIP
360
85B6
  0
DICTIONARY
  5
85A9
330
823F
100
AcDbDictionary
280
     1
281
     1
  3
ACAD_XREC_ROUNDTRIP
360
85AA
  0
DICTIONARY
  5
85C1
330
824B
100
AcDbDictionary
280
     1
281
     1
  3
ACAD_XREC_ROUNDTRIP
360
85C2
  0
XRECORD
  5
85D2
102
{ACAD_REACTORS
330
85D1
102
}
330
85D1
100
AcDbXrecord
280
     1
102
DISPLAYNAME
  1
Imperial24
102
FLAGS
 90
        0
  0
XRECORD
  5
85D6
102
{ACAD_REACTORS
330
85D5
102
}
330
85D5
100
AcDbXrecord
280
     1
102
SHADEPLOT
 70
     0
102
SHADEPLOTRESLEVEL
 70
     2
102
SHADEPLOTCUSTOMDPI
 70
   300
  0
XRECORD
  5
85D4
102
{ACAD_REACTORS
330
85D3
102
}
330
85D3
100
AcDbXrecord
280
     1
102
SHADEPLOT
 70
     0
102
SHADEPLOTRESLEVEL
 70
     2
102
SHADEPLOTCUSTOMDPI
 70
   300
  0
XRECORD
  5
859B
102
{ACAD_REACTORS
330
8229
102
}
330
8229
100
AcDbXrecord
280
     1
102
MATERIAL
148
0.0
149
0.0
149
0.0
 93
        0
 94
      127
282
     0
 72
     0
 77
     0
171
     0
175
     0
179
     0
273
     0
  0
XRECORD
  5
822B
102
{ACAD_REACTORS
330
8229
102
}
330
8229
100
AcDbXrecord
280
     1
270
     1
271
     1
  0
XRECORD
  5
822A
102
{ACAD_REACTORS
330
8229
102
}
330
8229
100
AcDbXrecord
280
     1
270
     1
271
     1
  0
XRECORD
  5
822E
102
{ACAD_REACTORS
330
8229
102
}
330
8229
100
AcDbXrecord
280
     1
270
     1
271
     1
  0
XRECORD
  5
822D
102
{ACAD_REACTORS
330
8229
102
}
330
8229
100
AcDbXrecord
280
     1
270
     1
271
     1
  0
XRECORD
  5
822F
102
{ACAD_REACTORS
330
8229
102
}
330
8229
100
AcDbXrecord
280
     1
270
     1
271
     1
  0
XRECORD
  5
822C
102
{ACAD_REACTORS
330
8229
102
}
330
8229
100
AcDbXrecord
280
     1
270
     1
271
     1
  0
XRECORD
  5
859A
102
{ACAD_REACTORS
330
8221
102
}
330
8221
100
AcDbXrecord
280
     1
102
MATERIAL
148
0.0
149
0.0
149
0.0
 93
        0
 94
      127
282
     0
 72
     0
 77
     0
171
     0
175
     0
179
     0
273
     0
  0
XRECORD
  5
8223
102
{ACAD_REACTORS
330
8221
102
}
330
8221
100
AcDbXrecord
280
     1
270
     1
271
     1
  0
XRECORD
  5
8222
102
{ACAD_REACTORS
330
8221
102
}
330
8221
100
AcDbXrecord
280
     1
270
     1
271
     1
  0
XRECORD
  5
8226
102
{ACAD_REACTORS
330
8221
102
}
330
8221
100
AcDbXrecord
280
     1
270
     1
271
     1
  0
XRECORD
  5
8225
102
{ACAD_REACTORS
330
8221
102
}
330
8221
100
AcDbXrecord
280
     1
270
     1
271
     1
  0
XRECORD
  5
8227
102
{ACAD_REACTORS
330
8221
102
}
330
8221
100
AcDbXrecord
280
     1
270
     1
271
     1
  0
XRECORD
  5
8224
102
{ACAD_REACTORS
330
8221
102
}
330
8221
100
AcDbXrecord
280
     1
270
     1
271
     1
  0
XRECORD
  5
859C
102
{ACAD_REACTORS
330
8231
102
}
330
8231
100
AcDbXrecord
280
     1
102
MATERIAL
148
0.0
149
0.0
149
0.0
 93
        0
 94
      127
282
     0
 72
     0
 77
     0
171
     0
175
     0
179
     0
273
     0
  0
XRECORD
  5
8233
102
{ACAD_REACTORS
330
8231
102
}
330
8231
100
AcDbXrecord
280
     1
270
     1
271
     1
  0
XRECORD
  5
8232
102
{ACAD_REACTORS
330
8231
102
}
330
8231
100
AcDbXrecord
280
     1
270
     1
271
     1
  0
XRECORD
  5
836F
102
{ACAD_REACTORS
330
8231
102
}
330
8231
100
AcDbXrecord
280
     1
 70
     1
 90
1959938040
 71
     1
  1
6EE6AC39-E0DB-44EA-83E1-B4FA8B3E1F18
311
504B03041400060808000F757457119316C7BF000000200100004F00000042464636323838412D354141342D344543452D394144342D3145454332333636334434372F4173736574446174612F446566696E6974696F6E4974657261746F7250726F706572746965732E62696EEB606060F80F0540260323103700495E20ED
311
9E9A975A94991C9C9C919A9BC8C00612C9C94F4ACC6147C831019920AE4B6A5A62694E0948976F6671726A4E4E625E6A7E69B12042A9426E6209D0B8C41C3D90264E20860914834C48875806B2DF0F88414E02D189290556F689C5C5A925B6FA694915FA166EE6E666C68E46BA066E2E4EBA264EA6AEBA4EAEAE06BA166E4E
311
C66E0616CE064E2ECEFA45A9C5F9A545C9A9C5FA46FA06F15093E30BF2D219182C44E75A3D015A02720308130200504B03041400060808000F757457395107D7EE000000300200004500000042464636323838412D354141342D344543452D394144342D3145454332333636334434372F4173736574446174612F496E7374
311
616E636550726F706572746965732E62696EEB606060F80F0540260323103700495E20ED9E9A975A94991C9C9C919A9BA8021430737535737436B6D475357071D235317175D4B5307635D475327173B47002B2DC0C2DD8111A415A8C0D4D5C5C8D4C2D754D4D4C8C754DCC8C80AADD9C5C740DCD8D0D9CCD9C9D2D1D5D2D81
311
CAC0F63268C6F41FFAAA71C51E483301C51A8018C607D3403E107CB087A8666010706010000B81091507041B2B0BA81102E00CACCA808270051F9881BC0620866A7D00A57980429800148E0819B821180A53763A6088A108606A0519AD81A4E6833D0B90078A2D3E200E2E4F2C49CED0752A4ACC4B494D01C9C4C6C6FEA705
311
0600504B03041400060808000F75745728BB58AF800100009E0500003D00000042464636323838412D354141342D344543452D394144342D3145454332333636334434372F536368656D61732F436F6D6D6F6E536368656D612E786D6CBD544D4FC23018BEFB2B96DE15493C78601010A34B880709DEDFB52FD0D8B54BD70D
311
F6EFED3AC0B12E6442E2716BFB3CEFF3D18E26FB440405EA8C2B1992E1C323095052C5B8DC842437EBFB673219DF8DA659866649B798C078B48AE6410122242F2A4994AC7F93815DF85C049C8564CA0A901499DD886B2EB9B1E02448F358701A9235880C49A0119892A20C89D1B9FD768815CAD268CB5E0355B40B1E47F3E3
311
7A2020464BED06AA57CE8FCC20C3C3446D46761A2632A8C1283D07031EFF2AE7CCB1BFEEE916E406DFAC8E36FFD99A9D60A6944090EEDC3B670C7DC13DE86B6B2C5C240D6E503BB85ACD579D513F1B9F9A69DC9CC22AFA80C426D40AF0B21EA168559156B6276F0F726A6BFF04DCD513A87A62CAD41FB24FCB2858B3952E3D
311
852084DA25B9303C15687973CC8E8AAE11DF2836C38C6A9E765E8C1BA1BFB1DC29CDFE518C8B5A7655A4ED7E77291ABEB80DBD82EC866ADE1B8D05AF9E35CF09D7A061F38A986D9EC412B8F0F65E5D81534D9B231D1E5A8FE577A241F3A5FD01504B03041400060808000F7574572CCEBD668A040000E01200003E00000042
311
464636323838412D354141342D344543452D394144342D3145454332333636334434372F536368656D61732F47656E65726963536368656D612E786D6CD5586D6FDB380CFE7EBF42F0F7A649B70E1B90744856B4970F450FCD7A5F05459613EDE4174872DADCAF3F522F8ED3B88D2F1D06AC4050DBA2493EE4438AF2F8EB73
311
AEC8466823CB62928C06C384888297A92C5693A4B6D9D9E7E4EBD51FE3A931C22EF85AE4EC6AFC38BF261BA626C9AD288496DC3F4FCEAFC63366845F7A10452AF41DB320C0D44EC26EAB20918735565582695670811A6A49643A49A6E9069FA4604A64B29016DC4B48552F95E4932463CA888468C1D2B250DB4962750DF7CE
311
273069CE8363F1FF4EDB00E0A21999574AE4A2B00C353B93F3BD4777B8A61ED8F604ABFEDD79CE56A2B7BDFBDBC50996E0ADDE16FED26223C5D30956C29BDF4A55EA686E5E58B112DA45CE67F76F4FA27EFA3FB672FD7372FC388FAECDCA5209E693CAD167BADCD272F943701B3812F8A3D852008B1D2E32DB927B2F833C6E
311
A95879925356D254582695095A3CE982924720BE5774A3CB9CDCDB350427D2DF20DA1B5532EBE2D5D6288D75D4F7E4FD9890A0EF8E3D93EBB8F8BA4758158EF6FB90A6F9520281C93DE7AAC6D24607DA296BB96018123F821A7D6A5C5884050C475DA4865442732C8B95684A50165CBB3A32F25F783A4A480ED59AD7F924B9
311
68AEA50131F46303223E6A397B0E52976030DC1DCA81D7E7C1EDEEA42C19FF27635C505E2BD5198A599020DF50A2330FCB3AAF28CB0124108429553EF1B228802E2265D8F7CC2401042B155BCC7070F1E5C55F13B4A9577362CCCE46C32174E010C3C378C44841A4BDA00FE3A12006CE11EE6AEC59894D3526DDE1CD59D503
311
ECC324017F8061B7F162162FA62EDD81AE3308617770796DCBDAD2B2625C5AE8A63DE20B2C8AA5E95E76E5730823955956E33E705425A2187C185D36489A1B44D3DCEC2172F6BA2105C3546287A7194B2331768EBBE64F6E70A9930ABE0ADEA89E9E2C38523B810287AD67A54A039C1606EAFE68F8304610BB9093DBDDABC0
311
B2AE4E290DCDA15376D7E39F72B556F0B32EAB5D3D498B4C41ABADEC3A1434C422D87E8025A84BDCB2B1417ED750FAE4DA8976863974C577C7F902D3F156AD354DEA3540DE6BEAE2BEA52F7A2EB4CA43802ECE5BF2CE2EDC9347179FFB023CE412E60BE16DA0BE29B374988A553F561DC04615DD35F7D2C8979F60E5955CE9
311
3DF29DED8AFA1EE6642D53418086C03C47C377910F75F7E8F5EF665F70B60FFB22AEDF897D119E8423C773E819A3C1E55E550599EE6EDCA34D0C86FD72057DF2CD46F16A470682471C164E4346D5306BF12D7D12D82CFF673D41636C347443FEB51B50D72EA171A8E4A58623A4A16E0FA2B8B10A0D23268D87C33896EE8FB7
311
3305A74BF224EDBADFA0BD674AB354D63DB7BD5D83426761C077DE767728235446A552754EB93B755891C3C4CC6CADE37CF0E912A7BB38DBA010F9DE1282EDF470CA69A9CDA482E334C4A6EA4107987980B17E72F31730EBF88BBD39E7C629F56797A3C0009C2C5AE7951D9A05A02773440F02EEB4DE396A3B6A570C72CCFB
311
CD823B0B8ED3F1D5CEDDFED772FA70236C83FB7D86C385D570B87107535572A60A96035F8F7C6A7192F13007246BBE0521855E6AC46F3E27689CEE7D186A6FD679D98CDCAD13333E04EBE7ED6F55FF01504B03041400060808000F7574576180134D5F0100006B0300004500000042464636323838412D354141342D344543
311
452D394144342D3145454332333636334434372F536368656D61732F52656E6465724D6174657269616C536368656D612E786D6CA5934D6FC2300C86EFFB1551EEE343DBA41D1A103009551ADAD40EAE28A4A68D9426284961FCFBE5A340113B2071746D3F765EBF4DC6BFB5407BD0862B49F0B037C0082453059725C18DDD
311
3EBFE3F1E829991803366715D474942CD30FB4A782E00C64017A412D684E454CE3FE28995203B162A6EA5AC94B66997D225E109CD63B0135484BAD1B3C07E9080CA35DB3119C11BCA5C200461A68A1A438126C75E3E230D40FF81FB3F03C91D1E3A3A0AF79FE28E25BC39EC3E17E4C2A2D94A0833A51AF55BCCA7D88572FCB
311
AC529C4140B020FC3AAFA886621DCED7EAD7664CC86024E806DC297DA1BB393E4156543457A4537DB8817349A70F8ACBF09B3EEE2CB2F33E91B65D60786E4E3B39B77E3FEEEF5650424525DA657FB8B46BE6BF064646F0A0F7327C0BC1BC1B4CBBC1C419FA3CCB23500007872A2580CAAE5461865565294E4EDB4617B62FF5
311
79DF9A5B2F54E834076A597573A020912FED777F9B3F504B03041400060808000F75745768266F0D4F000000570000004700000042464636323838412D354141342D344543452D394144342D3145454332333636334434372F4173736574446174612F41737365745461626C654F66436F6E74656E74732E62696E53616060
311
30737535737436B6D475357071D235317175D4B5307635D475327173B47002B2DC0C2D8480EA72134B528B321373120B0A52138B12F39253818260C00B24DD53F380B2C9C1C919A9B98900504B03041400060808000F757457F865834058000000680000004500000042464636323838412D354141342D344543452D394144
311
342D3145454332333636334434372F4173736574446174612F53747265616D56657273696F6E5461626C652E696E66558CBD0A80300C06F73E4B117FB66E451741D041DC5BF98480A492E4FDD18EAEC7DD4555D89EF28DF51A0B1BD8340C4DE7DD848B988C0ACF0649566493F2408C508DDEBB99D5129FF8F1AF8CF5B9503E
311
20FAE5A16B5AF702504B03041400060808000F7574577CB379B4340100009A0400003600000042464636323838412D354141342D344543452D394144342D3145454332333636334434372F4173736574446174612F636E782E786D6CCD94314FC3301085FF4AE43D76D2764095E30AC1D209242A06B6AB7329561D3BB22F08
311
FE3D769B0154C49421EBF9DDF9F993DFC9DD676F8B0F0CD178D7B09A57AC40A77D6BDCA9612375E51D2B764A06EFE9878C150E7A6C582E33254FC18FC3546AB183D1E6AA35EE3C15EF63443AC0D1E253F7E01DA1A3C80A6D21C68645FD8E3D7018C9B718CFBC05025EF380D18F41639A44A6C769920E08842D53AB6AB52EEB
311
BA5C55877AB3DD54DB75F52645562A79F4DE4E7A932E0B7E28F4F556A62A29F2B19263309326BF85A9BF3CF2A3715224A5929142623275D0D7903A6018ACD140099DF09A90CA2442E8A5B88A951499C12F128FD8196772CB3E1903F2E139D9C340061747E43FAFF393D9BB48E0342E97C7ADC3F929BC5C7ED0EB359097C42C
311
2D27B70EB971DD0C29119735924293B78AFA06504B03041400060808000F75745732B8E927070100004F0300003400000042464636323838412D354141342D344543452D394144342D3145454332333636334434372F536368656D61732F636E782E786D6CCD93BD52032114855F65873EC06E52381996141656366A658770
311
13990077871F47DF5E582992193B2DD2C1E11BE69CC3451C3EBD1B3E20268B612623E56480A0D1D8709A49C9C7CD1D190E5244C47C819121280F33693291E214B12C5D327054C535D5D970EEE23D7A8FE159BF835764D04EA53493B46EA92A190DA433352A2B3AD208094BD4506FC8D643BF414750190C91139FB69B71DC4C
311
FC65DCED777CBFE5AF8235528A3744D7791B32445C068D7511AA1D2E583B96A244DB999681C84B6FB4B6215825A44839D60E3A99BF964AAA657156AB5CAB622BF8C348C15AD4ABC00F10205A7D9B89AFCCFD5BE4270806E2637DA56895BBCDE4BF79FC5B016C9DFD3A02ED2BC86F504B03041400060808000F757457410A3D
311
5871000000A40000002C00000042464636323838412D354141342D344543452D394144342D3145454332333636334434372F636E782E786D6C55CC4D0E82301086E1AB34B31774E7A22D31F1069E60020334B633A63FC6E34B0909B07DDE2F9FEE7EC1AB2FC5E4840DDC9A2B28E25E06C7938192C7CB1D54677514C9871928
311
C640062A83D55394F2D968A0118BAFEA1DBF377CA444F98919176EAB9FEAAB9F2960DA5BBB1E2ED3FA6FFF504B03041400060808000F757457598415627F000000A300000007000000636E782E786D6C4D8CD10E822018465F85FDF7542A116D8023C5F770898E85D0485A8F1F342FBAFAB6B3EF1CDE7E5687DE26BE6CF002
311
AAC30990F1F73059BF0848DB8C19A056F218C2F67703E4C7D5082818245F6248CF1D4D661E932BD459FFD8E16D1868CD98C267A50826BAD3F8AA7A822BADBBBAA1B4E9C9251BC7A2E4F9F5F296BCFC02504B03041400060808000F75745716E99B5DA600000035010000130000005B436F6E74656E745F54797065735D2E78
311
6D6C9590410E82301045AFD2740F4517C6180A0BF5065E60AC53688469D30E066F6F91AD9AB89CF9FFFD3F99BA9DC7413C3026E749CB4D59498164FCCD51A7E5C4B6D84BD136F5E5193089ECA5A465CF1C0E4A25D3E308A9F401292BD6C711388FB15301CC1D3A54DBAADA29E38991B8E0254336F5092D4C038BF39CD76B6F
311
C6A538AEBEA54A4B08617006389FA516557DE4AE8E7E70DE30729138228C5F021CD93F02D4FB0DCD0B504B03041400060808000F7574573DEE336E64000000790000001B0000006175746F6465736B2D64657369676E2D7061636B6167652E786D6C35CBC10E83200C00D05F21DCA56CA76D41FC96062B120735B69A7DBE26
311
8BB7777961F8D5AF396893C2ADB70FE7ADA196782C2DF776D7A97B5933C430F15651E5469C55D70F80A4992A3ADC954792C525AE70A1E4D6AD9816CC044FEFDF01FE3FDE907802504B03041400060808000F757457DF8788ADF8000000960100003700000042464636323838412D354141342D344543452D394144342D3145
311
454332333636334434372F4173736574446174612F636F72652E786D6C8550CB6EC32010FC156BEFD86063B78A30915BCB5FD0536F08888B1283C5A3EAE71712576A4F3DED6A76667677D8F96BBB559FDA07E3EC08A4C650692B9D32761D21C50B7A86EACC99772EFEA24165C5A647283070B67A97F60392CE466D0B6A9DD2
311
072842D0112A79CBCD08417EE84DD422C5CC08D77A17F22A565D93FAC1E32C25A30EA951D9CD5C8CF6C0977979A264C6A86FE90BA274EED0340C1D7A5DF030D169A27D8F5953C49C45B3FD6C975E8BA815F016B71D2204B5F88DD013C5A70EBFB3A630390BD1E79F8FA5E53BE053B97A1651B0E631FDE39A76F5BF6B323676
311
EDE1FA5004E0241F791F70D6949472B947986B49947F03504B03041400060808000F757457D7950C4AF7000000940100003500000042464636323838412D354141342D344543452D394144342D3145454332333636334434372F536368656D61732F636F72652E786D6C8550CB6E833010FC15B477830D26AD22E38816F103
311
EDA937CB38C44AB0911F553FBF3650A93DF5B4ABD999D9DD6197AFE5517C2AE7B5351D901243A18CB493367307315CD1331417CE9CB5E1170D0A2316D5418681B3D9D9B81E90B42628935163277580C27B15A0908FD474E0E54D2DA214312486BF97AB907731AB92943B8FB318F57448F594DCF4552B077C1CC6274A068CDA
311
9ABE204A8706F5A753835E477CEA69DFD3B6C5ACCA62CE825E7EB64BA7445013F01AD70D2204D5F89DD033C5E7067FB02A3339F3C1A59F8FA5F93BE06FDB9D9E55FBEC8F675CA7FF3DA336A1A90FCF5DE1819374E236E0ACCA19A5B205986ACE937F03504B03041400060808000F7574578A2CCF1802010000D70100002D00
311
000042464636323838412D354141342D344543452D394144342D3145454332333636334434372F636F72652E786D6C9591C172832010865FC5D93B2A6AACCD20199B9827E8A9372A1BC3248203D8E9E317AA9DB6B7F604F3F3FDBBFCBBECF03EDD9337B44E19DD024D7348500F462A3DB6B0F80B69203970668DF13F3048B4
311
98B085280367A335CBBC4983D11E7554B591B889C239F4900CF77069C10D579C442A161F08774B6731DCC488294D578E33AFA62FEB60517894C08BBC2809A5A4C89F69B5AFF27D99BFB02C929C2D4AFBB2D89AE1F48A3231B30F9180EF58B6BE066A517263940C7F54178516F8D3F95C174DD3915DD755A4EA8F3D79EC4E15
311
A17D7F2CCABA2E4FD5432812CC9C396FC364B62271067FB5AFC65FC99659FE33D9EA70C0E977A82C8E99B3EC7307E18C2BE11F504B03041400060808000F757457E970FAD705010000B201000008000000636F72652E786D6C8D50CD6E8420107E15327714146DB34136B6C627E8A9372AAC4B56C1086EDAB72FAC36696F3D
311
0DF9E6FB63F8F9739ED05DAFDE38DB00CD08206D07A78C1D1BD8C2053F033A0BBE3A177ED1005939EB06120C828FABDB96031A9C0DDA26D43AA50F507AAF03A0618A8F06FC70D5B3CCE41622C3DFB2450E3739EA8C663B4FF060E61FE9B06A19B4025190A2C494E282BC517662E45492779E27A6E0DB66D41165544C3717A3
311
57107DD73F31DA115C15EC0533D695B8ADEB12BFF6A46E59DBB2AA223C4F62C17D58E39F0F93D833202FEF2997E7FB4AF00FE7A683104B29E4ECF405223AA4C59FD2DBA2FE51DAD8501687E1AEF020682CF458C4E074C1381EE78D335D5B7C03504B010214001400060808000F757457119316C7BF000000200100004F0000
311
00000000000000000000000000000042464636323838412D354141342D344543452D394144342D3145454332333636334434372F4173736574446174612F446566696E6974696F6E4974657261746F7250726F706572746965732E62696E504B010214001400060808000F757457395107D7EE000000300200004500000000
311
0000000000000000002C01000042464636323838412D354141342D344543452D394144342D3145454332333636334434372F4173736574446174612F496E7374616E636550726F706572746965732E62696E504B010214001400060808000F75745728BB58AF800100009E0500003D000000000000000000000000007D0200
311
0042464636323838412D354141342D344543452D394144342D3145454332333636334434372F536368656D61732F436F6D6D6F6E536368656D612E786D6C504B010214001400060808000F7574572CCEBD668A040000E01200003E000000000000000000000000005804000042464636323838412D354141342D344543452D
311
394144342D3145454332333636334434372F536368656D61732F47656E65726963536368656D612E786D6C504B010214001400060808000F7574576180134D5F0100006B03000045000000000000000000000000003E09000042464636323838412D354141342D344543452D394144342D3145454332333636334434372F53
311
6368656D61732F52656E6465724D6174657269616C536368656D612E786D6C504B010214001400060808000F75745768266F0D4F000000570000004700000000000000000000000000000B000042464636323838412D354141342D344543452D394144342D3145454332333636334434372F4173736574446174612F417373
311
65745461626C654F66436F6E74656E74732E62696E504B010214001400060808000F757457F865834058000000680000004500000000000000000000000000B40B000042464636323838412D354141342D344543452D394144342D3145454332333636334434372F4173736574446174612F53747265616D56657273696F6E
311
5461626C652E696E66504B010214001400060808000F7574577CB379B4340100009A04000036000000000000000000000000006F0C000042464636323838412D354141342D344543452D394144342D3145454332333636334434372F4173736574446174612F636E782E786D6C504B010214001400060808000F75745732B8
311
E927070100004F0300003400000000000000000000000000F70D000042464636323838412D354141342D344543452D394144342D3145454332333636334434372F536368656D61732F636E782E786D6C504B010214001400060808000F757457410A3D5871000000A40000002C00000000000000000000000000500F000042
311
464636323838412D354141342D344543452D394144342D3145454332333636334434372F636E782E786D6C504B010214001400060808000F757457598415627F000000A300000007000000000000000000000000000B100000636E782E786D6C504B010214001400060808000F75745716E99B5DA600000035010000130000
311
0000000000000000000000AF1000005B436F6E74656E745F54797065735D2E786D6C504B010214001400060808000F7574573DEE336E64000000790000001B00000000000000000000000000861100006175746F6465736B2D64657369676E2D7061636B6167652E786D6C504B010214001400060808000F757457DF8788AD
311
F80000009601000037000000000000000000000000002312000042464636323838412D354141342D344543452D394144342D3145454332333636334434372F4173736574446174612F636F72652E786D6C504B010214001400060808000F757457D7950C4AF700000094010000350000000000000000000000000070130000
311
42464636323838412D354141342D344543452D394144342D3145454332333636334434372F536368656D61732F636F72652E786D6C504B010214001400060808000F7574578A2CCF1802010000D70100002D00000000000000000000000000BA14000042464636323838412D354141342D344543452D394144342D31454543
311
32333636334434372F636F72652E786D6C504B010214001400060808000F757457E970FAD705010000B2010000080000000000000000000000000007160000636F72652E786D6C504B050600000000110011005A060000321700000000
310
504B03041400060808000F757457000000000000000000000000370000006662782F39464141454439322D394543342D344646302D413145412D3733424246313639464642332F617474726962757465732E62696E504B03041400060808000F757457000000000000000000000000350000006662782F3946414145443932
310
2D394543342D344646302D413145412D3733424246313639464642332F76657274696365732E62696E504B03041400060808000F757457F270F1330600000004000000360000006662782F39464141454439322D394543342D344646302D413145412D3733424246313639464642332F747269616E676C65732E62696E6366
310
60600000504B03041400060808000F75745751464CB48900000043010000360000006662782F39464141454439322D394543342D344646302D413145412D3733424246313639464642332F6469726563746F72792E786D6C9D8F310EC2300C45AF127987122606C71DD918B841D4B851A43646695A717C52A85029031293A5
310
A76FBF6FACEF7DA7264E43906840EF0FA03836E242F406C6DCEE4EA06AC22492573150D1F66C60C640E8938CB705396EEDD86DE9B5042FE27813D640EA63BB001C722AF6E55CB61E4863F58284D5D3F53DD715CE1C3985E63FD7F1B7EBDD617E9F1E504B03041400060808000F7574571C0089D33B070000201C0000340000
310
006662782F39464141454439322D394543342D344646302D413145412D3733424246313639464642332F6F626A656374732E786D6CDD59596FDB3810FE2B84F665F7C13A7CC52E1C17F1551845DAA24617FB26D032ED70431DA0A4C4D95FBF438A944545B6951EC062132056687238F3CD3D9ABC3F860C3D119ED238BAB53C
310
DBB51089827847A3C3AD9567FBCEC842EFA768C2E338ABECB3508443726B89656B3A39F0384FD4D28EEC71CEEAABABD95F280D48442C14309CA6B7561A3C9010DB38CFE21D491FED1DCEB07DD81F6DCF2E369A640F1C270FB5AB12CC499401ABB01E0115C58167FE0B2239D389233618DB7AEDB6752F6C73A4E026A3344A33
310
1C05AFB8AA5DD73DC355EDBA9ED75F2CBB837167D0EFF73AFD61D7EBCC56B345C7BBE9B9F3E17C3EBE5B8E2D349D6CE398950A4848B4032DBE58536FE2886F4AF1150A4D7C0771149140A1D9B46147145D4AD23A2606B09E14ADA29042D6CA42AFA5F067B6B502C560C9405B0BA73FABD61B6FFF0610D23656CA5322AC3CCD
310
38E85A615FF8833B718A55432F344521CE08A7982146B71C7350106C2D14649011DE2248218199D4A2A657E5150CFBBA2F3571B9CF1913FE6B4DA5A7F9E08F244B2567F41FC24FDC576F039E40DA9C46D948099BBD2440623C71E462F15DAFABBE2C80447B860F602D20A6D8D4EBD6F09A8B58B05E58D38FABED7123E243F3
310
E5098F13C2336179D29995DF690D564C0B8CAF052805AEA6EE4EA87C05E83F01F2252F68029AE3F4D83FF6B5EC1C47E93EE6216807B9A8E3C21F1789C7574F13A73C3C45C88895E73005B7FD49981A62187757209D4E9EC0E863DE53C26D02CCC0A6EF6924FC1C0C05B1189620DEEFB7476BBA86600A8B700A33901E7E278E
310
7844F051D0817853D35053F86DA128ED30753F3BE9EA03D80CA741A92A43C673F80E7E0ABE778BCDC74DCEF73820F7CAB117644F239A41326D66C800DD70F96FEB4FD2233FB0788BD9E9B4B129806B0EB1881B0D6AD928B520A917E044A4E1423372E59E82B733862312E7A95A6F8A5341CC62EE6F5FFCC2851BEFFA53DB40
310
71993280C65806C93DE03411985853A5AD3210DA1541C1C23057167828B4EA6FF330F17118E79108B5AF4DB1CE07C4196189405552D386ADBD5693DDD1FD3E4F217835929C1B402A7FD6840B0BEF431C6BE297933DC79044E3C8A79083C1591A6F302E28C1BBCC734AD8DEA78CE5A1BFA70CF2881FE2E40CFD96125433D723
310
79798EF9AE91A06959DA27B50D09C015B01A249DAD8A98AF74CAC9131565A6CC673A1B183B541D6A4DFB67D285C8140D806A6394663E5C2E8777F3DEB8B37417B34EBFBFBCEB8C7A4B289BFAABBBD10C9E56DEA8CEA78E56D57C07AA14658EE17FD9431E6E234C197C21C4C6BBE4DD7B993D6F1D088DCE68757333ECDD753B
310
EE4ADC3D1B2C3BB3E5D2ED8C56B3DECA1DCDDDD962EE7092C6390F48EA741DD7D726994487735C69EE5EC750286BAE273BADAFBA30FFE3185ACF098612FFAB41B48C5D0D0561DB202A8ED643280E1E458AF203A8FA1ADDA71644EB7C34C5B937C665D7EEB9F2C7F3C65D77DC1D8D87A5B15F0CD4F29E1F8E734D1204D077E6
310
991F2738A0597342ADE1D2324EBF29B7D83D6F80009DF26F79C9E53CA32EF169880FC4DF63D1253404C66B1234E6B0038BD3944624955DDEABEAAF46D3B5A19832736E8311D2D40F4986BFC7FE64DB50B36988CDCC877E34131381AB554169D0AA0339475174BF90B8A5FC2F7E8AC384159DEE350CBCAE8640F7384D162798
310
16573C81BDF938F3DD1D91838B6BD44BF6757DD0A8B53AF5F177933F038FAE6B7E213CFA8AF6A5933DF0C6E26704416538F07A375A11D7B0D25765A28F6339749EC18BFF4CE8E1A155A1D94E279592AD28AA3312421B8BB39CB7F2D7E1C07D75918A0B3587A8DCF4C6E250F66FBA8303F4640377AEBCAD5C0375288D60CED5
310
4A905752349AB0D4859CE989D1D51BFCFAA2B2AB547F385EFEF28AB9EA7CA11CFE5CC701AAE52200ABE863D4D48D55B7510FA5CF380B20906EE46767061EB123BB536366906B2AD1757D7AAD7A5E8B801AC2C4168B387B2F1ED8570CAA86EE39753E14459B53ACAF4562B361387DE2C360DAA4F5F9C3A64605565A9FFE2230
310
22CF350A6A752EBAE10BA4BEAD4F3D7F8D8292E8DBFAC2F1FF4447A1155819A3C134388D1985A13CD9A10389217BC3D8A145B7C14392CAAC0CC6AB82947E23D0E2F4533153CDF096E9D3C10386C13453BD581EC0501432E6ADA5D6D16F3006159348399CB21FA10D5331CC4239A7B716586C46A1DBB2B730CE92C34349BD36
310
AE04C7C6D141E4FBE254F9FFE9984007A2D249AE724F1B5C9464863341619BC8F70450F5155F4C27DF2FBA6607E10C1EB779560A735A3849A340D02F040AE160EAF7A8E03D424171592ECF967B0C485A4DE62FDA4141B593617E90E3F50ADE778B2F8E988CAF3FA384E507A1CE4BDDAF41A923BA6E961753A80918861233C1
310
A2869CBF73BEF0185E31856845C108D0EFC7D1F00F671E87611C154BCE9D7A5185360FF0DA69E7E8911FB4F1AE3770E414408DF5FD2D4E898D77E9232C806A3915B3D10262C300CA685A3100AD11A10B3866EC5F2F90AA8D2A13926AD815F0C8993E024712EF7284DB5437540690E00BC095FCF2F4A017260E8721F8F45F50
310
4B03041400060808000F75745724B812743D01000046050000300000006662782F39464141454439322D394543342D344646302D413145412D3733424246313639464642332F636E782E786D6CCD94C14E032110865F85705FD86D7B300D4B130F3E8107E38D65A72B96850D0CC6BEBD50B755636A3C34696F64F827F9BF99
310
3F2336EFA3256F10A2F1AEA50DAB2901A77D6FDCD0D284DBEA8E928D14C17BFC26A3C4A9115A5ACA548A21F834CDA51EB62AD952B5C6EDE6A2420CA64B0891126D558C2D8DFA0546C55442DF43DCB15EA1620D0B107D0A1A723F9A11E67E1D4021F4542EEAC5B26A9A6A513F36ABF5AA5E2FEB67C18B528ACE7B3BEB8D4308
310
7E22DAE787CB666AC1CBB7142998595308A8FC72C63AE304CFFF52C4ECD60DB30EF753D14D93355A611E13F71A01AB2C02350AFE29968217DE1FD40FF74F4707A4370134FAB0BFD2009A73033819633909FFE33F08FFC6F6DD6BC6BDD6B6CFC2CEB62E867A4C6BCC71FDBDFF9C22E5067B7BA13F19BB7CE6F32941A36F0FF9
310
E8EB42C4FC70F2F2D2CB05941F504B03041400060808000F757457ADA1AA107E000000A30000000B0000006662782F636E782E786D6C4D8CD10AC22018465F45FE7B6BB65109EAD0D2F718CD0D99D3B0193D7E1ABBE8EA83C3770EEB3FAB476F9B5E2E060EE4D000B2E1114717660E799BF015502F588A71FBBB010AC36A39
310
540C82CD29E6E78E463B0DD957EA5D5876488D94FA4E4F98EA5B873B631A2C8996F8D22A65C8991AA3DA621CAB52E6D72B5BF3E20B504B03041400060808000F757457A6D797065F0000008200000007000000636E782E786D6C4DCB3B0E80201045D1AD90E9FD7516806B51190811670C8A61F982B1B0BAC9C97B72CA7B10
310
37C6D3332918DA1E04D2CAC69353902EDB8C20262D23F3F59B81A079470595414B17391D1F19B4730A5583A7ED43BBE4025D9592775E5ADFFA01504B03041400060808000F7574574FEB6A7CA0000000F4000000130000005B436F6E74656E745F54797065735D2E786D6C7D8F4B0EC2300C44AF1279DFA6B0400835ED02B8
310
011730C16D239A8F121795DB93D02D6269CFBC19BBED573B8B17C564BC53B0AB1B10E4B47F18372A5878A88E20FAAEBDBD032591BD2E299898C349CAA427B2986A1FC86565F0D122E7318E32A07EE24872DF3407A9BD63725C71C980AEBDD080CBCCE2BAE6F5D69B7110E7CD57AA146008B3D1C8F92C5954F993BB1BF787F3
310
9A89ABC491D09600F9FDA2FB00504B03041400060808000F7574573DEE336E64000000790000001B0000006175746F6465736B2D64657369676E2D7061636B6167652E786D6C35CBC10E83200C00D05F21DCA56CA76D41FC96062B120735B69A7DBE268BB7777961F8D5AF396893C2ADB70FE7ADA196782C2DF776D7A97B59
310
33C430F15651E5469C55D70F80A4992A3ADC954792C525AE70A1E4D6AD9816CC044FEFDF01FE3FDE907802504B03041400060808000F757457B12829B3F8000000960100003B0000006662782F39464141454439322D394543342D344646302D413145412D3733424246313639464642332F7265736F75726365732F636F72
310
652E786D6C8550CB6E833010FC15B477830D442291715405F8829E7AB3CC26B1126CE447D5CFAF1DA8D49E7ADAD5ECCCECEEF0F3D7F22C3ED1796D4D0FACA450A05176D6E6D6430C57D2417116DC591B7ED1A03072C11E320C82DF9C8DEB0E296B029A8C1A3BE30E4AEF3140A19EA9E9C1AB3B2EB2943124867F94AB540F79
310
C392951B4FF018F5BC4BF59CDCF455A303D15EE834B04347C661BA90B69B46D2D5DD811C9B691C8E43F3C6D8C4AB2C163CE8E567BB722803CE206A5A37843152D377D69E5A7A6AE807AF3253701F5CFA795F9ABF03E1D0DBE8147A5E6DD33FAE719DFF778DDA84A6DE5D378507C1D291AF81E0554E29955784A9E644C53750
310
4B03041400060808000F757457FC2D9A8AF2000000B1010000310000006662782F39464141454439322D394543342D344646302D413145412D3733424246313639464642332F636F72652E786D6C8D504D6F842014FC2BE6DD5150D3D60DB2D1567E414FBD11642DD9150C1F4D7F7E61B5497BDBD323F366987943CFDFEBAD
310
F852CE6B6B7A202586421969676D961E62B8A01728CE8C3A6BC31F1A1446ACAA870C03A38BB3713B20694D5026A3C6CEEA0085F72A40216FE9D183979F6A15A5882131FCB5DC84BC8A4595A4DC798C06BDFE4AA55322A819588DEB0611826AFC4EDA538B4F0DFEA05566321AA39E0F2B3D27777DD1CA01EBF8304C6F5D8DBA
310
E9B5452DE7180D641AD073338E9C3C759C8F0DADB298511F5CBAF9F8245FF7A87C17FECB1CB7F981CCDA84A63E0C77850746529EFB82D12A1798C6BDDD3473D9EC07504B03041400060808000F757457488EDCCF53010000DD0200000C0000006662782F636F72652E786D6C8D52DB8E832014FC15C33B2A6A13DB20CDA6D6
310
2FD8A77DA3482DA9824130FDFC052F717DD8EEC604C99C7366CE4CC0E757D70623D78350B200288C41C02553B5904D01ACB9C31C046782B552E6471B0824ED78013C0C086EB4B2FD0231250D971E95AAE60B4887811B10B0D65D0A30B007EF6848AD711DC333EC297BD28687289CFB08B656D4CBA8A81D9BB80BAE01C92E71
310
55A2430EAF657581595E5D619EE407784CAB6B792CD30F842A1CF961828DE85675A63935BC0624899314220493F81365A72C3EA5F1178E7C27C183D1CEF322EADD0172BFBD7034E33B3EDBD77FF359214D9A2C7CF3C4000872EB4D0582239F8FFB4DE1ED3374C22E3F436FED6AE1E9A09133A374E62AB5B25B69A4ADE58E3A
310
0EA60F4773D5314F04BFF1246F78DE73B8A0A86CDC6AD4B8EBCD1AAFBEDFA9E71A8EE61548A53BDA6ECBCD2B6EE726B4B3B48E33D52AFD9FE9D5EA1A66E41F26F906504B03041400060808000F7574570C98588906010000B201000008000000636F72652E786D6C8D50416EC32010FC0ADA3B36D88EE44498A88AED17F4D4
310
1B05E2A2D8601988DADF1712576A6F3D2D9A99DD19869D3F9719DDF5E68DB31DD08200D2563A65ECD4410C57DC023A73B639177EC90059B1E80E320C9C4D9B8BEB0E496783B619B54EE91D14DEEB0048CEE9D181971F7A1185882129FCAD5885BC894917B478EA380B66F959959B16412BE015A96A4C29AEC82B6D4E0D39D5
310
E48D9559C9598C46ED5646257773357A03DE5CC8D8D3438B877EBCE0A61D07DC56ED011FEB71E88F7DFD42E9C8CABCCC990F5BFAF37E24E50CC88B7BF665E593E2ECDDB97917A4500A393B7F0127ACCCC49FD07155FF086D6CA8ABFDE073C303A729D08348C6B9C1341EF5A699DBE6DF504B010214001400060808000F7574
310
570000000000000000000000003700000000000000000000000000000000006662782F39464141454439322D394543342D344646302D413145412D3733424246313639464642332F617474726962757465732E62696E504B010214001400060808000F75745700000000000000000000000035000000000000000000000000
310
00550000006662782F39464141454439322D394543342D344646302D413145412D3733424246313639464642332F76657274696365732E62696E504B010214001400060808000F757457F270F13306000000040000003600000000000000000000000000A80000006662782F39464141454439322D394543342D344646302D
310
413145412D3733424246313639464642332F747269616E676C65732E62696E504B010214001400060808000F75745751464CB489000000430100003600000000000000000000000000020100006662782F39464141454439322D394543342D344646302D413145412D3733424246313639464642332F6469726563746F7279
310
2E786D6C504B010214001400060808000F7574571C0089D33B070000201C00003400000000000000000000000000DF0100006662782F39464141454439322D394543342D344646302D413145412D3733424246313639464642332F6F626A656374732E786D6C504B010214001400060808000F75745724B812743D01000046
310
05000030000000000000000000000000006C0900006662782F39464141454439322D394543342D344646302D413145412D3733424246313639464642332F636E782E786D6C504B010214001400060808000F757457ADA1AA107E000000A30000000B00000000000000000000000000F70A00006662782F636E782E786D6C50
310
4B010214001400060808000F757457A6D797065F0000008200000007000000000000000000000000009E0B0000636E782E786D6C504B010214001400060808000F7574574FEB6A7CA0000000F40000001300000000000000000000000000220C00005B436F6E74656E745F54797065735D2E786D6C504B0102140014000608
310
08000F7574573DEE336E64000000790000001B00000000000000000000000000F30C00006175746F6465736B2D64657369676E2D7061636B6167652E786D6C504B010214001400060808000F757457B12829B3F8000000960100003B00000000000000000000000000900D00006662782F39464141454439322D394543342D
310
344646302D413145412D3733424246313639464642332F7265736F75726365732F636F72652E786D6C504B010214001400060808000F757457FC2D9A8AF2000000B10100003100000000000000000000000000E10E00006662782F39464141454439322D394543342D344646302D413145412D373342424631363946464233
310
2F636F72652E786D6C504B010214001400060808000F757457488EDCCF53010000DD0200000C00000000000000000000000000221000006662782F636F72652E786D6C504B010214001400060808000F7574570C98588906010000B201000008000000000000000000000000009F110000636F72652E786D6C504B05060000
310
00000E000E0080040000CB1200000000
  0
XRECORD
  5
8236
102
{ACAD_REACTORS
330
8231
102
}
330
8231
100
AcDbXrecord
280
     1
270
     1
271
     1
  0
XRECORD
  5
8235
102
{ACAD_REACTORS
330
8231
102
}
330
8231
100
AcDbXrecord
280
     1
270
     1
271
     1
  0
XRECORD
  5
8237
102
{ACAD_REACTORS
330
8231
102
}
330
8231
100
AcDbXrecord
280
     1
270
     1
271
     1
  0
XRECORD
  5
8234
102
{ACAD_REACTORS
330
8231
102
}
330
8231
100
AcDbXrecord
280
     1
270
     1
271
     1
  0
XRECORD
  5
85D0
102
{ACAD_REACTORS
330
85CF
102
}
330
85CF
100
AcDbXrecord
280
     1
102
DISPLAYNAME
  1
Imperial24
102
FLAGS
 90
        0
  0
CELLSTYLEMAP
  5
8597
102
{ACAD_REACTORS
330
8596
102
}
330
8596
100
AcDbCellStyleMap
 90
        3
300
CELLSTYLE
  1
TABLEFORMAT_BEGIN
 90
        5
170
     1
 91
        0
 92
    32768
 62
   257
 93
        1
300
CONTENTFORMAT
  1
CONTENTFORMAT_BEGIN
 90
        0
 91
        0
 92
      512
 93
        0
300

 40
0.0
140
1.0
 94
        5
 62
     0
340
8264
144
0.25
309
CONTENTFORMAT_END
171
     0
 94
        0
309
TABLEFORMAT_END
  1
CELLSTYLE_BEGIN
 90
        1
 91
        1
300
_TITLE
309
CELLSTYLE_END
300
CELLSTYLE
  1
TABLEFORMAT_BEGIN
 90
        5
170
     1
 91
        0
 92
        0
 62
   257
 93
        1
300
CONTENTFORMAT
  1
CONTENTFORMAT_BEGIN
 90
        0
 91
        0
 92
      512
 93
        0
300

 40
0.0
140
1.0
 94
        5
 62
     0
340
8264
144
0.18
309
CONTENTFORMAT_END
171
     0
 94
        0
309
TABLEFORMAT_END
  1
CELLSTYLE_BEGIN
 90
        2
 91
        1
300
_HEADER
309
CELLSTYLE_END
300
CELLSTYLE
  1
TABLEFORMAT_BEGIN
 90
        5
170
     1
 91
        0
 92
        0
 62
   257
 93
        1
300
CONTENTFORMAT
  1
CONTENTFORMAT_BEGIN
 90
        0
 91
        0
 92
      512
 93
        0
300

 40
0.0
140
1.0
 94
        2
 62
     0
340
8264
144
0.18
309
CONTENTFORMAT_END
171
     0
 94
        0
309
TABLEFORMAT_END
  1
CELLSTYLE_BEGIN
 90
        3
 91
        2
300
_DATA
309
CELLSTYLE_END
  0
XRECORD
  5
85CD
102
{ACAD_REACTORS
330
8596
102
}
330
8596
100
AcDbXrecord
280
     1
102
ACAD_ROUNDTRIP_PRE2007_TABLESTYLE
 90
      512
 91
        0
  1

 92
      512
 93
        0
  2

 94
      512
 95
        0
  3

  0
XRECORD
  5
85A8
102
{ACAD_REACTORS
330
85A7
102
}
330
85A7
100
AcDbXrecord
280
     1
102
RTVSPost2010Prop28
280
     1
102
RTVSPost2010PropOp28
 70
     1
102
RTVSPost2010Prop29
280
     1
102
RTVSPost2010PropOp29
 70
     1
102
RTVSPost2010Prop30
280
     0
102
RTVSPost2010PropOp30
 70
     1
102
RTVSPost2010Prop31
280
     0
102
RTVSPost2010PropOp31
 70
     1
102
RTVSPost2010Prop32
280
     0
102
RTVSPost2010PropOp32
 70
     1
102
RTVSPost2010Prop33
280
     0
102
RTVSPost2010PropOp33
 70
     1
102
RTVSPost2010Prop34
280
     0
102
RTVSPost2010PropOp34
 70
     1
102
RTVSPost2010Prop35
280
     0
102
RTVSPost2010PropOp35
 70
     1
102
RTVSPost2010Prop36
280
     0
102
RTVSPost2010PropOp36
 70
     1
102
RTVSPost2010Prop37
 90
       50
102
RTVSPost2010PropOp37
 70
     1
102
RTVSPost2010Prop38
140
0.0
102
RTVSPost2010PropOp38
 70
     1
102
RTVSPost2010Prop39
140
1.0
102
RTVSPost2010PropOp39
 70
     1
102
RTVSPost2010Prop40
 90
        0
102
RTVSPost2010PropOp40
 70
     1
102
RTVSPost2010Prop41ColorIndex
 90
       18
102
RTVSPost2010Prop41ColorRGB
 90
        0
102
RTVSPost2010PropOp41
 70
     1
102
RTVSPost2010Prop42
 90
       50
102
RTVSPost2010PropOp42
 70
     1
102
RTVSPost2010Prop43
 90
        3
102
RTVSPost2010PropOp43
 70
     1
102
RTVSPost2010Prop44ColorIndex
 90
        5
102
RTVSPost2010Prop44ColorRGB
 90
      255
102
RTVSPost2010PropOp44
 70
     1
102
RTVSPost2010Prop45
280
     0
102
RTVSPost2010PropOp45
 70
     1
102
RTVSPost2010Prop46
 90
       50
102
RTVSPost2010PropOp46
 70
     1
102
RTVSPost2010Prop47
 90
       50
102
RTVSPost2010PropOp47
 70
     1
102
RTVSPost2010Prop48
 90
       50
102
RTVSPost2010PropOp48
 70
     1
102
RTVSPost2010Prop49
280
     0
102
RTVSPost2010PropOp49
 70
     1
102
RTVSPost2010Prop50
 90
       50
102
RTVSPost2010PropOp50
 70
     1
102
RTVSPost2010Prop51ColorIndex
 90
      256
102
RTVSPost2010Prop51ColorRGB
 90
-16777216
102
RTVSPost2010PropOp51
 70
     0
102
RTVSPost2010Prop52
140
1.0
102
RTVSPost2010PropOp52
 70
     0
102
RTVSPost2010Prop53
 90
        2
102
RTVSPost2010PropOp53
 70
     1
102
RTVSPost2010Prop54
  1
strokes_ogs.tif
102
RTVSPost2010PropOp54
 70
     1
102
RTVSPost2010Prop55
280
     0
102
RTVSPost2010PropOp55
 70
     1
102
RTVSPost2010Prop56
140
1.0
102
RTVSPost2010PropOp56
 70
     1
102
RTVSPost2010Prop57
140
1.0
102
RTVSPost2010PropOp57
 70
     1
102
RTVSPropertyOp0
 70
     1
102
RTVSPropertyOp1
 70
     1
102
RTVSPropertyOp2
 70
     1
102
RTVSPropertyOp3
 70
     1
102
RTVSPropertyOp4
 70
     1
102
RTVSPropertyOp5
 70
     1
102
RTVSPropertyOp6
 70
     1
102
RTVSPropertyOp7
 70
     1
102
RTVSPropertyOp8
 70
     1
102
RTVSPropertyOp9
 70
     1
102
RTVSPropertyOp10
 70
     1
102
RTVSPropertyOp11
 70
     1
102
RTVSPropertyOp12
 70
     1
102
RTVSPropertyOp13
 70
     1
102
RTVSPropertyOp14
 70
     1
102
RTVSPropertyOp15
 70
     1
102
RTVSPropertyOp16
 70
     1
102
RTVSPropertyOp17
 70
     1
102
RTVSPropertyOp18
 70
     1
102
RTVSPropertyOp19
 70
     1
102
RTVSPropertyOp20
 70
     1
102
RTVSPropertyOp21
 70
     1
102
RTVSPropertyOp22
 70
     1
102
RTVSPropertyOp23
 70
     1
102
RTVSPropertyOp24
 70
     1
102
RTVSPropertyOp25
 70
     1
102
RTVSPropertyOp26
 70
     1
102
RTVSPropertyOp27
 70
     1
102
RTVSPropertyOp28
 70
     1
102
RTVSPropertyOp29
 70
     1
102
RTVSPropertyOp30
 70
     1
102
RTVSPropertyOp31
 70
     1
102
RTVSPropertyOp32
 70
     1
102
RTVSPropertyOp33
 70
     1
102
RTVSPropertyOp34
 70
     1
102
RTVSPropertyOp35
 70
     1
102
RTVSPropertyOp36
 70
     1
102
RTVSPropertyOp37
 70
     1
102
RTVSPropertyOp38
 70
     1
102
RTVSPropertyOp39
 70
     1
102
RTVSPropertyOp40
 70
     1
102
RTVSPropertyOp41
 70
     1
102
RTVSPropertyOp42
 70
     1
102
RTVSPropertyOp43
 70
     1
102
RTVSPropertyOp44
 70
     1
102
RTVSPropertyOp45
 70
     1
102
RTVSPropertyOp46
 70
     1
102
RTVSPropertyOp47
 70
     1
102
RTVSPropertyOp48
 70
     1
102
RTVSPropertyOp49
 70
     1
102
RTVSPropertyOp50
 70
     1
102
RTVSPropertyOp51
 70
     0
102
RTVSPropertyOp52
 70
     0
102
RTVSPropertyOp53
 70
     1
102
RTVSPropertyOp54
 70
     1
102
RTVSPropertyOp55
 70
     1
102
RTVSPropertyOp56
 70
     1
102
RTVSPropertyOp57
 70
     1
102
RTVSPropertyOp58
 70
     1
102
RTVSPropertyOp59
 70
     1
102
RTVSPropertyOp60
 70
     1
102
RTVSPropertyOp61
 70
     1
102
RTVSPropertyOp62
 70
     1
  0
XRECORD
  5
85A6
102
{ACAD_REACTORS
330
85A5
102
}
330
85A5
100
AcDbXrecord
280
     1
102
RTVSPost2010Prop28
280
     0
102
RTVSPost2010PropOp28
 70
     1
102
RTVSPost2010Prop29
280
     1
102
RTVSPost2010PropOp29
 70
     1
102
RTVSPost2010Prop30
280
     1
102
RTVSPost2010PropOp30
 70
     1
102
RTVSPost2010Prop31
280
     0
102
RTVSPost2010PropOp31
 70
     1
102
RTVSPost2010Prop32
280
     0
102
RTVSPost2010PropOp32
 70
     1
102
RTVSPost2010Prop33
280
     0
102
RTVSPost2010PropOp33
 70
     1
102
RTVSPost2010Prop34
280
     0
102
RTVSPost2010PropOp34
 70
     1
102
RTVSPost2010Prop35
280
     0
102
RTVSPost2010PropOp35
 70
     1
102
RTVSPost2010Prop36
280
     0
102
RTVSPost2010PropOp36
 70
     1
102
RTVSPost2010Prop37
 90
       50
102
RTVSPost2010PropOp37
 70
     1
102
RTVSPost2010Prop38
140
0.0
102
RTVSPost2010PropOp38
 70
     1
102
RTVSPost2010Prop39
140
1.0
102
RTVSPost2010PropOp39
 70
     1
102
RTVSPost2010Prop40
 90
        0
102
RTVSPost2010PropOp40
 70
     1
102
RTVSPost2010Prop41ColorIndex
 90
       18
102
RTVSPost2010Prop41ColorRGB
 90
        0
102
RTVSPost2010PropOp41
 70
     1
102
RTVSPost2010Prop42
 90
       50
102
RTVSPost2010PropOp42
 70
     1
102
RTVSPost2010Prop43
 90
        3
102
RTVSPost2010PropOp43
 70
     1
102
RTVSPost2010Prop44ColorIndex
 90
        5
102
RTVSPost2010Prop44ColorRGB
 90
      255
102
RTVSPost2010PropOp44
 70
     1
102
RTVSPost2010Prop45
280
     0
102
RTVSPost2010PropOp45
 70
     1
102
RTVSPost2010Prop46
 90
       50
102
RTVSPost2010PropOp46
 70
     1
102
RTVSPost2010Prop47
 90
       50
102
RTVSPost2010PropOp47
 70
     1
102
RTVSPost2010Prop48
 90
       50
102
RTVSPost2010PropOp48
 70
     1
102
RTVSPost2010Prop49
280
     0
102
RTVSPost2010PropOp49
 70
     1
102
RTVSPost2010Prop50
 90
       50
102
RTVSPost2010PropOp50
 70
     1
102
RTVSPost2010Prop51ColorIndex
 90
      256
102
RTVSPost2010Prop51ColorRGB
 90
-16777216
102
RTVSPost2010PropOp51
 70
     0
102
RTVSPost2010Prop52
140
1.0
102
RTVSPost2010PropOp52
 70
     0
102
RTVSPost2010Prop53
 90
        2
102
RTVSPost2010PropOp53
 70
     1
102
RTVSPost2010Prop54
  1
strokes_ogs.tif
102
RTVSPost2010PropOp54
 70
     1
102
RTVSPost2010Prop55
280
     0
102
RTVSPost2010PropOp55
 70
     1
102
RTVSPost2010Prop56
140
1.0
102
RTVSPost2010PropOp56
 70
     1
102
RTVSPost2010Prop57
140
1.0
102
RTVSPost2010PropOp57
 70
     1
102
RTVSPropertyOp0
 70
     1
102
RTVSPropertyOp1
 70
     1
102
RTVSPropertyOp2
 70
     1
102
RTVSPropertyOp3
 70
     1
102
RTVSPropertyOp4
 70
     1
102
RTVSPropertyOp5
 70
     1
102
RTVSPropertyOp6
 70
     1
102
RTVSPropertyOp7
 70
     1
102
RTVSPropertyOp8
 70
     1
102
RTVSPropertyOp9
 70
     1
102
RTVSPropertyOp10
 70
     1
102
RTVSPropertyOp11
 70
     1
102
RTVSPropertyOp12
 70
     1
102
RTVSPropertyOp13
 70
     1
102
RTVSPropertyOp14
 70
     1
102
RTVSPropertyOp15
 70
     1
102
RTVSPropertyOp16
 70
     1
102
RTVSPropertyOp17
 70
     1
102
RTVSPropertyOp18
 70
     1
102
RTVSPropertyOp19
 70
     1
102
RTVSPropertyOp20
 70
     1
102
RTVSPropertyOp21
 70
     1
102
RTVSPropertyOp22
 70
     1
102
RTVSPropertyOp23
 70
     1
102
RTVSPropertyOp24
 70
     1
102
RTVSPropertyOp25
 70
     1
102
RTVSPropertyOp26
 70
     1
102
RTVSPropertyOp27
 70
     1
102
RTVSPropertyOp28
 70
     1
102
RTVSPropertyOp29
 70
     1
102
RTVSPropertyOp30
 70
     1
102
RTVSPropertyOp31
 70
     1
102
RTVSPropertyOp32
 70
     1
102
RTVSPropertyOp33
 70
     1
102
RTVSPropertyOp34
 70
     1
102
RTVSPropertyOp35
 70
     1
102
RTVSPropertyOp36
 70
     1
102
RTVSPropertyOp37
 70
     1
102
RTVSPropertyOp38
 70
     1
102
RTVSPropertyOp39
 70
     1
102
RTVSPropertyOp40
 70
     1
102
RTVSPropertyOp41
 70
     1
102
RTVSPropertyOp42
 70
     1
102
RTVSPropertyOp43
 70
     1
102
RTVSPropertyOp44
 70
     1
102
RTVSPropertyOp45
 70
     1
102
RTVSPropertyOp46
 70
     1
102
RTVSPropertyOp47
 70
     1
102
RTVSPropertyOp48
 70
     1
102
RTVSPropertyOp49
 70
     1
102
RTVSPropertyOp50
 70
     1
102
RTVSPropertyOp51
 70
     0
102
RTVSPropertyOp52
 70
     0
102
RTVSPropertyOp53
 70
     1
102
RTVSPropertyOp54
 70
     1
102
RTVSPropertyOp55
 70
     1
102
RTVSPropertyOp56
 70
     1
102
RTVSPropertyOp57
 70
     1
102
RTVSPropertyOp58
 70
     1
102
RTVSPropertyOp59
 70
     1
102
RTVSPropertyOp60
 70
     1
102
RTVSPropertyOp61
 70
     1
102
RTVSPropertyOp62
 70
     1
  0
XRECORD
  5
85B4
102
{ACAD_REACTORS
330
85B3
102
}
330
85B3
100
AcDbXrecord
280
     1
102
RTVSPost2010Prop28
280
     0
102
RTVSPost2010PropOp28
 70
     1
102
RTVSPost2010Prop29
280
     1
102
RTVSPost2010PropOp29
 70
     1
102
RTVSPost2010Prop30
280
     1
102
RTVSPost2010PropOp30
 70
     1
102
RTVSPost2010Prop31
280
     0
102
RTVSPost2010PropOp31
 70
     1
102
RTVSPost2010Prop32
280
     0
102
RTVSPost2010PropOp32
 70
     1
102
RTVSPost2010Prop33
280
     0
102
RTVSPost2010PropOp33
 70
     1
102
RTVSPost2010Prop34
280
     0
102
RTVSPost2010PropOp34
 70
     1
102
RTVSPost2010Prop35
280
     0
102
RTVSPost2010PropOp35
 70
     1
102
RTVSPost2010Prop36
280
     0
102
RTVSPost2010PropOp36
 70
     1
102
RTVSPost2010Prop37
 90
       50
102
RTVSPost2010PropOp37
 70
     1
102
RTVSPost2010Prop38
140
0.0
102
RTVSPost2010PropOp38
 70
     1
102
RTVSPost2010Prop39
140
1.0
102
RTVSPost2010PropOp39
 70
     1
102
RTVSPost2010Prop40
 90
        0
102
RTVSPost2010PropOp40
 70
     1
102
RTVSPost2010Prop41ColorIndex
 90
       18
102
RTVSPost2010Prop41ColorRGB
 90
        0
102
RTVSPost2010PropOp41
 70
     1
102
RTVSPost2010Prop42
 90
       50
102
RTVSPost2010PropOp42
 70
     1
102
RTVSPost2010Prop43
 90
        3
102
RTVSPost2010PropOp43
 70
     1
102
RTVSPost2010Prop44ColorIndex
 90
        5
102
RTVSPost2010Prop44ColorRGB
 90
      255
102
RTVSPost2010PropOp44
 70
     1
102
RTVSPost2010Prop45
280
     0
102
RTVSPost2010PropOp45
 70
     1
102
RTVSPost2010Prop46
 90
       50
102
RTVSPost2010PropOp46
 70
     1
102
RTVSPost2010Prop47
 90
       50
102
RTVSPost2010PropOp47
 70
     1
102
RTVSPost2010Prop48
 90
       50
102
RTVSPost2010PropOp48
 70
     1
102
RTVSPost2010Prop49
280
     0
102
RTVSPost2010PropOp49
 70
     1
102
RTVSPost2010Prop50
 90
       50
102
RTVSPost2010PropOp50
 70
     1
102
RTVSPost2010Prop51ColorIndex
 90
      256
102
RTVSPost2010Prop51ColorRGB
 90
-16777216
102
RTVSPost2010PropOp51
 70
     0
102
RTVSPost2010Prop52
140
1.0
102
RTVSPost2010PropOp52
 70
     0
102
RTVSPost2010Prop53
 90
        2
102
RTVSPost2010PropOp53
 70
     1
102
RTVSPost2010Prop54
  1
strokes_ogs.tif
102
RTVSPost2010PropOp54
 70
     1
102
RTVSPost2010Prop55
280
     0
102
RTVSPost2010PropOp55
 70
     1
102
RTVSPost2010Prop56
140
1.0
102
RTVSPost2010PropOp56
 70
     1
102
RTVSPost2010Prop57
140
1.0
102
RTVSPost2010PropOp57
 70
     1
102
RTVSPropertyOp0
 70
     1
102
RTVSPropertyOp1
 70
     1
102
RTVSPropertyOp2
 70
     1
102
RTVSPropertyOp3
 70
     1
102
RTVSPropertyOp4
 70
     1
102
RTVSPropertyOp5
 70
     1
102
RTVSPropertyOp6
 70
     1
102
RTVSPropertyOp7
 70
     1
102
RTVSPropertyOp8
 70
     1
102
RTVSPropertyOp9
 70
     1
102
RTVSPropertyOp10
 70
     1
102
RTVSPropertyOp11
 70
     1
102
RTVSPropertyOp12
 70
     1
102
RTVSPropertyOp13
 70
     1
102
RTVSPropertyOp14
 70
     1
102
RTVSPropertyOp15
 70
     1
102
RTVSPropertyOp16
 70
     1
102
RTVSPropertyOp17
 70
     1
102
RTVSPropertyOp18
 70
     1
102
RTVSPropertyOp19
 70
     1
102
RTVSPropertyOp20
 70
     1
102
RTVSPropertyOp21
 70
     1
102
RTVSPropertyOp22
 70
     1
102
RTVSPropertyOp23
 70
     1
102
RTVSPropertyOp24
 70
     1
102
RTVSPropertyOp25
 70
     1
102
RTVSPropertyOp26
 70
     1
102
RTVSPropertyOp27
 70
     1
102
RTVSPropertyOp28
 70
     1
102
RTVSPropertyOp29
 70
     1
102
RTVSPropertyOp30
 70
     1
102
RTVSPropertyOp31
 70
     1
102
RTVSPropertyOp32
 70
     1
102
RTVSPropertyOp33
 70
     1
102
RTVSPropertyOp34
 70
     1
102
RTVSPropertyOp35
 70
     1
102
RTVSPropertyOp36
 70
     1
102
RTVSPropertyOp37
 70
     1
102
RTVSPropertyOp38
 70
     1
102
RTVSPropertyOp39
 70
     1
102
RTVSPropertyOp40
 70
     1
102
RTVSPropertyOp41
 70
     1
102
RTVSPropertyOp42
 70
     1
102
RTVSPropertyOp43
 70
     1
102
RTVSPropertyOp44
 70
     1
102
RTVSPropertyOp45
 70
     1
102
RTVSPropertyOp46
 70
     1
102
RTVSPropertyOp47
 70
     1
102
RTVSPropertyOp48
 70
     1
102
RTVSPropertyOp49
 70
     1
102
RTVSPropertyOp50
 70
     1
102
RTVSPropertyOp51
 70
     0
102
RTVSPropertyOp52
 70
     0
102
RTVSPropertyOp53
 70
     1
102
RTVSPropertyOp54
 70
     1
102
RTVSPropertyOp55
 70
     1
102
RTVSPropertyOp56
 70
     1
102
RTVSPropertyOp57
 70
     1
102
RTVSPropertyOp58
 70
     1
102
RTVSPropertyOp59
 70
     1
102
RTVSPropertyOp60
 70
     1
102
RTVSPropertyOp61
 70
     1
102
RTVSPropertyOp62
 70
     1
  0
XRECORD
  5
85BC
102
{ACAD_REACTORS
330
85BB
102
}
330
85BB
100
AcDbXrecord
280
     1
102
RTVSPost2010Prop28
280
     0
102
RTVSPost2010PropOp28
 70
     1
102
RTVSPost2010Prop29
280
     1
102
RTVSPost2010PropOp29
 70
     1
102
RTVSPost2010Prop30
280
     1
102
RTVSPost2010PropOp30
 70
     1
102
RTVSPost2010Prop31
280
     0
102
RTVSPost2010PropOp31
 70
     1
102
RTVSPost2010Prop32
280
     0
102
RTVSPost2010PropOp32
 70
     1
102
RTVSPost2010Prop33
280
     0
102
RTVSPost2010PropOp33
 70
     1
102
RTVSPost2010Prop34
280
     0
102
RTVSPost2010PropOp34
 70
     1
102
RTVSPost2010Prop35
280
     0
102
RTVSPost2010PropOp35
 70
     1
102
RTVSPost2010Prop36
280
     0
102
RTVSPost2010PropOp36
 70
     1
102
RTVSPost2010Prop37
 90
       50
102
RTVSPost2010PropOp37
 70
     1
102
RTVSPost2010Prop38
140
0.0
102
RTVSPost2010PropOp38
 70
     1
102
RTVSPost2010Prop39
140
1.0
102
RTVSPost2010PropOp39
 70
     1
102
RTVSPost2010Prop40
 90
        0
102
RTVSPost2010PropOp40
 70
     1
102
RTVSPost2010Prop41ColorIndex
 90
       18
102
RTVSPost2010Prop41ColorRGB
 90
        0
102
RTVSPost2010PropOp41
 70
     1
102
RTVSPost2010Prop42
 90
       50
102
RTVSPost2010PropOp42
 70
     1
102
RTVSPost2010Prop43
 90
        3
102
RTVSPost2010PropOp43
 70
     1
102
RTVSPost2010Prop44ColorIndex
 90
        5
102
RTVSPost2010Prop44ColorRGB
 90
      255
102
RTVSPost2010PropOp44
 70
     1
102
RTVSPost2010Prop45
280
     0
102
RTVSPost2010PropOp45
 70
     1
102
RTVSPost2010Prop46
 90
       50
102
RTVSPost2010PropOp46
 70
     1
102
RTVSPost2010Prop47
 90
       50
102
RTVSPost2010PropOp47
 70
     1
102
RTVSPost2010Prop48
 90
       50
102
RTVSPost2010PropOp48
 70
     1
102
RTVSPost2010Prop49
280
     0
102
RTVSPost2010PropOp49
 70
     1
102
RTVSPost2010Prop50
 90
       50
102
RTVSPost2010PropOp50
 70
     1
102
RTVSPost2010Prop51ColorIndex
 90
      256
102
RTVSPost2010Prop51ColorRGB
 90
-16777216
102
RTVSPost2010PropOp51
 70
     0
102
RTVSPost2010Prop52
140
1.0
102
RTVSPost2010PropOp52
 70
     0
102
RTVSPost2010Prop53
 90
        2
102
RTVSPost2010PropOp53
 70
     1
102
RTVSPost2010Prop54
  1
strokes_ogs.tif
102
RTVSPost2010PropOp54
 70
     1
102
RTVSPost2010Prop55
280
     0
102
RTVSPost2010PropOp55
 70
     1
102
RTVSPost2010Prop56
140
1.0
102
RTVSPost2010PropOp56
 70
     1
102
RTVSPost2010Prop57
140
1.0
102
RTVSPost2010PropOp57
 70
     1
102
RTVSPropertyOp0
 70
     1
102
RTVSPropertyOp1
 70
     1
102
RTVSPropertyOp2
 70
     1
102
RTVSPropertyOp3
 70
     1
102
RTVSPropertyOp4
 70
     1
102
RTVSPropertyOp5
 70
     1
102
RTVSPropertyOp6
 70
     1
102
RTVSPropertyOp7
 70
     1
102
RTVSPropertyOp8
 70
     1
102
RTVSPropertyOp9
 70
     1
102
RTVSPropertyOp10
 70
     1
102
RTVSPropertyOp11
 70
     1
102
RTVSPropertyOp12
 70
     1
102
RTVSPropertyOp13
 70
     1
102
RTVSPropertyOp14
 70
     1
102
RTVSPropertyOp15
 70
     1
102
RTVSPropertyOp16
 70
     1
102
RTVSPropertyOp17
 70
     1
102
RTVSPropertyOp18
 70
     1
102
RTVSPropertyOp19
 70
     1
102
RTVSPropertyOp20
 70
     1
102
RTVSPropertyOp21
 70
     1
102
RTVSPropertyOp22
 70
     1
102
RTVSPropertyOp23
 70
     1
102
RTVSPropertyOp24
 70
     1
102
RTVSPropertyOp25
 70
     1
102
RTVSPropertyOp26
 70
     1
102
RTVSPropertyOp27
 70
     1
102
RTVSPropertyOp28
 70
     1
102
RTVSPropertyOp29
 70
     1
102
RTVSPropertyOp30
 70
     1
102
RTVSPropertyOp31
 70
     1
102
RTVSPropertyOp32
 70
     1
102
RTVSPropertyOp33
 70
     1
102
RTVSPropertyOp34
 70
     1
102
RTVSPropertyOp35
 70
     1
102
RTVSPropertyOp36
 70
     1
102
RTVSPropertyOp37
 70
     1
102
RTVSPropertyOp38
 70
     1
102
RTVSPropertyOp39
 70
     1
102
RTVSPropertyOp40
 70
     1
102
RTVSPropertyOp41
 70
     1
102
RTVSPropertyOp42
 70
     1
102
RTVSPropertyOp43
 70
     1
102
RTVSPropertyOp44
 70
     1
102
RTVSPropertyOp45
 70
     1
102
RTVSPropertyOp46
 70
     1
102
RTVSPropertyOp47
 70
     1
102
RTVSPropertyOp48
 70
     1
102
RTVSPropertyOp49
 70
     1
102
RTVSPropertyOp50
 70
     1
102
RTVSPropertyOp51
 70
     0
102
RTVSPropertyOp52
 70
     0
102
RTVSPropertyOp53
 70
     1
102
RTVSPropertyOp54
 70
     1
102
RTVSPropertyOp55
 70
     1
102
RTVSPropertyOp56
 70
     1
102
RTVSPropertyOp57
 70
     1
102
RTVSPropertyOp58
 70
     1
102
RTVSPropertyOp59
 70
     1
102
RTVSPropertyOp60
 70
     1
102
RTVSPropertyOp61
 70
     1
102
RTVSPropertyOp62
 70
     1
  0
XRECORD
  5
85AE
102
{ACAD_REACTORS
330
85AD
102
}
330
85AD
100
AcDbXrecord
280
     1
102
RTVSPost2010Prop28
280
     0
102
RTVSPost2010PropOp28
 70
     1
102
RTVSPost2010Prop29
280
     1
102
RTVSPost2010PropOp29
 70
     1
102
RTVSPost2010Prop30
280
     1
102
RTVSPost2010PropOp30
 70
     1
102
RTVSPost2010Prop31
280
     0
102
RTVSPost2010PropOp31
 70
     1
102
RTVSPost2010Prop32
280
     0
102
RTVSPost2010PropOp32
 70
     1
102
RTVSPost2010Prop33
280
     0
102
RTVSPost2010PropOp33
 70
     1
102
RTVSPost2010Prop34
280
     0
102
RTVSPost2010PropOp34
 70
     1
102
RTVSPost2010Prop35
280
     0
102
RTVSPost2010PropOp35
 70
     1
102
RTVSPost2010Prop36
280
     0
102
RTVSPost2010PropOp36
 70
     1
102
RTVSPost2010Prop37
 90
       50
102
RTVSPost2010PropOp37
 70
     1
102
RTVSPost2010Prop38
140
0.0
102
RTVSPost2010PropOp38
 70
     1
102
RTVSPost2010Prop39
140
1.0
102
RTVSPost2010PropOp39
 70
     1
102
RTVSPost2010Prop40
 90
        0
102
RTVSPost2010PropOp40
 70
     1
102
RTVSPost2010Prop41ColorIndex
 90
       18
102
RTVSPost2010Prop41ColorRGB
 90
        0
102
RTVSPost2010PropOp41
 70
     1
102
RTVSPost2010Prop42
 90
       50
102
RTVSPost2010PropOp42
 70
     1
102
RTVSPost2010Prop43
 90
        3
102
RTVSPost2010PropOp43
 70
     1
102
RTVSPost2010Prop44ColorIndex
 90
        5
102
RTVSPost2010Prop44ColorRGB
 90
      255
102
RTVSPost2010PropOp44
 70
     1
102
RTVSPost2010Prop45
280
     0
102
RTVSPost2010PropOp45
 70
     1
102
RTVSPost2010Prop46
 90
       50
102
RTVSPost2010PropOp46
 70
     1
102
RTVSPost2010Prop47
 90
       50
102
RTVSPost2010PropOp47
 70
     1
102
RTVSPost2010Prop48
 90
       50
102
RTVSPost2010PropOp48
 70
     1
102
RTVSPost2010Prop49
280
     0
102
RTVSPost2010PropOp49
 70
     1
102
RTVSPost2010Prop50
 90
       50
102
RTVSPost2010PropOp50
 70
     1
102
RTVSPost2010Prop51ColorIndex
 90
      256
102
RTVSPost2010Prop51ColorRGB
 90
-16777216
102
RTVSPost2010PropOp51
 70
     0
102
RTVSPost2010Prop52
140
1.0
102
RTVSPost2010PropOp52
 70
     0
102
RTVSPost2010Prop53
 90
        2
102
RTVSPost2010PropOp53
 70
     1
102
RTVSPost2010Prop54
  1
strokes_ogs.tif
102
RTVSPost2010PropOp54
 70
     1
102
RTVSPost2010Prop55
280
     0
102
RTVSPost2010PropOp55
 70
     1
102
RTVSPost2010Prop56
140
1.0
102
RTVSPost2010PropOp56
 70
     1
102
RTVSPost2010Prop57
140
1.0
102
RTVSPost2010PropOp57
 70
     1
102
RTVSPropertyOp0
 70
     1
102
RTVSPropertyOp1
 70
     1
102
RTVSPropertyOp2
 70
     1
102
RTVSPropertyOp3
 70
     1
102
RTVSPropertyOp4
 70
     1
102
RTVSPropertyOp5
 70
     1
102
RTVSPropertyOp6
 70
     1
102
RTVSPropertyOp7
 70
     1
102
RTVSPropertyOp8
 70
     1
102
RTVSPropertyOp9
 70
     1
102
RTVSPropertyOp10
 70
     1
102
RTVSPropertyOp11
 70
     1
102
RTVSPropertyOp12
 70
     1
102
RTVSPropertyOp13
 70
     1
102
RTVSPropertyOp14
 70
     1
102
RTVSPropertyOp15
 70
     1
102
RTVSPropertyOp16
 70
     1
102
RTVSPropertyOp17
 70
     1
102
RTVSPropertyOp18
 70
     1
102
RTVSPropertyOp19
 70
     1
102
RTVSPropertyOp20
 70
     1
102
RTVSPropertyOp21
 70
     1
102
RTVSPropertyOp22
 70
     1
102
RTVSPropertyOp23
 70
     1
102
RTVSPropertyOp24
 70
     1
102
RTVSPropertyOp25
 70
     1
102
RTVSPropertyOp26
 70
     1
102
RTVSPropertyOp27
 70
     1
102
RTVSPropertyOp28
 70
     1
102
RTVSPropertyOp29
 70
     1
102
RTVSPropertyOp30
 70
     1
102
RTVSPropertyOp31
 70
     1
102
RTVSPropertyOp32
 70
     1
102
RTVSPropertyOp33
 70
     1
102
RTVSPropertyOp34
 70
     1
102
RTVSPropertyOp35
 70
     1
102
RTVSPropertyOp36
 70
     1
102
RTVSPropertyOp37
 70
     1
102
RTVSPropertyOp38
 70
     1
102
RTVSPropertyOp39
 70
     1
102
RTVSPropertyOp40
 70
     1
102
RTVSPropertyOp41
 70
     1
102
RTVSPropertyOp42
 70
     1
102
RTVSPropertyOp43
 70
     1
102
RTVSPropertyOp44
 70
     1
102
RTVSPropertyOp45
 70
     1
102
RTVSPropertyOp46
 70
     1
102
RTVSPropertyOp47
 70
     1
102
RTVSPropertyOp48
 70
     1
102
RTVSPropertyOp49
 70
     1
102
RTVSPropertyOp50
 70
     1
102
RTVSPropertyOp51
 70
     0
102
RTVSPropertyOp52
 70
     0
102
RTVSPropertyOp53
 70
     1
102
RTVSPropertyOp54
 70
     1
102
RTVSPropertyOp55
 70
     1
102
RTVSPropertyOp56
 70
     1
102
RTVSPropertyOp57
 70
     1
102
RTVSPropertyOp58
 70
     1
102
RTVSPropertyOp59
 70
     1
102
RTVSPropertyOp60
 70
     1
102
RTVSPropertyOp61
 70
     1
102
RTVSPropertyOp62
 70
     1
  0
XRECORD
  5
85B2
102
{ACAD_REACTORS
330
85B1
102
}
330
85B1
100
AcDbXrecord
280
     1
102
RTVSPost2010Prop28
280
     0
102
RTVSPost2010PropOp28
 70
     1
102
RTVSPost2010Prop29
280
     1
102
RTVSPost2010PropOp29
 70
     1
102
RTVSPost2010Prop30
280
     1
102
RTVSPost2010PropOp30
 70
     1
102
RTVSPost2010Prop31
280
     0
102
RTVSPost2010PropOp31
 70
     1
102
RTVSPost2010Prop32
280
     0
102
RTVSPost2010PropOp32
 70
     1
102
RTVSPost2010Prop33
280
     0
102
RTVSPost2010PropOp33
 70
     1
102
RTVSPost2010Prop34
280
     0
102
RTVSPost2010PropOp34
 70
     1
102
RTVSPost2010Prop35
280
     0
102
RTVSPost2010PropOp35
 70
     1
102
RTVSPost2010Prop36
280
     0
102
RTVSPost2010PropOp36
 70
     1
102
RTVSPost2010Prop37
 90
       50
102
RTVSPost2010PropOp37
 70
     1
102
RTVSPost2010Prop38
140
0.0
102
RTVSPost2010PropOp38
 70
     1
102
RTVSPost2010Prop39
140
1.0
102
RTVSPost2010PropOp39
 70
     1
102
RTVSPost2010Prop40
 90
        0
102
RTVSPost2010PropOp40
 70
     1
102
RTVSPost2010Prop41ColorIndex
 90
       18
102
RTVSPost2010Prop41ColorRGB
 90
        0
102
RTVSPost2010PropOp41
 70
     1
102
RTVSPost2010Prop42
 90
       50
102
RTVSPost2010PropOp42
 70
     1
102
RTVSPost2010Prop43
 90
        3
102
RTVSPost2010PropOp43
 70
     1
102
RTVSPost2010Prop44ColorIndex
 90
        5
102
RTVSPost2010Prop44ColorRGB
 90
      255
102
RTVSPost2010PropOp44
 70
     1
102
RTVSPost2010Prop45
280
     0
102
RTVSPost2010PropOp45
 70
     1
102
RTVSPost2010Prop46
 90
       50
102
RTVSPost2010PropOp46
 70
     1
102
RTVSPost2010Prop47
 90
       50
102
RTVSPost2010PropOp47
 70
     1
102
RTVSPost2010Prop48
 90
       50
102
RTVSPost2010PropOp48
 70
     1
102
RTVSPost2010Prop49
280
     0
102
RTVSPost2010PropOp49
 70
     1
102
RTVSPost2010Prop50
 90
       50
102
RTVSPost2010PropOp50
 70
     1
102
RTVSPost2010Prop51ColorIndex
 90
      256
102
RTVSPost2010Prop51ColorRGB
 90
-16777216
102
RTVSPost2010PropOp51
 70
     0
102
RTVSPost2010Prop52
140
1.0
102
RTVSPost2010PropOp52
 70
     0
102
RTVSPost2010Prop53
 90
        2
102
RTVSPost2010PropOp53
 70
     1
102
RTVSPost2010Prop54
  1
strokes_ogs.tif
102
RTVSPost2010PropOp54
 70
     1
102
RTVSPost2010Prop55
280
     0
102
RTVSPost2010PropOp55
 70
     1
102
RTVSPost2010Prop56
140
1.0
102
RTVSPost2010PropOp56
 70
     1
102
RTVSPost2010Prop57
140
1.0
102
RTVSPost2010PropOp57
 70
     1
102
RTVSPropertyOp0
 70
     1
102
RTVSPropertyOp1
 70
     1
102
RTVSPropertyOp2
 70
     1
102
RTVSPropertyOp3
 70
     1
102
RTVSPropertyOp4
 70
     1
102
RTVSPropertyOp5
 70
     1
102
RTVSPropertyOp6
 70
     1
102
RTVSPropertyOp7
 70
     1
102
RTVSPropertyOp8
 70
     1
102
RTVSPropertyOp9
 70
     1
102
RTVSPropertyOp10
 70
     1
102
RTVSPropertyOp11
 70
     1
102
RTVSPropertyOp12
 70
     1
102
RTVSPropertyOp13
 70
     1
102
RTVSPropertyOp14
 70
     1
102
RTVSPropertyOp15
 70
     1
102
RTVSPropertyOp16
 70
     1
102
RTVSPropertyOp17
 70
     1
102
RTVSPropertyOp18
 70
     1
102
RTVSPropertyOp19
 70
     1
102
RTVSPropertyOp20
 70
     1
102
RTVSPropertyOp21
 70
     1
102
RTVSPropertyOp22
 70
     1
102
RTVSPropertyOp23
 70
     1
102
RTVSPropertyOp24
 70
     1
102
RTVSPropertyOp25
 70
     1
102
RTVSPropertyOp26
 70
     1
102
RTVSPropertyOp27
 70
     1
102
RTVSPropertyOp28
 70
     1
102
RTVSPropertyOp29
 70
     1
102
RTVSPropertyOp30
 70
     1
102
RTVSPropertyOp31
 70
     1
102
RTVSPropertyOp32
 70
     1
102
RTVSPropertyOp33
 70
     1
102
RTVSPropertyOp34
 70
     1
102
RTVSPropertyOp35
 70
     1
102
RTVSPropertyOp36
 70
     1
102
RTVSPropertyOp37
 70
     1
102
RTVSPropertyOp38
 70
     1
102
RTVSPropertyOp39
 70
     1
102
RTVSPropertyOp40
 70
     1
102
RTVSPropertyOp41
 70
     1
102
RTVSPropertyOp42
 70
     1
102
RTVSPropertyOp43
 70
     1
102
RTVSPropertyOp44
 70
     1
102
RTVSPropertyOp45
 70
     1
102
RTVSPropertyOp46
 70
     1
102
RTVSPropertyOp47
 70
     1
102
RTVSPropertyOp48
 70
     1
102
RTVSPropertyOp49
 70
     1
102
RTVSPropertyOp50
 70
     1
102
RTVSPropertyOp51
 70
     0
102
RTVSPropertyOp52
 70
     0
102
RTVSPropertyOp53
 70
     1
102
RTVSPropertyOp54
 70
     1
102
RTVSPropertyOp55
 70
     1
102
RTVSPropertyOp56
 70
     1
102
RTVSPropertyOp57
 70
     1
102
RTVSPropertyOp58
 70
     1
102
RTVSPropertyOp59
 70
     1
102
RTVSPropertyOp60
 70
     1
102
RTVSPropertyOp61
 70
     1
102
RTVSPropertyOp62
 70
     1
  0
XRECORD
  5
85CC
102
{ACAD_REACTORS
330
85CB
102
}
330
85CB
100
AcDbXrecord
280
     1
102
RTVSPost2010Prop28
280
     0
102
RTVSPost2010PropOp28
 70
     1
102
RTVSPost2010Prop29
280
     1
102
RTVSPost2010PropOp29
 70
     1
102
RTVSPost2010Prop30
280
     1
102
RTVSPost2010PropOp30
 70
     1
102
RTVSPost2010Prop31
280
     0
102
RTVSPost2010PropOp31
 70
     1
102
RTVSPost2010Prop32
280
     0
102
RTVSPost2010PropOp32
 70
     1
102
RTVSPost2010Prop33
280
     0
102
RTVSPost2010PropOp33
 70
     1
102
RTVSPost2010Prop34
280
     0
102
RTVSPost2010PropOp34
 70
     1
102
RTVSPost2010Prop35
280
     0
102
RTVSPost2010PropOp35
 70
     1
102
RTVSPost2010Prop36
280
     0
102
RTVSPost2010PropOp36
 70
     1
102
RTVSPost2010Prop37
 90
       50
102
RTVSPost2010PropOp37
 70
     0
102
RTVSPost2010Prop38
140
0.0
102
RTVSPost2010PropOp38
 70
     0
102
RTVSPost2010Prop39
140
1.0
102
RTVSPost2010PropOp39
 70
     0
102
RTVSPost2010Prop40
 90
        0
102
RTVSPost2010PropOp40
 70
     0
102
RTVSPost2010Prop41ColorIndex
 90
       18
102
RTVSPost2010Prop41ColorRGB
 90
        0
102
RTVSPost2010PropOp41
 70
     0
102
RTVSPost2010Prop42
 90
       50
102
RTVSPost2010PropOp42
 70
     0
102
RTVSPost2010Prop43
 90
        3
102
RTVSPost2010PropOp43
 70
     0
102
RTVSPost2010Prop44ColorIndex
 90
        5
102
RTVSPost2010Prop44ColorRGB
 90
      255
102
RTVSPost2010PropOp44
 70
     0
102
RTVSPost2010Prop45
280
     0
102
RTVSPost2010PropOp45
 70
     1
102
RTVSPost2010Prop46
 90
       50
102
RTVSPost2010PropOp46
 70
     0
102
RTVSPost2010Prop47
 90
       50
102
RTVSPost2010PropOp47
 70
     0
102
RTVSPost2010Prop48
 90
       50
102
RTVSPost2010PropOp48
 70
     0
102
RTVSPost2010Prop49
280
     0
102
RTVSPost2010PropOp49
 70
     1
102
RTVSPost2010Prop50
 90
       50
102
RTVSPost2010PropOp50
 70
     0
102
RTVSPost2010Prop51ColorIndex
 90
      256
102
RTVSPost2010Prop51ColorRGB
 90
-16777216
102
RTVSPost2010PropOp51
 70
     0
102
RTVSPost2010Prop52
140
1.0
102
RTVSPost2010PropOp52
 70
     0
102
RTVSPost2010Prop53
 90
        2
102
RTVSPost2010PropOp53
 70
     0
102
RTVSPost2010Prop54
  1
strokes_ogs.tif
102
RTVSPost2010PropOp54
 70
     0
102
RTVSPost2010Prop55
280
     0
102
RTVSPost2010PropOp55
 70
     1
102
RTVSPost2010Prop56
140
1.0
102
RTVSPost2010PropOp56
 70
     0
102
RTVSPost2010Prop57
140
1.0
102
RTVSPost2010PropOp57
 70
     0
102
RTVSPropertyOp0
 70
     0
102
RTVSPropertyOp1
 70
     0
102
RTVSPropertyOp2
 70
     0
102
RTVSPropertyOp3
 70
     0
102
RTVSPropertyOp4
 70
     0
102
RTVSPropertyOp5
 70
     0
102
RTVSPropertyOp6
 70
     0
102
RTVSPropertyOp7
 70
     0
102
RTVSPropertyOp8
 70
     0
102
RTVSPropertyOp9
 70
     0
102
RTVSPropertyOp10
 70
     0
102
RTVSPropertyOp11
 70
     0
102
RTVSPropertyOp12
 70
     0
102
RTVSPropertyOp13
 70
     0
102
RTVSPropertyOp14
 70
     2
102
RTVSPropertyOp15
 70
     0
102
RTVSPropertyOp16
 70
     0
102
RTVSPropertyOp17
 70
     0
102
RTVSPropertyOp18
 70
     0
102
RTVSPropertyOp19
 70
     0
102
RTVSPropertyOp20
 70
     0
102
RTVSPropertyOp21
 70
     0
102
RTVSPropertyOp22
 70
     0
102
RTVSPropertyOp23
 70
     0
102
RTVSPropertyOp24
 70
     0
102
RTVSPropertyOp25
 70
     0
102
RTVSPropertyOp26
 70
     0
102
RTVSPropertyOp27
 70
     0
102
RTVSPropertyOp28
 70
     1
102
RTVSPropertyOp29
 70
     1
102
RTVSPropertyOp30
 70
     1
102
RTVSPropertyOp31
 70
     1
102
RTVSPropertyOp32
 70
     1
102
RTVSPropertyOp33
 70
     1
102
RTVSPropertyOp34
 70
     1
102
RTVSPropertyOp35
 70
     1
102
RTVSPropertyOp36
 70
     1
102
RTVSPropertyOp37
 70
     0
102
RTVSPropertyOp38
 70
     0
102
RTVSPropertyOp39
 70
     0
102
RTVSPropertyOp40
 70
     0
102
RTVSPropertyOp41
 70
     0
102
RTVSPropertyOp42
 70
     0
102
RTVSPropertyOp43
 70
     0
102
RTVSPropertyOp44
 70
     0
102
RTVSPropertyOp45
 70
     1
102
RTVSPropertyOp46
 70
     0
102
RTVSPropertyOp47
 70
     0
102
RTVSPropertyOp48
 70
     0
102
RTVSPropertyOp49
 70
     1
102
RTVSPropertyOp50
 70
     0
102
RTVSPropertyOp51
 70
     0
102
RTVSPropertyOp52
 70
     0
102
RTVSPropertyOp53
 70
     0
102
RTVSPropertyOp54
 70
     0
102
RTVSPropertyOp55
 70
     1
102
RTVSPropertyOp56
 70
     0
102
RTVSPropertyOp57
 70
     0
102
RTVSPropertyOp58
 70
     0
102
RTVSPropertyOp59
 70
     0
102
RTVSPropertyOp60
 70
     0
102
RTVSPropertyOp61
 70
     0
102
RTVSPropertyOp62
 70
     0
  0
XRECORD
  5
85BA
102
{ACAD_REACTORS
330
85B9
102
}
330
85B9
100
AcDbXrecord
280
     1
102
RTVSPost2010Prop28
280
     0
102
RTVSPost2010PropOp28
 70
     1
102
RTVSPost2010Prop29
280
     1
102
RTVSPost2010PropOp29
 70
     1
102
RTVSPost2010Prop30
280
     1
102
RTVSPost2010PropOp30
 70
     1
102
RTVSPost2010Prop31
280
     0
102
RTVSPost2010PropOp31
 70
     1
102
RTVSPost2010Prop32
280
     0
102
RTVSPost2010PropOp32
 70
     1
102
RTVSPost2010Prop33
280
     0
102
RTVSPost2010PropOp33
 70
     1
102
RTVSPost2010Prop34
280
     0
102
RTVSPost2010PropOp34
 70
     1
102
RTVSPost2010Prop35
280
     0
102
RTVSPost2010PropOp35
 70
     1
102
RTVSPost2010Prop36
280
     0
102
RTVSPost2010PropOp36
 70
     1
102
RTVSPost2010Prop37
 90
       50
102
RTVSPost2010PropOp37
 70
     1
102
RTVSPost2010Prop38
140
0.0
102
RTVSPost2010PropOp38
 70
     1
102
RTVSPost2010Prop39
140
1.0
102
RTVSPost2010PropOp39
 70
     1
102
RTVSPost2010Prop40
 90
        0
102
RTVSPost2010PropOp40
 70
     1
102
RTVSPost2010Prop41ColorIndex
 90
       18
102
RTVSPost2010Prop41ColorRGB
 90
        0
102
RTVSPost2010PropOp41
 70
     1
102
RTVSPost2010Prop42
 90
       50
102
RTVSPost2010PropOp42
 70
     1
102
RTVSPost2010Prop43
 90
        3
102
RTVSPost2010PropOp43
 70
     1
102
RTVSPost2010Prop44ColorIndex
 90
        5
102
RTVSPost2010Prop44ColorRGB
 90
      255
102
RTVSPost2010PropOp44
 70
     1
102
RTVSPost2010Prop45
280
     0
102
RTVSPost2010PropOp45
 70
     1
102
RTVSPost2010Prop46
 90
       50
102
RTVSPost2010PropOp46
 70
     1
102
RTVSPost2010Prop47
 90
       50
102
RTVSPost2010PropOp47
 70
     1
102
RTVSPost2010Prop48
 90
       50
102
RTVSPost2010PropOp48
 70
     1
102
RTVSPost2010Prop49
280
     0
102
RTVSPost2010PropOp49
 70
     1
102
RTVSPost2010Prop50
 90
       50
102
RTVSPost2010PropOp50
 70
     1
102
RTVSPost2010Prop51ColorIndex
 90
      256
102
RTVSPost2010Prop51ColorRGB
 90
-16777216
102
RTVSPost2010PropOp51
 70
     0
102
RTVSPost2010Prop52
140
1.0
102
RTVSPost2010PropOp52
 70
     0
102
RTVSPost2010Prop53
 90
        2
102
RTVSPost2010PropOp53
 70
     1
102
RTVSPost2010Prop54
  1
strokes_ogs.tif
102
RTVSPost2010PropOp54
 70
     1
102
RTVSPost2010Prop55
280
     0
102
RTVSPost2010PropOp55
 70
     1
102
RTVSPost2010Prop56
140
1.0
102
RTVSPost2010PropOp56
 70
     1
102
RTVSPost2010Prop57
140
1.0
102
RTVSPost2010PropOp57
 70
     1
102
RTVSPropertyOp0
 70
     1
102
RTVSPropertyOp1
 70
     1
102
RTVSPropertyOp2
 70
     1
102
RTVSPropertyOp3
 70
     1
102
RTVSPropertyOp4
 70
     1
102
RTVSPropertyOp5
 70
     1
102
RTVSPropertyOp6
 70
     1
102
RTVSPropertyOp7
 70
     1
102
RTVSPropertyOp8
 70
     1
102
RTVSPropertyOp9
 70
     1
102
RTVSPropertyOp10
 70
     1
102
RTVSPropertyOp11
 70
     1
102
RTVSPropertyOp12
 70
     1
102
RTVSPropertyOp13
 70
     1
102
RTVSPropertyOp14
 70
     1
102
RTVSPropertyOp15
 70
     1
102
RTVSPropertyOp16
 70
     1
102
RTVSPropertyOp17
 70
     1
102
RTVSPropertyOp18
 70
     1
102
RTVSPropertyOp19
 70
     1
102
RTVSPropertyOp20
 70
     1
102
RTVSPropertyOp21
 70
     1
102
RTVSPropertyOp22
 70
     1
102
RTVSPropertyOp23
 70
     1
102
RTVSPropertyOp24
 70
     1
102
RTVSPropertyOp25
 70
     1
102
RTVSPropertyOp26
 70
     1
102
RTVSPropertyOp27
 70
     1
102
RTVSPropertyOp28
 70
     1
102
RTVSPropertyOp29
 70
     1
102
RTVSPropertyOp30
 70
     1
102
RTVSPropertyOp31
 70
     1
102
RTVSPropertyOp32
 70
     1
102
RTVSPropertyOp33
 70
     1
102
RTVSPropertyOp34
 70
     1
102
RTVSPropertyOp35
 70
     1
102
RTVSPropertyOp36
 70
     1
102
RTVSPropertyOp37
 70
     1
102
RTVSPropertyOp38
 70
     1
102
RTVSPropertyOp39
 70
     1
102
RTVSPropertyOp40
 70
     1
102
RTVSPropertyOp41
 70
     1
102
RTVSPropertyOp42
 70
     1
102
RTVSPropertyOp43
 70
     1
102
RTVSPropertyOp44
 70
     1
102
RTVSPropertyOp45
 70
     1
102
RTVSPropertyOp46
 70
     1
102
RTVSPropertyOp47
 70
     1
102
RTVSPropertyOp48
 70
     1
102
RTVSPropertyOp49
 70
     1
102
RTVSPropertyOp50
 70
     1
102
RTVSPropertyOp51
 70
     0
102
RTVSPropertyOp52
 70
     0
102
RTVSPropertyOp53
 70
     1
102
RTVSPropertyOp54
 70
     1
102
RTVSPropertyOp55
 70
     1
102
RTVSPropertyOp56
 70
     1
102
RTVSPropertyOp57
 70
     1
102
RTVSPropertyOp58
 70
     1
102
RTVSPropertyOp59
 70
     1
102
RTVSPropertyOp60
 70
     1
102
RTVSPropertyOp61
 70
     1
102
RTVSPropertyOp62
 70
     1
  0
XRECORD
  5
859E
102
{ACAD_REACTORS
330
859D
102
}
330
859D
100
AcDbXrecord
280
     1
102
RTVSPost2010Prop28
280
     0
102
RTVSPost2010PropOp28
 70
     1
102
RTVSPost2010Prop29
280
     1
102
RTVSPost2010PropOp29
 70
     1
102
RTVSPost2010Prop30
280
     1
102
RTVSPost2010PropOp30
 70
     1
102
RTVSPost2010Prop31
280
     0
102
RTVSPost2010PropOp31
 70
     1
102
RTVSPost2010Prop32
280
     0
102
RTVSPost2010PropOp32
 70
     1
102
RTVSPost2010Prop33
280
     0
102
RTVSPost2010PropOp33
 70
     1
102
RTVSPost2010Prop34
280
     0
102
RTVSPost2010PropOp34
 70
     1
102
RTVSPost2010Prop35
280
     0
102
RTVSPost2010PropOp35
 70
     1
102
RTVSPost2010Prop36
280
     0
102
RTVSPost2010PropOp36
 70
     1
102
RTVSPost2010Prop37
 90
       50
102
RTVSPost2010PropOp37
 70
     1
102
RTVSPost2010Prop38
140
0.0
102
RTVSPost2010PropOp38
 70
     1
102
RTVSPost2010Prop39
140
1.0
102
RTVSPost2010PropOp39
 70
     1
102
RTVSPost2010Prop40
 90
        0
102
RTVSPost2010PropOp40
 70
     1
102
RTVSPost2010Prop41ColorIndex
 90
       18
102
RTVSPost2010Prop41ColorRGB
 90
        0
102
RTVSPost2010PropOp41
 70
     1
102
RTVSPost2010Prop42
 90
       50
102
RTVSPost2010PropOp42
 70
     1
102
RTVSPost2010Prop43
 90
        3
102
RTVSPost2010PropOp43
 70
     1
102
RTVSPost2010Prop44ColorIndex
 90
        5
102
RTVSPost2010Prop44ColorRGB
 90
      255
102
RTVSPost2010PropOp44
 70
     1
102
RTVSPost2010Prop45
280
     0
102
RTVSPost2010PropOp45
 70
     1
102
RTVSPost2010Prop46
 90
       50
102
RTVSPost2010PropOp46
 70
     1
102
RTVSPost2010Prop47
 90
       50
102
RTVSPost2010PropOp47
 70
     1
102
RTVSPost2010Prop48
 90
       50
102
RTVSPost2010PropOp48
 70
     1
102
RTVSPost2010Prop49
280
     0
102
RTVSPost2010PropOp49
 70
     1
102
RTVSPost2010Prop50
 90
       50
102
RTVSPost2010PropOp50
 70
     1
102
RTVSPost2010Prop51ColorIndex
 90
      256
102
RTVSPost2010Prop51ColorRGB
 90
-16777216
102
RTVSPost2010PropOp51
 70
     0
102
RTVSPost2010Prop52
140
1.0
102
RTVSPost2010PropOp52
 70
     0
102
RTVSPost2010Prop53
 90
        2
102
RTVSPost2010PropOp53
 70
     1
102
RTVSPost2010Prop54
  1
strokes_ogs.tif
102
RTVSPost2010PropOp54
 70
     1
102
RTVSPost2010Prop55
280
     0
102
RTVSPost2010PropOp55
 70
     1
102
RTVSPost2010Prop56
140
1.0
102
RTVSPost2010PropOp56
 70
     1
102
RTVSPost2010Prop57
140
1.0
102
RTVSPost2010PropOp57
 70
     1
102
RTVSPropertyOp0
 70
     1
102
RTVSPropertyOp1
 70
     1
102
RTVSPropertyOp2
 70
     1
102
RTVSPropertyOp3
 70
     1
102
RTVSPropertyOp4
 70
     1
102
RTVSPropertyOp5
 70
     1
102
RTVSPropertyOp6
 70
     1
102
RTVSPropertyOp7
 70
     1
102
RTVSPropertyOp8
 70
     1
102
RTVSPropertyOp9
 70
     1
102
RTVSPropertyOp10
 70
     1
102
RTVSPropertyOp11
 70
     1
102
RTVSPropertyOp12
 70
     1
102
RTVSPropertyOp13
 70
     1
102
RTVSPropertyOp14
 70
     1
102
RTVSPropertyOp15
 70
     1
102
RTVSPropertyOp16
 70
     1
102
RTVSPropertyOp17
 70
     1
102
RTVSPropertyOp18
 70
     1
102
RTVSPropertyOp19
 70
     1
102
RTVSPropertyOp20
 70
     1
102
RTVSPropertyOp21
 70
     1
102
RTVSPropertyOp22
 70
     1
102
RTVSPropertyOp23
 70
     1
102
RTVSPropertyOp24
 70
     1
102
RTVSPropertyOp25
 70
     1
102
RTVSPropertyOp26
 70
     1
102
RTVSPropertyOp27
 70
     1
102
RTVSPropertyOp28
 70
     1
102
RTVSPropertyOp29
 70
     1
102
RTVSPropertyOp30
 70
     1
102
RTVSPropertyOp31
 70
     1
102
RTVSPropertyOp32
 70
     1
102
RTVSPropertyOp33
 70
     1
102
RTVSPropertyOp34
 70
     1
102
RTVSPropertyOp35
 70
     1
102
RTVSPropertyOp36
 70
     1
102
RTVSPropertyOp37
 70
     1
102
RTVSPropertyOp38
 70
     1
102
RTVSPropertyOp39
 70
     1
102
RTVSPropertyOp40
 70
     1
102
RTVSPropertyOp41
 70
     1
102
RTVSPropertyOp42
 70
     1
102
RTVSPropertyOp43
 70
     1
102
RTVSPropertyOp44
 70
     1
102
RTVSPropertyOp45
 70
     1
102
RTVSPropertyOp46
 70
     1
102
RTVSPropertyOp47
 70
     1
102
RTVSPropertyOp48
 70
     1
102
RTVSPropertyOp49
 70
     1
102
RTVSPropertyOp50
 70
     1
102
RTVSPropertyOp51
 70
     0
102
RTVSPropertyOp52
 70
     0
102
RTVSPropertyOp53
 70
     1
102
RTVSPropertyOp54
 70
     1
102
RTVSPropertyOp55
 70
     1
102
RTVSPropertyOp56
 70
     1
102
RTVSPropertyOp57
 70
     1
102
RTVSPropertyOp58
 70
     1
102
RTVSPropertyOp59
 70
     1
102
RTVSPropertyOp60
 70
     1
102
RTVSPropertyOp61
 70
     1
102
RTVSPropertyOp62
 70
     1
  0
XRECORD
  5
85A0
102
{ACAD_REACTORS
330
859F
102
}
330
859F
100
AcDbXrecord
280
     1
102
RTVSPost2010Prop28
280
     0
102
RTVSPost2010PropOp28
 70
     1
102
RTVSPost2010Prop29
280
     1
102
RTVSPost2010PropOp29
 70
     1
102
RTVSPost2010Prop30
280
     1
102
RTVSPost2010PropOp30
 70
     1
102
RTVSPost2010Prop31
280
     0
102
RTVSPost2010PropOp31
 70
     1
102
RTVSPost2010Prop32
280
     0
102
RTVSPost2010PropOp32
 70
     1
102
RTVSPost2010Prop33
280
     0
102
RTVSPost2010PropOp33
 70
     1
102
RTVSPost2010Prop34
280
     0
102
RTVSPost2010PropOp34
 70
     1
102
RTVSPost2010Prop35
280
     0
102
RTVSPost2010PropOp35
 70
     1
102
RTVSPost2010Prop36
280
     0
102
RTVSPost2010PropOp36
 70
     1
102
RTVSPost2010Prop37
 90
       50
102
RTVSPost2010PropOp37
 70
     1
102
RTVSPost2010Prop38
140
0.0
102
RTVSPost2010PropOp38
 70
     1
102
RTVSPost2010Prop39
140
1.0
102
RTVSPost2010PropOp39
 70
     1
102
RTVSPost2010Prop40
 90
        0
102
RTVSPost2010PropOp40
 70
     1
102
RTVSPost2010Prop41ColorIndex
 90
       18
102
RTVSPost2010Prop41ColorRGB
 90
        0
102
RTVSPost2010PropOp41
 70
     1
102
RTVSPost2010Prop42
 90
       50
102
RTVSPost2010PropOp42
 70
     1
102
RTVSPost2010Prop43
 90
        3
102
RTVSPost2010PropOp43
 70
     1
102
RTVSPost2010Prop44ColorIndex
 90
        5
102
RTVSPost2010Prop44ColorRGB
 90
      255
102
RTVSPost2010PropOp44
 70
     1
102
RTVSPost2010Prop45
280
     0
102
RTVSPost2010PropOp45
 70
     1
102
RTVSPost2010Prop46
 90
       50
102
RTVSPost2010PropOp46
 70
     1
102
RTVSPost2010Prop47
 90
       50
102
RTVSPost2010PropOp47
 70
     1
102
RTVSPost2010Prop48
 90
       50
102
RTVSPost2010PropOp48
 70
     1
102
RTVSPost2010Prop49
280
     0
102
RTVSPost2010PropOp49
 70
     1
102
RTVSPost2010Prop50
 90
       50
102
RTVSPost2010PropOp50
 70
     1
102
RTVSPost2010Prop51ColorIndex
 90
      256
102
RTVSPost2010Prop51ColorRGB
 90
-16777216
102
RTVSPost2010PropOp51
 70
     0
102
RTVSPost2010Prop52
140
1.0
102
RTVSPost2010PropOp52
 70
     0
102
RTVSPost2010Prop53
 90
        2
102
RTVSPost2010PropOp53
 70
     1
102
RTVSPost2010Prop54
  1
strokes_ogs.tif
102
RTVSPost2010PropOp54
 70
     1
102
RTVSPost2010Prop55
280
     0
102
RTVSPost2010PropOp55
 70
     1
102
RTVSPost2010Prop56
140
1.0
102
RTVSPost2010PropOp56
 70
     1
102
RTVSPost2010Prop57
140
1.0
102
RTVSPost2010PropOp57
 70
     1
102
RTVSPropertyOp0
 70
     1
102
RTVSPropertyOp1
 70
     1
102
RTVSPropertyOp2
 70
     1
102
RTVSPropertyOp3
 70
     1
102
RTVSPropertyOp4
 70
     1
102
RTVSPropertyOp5
 70
     1
102
RTVSPropertyOp6
 70
     1
102
RTVSPropertyOp7
 70
     1
102
RTVSPropertyOp8
 70
     1
102
RTVSPropertyOp9
 70
     1
102
RTVSPropertyOp10
 70
     1
102
RTVSPropertyOp11
 70
     1
102
RTVSPropertyOp12
 70
     1
102
RTVSPropertyOp13
 70
     1
102
RTVSPropertyOp14
 70
     1
102
RTVSPropertyOp15
 70
     1
102
RTVSPropertyOp16
 70
     1
102
RTVSPropertyOp17
 70
     1
102
RTVSPropertyOp18
 70
     1
102
RTVSPropertyOp19
 70
     1
102
RTVSPropertyOp20
 70
     1
102
RTVSPropertyOp21
 70
     1
102
RTVSPropertyOp22
 70
     1
102
RTVSPropertyOp23
 70
     1
102
RTVSPropertyOp24
 70
     1
102
RTVSPropertyOp25
 70
     1
102
RTVSPropertyOp26
 70
     1
102
RTVSPropertyOp27
 70
     1
102
RTVSPropertyOp28
 70
     1
102
RTVSPropertyOp29
 70
     1
102
RTVSPropertyOp30
 70
     1
102
RTVSPropertyOp31
 70
     1
102
RTVSPropertyOp32
 70
     1
102
RTVSPropertyOp33
 70
     1
102
RTVSPropertyOp34
 70
     1
102
RTVSPropertyOp35
 70
     1
102
RTVSPropertyOp36
 70
     1
102
RTVSPropertyOp37
 70
     1
102
RTVSPropertyOp38
 70
     1
102
RTVSPropertyOp39
 70
     1
102
RTVSPropertyOp40
 70
     1
102
RTVSPropertyOp41
 70
     1
102
RTVSPropertyOp42
 70
     1
102
RTVSPropertyOp43
 70
     1
102
RTVSPropertyOp44
 70
     1
102
RTVSPropertyOp45
 70
     1
102
RTVSPropertyOp46
 70
     1
102
RTVSPropertyOp47
 70
     1
102
RTVSPropertyOp48
 70
     1
102
RTVSPropertyOp49
 70
     1
102
RTVSPropertyOp50
 70
     1
102
RTVSPropertyOp51
 70
     0
102
RTVSPropertyOp52
 70
     0
102
RTVSPropertyOp53
 70
     1
102
RTVSPropertyOp54
 70
     1
102
RTVSPropertyOp55
 70
     1
102
RTVSPropertyOp56
 70
     1
102
RTVSPropertyOp57
 70
     1
102
RTVSPropertyOp58
 70
     1
102
RTVSPropertyOp59
 70
     1
102
RTVSPropertyOp60
 70
     1
102
RTVSPropertyOp61
 70
     1
102
RTVSPropertyOp62
 70
     1
  0
XRECORD
  5
85A2
102
{ACAD_REACTORS
330
85A1
102
}
330
85A1
100
AcDbXrecord
280
     1
102
RTVSPost2010Prop28
280
     0
102
RTVSPost2010PropOp28
 70
     1
102
RTVSPost2010Prop29
280
     1
102
RTVSPost2010PropOp29
 70
     1
102
RTVSPost2010Prop30
280
     1
102
RTVSPost2010PropOp30
 70
     1
102
RTVSPost2010Prop31
280
     0
102
RTVSPost2010PropOp31
 70
     1
102
RTVSPost2010Prop32
280
     0
102
RTVSPost2010PropOp32
 70
     1
102
RTVSPost2010Prop33
280
     0
102
RTVSPost2010PropOp33
 70
     1
102
RTVSPost2010Prop34
280
     0
102
RTVSPost2010PropOp34
 70
     1
102
RTVSPost2010Prop35
280
     0
102
RTVSPost2010PropOp35
 70
     1
102
RTVSPost2010Prop36
280
     0
102
RTVSPost2010PropOp36
 70
     1
102
RTVSPost2010Prop37
 90
       50
102
RTVSPost2010PropOp37
 70
     1
102
RTVSPost2010Prop38
140
0.0
102
RTVSPost2010PropOp38
 70
     1
102
RTVSPost2010Prop39
140
1.0
102
RTVSPost2010PropOp39
 70
     1
102
RTVSPost2010Prop40
 90
        0
102
RTVSPost2010PropOp40
 70
     1
102
RTVSPost2010Prop41ColorIndex
 90
       18
102
RTVSPost2010Prop41ColorRGB
 90
        0
102
RTVSPost2010PropOp41
 70
     1
102
RTVSPost2010Prop42
 90
       50
102
RTVSPost2010PropOp42
 70
     1
102
RTVSPost2010Prop43
 90
        3
102
RTVSPost2010PropOp43
 70
     1
102
RTVSPost2010Prop44ColorIndex
 90
        5
102
RTVSPost2010Prop44ColorRGB
 90
      255
102
RTVSPost2010PropOp44
 70
     1
102
RTVSPost2010Prop45
280
     0
102
RTVSPost2010PropOp45
 70
     1
102
RTVSPost2010Prop46
 90
       50
102
RTVSPost2010PropOp46
 70
     1
102
RTVSPost2010Prop47
 90
       50
102
RTVSPost2010PropOp47
 70
     1
102
RTVSPost2010Prop48
 90
       50
102
RTVSPost2010PropOp48
 70
     1
102
RTVSPost2010Prop49
280
     0
102
RTVSPost2010PropOp49
 70
     1
102
RTVSPost2010Prop50
 90
       50
102
RTVSPost2010PropOp50
 70
     1
102
RTVSPost2010Prop51ColorIndex
 90
      256
102
RTVSPost2010Prop51ColorRGB
 90
-16777216
102
RTVSPost2010PropOp51
 70
     0
102
RTVSPost2010Prop52
140
1.0
102
RTVSPost2010PropOp52
 70
     0
102
RTVSPost2010Prop53
 90
        2
102
RTVSPost2010PropOp53
 70
     1
102
RTVSPost2010Prop54
  1
strokes_ogs.tif
102
RTVSPost2010PropOp54
 70
     1
102
RTVSPost2010Prop55
280
     0
102
RTVSPost2010PropOp55
 70
     1
102
RTVSPost2010Prop56
140
1.0
102
RTVSPost2010PropOp56
 70
     1
102
RTVSPost2010Prop57
140
1.0
102
RTVSPost2010PropOp57
 70
     1
102
RTVSPropertyOp0
 70
     1
102
RTVSPropertyOp1
 70
     1
102
RTVSPropertyOp2
 70
     1
102
RTVSPropertyOp3
 70
     1
102
RTVSPropertyOp4
 70
     1
102
RTVSPropertyOp5
 70
     1
102
RTVSPropertyOp6
 70
     1
102
RTVSPropertyOp7
 70
     1
102
RTVSPropertyOp8
 70
     1
102
RTVSPropertyOp9
 70
     1
102
RTVSPropertyOp10
 70
     1
102
RTVSPropertyOp11
 70
     1
102
RTVSPropertyOp12
 70
     1
102
RTVSPropertyOp13
 70
     1
102
RTVSPropertyOp14
 70
     1
102
RTVSPropertyOp15
 70
     1
102
RTVSPropertyOp16
 70
     1
102
RTVSPropertyOp17
 70
     1
102
RTVSPropertyOp18
 70
     1
102
RTVSPropertyOp19
 70
     1
102
RTVSPropertyOp20
 70
     1
102
RTVSPropertyOp21
 70
     1
102
RTVSPropertyOp22
 70
     1
102
RTVSPropertyOp23
 70
     1
102
RTVSPropertyOp24
 70
     1
102
RTVSPropertyOp25
 70
     1
102
RTVSPropertyOp26
 70
     1
102
RTVSPropertyOp27
 70
     1
102
RTVSPropertyOp28
 70
     1
102
RTVSPropertyOp29
 70
     1
102
RTVSPropertyOp30
 70
     1
102
RTVSPropertyOp31
 70
     1
102
RTVSPropertyOp32
 70
     1
102
RTVSPropertyOp33
 70
     1
102
RTVSPropertyOp34
 70
     1
102
RTVSPropertyOp35
 70
     1
102
RTVSPropertyOp36
 70
     1
102
RTVSPropertyOp37
 70
     1
102
RTVSPropertyOp38
 70
     1
102
RTVSPropertyOp39
 70
     1
102
RTVSPropertyOp40
 70
     1
102
RTVSPropertyOp41
 70
     1
102
RTVSPropertyOp42
 70
     1
102
RTVSPropertyOp43
 70
     1
102
RTVSPropertyOp44
 70
     1
102
RTVSPropertyOp45
 70
     1
102
RTVSPropertyOp46
 70
     1
102
RTVSPropertyOp47
 70
     1
102
RTVSPropertyOp48
 70
     1
102
RTVSPropertyOp49
 70
     1
102
RTVSPropertyOp50
 70
     1
102
RTVSPropertyOp51
 70
     0
102
RTVSPropertyOp52
 70
     0
102
RTVSPropertyOp53
 70
     1
102
RTVSPropertyOp54
 70
     1
102
RTVSPropertyOp55
 70
     1
102
RTVSPropertyOp56
 70
     1
102
RTVSPropertyOp57
 70
     1
102
RTVSPropertyOp58
 70
     1
102
RTVSPropertyOp59
 70
     1
102
RTVSPropertyOp60
 70
     1
102
RTVSPropertyOp61
 70
     1
102
RTVSPropertyOp62
 70
     1
  0
XRECORD
  5
85A4
102
{ACAD_REACTORS
330
85A3
102
}
330
85A3
100
AcDbXrecord
280
     1
102
RTVSPost2010Prop28
280
     0
102
RTVSPost2010PropOp28
 70
     1
102
RTVSPost2010Prop29
280
     1
102
RTVSPost2010PropOp29
 70
     1
102
RTVSPost2010Prop30
280
     1
102
RTVSPost2010PropOp30
 70
     1
102
RTVSPost2010Prop31
280
     0
102
RTVSPost2010PropOp31
 70
     1
102
RTVSPost2010Prop32
280
     0
102
RTVSPost2010PropOp32
 70
     1
102
RTVSPost2010Prop33
280
     0
102
RTVSPost2010PropOp33
 70
     1
102
RTVSPost2010Prop34
280
     0
102
RTVSPost2010PropOp34
 70
     1
102
RTVSPost2010Prop35
280
     0
102
RTVSPost2010PropOp35
 70
     1
102
RTVSPost2010Prop36
280
     0
102
RTVSPost2010PropOp36
 70
     1
102
RTVSPost2010Prop37
 90
       50
102
RTVSPost2010PropOp37
 70
     1
102
RTVSPost2010Prop38
140
0.0
102
RTVSPost2010PropOp38
 70
     1
102
RTVSPost2010Prop39
140
1.0
102
RTVSPost2010PropOp39
 70
     1
102
RTVSPost2010Prop40
 90
        0
102
RTVSPost2010PropOp40
 70
     1
102
RTVSPost2010Prop41ColorIndex
 90
       18
102
RTVSPost2010Prop41ColorRGB
 90
        0
102
RTVSPost2010PropOp41
 70
     1
102
RTVSPost2010Prop42
 90
       50
102
RTVSPost2010PropOp42
 70
     1
102
RTVSPost2010Prop43
 90
        3
102
RTVSPost2010PropOp43
 70
     1
102
RTVSPost2010Prop44ColorIndex
 90
        5
102
RTVSPost2010Prop44ColorRGB
 90
      255
102
RTVSPost2010PropOp44
 70
     1
102
RTVSPost2010Prop45
280
     0
102
RTVSPost2010PropOp45
 70
     1
102
RTVSPost2010Prop46
 90
       50
102
RTVSPost2010PropOp46
 70
     1
102
RTVSPost2010Prop47
 90
       50
102
RTVSPost2010PropOp47
 70
     1
102
RTVSPost2010Prop48
 90
       50
102
RTVSPost2010PropOp48
 70
     1
102
RTVSPost2010Prop49
280
     0
102
RTVSPost2010PropOp49
 70
     1
102
RTVSPost2010Prop50
 90
       50
102
RTVSPost2010PropOp50
 70
     1
102
RTVSPost2010Prop51ColorIndex
 90
      256
102
RTVSPost2010Prop51ColorRGB
 90
-16777216
102
RTVSPost2010PropOp51
 70
     0
102
RTVSPost2010Prop52
140
1.0
102
RTVSPost2010PropOp52
 70
     0
102
RTVSPost2010Prop53
 90
        2
102
RTVSPost2010PropOp53
 70
     1
102
RTVSPost2010Prop54
  1
strokes_ogs.tif
102
RTVSPost2010PropOp54
 70
     1
102
RTVSPost2010Prop55
280
     0
102
RTVSPost2010PropOp55
 70
     1
102
RTVSPost2010Prop56
140
1.0
102
RTVSPost2010PropOp56
 70
     1
102
RTVSPost2010Prop57
140
1.0
102
RTVSPost2010PropOp57
 70
     1
102
RTVSPropertyOp0
 70
     1
102
RTVSPropertyOp1
 70
     1
102
RTVSPropertyOp2
 70
     1
102
RTVSPropertyOp3
 70
     1
102
RTVSPropertyOp4
 70
     1
102
RTVSPropertyOp5
 70
     1
102
RTVSPropertyOp6
 70
     1
102
RTVSPropertyOp7
 70
     1
102
RTVSPropertyOp8
 70
     1
102
RTVSPropertyOp9
 70
     1
102
RTVSPropertyOp10
 70
     1
102
RTVSPropertyOp11
 70
     1
102
RTVSPropertyOp12
 70
     1
102
RTVSPropertyOp13
 70
     1
102
RTVSPropertyOp14
 70
     1
102
RTVSPropertyOp15
 70
     1
102
RTVSPropertyOp16
 70
     1
102
RTVSPropertyOp17
 70
     1
102
RTVSPropertyOp18
 70
     1
102
RTVSPropertyOp19
 70
     1
102
RTVSPropertyOp20
 70
     1
102
RTVSPropertyOp21
 70
     1
102
RTVSPropertyOp22
 70
     1
102
RTVSPropertyOp23
 70
     1
102
RTVSPropertyOp24
 70
     1
102
RTVSPropertyOp25
 70
     1
102
RTVSPropertyOp26
 70
     1
102
RTVSPropertyOp27
 70
     1
102
RTVSPropertyOp28
 70
     1
102
RTVSPropertyOp29
 70
     1
102
RTVSPropertyOp30
 70
     1
102
RTVSPropertyOp31
 70
     1
102
RTVSPropertyOp32
 70
     1
102
RTVSPropertyOp33
 70
     1
102
RTVSPropertyOp34
 70
     1
102
RTVSPropertyOp35
 70
     1
102
RTVSPropertyOp36
 70
     1
102
RTVSPropertyOp37
 70
     1
102
RTVSPropertyOp38
 70
     1
102
RTVSPropertyOp39
 70
     1
102
RTVSPropertyOp40
 70
     1
102
RTVSPropertyOp41
 70
     1
102
RTVSPropertyOp42
 70
     1
102
RTVSPropertyOp43
 70
     1
102
RTVSPropertyOp44
 70
     1
102
RTVSPropertyOp45
 70
     1
102
RTVSPropertyOp46
 70
     1
102
RTVSPropertyOp47
 70
     1
102
RTVSPropertyOp48
 70
     1
102
RTVSPropertyOp49
 70
     1
102
RTVSPropertyOp50
 70
     1
102
RTVSPropertyOp51
 70
     0
102
RTVSPropertyOp52
 70
     0
102
RTVSPropertyOp53
 70
     1
102
RTVSPropertyOp54
 70
     1
102
RTVSPropertyOp55
 70
     1
102
RTVSPropertyOp56
 70
     1
102
RTVSPropertyOp57
 70
     1
102
RTVSPropertyOp58
 70
     1
102
RTVSPropertyOp59
 70
     1
102
RTVSPropertyOp60
 70
     1
102
RTVSPropertyOp61
 70
     1
102
RTVSPropertyOp62
 70
     1
  0
XRECORD
  5
85AC
102
{ACAD_REACTORS
330
85AB
102
}
330
85AB
100
AcDbXrecord
280
     1
102
RTVSPost2010Prop28
280
     0
102
RTVSPost2010PropOp28
 70
     1
102
RTVSPost2010Prop29
280
     1
102
RTVSPost2010PropOp29
 70
     1
102
RTVSPost2010Prop30
280
     1
102
RTVSPost2010PropOp30
 70
     1
102
RTVSPost2010Prop31
280
     0
102
RTVSPost2010PropOp31
 70
     1
102
RTVSPost2010Prop32
280
     0
102
RTVSPost2010PropOp32
 70
     1
102
RTVSPost2010Prop33
280
     0
102
RTVSPost2010PropOp33
 70
     1
102
RTVSPost2010Prop34
280
     0
102
RTVSPost2010PropOp34
 70
     1
102
RTVSPost2010Prop35
280
     0
102
RTVSPost2010PropOp35
 70
     1
102
RTVSPost2010Prop36
280
     0
102
RTVSPost2010PropOp36
 70
     1
102
RTVSPost2010Prop37
 90
       50
102
RTVSPost2010PropOp37
 70
     1
102
RTVSPost2010Prop38
140
0.0
102
RTVSPost2010PropOp38
 70
     1
102
RTVSPost2010Prop39
140
1.0
102
RTVSPost2010PropOp39
 70
     1
102
RTVSPost2010Prop40
 90
        0
102
RTVSPost2010PropOp40
 70
     1
102
RTVSPost2010Prop41ColorIndex
 90
       18
102
RTVSPost2010Prop41ColorRGB
 90
        0
102
RTVSPost2010PropOp41
 70
     1
102
RTVSPost2010Prop42
 90
       50
102
RTVSPost2010PropOp42
 70
     1
102
RTVSPost2010Prop43
 90
        3
102
RTVSPost2010PropOp43
 70
     1
102
RTVSPost2010Prop44ColorIndex
 90
        5
102
RTVSPost2010Prop44ColorRGB
 90
      255
102
RTVSPost2010PropOp44
 70
     1
102
RTVSPost2010Prop45
280
     0
102
RTVSPost2010PropOp45
 70
     1
102
RTVSPost2010Prop46
 90
       50
102
RTVSPost2010PropOp46
 70
     1
102
RTVSPost2010Prop47
 90
       50
102
RTVSPost2010PropOp47
 70
     1
102
RTVSPost2010Prop48
 90
       50
102
RTVSPost2010PropOp48
 70
     1
102
RTVSPost2010Prop49
280
     0
102
RTVSPost2010PropOp49
 70
     1
102
RTVSPost2010Prop50
 90
       50
102
RTVSPost2010PropOp50
 70
     1
102
RTVSPost2010Prop51ColorIndex
 90
      256
102
RTVSPost2010Prop51ColorRGB
 90
-16777216
102
RTVSPost2010PropOp51
 70
     0
102
RTVSPost2010Prop52
140
1.0
102
RTVSPost2010PropOp52
 70
     0
102
RTVSPost2010Prop53
 90
        2
102
RTVSPost2010PropOp53
 70
     1
102
RTVSPost2010Prop54
  1
strokes_ogs.tif
102
RTVSPost2010PropOp54
 70
     1
102
RTVSPost2010Prop55
280
     0
102
RTVSPost2010PropOp55
 70
     1
102
RTVSPost2010Prop56
140
1.0
102
RTVSPost2010PropOp56
 70
     1
102
RTVSPost2010Prop57
140
1.0
102
RTVSPost2010PropOp57
 70
     1
102
RTVSPropertyOp0
 70
     1
102
RTVSPropertyOp1
 70
     1
102
RTVSPropertyOp2
 70
     1
102
RTVSPropertyOp3
 70
     1
102
RTVSPropertyOp4
 70
     1
102
RTVSPropertyOp5
 70
     1
102
RTVSPropertyOp6
 70
     1
102
RTVSPropertyOp7
 70
     1
102
RTVSPropertyOp8
 70
     1
102
RTVSPropertyOp9
 70
     1
102
RTVSPropertyOp10
 70
     1
102
RTVSPropertyOp11
 70
     1
102
RTVSPropertyOp12
 70
     1
102
RTVSPropertyOp13
 70
     1
102
RTVSPropertyOp14
 70
     1
102
RTVSPropertyOp15
 70
     1
102
RTVSPropertyOp16
 70
     1
102
RTVSPropertyOp17
 70
     1
102
RTVSPropertyOp18
 70
     1
102
RTVSPropertyOp19
 70
     1
102
RTVSPropertyOp20
 70
     1
102
RTVSPropertyOp21
 70
     1
102
RTVSPropertyOp22
 70
     1
102
RTVSPropertyOp23
 70
     1
102
RTVSPropertyOp24
 70
     1
102
RTVSPropertyOp25
 70
     1
102
RTVSPropertyOp26
 70
     1
102
RTVSPropertyOp27
 70
     1
102
RTVSPropertyOp28
 70
     1
102
RTVSPropertyOp29
 70
     1
102
RTVSPropertyOp30
 70
     1
102
RTVSPropertyOp31
 70
     1
102
RTVSPropertyOp32
 70
     1
102
RTVSPropertyOp33
 70
     1
102
RTVSPropertyOp34
 70
     1
102
RTVSPropertyOp35
 70
     1
102
RTVSPropertyOp36
 70
     1
102
RTVSPropertyOp37
 70
     1
102
RTVSPropertyOp38
 70
     1
102
RTVSPropertyOp39
 70
     1
102
RTVSPropertyOp40
 70
     1
102
RTVSPropertyOp41
 70
     1
102
RTVSPropertyOp42
 70
     1
102
RTVSPropertyOp43
 70
     1
102
RTVSPropertyOp44
 70
     1
102
RTVSPropertyOp45
 70
     1
102
RTVSPropertyOp46
 70
     1
102
RTVSPropertyOp47
 70
     1
102
RTVSPropertyOp48
 70
     1
102
RTVSPropertyOp49
 70
     1
102
RTVSPropertyOp50
 70
     1
102
RTVSPropertyOp51
 70
     0
102
RTVSPropertyOp52
 70
     0
102
RTVSPropertyOp53
 70
     1
102
RTVSPropertyOp54
 70
     1
102
RTVSPropertyOp55
 70
     1
102
RTVSPropertyOp56
 70
     1
102
RTVSPropertyOp57
 70
     1
102
RTVSPropertyOp58
 70
     1
102
RTVSPropertyOp59
 70
     1
102
RTVSPropertyOp60
 70
     1
102
RTVSPropertyOp61
 70
     1
102
RTVSPropertyOp62
 70
     1
  0
XRECORD
  5
85C8
102
{ACAD_REACTORS
330
85C7
102
}
330
85C7
100
AcDbXrecord
280
     1
102
RTVSPost2010Prop28
280
     0
102
RTVSPost2010PropOp28
 70
     1
102
RTVSPost2010Prop29
280
     1
102
RTVSPost2010PropOp29
 70
     1
102
RTVSPost2010Prop30
280
     1
102
RTVSPost2010PropOp30
 70
     1
102
RTVSPost2010Prop31
280
     0
102
RTVSPost2010PropOp31
 70
     1
102
RTVSPost2010Prop32
280
     0
102
RTVSPost2010PropOp32
 70
     1
102
RTVSPost2010Prop33
280
     0
102
RTVSPost2010PropOp33
 70
     1
102
RTVSPost2010Prop34
280
     0
102
RTVSPost2010PropOp34
 70
     1
102
RTVSPost2010Prop35
280
     0
102
RTVSPost2010PropOp35
 70
     1
102
RTVSPost2010Prop36
280
     0
102
RTVSPost2010PropOp36
 70
     1
102
RTVSPost2010Prop37
 90
       50
102
RTVSPost2010PropOp37
 70
     0
102
RTVSPost2010Prop38
140
0.0
102
RTVSPost2010PropOp38
 70
     0
102
RTVSPost2010Prop39
140
1.0
102
RTVSPost2010PropOp39
 70
     0
102
RTVSPost2010Prop40
 90
        0
102
RTVSPost2010PropOp40
 70
     0
102
RTVSPost2010Prop41ColorIndex
 90
       18
102
RTVSPost2010Prop41ColorRGB
 90
        0
102
RTVSPost2010PropOp41
 70
     0
102
RTVSPost2010Prop42
 90
       50
102
RTVSPost2010PropOp42
 70
     0
102
RTVSPost2010Prop43
 90
        3
102
RTVSPost2010PropOp43
 70
     0
102
RTVSPost2010Prop44ColorIndex
 90
        5
102
RTVSPost2010Prop44ColorRGB
 90
      255
102
RTVSPost2010PropOp44
 70
     0
102
RTVSPost2010Prop45
280
     0
102
RTVSPost2010PropOp45
 70
     1
102
RTVSPost2010Prop46
 90
       50
102
RTVSPost2010PropOp46
 70
     0
102
RTVSPost2010Prop47
 90
       50
102
RTVSPost2010PropOp47
 70
     0
102
RTVSPost2010Prop48
 90
       50
102
RTVSPost2010PropOp48
 70
     0
102
RTVSPost2010Prop49
280
     0
102
RTVSPost2010PropOp49
 70
     1
102
RTVSPost2010Prop50
 90
       50
102
RTVSPost2010PropOp50
 70
     0
102
RTVSPost2010Prop51ColorIndex
 90
      256
102
RTVSPost2010Prop51ColorRGB
 90
-16777216
102
RTVSPost2010PropOp51
 70
     0
102
RTVSPost2010Prop52
140
1.0
102
RTVSPost2010PropOp52
 70
     0
102
RTVSPost2010Prop53
 90
        2
102
RTVSPost2010PropOp53
 70
     0
102
RTVSPost2010Prop54
  1
strokes_ogs.tif
102
RTVSPost2010PropOp54
 70
     0
102
RTVSPost2010Prop55
280
     0
102
RTVSPost2010PropOp55
 70
     1
102
RTVSPost2010Prop56
140
1.0
102
RTVSPost2010PropOp56
 70
     0
102
RTVSPost2010Prop57
140
1.0
102
RTVSPost2010PropOp57
 70
     0
102
RTVSPropertyOp0
 70
     0
102
RTVSPropertyOp1
 70
     0
102
RTVSPropertyOp2
 70
     0
102
RTVSPropertyOp3
 70
     0
102
RTVSPropertyOp4
 70
     0
102
RTVSPropertyOp5
 70
     0
102
RTVSPropertyOp6
 70
     0
102
RTVSPropertyOp7
 70
     0
102
RTVSPropertyOp8
 70
     0
102
RTVSPropertyOp9
 70
     0
102
RTVSPropertyOp10
 70
     0
102
RTVSPropertyOp11
 70
     0
102
RTVSPropertyOp12
 70
     0
102
RTVSPropertyOp13
 70
     0
102
RTVSPropertyOp14
 70
     2
102
RTVSPropertyOp15
 70
     0
102
RTVSPropertyOp16
 70
     0
102
RTVSPropertyOp17
 70
     0
102
RTVSPropertyOp18
 70
     0
102
RTVSPropertyOp19
 70
     0
102
RTVSPropertyOp20
 70
     0
102
RTVSPropertyOp21
 70
     0
102
RTVSPropertyOp22
 70
     0
102
RTVSPropertyOp23
 70
     0
102
RTVSPropertyOp24
 70
     0
102
RTVSPropertyOp25
 70
     0
102
RTVSPropertyOp26
 70
     0
102
RTVSPropertyOp27
 70
     0
102
RTVSPropertyOp28
 70
     1
102
RTVSPropertyOp29
 70
     1
102
RTVSPropertyOp30
 70
     1
102
RTVSPropertyOp31
 70
     1
102
RTVSPropertyOp32
 70
     1
102
RTVSPropertyOp33
 70
     1
102
RTVSPropertyOp34
 70
     1
102
RTVSPropertyOp35
 70
     1
102
RTVSPropertyOp36
 70
     1
102
RTVSPropertyOp37
 70
     0
102
RTVSPropertyOp38
 70
     0
102
RTVSPropertyOp39
 70
     0
102
RTVSPropertyOp40
 70
     0
102
RTVSPropertyOp41
 70
     0
102
RTVSPropertyOp42
 70
     0
102
RTVSPropertyOp43
 70
     0
102
RTVSPropertyOp44
 70
     0
102
RTVSPropertyOp45
 70
     1
102
RTVSPropertyOp46
 70
     0
102
RTVSPropertyOp47
 70
     0
102
RTVSPropertyOp48
 70
     0
102
RTVSPropertyOp49
 70
     1
102
RTVSPropertyOp50
 70
     0
102
RTVSPropertyOp51
 70
     0
102
RTVSPropertyOp52
 70
     0
102
RTVSPropertyOp53
 70
     0
102
RTVSPropertyOp54
 70
     0
102
RTVSPropertyOp55
 70
     1
102
RTVSPropertyOp56
 70
     0
102
RTVSPropertyOp57
 70
     0
102
RTVSPropertyOp58
 70
     0
102
RTVSPropertyOp59
 70
     0
102
RTVSPropertyOp60
 70
     0
102
RTVSPropertyOp61
 70
     0
102
RTVSPropertyOp62
 70
     0
  0
XRECORD
  5
85B8
102
{ACAD_REACTORS
330
85B7
102
}
330
85B7
100
AcDbXrecord
280
     1
102
RTVSPost2010Prop28
280
     0
102
RTVSPost2010PropOp28
 70
     1
102
RTVSPost2010Prop29
280
     1
102
RTVSPost2010PropOp29
 70
     1
102
RTVSPost2010Prop30
280
     1
102
RTVSPost2010PropOp30
 70
     1
102
RTVSPost2010Prop31
280
     0
102
RTVSPost2010PropOp31
 70
     1
102
RTVSPost2010Prop32
280
     0
102
RTVSPost2010PropOp32
 70
     1
102
RTVSPost2010Prop33
280
     0
102
RTVSPost2010PropOp33
 70
     1
102
RTVSPost2010Prop34
280
     0
102
RTVSPost2010PropOp34
 70
     1
102
RTVSPost2010Prop35
280
     0
102
RTVSPost2010PropOp35
 70
     1
102
RTVSPost2010Prop36
280
     0
102
RTVSPost2010PropOp36
 70
     1
102
RTVSPost2010Prop37
 90
       50
102
RTVSPost2010PropOp37
 70
     1
102
RTVSPost2010Prop38
140
0.0
102
RTVSPost2010PropOp38
 70
     1
102
RTVSPost2010Prop39
140
1.0
102
RTVSPost2010PropOp39
 70
     1
102
RTVSPost2010Prop40
 90
        0
102
RTVSPost2010PropOp40
 70
     1
102
RTVSPost2010Prop41ColorIndex
 90
       18
102
RTVSPost2010Prop41ColorRGB
 90
        0
102
RTVSPost2010PropOp41
 70
     1
102
RTVSPost2010Prop42
 90
       50
102
RTVSPost2010PropOp42
 70
     1
102
RTVSPost2010Prop43
 90
        3
102
RTVSPost2010PropOp43
 70
     1
102
RTVSPost2010Prop44ColorIndex
 90
        5
102
RTVSPost2010Prop44ColorRGB
 90
      255
102
RTVSPost2010PropOp44
 70
     1
102
RTVSPost2010Prop45
280
     0
102
RTVSPost2010PropOp45
 70
     1
102
RTVSPost2010Prop46
 90
       50
102
RTVSPost2010PropOp46
 70
     1
102
RTVSPost2010Prop47
 90
       50
102
RTVSPost2010PropOp47
 70
     1
102
RTVSPost2010Prop48
 90
       50
102
RTVSPost2010PropOp48
 70
     1
102
RTVSPost2010Prop49
280
     0
102
RTVSPost2010PropOp49
 70
     1
102
RTVSPost2010Prop50
 90
       50
102
RTVSPost2010PropOp50
 70
     1
102
RTVSPost2010Prop51ColorIndex
 90
      256
102
RTVSPost2010Prop51ColorRGB
 90
-16777216
102
RTVSPost2010PropOp51
 70
     0
102
RTVSPost2010Prop52
140
1.0
102
RTVSPost2010PropOp52
 70
     0
102
RTVSPost2010Prop53
 90
        2
102
RTVSPost2010PropOp53
 70
     1
102
RTVSPost2010Prop54
  1
strokes_ogs.tif
102
RTVSPost2010PropOp54
 70
     1
102
RTVSPost2010Prop55
280
     0
102
RTVSPost2010PropOp55
 70
     1
102
RTVSPost2010Prop56
140
1.0
102
RTVSPost2010PropOp56
 70
     1
102
RTVSPost2010Prop57
140
1.0
102
RTVSPost2010PropOp57
 70
     1
102
RTVSPropertyOp0
 70
     1
102
RTVSPropertyOp1
 70
     1
102
RTVSPropertyOp2
 70
     1
102
RTVSPropertyOp3
 70
     1
102
RTVSPropertyOp4
 70
     1
102
RTVSPropertyOp5
 70
     1
102
RTVSPropertyOp6
 70
     1
102
RTVSPropertyOp7
 70
     1
102
RTVSPropertyOp8
 70
     1
102
RTVSPropertyOp9
 70
     1
102
RTVSPropertyOp10
 70
     1
102
RTVSPropertyOp11
 70
     1
102
RTVSPropertyOp12
 70
     1
102
RTVSPropertyOp13
 70
     1
102
RTVSPropertyOp14
 70
     1
102
RTVSPropertyOp15
 70
     1
102
RTVSPropertyOp16
 70
     1
102
RTVSPropertyOp17
 70
     1
102
RTVSPropertyOp18
 70
     1
102
RTVSPropertyOp19
 70
     1
102
RTVSPropertyOp20
 70
     1
102
RTVSPropertyOp21
 70
     1
102
RTVSPropertyOp22
 70
     1
102
RTVSPropertyOp23
 70
     1
102
RTVSPropertyOp24
 70
     1
102
RTVSPropertyOp25
 70
     1
102
RTVSPropertyOp26
 70
     1
102
RTVSPropertyOp27
 70
     1
102
RTVSPropertyOp28
 70
     1
102
RTVSPropertyOp29
 70
     1
102
RTVSPropertyOp30
 70
     1
102
RTVSPropertyOp31
 70
     1
102
RTVSPropertyOp32
 70
     1
102
RTVSPropertyOp33
 70
     1
102
RTVSPropertyOp34
 70
     1
102
RTVSPropertyOp35
 70
     1
102
RTVSPropertyOp36
 70
     1
102
RTVSPropertyOp37
 70
     1
102
RTVSPropertyOp38
 70
     1
102
RTVSPropertyOp39
 70
     1
102
RTVSPropertyOp40
 70
     1
102
RTVSPropertyOp41
 70
     1
102
RTVSPropertyOp42
 70
     1
102
RTVSPropertyOp43
 70
     1
102
RTVSPropertyOp44
 70
     1
102
RTVSPropertyOp45
 70
     1
102
RTVSPropertyOp46
 70
     1
102
RTVSPropertyOp47
 70
     1
102
RTVSPropertyOp48
 70
     1
102
RTVSPropertyOp49
 70
     1
102
RTVSPropertyOp50
 70
     1
102
RTVSPropertyOp51
 70
     0
102
RTVSPropertyOp52
 70
     0
102
RTVSPropertyOp53
 70
     1
102
RTVSPropertyOp54
 70
     1
102
RTVSPropertyOp55
 70
     1
102
RTVSPropertyOp56
 70
     1
102
RTVSPropertyOp57
 70
     1
102
RTVSPropertyOp58
 70
     1
102
RTVSPropertyOp59
 70
     1
102
RTVSPropertyOp60
 70
     1
102
RTVSPropertyOp61
 70
     1
102
RTVSPropertyOp62
 70
     1
  0
XRECORD
  5
85CA
102
{ACAD_REACTORS
330
85C9
102
}
330
85C9
100
AcDbXrecord
280
     1
102
RTVSPost2010Prop28
280
     0
102
RTVSPost2010PropOp28
 70
     1
102
RTVSPost2010Prop29
280
     1
102
RTVSPost2010PropOp29
 70
     1
102
RTVSPost2010Prop30
280
     1
102
RTVSPost2010PropOp30
 70
     1
102
RTVSPost2010Prop31
280
     0
102
RTVSPost2010PropOp31
 70
     1
102
RTVSPost2010Prop32
280
     0
102
RTVSPost2010PropOp32
 70
     1
102
RTVSPost2010Prop33
280
     0
102
RTVSPost2010PropOp33
 70
     1
102
RTVSPost2010Prop34
280
     0
102
RTVSPost2010PropOp34
 70
     1
102
RTVSPost2010Prop35
280
     0
102
RTVSPost2010PropOp35
 70
     1
102
RTVSPost2010Prop36
280
     0
102
RTVSPost2010PropOp36
 70
     1
102
RTVSPost2010Prop37
 90
       50
102
RTVSPost2010PropOp37
 70
     0
102
RTVSPost2010Prop38
140
0.0
102
RTVSPost2010PropOp38
 70
     0
102
RTVSPost2010Prop39
140
1.0
102
RTVSPost2010PropOp39
 70
     0
102
RTVSPost2010Prop40
 90
        0
102
RTVSPost2010PropOp40
 70
     0
102
RTVSPost2010Prop41ColorIndex
 90
       18
102
RTVSPost2010Prop41ColorRGB
 90
        0
102
RTVSPost2010PropOp41
 70
     0
102
RTVSPost2010Prop42
 90
       50
102
RTVSPost2010PropOp42
 70
     0
102
RTVSPost2010Prop43
 90
        3
102
RTVSPost2010PropOp43
 70
     0
102
RTVSPost2010Prop44ColorIndex
 90
        5
102
RTVSPost2010Prop44ColorRGB
 90
      255
102
RTVSPost2010PropOp44
 70
     0
102
RTVSPost2010Prop45
280
     0
102
RTVSPost2010PropOp45
 70
     1
102
RTVSPost2010Prop46
 90
       50
102
RTVSPost2010PropOp46
 70
     0
102
RTVSPost2010Prop47
 90
       50
102
RTVSPost2010PropOp47
 70
     0
102
RTVSPost2010Prop48
 90
       50
102
RTVSPost2010PropOp48
 70
     0
102
RTVSPost2010Prop49
280
     0
102
RTVSPost2010PropOp49
 70
     1
102
RTVSPost2010Prop50
 90
       50
102
RTVSPost2010PropOp50
 70
     0
102
RTVSPost2010Prop51ColorIndex
 90
      256
102
RTVSPost2010Prop51ColorRGB
 90
-16777216
102
RTVSPost2010PropOp51
 70
     0
102
RTVSPost2010Prop52
140
1.0
102
RTVSPost2010PropOp52
 70
     0
102
RTVSPost2010Prop53
 90
        2
102
RTVSPost2010PropOp53
 70
     0
102
RTVSPost2010Prop54
  1
strokes_ogs.tif
102
RTVSPost2010PropOp54
 70
     0
102
RTVSPost2010Prop55
280
     0
102
RTVSPost2010PropOp55
 70
     1
102
RTVSPost2010Prop56
140
1.0
102
RTVSPost2010PropOp56
 70
     0
102
RTVSPost2010Prop57
140
1.0
102
RTVSPost2010PropOp57
 70
     0
102
RTVSPropertyOp0
 70
     0
102
RTVSPropertyOp1
 70
     0
102
RTVSPropertyOp2
 70
     0
102
RTVSPropertyOp3
 70
     0
102
RTVSPropertyOp4
 70
     0
102
RTVSPropertyOp5
 70
     0
102
RTVSPropertyOp6
 70
     0
102
RTVSPropertyOp7
 70
     0
102
RTVSPropertyOp8
 70
     0
102
RTVSPropertyOp9
 70
     0
102
RTVSPropertyOp10
 70
     0
102
RTVSPropertyOp11
 70
     0
102
RTVSPropertyOp12
 70
     0
102
RTVSPropertyOp13
 70
     0
102
RTVSPropertyOp14
 70
     2
102
RTVSPropertyOp15
 70
     0
102
RTVSPropertyOp16
 70
     0
102
RTVSPropertyOp17
 70
     0
102
RTVSPropertyOp18
 70
     0
102
RTVSPropertyOp19
 70
     0
102
RTVSPropertyOp20
 70
     0
102
RTVSPropertyOp21
 70
     0
102
RTVSPropertyOp22
 70
     0
102
RTVSPropertyOp23
 70
     0
102
RTVSPropertyOp24
 70
     0
102
RTVSPropertyOp25
 70
     0
102
RTVSPropertyOp26
 70
     0
102
RTVSPropertyOp27
 70
     0
102
RTVSPropertyOp28
 70
     1
102
RTVSPropertyOp29
 70
     1
102
RTVSPropertyOp30
 70
     1
102
RTVSPropertyOp31
 70
     1
102
RTVSPropertyOp32
 70
     1
102
RTVSPropertyOp33
 70
     1
102
RTVSPropertyOp34
 70
     1
102
RTVSPropertyOp35
 70
     1
102
RTVSPropertyOp36
 70
     1
102
RTVSPropertyOp37
 70
     0
102
RTVSPropertyOp38
 70
     0
102
RTVSPropertyOp39
 70
     0
102
RTVSPropertyOp40
 70
     0
102
RTVSPropertyOp41
 70
     0
102
RTVSPropertyOp42
 70
     0
102
RTVSPropertyOp43
 70
     0
102
RTVSPropertyOp44
 70
     0
102
RTVSPropertyOp45
 70
     1
102
RTVSPropertyOp46
 70
     0
102
RTVSPropertyOp47
 70
     0
102
RTVSPropertyOp48
 70
     0
102
RTVSPropertyOp49
 70
     1
102
RTVSPropertyOp50
 70
     0
102
RTVSPropertyOp51
 70
     0
102
RTVSPropertyOp52
 70
     0
102
RTVSPropertyOp53
 70
     0
102
RTVSPropertyOp54
 70
     0
102
RTVSPropertyOp55
 70
     1
102
RTVSPropertyOp56
 70
     0
102
RTVSPropertyOp57
 70
     0
102
RTVSPropertyOp58
 70
     0
102
RTVSPropertyOp59
 70
     0
102
RTVSPropertyOp60
 70
     0
102
RTVSPropertyOp61
 70
     0
102
RTVSPropertyOp62
 70
     0
  0
XRECORD
  5
85B0
102
{ACAD_REACTORS
330
85AF
102
}
330
85AF
100
AcDbXrecord
280
     1
102
RTVSPost2010Prop28
280
     0
102
RTVSPost2010PropOp28
 70
     1
102
RTVSPost2010Prop29
280
     1
102
RTVSPost2010PropOp29
 70
     1
102
RTVSPost2010Prop30
280
     1
102
RTVSPost2010PropOp30
 70
     1
102
RTVSPost2010Prop31
280
     0
102
RTVSPost2010PropOp31
 70
     1
102
RTVSPost2010Prop32
280
     0
102
RTVSPost2010PropOp32
 70
     1
102
RTVSPost2010Prop33
280
     0
102
RTVSPost2010PropOp33
 70
     1
102
RTVSPost2010Prop34
280
     0
102
RTVSPost2010PropOp34
 70
     1
102
RTVSPost2010Prop35
280
     0
102
RTVSPost2010PropOp35
 70
     1
102
RTVSPost2010Prop36
280
     0
102
RTVSPost2010PropOp36
 70
     1
102
RTVSPost2010Prop37
 90
       50
102
RTVSPost2010PropOp37
 70
     1
102
RTVSPost2010Prop38
140
0.0
102
RTVSPost2010PropOp38
 70
     1
102
RTVSPost2010Prop39
140
1.0
102
RTVSPost2010PropOp39
 70
     1
102
RTVSPost2010Prop40
 90
        0
102
RTVSPost2010PropOp40
 70
     1
102
RTVSPost2010Prop41ColorIndex
 90
       18
102
RTVSPost2010Prop41ColorRGB
 90
        0
102
RTVSPost2010PropOp41
 70
     1
102
RTVSPost2010Prop42
 90
       50
102
RTVSPost2010PropOp42
 70
     1
102
RTVSPost2010Prop43
 90
        3
102
RTVSPost2010PropOp43
 70
     1
102
RTVSPost2010Prop44ColorIndex
 90
        5
102
RTVSPost2010Prop44ColorRGB
 90
      255
102
RTVSPost2010PropOp44
 70
     1
102
RTVSPost2010Prop45
280
     0
102
RTVSPost2010PropOp45
 70
     1
102
RTVSPost2010Prop46
 90
       50
102
RTVSPost2010PropOp46
 70
     1
102
RTVSPost2010Prop47
 90
       50
102
RTVSPost2010PropOp47
 70
     1
102
RTVSPost2010Prop48
 90
       50
102
RTVSPost2010PropOp48
 70
     1
102
RTVSPost2010Prop49
280
     0
102
RTVSPost2010PropOp49
 70
     1
102
RTVSPost2010Prop50
 90
       50
102
RTVSPost2010PropOp50
 70
     1
102
RTVSPost2010Prop51ColorIndex
 90
      256
102
RTVSPost2010Prop51ColorRGB
 90
-16777216
102
RTVSPost2010PropOp51
 70
     0
102
RTVSPost2010Prop52
140
1.0
102
RTVSPost2010PropOp52
 70
     0
102
RTVSPost2010Prop53
 90
        2
102
RTVSPost2010PropOp53
 70
     1
102
RTVSPost2010Prop54
  1
strokes_ogs.tif
102
RTVSPost2010PropOp54
 70
     1
102
RTVSPost2010Prop55
280
     0
102
RTVSPost2010PropOp55
 70
     1
102
RTVSPost2010Prop56
140
1.0
102
RTVSPost2010PropOp56
 70
     1
102
RTVSPost2010Prop57
140
1.0
102
RTVSPost2010PropOp57
 70
     1
102
RTVSPropertyOp0
 70
     1
102
RTVSPropertyOp1
 70
     1
102
RTVSPropertyOp2
 70
     1
102
RTVSPropertyOp3
 70
     1
102
RTVSPropertyOp4
 70
     1
102
RTVSPropertyOp5
 70
     1
102
RTVSPropertyOp6
 70
     1
102
RTVSPropertyOp7
 70
     1
102
RTVSPropertyOp8
 70
     1
102
RTVSPropertyOp9
 70
     1
102
RTVSPropertyOp10
 70
     1
102
RTVSPropertyOp11
 70
     1
102
RTVSPropertyOp12
 70
     1
102
RTVSPropertyOp13
 70
     1
102
RTVSPropertyOp14
 70
     1
102
RTVSPropertyOp15
 70
     1
102
RTVSPropertyOp16
 70
     1
102
RTVSPropertyOp17
 70
     1
102
RTVSPropertyOp18
 70
     1
102
RTVSPropertyOp19
 70
     1
102
RTVSPropertyOp20
 70
     1
102
RTVSPropertyOp21
 70
     1
102
RTVSPropertyOp22
 70
     1
102
RTVSPropertyOp23
 70
     1
102
RTVSPropertyOp24
 70
     1
102
RTVSPropertyOp25
 70
     1
102
RTVSPropertyOp26
 70
     1
102
RTVSPropertyOp27
 70
     1
102
RTVSPropertyOp28
 70
     1
102
RTVSPropertyOp29
 70
     1
102
RTVSPropertyOp30
 70
     1
102
RTVSPropertyOp31
 70
     1
102
RTVSPropertyOp32
 70
     1
102
RTVSPropertyOp33
 70
     1
102
RTVSPropertyOp34
 70
     1
102
RTVSPropertyOp35
 70
     1
102
RTVSPropertyOp36
 70
     1
102
RTVSPropertyOp37
 70
     1
102
RTVSPropertyOp38
 70
     1
102
RTVSPropertyOp39
 70
     1
102
RTVSPropertyOp40
 70
     1
102
RTVSPropertyOp41
 70
     1
102
RTVSPropertyOp42
 70
     1
102
RTVSPropertyOp43
 70
     1
102
RTVSPropertyOp44
 70
     1
102
RTVSPropertyOp45
 70
     1
102
RTVSPropertyOp46
 70
     1
102
RTVSPropertyOp47
 70
     1
102
RTVSPropertyOp48
 70
     1
102
RTVSPropertyOp49
 70
     1
102
RTVSPropertyOp50
 70
     1
102
RTVSPropertyOp51
 70
     0
102
RTVSPropertyOp52
 70
     0
102
RTVSPropertyOp53
 70
     1
102
RTVSPropertyOp54
 70
     1
102
RTVSPropertyOp55
 70
     1
102
RTVSPropertyOp56
 70
     1
102
RTVSPropertyOp57
 70
     1
102
RTVSPropertyOp58
 70
     1
102
RTVSPropertyOp59
 70
     1
102
RTVSPropertyOp60
 70
     1
102
RTVSPropertyOp61
 70
     1
102
RTVSPropertyOp62
 70
     1
  0
XRECORD
  5
85C6
102
{ACAD_REACTORS
330
85C5
102
}
330
85C5
100
AcDbXrecord
280
     1
102
RTVSPost2010Prop28
280
     0
102
RTVSPost2010PropOp28
 70
     1
102
RTVSPost2010Prop29
280
     1
102
RTVSPost2010PropOp29
 70
     1
102
RTVSPost2010Prop30
280
     1
102
RTVSPost2010PropOp30
 70
     1
102
RTVSPost2010Prop31
280
     0
102
RTVSPost2010PropOp31
 70
     1
102
RTVSPost2010Prop32
280
     0
102
RTVSPost2010PropOp32
 70
     1
102
RTVSPost2010Prop33
280
     0
102
RTVSPost2010PropOp33
 70
     1
102
RTVSPost2010Prop34
280
     0
102
RTVSPost2010PropOp34
 70
     1
102
RTVSPost2010Prop35
280
     0
102
RTVSPost2010PropOp35
 70
     1
102
RTVSPost2010Prop36
280
     0
102
RTVSPost2010PropOp36
 70
     1
102
RTVSPost2010Prop37
 90
       50
102
RTVSPost2010PropOp37
 70
     1
102
RTVSPost2010Prop38
140
0.0
102
RTVSPost2010PropOp38
 70
     1
102
RTVSPost2010Prop39
140
1.0
102
RTVSPost2010PropOp39
 70
     1
102
RTVSPost2010Prop40
 90
        0
102
RTVSPost2010PropOp40
 70
     1
102
RTVSPost2010Prop41ColorIndex
 90
       18
102
RTVSPost2010Prop41ColorRGB
 90
        0
102
RTVSPost2010PropOp41
 70
     1
102
RTVSPost2010Prop42
 90
       50
102
RTVSPost2010PropOp42
 70
     1
102
RTVSPost2010Prop43
 90
        3
102
RTVSPost2010PropOp43
 70
     1
102
RTVSPost2010Prop44ColorIndex
 90
        5
102
RTVSPost2010Prop44ColorRGB
 90
      255
102
RTVSPost2010PropOp44
 70
     1
102
RTVSPost2010Prop45
280
     0
102
RTVSPost2010PropOp45
 70
     1
102
RTVSPost2010Prop46
 90
       50
102
RTVSPost2010PropOp46
 70
     1
102
RTVSPost2010Prop47
 90
       50
102
RTVSPost2010PropOp47
 70
     1
102
RTVSPost2010Prop48
 90
       50
102
RTVSPost2010PropOp48
 70
     1
102
RTVSPost2010Prop49
280
     0
102
RTVSPost2010PropOp49
 70
     1
102
RTVSPost2010Prop50
 90
       50
102
RTVSPost2010PropOp50
 70
     1
102
RTVSPost2010Prop51ColorIndex
 90
      256
102
RTVSPost2010Prop51ColorRGB
 90
-16777216
102
RTVSPost2010PropOp51
 70
     0
102
RTVSPost2010Prop52
140
1.0
102
RTVSPost2010PropOp52
 70
     0
102
RTVSPost2010Prop53
 90
        2
102
RTVSPost2010PropOp53
 70
     1
102
RTVSPost2010Prop54
  1
strokes_ogs.tif
102
RTVSPost2010PropOp54
 70
     1
102
RTVSPost2010Prop55
280
     0
102
RTVSPost2010PropOp55
 70
     1
102
RTVSPost2010Prop56
140
1.0
102
RTVSPost2010PropOp56
 70
     1
102
RTVSPost2010Prop57
140
1.0
102
RTVSPost2010PropOp57
 70
     1
102
RTVSPropertyOp0
 70
     1
102
RTVSPropertyOp1
 70
     1
102
RTVSPropertyOp2
 70
     1
102
RTVSPropertyOp3
 70
     1
102
RTVSPropertyOp4
 70
     1
102
RTVSPropertyOp5
 70
     1
102
RTVSPropertyOp6
 70
     1
102
RTVSPropertyOp7
 70
     1
102
RTVSPropertyOp8
 70
     1
102
RTVSPropertyOp9
 70
     1
102
RTVSPropertyOp10
 70
     1
102
RTVSPropertyOp11
 70
     1
102
RTVSPropertyOp12
 70
     1
102
RTVSPropertyOp13
 70
     1
102
RTVSPropertyOp14
 70
     1
102
RTVSPropertyOp15
 70
     1
102
RTVSPropertyOp16
 70
     1
102
RTVSPropertyOp17
 70
     1
102
RTVSPropertyOp18
 70
     1
102
RTVSPropertyOp19
 70
     1
102
RTVSPropertyOp20
 70
     1
102
RTVSPropertyOp21
 70
     1
102
RTVSPropertyOp22
 70
     1
102
RTVSPropertyOp23
 70
     1
102
RTVSPropertyOp24
 70
     1
102
RTVSPropertyOp25
 70
     1
102
RTVSPropertyOp26
 70
     1
102
RTVSPropertyOp27
 70
     1
102
RTVSPropertyOp28
 70
     1
102
RTVSPropertyOp29
 70
     1
102
RTVSPropertyOp30
 70
     1
102
RTVSPropertyOp31
 70
     1
102
RTVSPropertyOp32
 70
     1
102
RTVSPropertyOp33
 70
     1
102
RTVSPropertyOp34
 70
     1
102
RTVSPropertyOp35
 70
     1
102
RTVSPropertyOp36
 70
     1
102
RTVSPropertyOp37
 70
     1
102
RTVSPropertyOp38
 70
     1
102
RTVSPropertyOp39
 70
     1
102
RTVSPropertyOp40
 70
     1
102
RTVSPropertyOp41
 70
     1
102
RTVSPropertyOp42
 70
     1
102
RTVSPropertyOp43
 70
     1
102
RTVSPropertyOp44
 70
     1
102
RTVSPropertyOp45
 70
     1
102
RTVSPropertyOp46
 70
     1
102
RTVSPropertyOp47
 70
     1
102
RTVSPropertyOp48
 70
     1
102
RTVSPropertyOp49
 70
     1
102
RTVSPropertyOp50
 70
     1
102
RTVSPropertyOp51
 70
     0
102
RTVSPropertyOp52
 70
     0
102
RTVSPropertyOp53
 70
     1
102
RTVSPropertyOp54
 70
     1
102
RTVSPropertyOp55
 70
     1
102
RTVSPropertyOp56
 70
     1
102
RTVSPropertyOp57
 70
     1
102
RTVSPropertyOp58
 70
     1
102
RTVSPropertyOp59
 70
     1
102
RTVSPropertyOp60
 70
     1
102
RTVSPropertyOp61
 70
     1
102
RTVSPropertyOp62
 70
     1
  0
XRECORD
  5
85C4
102
{ACAD_REACTORS
330
85C3
102
}
330
85C3
100
AcDbXrecord
280
     1
102
RTVSPost2010Prop28
280
     0
102
RTVSPost2010PropOp28
 70
     1
102
RTVSPost2010Prop29
280
     1
102
RTVSPost2010PropOp29
 70
     1
102
RTVSPost2010Prop30
280
     1
102
RTVSPost2010PropOp30
 70
     1
102
RTVSPost2010Prop31
280
     0
102
RTVSPost2010PropOp31
 70
     1
102
RTVSPost2010Prop32
280
     0
102
RTVSPost2010PropOp32
 70
     1
102
RTVSPost2010Prop33
280
     0
102
RTVSPost2010PropOp33
 70
     1
102
RTVSPost2010Prop34
280
     0
102
RTVSPost2010PropOp34
 70
     1
102
RTVSPost2010Prop35
280
     0
102
RTVSPost2010PropOp35
 70
     1
102
RTVSPost2010Prop36
280
     0
102
RTVSPost2010PropOp36
 70
     1
102
RTVSPost2010Prop37
 90
       50
102
RTVSPost2010PropOp37
 70
     1
102
RTVSPost2010Prop38
140
0.0
102
RTVSPost2010PropOp38
 70
     1
102
RTVSPost2010Prop39
140
1.0
102
RTVSPost2010PropOp39
 70
     1
102
RTVSPost2010Prop40
 90
        0
102
RTVSPost2010PropOp40
 70
     1
102
RTVSPost2010Prop41ColorIndex
 90
       18
102
RTVSPost2010Prop41ColorRGB
 90
        0
102
RTVSPost2010PropOp41
 70
     1
102
RTVSPost2010Prop42
 90
       50
102
RTVSPost2010PropOp42
 70
     1
102
RTVSPost2010Prop43
 90
        3
102
RTVSPost2010PropOp43
 70
     1
102
RTVSPost2010Prop44ColorIndex
 90
        5
102
RTVSPost2010Prop44ColorRGB
 90
      255
102
RTVSPost2010PropOp44
 70
     1
102
RTVSPost2010Prop45
280
     0
102
RTVSPost2010PropOp45
 70
     1
102
RTVSPost2010Prop46
 90
       50
102
RTVSPost2010PropOp46
 70
     1
102
RTVSPost2010Prop47
 90
       50
102
RTVSPost2010PropOp47
 70
     1
102
RTVSPost2010Prop48
 90
       50
102
RTVSPost2010PropOp48
 70
     1
102
RTVSPost2010Prop49
280
     0
102
RTVSPost2010PropOp49
 70
     1
102
RTVSPost2010Prop50
 90
       50
102
RTVSPost2010PropOp50
 70
     1
102
RTVSPost2010Prop51ColorIndex
 90
      256
102
RTVSPost2010Prop51ColorRGB
 90
-16777216
102
RTVSPost2010PropOp51
 70
     0
102
RTVSPost2010Prop52
140
1.0
102
RTVSPost2010PropOp52
 70
     0
102
RTVSPost2010Prop53
 90
        2
102
RTVSPost2010PropOp53
 70
     1
102
RTVSPost2010Prop54
  1
strokes_ogs.tif
102
RTVSPost2010PropOp54
 70
     1
102
RTVSPost2010Prop55
280
     0
102
RTVSPost2010PropOp55
 70
     1
102
RTVSPost2010Prop56
140
1.0
102
RTVSPost2010PropOp56
 70
     1
102
RTVSPost2010Prop57
140
1.0
102
RTVSPost2010PropOp57
 70
     1
102
RTVSPropertyOp0
 70
     1
102
RTVSPropertyOp1
 70
     1
102
RTVSPropertyOp2
 70
     1
102
RTVSPropertyOp3
 70
     1
102
RTVSPropertyOp4
 70
     1
102
RTVSPropertyOp5
 70
     1
102
RTVSPropertyOp6
 70
     1
102
RTVSPropertyOp7
 70
     1
102
RTVSPropertyOp8
 70
     1
102
RTVSPropertyOp9
 70
     1
102
RTVSPropertyOp10
 70
     1
102
RTVSPropertyOp11
 70
     1
102
RTVSPropertyOp12
 70
     1
102
RTVSPropertyOp13
 70
     1
102
RTVSPropertyOp14
 70
     1
102
RTVSPropertyOp15
 70
     1
102
RTVSPropertyOp16
 70
     1
102
RTVSPropertyOp17
 70
     1
102
RTVSPropertyOp18
 70
     1
102
RTVSPropertyOp19
 70
     1
102
RTVSPropertyOp20
 70
     1
102
RTVSPropertyOp21
 70
     1
102
RTVSPropertyOp22
 70
     1
102
RTVSPropertyOp23
 70
     1
102
RTVSPropertyOp24
 70
     1
102
RTVSPropertyOp25
 70
     1
102
RTVSPropertyOp26
 70
     1
102
RTVSPropertyOp27
 70
     1
102
RTVSPropertyOp28
 70
     1
102
RTVSPropertyOp29
 70
     1
102
RTVSPropertyOp30
 70
     1
102
RTVSPropertyOp31
 70
     1
102
RTVSPropertyOp32
 70
     1
102
RTVSPropertyOp33
 70
     1
102
RTVSPropertyOp34
 70
     1
102
RTVSPropertyOp35
 70
     1
102
RTVSPropertyOp36
 70
     1
102
RTVSPropertyOp37
 70
     1
102
RTVSPropertyOp38
 70
     1
102
RTVSPropertyOp39
 70
     1
102
RTVSPropertyOp40
 70
     1
102
RTVSPropertyOp41
 70
     1
102
RTVSPropertyOp42
 70
     1
102
RTVSPropertyOp43
 70
     1
102
RTVSPropertyOp44
 70
     1
102
RTVSPropertyOp45
 70
     1
102
RTVSPropertyOp46
 70
     1
102
RTVSPropertyOp47
 70
     1
102
RTVSPropertyOp48
 70
     1
102
RTVSPropertyOp49
 70
     1
102
RTVSPropertyOp50
 70
     1
102
RTVSPropertyOp51
 70
     0
102
RTVSPropertyOp52
 70
     0
102
RTVSPropertyOp53
 70
     1
102
RTVSPropertyOp54
 70
     1
102
RTVSPropertyOp55
 70
     1
102
RTVSPropertyOp56
 70
     1
102
RTVSPropertyOp57
 70
     1
102
RTVSPropertyOp58
 70
     1
102
RTVSPropertyOp59
 70
     1
102
RTVSPropertyOp60
 70
     1
102
RTVSPropertyOp61
 70
     1
102
RTVSPropertyOp62
 70
     1
  0
XRECORD
  5
85BE
102
{ACAD_REACTORS
330
85BD
102
}
330
85BD
100
AcDbXrecord
280
     1
102
RTVSPost2010Prop28
280
     0
102
RTVSPost2010PropOp28
 70
     1
102
RTVSPost2010Prop29
280
     1
102
RTVSPost2010PropOp29
 70
     1
102
RTVSPost2010Prop30
280
     1
102
RTVSPost2010PropOp30
 70
     1
102
RTVSPost2010Prop31
280
     0
102
RTVSPost2010PropOp31
 70
     1
102
RTVSPost2010Prop32
280
     0
102
RTVSPost2010PropOp32
 70
     1
102
RTVSPost2010Prop33
280
     0
102
RTVSPost2010PropOp33
 70
     1
102
RTVSPost2010Prop34
280
     0
102
RTVSPost2010PropOp34
 70
     1
102
RTVSPost2010Prop35
280
     0
102
RTVSPost2010PropOp35
 70
     1
102
RTVSPost2010Prop36
280
     0
102
RTVSPost2010PropOp36
 70
     1
102
RTVSPost2010Prop37
 90
       50
102
RTVSPost2010PropOp37
 70
     1
102
RTVSPost2010Prop38
140
0.0
102
RTVSPost2010PropOp38
 70
     1
102
RTVSPost2010Prop39
140
1.0
102
RTVSPost2010PropOp39
 70
     1
102
RTVSPost2010Prop40
 90
        0
102
RTVSPost2010PropOp40
 70
     1
102
RTVSPost2010Prop41ColorIndex
 90
       18
102
RTVSPost2010Prop41ColorRGB
 90
        0
102
RTVSPost2010PropOp41
 70
     1
102
RTVSPost2010Prop42
 90
       50
102
RTVSPost2010PropOp42
 70
     1
102
RTVSPost2010Prop43
 90
        3
102
RTVSPost2010PropOp43
 70
     1
102
RTVSPost2010Prop44ColorIndex
 90
        5
102
RTVSPost2010Prop44ColorRGB
 90
      255
102
RTVSPost2010PropOp44
 70
     1
102
RTVSPost2010Prop45
280
     0
102
RTVSPost2010PropOp45
 70
     1
102
RTVSPost2010Prop46
 90
       50
102
RTVSPost2010PropOp46
 70
     1
102
RTVSPost2010Prop47
 90
       50
102
RTVSPost2010PropOp47
 70
     1
102
RTVSPost2010Prop48
 90
       50
102
RTVSPost2010PropOp48
 70
     1
102
RTVSPost2010Prop49
280
     0
102
RTVSPost2010PropOp49
 70
     1
102
RTVSPost2010Prop50
 90
       50
102
RTVSPost2010PropOp50
 70
     1
102
RTVSPost2010Prop51ColorIndex
 90
      256
102
RTVSPost2010Prop51ColorRGB
 90
-16777216
102
RTVSPost2010PropOp51
 70
     0
102
RTVSPost2010Prop52
140
1.0
102
RTVSPost2010PropOp52
 70
     0
102
RTVSPost2010Prop53
 90
        2
102
RTVSPost2010PropOp53
 70
     1
102
RTVSPost2010Prop54
  1
strokes_ogs.tif
102
RTVSPost2010PropOp54
 70
     1
102
RTVSPost2010Prop55
280
     0
102
RTVSPost2010PropOp55
 70
     1
102
RTVSPost2010Prop56
140
1.0
102
RTVSPost2010PropOp56
 70
     1
102
RTVSPost2010Prop57
140
1.0
102
RTVSPost2010PropOp57
 70
     1
102
RTVSPropertyOp0
 70
     1
102
RTVSPropertyOp1
 70
     1
102
RTVSPropertyOp2
 70
     1
102
RTVSPropertyOp3
 70
     1
102
RTVSPropertyOp4
 70
     1
102
RTVSPropertyOp5
 70
     1
102
RTVSPropertyOp6
 70
     1
102
RTVSPropertyOp7
 70
     1
102
RTVSPropertyOp8
 70
     1
102
RTVSPropertyOp9
 70
     1
102
RTVSPropertyOp10
 70
     1
102
RTVSPropertyOp11
 70
     1
102
RTVSPropertyOp12
 70
     1
102
RTVSPropertyOp13
 70
     1
102
RTVSPropertyOp14
 70
     1
102
RTVSPropertyOp15
 70
     1
102
RTVSPropertyOp16
 70
     1
102
RTVSPropertyOp17
 70
     1
102
RTVSPropertyOp18
 70
     1
102
RTVSPropertyOp19
 70
     1
102
RTVSPropertyOp20
 70
     1
102
RTVSPropertyOp21
 70
     1
102
RTVSPropertyOp22
 70
     1
102
RTVSPropertyOp23
 70
     1
102
RTVSPropertyOp24
 70
     1
102
RTVSPropertyOp25
 70
     1
102
RTVSPropertyOp26
 70
     1
102
RTVSPropertyOp27
 70
     1
102
RTVSPropertyOp28
 70
     1
102
RTVSPropertyOp29
 70
     1
102
RTVSPropertyOp30
 70
     1
102
RTVSPropertyOp31
 70
     1
102
RTVSPropertyOp32
 70
     1
102
RTVSPropertyOp33
 70
     1
102
RTVSPropertyOp34
 70
     1
102
RTVSPropertyOp35
 70
     1
102
RTVSPropertyOp36
 70
     1
102
RTVSPropertyOp37
 70
     1
102
RTVSPropertyOp38
 70
     1
102
RTVSPropertyOp39
 70
     1
102
RTVSPropertyOp40
 70
     1
102
RTVSPropertyOp41
 70
     1
102
RTVSPropertyOp42
 70
     1
102
RTVSPropertyOp43
 70
     1
102
RTVSPropertyOp44
 70
     1
102
RTVSPropertyOp45
 70
     1
102
RTVSPropertyOp46
 70
     1
102
RTVSPropertyOp47
 70
     1
102
RTVSPropertyOp48
 70
     1
102
RTVSPropertyOp49
 70
     1
102
RTVSPropertyOp50
 70
     1
102
RTVSPropertyOp51
 70
     0
102
RTVSPropertyOp52
 70
     0
102
RTVSPropertyOp53
 70
     1
102
RTVSPropertyOp54
 70
     1
102
RTVSPropertyOp55
 70
     1
102
RTVSPropertyOp56
 70
     1
102
RTVSPropertyOp57
 70
     1
102
RTVSPropertyOp58
 70
     1
102
RTVSPropertyOp59
 70
     1
102
RTVSPropertyOp60
 70
     1
102
RTVSPropertyOp61
 70
     1
102
RTVSPropertyOp62
 70
     1
  0
XRECORD
  5
85C0
102
{ACAD_REACTORS
330
85BF
102
}
330
85BF
100
AcDbXrecord
280
     1
102
RTVSPost2010Prop28
280
     0
102
RTVSPost2010PropOp28
 70
     1
102
RTVSPost2010Prop29
280
     1
102
RTVSPost2010PropOp29
 70
     1
102
RTVSPost2010Prop30
280
     1
102
RTVSPost2010PropOp30
 70
     1
102
RTVSPost2010Prop31
280
     0
102
RTVSPost2010PropOp31
 70
     1
102
RTVSPost2010Prop32
280
     0
102
RTVSPost2010PropOp32
 70
     1
102
RTVSPost2010Prop33
280
     0
102
RTVSPost2010PropOp33
 70
     1
102
RTVSPost2010Prop34
280
     0
102
RTVSPost2010PropOp34
 70
     1
102
RTVSPost2010Prop35
280
     0
102
RTVSPost2010PropOp35
 70
     1
102
RTVSPost2010Prop36
280
     0
102
RTVSPost2010PropOp36
 70
     1
102
RTVSPost2010Prop37
 90
       50
102
RTVSPost2010PropOp37
 70
     1
102
RTVSPost2010Prop38
140
0.0
102
RTVSPost2010PropOp38
 70
     1
102
RTVSPost2010Prop39
140
1.0
102
RTVSPost2010PropOp39
 70
     1
102
RTVSPost2010Prop40
 90
        0
102
RTVSPost2010PropOp40
 70
     1
102
RTVSPost2010Prop41ColorIndex
 90
       18
102
RTVSPost2010Prop41ColorRGB
 90
        0
102
RTVSPost2010PropOp41
 70
     1
102
RTVSPost2010Prop42
 90
       50
102
RTVSPost2010PropOp42
 70
     1
102
RTVSPost2010Prop43
 90
        3
102
RTVSPost2010PropOp43
 70
     1
102
RTVSPost2010Prop44ColorIndex
 90
        5
102
RTVSPost2010Prop44ColorRGB
 90
      255
102
RTVSPost2010PropOp44
 70
     1
102
RTVSPost2010Prop45
280
     0
102
RTVSPost2010PropOp45
 70
     1
102
RTVSPost2010Prop46
 90
       50
102
RTVSPost2010PropOp46
 70
     1
102
RTVSPost2010Prop47
 90
       50
102
RTVSPost2010PropOp47
 70
     1
102
RTVSPost2010Prop48
 90
       50
102
RTVSPost2010PropOp48
 70
     1
102
RTVSPost2010Prop49
280
     0
102
RTVSPost2010PropOp49
 70
     1
102
RTVSPost2010Prop50
 90
       50
102
RTVSPost2010PropOp50
 70
     1
102
RTVSPost2010Prop51ColorIndex
 90
      256
102
RTVSPost2010Prop51ColorRGB
 90
-16777216
102
RTVSPost2010PropOp51
 70
     0
102
RTVSPost2010Prop52
140
1.0
102
RTVSPost2010PropOp52
 70
     0
102
RTVSPost2010Prop53
 90
        2
102
RTVSPost2010PropOp53
 70
     1
102
RTVSPost2010Prop54
  1
strokes_ogs.tif
102
RTVSPost2010PropOp54
 70
     1
102
RTVSPost2010Prop55
280
     0
102
RTVSPost2010PropOp55
 70
     1
102
RTVSPost2010Prop56
140
1.0
102
RTVSPost2010PropOp56
 70
     1
102
RTVSPost2010Prop57
140
1.0
102
RTVSPost2010PropOp57
 70
     1
102
RTVSPropertyOp0
 70
     1
102
RTVSPropertyOp1
 70
     1
102
RTVSPropertyOp2
 70
     1
102
RTVSPropertyOp3
 70
     1
102
RTVSPropertyOp4
 70
     1
102
RTVSPropertyOp5
 70
     1
102
RTVSPropertyOp6
 70
     1
102
RTVSPropertyOp7
 70
     1
102
RTVSPropertyOp8
 70
     1
102
RTVSPropertyOp9
 70
     1
102
RTVSPropertyOp10
 70
     1
102
RTVSPropertyOp11
 70
     1
102
RTVSPropertyOp12
 70
     1
102
RTVSPropertyOp13
 70
     1
102
RTVSPropertyOp14
 70
     1
102
RTVSPropertyOp15
 70
     1
102
RTVSPropertyOp16
 70
     1
102
RTVSPropertyOp17
 70
     1
102
RTVSPropertyOp18
 70
     1
102
RTVSPropertyOp19
 70
     1
102
RTVSPropertyOp20
 70
     1
102
RTVSPropertyOp21
 70
     1
102
RTVSPropertyOp22
 70
     1
102
RTVSPropertyOp23
 70
     1
102
RTVSPropertyOp24
 70
     1
102
RTVSPropertyOp25
 70
     1
102
RTVSPropertyOp26
 70
     1
102
RTVSPropertyOp27
 70
     1
102
RTVSPropertyOp28
 70
     1
102
RTVSPropertyOp29
 70
     1
102
RTVSPropertyOp30
 70
     1
102
RTVSPropertyOp31
 70
     1
102
RTVSPropertyOp32
 70
     1
102
RTVSPropertyOp33
 70
     1
102
RTVSPropertyOp34
 70
     1
102
RTVSPropertyOp35
 70
     1
102
RTVSPropertyOp36
 70
     1
102
RTVSPropertyOp37
 70
     1
102
RTVSPropertyOp38
 70
     1
102
RTVSPropertyOp39
 70
     1
102
RTVSPropertyOp40
 70
     1
102
RTVSPropertyOp41
 70
     1
102
RTVSPropertyOp42
 70
     1
102
RTVSPropertyOp43
 70
     1
102
RTVSPropertyOp44
 70
     1
102
RTVSPropertyOp45
 70
     1
102
RTVSPropertyOp46
 70
     1
102
RTVSPropertyOp47
 70
     1
102
RTVSPropertyOp48
 70
     1
102
RTVSPropertyOp49
 70
     1
102
RTVSPropertyOp50
 70
     1
102
RTVSPropertyOp51
 70
     0
102
RTVSPropertyOp52
 70
     0
102
RTVSPropertyOp53
 70
     1
102
RTVSPropertyOp54
 70
     1
102
RTVSPropertyOp55
 70
     1
102
RTVSPropertyOp56
 70
     1
102
RTVSPropertyOp57
 70
     1
102
RTVSPropertyOp58
 70
     1
102
RTVSPropertyOp59
 70
     1
102
RTVSPropertyOp60
 70
     1
102
RTVSPropertyOp61
 70
     1
102
RTVSPropertyOp62
 70
     1
  0
XRECORD
  5
85B6
102
{ACAD_REACTORS
330
85B5
102
}
330
85B5
100
AcDbXrecord
280
     1
102
RTVSPost2010Prop28
280
     0
102
RTVSPost2010PropOp28
 70
     1
102
RTVSPost2010Prop29
280
     1
102
RTVSPost2010PropOp29
 70
     1
102
RTVSPost2010Prop30
280
     1
102
RTVSPost2010PropOp30
 70
     1
102
RTVSPost2010Prop31
280
     0
102
RTVSPost2010PropOp31
 70
     1
102
RTVSPost2010Prop32
280
     0
102
RTVSPost2010PropOp32
 70
     1
102
RTVSPost2010Prop33
280
     0
102
RTVSPost2010PropOp33
 70
     1
102
RTVSPost2010Prop34
280
     0
102
RTVSPost2010PropOp34
 70
     1
102
RTVSPost2010Prop35
280
     0
102
RTVSPost2010PropOp35
 70
     1
102
RTVSPost2010Prop36
280
     0
102
RTVSPost2010PropOp36
 70
     1
102
RTVSPost2010Prop37
 90
       50
102
RTVSPost2010PropOp37
 70
     1
102
RTVSPost2010Prop38
140
0.0
102
RTVSPost2010PropOp38
 70
     1
102
RTVSPost2010Prop39
140
1.0
102
RTVSPost2010PropOp39
 70
     1
102
RTVSPost2010Prop40
 90
        0
102
RTVSPost2010PropOp40
 70
     1
102
RTVSPost2010Prop41ColorIndex
 90
       18
102
RTVSPost2010Prop41ColorRGB
 90
        0
102
RTVSPost2010PropOp41
 70
     1
102
RTVSPost2010Prop42
 90
       50
102
RTVSPost2010PropOp42
 70
     1
102
RTVSPost2010Prop43
 90
        3
102
RTVSPost2010PropOp43
 70
     1
102
RTVSPost2010Prop44ColorIndex
 90
        5
102
RTVSPost2010Prop44ColorRGB
 90
      255
102
RTVSPost2010PropOp44
 70
     1
102
RTVSPost2010Prop45
280
     0
102
RTVSPost2010PropOp45
 70
     1
102
RTVSPost2010Prop46
 90
       50
102
RTVSPost2010PropOp46
 70
     1
102
RTVSPost2010Prop47
 90
       50
102
RTVSPost2010PropOp47
 70
     1
102
RTVSPost2010Prop48
 90
       50
102
RTVSPost2010PropOp48
 70
     1
102
RTVSPost2010Prop49
280
     0
102
RTVSPost2010PropOp49
 70
     1
102
RTVSPost2010Prop50
 90
       50
102
RTVSPost2010PropOp50
 70
     1
102
RTVSPost2010Prop51ColorIndex
 90
      256
102
RTVSPost2010Prop51ColorRGB
 90
-16777216
102
RTVSPost2010PropOp51
 70
     0
102
RTVSPost2010Prop52
140
1.0
102
RTVSPost2010PropOp52
 70
     0
102
RTVSPost2010Prop53
 90
        2
102
RTVSPost2010PropOp53
 70
     1
102
RTVSPost2010Prop54
  1
strokes_ogs.tif
102
RTVSPost2010PropOp54
 70
     1
102
RTVSPost2010Prop55
280
     0
102
RTVSPost2010PropOp55
 70
     1
102
RTVSPost2010Prop56
140
1.0
102
RTVSPost2010PropOp56
 70
     1
102
RTVSPost2010Prop57
140
1.0
102
RTVSPost2010PropOp57
 70
     1
102
RTVSPropertyOp0
 70
     1
102
RTVSPropertyOp1
 70
     1
102
RTVSPropertyOp2
 70
     1
102
RTVSPropertyOp3
 70
     1
102
RTVSPropertyOp4
 70
     1
102
RTVSPropertyOp5
 70
     1
102
RTVSPropertyOp6
 70
     1
102
RTVSPropertyOp7
 70
     1
102
RTVSPropertyOp8
 70
     1
102
RTVSPropertyOp9
 70
     1
102
RTVSPropertyOp10
 70
     1
102
RTVSPropertyOp11
 70
     1
102
RTVSPropertyOp12
 70
     1
102
RTVSPropertyOp13
 70
     1
102
RTVSPropertyOp14
 70
     1
102
RTVSPropertyOp15
 70
     1
102
RTVSPropertyOp16
 70
     1
102
RTVSPropertyOp17
 70
     1
102
RTVSPropertyOp18
 70
     1
102
RTVSPropertyOp19
 70
     1
102
RTVSPropertyOp20
 70
     1
102
RTVSPropertyOp21
 70
     1
102
RTVSPropertyOp22
 70
     1
102
RTVSPropertyOp23
 70
     1
102
RTVSPropertyOp24
 70
     1
102
RTVSPropertyOp25
 70
     1
102
RTVSPropertyOp26
 70
     1
102
RTVSPropertyOp27
 70
     1
102
RTVSPropertyOp28
 70
     1
102
RTVSPropertyOp29
 70
     1
102
RTVSPropertyOp30
 70
     1
102
RTVSPropertyOp31
 70
     1
102
RTVSPropertyOp32
 70
     1
102
RTVSPropertyOp33
 70
     1
102
RTVSPropertyOp34
 70
     1
102
RTVSPropertyOp35
 70
     1
102
RTVSPropertyOp36
 70
     1
102
RTVSPropertyOp37
 70
     1
102
RTVSPropertyOp38
 70
     1
102
RTVSPropertyOp39
 70
     1
102
RTVSPropertyOp40
 70
     1
102
RTVSPropertyOp41
 70
     1
102
RTVSPropertyOp42
 70
     1
102
RTVSPropertyOp43
 70
     1
102
RTVSPropertyOp44
 70
     1
102
RTVSPropertyOp45
 70
     1
102
RTVSPropertyOp46
 70
     1
102
RTVSPropertyOp47
 70
     1
102
RTVSPropertyOp48
 70
     1
102
RTVSPropertyOp49
 70
     1
102
RTVSPropertyOp50
 70
     1
102
RTVSPropertyOp51
 70
     0
102
RTVSPropertyOp52
 70
     0
102
RTVSPropertyOp53
 70
     1
102
RTVSPropertyOp54
 70
     1
102
RTVSPropertyOp55
 70
     1
102
RTVSPropertyOp56
 70
     1
102
RTVSPropertyOp57
 70
     1
102
RTVSPropertyOp58
 70
     1
102
RTVSPropertyOp59
 70
     1
102
RTVSPropertyOp60
 70
     1
102
RTVSPropertyOp61
 70
     1
102
RTVSPropertyOp62
 70
     1
  0
XRECORD
  5
85AA
102
{ACAD_REACTORS
330
85A9
102
}
330
85A9
100
AcDbXrecord
280
     1
102
RTVSPost2010Prop28
280
     0
102
RTVSPost2010PropOp28
 70
     1
102
RTVSPost2010Prop29
280
     1
102
RTVSPost2010PropOp29
 70
     1
102
RTVSPost2010Prop30
280
     1
102
RTVSPost2010PropOp30
 70
     1
102
RTVSPost2010Prop31
280
     0
102
RTVSPost2010PropOp31
 70
     1
102
RTVSPost2010Prop32
280
     0
102
RTVSPost2010PropOp32
 70
     1
102
RTVSPost2010Prop33
280
     0
102
RTVSPost2010PropOp33
 70
     1
102
RTVSPost2010Prop34
280
     0
102
RTVSPost2010PropOp34
 70
     1
102
RTVSPost2010Prop35
280
     0
102
RTVSPost2010PropOp35
 70
     1
102
RTVSPost2010Prop36
280
     0
102
RTVSPost2010PropOp36
 70
     1
102
RTVSPost2010Prop37
 90
       50
102
RTVSPost2010PropOp37
 70
     1
102
RTVSPost2010Prop38
140
0.0
102
RTVSPost2010PropOp38
 70
     1
102
RTVSPost2010Prop39
140
1.0
102
RTVSPost2010PropOp39
 70
     1
102
RTVSPost2010Prop40
 90
        0
102
RTVSPost2010PropOp40
 70
     1
102
RTVSPost2010Prop41ColorIndex
 90
       18
102
RTVSPost2010Prop41ColorRGB
 90
        0
102
RTVSPost2010PropOp41
 70
     1
102
RTVSPost2010Prop42
 90
       50
102
RTVSPost2010PropOp42
 70
     1
102
RTVSPost2010Prop43
 90
        3
102
RTVSPost2010PropOp43
 70
     1
102
RTVSPost2010Prop44ColorIndex
 90
        5
102
RTVSPost2010Prop44ColorRGB
 90
      255
102
RTVSPost2010PropOp44
 70
     1
102
RTVSPost2010Prop45
280
     0
102
RTVSPost2010PropOp45
 70
     1
102
RTVSPost2010Prop46
 90
       50
102
RTVSPost2010PropOp46
 70
     1
102
RTVSPost2010Prop47
 90
       50
102
RTVSPost2010PropOp47
 70
     1
102
RTVSPost2010Prop48
 90
       50
102
RTVSPost2010PropOp48
 70
     1
102
RTVSPost2010Prop49
280
     0
102
RTVSPost2010PropOp49
 70
     1
102
RTVSPost2010Prop50
 90
       50
102
RTVSPost2010PropOp50
 70
     1
102
RTVSPost2010Prop51ColorIndex
 90
      256
102
RTVSPost2010Prop51ColorRGB
 90
-16777216
102
RTVSPost2010PropOp51
 70
     0
102
RTVSPost2010Prop52
140
1.0
102
RTVSPost2010PropOp52
 70
     0
102
RTVSPost2010Prop53
 90
        2
102
RTVSPost2010PropOp53
 70
     1
102
RTVSPost2010Prop54
  1
strokes_ogs.tif
102
RTVSPost2010PropOp54
 70
     1
102
RTVSPost2010Prop55
280
     0
102
RTVSPost2010PropOp55
 70
     1
102
RTVSPost2010Prop56
140
1.0
102
RTVSPost2010PropOp56
 70
     1
102
RTVSPost2010Prop57
140
1.0
102
RTVSPost2010PropOp57
 70
     1
102
RTVSPropertyOp0
 70
     1
102
RTVSPropertyOp1
 70
     1
102
RTVSPropertyOp2
 70
     1
102
RTVSPropertyOp3
 70
     1
102
RTVSPropertyOp4
 70
     1
102
RTVSPropertyOp5
 70
     1
102
RTVSPropertyOp6
 70
     1
102
RTVSPropertyOp7
 70
     1
102
RTVSPropertyOp8
 70
     1
102
RTVSPropertyOp9
 70
     1
102
RTVSPropertyOp10
 70
     1
102
RTVSPropertyOp11
 70
     1
102
RTVSPropertyOp12
 70
     1
102
RTVSPropertyOp13
 70
     1
102
RTVSPropertyOp14
 70
     1
102
RTVSPropertyOp15
 70
     1
102
RTVSPropertyOp16
 70
     1
102
RTVSPropertyOp17
 70
     1
102
RTVSPropertyOp18
 70
     1
102
RTVSPropertyOp19
 70
     1
102
RTVSPropertyOp20
 70
     1
102
RTVSPropertyOp21
 70
     1
102
RTVSPropertyOp22
 70
     1
102
RTVSPropertyOp23
 70
     1
102
RTVSPropertyOp24
 70
     1
102
RTVSPropertyOp25
 70
     1
102
RTVSPropertyOp26
 70
     1
102
RTVSPropertyOp27
 70
     1
102
RTVSPropertyOp28
 70
     1
102
RTVSPropertyOp29
 70
     1
102
RTVSPropertyOp30
 70
     1
102
RTVSPropertyOp31
 70
     1
102
RTVSPropertyOp32
 70
     1
102
RTVSPropertyOp33
 70
     1
102
RTVSPropertyOp34
 70
     1
102
RTVSPropertyOp35
 70
     1
102
RTVSPropertyOp36
 70
     1
102
RTVSPropertyOp37
 70
     1
102
RTVSPropertyOp38
 70
     1
102
RTVSPropertyOp39
 70
     1
102
RTVSPropertyOp40
 70
     1
102
RTVSPropertyOp41
 70
     1
102
RTVSPropertyOp42
 70
     1
102
RTVSPropertyOp43
 70
     1
102
RTVSPropertyOp44
 70
     1
102
RTVSPropertyOp45
 70
     1
102
RTVSPropertyOp46
 70
     1
102
RTVSPropertyOp47
 70
     1
102
RTVSPropertyOp48
 70
     1
102
RTVSPropertyOp49
 70
     1
102
RTVSPropertyOp50
 70
     1
102
RTVSPropertyOp51
 70
     0
102
RTVSPropertyOp52
 70
     0
102
RTVSPropertyOp53
 70
     1
102
RTVSPropertyOp54
 70
     1
102
RTVSPropertyOp55
 70
     1
102
RTVSPropertyOp56
 70
     1
102
RTVSPropertyOp57
 70
     1
102
RTVSPropertyOp58
 70
     1
102
RTVSPropertyOp59
 70
     1
102
RTVSPropertyOp60
 70
     1
102
RTVSPropertyOp61
 70
     1
102
RTVSPropertyOp62
 70
     1
  0
XRECORD
  5
85C2
102
{ACAD_REACTORS
330
85C1
102
}
330
85C1
100
AcDbXrecord
280
     1
102
RTVSPost2010Prop28
280
     0
102
RTVSPost2010PropOp28
 70
     1
102
RTVSPost2010Prop29
280
     1
102
RTVSPost2010PropOp29
 70
     1
102
RTVSPost2010Prop30
280
     1
102
RTVSPost2010PropOp30
 70
     1
102
RTVSPost2010Prop31
280
     0
102
RTVSPost2010PropOp31
 70
     1
102
RTVSPost2010Prop32
280
     0
102
RTVSPost2010PropOp32
 70
     1
102
RTVSPost2010Prop33
280
     0
102
RTVSPost2010PropOp33
 70
     1
102
RTVSPost2010Prop34
280
     0
102
RTVSPost2010PropOp34
 70
     1
102
RTVSPost2010Prop35
280
     0
102
RTVSPost2010PropOp35
 70
     1
102
RTVSPost2010Prop36
280
     0
102
RTVSPost2010PropOp36
 70
     1
102
RTVSPost2010Prop37
 90
       50
102
RTVSPost2010PropOp37
 70
     1
102
RTVSPost2010Prop38
140
0.0
102
RTVSPost2010PropOp38
 70
     1
102
RTVSPost2010Prop39
140
1.0
102
RTVSPost2010PropOp39
 70
     1
102
RTVSPost2010Prop40
 90
        0
102
RTVSPost2010PropOp40
 70
     1
102
RTVSPost2010Prop41ColorIndex
 90
       18
102
RTVSPost2010Prop41ColorRGB
 90
        0
102
RTVSPost2010PropOp41
 70
     1
102
RTVSPost2010Prop42
 90
       50
102
RTVSPost2010PropOp42
 70
     1
102
RTVSPost2010Prop43
 90
        3
102
RTVSPost2010PropOp43
 70
     1
102
RTVSPost2010Prop44ColorIndex
 90
        5
102
RTVSPost2010Prop44ColorRGB
 90
      255
102
RTVSPost2010PropOp44
 70
     1
102
RTVSPost2010Prop45
280
     0
102
RTVSPost2010PropOp45
 70
     1
102
RTVSPost2010Prop46
 90
       50
102
RTVSPost2010PropOp46
 70
     1
102
RTVSPost2010Prop47
 90
       50
102
RTVSPost2010PropOp47
 70
     1
102
RTVSPost2010Prop48
 90
       50
102
RTVSPost2010PropOp48
 70
     1
102
RTVSPost2010Prop49
280
     0
102
RTVSPost2010PropOp49
 70
     1
102
RTVSPost2010Prop50
 90
       50
102
RTVSPost2010PropOp50
 70
     1
102
RTVSPost2010Prop51ColorIndex
 90
      256
102
RTVSPost2010Prop51ColorRGB
 90
-16777216
102
RTVSPost2010PropOp51
 70
     0
102
RTVSPost2010Prop52
140
1.0
102
RTVSPost2010PropOp52
 70
     0
102
RTVSPost2010Prop53
 90
        2
102
RTVSPost2010PropOp53
 70
     1
102
RTVSPost2010Prop54
  1
strokes_ogs.tif
102
RTVSPost2010PropOp54
 70
     1
102
RTVSPost2010Prop55
280
     0
102
RTVSPost2010PropOp55
 70
     1
102
RTVSPost2010Prop56
140
1.0
102
RTVSPost2010PropOp56
 70
     1
102
RTVSPost2010Prop57
140
1.0
102
RTVSPost2010PropOp57
 70
     1
102
RTVSPropertyOp0
 70
     1
102
RTVSPropertyOp1
 70
     1
102
RTVSPropertyOp2
 70
     1
102
RTVSPropertyOp3
 70
     1
102
RTVSPropertyOp4
 70
     1
102
RTVSPropertyOp5
 70
     1
102
RTVSPropertyOp6
 70
     1
102
RTVSPropertyOp7
 70
     1
102
RTVSPropertyOp8
 70
     1
102
RTVSPropertyOp9
 70
     1
102
RTVSPropertyOp10
 70
     1
102
RTVSPropertyOp11
 70
     1
102
RTVSPropertyOp12
 70
     1
102
RTVSPropertyOp13
 70
     1
102
RTVSPropertyOp14
 70
     1
102
RTVSPropertyOp15
 70
     1
102
RTVSPropertyOp16
 70
     1
102
RTVSPropertyOp17
 70
     1
102
RTVSPropertyOp18
 70
     1
102
RTVSPropertyOp19
 70
     1
102
RTVSPropertyOp20
 70
     1
102
RTVSPropertyOp21
 70
     1
102
RTVSPropertyOp22
 70
     1
102
RTVSPropertyOp23
 70
     1
102
RTVSPropertyOp24
 70
     1
102
RTVSPropertyOp25
 70
     1
102
RTVSPropertyOp26
 70
     1
102
RTVSPropertyOp27
 70
     1
102
RTVSPropertyOp28
 70
     1
102
RTVSPropertyOp29
 70
     1
102
RTVSPropertyOp30
 70
     1
102
RTVSPropertyOp31
 70
     1
102
RTVSPropertyOp32
 70
     1
102
RTVSPropertyOp33
 70
     1
102
RTVSPropertyOp34
 70
     1
102
RTVSPropertyOp35
 70
     1
102
RTVSPropertyOp36
 70
     1
102
RTVSPropertyOp37
 70
     1
102
RTVSPropertyOp38
 70
     1
102
RTVSPropertyOp39
 70
     1
102
RTVSPropertyOp40
 70
     1
102
RTVSPropertyOp41
 70
     1
102
RTVSPropertyOp42
 70
     1
102
RTVSPropertyOp43
 70
     1
102
RTVSPropertyOp44
 70
     1
102
RTVSPropertyOp45
 70
     1
102
RTVSPropertyOp46
 70
     1
102
RTVSPropertyOp47
 70
     1
102
RTVSPropertyOp48
 70
     1
102
RTVSPropertyOp49
 70
     1
102
RTVSPropertyOp50
 70
     1
102
RTVSPropertyOp51
 70
     0
102
RTVSPropertyOp52
 70
     0
102
RTVSPropertyOp53
 70
     1
102
RTVSPropertyOp54
 70
     1
102
RTVSPropertyOp55
 70
     1
102
RTVSPropertyOp56
 70
     1
102
RTVSPropertyOp57
 70
     1
102
RTVSPropertyOp58
 70
     1
102
RTVSPropertyOp59
 70
     1
102
RTVSPropertyOp60
 70
     1
102
RTVSPropertyOp61
 70
     1
102
RTVSPropertyOp62
 70
     1
  0
ENDSEC
  0
EOF
