  0
SECTION
  2
HEADER
  9
$ACADVER
  1
AC1015
  9
$ACADMAINTVER
 70
    20
  9
$DWGCODEPAGE
  3
ANSI_932
  9
$INSBASE
 10
0.0
 20
0.0
 30
0.0
  9
$EXTMIN
 10
-0.1922460740788665
 20
-0.2700599612071528
 30
-0.0015258207003583
  9
$EXTMAX
 10
6300.192275410744
 20
8850.270101172235
 30
0.0000000349246037
  9
$LIMMIN
 10
0.0
 20
0.0
  9
$LIMMAX
 10
297.0
 20
210.0
  9
$ORTHOMODE
 70
     1
  9
$REGENMODE
 70
     1
  9
$FILLMODE
 70
     0
  9
$QTEXTMODE
 70
     0
  9
$MIRRTEXT
 70
     1
  9
$LTSCALE
 40
100.0
  9
$ATTMODE
 70
     1
  9
$TEXTSIZE
 40
180.0
  9
$TRACEWID
 40
0.05
  9
$TEXTSTYLE
  7
STANDARD
  9
$CLAYER
  8
3
  9
$CELTYPE
  6
ByLayer
  9
$CECOLOR
 62
   256
  9
$CELTSCALE
 40
1.0
  9
$DISPSILH
 70
     0
  9
$DIMSCALE
 40
30.0
  9
$DIMASZ
 40
2.0
  9
$DIMEXO
 40
1.0
  9
$DIMDLI
 40
10.0
  9
$DIMRND
 40
0.0
  9
$DIMDLE
 40
0.0
  9
$DIMEXE
 40
1.0
  9
$DIMTP
 40
1.0
  9
$DIMTM
 40
1.0
  9
$DIMTXT
 40
3.0
  9
$DIMCEN
 40
0.0
  9
$DIMTSZ
 40
0.0
  9
$DIMTOL
 70
     0
  9
$DIMLIM
 70
     0
  9
$DIMTIH
 70
     0
  9
$DIMTOH
 70
     0
  9
$DIMSE1
 70
     0
  9
$DIMSE2
 70
     0
  9
$DIMTAD
 70
     1
  9
$DIMZIN
 70
     8
  9
$DIMBLK
  1

  9
$DIMASO
 70
     1
  9
$DIMSHO
 70
     1
  9
$DIMPOST
  1

  9
$DIMAPOST
  1

  9
$DIMALT
 70
     0
  9
$DIMALTD
 70
     2
  9
$DIMALTF
 40
0.039
  9
$DIMLFAC
 40
1.0
  9
$DIMTOFL
 70
     1
  9
$DIMTVP
 40
0.0
  9
$DIMTIX
 70
     0
  9
$DIMSOXD
 70
     0
  9
$DIMSAH
 70
     1
  9
$DIMBLK1
  1
OPEN
  9
$DIMBLK2
  1
OPEN
  9
$DIMSTYLE
  2
IGA
  9
$DIMCLRD
 70
     0
  9
$DIMCLRE
 70
     0
  9
$DIMCLRT
 70
     0
  9
$DIMTFAC
 40
10.0
  9
$DIMGAP
 40
1.0
  9
$DIMJUST
 70
     0
  9
$DIMSD1
 70
     0
  9
$DIMSD2
 70
     0
  9
$DIMTOLJ
 70
     1
  9
$DIMTZIN
 70
     0
  9
$DIMALTZ
 70
     0
  9
$DIMALTTZ
 70
     0
  9
$DIMUPT
 70
     0
  9
$DIMDEC
 70
     4
  9
$DIMTDEC
 70
     4
  9
$DIMALTU
 70
     2
  9
$DIMALTTD
 70
     2
  9
$DIMTXSTY
  7
STANDARD
  9
$DIMAUNIT
 70
     0
  9
$DIMADEC
 70
     0
  9
$DIMALTRND
 40
0.0
  9
$DIMAZIN
 70
     0
  9
$DIMDSEP
 70
    46
  9
$DIMATFIT
 70
     3
  9
$DIMFRAC
 70
     0
  9
$DIMLDRBLK
  1
OPEN
  9
$DIMLUNIT
 70
     2
  9
$DIMLWD
 70
    -2
  9
$DIMLWE
 70
    -2
  9
$DIMTMOVE
 70
     0
  9
$LUNITS
 70
     2
  9
$LUPREC
 70
     3
  9
$SKETCHINC
 40
0.1
  9
$FILLETRAD
 40
50.0
  9
$AUNITS
 70
     0
  9
$AUPREC
 70
     0
  9
$MENU
  1
acad
  9
$ELEVATION
 40
0.0
  9
$PELEVATION
 40
0.0
  9
$THICKNESS
 40
0.0
  9
$LIMCHECK
 70
     0
  9
$CHAMFERA
 40
0.5
  9
$CHAMFERB
 40
0.5
  9
$CHAMFERC
 40
0.0
  9
$CHAMFERD
 40
0.0
  9
$SKPOLY
 70
     0
  9
$TDCREATE
 40
2451389.500923611
  9
$TDUCREATE
 40
2451389.125923611
  9
$TDUPDATE
 40
2460269.610293913
  9
$TDUUPDATE
 40
2460269.235293913
  9
$TDINDWG
 40
0.0509270139
  9
$TDUSRTIMER
 40
0.0509267477
  9
$USRTIMER
 70
     1
  9
$ANGBASE
 50
0.0
  9
$ANGDIR
 70
     0
  9
$PDMODE
 70
     0
  9
$PDSIZE
 40
0.0
  9
$PLINEWID
 40
0.0
  9
$SPLFRAME
 70
     0
  9
$SPLINETYPE
 70
     6
  9
$SPLINESEGS
 70
     8
  9
$HANDSEED
  5
84F3
  9
$SURFTAB1
 70
     6
  9
$SURFTAB2
 70
     6
  9
$SURFTYPE
 70
     6
  9
$SURFU
 70
     6
  9
$SURFV
 70
     6
  9
$UCSBASE
  2

  9
$UCSNAME
  2

  9
$UCSORG
 10
0.0
 20
0.0
 30
0.0
  9
$UCSXDIR
 10
1.0
 20
0.0
 30
0.0
  9
$UCSYDIR
 10
0.0
 20
1.0
 30
0.0
  9
$UCSORTHOREF
  2

  9
$UCSORTHOVIEW
 70
     0
  9
$UCSORGTOP
 10
0.0
 20
0.0
 30
0.0
  9
$UCSORGBOTTOM
 10
0.0
 20
0.0
 30
0.0
  9
$UCSORGLEFT
 10
0.0
 20
0.0
 30
0.0
  9
$UCSORGRIGHT
 10
0.0
 20
0.0
 30
0.0
  9
$UCSORGFRONT
 10
0.0
 20
0.0
 30
0.0
  9
$UCSORGBACK
 10
0.0
 20
0.0
 30
0.0
  9
$PUCSBASE
  2

  9
$PUCSNAME
  2

  9
$PUCSORG
 10
0.0
 20
0.0
 30
0.0
  9
$PUCSXDIR
 10
1.0
 20
0.0
 30
0.0
  9
$PUCSYDIR
 10
0.0
 20
1.0
 30
0.0
  9
$PUCSORTHOREF
  2

  9
$PUCSORTHOVIEW
 70
     0
  9
$PUCSORGTOP
 10
0.0
 20
0.0
 30
0.0
  9
$PUCSORGBOTTOM
 10
0.0
 20
0.0
 30
0.0
  9
$PUCSORGLEFT
 10
0.0
 20
0.0
 30
0.0
  9
$PUCSORGRIGHT
 10
0.0
 20
0.0
 30
0.0
  9
$PUCSORGFRONT
 10
0.0
 20
0.0
 30
0.0
  9
$PUCSORGBACK
 10
0.0
 20
0.0
 30
0.0
  9
$USERI1
 70
     0
  9
$USERI2
 70
     0
  9
$USERI3
 70
     0
  9
$USERI4
 70
     0
  9
$USERI5
 70
     0
  9
$USERR1
 40
0.0
  9
$USERR2
 40
0.0
  9
$USERR3
 40
0.0
  9
$USERR4
 40
0.0
  9
$USERR5
 40
0.0
  9
$WORLDVIEW
 70
     1
  9
$SHADEDGE
 70
     3
  9
$SHADEDIF
 70
    70
  9
$TILEMODE
 70
     1
  9
$MAXACTVP
 70
    16
  9
$PINSBASE
 10
0.0
 20
0.0
 30
0.0
  9
$PLIMCHECK
 70
     0
  9
$PEXTMIN
 10
1.000000000000000E+20
 20
1.000000000000000E+20
 30
1.000000000000000E+20
  9
$PEXTMAX
 10
-1.000000000000000E+20
 20
-1.000000000000000E+20
 30
-1.000000000000000E+20
  9
$PLIMMIN
 10
0.0
 20
0.0
  9
$PLIMMAX
 10
12.0
 20
9.0
  9
$UNITMODE
 70
     0
  9
$VISRETAIN
 70
     0
  9
$PLINEGEN
 70
     0
  9
$PSLTSCALE
 70
     1
  9
$TREEDEPTH
 70
  3020
  9
$CMLSTYLE
  2
Standard
  9
$CMLJUST
 70
     0
  9
$CMLSCALE
 40
1.0
  9
$PROXYGRAPHICS
 70
     1
  9
$MEASUREMENT
 70
     0
  9
$CELWEIGHT
370
    -1
  9
$ENDCAPS
280
     0
  9
$JOINSTYLE
280
     0
  9
$LWDISPLAY
290
     0
  9
$INSUNITS
 70
     0
  9
$HYPERLINKBASE
  1

  9
$STYLESHEET
  1

  9
$XEDIT
290
     1
  9
$CEPSNTYPE
380
     0
  9
$PSTYLEMODE
290
     1
  9
$FINGERPRINTGUID
  2
{B97326EC-A10C-4869-9A4A-CDA4270CF715}
  9
$VERSIONGUID
  2
{45A8BE73-B2A8-4A6D-B8FD-3DA4B6CF8EFA}
  9
$EXTNAMES
290
     1
  9
$PSVPSCALE
 40
0.0
  9
$OLESTARTUP
290
     0
  0
ENDSEC
  0
SECTION
  2
CLASSES
  0
CLASS
  1
ACDBDICTIONARYWDFLT
  2
AcDbDictionaryWithDefault
  3
ObjectDBX Classes
 90
        0
280
     0
281
     0
  0
CLASS
  1
MATERIAL
  2
AcDbMaterial
  3
ObjectDBX Classes
 90
     1153
280
     0
281
     0
  0
CLASS
  1
VISUALSTYLE
  2
AcDbVisualStyle
  3
ObjectDBX Classes
 90
     4095
280
     0
281
     0
  0
CLASS
  1
SCALE
  2
AcDbScale
  3
ObjectDBX Classes
 90
     1153
280
     0
281
     0
  0
CLASS
  1
TABLESTYLE
  2
AcDbTableStyle
  3
ObjectDBX Classes
 90
     4095
280
     0
281
     0
  0
CLASS
  1
MLEADERSTYLE
  2
AcDbMLeaderStyle
  3
ACDB_MLEADERSTYLE_CLASS
 90
     4095
280
     0
281
     0
  0
CLASS
  1
ACDBSECTIONVIEWSTYLE
  2
AcDbSectionViewStyle
  3
ObjectDBX Classes
 90
     1025
280
     0
281
     0
  0
CLASS
  1
ACDBDETAILVIEWSTYLE
  2
AcDbDetailViewStyle
  3
ObjectDBX Classes
 90
     1025
280
     0
281
     0
  0
CLASS
  1
DICTIONARYVAR
  2
AcDbDictionaryVar
  3
ObjectDBX Classes
 90
        0
280
     0
281
     0
  0
CLASS
  1
CELLSTYLEMAP
  2
AcDbCellStyleMap
  3
ObjectDBX Classes
 90
     1152
280
     0
281
     0
  0
CLASS
  1
ACDBPLACEHOLDER
  2
AcDbPlaceHolder
  3
ObjectDBX Classes
 90
        0
280
     0
281
     0
  0
CLASS
  1
LAYOUT
  2
AcDbLayout
  3
ObjectDBX Classes
 90
        0
280
     0
281
     0
  0
ENDSEC
  0
SECTION
  2
TABLES
  0
TABLE
  2
VPORT
  5
8170
330
0
100
AcDbSymbolTable
 70
     1
  0
VPORT
  5
81DC
330
8170
100
AcDbSymbolTableRecord
100
AcDbViewportTableRecord
  2
*ACTIVE
 70
     0
 10
0.0
 20
0.0
 11
1.0
 21
1.0
 12
3150.000014668333
 22
4425.000020605514
 13
0.0
 23
0.0
 14
10.0
 24
10.0
 15
10.0
 25
10.0
 16
0.0
 26
0.0
 36
1.0
 17
0.0
 27
0.0
 37
0.0
 40
8907.213844128961
 41
2.050213675213675
 42
50.0
 43
0.0
 44
0.0
 50
0.0
 51
0.0
 71
     0
 72
   100
 73
     1
 74
     0
 75
     0
 76
     0
 77
     0
 78
     0
281
     0
 65
     1
110
0.0
120
0.0
130
0.0
111
1.0
121
0.0
131
0.0
112
0.0
122
1.0
132
0.0
 79
     0
146
0.0
1001
ACAD_NAV_VCDISPLAY
1070
     3
  0
ENDTAB
  0
TABLE
  2
LTYPE
  5
816D
330
0
100
AcDbSymbolTable
 70
     3
  0
LTYPE
  5
81C2
330
816D
100
AcDbSymbolTableRecord
100
AcDbLinetypeTableRecord
  2
ByBlock
 70
     0
  3

 72
    65
 73
     0
 40
0.0
  0
LTYPE
  5
81C3
330
816D
100
AcDbSymbolTableRecord
100
AcDbLinetypeTableRecord
  2
ByLayer
 70
     0
  3

 72
    65
 73
     0
 40
0.0
  0
LTYPE
  5
81C4
330
816D
100
AcDbSymbolTableRecord
100
AcDbLinetypeTableRecord
  2
CONTINUOUS
 70
     0
  3
Solid line
 72
    65
 73
     0
 40
0.0
  0
LTYPE
  5
81DD
330
816D
100
AcDbSymbolTableRecord
100
AcDbLinetypeTableRecord
  2
CENTER
 70
     0
  3
____ _ ____ _ ____ _ ____ _ ____ _ ____ _ ____ 
 72
    65
 73
     4
 40
2.0
 49
1.25
 74
     0
 49
-0.25
 74
     0
 49
0.25
 74
     0
 49
-0.25
 74
     0
  0
ENDTAB
  0
TABLE
  2
LAYER
  5
816A
330
0
100
AcDbSymbolTable
 70
     6
  0
LAYER
  5
81BC
102
{ACAD_XDICTIONARY
360
849D
102
}
330
816A
100
AcDbSymbolTableRecord
100
AcDbLayerTableRecord
  2
0
 70
     0
 62
     7
  6
CONTINUOUS
370
    -3
390
8177
  0
LAYER
  5
81DB
102
{ACAD_XDICTIONARY
360
849F
102
}
330
816A
100
AcDbSymbolTableRecord
100
AcDbLayerTableRecord
  2
3
 70
     0
 62
     2
  6
CONTINUOUS
370
    -3
390
8177
  0
LAYER
  5
81DE
102
{ACAD_XDICTIONARY
360
84A1
102
}
330
816A
100
AcDbSymbolTableRecord
100
AcDbLayerTableRecord
  2
2
 70
     0
 62
     3
  6
CENTER
370
    -3
390
8177
  0
LAYER
  5
81DF
102
{ACAD_XDICTIONARY
360
84A3
102
}
330
816A
100
AcDbSymbolTableRecord
100
AcDbLayerTableRecord
  2
1
 70
     0
 62
     4
  6
CONTINUOUS
370
    -3
390
8177
  0
LAYER
  5
81E0
102
{ACAD_XDICTIONARY
360
84A5
102
}
330
816A
100
AcDbSymbolTableRecord
100
AcDbLayerTableRecord
  2
4
 70
     0
 62
     7
  6
CONTINUOUS
370
    -3
390
8177
  0
LAYER
  5
81E1
330
816A
100
AcDbSymbolTableRecord
100
AcDbLayerTableRecord
  2
DEFPOINTS
 70
     0
 62
     7
  6
CONTINUOUS
290
     0
370
    -3
390
8177
  0
ENDTAB
  0
TABLE
  2
STYLE
  5
816B
330
0
100
AcDbSymbolTable
 70
     2
  0
STYLE
  5
81BD
330
816B
100
AcDbSymbolTableRecord
100
AcDbTextStyleTableRecord
  2
STANDARD
 70
     0
 40
0.0
 41
1.0
 50
0.0
 71
     0
 42
180.0
  3
simplex.shx
  4
extfont.shx
  0
STYLE
  5
81C1
330
816B
100
AcDbSymbolTableRecord
100
AcDbTextStyleTableRecord
  2
Annotative
 70
     0
 40
0.0
 41
1.0
 50
0.0
 71
     0
 42
0.2
  3
txt
  4

1001
AcadAnnotative
1000
AnnotativeData
1002
{
1070
     1
1070
     1
1002
}
  0
ENDTAB
  0
TABLE
  2
VIEW
  5
816E
330
0
100
AcDbSymbolTable
 70
     0
  0
ENDTAB
  0
TABLE
  2
UCS
  5
816F
330
0
100
AcDbSymbolTable
 70
     0
  0
ENDTAB
  0
TABLE
  2
APPID
  5
8171
330
0
100
AcDbSymbolTable
 70
     8
  0
APPID
  5
81BE
330
8171
100
AcDbSymbolTableRecord
100
AcDbRegAppTableRecord
  2
ACAD
 70
     0
  0
APPID
  5
81C5
330
8171
100
AcDbSymbolTableRecord
100
AcDbRegAppTableRecord
  2
AcadAnnotative
 70
     0
  0
APPID
  5
82C5
330
8171
100
AcDbSymbolTableRecord
100
AcDbRegAppTableRecord
  2
ACAD_DSTYLE_DIMJAG
 70
     0
  0
APPID
  5
82C6
330
8171
100
AcDbSymbolTableRecord
100
AcDbRegAppTableRecord
  2
ACAD_DSTYLE_DIMTALN
 70
     0
  0
APPID
  5
835A
330
8171
100
AcDbSymbolTableRecord
100
AcDbRegAppTableRecord
  2
AcadAnnoMonitorAlertIconDisabled
 70
     0
  0
APPID
  5
835B
330
8171
100
AcDbSymbolTableRecord
100
AcDbRegAppTableRecord
  2
ACAD_EXEMPT_FROM_CAD_STANDARDS
 70
     0
  0
APPID
  5
84B1
330
8171
100
AcDbSymbolTableRecord
100
AcDbRegAppTableRecord
  2
ACAD_NAV_VCDISPLAY
 70
     0
  0
APPID
  5
84EA
330
8171
100
AcDbSymbolTableRecord
100
AcDbRegAppTableRecord
  2
ACAD_MLEADERVER
 70
     0
  0
ENDTAB
  0
TABLE
  2
DIMSTYLE
  5
8172
330
0
100
AcDbSymbolTable
 70
     4
100
AcDbDimStyleTable
 71
     1
340
81E2
  0
DIMSTYLE
105
81BF
102
{ACAD_REACTORS
330
7C88
330
7C89
330
7CCE
330
7CD9
330
7CDA
330
7CDB
330
7CDD
330
7CDE
330
7D04
102
}
330
8172
100
AcDbSymbolTableRecord
100
AcDbDimStyleTableRecord
  2
Standard
 70
     0
340
81BD
  0
DIMSTYLE
105
81C0
330
8172
100
AcDbSymbolTableRecord
100
AcDbDimStyleTableRecord
  2
Annotative
 70
     0
340
81BD
1001
AcadAnnotative
1000
AnnotativeData
1002
{
1070
     1
1070
     1
1002
}
  0
DIMSTYLE
105
81E2
102
{ACAD_REACTORS
330
8220
330
822D
330
82C7
330
82D4
330
82EA
330
82F7
330
8304
330
8311
330
831E
330
832B
330
833D
330
8379
102
}
330
8172
100
AcDbSymbolTableRecord
100
AcDbDimStyleTableRecord
  2
IGA
 70
     0
 40
2.0
 41
2.0
 42
0.5
 43
10.0
 44
1.0
 47
1.0
 48
1.0
 73
     0
 74
     0
 77
     1
 78
     8
140
3.0
141
0.0
143
0.03937
146
10.0
147
1.0
173
     1
271
     3
272
     3
279
     2
284
     8
285
     8
286
     8
340
81BD
  0
DIMSTYLE
105
81E3
330
8172
100
AcDbSymbolTableRecord
100
AcDbDimStyleTableRecord
  2
MATSU
 70
     0
 41
2.0
 42
1.0
 43
10.0
 44
1.0
 73
     0
 74
     0
 77
     1
 78
     8
140
3.0
141
0.0
143
0.03937
147
0.5
172
     1
173
     1
176
   256
177
   256
178
   256
271
     3
272
     3
279
     2
284
     8
285
     8
286
     8
340
81BD
  0
ENDTAB
  0
TABLE
  2
BLOCK_RECORD
  5
8169
330
0
100
AcDbSymbolTable
 70
    49
  0
BLOCK_RECORD
  5
81D7
330
8169
100
AcDbSymbolTableRecord
100
AcDbBlockTableRecord
  2
*Model_Space
340
81DA
  0
BLOCK_RECORD
  5
81D3
330
8169
100
AcDbSymbolTableRecord
100
AcDbBlockTableRecord
  2
*Paper_Space
340
81D6
  0
BLOCK_RECORD
  5
81E7
330
8169
100
AcDbSymbolTableRecord
100
AcDbBlockTableRecord
  2
$MODEL_SPACE
340
0
  0
BLOCK_RECORD
  5
81E9
330
8169
100
AcDbSymbolTableRecord
100
AcDbBlockTableRecord
  2
$PAPER_SPACE
340
0
  0
BLOCK_RECORD
  5
81EB
330
8169
100
AcDbSymbolTableRecord
100
AcDbBlockTableRecord
  2
_OPEN
340
0
102
{BLKREFS
331
7EAA
331
7EAB
331
7EB5
331
7EB6
331
7EC0
331
7EC1
331
7ECB
331
7ECC
331
7ED6
331
7ED7
331
7EE1
331
7EE2
331
7EEC
331
7EED
331
8145
331
8146
331
82E4
331
82E5
331
82F1
331
82F2
331
82FE
331
82FF
331
830B
331
830C
331
8318
331
8319
331
839B
331
839C
331
7E31
331
7E32
331
7E3C
331
7E3D
331
7E89
331
7E8A
331
8030
331
8031
331
8025
331
8026
331
8151
331
8158
331
8159
331
8044
331
8045
331
8051
331
8052
331
805E
331
805F
331
806B
331
806C
331
80D4
331
80D5
331
82A8
331
82A9
331
82B1
331
82B2
331
82CE
331
82CF
331
83CB
331
83CC
331
843F
331
8499
102
}
  0
BLOCK_RECORD
  5
81ED
330
8169
100
AcDbSymbolTableRecord
100
AcDbBlockTableRecord
  2
YA_N
340
0
102
{BLKREFS
331
7C25
331
7C43
331
7C45
331
7CB2
102
}
  0
BLOCK_RECORD
  5
81EF
330
8169
100
AcDbSymbolTableRecord
100
AcDbBlockTableRecord
  2
*D4
340
0
  0
BLOCK_RECORD
  5
81F1
330
8169
100
AcDbSymbolTableRecord
100
AcDbBlockTableRecord
  2
*D5
340
0
  0
BLOCK_RECORD
  5
81F3
330
8169
100
AcDbSymbolTableRecord
100
AcDbBlockTableRecord
  2
*D6
340
0
  0
BLOCK_RECORD
  5
81F5
330
8169
100
AcDbSymbolTableRecord
100
AcDbBlockTableRecord
  2
*D7
340
0
  0
BLOCK_RECORD
  5
81F7
330
8169
100
AcDbSymbolTableRecord
100
AcDbBlockTableRecord
  2
*U8
340
0
102
{BLKREFS
331
8032
102
}
  0
BLOCK_RECORD
  5
81F8
330
8169
100
AcDbSymbolTableRecord
100
AcDbBlockTableRecord
  2
*D9
340
0
  0
BLOCK_RECORD
  5
81FA
330
8169
100
AcDbSymbolTableRecord
100
AcDbBlockTableRecord
  2
*D10
340
0
  0
BLOCK_RECORD
  5
81FC
330
8169
100
AcDbSymbolTableRecord
100
AcDbBlockTableRecord
  2
*D11
340
0
  0
BLOCK_RECORD
  5
81FE
330
8169
100
AcDbSymbolTableRecord
100
AcDbBlockTableRecord
  2
*D12
340
0
  0
BLOCK_RECORD
  5
8200
330
8169
100
AcDbSymbolTableRecord
100
AcDbBlockTableRecord
  2
*D13
340
0
  0
BLOCK_RECORD
  5
8202
330
8169
100
AcDbSymbolTableRecord
100
AcDbBlockTableRecord
  2
*D14
340
0
  0
BLOCK_RECORD
  5
8204
330
8169
100
AcDbSymbolTableRecord
100
AcDbBlockTableRecord
  2
*D15
340
0
  0
BLOCK_RECORD
  5
8206
330
8169
100
AcDbSymbolTableRecord
100
AcDbBlockTableRecord
  2
*D16
340
0
  0
BLOCK_RECORD
  5
8208
330
8169
100
AcDbSymbolTableRecord
100
AcDbBlockTableRecord
  2
*D17
340
0
  0
BLOCK_RECORD
  5
820A
330
8169
100
AcDbSymbolTableRecord
100
AcDbBlockTableRecord
  2
*D18
340
0
  0
BLOCK_RECORD
  5
820C
330
8169
100
AcDbSymbolTableRecord
100
AcDbBlockTableRecord
  2
_DOT
340
0
102
{BLKREFS
331
8150
102
}
  0
BLOCK_RECORD
  5
820D
330
8169
100
AcDbSymbolTableRecord
100
AcDbBlockTableRecord
  2
*D20
340
0
  0
BLOCK_RECORD
  5
8210
330
8169
100
AcDbSymbolTableRecord
100
AcDbBlockTableRecord
  2
*D21
340
0
  0
BLOCK_RECORD
  5
8212
330
8169
100
AcDbSymbolTableRecord
100
AcDbBlockTableRecord
  2
*D22
340
0
  0
BLOCK_RECORD
  5
8214
330
8169
100
AcDbSymbolTableRecord
100
AcDbBlockTableRecord
  2
*D23
340
0
  0
BLOCK_RECORD
  5
8216
330
8169
100
AcDbSymbolTableRecord
100
AcDbBlockTableRecord
  2
*D24
340
0
  0
BLOCK_RECORD
  5
8218
330
8169
100
AcDbSymbolTableRecord
100
AcDbBlockTableRecord
  2
_NONE
340
0
  0
BLOCK_RECORD
  5
821A
330
8169
100
AcDbSymbolTableRecord
100
AcDbBlockTableRecord
  2
*D26
340
0
  0
BLOCK_RECORD
  5
821C
330
8169
100
AcDbSymbolTableRecord
100
AcDbBlockTableRecord
  2
*D27
340
0
  0
BLOCK_RECORD
  5
8221
330
8169
100
AcDbSymbolTableRecord
100
AcDbBlockTableRecord
  2
*D28
340
0
  0
BLOCK_RECORD
  5
822E
330
8169
100
AcDbSymbolTableRecord
100
AcDbBlockTableRecord
  2
*D29
340
0
  0
BLOCK_RECORD
  5
823A
330
8169
100
AcDbSymbolTableRecord
100
AcDbBlockTableRecord
  2
*D30
340
0
  0
BLOCK_RECORD
  5
8247
330
8169
100
AcDbSymbolTableRecord
100
AcDbBlockTableRecord
  2
*D31
340
0
  0
BLOCK_RECORD
  5
8254
330
8169
100
AcDbSymbolTableRecord
100
AcDbBlockTableRecord
  2
*D32
340
0
  0
BLOCK_RECORD
  5
8261
330
8169
100
AcDbSymbolTableRecord
100
AcDbBlockTableRecord
  2
*D33
340
0
  0
BLOCK_RECORD
  5
826E
330
8169
100
AcDbSymbolTableRecord
100
AcDbBlockTableRecord
  2
*D34
340
0
  0
BLOCK_RECORD
  5
8279
330
8169
100
AcDbSymbolTableRecord
100
AcDbBlockTableRecord
  2
*D35
340
0
  0
BLOCK_RECORD
  5
8286
330
8169
100
AcDbSymbolTableRecord
100
AcDbBlockTableRecord
  2
*D36
340
0
  0
BLOCK_RECORD
  5
82B7
330
8169
100
AcDbSymbolTableRecord
100
AcDbBlockTableRecord
  2
*D37
340
0
  0
BLOCK_RECORD
  5
82C8
330
8169
100
AcDbSymbolTableRecord
100
AcDbBlockTableRecord
  2
*D38
340
0
  0
BLOCK_RECORD
  5
82D5
330
8169
100
AcDbSymbolTableRecord
100
AcDbBlockTableRecord
  2
*D39
340
0
  0
BLOCK_RECORD
  5
82EB
330
8169
100
AcDbSymbolTableRecord
100
AcDbBlockTableRecord
  2
*D40
340
0
  0
BLOCK_RECORD
  5
82F8
330
8169
100
AcDbSymbolTableRecord
100
AcDbBlockTableRecord
  2
*D41
340
0
  0
BLOCK_RECORD
  5
8305
330
8169
100
AcDbSymbolTableRecord
100
AcDbBlockTableRecord
  2
*D42
340
0
  0
BLOCK_RECORD
  5
8312
330
8169
100
AcDbSymbolTableRecord
100
AcDbBlockTableRecord
  2
*D43
340
0
  0
BLOCK_RECORD
  5
831F
330
8169
100
AcDbSymbolTableRecord
100
AcDbBlockTableRecord
  2
*D44
340
0
  0
BLOCK_RECORD
  5
832C
330
8169
100
AcDbSymbolTableRecord
100
AcDbBlockTableRecord
  2
*D45
340
0
  0
BLOCK_RECORD
  5
833E
330
8169
100
AcDbSymbolTableRecord
100
AcDbBlockTableRecord
  2
*D46
340
0
  0
BLOCK_RECORD
  5
837A
330
8169
100
AcDbSymbolTableRecord
100
AcDbBlockTableRecord
  2
*D47
340
0
  0
BLOCK_RECORD
  5
8432
330
8169
100
AcDbSymbolTableRecord
100
AcDbBlockTableRecord
  2
_DotSmall
340
0
102
{BLKREFS
331
8440
331
8498
102
}
  0
ENDTAB
  0
ENDSEC
  0
SECTION
  2
BLOCKS
  0
BLOCK
  5
81D8
330
81D7
100
AcDbEntity
  8
0
100
AcDbBlockBegin
  2
*Model_Space
 70
     0
 10
0.0
 20
0.0
 30
0.0
  3
*Model_Space
  1

  0
ENDBLK
  5
81D9
330
81D7
100
AcDbEntity
  8
0
100
AcDbBlockEnd
  0
BLOCK
  5
81D4
330
81D3
100
AcDbEntity
 67
     1
  8
0
100
AcDbBlockBegin
  2
*Paper_Space
 70
     0
 10
0.0
 20
0.0
 30
0.0
  3
*Paper_Space
  1

  0
ENDBLK
  5
81D5
330
81D3
100
AcDbEntity
 67
     1
  8
0
100
AcDbBlockEnd
  0
BLOCK
  5
81E8
330
81E7
100
AcDbEntity
  8
0
100
AcDbBlockBegin
  2
$MODEL_SPACE
 70
     0
 10
0.0
 20
0.0
 30
0.0
  3
$MODEL_SPACE
  1

  0
ENDBLK
  5
1B
330
81E7
100
AcDbEntity
  8
0
100
AcDbBlockEnd
  0
BLOCK
  5
81EA
330
81E9
100
AcDbEntity
  8
0
100
AcDbBlockBegin
  2
$PAPER_SPACE
 70
     0
 10
0.0
 20
0.0
 30
0.0
  3
$PAPER_SPACE
  1

  0
ENDBLK
  5
18
330
81E9
100
AcDbEntity
  8
0
100
AcDbBlockEnd
  0
BLOCK
  5
81EC
330
81EB
100
AcDbEntity
  8
0
100
AcDbBlockBegin
  2
_OPEN
 70
     0
 10
0.0
 20
0.0
 30
0.0
  3
_OPEN
  1

  0
LINE
  5
79FD
330
81EB
100
AcDbEntity
  8
0
  6
ByBlock
 62
     0
100
AcDbLine
 10
-1.0
 20
0.1666666666666666
 30
0.0
 11
0.0
 21
0.0
 31
0.0
  0
LINE
  5
79FE
330
81EB
100
AcDbEntity
  8
0
  6
ByBlock
 62
     0
100
AcDbLine
 10
0.0
 20
0.0
 30
0.0
 11
-1.0
 21
-0.1666666666666666
 31
0.0
  0
LINE
  5
79FF
330
81EB
100
AcDbEntity
  8
0
  6
ByBlock
 62
     0
100
AcDbLine
 10
0.0
 20
0.0
 30
0.0
 11
-1.0
 21
0.0
 31
0.0
  0
ENDBLK
  5
7A01
330
81EB
100
AcDbEntity
  8
0
100
AcDbBlockEnd
  0
BLOCK
  5
81EE
330
81ED
100
AcDbEntity
  8
0
100
AcDbBlockBegin
  2
YA_N
 70
     0
 10
0.0
 20
0.0
 30
0.0
  3
YA_N
  1

  0
ENDBLK
  5
7A0C
330
81ED
100
AcDbEntity
  8
0
100
AcDbBlockEnd
  0
BLOCK
  5
81F0
330
81EF
100
AcDbEntity
  8
0
100
AcDbBlockBegin
  2
*D4
 70
     1
 10
0.0
 20
0.0
 30
0.0
  3
*D4
  1

  0
LINE
  5
7E2E
330
81EF
100
AcDbEntity
  8
0
  6
ByBlock
100
AcDbLine
 10
1023.474244978288
 20
930.1780954144632
 30
0.0
 11
1023.474244978288
 21
1079.793203857674
 31
0.0
  0
LINE
  5
7E2F
330
81EF
100
AcDbEntity
  8
0
  6
ByBlock
100
AcDbLine
 10
98.47424497828795
 20
930.1780954144632
 30
0.0
 11
98.47424497828795
 21
1079.793203857674
 31
0.0
  0
LINE
  5
7E30
330
81EF
100
AcDbEntity
  8
0
  6
ByBlock
100
AcDbLine
 10
963.474244978288
 20
1049.793203857674
 30
0.0
 11
158.4742449782879
 21
1049.793203857674
 31
0.0
  0
INSERT
  5
7E31
330
81EF
100
AcDbEntity
  8
0
  6
ByBlock
100
AcDbBlockReference
  2
_OPEN
 10
1023.474244978288
 20
1049.793203857674
 30
0.0
 41
60.0
 42
60.0
 43
60.0
  0
INSERT
  5
7E32
330
81EF
100
AcDbEntity
  8
0
  6
ByBlock
100
AcDbBlockReference
  2
_OPEN
 10
98.47424497828795
 20
1049.793203857674
 30
0.0
 41
60.0
 42
60.0
 43
60.0
 50
180.0
  0
TEXT
  5
7E33
330
81EF
100
AcDbEntity
  8
3
100
AcDbText
 10
445.2599592640023
 20
1064.793203857674
 30
0.0
 40
90.0
  1
925
100
AcDbText
  0
POINT
  5
7E34
330
81EF
100
AcDbEntity
  8
DEFPOINTS
  6
ByBlock
 62
     0
100
AcDbPoint
 10
1023.474244978288
 20
900.1780954144633
 30
0.0
  0
POINT
  5
7E35
330
81EF
100
AcDbEntity
  8
DEFPOINTS
  6
ByBlock
 62
     0
100
AcDbPoint
 10
98.47424497828795
 20
900.1780954144633
 30
0.0
  0
POINT
  5
7E36
330
81EF
100
AcDbEntity
  8
DEFPOINTS
  6
ByBlock
 62
     0
100
AcDbPoint
 10
98.47424497828795
 20
1049.793203857674
 30
0.0
  0
ENDBLK
  5
7E37
330
81EF
100
AcDbEntity
  8
0
100
AcDbBlockEnd
  0
BLOCK
  5
81F2
330
81F1
100
AcDbEntity
  8
0
100
AcDbBlockBegin
  2
*D5
 70
     1
 10
0.0
 20
0.0
 30
0.0
  3
*D5
  1

  0
LINE
  5
7E39
330
81F1
100
AcDbEntity
  8
0
  6
ByBlock
100
AcDbLine
 10
1023.474244978288
 20
930.1780954144632
 30
0.0
 11
1023.474244978288
 21
1230.136503955536
 31
0.0
  0
LINE
  5
7E3A
330
81F1
100
AcDbEntity
  8
0
  6
ByBlock
100
AcDbLine
 10
62.47424497828797
 20
966.4334341930098
 30
0.0
 11
62.47424497828797
 21
1230.136503955536
 31
0.0
  0
LINE
  5
7E3B
330
81F1
100
AcDbEntity
  8
0
  6
ByBlock
100
AcDbLine
 10
963.474244978288
 20
1200.136503955536
 30
0.0
 11
122.4742449782879
 21
1200.136503955536
 31
0.0
  0
INSERT
  5
7E3C
330
81F1
100
AcDbEntity
  8
0
  6
ByBlock
100
AcDbBlockReference
  2
_OPEN
 10
1023.474244978288
 20
1200.136503955536
 30
0.0
 41
60.0
 42
60.0
 43
60.0
  0
INSERT
  5
7E3D
330
81F1
100
AcDbEntity
  8
0
  6
ByBlock
100
AcDbBlockReference
  2
_OPEN
 10
62.47424497828797
 20
1200.136503955536
 30
0.0
 41
60.0
 42
60.0
 43
60.0
 50
180.0
  0
TEXT
  5
7E3E
330
81F1
100
AcDbEntity
  8
3
100
AcDbText
 10
446.5456735497165
 20
1215.136503955536
 30
0.0
 40
90.0
  1
961
100
AcDbText
  0
POINT
  5
7E3F
330
81F1
100
AcDbEntity
  8
DEFPOINTS
  6
ByBlock
 62
     0
100
AcDbPoint
 10
1023.474244978288
 20
900.1780954144633
 30
0.0
  0
POINT
  5
7E40
330
81F1
100
AcDbEntity
  8
DEFPOINTS
  6
ByBlock
 62
     0
100
AcDbPoint
 10
62.47424497828797
 20
936.4334341930096
 30
0.0
  0
POINT
  5
7E41
330
81F1
100
AcDbEntity
  8
DEFPOINTS
  6
ByBlock
 62
     0
100
AcDbPoint
 10
62.47424497828797
 20
1200.136503955536
 30
0.0
  0
ENDBLK
  5
7E42
330
81F1
100
AcDbEntity
  8
0
100
AcDbBlockEnd
  0
BLOCK
  5
81F4
330
81F3
100
AcDbEntity
  8
0
100
AcDbBlockBegin
  2
*D6
 70
     1
 10
0.0
 20
0.0
 30
0.0
  3
*D6
  1

  0
LINE
  5
7E86
330
81F3
100
AcDbEntity
  8
0
  6
ByBlock
100
AcDbLine
 10
2904.805828611463
 20
899.6366796297715
 30
0.0
 11
2904.805828611463
 21
1123.37004894809
 31
0.0
  0
LINE
  5
7E87
330
81F3
100
AcDbEntity
  8
0
  6
ByBlock
100
AcDbLine
 10
4024.805828611461
 20
902.6800729674995
 30
0.0
 11
4024.805828611461
 21
1123.37004894809
 31
0.0
  0
LINE
  5
7E88
330
81F3
100
AcDbEntity
  8
0
  6
ByBlock
100
AcDbLine
 10
2964.805828611463
 20
1093.37004894809
 30
0.0
 11
3964.805828611462
 21
1093.37004894809
 31
0.0
  0
INSERT
  5
7E89
330
81F3
100
AcDbEntity
  8
0
  6
ByBlock
100
AcDbBlockReference
  2
_OPEN
 10
2904.805828611463
 20
1093.37004894809
 30
0.0
 41
60.0
 42
60.0
 43
60.0
 50
180.0
  0
INSERT
  5
7E8A
330
81F3
100
AcDbEntity
  8
0
  6
ByBlock
100
AcDbBlockReference
  2
_OPEN
 10
4024.805828611461
 20
1093.37004894809
 30
0.0
 41
60.0
 42
60.0
 43
60.0
  0
TEXT
  5
7E8B
330
81F3
100
AcDbEntity
  8
3
100
AcDbText
 10
3323.377257182892
 20
1108.37004894809
 30
0.0
 40
90.0
  1
1120
100
AcDbText
  0
POINT
  5
7E8C
330
81F3
100
AcDbEntity
  8
DEFPOINTS
  6
ByBlock
 62
     0
100
AcDbPoint
 10
2904.805828611463
 20
869.6366796297716
 30
0.0
  0
POINT
  5
7E8D
330
81F3
100
AcDbEntity
  8
DEFPOINTS
  6
ByBlock
 62
     0
100
AcDbPoint
 10
4024.805828611461
 20
872.6800729674994
 30
0.0
  0
POINT
  5
7E8E
330
81F3
100
AcDbEntity
  8
DEFPOINTS
  6
ByBlock
 62
     0
100
AcDbPoint
 10
4024.805828611461
 20
1093.37004894809
 30
0.0
  0
ENDBLK
  5
7E8F
330
81F3
100
AcDbEntity
  8
0
100
AcDbBlockEnd
  0
BLOCK
  5
81F6
330
81F5
100
AcDbEntity
  8
0
100
AcDbBlockBegin
  2
*D7
 70
     1
 10
0.0
 20
0.0
 30
0.0
  3
*D7
  1

  0
LINE
  5
802D
330
81F5
100
AcDbEntity
  8
0
  6
ByBlock
100
AcDbLine
 10
3884.379544961154
 20
3274.815599437068
 30
0.0
 11
3884.379544961154
 21
3993.773949044664
 31
0.0
  0
LINE
  5
802E
330
81F5
100
AcDbEntity
  8
0
  6
ByBlock
100
AcDbLine
 10
4782.379544961155
 20
3938.598638103749
 30
0.0
 11
4782.379544961155
 21
3993.773949044664
 31
0.0
  0
LINE
  5
802F
330
81F5
100
AcDbEntity
  8
0
  6
ByBlock
100
AcDbLine
 10
3944.379544961153
 20
3963.773949044664
 30
0.0
 11
4722.379544961154
 21
3963.773949044664
 31
0.0
  0
INSERT
  5
8030
330
81F5
100
AcDbEntity
  8
0
  6
ByBlock
100
AcDbBlockReference
  2
_OPEN
 10
3884.379544961154
 20
3963.773949044664
 30
0.0
 41
60.0
 42
60.0
 43
60.0
 50
180.0
  0
INSERT
  5
8031
330
81F5
100
AcDbEntity
  8
0
  6
ByBlock
100
AcDbBlockReference
  2
_OPEN
 10
4782.379544961155
 20
3963.773949044664
 30
0.0
 41
60.0
 42
60.0
 43
60.0
  0
INSERT
  5
8032
330
81F5
100
AcDbEntity
  8
3
100
AcDbBlockReference
  2
*U8
 10
0.0
 20
0.0
 30
0.0
  0
POINT
  5
8033
330
81F5
100
AcDbEntity
  8
DEFPOINTS
  6
ByBlock
 62
     0
100
AcDbPoint
 10
3884.379544961154
 20
3244.815599437067
 30
0.0
  0
POINT
  5
8034
330
81F5
100
AcDbEntity
  8
DEFPOINTS
  6
ByBlock
 62
     0
100
AcDbPoint
 10
4782.379544961155
 20
3908.598638103749
 30
0.0
  0
POINT
  5
8035
330
81F5
100
AcDbEntity
  8
DEFPOINTS
  6
ByBlock
 62
     0
100
AcDbPoint
 10
4782.379544961155
 20
3963.773949044664
 30
0.0
  0
ENDBLK
  5
8036
330
81F5
100
AcDbEntity
  8
0
100
AcDbBlockEnd
  0
BLOCK
  5
821E
330
81F7
100
AcDbEntity
  8
0
100
AcDbBlockBegin
  2
*U8
 70
     1
 10
0.0
 20
0.0
 30
0.0
  3
*U8
  1

  0
TEXT
  5
8162
330
81F7
100
AcDbEntity
  8
3
100
AcDbText
 10
4204.808116389725
 20
4128.773949044663
 30
0.0
 40
90.0
  1
MAX
100
AcDbText
  0
TEXT
  5
8163
330
81F7
100
AcDbEntity
  8
3
100
AcDbText
 10
4217.665259246869
 20
3978.773949044663
 30
0.0
 40
90.0
  1
920
100
AcDbText
  0
ENDBLK
  5
8165
330
81F7
100
AcDbEntity
  8
0
100
AcDbBlockEnd
  0
BLOCK
  5
81F9
330
81F8
100
AcDbEntity
  8
0
100
AcDbBlockBegin
  2
*D9
 70
     1
 10
0.0
 20
0.0
 30
0.0
  3
*D9
  1

  0
LINE
  5
8022
330
81F8
100
AcDbEntity
  8
0
  6
ByBlock
100
AcDbLine
 10
4782.379544961155
 20
3938.598638103749
 30
0.0
 11
4782.379544961155
 21
3993.773949044664
 31
0.0
  0
LINE
  5
8023
330
81F8
100
AcDbEntity
  8
0
  6
ByBlock
100
AcDbLine
 10
5451.879544961155
 20
2955.315599437068
 30
0.0
 11
5451.879544961155
 21
3993.773949044664
 31
0.0
  0
LINE
  5
8024
330
81F8
100
AcDbEntity
  8
0
  6
ByBlock
100
AcDbLine
 10
4842.379544961154
 20
3963.773949044664
 30
0.0
 11
5391.879544961154
 21
3963.773949044664
 31
0.0
  0
INSERT
  5
8025
330
81F8
100
AcDbEntity
  8
0
  6
ByBlock
100
AcDbBlockReference
  2
_OPEN
 10
4782.379544961155
 20
3963.773949044664
 30
0.0
 41
60.0
 42
60.0
 43
60.0
 50
180.0
  0
INSERT
  5
8026
330
81F8
100
AcDbEntity
  8
0
  6
ByBlock
100
AcDbBlockReference
  2
_OPEN
 10
5451.879544961155
 20
3963.773949044664
 30
0.0
 41
60.0
 42
60.0
 43
60.0
  0
TEXT
  5
8027
330
81F8
100
AcDbEntity
  8
3
100
AcDbText
 10
4943.558116389727
 20
4017.345377616091
 30
0.0
 40
90.0
  1
(680)
100
AcDbText
  0
POINT
  5
8028
330
81F8
100
AcDbEntity
  8
DEFPOINTS
  6
ByBlock
 62
     0
100
AcDbPoint
 10
4782.379544961155
 20
3908.598638103749
 30
0.0
  0
POINT
  5
8029
330
81F8
100
AcDbEntity
  8
DEFPOINTS
  6
ByBlock
 62
     0
100
AcDbPoint
 10
5451.879544961155
 20
2925.315599437068
 30
0.0
  0
POINT
  5
802A
330
81F8
100
AcDbEntity
  8
DEFPOINTS
  6
ByBlock
 62
     0
100
AcDbPoint
 10
5451.879544961155
 20
3963.773949044664
 30
0.0
  0
ENDBLK
  5
802B
330
81F8
100
AcDbEntity
  8
0
100
AcDbBlockEnd
  0
BLOCK
  5
81FB
330
81FA
100
AcDbEntity
  8
0
100
AcDbBlockBegin
  2
*D10
 70
     1
 10
0.0
 20
0.0
 30
0.0
  3
*D10
  1

  0
LINE
  5
7EA7
330
81FA
100
AcDbEntity
  8
0
  6
ByBlock
100
AcDbLine
 10
1372.474244978286
 20
3444.814411033823
 30
0.0
 11
1372.474244978286
 21
4321.829069539044
 31
0.0
  0
LINE
  5
7EA8
330
81FA
100
AcDbEntity
  8
0
  6
ByBlock
100
AcDbLine
 10
622.4742449782865
 20
4019.814411033823
 30
0.0
 11
622.4742449782865
 21
4321.829069539044
 31
0.0
  0
LINE
  5
7EA9
330
81FA
100
AcDbEntity
  8
0
  6
ByBlock
100
AcDbLine
 10
1312.474244978286
 20
4291.829069539044
 30
0.0
 11
682.4742449782864
 21
4291.829069539044
 31
0.0
  0
INSERT
  5
7EAA
330
81FA
100
AcDbEntity
  8
0
  6
ByBlock
100
AcDbBlockReference
  2
_OPEN
 10
1372.474244978286
 20
4291.829069539044
 30
0.0
 41
60.0
 42
60.0
 43
60.0
  0
INSERT
  5
7EAB
330
81FA
100
AcDbEntity
  8
0
  6
ByBlock
100
AcDbBlockReference
  2
_OPEN
 10
622.4742449782865
 20
4291.829069539044
 30
0.0
 41
60.0
 42
60.0
 43
60.0
 50
180.0
  0
TEXT
  5
7EAC
330
81FA
100
AcDbEntity
  8
3
100
AcDbText
 10
881.7599592640011
 20
4306.829069539044
 30
0.0
 40
90.0
  1
750
100
AcDbText
  0
POINT
  5
7EAD
330
81FA
100
AcDbEntity
  8
DEFPOINTS
  6
ByBlock
 62
     0
100
AcDbPoint
 10
1372.474244978286
 20
3414.814411033823
 30
0.0
  0
POINT
  5
7EAE
330
81FA
100
AcDbEntity
  8
DEFPOINTS
  6
ByBlock
 62
     0
100
AcDbPoint
 10
622.4742449782865
 20
3989.814411033823
 30
0.0
  0
POINT
  5
7EAF
330
81FA
100
AcDbEntity
  8
DEFPOINTS
  6
ByBlock
 62
     0
100
AcDbPoint
 10
622.4742449782865
 20
4291.829069539044
 30
0.0
  0
ENDBLK
  5
7EB0
330
81FA
100
AcDbEntity
  8
0
100
AcDbBlockEnd
  0
BLOCK
  5
81FD
330
81FC
100
AcDbEntity
  8
0
100
AcDbBlockBegin
  2
*D11
 70
     1
 10
0.0
 20
0.0
 30
0.0
  3
*D11
  1

  0
LINE
  5
7EB2
330
81FC
100
AcDbEntity
  8
0
  6
ByBlock
100
AcDbLine
 10
622.4742449782865
 20
4019.814411033823
 30
0.0
 11
622.4742449782865
 21
4321.829069539044
 31
0.0
  0
LINE
  5
7EB3
330
81FC
100
AcDbEntity
  8
0
  6
ByBlock
100
AcDbLine
 10
-497.5257550217128
 20
4019.814411033823
 30
0.0
 11
-497.5257550217128
 21
4321.829069539044
 31
0.0
  0
LINE
  5
7EB4
330
81FC
100
AcDbEntity
  8
0
  6
ByBlock
100
AcDbLine
 10
562.4742449782866
 20
4291.829069539044
 30
0.0
 11
-437.5257550217129
 21
4291.829069539044
 31
0.0
  0
INSERT
  5
7EB5
330
81FC
100
AcDbEntity
  8
0
  6
ByBlock
100
AcDbBlockReference
  2
_OPEN
 10
622.4742449782865
 20
4291.829069539044
 30
0.0
 41
60.0
 42
60.0
 43
60.0
  0
INSERT
  5
7EB6
330
81FC
100
AcDbEntity
  8
0
  6
ByBlock
100
AcDbBlockReference
  2
_OPEN
 10
-497.5257550217128
 20
4291.829069539044
 30
0.0
 41
60.0
 42
60.0
 43
60.0
 50
180.0
  0
TEXT
  5
7EB7
330
81FC
100
AcDbEntity
  8
3
100
AcDbText
 10
-78.95432645028455
 20
4306.829069539044
 30
0.0
 40
90.0
  1
1120
100
AcDbText
  0
POINT
  5
7EB8
330
81FC
100
AcDbEntity
  8
DEFPOINTS
  6
ByBlock
 62
     0
100
AcDbPoint
 10
622.4742449782865
 20
3989.814411033823
 30
0.0
  0
POINT
  5
7EB9
330
81FC
100
AcDbEntity
  8
DEFPOINTS
  6
ByBlock
 62
     0
100
AcDbPoint
 10
-497.5257550217128
 20
3989.814411033823
 30
0.0
  0
POINT
  5
7EBA
330
81FC
100
AcDbEntity
  8
DEFPOINTS
  6
ByBlock
 62
     0
100
AcDbPoint
 10
-497.5257550217128
 20
4291.829069539044
 30
0.0
  0
ENDBLK
  5
7EBB
330
81FC
100
AcDbEntity
  8
0
100
AcDbBlockEnd
  0
BLOCK
  5
81FF
330
81FE
100
AcDbEntity
  8
0
100
AcDbBlockBegin
  2
*D12
 70
     1
 10
0.0
 20
0.0
 30
0.0
  3
*D12
  1

  0
LINE
  5
7EBD
330
81FE
100
AcDbEntity
  8
0
  6
ByBlock
100
AcDbLine
 10
-527.5257550217129
 20
3989.814411033823
 30
0.0
 11
-827.9499771881292
 21
3989.814411033823
 31
0.0
  0
LINE
  5
7EBE
330
81FE
100
AcDbEntity
  8
0
  6
ByBlock
100
AcDbLine
 10
-527.5257550217133
 20
2614.814411033822
 30
0.0
 11
-827.9499771881292
 21
2614.814411033822
 31
0.0
  0
LINE
  5
7EBF
330
81FE
100
AcDbEntity
  8
0
  6
ByBlock
100
AcDbLine
 10
-797.949977188129
 20
3929.814411033823
 30
0.0
 11
-797.949977188129
 21
2674.814411033822
 31
0.0
  0
INSERT
  5
7EC0
330
81FE
100
AcDbEntity
  8
0
  6
ByBlock
100
AcDbBlockReference
  2
_OPEN
 10
-797.949977188129
 20
3989.814411033823
 30
0.0
 41
60.0
 42
60.0
 43
60.0
 50
90.0
  0
INSERT
  5
7EC1
330
81FE
100
AcDbEntity
  8
0
  6
ByBlock
100
AcDbBlockReference
  2
_OPEN
 10
-797.949977188129
 20
2614.814411033822
 30
0.0
 41
60.0
 42
60.0
 43
60.0
 50
270.0
  0
TEXT
  5
7EC2
330
81FE
100
AcDbEntity
  8
3
100
AcDbText
 10
-812.9499771881294
 20
3152.314411033823
 30
0.0
 40
90.0
  1
1375
 50
90.0
100
AcDbText
  0
POINT
  5
7EC3
330
81FE
100
AcDbEntity
  8
DEFPOINTS
  6
ByBlock
 62
     0
100
AcDbPoint
 10
-497.5257550217128
 20
3989.814411033823
 30
0.0
  0
POINT
  5
7EC4
330
81FE
100
AcDbEntity
  8
DEFPOINTS
  6
ByBlock
 62
     0
100
AcDbPoint
 10
-497.5257550217134
 20
2614.814411033822
 30
0.0
  0
POINT
  5
7EC5
330
81FE
100
AcDbEntity
  8
DEFPOINTS
  6
ByBlock
 62
     0
100
AcDbPoint
 10
-797.949977188129
 20
2614.814411033822
 30
0.0
  0
ENDBLK
  5
7EC6
330
81FE
100
AcDbEntity
  8
0
100
AcDbBlockEnd
  0
BLOCK
  5
8201
330
8200
100
AcDbEntity
  8
0
100
AcDbBlockBegin
  2
*D13
 70
     1
 10
0.0
 20
0.0
 30
0.0
  3
*D13
  1

  0
LINE
  5
7EC8
330
8200
100
AcDbEntity
  8
0
  6
ByBlock
100
AcDbLine
 10
1372.474244978286
 20
2584.814411033822
 30
0.0
 11
1372.474244978286
 21
2277.667251551749
 31
0.0
  0
LINE
  5
7EC9
330
8200
100
AcDbEntity
  8
0
  6
ByBlock
100
AcDbLine
 10
-497.5257550217134
 20
2584.814411033821
 30
0.0
 11
-497.5257550217134
 21
2277.667251551749
 31
0.0
  0
LINE
  5
7ECA
330
8200
100
AcDbEntity
  8
0
  6
ByBlock
100
AcDbLine
 10
1312.474244978286
 20
2307.667251551749
 30
0.0
 11
-437.5257550217134
 21
2307.667251551749
 31
0.0
  0
INSERT
  5
7ECB
330
8200
100
AcDbEntity
  8
0
  6
ByBlock
100
AcDbBlockReference
  2
_OPEN
 10
1372.474244978286
 20
2307.667251551749
 30
0.0
 41
60.0
 42
60.0
 43
60.0
  0
INSERT
  5
7ECC
330
8200
100
AcDbEntity
  8
0
  6
ByBlock
100
AcDbBlockReference
  2
_OPEN
 10
-497.5257550217134
 20
2307.667251551749
 30
0.0
 41
60.0
 42
60.0
 43
60.0
 50
180.0
  0
TEXT
  5
7ECD
330
8200
100
AcDbEntity
  8
3
100
AcDbText
 10
287.4742449782866
 20
2322.667251551749
 30
0.0
 40
90.0
  1
1870
100
AcDbText
  0
POINT
  5
7ECE
330
8200
100
AcDbEntity
  8
DEFPOINTS
  6
ByBlock
 62
     0
100
AcDbPoint
 10
1372.474244978286
 20
2614.814411033822
 30
0.0
  0
POINT
  5
7ECF
330
8200
100
AcDbEntity
  8
DEFPOINTS
  6
ByBlock
 62
     0
100
AcDbPoint
 10
-497.5257550217134
 20
2614.814411033822
 30
0.0
  0
POINT
  5
7ED0
330
8200
100
AcDbEntity
  8
DEFPOINTS
  6
ByBlock
 62
     0
100
AcDbPoint
 10
-497.5257550217134
 20
2307.667251551749
 30
0.0
  0
ENDBLK
  5
7ED1
330
8200
100
AcDbEntity
  8
0
100
AcDbBlockEnd
  0
BLOCK
  5
8203
330
8202
100
AcDbEntity
  8
0
100
AcDbBlockBegin
  2
*D14
 70
     1
 10
0.0
 20
0.0
 30
0.0
  3
*D14
  1

  0
LINE
  5
7ED3
330
8202
100
AcDbEntity
  8
0
  6
ByBlock
100
AcDbLine
 10
1402.474244978286
 20
3414.814411033823
 30
0.0
 11
1703.214951364911
 21
3414.814411033823
 31
0.0
  0
LINE
  5
7ED4
330
8202
100
AcDbEntity
  8
0
  6
ByBlock
100
AcDbLine
 10
1402.474244978286
 20
2614.814411033822
 30
0.0
 11
1703.214951364911
 21
2614.814411033822
 31
0.0
  0
LINE
  5
7ED5
330
8202
100
AcDbEntity
  8
0
  6
ByBlock
100
AcDbLine
 10
1673.214951364911
 20
3354.814411033823
 30
0.0
 11
1673.214951364911
 21
2674.814411033822
 31
0.0
  0
INSERT
  5
7ED6
330
8202
100
AcDbEntity
  8
0
  6
ByBlock
100
AcDbBlockReference
  2
_OPEN
 10
1673.214951364911
 20
3414.814411033823
 30
0.0
 41
60.0
 42
60.0
 43
60.0
 50
90.0
  0
INSERT
  5
7ED7
330
8202
100
AcDbEntity
  8
0
  6
ByBlock
100
AcDbBlockReference
  2
_OPEN
 10
1673.214951364911
 20
2614.814411033822
 30
0.0
 41
60.0
 42
60.0
 43
60.0
 50
270.0
  0
TEXT
  5
7ED8
330
8202
100
AcDbEntity
  8
3
100
AcDbText
 10
1658.21495136491
 20
2899.100125319537
 30
0.0
 40
90.0
  1
800
 50
90.0
100
AcDbText
  0
POINT
  5
7ED9
330
8202
100
AcDbEntity
  8
DEFPOINTS
  6
ByBlock
 62
     0
100
AcDbPoint
 10
1372.474244978286
 20
3414.814411033823
 30
0.0
  0
POINT
  5
7EDA
330
8202
100
AcDbEntity
  8
DEFPOINTS
  6
ByBlock
 62
     0
100
AcDbPoint
 10
1372.474244978286
 20
2614.814411033822
 30
0.0
  0
POINT
  5
7EDB
330
8202
100
AcDbEntity
  8
DEFPOINTS
  6
ByBlock
 62
     0
100
AcDbPoint
 10
1673.214951364911
 20
2614.814411033822
 30
0.0
  0
ENDBLK
  5
7EDC
330
8202
100
AcDbEntity
  8
0
100
AcDbBlockEnd
  0
BLOCK
  5
8205
330
8204
100
AcDbEntity
  8
0
100
AcDbBlockBegin
  2
*D15
 70
     1
 10
0.0
 20
0.0
 30
0.0
  3
*D15
  1

  0
LINE
  5
7EDE
330
8204
100
AcDbEntity
  8
0
  6
ByBlock
100
AcDbLine
 10
4060.305828611461
 20
-194.8219045855367
 30
0.0
 11
4378.696822439597
 21
-194.8219045855367
 31
0.0
  0
LINE
  5
7EDF
330
8204
100
AcDbEntity
  8
0
  6
ByBlock
100
AcDbLine
 10
4060.305828611461
 20
755.1780954144633
 30
0.0
 11
4378.696822439597
 21
755.1780954144633
 31
0.0
  0
LINE
  5
7EE0
330
8204
100
AcDbEntity
  8
0
  6
ByBlock
100
AcDbLine
 10
4348.696822439597
 20
-134.8219045855366
 30
0.0
 11
4348.696822439597
 21
695.1780954144632
 31
0.0
  0
INSERT
  5
7EE1
330
8204
100
AcDbEntity
  8
0
  6
ByBlock
100
AcDbBlockReference
  2
_OPEN
 10
4348.696822439597
 20
-194.8219045855367
 30
0.0
 41
60.0
 42
60.0
 43
60.0
 50
270.0
  0
INSERT
  5
7EE2
330
8204
100
AcDbEntity
  8
0
  6
ByBlock
100
AcDbBlockReference
  2
_OPEN
 10
4348.696822439597
 20
755.1780954144633
 30
0.0
 41
60.0
 42
60.0
 43
60.0
 50
90.0
  0
TEXT
  5
7EE3
330
8204
100
AcDbEntity
  8
3
100
AcDbText
 10
4333.696822439597
 20
119.4638097001776
 30
0.0
 40
90.0
  1
\U+03C6950
 50
90.0
100
AcDbText
  0
POINT
  5
7EE4
330
8204
100
AcDbEntity
  8
DEFPOINTS
  6
ByBlock
 62
     0
100
AcDbPoint
 10
4030.305828611463
 20
-194.8219045855367
 30
0.0
  0
POINT
  5
7EE5
330
8204
100
AcDbEntity
  8
DEFPOINTS
  6
ByBlock
 62
     0
100
AcDbPoint
 10
4030.305828611463
 20
755.1780954144633
 30
0.0
  0
POINT
  5
7EE6
330
8204
100
AcDbEntity
  8
DEFPOINTS
  6
ByBlock
 62
     0
100
AcDbPoint
 10
4348.696822439597
 20
755.1780954144633
 30
0.0
  0
ENDBLK
  5
7EE7
330
8204
100
AcDbEntity
  8
0
100
AcDbBlockEnd
  0
BLOCK
  5
8207
330
8206
100
AcDbEntity
  8
0
100
AcDbBlockBegin
  2
*D16
 70
     1
 10
0.0
 20
0.0
 30
0.0
  3
*D16
  1

  0
LINE
  5
7EE9
330
8206
100
AcDbEntity
  8
0
  6
ByBlock
100
AcDbLine
 10
25.97424497828797
 20
900.1780954144633
 30
0.0
 11
-835.4627403169741
 21
900.1780954144633
 31
0.0
  0
LINE
  5
7EEA
330
8206
100
AcDbEntity
  8
0
  6
ByBlock
100
AcDbLine
 10
-623.7810938002585
 20
280.1780954144632
 30
0.0
 11
-835.4627403169741
 21
280.1780954144632
 31
0.0
  0
LINE
  5
7EEB
330
8206
100
AcDbEntity
  8
0
  6
ByBlock
100
AcDbLine
 10
-805.4627403169742
 20
840.1780954144633
 30
0.0
 11
-805.4627403169742
 21
340.1780954144633
 31
0.0
  0
INSERT
  5
7EEC
330
8206
100
AcDbEntity
  8
0
  6
ByBlock
100
AcDbBlockReference
  2
_OPEN
 10
-805.4627403169742
 20
900.1780954144633
 30
0.0
 41
60.0
 42
60.0
 43
60.0
 50
90.0
  0
INSERT
  5
7EED
330
8206
100
AcDbEntity
  8
0
  6
ByBlock
100
AcDbBlockReference
  2
_OPEN
 10
-805.4627403169742
 20
280.1780954144632
 30
0.0
 41
60.0
 42
60.0
 43
60.0
 50
270.0
  0
TEXT
  5
7EEE
330
8206
100
AcDbEntity
  8
3
100
AcDbText
 10
-820.4627403169741
 20
474.4638097001775
 30
0.0
 40
90.0
  1
620
 50
90.0
100
AcDbText
  0
POINT
  5
7EEF
330
8206
100
AcDbEntity
  8
DEFPOINTS
  6
ByBlock
 62
     0
100
AcDbPoint
 10
55.97424497828797
 20
900.1780954144633
 30
0.0
  0
POINT
  5
7EF0
330
8206
100
AcDbEntity
  8
DEFPOINTS
  6
ByBlock
 62
     0
100
AcDbPoint
 10
-593.7810938002585
 20
280.1780954144632
 30
0.0
  0
POINT
  5
7EF1
330
8206
100
AcDbEntity
  8
DEFPOINTS
  6
ByBlock
 62
     0
100
AcDbPoint
 10
-805.4627403169742
 20
280.1780954144632
 30
0.0
  0
ENDBLK
  5
7EF2
330
8206
100
AcDbEntity
  8
0
100
AcDbBlockEnd
  0
BLOCK
  5
8209
330
8208
100
AcDbEntity
  8
0
100
AcDbBlockBegin
  2
*D17
 70
     1
 10
0.0
 20
0.0
 30
0.0
  3
*D17
  1

  0
LINE
  5
8143
330
8208
100
AcDbEntity
  8
3
100
AcDbLine
 10
1027.667648392392
 20
2144.815599437068
 30
0.0
 11
719.7306630971304
 21
2144.815599437068
 31
0.0
  0
LINE
  5
8144
330
8208
100
AcDbEntity
  8
3
100
AcDbLine
 10
749.7306630971309
 20
2904.815599437068
 30
0.0
 11
749.7306630971304
 21
2204.815599437068
 31
0.0
  0
INSERT
  5
8145
330
8208
100
AcDbEntity
  8
3
100
AcDbBlockReference
  2
_OPEN
 10
749.7306630971309
 20
2964.815599437068
 30
0.0
 41
60.0
 42
60.0
 43
60.0
 50
90.0
  0
INSERT
  5
8146
330
8208
100
AcDbEntity
  8
3
100
AcDbBlockReference
  2
_OPEN
 10
749.7306630971304
 20
2144.815599437068
 30
0.0
 41
60.0
 42
60.0
 43
60.0
 50
270.0
  0
TEXT
  5
8166
330
8208
100
AcDbEntity
  8
3
100
AcDbText
 10
509.731
 20
2395.52
 30
0.0
 40
90.0
  1
820
100
AcDbText
  0
POINT
  5
8148
330
8208
100
AcDbEntity
  8
DEFPOINTS
 62
     0
100
AcDbPoint
 10
961.4123096138465
 20
2964.815599437068
 30
0.0
  0
POINT
  5
8149
330
8208
100
AcDbEntity
  8
DEFPOINTS
 62
     0
100
AcDbPoint
 10
1057.667648392393
 20
2144.815599437068
 30
0.0
  0
POINT
  5
814A
330
8208
100
AcDbEntity
  8
DEFPOINTS
 62
     0
100
AcDbPoint
 10
749.7306630971304
 20
2144.815599437068
 30
0.0
  0
ENDBLK
  5
7EFC
330
8208
100
AcDbEntity
  8
0
100
AcDbBlockEnd
  0
BLOCK
  5
820B
330
820A
100
AcDbEntity
  8
0
100
AcDbBlockBegin
  2
*D18
 70
     1
 10
0.0
 20
0.0
 30
0.0
  3
*D18
  1

  0
LINE
  5
814B
330
820A
100
AcDbEntity
  8
3
 62
     0
100
AcDbLine
 10
1042.667648392391
 20
2029.815599437068
 30
0.0
 11
719.7306630971304
 21
2029.815599437068
 31
0.0
  0
LINE
  5
814C
330
820A
100
AcDbEntity
  8
3
 62
     0
100
AcDbLine
 10
1042.667648392391
 20
1929.815599437068
 30
0.0
 11
719.7306630971304
 21
1929.815599437068
 31
0.0
  0
LINE
  5
814D
330
820A
100
AcDbEntity
  8
3
 62
     0
100
AcDbLine
 10
749.7306630971304
 20
2089.815599437068
 30
0.0
 11
749.7306630971304
 21
2149.815599437068
 31
0.0
  0
LINE
  5
814E
330
820A
100
AcDbEntity
  8
3
 62
     0
100
AcDbLine
 10
749.7306630971304
 20
1869.815599437068
 30
0.0
 11
749.7306630971304
 21
1535.529885151354
 31
0.0
  0
LINE
  5
814F
330
820A
100
AcDbEntity
  8
3
 62
     0
100
AcDbLine
 10
749.7306630971304
 20
2029.815599437068
 30
0.0
 11
749.7306630971304
 21
1929.815599437068
 31
0.0
  0
INSERT
  5
8150
330
820A
100
AcDbEntity
  8
3
 62
     0
100
AcDbBlockReference
  2
_DOT
 10
749.7306630971304
 20
2029.815599437068
 30
0.0
 41
60.0
 42
60.0
 43
60.0
 50
270.0
  0
INSERT
  5
8151
330
820A
100
AcDbEntity
  8
3
 62
     0
100
AcDbBlockReference
  2
_OPEN
 10
749.7306630971304
 20
1929.815599437068
 30
0.0
 41
60.0
 42
60.0
 43
60.0
 50
90.0
  0
TEXT
  5
8167
330
820A
100
AcDbEntity
  8
3
 62
     0
100
AcDbText
 10
494.7309999999999
 20
1513.37
 30
0.0
 40
90.0
  1
100
100
AcDbText
  0
POINT
  5
8153
330
820A
100
AcDbEntity
  8
DEFPOINTS
 62
     0
100
AcDbPoint
 10
1057.66764839239
 20
2029.815599437068
 30
0.0
  0
POINT
  5
8154
330
820A
100
AcDbEntity
  8
DEFPOINTS
 62
     0
100
AcDbPoint
 10
1057.66764839239
 20
1929.815599437068
 30
0.0
  0
POINT
  5
8155
330
820A
100
AcDbEntity
  8
DEFPOINTS
 62
     0
100
AcDbPoint
 10
749.7306630971304
 20
1929.815599437068
 30
0.0
  0
ENDBLK
  5
7FC1
330
820A
100
AcDbEntity
  8
0
100
AcDbBlockEnd
  0
BLOCK
  5
820F
330
820C
100
AcDbEntity
  8
0
100
AcDbBlockBegin
  2
_DOT
 70
     0
 10
0.0
 20
0.0
 30
0.0
  3
_DOT
  1

  0
LWPOLYLINE
  5
7FD1
330
820C
100
AcDbEntity
  8
0
  6
ByBlock
 62
     0
100
AcDbPolyline
 90
        2
 70
     1
 43
0.25
 10
-0.125
 20
0.0
 42
1.0
 10
0.125
 20
0.0
 42
1.0
  0
LINE
  5
7FD5
330
820C
100
AcDbEntity
  8
0
  6
ByBlock
 62
     0
100
AcDbLine
 10
-0.25
 20
0.0
 30
0.0
 11
-1.0
 21
0.0
 31
0.0
  0
ENDBLK
  5
7FB4
330
820C
100
AcDbEntity
  8
0
100
AcDbBlockEnd
  0
BLOCK
  5
820E
330
820D
100
AcDbEntity
  8
0
100
AcDbBlockBegin
  2
*D20
 70
     1
 10
0.0
 20
0.0
 30
0.0
  3
*D20
  1

  0
LINE
  5
8156
330
820D
100
AcDbEntity
  8
3
100
AcDbLine
 10
974.6676483923927
 20
2927.815599437068
 30
0.0
 11
974.6676483923931
 21
3914.774007978142
 31
0.0
  0
LINE
  5
8157
330
820D
100
AcDbEntity
  8
3
100
AcDbLine
 10
1557.667648392393
 20
3884.774007978141
 30
0.0
 11
1034.667648392392
 21
3884.774007978141
 31
0.0
  0
INSERT
  5
8158
330
820D
100
AcDbEntity
  8
3
100
AcDbBlockReference
  2
_OPEN
 10
1617.667648392393
 20
3884.774007978141
 30
0.0
 41
60.0
 42
60.0
 43
60.0
  0
INSERT
  5
8159
330
820D
100
AcDbEntity
  8
3
100
AcDbBlockReference
  2
_OPEN
 10
974.6676483923931
 20
3884.774007978141
 30
0.0
 41
60.0
 42
60.0
 43
60.0
 50
180.0
  0
TEXT
  5
8168
330
820D
100
AcDbEntity
  8
3
100
AcDbText
 10
1116.17
 20
3785.47
 30
0.0
 40
90.0
  1
643
100
AcDbText
  0
POINT
  5
815B
330
820D
100
AcDbEntity
  8
DEFPOINTS
 62
     0
100
AcDbPoint
 10
1617.667648392393
 20
3621.070938215615
 30
0.0
  0
POINT
  5
815C
330
820D
100
AcDbEntity
  8
DEFPOINTS
 62
     0
100
AcDbPoint
 10
974.6676483923927
 20
2897.815599437068
 30
0.0
  0
POINT
  5
815D
330
820D
100
AcDbEntity
  8
DEFPOINTS
 62
     0
100
AcDbPoint
 10
974.6676483923931
 20
3884.774007978141
 30
0.0
  0
ENDBLK
  5
7F2A
330
820D
100
AcDbEntity
  8
0
100
AcDbBlockEnd
  0
BLOCK
  5
8211
330
8210
100
AcDbEntity
  8
0
100
AcDbBlockBegin
  2
*D21
 70
     1
 10
0.0
 20
0.0
 30
0.0
  3
*D21
  1

  0
LINE
  5
8041
330
8210
100
AcDbEntity
  8
0
  6
ByBlock
 62
     0
100
AcDbLine
 10
1057.66764839239
 20
1987.815599437068
 30
0.0
 11
1057.66764839239
 21
1782.444351636742
 31
0.0
  0
LINE
  5
8042
330
8210
100
AcDbEntity
  8
0
  6
ByBlock
 62
     0
100
AcDbLine
 10
1617.667648392393
 20
1987.815599437068
 30
0.0
 11
1617.667648392393
 21
1782.444351636742
 31
0.0
  0
LINE
  5
8043
330
8210
100
AcDbEntity
  8
0
  6
ByBlock
 62
     0
100
AcDbLine
 10
1117.667648392391
 20
1812.444351636743
 30
0.0
 11
1557.667648392393
 21
1812.444351636743
 31
0.0
  0
INSERT
  5
8044
330
8210
100
AcDbEntity
  8
0
  6
ByBlock
 62
     0
100
AcDbBlockReference
  2
_OPEN
 10
1057.66764839239
 20
1812.444351636743
 30
0.0
 41
60.0
 42
60.0
 43
60.0
 50
180.0
  0
INSERT
  5
8045
330
8210
100
AcDbEntity
  8
0
  6
ByBlock
 62
     0
100
AcDbBlockReference
  2
_OPEN
 10
1617.667648392393
 20
1812.444351636743
 30
0.0
 41
60.0
 42
60.0
 43
60.0
  0
TEXT
  5
8046
330
8210
100
AcDbEntity
  8
3
 62
     0
100
AcDbText
 10
1221.953362678106
 20
1842.444351636743
 30
0.0
 40
90.0
  1
560
100
AcDbText
  0
POINT
  5
8047
330
8210
100
AcDbEntity
  8
DEFPOINTS
  6
ByBlock
 62
     0
100
AcDbPoint
 10
1057.66764839239
 20
2017.815599437068
 30
0.0
  0
POINT
  5
8048
330
8210
100
AcDbEntity
  8
DEFPOINTS
  6
ByBlock
 62
     0
100
AcDbPoint
 10
1617.667648392393
 20
2017.815599437068
 30
0.0
  0
POINT
  5
8049
330
8210
100
AcDbEntity
  8
DEFPOINTS
  6
ByBlock
 62
     0
100
AcDbPoint
 10
1617.667648392393
 20
1812.444351636743
 30
0.0
  0
ENDBLK
  5
804A
330
8210
100
AcDbEntity
  8
0
100
AcDbBlockEnd
  0
BLOCK
  5
8213
330
8212
100
AcDbEntity
  8
0
100
AcDbBlockBegin
  2
*D22
 70
     1
 10
0.0
 20
0.0
 30
0.0
  3
*D22
  1

  0
LINE
  5
804E
330
8212
100
AcDbEntity
  8
0
  6
ByBlock
 62
     0
100
AcDbLine
 10
1617.667648392393
 20
1987.815599437068
 30
0.0
 11
1617.667648392393
 21
1782.444351636742
 31
0.0
  0
LINE
  5
804F
330
8212
100
AcDbEntity
  8
0
  6
ByBlock
 62
     0
100
AcDbLine
 10
2927.667648392393
 20
1987.815599437068
 30
0.0
 11
2927.667648392393
 21
1782.444351636742
 31
0.0
  0
LINE
  5
8050
330
8212
100
AcDbEntity
  8
0
  6
ByBlock
 62
     0
100
AcDbLine
 10
1677.667648392393
 20
1812.444351636743
 30
0.0
 11
2867.667648392393
 21
1812.444351636743
 31
0.0
  0
INSERT
  5
8051
330
8212
100
AcDbEntity
  8
0
  6
ByBlock
 62
     0
100
AcDbBlockReference
  2
_OPEN
 10
1617.667648392393
 20
1812.444351636743
 30
0.0
 41
60.0
 42
60.0
 43
60.0
 50
180.0
  0
INSERT
  5
8052
330
8212
100
AcDbEntity
  8
0
  6
ByBlock
 62
     0
100
AcDbBlockReference
  2
_OPEN
 10
2927.667648392393
 20
1812.444351636743
 30
0.0
 41
60.0
 42
60.0
 43
60.0
  0
TEXT
  5
8053
330
8212
100
AcDbEntity
  8
3
 62
     0
100
AcDbText
 10
2131.239076963821
 20
1842.444351636743
 30
0.0
 40
90.0
  1
1310
100
AcDbText
  0
POINT
  5
8054
330
8212
100
AcDbEntity
  8
DEFPOINTS
  6
ByBlock
 62
     0
100
AcDbPoint
 10
1617.667648392393
 20
2017.815599437068
 30
0.0
  0
POINT
  5
8055
330
8212
100
AcDbEntity
  8
DEFPOINTS
  6
ByBlock
 62
     0
100
AcDbPoint
 10
2927.667648392393
 20
2017.815599437068
 30
0.0
  0
POINT
  5
8056
330
8212
100
AcDbEntity
  8
DEFPOINTS
  6
ByBlock
 62
     0
100
AcDbPoint
 10
2927.667648392393
 20
1812.444351636743
 30
0.0
  0
ENDBLK
  5
8057
330
8212
100
AcDbEntity
  8
0
100
AcDbBlockEnd
  0
BLOCK
  5
8215
330
8214
100
AcDbEntity
  8
0
100
AcDbBlockBegin
  2
*D23
 70
     1
 10
0.0
 20
0.0
 30
0.0
  3
*D23
  1

  0
LINE
  5
805B
330
8214
100
AcDbEntity
  8
0
  6
ByBlock
 62
     0
100
AcDbLine
 10
4020.379544961135
 20
1987.815599437068
 30
0.0
 11
4020.379544961135
 21
1782.444351636742
 31
0.0
  0
LINE
  5
805C
330
8214
100
AcDbEntity
  8
0
  6
ByBlock
 62
     0
100
AcDbLine
 10
4782.379544961155
 20
1987.815599437068
 30
0.0
 11
4782.379544961155
 21
1782.444351636742
 31
0.0
  0
LINE
  5
805D
330
8214
100
AcDbEntity
  8
0
  6
ByBlock
 62
     0
100
AcDbLine
 10
4080.379544961137
 20
1812.444351636743
 30
0.0
 11
4722.379544961154
 21
1812.444351636743
 31
0.0
  0
INSERT
  5
805E
330
8214
100
AcDbEntity
  8
0
  6
ByBlock
 62
     0
100
AcDbBlockReference
  2
_OPEN
 10
4020.379544961135
 20
1812.444351636743
 30
0.0
 41
60.0
 42
60.0
 43
60.0
 50
180.0
  0
INSERT
  5
805F
330
8214
100
AcDbEntity
  8
0
  6
ByBlock
 62
     0
100
AcDbBlockReference
  2
_OPEN
 10
4782.379544961155
 20
1812.444351636743
 30
0.0
 41
60.0
 42
60.0
 43
60.0
  0
TEXT
  5
8060
330
8214
100
AcDbEntity
  8
3
 62
     0
100
AcDbText
 10
4285.665259246861
 20
1842.444351636743
 30
0.0
 40
90.0
  1
762
100
AcDbText
  0
POINT
  5
8061
330
8214
100
AcDbEntity
  8
DEFPOINTS
  6
ByBlock
 62
     0
100
AcDbPoint
 10
4020.379544961135
 20
2017.815599437068
 30
0.0
  0
POINT
  5
8062
330
8214
100
AcDbEntity
  8
DEFPOINTS
  6
ByBlock
 62
     0
100
AcDbPoint
 10
4782.379544961155
 20
2017.815599437068
 30
0.0
  0
POINT
  5
8063
330
8214
100
AcDbEntity
  8
DEFPOINTS
  6
ByBlock
 62
     0
100
AcDbPoint
 10
4782.379544961155
 20
1812.444351636743
 30
0.0
  0
ENDBLK
  5
8064
330
8214
100
AcDbEntity
  8
0
100
AcDbBlockEnd
  0
BLOCK
  5
8217
330
8216
100
AcDbEntity
  8
0
100
AcDbBlockBegin
  2
*D24
 70
     1
 10
0.0
 20
0.0
 30
0.0
  3
*D24
  1

  0
LINE
  5
8068
330
8216
100
AcDbEntity
  8
0
  6
ByBlock
 62
     0
100
AcDbLine
 10
4782.379544961155
 20
1987.815599437068
 30
0.0
 11
4782.379544961155
 21
1782.444351636742
 31
0.0
  0
LINE
  5
8069
330
8216
100
AcDbEntity
  8
0
  6
ByBlock
 62
     0
100
AcDbLine
 10
5395.379544961155
 20
1987.815599437068
 30
0.0
 11
5395.379544961155
 21
1782.444351636742
 31
0.0
  0
LINE
  5
806A
330
8216
100
AcDbEntity
  8
0
  6
ByBlock
 62
     0
100
AcDbLine
 10
4842.379544961154
 20
1812.444351636743
 30
0.0
 11
5335.379544961154
 21
1812.444351636743
 31
0.0
  0
INSERT
  5
806B
330
8216
100
AcDbEntity
  8
0
  6
ByBlock
 62
     0
100
AcDbBlockReference
  2
_OPEN
 10
4782.379544961155
 20
1812.444351636743
 30
0.0
 41
60.0
 42
60.0
 43
60.0
 50
180.0
  0
INSERT
  5
806C
330
8216
100
AcDbEntity
  8
0
  6
ByBlock
 62
     0
100
AcDbBlockReference
  2
_OPEN
 10
5395.379544961155
 20
1812.444351636743
 30
0.0
 41
60.0
 42
60.0
 43
60.0
  0
TEXT
  5
806D
330
8216
100
AcDbEntity
  8
3
 62
     0
100
AcDbText
 10
4981.736687818298
 20
1842.444351636743
 30
0.0
 40
90.0
  1
613
100
AcDbText
  0
POINT
  5
806E
330
8216
100
AcDbEntity
  8
DEFPOINTS
  6
ByBlock
 62
     0
100
AcDbPoint
 10
4782.379544961155
 20
2017.815599437068
 30
0.0
  0
POINT
  5
806F
330
8216
100
AcDbEntity
  8
DEFPOINTS
  6
ByBlock
 62
     0
100
AcDbPoint
 10
5395.379544961155
 20
2017.815599437068
 30
0.0
  0
POINT
  5
8070
330
8216
100
AcDbEntity
  8
DEFPOINTS
  6
ByBlock
 62
     0
100
AcDbPoint
 10
5395.379544961155
 20
1812.444351636743
 30
0.0
  0
ENDBLK
  5
8071
330
8216
100
AcDbEntity
  8
0
100
AcDbBlockEnd
  0
BLOCK
  5
8219
330
8218
100
AcDbEntity
  8
0
100
AcDbBlockBegin
  2
_NONE
 70
     0
 10
0.0
 20
0.0
 30
0.0
  3
_NONE
  1

  0
CIRCLE
  5
8075
330
8218
100
AcDbEntity
  8
0
  6
ByBlock
 62
     0
100
AcDbCircle
 10
0.0
 20
0.0
 30
0.0
 40
0.25
  0
ENDBLK
  5
8076
330
8218
100
AcDbEntity
  8
0
100
AcDbBlockEnd
  0
BLOCK
  5
821B
330
821A
100
AcDbEntity
  8
0
100
AcDbBlockBegin
  2
*D26
 70
     1
 10
0.0
 20
0.0
 30
0.0
  3
*D26
  1

  0
LINE
  5
80C8
330
821A
100
AcDbEntity
  8
0
  6
ByBlock
 62
     0
100
AcDbLine
 10
752.6729139929484
 20
2029.815599437068
 30
0.0
 11
752.6729139929484
 21
2144.815599437068
 31
0.0
  0
TEXT
  5
80C9
330
821A
100
AcDbEntity
  8
3
 62
     0
100
AcDbText
 10
639.1014854215199
 20
1930.887028008496
 30
0.0
 40
90.0
  1
(115)
 50
90.0
100
AcDbText
  0
POINT
  5
80CA
330
821A
100
AcDbEntity
  8
DEFPOINTS
  6
ByBlock
 62
     0
100
AcDbPoint
 10
1057.66764839239
 20
2029.815599437068
 30
0.0
  0
POINT
  5
80CB
330
821A
100
AcDbEntity
  8
DEFPOINTS
  6
ByBlock
 62
     0
100
AcDbPoint
 10
1057.667648392393
 20
2144.815599437068
 30
0.0
  0
POINT
  5
80CC
330
821A
100
AcDbEntity
  8
DEFPOINTS
  6
ByBlock
 62
     0
100
AcDbPoint
 10
752.6729139929484
 20
2144.815599437068
 30
0.0
  0
ENDBLK
  5
80CD
330
821A
100
AcDbEntity
  8
0
100
AcDbBlockEnd
  0
BLOCK
  5
821D
330
821C
100
AcDbEntity
  8
0
100
AcDbBlockBegin
  2
*D27
 70
     1
 10
0.0
 20
0.0
 30
0.0
  3
*D27
  1

  0
LINE
  5
80D1
330
821C
100
AcDbEntity
  8
0
  6
ByBlock
 62
     0
100
AcDbLine
 10
1027.66764839239
 20
1929.815599437068
 30
0.0
 11
466.4564292242212
 21
1929.815599437068
 31
0.0
  0
LINE
  5
80D2
330
821C
100
AcDbEntity
  8
0
  6
ByBlock
 62
     0
100
AcDbLine
 10
1581.167648392393
 20
3584.815599437068
 30
0.0
 11
466.4564292242212
 21
3584.815599437068
 31
0.0
  0
LINE
  5
80D3
330
821C
100
AcDbEntity
  8
0
  6
ByBlock
 62
     0
100
AcDbLine
 10
496.4564292242211
 20
1989.815599437068
 30
0.0
 11
496.4564292242211
 21
3524.815599437068
 31
0.0
  0
INSERT
  5
80D4
330
821C
100
AcDbEntity
  8
0
  6
ByBlock
 62
     0
100
AcDbBlockReference
  2
_OPEN
 10
496.4564292242211
 20
1929.815599437068
 30
0.0
 41
60.0
 42
60.0
 43
60.0
 50
270.0
  0
INSERT
  5
80D5
330
821C
100
AcDbEntity
  8
0
  6
ByBlock
 62
     0
100
AcDbBlockReference
  2
_OPEN
 10
496.4564292242211
 20
3584.815599437068
 30
0.0
 41
60.0
 42
60.0
 43
60.0
 50
90.0
  0
TEXT
  5
80D6
330
821C
100
AcDbEntity
  8
3
 62
     0
100
AcDbText
 10
427.8850006527926
 20
2549.458456579925
 30
0.0
 40
90.0
  1
(1655)
 50
90.0
100
AcDbText
  0
POINT
  5
80D7
330
821C
100
AcDbEntity
  8
DEFPOINTS
  6
ByBlock
 62
     0
100
AcDbPoint
 10
1057.66764839239
 20
1929.815599437068
 30
0.0
  0
POINT
  5
80D8
330
821C
100
AcDbEntity
  8
DEFPOINTS
  6
ByBlock
 62
     0
100
AcDbPoint
 10
1611.167648392393
 20
3584.815599437068
 30
0.0
  0
POINT
  5
80D9
330
821C
100
AcDbEntity
  8
DEFPOINTS
  6
ByBlock
 62
     0
100
AcDbPoint
 10
496.4564292242211
 20
3584.815599437068
 30
0.0
  0
ENDBLK
  5
80DA
330
821C
100
AcDbEntity
  8
0
100
AcDbBlockEnd
  0
BLOCK
  5
8222
330
8221
100
AcDbEntity
  8
0
100
AcDbBlockBegin
  2
*D28
 70
     1
 10
0.0
 20
0.0
 30
0.0
  3
*D28
  1

  0
LINE
  5
82A5
330
8221
100
AcDbEntity
  8
3
 62
     0
370
    -2
100
AcDbLine
 10
3832.379544961153
 20
3274.815599437067
 30
0.0
 11
3832.379544961153
 21
4018.542652281859
 31
0.0
  0
LINE
  5
82A6
330
8221
100
AcDbEntity
  8
3
 62
     0
370
    -2
100
AcDbLine
 10
4782.379544961156
 20
3913.007552970695
 30
0.0
 11
4782.379544961156
 21
4018.542652281859
 31
0.0
  0
LINE
  5
82A7
330
8221
100
AcDbEntity
  8
3
 62
     0
370
    -2
100
AcDbLine
 10
3892.379544961153
 20
3988.54265228186
 30
0.0
 11
4722.379544961156
 21
3988.54265228186
 31
0.0
  0
INSERT
  5
82A8
330
8221
100
AcDbEntity
  8
3
 62
     0
370
    -2
100
AcDbBlockReference
  2
_OPEN
 10
3832.379544961153
 20
3988.54265228186
 30
0.0
 41
60.0
 42
60.0
 43
60.0
 50
180.0
  0
INSERT
  5
82A9
330
8221
100
AcDbEntity
  8
3
 62
     0
370
    -2
100
AcDbBlockReference
  2
_OPEN
 10
4782.379544961156
 20
3988.54265228186
 30
0.0
 41
60.0
 42
60.0
 43
60.0
  0
MTEXT
  5
82AA
330
8221
100
AcDbEntity
  8
3
 62
     0
100
AcDbMText
 10
4307.379544961154
 20
4087.114080853289
 30
0.0
 40
90.0
 41
0.0
 71
     5
 72
     1
  1
\A1;(950)
 73
     1
 44
1.0
1001
ACAD
1000
MTEXTBEGIN
1070
    73
1070
     1
1070
    44
1040
1.0
1070
    74
1070
     0
1000
MTEXTEND
  0
POINT
  5
82AB
330
8221
100
AcDbEntity
  8
DEFPOINTS
 62
     0
100
AcDbPoint
 10
3832.379544961153
 20
3244.815599437067
 30
0.0
  0
POINT
  5
82AC
330
8221
100
AcDbEntity
  8
DEFPOINTS
 62
     0
100
AcDbPoint
 10
4782.379544961156
 20
3883.007552970695
 30
0.0
  0
POINT
  5
82AD
330
8221
100
AcDbEntity
  8
DEFPOINTS
 62
     0
100
AcDbPoint
 10
4782.379544961156
 20
3988.54265228186
 30
0.0
  0
ENDBLK
  5
8223
330
8221
100
AcDbEntity
  8
0
100
AcDbBlockEnd
  0
BLOCK
  5
822F
330
822E
100
AcDbEntity
  8
0
100
AcDbBlockBegin
  2
*D29
 70
     1
 10
0.0
 20
0.0
 30
0.0
  3
*D29
  1

  0
LINE
  5
82AE
330
822E
100
AcDbEntity
  8
3
 62
     0
370
    -2
100
AcDbLine
 10
4782.379544961156
 20
3913.007552970695
 30
0.0
 11
4782.379544961156
 21
4018.542652281859
 31
0.0
  0
LINE
  5
82AF
330
822E
100
AcDbEntity
  8
3
 62
     0
370
    -2
100
AcDbLine
 10
5462.379544961154
 20
2955.315599437068
 30
0.0
 11
5462.379544961154
 21
4018.542652281859
 31
0.0
  0
LINE
  5
82B0
330
822E
100
AcDbEntity
  8
3
 62
     0
370
    -2
100
AcDbLine
 10
4842.379544961156
 20
3988.54265228186
 30
0.0
 11
5402.379544961155
 21
3988.54265228186
 31
0.0
  0
INSERT
  5
82B1
330
822E
100
AcDbEntity
  8
3
 62
     0
370
    -2
100
AcDbBlockReference
  2
_OPEN
 10
4782.379544961156
 20
3988.54265228186
 30
0.0
 41
60.0
 42
60.0
 43
60.0
 50
180.0
  0
INSERT
  5
82B2
330
822E
100
AcDbEntity
  8
3
 62
     0
370
    -2
100
AcDbBlockReference
  2
_OPEN
 10
5462.379544961154
 20
3988.54265228186
 30
0.0
 41
60.0
 42
60.0
 43
60.0
  0
MTEXT
  5
82B3
330
822E
100
AcDbEntity
  8
3
 62
     0
100
AcDbMText
 10
5122.379544961155
 20
4087.114080853289
 30
0.0
 40
90.0
 41
0.0
 71
     5
 72
     1
  1
\A1;(680)
 73
     1
 44
1.0
1001
ACAD
1000
MTEXTBEGIN
1070
    73
1070
     1
1070
    44
1040
1.0
1070
    74
1070
     0
1000
MTEXTEND
  0
POINT
  5
82B4
330
822E
100
AcDbEntity
  8
DEFPOINTS
 62
     0
100
AcDbPoint
 10
4782.379544961156
 20
3883.007552970695
 30
0.0
  0
POINT
  5
82B5
330
822E
100
AcDbEntity
  8
DEFPOINTS
 62
     0
100
AcDbPoint
 10
5462.379544961154
 20
2925.315599437068
 30
0.0
  0
POINT
  5
82B6
330
822E
100
AcDbEntity
  8
DEFPOINTS
 62
     0
100
AcDbPoint
 10
5462.379544961154
 20
3988.54265228186
 30
0.0
  0
ENDBLK
  5
8230
330
822E
100
AcDbEntity
  8
0
100
AcDbBlockEnd
  0
BLOCK
  5
823B
330
823A
100
AcDbEntity
  8
0
100
AcDbBlockBegin
  2
*D30
 70
     1
 10
0.0
 20
0.0
 30
0.0
  3
*D30
  1

  0
LINE
  5
823D
330
823A
100
AcDbEntity
  8
3
 62
     0
370
    -2
100
AcDbLine
 10
1057.66764839239
 20
1909.815599437068
 30
0.0
 11
1057.66764839239
 21
1729.044351636742
 31
0.0
  0
LINE
  5
823E
330
823A
100
AcDbEntity
  8
3
 62
     0
370
    -2
100
AcDbLine
 10
1617.667648392393
 20
1909.815599437068
 30
0.0
 11
1617.667648392393
 21
1729.044351636742
 31
0.0
  0
LINE
  5
823F
330
823A
100
AcDbEntity
  8
3
 62
     0
370
    -2
100
AcDbLine
 10
1063.067648392391
 20
1734.444351636742
 30
0.0
 11
1328.024791249535
 21
1734.444351636742
 31
0.0
  0
LINE
  5
8240
330
823A
100
AcDbEntity
  8
3
 62
     0
370
    -2
100
AcDbLine
 10
1612.267648392393
 20
1734.444351636742
 30
0.0
 11
1347.310505535249
 21
1734.444351636742
 31
0.0
  0
SOLID
  5
8241
330
823A
100
AcDbEntity
  8
3
 62
     0
100
AcDbTrace
 10
1063.067648392391
 20
1735.344351636742
 30
0.0
 11
1063.067648392391
 21
1733.544351636742
 31
0.0
 12
1057.66764839239
 22
1734.444351636742
 32
0.0
 13
1057.66764839239
 23
1734.444351636742
 33
0.0
  0
SOLID
  5
8242
330
823A
100
AcDbEntity
  8
3
 62
     0
100
AcDbTrace
 10
1612.267648392393
 20
1735.344351636742
 30
0.0
 11
1612.267648392393
 21
1733.544351636742
 31
0.0
 12
1617.667648392393
 22
1734.444351636742
 32
0.0
 13
1617.667648392393
 23
1734.444351636742
 33
0.0
  0
MTEXT
  5
8243
330
823A
100
AcDbEntity
  8
3
 62
     0
100
AcDbMText
 10
1337.667648392392
 20
1734.444351636742
 30
0.0
 40
5.399999999999999
 41
0.0
 71
     5
 72
     1
  1
\A1;560
 73
     1
 44
1.0
1001
ACAD
1000
MTEXTBEGIN
1070
    73
1070
     1
1070
    44
1040
1.0
1070
    74
1070
     0
1000
MTEXTEND
  0
POINT
  5
8244
330
823A
100
AcDbEntity
  8
DEFPOINTS
 62
     0
100
AcDbPoint
 10
1057.66764839239
 20
1939.815599437068
 30
0.0
  0
POINT
  5
8245
330
823A
100
AcDbEntity
  8
DEFPOINTS
 62
     0
100
AcDbPoint
 10
1617.667648392393
 20
1939.815599437068
 30
0.0
  0
POINT
  5
8246
330
823A
100
AcDbEntity
  8
DEFPOINTS
 62
     0
100
AcDbPoint
 10
1617.667648392393
 20
1734.444351636742
 30
0.0
  0
ENDBLK
  5
823C
330
823A
100
AcDbEntity
  8
0
100
AcDbBlockEnd
  0
BLOCK
  5
8248
330
8247
100
AcDbEntity
  8
0
100
AcDbBlockBegin
  2
*D31
 70
     1
 10
0.0
 20
0.0
 30
0.0
  3
*D31
  1

  0
LINE
  5
824A
330
8247
100
AcDbEntity
  8
3
 62
     0
370
    -2
100
AcDbLine
 10
1617.667648392393
 20
1909.815599437068
 30
0.0
 11
1617.667648392393
 21
1729.044351636742
 31
0.0
  0
LINE
  5
824B
330
8247
100
AcDbEntity
  8
3
 62
     0
370
    -2
100
AcDbLine
 10
2927.667648392393
 20
1909.815599437068
 30
0.0
 11
2927.667648392393
 21
1729.044351636742
 31
0.0
  0
LINE
  5
824C
330
8247
100
AcDbEntity
  8
3
 62
     0
370
    -2
100
AcDbLine
 10
1623.067648392393
 20
1734.444351636742
 30
0.0
 11
2261.481934106679
 21
1734.444351636742
 31
0.0
  0
LINE
  5
824D
330
8247
100
AcDbEntity
  8
3
 62
     0
370
    -2
100
AcDbLine
 10
2922.267648392394
 20
1734.444351636742
 30
0.0
 11
2283.853362678107
 21
1734.444351636742
 31
0.0
  0
SOLID
  5
824E
330
8247
100
AcDbEntity
  8
3
 62
     0
100
AcDbTrace
 10
1623.067648392393
 20
1735.344351636742
 30
0.0
 11
1623.067648392393
 21
1733.544351636742
 31
0.0
 12
1617.667648392393
 22
1734.444351636742
 32
0.0
 13
1617.667648392393
 23
1734.444351636742
 33
0.0
  0
SOLID
  5
824F
330
8247
100
AcDbEntity
  8
3
 62
     0
100
AcDbTrace
 10
2922.267648392394
 20
1735.344351636742
 30
0.0
 11
2922.267648392394
 21
1733.544351636742
 31
0.0
 12
2927.667648392393
 22
1734.444351636742
 32
0.0
 13
2927.667648392393
 23
1734.444351636742
 33
0.0
  0
MTEXT
  5
8250
330
8247
100
AcDbEntity
  8
3
 62
     0
100
AcDbMText
 10
2272.667648392393
 20
1734.444351636742
 30
0.0
 40
5.399999999999999
 41
0.0
 71
     5
 72
     1
  1
\A1;1310
 73
     1
 44
1.0
1001
ACAD
1000
MTEXTBEGIN
1070
    73
1070
     1
1070
    44
1040
1.0
1070
    74
1070
     0
1000
MTEXTEND
  0
POINT
  5
8251
330
8247
100
AcDbEntity
  8
DEFPOINTS
 62
     0
100
AcDbPoint
 10
1617.667648392393
 20
1939.815599437068
 30
0.0
  0
POINT
  5
8252
330
8247
100
AcDbEntity
  8
DEFPOINTS
 62
     0
100
AcDbPoint
 10
2927.667648392393
 20
1939.815599437068
 30
0.0
  0
POINT
  5
8253
330
8247
100
AcDbEntity
  8
DEFPOINTS
 62
     0
100
AcDbPoint
 10
2927.667648392393
 20
1734.444351636742
 30
0.0
  0
ENDBLK
  5
8249
330
8247
100
AcDbEntity
  8
0
100
AcDbBlockEnd
  0
BLOCK
  5
8255
330
8254
100
AcDbEntity
  8
0
100
AcDbBlockBegin
  2
*D32
 70
     1
 10
0.0
 20
0.0
 30
0.0
  3
*D32
  1

  0
LINE
  5
8257
330
8254
100
AcDbEntity
  8
3
 62
     0
370
    -2
100
AcDbLine
 10
4020.379544961135
 20
1909.815599437068
 30
0.0
 11
4020.379544961135
 21
1729.044351636742
 31
0.0
  0
LINE
  5
8258
330
8254
100
AcDbEntity
  8
3
 62
     0
370
    -2
100
AcDbLine
 10
4782.379544961155
 20
1909.815599437068
 30
0.0
 11
4782.379544961155
 21
1729.044351636742
 31
0.0
  0
LINE
  5
8259
330
8254
100
AcDbEntity
  8
3
 62
     0
370
    -2
100
AcDbLine
 10
4025.779544961135
 20
1734.444351636742
 30
0.0
 11
4391.736687818288
 21
1734.444351636742
 31
0.0
  0
LINE
  5
825A
330
8254
100
AcDbEntity
  8
3
 62
     0
370
    -2
100
AcDbLine
 10
4776.979544961155
 20
1734.444351636742
 30
0.0
 11
4411.022402104002
 21
1734.444351636742
 31
0.0
  0
SOLID
  5
825B
330
8254
100
AcDbEntity
  8
3
 62
     0
100
AcDbTrace
 10
4025.779544961135
 20
1735.344351636742
 30
0.0
 11
4025.779544961135
 21
1733.544351636742
 31
0.0
 12
4020.379544961135
 22
1734.444351636742
 32
0.0
 13
4020.379544961135
 23
1734.444351636742
 33
0.0
  0
SOLID
  5
825C
330
8254
100
AcDbEntity
  8
3
 62
     0
100
AcDbTrace
 10
4776.979544961155
 20
1735.344351636742
 30
0.0
 11
4776.979544961155
 21
1733.544351636742
 31
0.0
 12
4782.379544961155
 22
1734.444351636742
 32
0.0
 13
4782.379544961155
 23
1734.444351636742
 33
0.0
  0
MTEXT
  5
825D
330
8254
100
AcDbEntity
  8
3
 62
     0
100
AcDbMText
 10
4401.379544961145
 20
1734.444351636742
 30
0.0
 40
5.399999999999999
 41
0.0
 71
     5
 72
     1
  1
\A1;762
 73
     1
 44
1.0
1001
ACAD
1000
MTEXTBEGIN
1070
    73
1070
     1
1070
    44
1040
1.0
1070
    74
1070
     0
1000
MTEXTEND
  0
POINT
  5
825E
330
8254
100
AcDbEntity
  8
DEFPOINTS
 62
     0
100
AcDbPoint
 10
4020.379544961135
 20
1939.815599437068
 30
0.0
  0
POINT
  5
825F
330
8254
100
AcDbEntity
  8
DEFPOINTS
 62
     0
100
AcDbPoint
 10
4782.379544961155
 20
1939.815599437068
 30
0.0
  0
POINT
  5
8260
330
8254
100
AcDbEntity
  8
DEFPOINTS
 62
     0
100
AcDbPoint
 10
4782.379544961155
 20
1734.444351636742
 30
0.0
  0
ENDBLK
  5
8256
330
8254
100
AcDbEntity
  8
0
100
AcDbBlockEnd
  0
BLOCK
  5
8262
330
8261
100
AcDbEntity
  8
0
100
AcDbBlockBegin
  2
*D33
 70
     1
 10
0.0
 20
0.0
 30
0.0
  3
*D33
  1

  0
LINE
  5
8264
330
8261
100
AcDbEntity
  8
3
 62
     0
370
    -2
100
AcDbLine
 10
4782.379544961155
 20
1909.815599437068
 30
0.0
 11
4782.379544961155
 21
1729.044351636742
 31
0.0
  0
LINE
  5
8265
330
8261
100
AcDbEntity
  8
3
 62
     0
370
    -2
100
AcDbLine
 10
5395.379544961155
 20
1909.815599437068
 30
0.0
 11
5395.379544961155
 21
1729.044351636742
 31
0.0
  0
LINE
  5
8266
330
8261
100
AcDbEntity
  8
3
 62
     0
370
    -2
100
AcDbLine
 10
4787.779544961153
 20
1734.444351636742
 30
0.0
 11
5079.750973532583
 21
1734.444351636742
 31
0.0
  0
LINE
  5
8267
330
8261
100
AcDbEntity
  8
3
 62
     0
370
    -2
100
AcDbLine
 10
5389.979544961154
 20
1734.444351636742
 30
0.0
 11
5098.008116389726
 21
1734.444351636742
 31
0.0
  0
SOLID
  5
8268
330
8261
100
AcDbEntity
  8
3
 62
     0
100
AcDbTrace
 10
4787.779544961153
 20
1735.344351636742
 30
0.0
 11
4787.779544961153
 21
1733.544351636742
 31
0.0
 12
4782.379544961155
 22
1734.444351636742
 32
0.0
 13
4782.379544961155
 23
1734.444351636742
 33
0.0
  0
SOLID
  5
8269
330
8261
100
AcDbEntity
  8
3
 62
     0
100
AcDbTrace
 10
5389.979544961154
 20
1735.344351636742
 30
0.0
 11
5389.979544961154
 21
1733.544351636742
 31
0.0
 12
5395.379544961155
 22
1734.444351636742
 32
0.0
 13
5395.379544961155
 23
1734.444351636742
 33
0.0
  0
MTEXT
  5
826A
330
8261
100
AcDbEntity
  8
3
 62
     0
100
AcDbMText
 10
5088.879544961154
 20
1734.444351636742
 30
0.0
 40
5.399999999999999
 41
0.0
 71
     5
 72
     1
  1
\A1;613
 73
     1
 44
1.0
1001
ACAD
1000
MTEXTBEGIN
1070
    73
1070
     1
1070
    44
1040
1.0
1070
    74
1070
     0
1000
MTEXTEND
  0
POINT
  5
826B
330
8261
100
AcDbEntity
  8
DEFPOINTS
 62
     0
100
AcDbPoint
 10
4782.379544961155
 20
1939.815599437068
 30
0.0
  0
POINT
  5
826C
330
8261
100
AcDbEntity
  8
DEFPOINTS
 62
     0
100
AcDbPoint
 10
5395.379544961155
 20
1939.815599437068
 30
0.0
  0
POINT
  5
826D
330
8261
100
AcDbEntity
  8
DEFPOINTS
 62
     0
100
AcDbPoint
 10
5395.379544961155
 20
1734.444351636742
 30
0.0
  0
ENDBLK
  5
8263
330
8261
100
AcDbEntity
  8
0
100
AcDbBlockEnd
  0
BLOCK
  5
826F
330
826E
100
AcDbEntity
  8
0
100
AcDbBlockBegin
  2
*D34
 70
     1
 10
0.0
 20
0.0
 30
0.0
  3
*D34
  1

  0
LINE
  5
8271
330
826E
100
AcDbEntity
  8
3
 62
     0
370
    -2
100
AcDbLine
 10
752.6729139929484
 20
2045.215599437068
 30
0.0
 11
752.6729139929484
 21
2085.501313722783
 31
0.0
  0
LINE
  5
8272
330
826E
100
AcDbEntity
  8
3
 62
     0
370
    -2
100
AcDbLine
 10
752.6729139929484
 20
2139.415599437068
 30
0.0
 11
752.6729139929484
 21
2099.129885151354
 31
0.0
  0
SOLID
  5
8273
330
826E
100
AcDbEntity
  8
3
 62
     0
100
AcDbTrace
 10
751.7729139929484
 20
2045.215599437068
 30
0.0
 11
753.5729139929484
 21
2045.215599437068
 31
0.0
 12
752.6729139929484
 22
2039.815599437068
 32
0.0
 13
752.6729139929484
 23
2039.815599437068
 33
0.0
  0
SOLID
  5
8274
330
826E
100
AcDbEntity
  8
3
 62
     0
100
AcDbTrace
 10
751.7729139929484
 20
2139.415599437068
 30
0.0
 11
753.5729139929484
 21
2139.415599437068
 31
0.0
 12
752.6729139929484
 22
2144.815599437068
 32
0.0
 13
752.6729139929484
 23
2144.815599437068
 33
0.0
  0
MTEXT
  5
8275
330
826E
100
AcDbEntity
  8
3
 62
     0
100
AcDbMText
 10
752.672913992948
 20
2092.315599437068
 30
0.0
 40
5.399999999999999
 41
0.0
 71
     5
 72
     1
  1
\A1;(105)
 73
     1
 44
1.0
1001
ACAD
1000
MTEXTBEGIN
1070
    73
1070
     1
1070
    44
1040
1.0
1070
    74
1070
     0
1000
MTEXTEND
  0
POINT
  5
8276
330
826E
100
AcDbEntity
  8
DEFPOINTS
 62
     0
100
AcDbPoint
 10
1057.66764839239
 20
2039.815599437068
 30
0.0
  0
POINT
  5
8277
330
826E
100
AcDbEntity
  8
DEFPOINTS
 62
     0
100
AcDbPoint
 10
1057.667648392393
 20
2144.815599437068
 30
0.0
  0
POINT
  5
8278
330
826E
100
AcDbEntity
  8
DEFPOINTS
 62
     0
100
AcDbPoint
 10
752.6729139929484
 20
2144.815599437068
 30
0.0
  0
ENDBLK
  5
8270
330
826E
100
AcDbEntity
  8
0
100
AcDbBlockEnd
  0
BLOCK
  5
827A
330
8279
100
AcDbEntity
  8
0
100
AcDbBlockBegin
  2
*D35
 70
     1
 10
0.0
 20
0.0
 30
0.0
  3
*D35
  1

  0
LINE
  5
827C
330
8279
100
AcDbEntity
  8
3
 62
     0
370
    -2
100
AcDbLine
 10
1027.66764839239
 20
1939.815599437068
 30
0.0
 11
491.0564292242208
 21
1939.815599437068
 31
0.0
  0
LINE
  5
827D
330
8279
100
AcDbEntity
  8
3
 62
     0
370
    -2
100
AcDbLine
 10
1581.167648392393
 20
3584.815599437068
 30
0.0
 11
491.0564292242209
 21
3584.815599437069
 31
0.0
  0
LINE
  5
827E
330
8279
100
AcDbEntity
  8
3
 62
     0
370
    -2
100
AcDbLine
 10
496.4564292242207
 20
1945.215599437068
 30
0.0
 11
496.4564292242209
 21
2755.501313722783
 31
0.0
  0
LINE
  5
827F
330
8279
100
AcDbEntity
  8
3
 62
     0
370
    -2
100
AcDbLine
 10
496.4564292242211
 20
3579.415599437068
 30
0.0
 11
496.4564292242209
 21
2769.129885151354
 31
0.0
  0
SOLID
  5
8280
330
8279
100
AcDbEntity
  8
3
 62
     0
100
AcDbTrace
 10
495.5564292242208
 20
1945.215599437068
 30
0.0
 11
497.3564292242207
 21
1945.215599437068
 31
0.0
 12
496.4564292242207
 22
1939.815599437068
 32
0.0
 13
496.4564292242207
 23
1939.815599437068
 33
0.0
  0
SOLID
  5
8281
330
8279
100
AcDbEntity
  8
3
 62
     0
100
AcDbTrace
 10
495.5564292242211
 20
3579.415599437068
 30
0.0
 11
497.356429224221
 21
3579.415599437068
 31
0.0
 12
496.4564292242211
 22
3584.815599437069
 32
0.0
 13
496.4564292242211
 23
3584.815599437069
 33
0.0
  0
MTEXT
  5
8282
330
8279
100
AcDbEntity
  8
3
 62
     0
100
AcDbMText
 10
496.4564292242204
 20
2762.315599437068
 30
0.0
 40
5.399999999999999
 41
0.0
 71
     5
 72
     1
  1
\A1;(1645)
 73
     1
 44
1.0
1001
ACAD
1000
MTEXTBEGIN
1070
    73
1070
     1
1070
    44
1040
1.0
1070
    74
1070
     0
1000
MTEXTEND
  0
POINT
  5
8283
330
8279
100
AcDbEntity
  8
DEFPOINTS
 62
     0
100
AcDbPoint
 10
1057.66764839239
 20
1939.815599437068
 30
0.0
  0
POINT
  5
8284
330
8279
100
AcDbEntity
  8
DEFPOINTS
 62
     0
100
AcDbPoint
 10
1611.167648392393
 20
3584.815599437068
 30
0.0
  0
POINT
  5
8285
330
8279
100
AcDbEntity
  8
DEFPOINTS
 62
     0
100
AcDbPoint
 10
496.4564292242211
 20
3584.815599437069
 30
0.0
  0
ENDBLK
  5
827B
330
8279
100
AcDbEntity
  8
0
100
AcDbBlockEnd
  0
BLOCK
  5
8287
330
8286
100
AcDbEntity
  8
0
100
AcDbBlockBegin
  2
*D36
 70
     1
 10
0.0
 20
0.0
 30
0.0
  3
*D36
  1

  0
LINE
  5
8289
330
8286
100
AcDbEntity
  8
3
 62
     0
370
    -2
100
AcDbLine
 10
1055.79264839239
 20
2039.815599437068
 30
0.0
 11
744.3306630971305
 21
2039.815599437068
 31
0.0
  0
LINE
  5
828A
330
8286
100
AcDbEntity
  8
3
 62
     0
370
    -2
100
AcDbLine
 10
1055.79264839239
 20
1939.815599437068
 30
0.0
 11
744.3306630971305
 21
1939.815599437068
 31
0.0
  0
LINE
  5
828B
330
8286
100
AcDbEntity
  8
3
 62
     0
370
    -2
100
AcDbLine
 10
749.7306630971304
 20
2034.415599437068
 30
0.0
 11
749.7306630971304
 21
1995.215599437068
 31
0.0
  0
LINE
  5
828C
330
8286
100
AcDbEntity
  8
3
 62
     0
370
    -2
100
AcDbLine
 10
749.7306630971304
 20
1945.215599437068
 30
0.0
 11
749.7306630971304
 21
1984.415599437068
 31
0.0
  0
SOLID
  5
828D
330
8286
100
AcDbEntity
  8
3
 62
     0
100
AcDbTrace
 10
748.8306630971305
 20
2034.415599437068
 30
0.0
 11
750.6306630971304
 21
2034.415599437068
 31
0.0
 12
749.7306630971304
 22
2039.815599437068
 32
0.0
 13
749.7306630971304
 23
2039.815599437068
 33
0.0
  0
SOLID
  5
828E
330
8286
100
AcDbEntity
  8
3
 62
     0
100
AcDbTrace
 10
748.8306630971305
 20
1945.215599437068
 30
0.0
 11
750.6306630971304
 21
1945.215599437068
 31
0.0
 12
749.7306630971304
 22
1939.815599437068
 32
0.0
 13
749.7306630971304
 23
1939.815599437068
 33
0.0
  0
MTEXT
  5
828F
330
8286
100
AcDbEntity
  8
3
 62
     0
100
AcDbMText
 10
749.7306630971301
 20
1989.815599437068
 30
0.0
 40
5.399999999999999
 41
0.0
 71
     5
 72
     1
  1
\A1;100
 73
     1
 44
1.0
1001
ACAD
1000
MTEXTBEGIN
1070
    73
1070
     1
1070
    44
1040
1.0
1070
    74
1070
     0
1000
MTEXTEND
  0
POINT
  5
8290
330
8286
100
AcDbEntity
  8
DEFPOINTS
 62
     0
100
AcDbPoint
 10
1057.66764839239
 20
2039.815599437068
 30
0.0
  0
POINT
  5
8291
330
8286
100
AcDbEntity
  8
DEFPOINTS
 62
     0
100
AcDbPoint
 10
1057.66764839239
 20
1939.815599437068
 30
0.0
  0
POINT
  5
8292
330
8286
100
AcDbEntity
  8
DEFPOINTS
 62
     0
100
AcDbPoint
 10
749.7306630971304
 20
1939.815599437068
 30
0.0
  0
ENDBLK
  5
8288
330
8286
100
AcDbEntity
  8
0
100
AcDbBlockEnd
  0
BLOCK
  5
82B8
330
82B7
100
AcDbEntity
  8
0
100
AcDbBlockBegin
  2
*D37
 70
     1
 10
0.0
 20
0.0
 30
0.0
  3
*D37
  1

  0
LINE
  5
82BA
330
82B7
100
AcDbEntity
  8
3
 62
     0
370
    -2
100
AcDbLine
 10
2927.667648392391
 20
4838.453478546992
 30
0.0
 11
2927.667648392391
 21
4437.781319064919
 31
0.0
  0
LINE
  5
82BB
330
82B7
100
AcDbEntity
  8
3
 62
     0
370
    -2
100
AcDbLine
 10
1057.66764839239
 20
4838.453478546992
 30
0.0
 11
1057.66764839239
 21
4437.781319064919
 31
0.0
  0
LINE
  5
82BC
330
82B7
100
AcDbEntity
  8
3
 62
     0
370
    -2
100
AcDbLine
 10
2922.267648392391
 20
4443.181319064919
 30
0.0
 11
2015.939076963819
 21
4443.181319064919
 31
0.0
  0
LINE
  5
82BD
330
82B7
100
AcDbEntity
  8
3
 62
     0
370
    -2
100
AcDbLine
 10
1063.067648392391
 20
4443.181319064919
 30
0.0
 11
1969.396219820962
 21
4443.181319064919
 31
0.0
  0
SOLID
  5
82BE
330
82B7
100
AcDbEntity
  8
3
 62
     0
100
AcDbTrace
 10
2922.267648392391
 20
4444.081319064919
 30
0.0
 11
2922.267648392391
 21
4442.281319064919
 31
0.0
 12
2927.667648392391
 22
4443.181319064919
 32
0.0
 13
2927.667648392391
 23
4443.181319064919
 33
0.0
  0
SOLID
  5
82BF
330
82B7
100
AcDbEntity
  8
3
 62
     0
100
AcDbTrace
 10
1063.067648392391
 20
4444.081319064919
 30
0.0
 11
1063.067648392391
 21
4442.281319064919
 31
0.0
 12
1057.66764839239
 22
4443.181319064919
 32
0.0
 13
1057.66764839239
 23
4443.181319064919
 33
0.0
  0
MTEXT
  5
82C0
330
82B7
100
AcDbEntity
  8
3
 62
     0
100
AcDbMText
 10
1992.66764839239
 20
4443.181319064919
 30
0.0
 40
5.399999999999999
 41
0.0
 71
     5
 72
     1
  1
\A1;1870.0000
 73
     1
 44
1.0
1001
ACAD
1000
MTEXTBEGIN
1070
    73
1070
     1
1070
    44
1040
1.0
1070
    74
1070
     0
1000
MTEXTEND
  0
POINT
  5
82C1
330
82B7
100
AcDbEntity
  8
DEFPOINTS
 62
     0
100
AcDbPoint
 10
2927.667648392391
 20
4840.328478546992
 30
0.0
  0
POINT
  5
82C2
330
82B7
100
AcDbEntity
  8
DEFPOINTS
 62
     0
100
AcDbPoint
 10
1057.66764839239
 20
4840.328478546992
 30
0.0
  0
POINT
  5
82C3
330
82B7
100
AcDbEntity
  8
DEFPOINTS
 62
     0
100
AcDbPoint
 10
1057.66764839239
 20
4443.181319064919
 30
0.0
  0
ENDBLK
  5
82B9
330
82B7
100
AcDbEntity
  8
0
100
AcDbBlockEnd
  0
BLOCK
  5
82C9
330
82C8
100
AcDbEntity
  8
0
100
AcDbBlockBegin
  2
*D38
 70
     1
 10
0.0
 20
0.0
 30
0.0
  3
*D38
  1

  0
LINE
  5
82CB
330
82C8
100
AcDbEntity
  8
3
 62
     0
370
    -2
100
AcDbLine
 10
1057.667648392392
 20
4810.328478546992
 30
0.0
 11
1057.667648392392
 21
4397.982788768841
 31
0.0
  0
LINE
  5
82CC
330
82C8
100
AcDbEntity
  8
3
 62
     0
370
    -2
100
AcDbLine
 10
2927.667648392391
 20
4810.328478546992
 30
0.0
 11
2927.667648392391
 21
4397.982788768841
 31
0.0
  0
LINE
  5
82CD
330
82C8
100
AcDbEntity
  8
3
 62
     0
370
    -2
100
AcDbLine
 10
1117.667648392392
 20
4427.98278876884
 30
0.0
 11
2867.667648392391
 21
4427.98278876884
 31
0.0
  0
INSERT
  5
82CE
330
82C8
100
AcDbEntity
  8
3
 62
     0
370
    -2
100
AcDbBlockReference
  2
_OPEN
 10
1057.667648392392
 20
4427.98278876884
 30
0.0
 41
60.0
 42
60.0
 43
60.0
 50
180.0
  0
INSERT
  5
82CF
330
82C8
100
AcDbEntity
  8
3
 62
     0
370
    -2
100
AcDbBlockReference
  2
_OPEN
 10
2927.667648392391
 20
4427.98278876884
 30
0.0
 41
60.0
 42
60.0
 43
60.0
  0
MTEXT
  5
82D0
330
82C8
100
AcDbEntity
  8
3
 62
     0
100
AcDbMText
 10
1992.667648392391
 20
4502.98278876884
 30
0.0
 40
90.0
 41
0.0
 71
     5
 72
     1
  1
\A1;1870
 73
     1
 44
1.0
1001
ACAD
1000
MTEXTBEGIN
1070
    73
1070
     1
1070
    44
1040
1.0
1070
    74
1070
     0
1000
MTEXTEND
  0
POINT
  5
82D1
330
82C8
100
AcDbEntity
  8
DEFPOINTS
 62
     0
100
AcDbPoint
 10
1057.667648392392
 20
4840.328478546992
 30
0.0
  0
POINT
  5
82D2
330
82C8
100
AcDbEntity
  8
DEFPOINTS
 62
     0
100
AcDbPoint
 10
2927.667648392391
 20
4840.328478546992
 30
0.0
  0
POINT
  5
82D3
330
82C8
100
AcDbEntity
  8
DEFPOINTS
 62
     0
100
AcDbPoint
 10
2927.667648392391
 20
4427.98278876884
 30
0.0
  0
ENDBLK
  5
82CA
330
82C8
100
AcDbEntity
  8
0
100
AcDbBlockEnd
  0
BLOCK
  5
82D6
330
82D5
100
AcDbEntity
  8
0
100
AcDbBlockBegin
  2
*D39
 70
     1
 10
0.0
 20
0.0
 30
0.0
  3
*D39
  1

  0
LINE
  5
82E1
330
82D5
100
AcDbEntity
  8
3
 62
     0
370
    -2
100
AcDbLine
 10
1617.667648392393
 20
3636.900467925745
 30
0.0
 11
1617.667648392393
 21
3914.774007978141
 31
0.0
  0
LINE
  5
82E2
330
82D5
100
AcDbEntity
  8
3
 62
     0
370
    -2
100
AcDbLine
 10
974.6676483923929
 20
2927.815599437068
 30
0.0
 11
974.6676483923931
 21
3914.774007978141
 31
0.0
  0
LINE
  5
82E3
330
82D5
100
AcDbEntity
  8
3
 62
     0
370
    -2
100
AcDbLine
 10
1557.667648392393
 20
3884.774007978141
 30
0.0
 11
1034.667648392393
 21
3884.774007978141
 31
0.0
  0
INSERT
  5
82E4
330
82D5
100
AcDbEntity
  8
3
 62
     0
370
    -2
100
AcDbBlockReference
  2
_OPEN
 10
1617.667648392393
 20
3884.774007978141
 30
0.0
 41
60.0
 42
60.0
 43
60.0
  0
INSERT
  5
82E5
330
82D5
100
AcDbEntity
  8
3
 62
     0
370
    -2
100
AcDbBlockReference
  2
_OPEN
 10
974.6676483923931
 20
3884.774007978141
 30
0.0
 41
60.0
 42
60.0
 43
60.0
 50
180.0
  0
MTEXT
  5
82E6
330
82D5
100
AcDbEntity
  8
3
 62
     0
100
AcDbMText
 10
1296.167648392393
 20
3959.774007978141
 30
0.0
 40
90.0
 41
0.0
 71
     5
 72
     1
  1
\A1;643
 73
     1
 44
1.0
1001
ACAD
1000
MTEXTBEGIN
1070
    73
1070
     1
1070
    44
1040
1.0
1070
    74
1070
     0
1000
MTEXTEND
  0
POINT
  5
82E7
330
82D5
100
AcDbEntity
  8
DEFPOINTS
 62
     0
100
AcDbPoint
 10
1617.667648392393
 20
3606.900467925746
 30
0.0
  0
POINT
  5
82E8
330
82D5
100
AcDbEntity
  8
DEFPOINTS
 62
     0
100
AcDbPoint
 10
974.6676483923929
 20
2897.815599437068
 30
0.0
  0
POINT
  5
82E9
330
82D5
100
AcDbEntity
  8
DEFPOINTS
 62
     0
100
AcDbPoint
 10
974.6676483923931
 20
3884.774007978141
 30
0.0
  0
ENDBLK
  5
82D7
330
82D5
100
AcDbEntity
  8
0
100
AcDbBlockEnd
  0
BLOCK
  5
82EC
330
82EB
100
AcDbEntity
  8
0
100
AcDbBlockBegin
  2
*D40
 70
     1
 10
0.0
 20
0.0
 30
0.0
  3
*D40
  1

  0
LINE
  5
82EE
330
82EB
100
AcDbEntity
  8
3
 62
     0
370
    -2
100
AcDbLine
 10
4020.379544961154
 20
1909.815599437068
 30
0.0
 11
4020.379544961154
 21
1704.444351636742
 31
0.0
  0
LINE
  5
82EF
330
82EB
100
AcDbEntity
  8
3
 62
     0
370
    -2
100
AcDbLine
 10
4782.379544961155
 20
1909.815599437068
 30
0.0
 11
4782.379544961155
 21
1704.444351636742
 31
0.0
  0
LINE
  5
82F0
330
82EB
100
AcDbEntity
  8
3
 62
     0
370
    -2
100
AcDbLine
 10
4080.379544961155
 20
1734.444351636742
 30
0.0
 11
4722.379544961154
 21
1734.444351636742
 31
0.0
  0
INSERT
  5
82F1
330
82EB
100
AcDbEntity
  8
3
 62
     0
370
    -2
100
AcDbBlockReference
  2
_OPEN
 10
4020.379544961154
 20
1734.444351636742
 30
0.0
 41
60.0
 42
60.0
 43
60.0
 50
180.0
  0
INSERT
  5
82F2
330
82EB
100
AcDbEntity
  8
3
 62
     0
370
    -2
100
AcDbBlockReference
  2
_OPEN
 10
4782.379544961155
 20
1734.444351636742
 30
0.0
 41
60.0
 42
60.0
 43
60.0
  0
MTEXT
  5
82F3
330
82EB
100
AcDbEntity
  8
3
 62
     0
100
AcDbMText
 10
4401.379544961154
 20
1809.444351636742
 30
0.0
 40
90.0
 41
0.0
 71
     5
 72
     1
  1
\A1;762
 73
     1
 44
1.0
1001
ACAD
1000
MTEXTBEGIN
1070
    73
1070
     1
1070
    44
1040
1.0
1070
    74
1070
     0
1000
MTEXTEND
  0
POINT
  5
82F4
330
82EB
100
AcDbEntity
  8
DEFPOINTS
 62
     0
100
AcDbPoint
 10
4020.379544961154
 20
1939.815599437068
 30
0.0
  0
POINT
  5
82F5
330
82EB
100
AcDbEntity
  8
DEFPOINTS
 62
     0
100
AcDbPoint
 10
4782.379544961155
 20
1939.815599437068
 30
0.0
  0
POINT
  5
82F6
330
82EB
100
AcDbEntity
  8
DEFPOINTS
 62
     0
100
AcDbPoint
 10
4782.379544961155
 20
1734.444351636742
 30
0.0
  0
ENDBLK
  5
82ED
330
82EB
100
AcDbEntity
  8
0
100
AcDbBlockEnd
  0
BLOCK
  5
82F9
330
82F8
100
AcDbEntity
  8
0
100
AcDbBlockBegin
  2
*D41
 70
     1
 10
0.0
 20
0.0
 30
0.0
  3
*D41
  1

  0
LINE
  5
82FB
330
82F8
100
AcDbEntity
  8
3
 62
     0
370
    -2
100
AcDbLine
 10
4782.379544961155
 20
1909.815599437068
 30
0.0
 11
4782.379544961155
 21
1704.444351636742
 31
0.0
  0
LINE
  5
82FC
330
82F8
100
AcDbEntity
  8
3
 62
     0
370
    -2
100
AcDbLine
 10
5395.379544961155
 20
1909.815599437068
 30
0.0
 11
5395.379544961155
 21
1704.444351636742
 31
0.0
  0
LINE
  5
82FD
330
82F8
100
AcDbEntity
  8
3
 62
     0
370
    -2
100
AcDbLine
 10
4842.379544961154
 20
1734.444351636742
 30
0.0
 11
5335.379544961154
 21
1734.444351636742
 31
0.0
  0
INSERT
  5
82FE
330
82F8
100
AcDbEntity
  8
3
 62
     0
370
    -2
100
AcDbBlockReference
  2
_OPEN
 10
4782.379544961155
 20
1734.444351636742
 30
0.0
 41
60.0
 42
60.0
 43
60.0
 50
180.0
  0
INSERT
  5
82FF
330
82F8
100
AcDbEntity
  8
3
 62
     0
370
    -2
100
AcDbBlockReference
  2
_OPEN
 10
5395.379544961155
 20
1734.444351636742
 30
0.0
 41
60.0
 42
60.0
 43
60.0
  0
MTEXT
  5
8300
330
82F8
100
AcDbEntity
  8
3
 62
     0
100
AcDbMText
 10
5088.879544961154
 20
1809.444351636742
 30
0.0
 40
90.0
 41
0.0
 71
     5
 72
     1
  1
\A1;613
 73
     1
 44
1.0
1001
ACAD
1000
MTEXTBEGIN
1070
    73
1070
     1
1070
    44
1040
1.0
1070
    74
1070
     0
1000
MTEXTEND
  0
POINT
  5
8301
330
82F8
100
AcDbEntity
  8
DEFPOINTS
 62
     0
100
AcDbPoint
 10
4782.379544961155
 20
1939.815599437068
 30
0.0
  0
POINT
  5
8302
330
82F8
100
AcDbEntity
  8
DEFPOINTS
 62
     0
100
AcDbPoint
 10
5395.379544961155
 20
1939.815599437068
 30
0.0
  0
POINT
  5
8303
330
82F8
100
AcDbEntity
  8
DEFPOINTS
 62
     0
100
AcDbPoint
 10
5395.379544961155
 20
1734.444351636742
 30
0.0
  0
ENDBLK
  5
82FA
330
82F8
100
AcDbEntity
  8
0
100
AcDbBlockEnd
  0
BLOCK
  5
8306
330
8305
100
AcDbEntity
  8
0
100
AcDbBlockBegin
  2
*D42
 70
     1
 10
0.0
 20
0.0
 30
0.0
  3
*D42
  1

  0
LINE
  5
8308
330
8305
100
AcDbEntity
  8
3
 62
     0
370
    -2
100
AcDbLine
 10
1057.66764839239
 20
1909.815599437068
 30
0.0
 11
1057.66764839239
 21
1704.444351636742
 31
0.0
  0
LINE
  5
8309
330
8305
100
AcDbEntity
  8
3
 62
     0
370
    -2
100
AcDbLine
 10
1617.667648392393
 20
1909.815599437068
 30
0.0
 11
1617.667648392393
 21
1704.444351636742
 31
0.0
  0
LINE
  5
830A
330
8305
100
AcDbEntity
  8
3
 62
     0
370
    -2
100
AcDbLine
 10
1117.667648392391
 20
1734.444351636742
 30
0.0
 11
1557.667648392393
 21
1734.444351636742
 31
0.0
  0
INSERT
  5
830B
330
8305
100
AcDbEntity
  8
3
 62
     0
370
    -2
100
AcDbBlockReference
  2
_OPEN
 10
1057.66764839239
 20
1734.444351636742
 30
0.0
 41
60.0
 42
60.0
 43
60.0
 50
180.0
  0
INSERT
  5
830C
330
8305
100
AcDbEntity
  8
3
 62
     0
370
    -2
100
AcDbBlockReference
  2
_OPEN
 10
1617.667648392393
 20
1734.444351636742
 30
0.0
 41
60.0
 42
60.0
 43
60.0
  0
MTEXT
  5
830D
330
8305
100
AcDbEntity
  8
3
 62
     0
100
AcDbMText
 10
1337.667648392392
 20
1809.444351636742
 30
0.0
 40
90.0
 41
0.0
 71
     5
 72
     1
  1
\A1;560
 73
     1
 44
1.0
1001
ACAD
1000
MTEXTBEGIN
1070
    73
1070
     1
1070
    44
1040
1.0
1070
    74
1070
     0
1000
MTEXTEND
  0
POINT
  5
830E
330
8305
100
AcDbEntity
  8
DEFPOINTS
 62
     0
100
AcDbPoint
 10
1057.66764839239
 20
1939.815599437068
 30
0.0
  0
POINT
  5
830F
330
8305
100
AcDbEntity
  8
DEFPOINTS
 62
     0
100
AcDbPoint
 10
1617.667648392393
 20
1939.815599437068
 30
0.0
  0
POINT
  5
8310
330
8305
100
AcDbEntity
  8
DEFPOINTS
 62
     0
100
AcDbPoint
 10
1617.667648392393
 20
1734.444351636742
 30
0.0
  0
ENDBLK
  5
8307
330
8305
100
AcDbEntity
  8
0
100
AcDbBlockEnd
  0
BLOCK
  5
8313
330
8312
100
AcDbEntity
  8
0
100
AcDbBlockBegin
  2
*D43
 70
     1
 10
0.0
 20
0.0
 30
0.0
  3
*D43
  1

  0
LINE
  5
8315
330
8312
100
AcDbEntity
  8
3
 62
     0
370
    -2
100
AcDbLine
 10
1617.667648392393
 20
1909.815599437068
 30
0.0
 11
1617.667648392393
 21
1704.444351636742
 31
0.0
  0
LINE
  5
8316
330
8312
100
AcDbEntity
  8
3
 62
     0
370
    -2
100
AcDbLine
 10
2927.667648392393
 20
1909.815599437068
 30
0.0
 11
2927.667648392393
 21
1704.444351636742
 31
0.0
  0
LINE
  5
8317
330
8312
100
AcDbEntity
  8
3
 62
     0
370
    -2
100
AcDbLine
 10
1677.667648392393
 20
1734.444351636742
 30
0.0
 11
2867.667648392393
 21
1734.444351636742
 31
0.0
  0
INSERT
  5
8318
330
8312
100
AcDbEntity
  8
3
 62
     0
370
    -2
100
AcDbBlockReference
  2
_OPEN
 10
1617.667648392393
 20
1734.444351636742
 30
0.0
 41
60.0
 42
60.0
 43
60.0
 50
180.0
  0
INSERT
  5
8319
330
8312
100
AcDbEntity
  8
3
 62
     0
370
    -2
100
AcDbBlockReference
  2
_OPEN
 10
2927.667648392393
 20
1734.444351636742
 30
0.0
 41
60.0
 42
60.0
 43
60.0
  0
MTEXT
  5
831A
330
8312
100
AcDbEntity
  8
3
 62
     0
100
AcDbMText
 10
2272.667648392393
 20
1809.444351636742
 30
0.0
 40
90.0
 41
0.0
 71
     5
 72
     1
  1
\A1;1310
 73
     1
 44
1.0
1001
ACAD
1000
MTEXTBEGIN
1070
    73
1070
     1
1070
    44
1040
1.0
1070
    74
1070
     0
1000
MTEXTEND
  0
POINT
  5
831B
330
8312
100
AcDbEntity
  8
DEFPOINTS
 62
     0
100
AcDbPoint
 10
1617.667648392393
 20
1939.815599437068
 30
0.0
  0
POINT
  5
831C
330
8312
100
AcDbEntity
  8
DEFPOINTS
 62
     0
100
AcDbPoint
 10
2927.667648392393
 20
1939.815599437068
 30
0.0
  0
POINT
  5
831D
330
8312
100
AcDbEntity
  8
DEFPOINTS
 62
     0
100
AcDbPoint
 10
2927.667648392393
 20
1734.444351636742
 30
0.0
  0
ENDBLK
  5
8314
330
8312
100
AcDbEntity
  8
0
100
AcDbBlockEnd
  0
BLOCK
  5
8320
330
831F
100
AcDbEntity
  8
0
100
AcDbBlockBegin
  2
*D44
 70
     1
 10
0.0
 20
0.0
 30
0.0
  3
*D44
  1

  0
LINE
  5
8398
330
831F
100
AcDbEntity
  8
3
 62
     0
370
    -2
100
AcDbLine
 10
931.4123096138464
 20
2964.815599437068
 30
0.0
 11
719.730663097131
 21
2964.815599437068
 31
0.0
  0
LINE
  5
8399
330
831F
100
AcDbEntity
  8
3
 62
     0
370
    -2
100
AcDbLine
 10
1027.66764839239
 20
2144.815599437068
 30
0.0
 11
719.7306630971308
 21
2144.815599437068
 31
0.0
  0
LINE
  5
839A
330
831F
100
AcDbEntity
  8
3
 62
     0
370
    -2
100
AcDbLine
 10
749.7306630971309
 20
2904.815599437068
 30
0.0
 11
749.7306630971308
 21
2204.815599437068
 31
0.0
  0
INSERT
  5
839B
330
831F
100
AcDbEntity
  8
3
 62
     0
370
    -2
100
AcDbBlockReference
  2
_OPEN
 10
749.7306630971309
 20
2964.815599437068
 30
0.0
 41
60.0
 42
60.0
 43
60.0
 50
90.0
  0
INSERT
  5
839C
330
831F
100
AcDbEntity
  8
3
 62
     0
370
    -2
100
AcDbBlockReference
  2
_OPEN
 10
749.7306630971308
 20
2144.815599437068
 30
0.0
 41
60.0
 42
60.0
 43
60.0
 50
270.0
  0
MTEXT
  5
839D
330
831F
100
AcDbEntity
  8
3
 62
     0
100
AcDbMText
 10
674.7306630971304
 20
2554.815599437068
 30
0.0
 40
90.0
 41
0.0
 71
     5
 72
     1
  1
\A1;820
 11
0.0000000000000001
 21
1.0
 31
0.0
 73
     1
 44
1.0
1001
ACAD
1000
MTEXTBEGIN
1070
    73
1070
     1
1070
    44
1040
1.0
1070
    74
1070
     0
1000
MTEXTEND
  0
POINT
  5
839E
330
831F
100
AcDbEntity
  8
DEFPOINTS
 62
     0
100
AcDbPoint
 10
961.4123096138465
 20
2964.815599437068
 30
0.0
  0
POINT
  5
839F
330
831F
100
AcDbEntity
  8
DEFPOINTS
 62
     0
100
AcDbPoint
 10
1057.66764839239
 20
2144.815599437068
 30
0.0
  0
POINT
  5
83A0
330
831F
100
AcDbEntity
  8
DEFPOINTS
 62
     0
100
AcDbPoint
 10
749.7306630971308
 20
2144.815599437068
 30
0.0
  0
ENDBLK
  5
8321
330
831F
100
AcDbEntity
  8
0
100
AcDbBlockEnd
  0
BLOCK
  5
832D
330
832C
100
AcDbEntity
  8
0
100
AcDbBlockBegin
  2
*D45
 70
     1
 10
0.0
 20
0.0
 30
0.0
  3
*D45
  1

  0
LINE
  5
8436
330
832C
100
AcDbEntity
  8
3
 62
     0
370
    -2
100
AcDbLine
 10
1027.66764839239
 20
2144.815599437068
 30
0.0
 11
719.7306630971308
 21
2144.815599437068
 31
0.0
  0
LINE
  5
8437
330
832C
100
AcDbEntity
  8
3
 62
     0
370
    -2
100
AcDbLine
 10
1027.66764839239
 20
2039.815599437068
 30
0.0
 11
719.7306630971308
 21
2039.815599437068
 31
0.0
  0
LINE
  5
8438
330
832C
100
AcDbEntity
  8
3
 62
     0
370
    -2
100
AcDbLine
 10
749.7306630971308
 20
2204.815599437068
 30
0.0
 11
749.7306630971308
 21
2264.815599437068
 31
0.0
  0
LINE
  5
8439
330
832C
100
AcDbEntity
  8
3
 62
     0
370
    -2
100
AcDbLine
 10
749.7306630971308
 20
2039.815599437068
 30
0.0
 11
749.7306630971308
 21
1979.815599437068
 31
0.0
  0
LINE
  5
843A
330
832C
100
AcDbEntity
  8
3
 62
     0
370
    -2
100
AcDbLine
 10
749.7306630971308
 20
2092.315599437068
 30
0.0
 11
606.1592345257022
 21
2135.387028008497
 31
0.0
  0
LINE
  5
843B
330
832C
100
AcDbEntity
  8
3
 62
     0
370
    -2
100
AcDbLine
 10
606.1592345257022
 20
2135.387028008497
 30
0.0
 11
606.1592345257023
 21
2525.387028008497
 31
0.0
  0
MTEXT
  5
843C
330
832C
100
AcDbEntity
  8
3
 62
     0
100
AcDbMText
 10
507.5878059542733
 20
2330.387028008496
 30
0.0
 40
90.0
 41
0.0
 71
     5
 72
     1
  1
\A1;(105)
 11
0.0000000000000001
 21
1.0
 31
0.0
 73
     1
 44
1.0
1001
ACAD
1000
MTEXTBEGIN
1070
    73
1070
     1
1070
    44
1040
1.0
1070
    74
1070
     0
1000
MTEXTEND
  0
LINE
  5
843D
330
832C
100
AcDbEntity
  8
3
 62
     0
370
    -2
100
AcDbLine
 10
749.7306630971308
 20
2144.815599437068
 30
0.0
 11
749.7306630971308
 21
2039.815599437068
 31
0.0
  0
LINE
  5
843E
330
832C
100
AcDbEntity
  8
3
 62
     0
370
    -2
100
AcDbLine
 10
749.7306630971308
 20
2144.815599437068
 30
0.0
 11
749.7306630971308
 21
2039.815599437068
 31
0.0
  0
INSERT
  5
843F
330
832C
100
AcDbEntity
  8
3
 62
     0
370
    -2
100
AcDbBlockReference
  2
_OPEN
 10
749.7306630971308
 20
2144.815599437068
 30
0.0
 41
60.0
 42
60.0
 43
60.0
 50
270.0
  0
INSERT
  5
8440
330
832C
100
AcDbEntity
  8
3
 62
     0
370
    -2
100
AcDbBlockReference
  2
_DotSmall
 10
749.7306630971308
 20
2039.815599437068
 30
0.0
 41
60.0
 42
60.0
 43
60.0
 50
90.0
  0
POINT
  5
8441
330
832C
100
AcDbEntity
  8
DEFPOINTS
 62
     0
100
AcDbPoint
 10
1057.66764839239
 20
2144.815599437068
 30
0.0
  0
POINT
  5
8442
330
832C
100
AcDbEntity
  8
DEFPOINTS
 62
     0
100
AcDbPoint
 10
1057.66764839239
 20
2039.815599437068
 30
0.0
  0
POINT
  5
8443
330
832C
100
AcDbEntity
  8
DEFPOINTS
 62
     0
100
AcDbPoint
 10
749.7306630971308
 20
2039.815599437068
 30
0.0
  0
ENDBLK
  5
832E
330
832C
100
AcDbEntity
  8
0
100
AcDbBlockEnd
  0
BLOCK
  5
833F
330
833E
100
AcDbEntity
  8
0
100
AcDbBlockBegin
  2
*D46
 70
     1
 10
0.0
 20
0.0
 30
0.0
  3
*D46
  1

  0
LINE
  5
8492
330
833E
100
AcDbEntity
  8
3
 62
     0
370
    -2
100
AcDbLine
 10
1027.66764839239
 20
2039.815599437068
 30
0.0
 11
719.7306630971308
 21
2039.815599437068
 31
0.0
  0
LINE
  5
8493
330
833E
100
AcDbEntity
  8
3
 62
     0
370
    -2
100
AcDbLine
 10
1027.66764839239
 20
1939.815599437068
 30
0.0
 11
719.7306630971308
 21
1939.815599437068
 31
0.0
  0
LINE
  5
8494
330
833E
100
AcDbEntity
  8
3
 62
     0
370
    -2
100
AcDbLine
 10
749.7306630971308
 20
2039.815599437068
 30
0.0
 11
749.7306630971308
 21
2099.815599437068
 31
0.0
  0
LINE
  5
8495
330
833E
100
AcDbEntity
  8
3
 62
     0
370
    -2
100
AcDbLine
 10
749.7306630971308
 20
1879.815599437068
 30
0.0
 11
749.7306630971308
 21
1819.815599437068
 31
0.0
  0
MTEXT
  5
8496
330
833E
100
AcDbEntity
  8
3
 62
     0
100
AcDbMText
 10
674.7306630971308
 20
1819.815599437068
 30
0.0
 40
90.0
 41
0.0
 71
     5
 72
     1
  1
\A1;100
 11
0.0000000000000001
 21
1.0
 31
0.0
 73
     1
 44
1.0
1001
ACAD
1000
MTEXTBEGIN
1070
    73
1070
     1
1070
    44
1040
1.0
1070
    74
1070
     0
1000
MTEXTEND
  0
LINE
  5
8497
330
833E
100
AcDbEntity
  8
3
 62
     0
370
    -2
100
AcDbLine
 10
749.7306630971308
 20
2039.815599437068
 30
0.0
 11
749.7306630971308
 21
1939.815599437068
 31
0.0
  0
INSERT
  5
8498
330
833E
100
AcDbEntity
  8
3
 62
     0
370
    -2
100
AcDbBlockReference
  2
_DotSmall
 10
749.7306630971308
 20
2039.815599437068
 30
0.0
 41
60.0
 42
60.0
 43
60.0
 50
270.0
  0
INSERT
  5
8499
330
833E
100
AcDbEntity
  8
3
 62
     0
370
    -2
100
AcDbBlockReference
  2
_OPEN
 10
749.7306630971308
 20
1939.815599437068
 30
0.0
 41
60.0
 42
60.0
 43
60.0
 50
90.0
  0
POINT
  5
849A
330
833E
100
AcDbEntity
  8
DEFPOINTS
 62
     0
100
AcDbPoint
 10
1057.66764839239
 20
2039.815599437068
 30
0.0
  0
POINT
  5
849B
330
833E
100
AcDbEntity
  8
DEFPOINTS
 62
     0
100
AcDbPoint
 10
1057.66764839239
 20
1939.815599437068
 30
0.0
  0
POINT
  5
849C
330
833E
100
AcDbEntity
  8
DEFPOINTS
 62
     0
100
AcDbPoint
 10
749.7306630971308
 20
1939.815599437068
 30
0.0
  0
ENDBLK
  5
8340
330
833E
100
AcDbEntity
  8
0
100
AcDbBlockEnd
  0
BLOCK
  5
837B
330
837A
100
AcDbEntity
  8
0
100
AcDbBlockBegin
  2
*D47
 70
     1
 10
0.0
 20
0.0
 30
0.0
  3
*D47
  1

  0
LINE
  5
83C8
330
837A
100
AcDbEntity
  8
3
 62
     0
370
    -2
100
AcDbLine
 10
1027.66764839239
 20
1939.815599437068
 30
0.0
 11
359.7447414633204
 21
1939.815599437068
 31
0.0
  0
LINE
  5
83C9
330
837A
100
AcDbEntity
  8
3
 62
     0
370
    -2
100
AcDbLine
 10
1581.167648392393
 20
3584.815599437068
 30
0.0
 11
359.7447414633208
 21
3584.815599437069
 31
0.0
  0
LINE
  5
83CA
330
837A
100
AcDbEntity
  8
3
 62
     0
370
    -2
100
AcDbLine
 10
389.7447414633205
 20
1999.815599437068
 30
0.0
 11
389.7447414633208
 21
3524.815599437069
 31
0.0
  0
INSERT
  5
83CB
330
837A
100
AcDbEntity
  8
3
 62
     0
370
    -2
100
AcDbBlockReference
  2
_OPEN
 10
389.7447414633205
 20
1939.815599437068
 30
0.0
 41
60.0
 42
60.0
 43
60.0
 50
270.0
  0
INSERT
  5
83CC
330
837A
100
AcDbEntity
  8
3
 62
     0
370
    -2
100
AcDbBlockReference
  2
_OPEN
 10
389.7447414633208
 20
3584.815599437069
 30
0.0
 41
60.0
 42
60.0
 43
60.0
 50
90.0
  0
MTEXT
  5
83CD
330
837A
100
AcDbEntity
  8
3
 62
     0
100
AcDbMText
 10
291.1733128918916
 20
2762.315599437068
 30
0.0
 40
90.0
 41
0.0
 71
     5
 72
     1
  1
\A1;(1645)
 11
0.0000000000000001
 21
1.0
 31
0.0
 73
     1
 44
1.0
1001
ACAD
1000
MTEXTBEGIN
1070
    73
1070
     1
1070
    44
1040
1.0
1070
    74
1070
     0
1000
MTEXTEND
  0
POINT
  5
83CE
330
837A
100
AcDbEntity
  8
DEFPOINTS
 62
     0
100
AcDbPoint
 10
1057.66764839239
 20
1939.815599437068
 30
0.0
  0
POINT
  5
83CF
330
837A
100
AcDbEntity
  8
DEFPOINTS
 62
     0
100
AcDbPoint
 10
1611.167648392393
 20
3584.815599437068
 30
0.0
  0
POINT
  5
83D0
330
837A
100
AcDbEntity
  8
DEFPOINTS
 62
     0
100
AcDbPoint
 10
389.7447414633208
 20
3584.815599437069
 30
0.0
  0
ENDBLK
  5
837C
330
837A
100
AcDbEntity
  8
0
100
AcDbBlockEnd
  0
BLOCK
  5
8434
330
8432
100
AcDbEntity
  8
0
100
AcDbBlockBegin
  2
_DotSmall
 70
     0
 10
0.0
 20
0.0
 30
0.0
  3
_DotSmall
  1

  0
LWPOLYLINE
  5
8433
330
8432
100
AcDbEntity
  8
0
  6
ByBlock
 62
     0
100
AcDbPolyline
 90
        2
 70
     1
 43
0.5
 10
-0.0625
 20
0.0
 42
1.0
 10
0.0625
 20
0.0
 42
1.0
  0
ENDBLK
  5
8435
330
8432
100
AcDbEntity
  8
0
100
AcDbBlockEnd
  0
ENDSEC
  0
SECTION
  2
ENTITIES
  0
INSERT
  5
7C25
330
81D7
100
AcDbEntity
  8
0
100
AcDbBlockReference
  2
YA_N
 10
6.0
 20
5.0
 30
0.0
  0
LINE
  5
7C27
330
81D7
100
AcDbEntity
  8
2
100
AcDbLine
 10
961.4123096138465
 20
2964.815599437068
 30
0.0
 11
2667.678895593834
 21
2964.815599437068
 31
0.0
  0
LINE
  5
7C28
330
81D7
100
AcDbEntity
  8
2
100
AcDbLine
 10
1617.667648392393
 20
3606.900467925746
 30
0.0
 11
1617.667648392393
 21
1939.815599437068
 31
0.0
  0
ARC
  5
7C29
330
81D7
100
AcDbEntity
  8
1
100
AcDbCircle
 10
1684.667648392393
 20
3031.815599437068
 30
0.0
 40
844.0
100
AcDbArc
 50
291.1777036396385
 51
355.4468476127809
  0
ARC
  5
7C2A
330
81D7
100
AcDbEntity
  8
1
100
AcDbCircle
 10
1684.667648392393
 20
2897.815599437068
 30
0.0
 40
710.0
100
AcDbArc
 50
174.5851582938705
 51
246.8849354438358
  0
ARC
  5
7C2B
330
81D7
100
AcDbEntity
  8
1
100
AcDbCircle
 10
1564.167648392393
 20
2911.315599437068
 30
0.0
 40
589.5
100
AcDbArc
 50
84.79296391165048
 51
174.7929639116505
  0
LINE
  5
7C2C
330
81D7
100
AcDbEntity
  8
1
100
AcDbLine
 10
2621.167648392393
 20
3584.815599437068
 30
0.0
 11
1611.167648392393
 21
3584.815599437068
 31
0.0
  0
LINE
  5
7C2D
330
81D7
100
AcDbEntity
  8
1
100
AcDbLine
 10
1653.667648392393
 20
3584.815599437068
 30
0.0
 11
1653.667648392393
 21
3499.605277721905
 31
0.0
  0
LINE
  5
7C2E
330
81D7
100
AcDbEntity
  8
1
100
AcDbLine
 10
2578.667648392393
 20
3584.815599437068
 30
0.0
 11
2526.004085259357
 21
2964.815599437068
 31
0.0
  0
LINE
  5
7C2F
330
81D7
100
AcDbEntity
  8
1
100
AcDbLine
 10
2621.167648392393
 20
3584.815599437068
 30
0.0
 11
2621.167648392393
 21
3581.815599437068
 31
0.0
  0
LINE
  5
7C30
330
81D7
100
AcDbEntity
  8
1
100
AcDbLine
 10
1611.167648392393
 20
3584.815599437068
 30
0.0
 11
1611.167648392393
 21
3581.815599437068
 31
0.0
  0
LINE
  5
7C31
330
81D7
100
AcDbEntity
  8
1
100
AcDbLine
 10
2575.269999158003
 20
3544.815599437068
 30
0.0
 11
1653.667648392393
 21
3544.815599437068
 31
0.0
  0
LINE
  5
7C32
330
81D7
100
AcDbEntity
  8
1
100
AcDbLine
 10
2621.167648392393
 20
3581.815599437068
 30
0.0
 11
1611.167648392393
 21
3581.815599437068
 31
0.0
  0
LINE
  5
7C33
330
81D7
100
AcDbEntity
  8
1
100
AcDbLine
 10
2927.667648392391
 20
2244.815599437067
 30
0.0
 11
2927.667648392391
 21
2144.815599437068
 31
0.0
  0
LINE
  5
7C34
330
81D7
100
AcDbEntity
  8
1
100
AcDbLine
 10
1057.667648392393
 20
2244.815599437067
 30
0.0
 11
1057.667648392393
 21
2144.815599437068
 31
0.0
  0
LINE
  5
7C35
330
81D7
100
AcDbEntity
  8
1
100
AcDbLine
 10
2927.667648392391
 20
2144.815599437068
 30
0.0
 11
1057.66764839239
 21
2144.815599437068
 31
0.0
1001
ACAD
1000
ASC_BOUNDS
1002
{
1070
    19
1002
}
  0
LINE
  5
7C36
330
81D7
100
AcDbEntity
  8
1
100
AcDbLine
 10
2927.667648392391
 20
2244.815599437067
 30
0.0
 11
1057.66764839239
 21
2244.815599437067
 31
0.0
  0
LINE
  5
7C37
330
81D7
100
AcDbEntity
  8
2
100
AcDbLine
 10
2677.667648392393
 20
2812.818090433171
 30
0.0
 11
2677.667648392393
 21
1939.815599437068
 31
0.0
  0
LINE
  5
7C38
330
81D7
100
AcDbEntity
  8
2
100
AcDbLine
 10
3038.603616517987
 20
2519.815599437067
 30
0.0
 11
2462.824721938559
 21
2519.815599437067
 31
0.0
  0
LINE
  5
7C39
330
81D7
100
AcDbEntity
  8
1
100
AcDbLine
 10
5342.379544961154
 20
3584.815599437068
 30
0.0
 11
5342.379544961154
 21
3000.815599437068
 31
0.0
  0
LINE
  5
7C3A
330
81D7
100
AcDbEntity
  8
1
100
AcDbLine
 10
4020.379544961147
 20
2144.815599437068
 30
0.0
 11
5395.379544961166
 21
2144.815599437068
 31
0.0
1001
ACAD
1000
ASC_BOUNDS
1002
{
1070
    19
1005
0
1005
0
1005
0
1005
0
1002
}
  0
LINE
  5
7C3B
330
81D7
100
AcDbEntity
  8
1
100
AcDbLine
 10
4020.379544961154
 20
2244.815599437067
 30
0.0
 11
5395.379544961155
 21
2244.815599437067
 31
0.0
  0
LINE
  5
7C3C
330
81D7
100
AcDbEntity
  8
1
100
AcDbLine
 10
4020.379544961154
 20
2244.815599437067
 30
0.0
 11
4020.379544961147
 21
2144.815599437068
 31
0.0
  0
LINE
  5
7C3D
330
81D7
100
AcDbEntity
  8
1
100
AcDbLine
 10
5395.379544961155
 20
2244.815599437067
 30
0.0
 11
5395.379544961166
 21
2144.815599437068
 31
0.0
  0
LINE
  5
7C3E
330
81D7
100
AcDbEntity
  8
1
100
AcDbLine
 10
4782.379544961156
 20
3584.815599437068
 30
0.0
 11
5382.379544961154
 21
3584.815599437068
 31
0.0
  0
LINE
  5
7C3F
330
81D7
100
AcDbEntity
  8
2
100
AcDbLine
 10
3839.800446315457
 20
2964.815599437068
 30
0.0
 11
5492.899192718892
 21
2964.815599437068
 31
0.0
  0
LINE
  5
7C40
330
81D7
100
AcDbEntity
  8
1
100
AcDbLine
 10
5332.879544961155
 20
2144.815599437068
 30
0.0
 11
5395.379544961166
 21
2144.815599437068
 31
0.0
1001
ACAD
1000
ASC_BOUNDS
1002
{
1070
    19
1005
0
1005
0
1002
}
  0
LINE
  5
7C41
330
81D7
100
AcDbEntity
  8
2
100
AcDbLine
 10
4782.379544961156
 20
3757.034540673089
 30
0.0
 11
4782.379544961155
 21
1939.815599437068
 31
0.0
  0
INSERT
  5
7C43
330
81D7
100
AcDbEntity
  8
0
100
AcDbBlockReference
  2
YA_N
 10
-1638.667820090515
 20
-980.7401201518075
 30
0.0
 41
20.0
 42
20.0
 43
20.0
  0
INSERT
  5
7C45
330
81D7
100
AcDbEntity
  8
0
100
AcDbBlockReference
  2
YA_N
 10
-1552.816625123014
 20
-1070.405552057982
 30
0.0
 41
20.0
 42
20.0
 43
20.0
  0
ARC
  5
7C47
330
81D7
100
AcDbEntity
  8
1
100
AcDbCircle
 10
2677.667648392393
 20
2519.815599437067
 30
0.0
 40
185.0
100
AcDbArc
 50
287.9452509999999
 51
252.054749
  0
LINE
  5
7C48
330
81D7
100
AcDbEntity
  8
1
100
AcDbLine
 10
2620.667648392393
 20
2343.815599437067
 30
0.0
 11
2734.667648392393
 21
2343.815599437067
 31
0.0
  0
LINE
  5
7C4A
330
81D7
100
AcDbEntity
  8
1
100
AcDbLine
 10
2515.667648392393
 20
2415.074632437067
 30
0.0
 11
2515.667648392393
 21
2339.815599437068
 31
0.0
  0
LINE
  5
7C4B
330
81D7
100
AcDbEntity
  8
1
100
AcDbLine
 10
2575.167648392393
 20
2344.964158437067
 30
0.0
 11
2584.674362392392
 21
2359.886766437067
 31
0.0
  0
LINE
  5
7C4E
330
81D7
100
AcDbEntity
  8
1
100
AcDbLine
 10
2575.167648392393
 20
2356.815599437067
 30
0.0
 11
2575.167648392393
 21
2339.815599437068
 31
0.0
  0
LINE
  5
7C50
330
81D7
100
AcDbEntity
  8
1
100
AcDbLine
 10
2572.167648392392
 20
2359.815599437067
 30
0.0
 11
2518.667648392392
 21
2359.815599437067
 31
0.0
  0
ARC
  5
7C51
330
81D7
100
AcDbEntity
  8
1
100
AcDbCircle
 10
2518.667648392392
 20
2356.815599437067
 30
0.0
 40
3.0
100
AcDbArc
 50
90.0
 51
180.0
  0
LINE
  5
7C58
330
81D7
100
AcDbEntity
  8
1
100
AcDbLine
 10
2566.843735392392
 20
2359.815599437067
 30
0.0
 11
2572.023483392393
 21
2367.946214437067
 31
0.0
  0
ARC
  5
7C5A
330
81D7
100
AcDbEntity
  8
1
100
AcDbCircle
 10
2572.167648392392
 20
2356.815599437067
 30
0.0
 40
3.0
100
AcDbArc
 50
0.0
 51
90.0
  0
LINE
  5
7C5B
330
81D7
100
AcDbEntity
  8
1
100
AcDbLine
 10
2515.667648392393
 20
2415.074632437067
 30
0.0
 11
2522.051620392392
 21
2419.772386437068
 31
0.0
  0
LINE
  5
7C60
330
81D7
100
AcDbEntity
  8
1
100
AcDbLine
 10
2780.167648392394
 20
2344.964158437067
 30
0.0
 11
2770.660934392392
 21
2359.886766437067
 31
0.0
  0
LINE
  5
7C64
330
81D7
100
AcDbEntity
  8
1
100
AcDbLine
 10
2780.167648392394
 20
2356.815599437067
 30
0.0
 11
2780.167648392394
 21
2339.815599437068
 31
0.0
  0
LINE
  5
7C65
330
81D7
100
AcDbEntity
  8
1
100
AcDbLine
 10
2839.667648392392
 20
2415.074632437067
 30
0.0
 11
2839.667648392392
 21
2339.815599437068
 31
0.0
  0
LINE
  5
7C67
330
81D7
100
AcDbEntity
  8
1
100
AcDbLine
 10
2783.167648392392
 20
2359.815599437067
 30
0.0
 11
2836.667648392392
 21
2359.815599437067
 31
0.0
  0
LINE
  5
7C69
330
81D7
100
AcDbEntity
  8
1
100
AcDbLine
 10
2788.491562392392
 20
2359.815599437067
 30
0.0
 11
2783.311813392392
 21
2367.946214437067
 31
0.0
  0
ARC
  5
7C6A
330
81D7
100
AcDbEntity
  8
1
100
AcDbCircle
 10
2783.167648392392
 20
2356.815599437067
 30
0.0
 40
3.0
100
AcDbArc
 50
90.0
 51
180.0
  0
ARC
  5
7C6B
330
81D7
100
AcDbEntity
  8
1
100
AcDbCircle
 10
2836.667648392392
 20
2356.815599437067
 30
0.0
 40
3.0
100
AcDbArc
 50
0.0
 51
90.0
  0
LINE
  5
7C76
330
81D7
100
AcDbEntity
  8
1
100
AcDbLine
 10
2839.667648392392
 20
2415.074632437067
 30
0.0
 11
2833.283737392392
 21
2419.772386437068
 31
0.0
  0
LINE
  5
7C77
330
81D7
100
AcDbEntity
  8
1
100
AcDbLine
 10
2902.667648392394
 20
2284.815599437068
 30
0.0
 11
2452.667648392393
 21
2284.815599437068
 31
0.0
  0
LINE
  5
7C78
330
81D7
100
AcDbEntity
  8
1
100
AcDbLine
 10
2877.667648392392
 20
2284.815599437068
 30
0.0
 11
2877.667648392392
 21
2244.815599437067
 31
0.0
  0
LINE
  5
7C79
330
81D7
100
AcDbEntity
  8
1
100
AcDbLine
 10
2477.667648392392
 20
2284.815599437068
 30
0.0
 11
2477.667648392392
 21
2244.815599437067
 31
0.0
  0
LINE
  5
7C7A
330
81D7
100
AcDbEntity
  8
1
100
AcDbLine
 10
2887.769186793515
 20
2339.815599437068
 30
0.0
 11
2747.667648392393
 21
2339.815599437068
 31
0.0
  0
LINE
  5
7C7B
330
81D7
100
AcDbEntity
  8
1
100
AcDbLine
 10
2452.667648392393
 20
2284.815599437068
 30
0.0
 11
2467.869965026904
 21
2339.815599437068
 31
0.0
  0
LINE
  5
7C7C
330
81D7
100
AcDbEntity
  8
1
100
AcDbLine
 10
2902.667648392394
 20
2284.815599437068
 30
0.0
 11
2887.769186793515
 21
2339.815599437068
 31
0.0
  0
LINE
  5
7C7E
330
81D7
100
AcDbEntity
  8
1
100
AcDbLine
 10
2747.667648392393
 20
2329.815599437067
 30
0.0
 11
2607.667648392393
 21
2329.815599437067
 31
0.0
  0
LINE
  5
7C7F
330
81D7
100
AcDbEntity
  8
1
100
AcDbLine
 10
2747.667648392393
 20
2339.815599437068
 30
0.0
 11
2747.667648392393
 21
2329.815599437067
 31
0.0
  0
LINE
  5
7C80
330
81D7
100
AcDbEntity
  8
1
100
AcDbLine
 10
2607.667648392393
 20
2339.815599437068
 30
0.0
 11
2607.667648392393
 21
2329.815599437067
 31
0.0
  0
LINE
  5
7C81
330
81D7
100
AcDbEntity
  8
1
100
AcDbLine
 10
2607.667648392393
 20
2339.815599437068
 30
0.0
 11
2467.869965026904
 21
2339.815599437068
 31
0.0
  0
LINE
  5
7C84
330
81D7
100
AcDbEntity
  8
1
100
AcDbLine
 10
2927.667648392393
 20
2039.815599437068
 30
0.0
 11
1057.66764839239
 21
2039.815599437068
 31
0.0
1001
ACAD
1000
ASC_BOUNDS
1002
{
1070
    19
1002
}
  0
LINE
  5
7C85
330
81D7
100
AcDbEntity
  8
1
100
AcDbLine
 10
2927.667648392393
 20
2039.815599437068
 30
0.0
 11
2927.667648392393
 21
1939.815599437068
 31
0.0
  0
LINE
  5
7C86
330
81D7
100
AcDbEntity
  8
1
100
AcDbLine
 10
1057.66764839239
 20
2039.815599437068
 30
0.0
 11
1057.66764839239
 21
1939.815599437068
 31
0.0
  0
LINE
  5
7C87
330
81D7
100
AcDbEntity
  8
1
100
AcDbLine
 10
4020.379544961145
 20
2039.815599437068
 30
0.0
 11
5395.379544961155
 21
2039.815599437068
 31
0.0
1001
ACAD
1000
ASC_BOUNDS
1002
{
1070
    19
1005
0
1005
0
1005
0
1005
0
1005
0
1005
0
1002
}
  0
DIMENSION
  5
7C88
330
81D7
100
AcDbEntity
  8
3
100
AcDbDimension
  2
*D4
 10
1653.667648392393
 20
3734.430707880279
 30
0.0
 11
2116.167648392393
 21
3794.430707880279
 31
0.0
 12
1555.193403414105
 22
2684.637504022605
 32
0.0
 71
     5
 42
-1.0
  3
Standard
100
AcDbAlignedDimension
 13
2578.667648392393
 23
3584.815599437068
 33
0.0
 14
1653.667648392393
 24
3584.815599437068
 34
0.0
100
AcDbRotatedDimension
1001
ACAD
1000
DSTYLE
1002
{
1070
    40
1040
30.0
1002
}
  0
DIMENSION
  5
7C89
330
81D7
100
AcDbEntity
  8
3
100
AcDbDimension
  2
*D5
 10
1617.667648392393
 20
3884.774007978141
 30
0.0
 11
2098.167648392393
 21
3944.774007978141
 31
0.0
 12
1555.193403414105
 22
2684.637504022605
 32
0.0
 71
     5
 42
-1.0
  3
Standard
100
AcDbAlignedDimension
 13
2578.667648392393
 23
3584.815599437068
 33
0.0
 14
1617.667648392393
 24
3621.070938215615
 34
0.0
100
AcDbRotatedDimension
1001
ACAD
1000
DSTYLE
1002
{
1070
    40
1040
30.0
1002
}
  0
POINT
  5
7C8A
330
81D7
100
AcDbEntity
  8
1
100
AcDbPoint
 10
1057.66764839239
 20
2039.815599437068
 30
0.0
  0
POINT
  5
7C8B
330
81D7
100
AcDbEntity
  8
1
100
AcDbPoint
 10
1057.66764839239
 20
1974.815599437068
 30
0.0
  0
POINT
  5
7C8C
330
81D7
100
AcDbEntity
  8
1
100
AcDbPoint
 10
1057.66764839239
 20
2039.815599437068
 30
0.0
  0
POINT
  5
7C8D
330
81D7
100
AcDbEntity
  8
1
100
AcDbPoint
 10
1057.667648392393
 20
2144.815599437068
 30
0.0
  0
CIRCLE
  5
7C8E
330
81D7
100
AcDbEntity
  8
1
100
AcDbCircle
 10
2677.667648392393
 20
2519.815599437067
 30
0.0
 40
119.0
  0
LINE
  5
7C8F
330
81D7
100
AcDbEntity
  8
1
100
AcDbLine
 10
5342.379544961154
 20
3000.815599437068
 30
0.0
 11
5342.379544961154
 21
2244.815599437067
 31
0.0
  0
LINE
  5
7C90
330
81D7
100
AcDbEntity
  8
1
100
AcDbLine
 10
4222.379544961154
 20
3584.815599437068
 30
0.0
 11
4222.379544961154
 21
2964.815599437068
 31
0.0
  0
LINE
  5
7C91
330
81D7
100
AcDbEntity
  8
1
100
AcDbLine
 10
4782.379544961155
 20
3584.815599437068
 30
0.0
 11
4182.379544961153
 21
3584.815599437068
 31
0.0
  0
LINE
  5
7C92
330
81D7
100
AcDbEntity
  8
1
100
AcDbLine
 10
4222.379544961154
 20
2964.815599437068
 30
0.0
 11
4222.379544961154
 21
2702.315599437069
 31
0.0
  0
LINE
  5
7C93
330
81D7
100
AcDbEntity
  8
1
100
AcDbLine
 10
4094.379544961156
 20
2939.015599437068
 30
0.0
 11
4170.079544961156
 21
2939.015599437068
 31
0.0
  0
LINE
  5
7C94
330
81D7
100
AcDbEntity
  8
1
100
AcDbLine
 10
4094.379544961156
 20
2789.015599437068
 30
0.0
 11
4170.079544961156
 21
2789.015599437068
 31
0.0
  0
LINE
  5
7C95
330
81D7
100
AcDbEntity
  8
1
100
AcDbLine
 10
4084.379544961154
 20
2929.015599437068
 30
0.0
 11
4084.379544961156
 21
2799.015599437068
 31
0.0
  0
LINE
  5
7C96
330
81D7
100
AcDbEntity
  8
1
100
AcDbLine
 10
4209.379544961153
 20
2939.015599437068
 30
0.0
 11
4209.379544961154
 21
2789.015599437068
 31
0.0
  0
ARC
  5
7C97
330
81D7
100
AcDbEntity
  8
1
100
AcDbCircle
 10
4094.379544961156
 20
2929.015599437068
 30
0.0
 40
10.0
100
AcDbArc
 50
90.0
 51
180.0000000000003
  0
ARC
  5
7C98
330
81D7
100
AcDbEntity
  8
1
100
AcDbCircle
 10
4094.379544961156
 20
2799.015599437068
 30
0.0
 40
10.0
100
AcDbArc
 50
180.0000000000003
 51
270.0
  0
LINE
  5
7C99
330
81D7
100
AcDbEntity
  8
1
100
AcDbLine
 10
4170.079544961156
 20
2789.015599437068
 30
0.0
 11
4209.379544961154
 21
2789.015599437068
 31
0.0
  0
LINE
  5
7C9A
330
81D7
100
AcDbEntity
  8
1
100
AcDbLine
 10
4170.079544961156
 20
2939.015599437068
 30
0.0
 11
4209.379544961154
 21
2939.015599437068
 31
0.0
  0
LINE
  5
7C9B
330
81D7
100
AcDbEntity
  8
1
100
AcDbLine
 10
5462.379544961154
 20
2925.315599437068
 30
0.0
 11
5462.379544961154
 21
2825.315599437068
 31
0.0
  0
LINE
  5
7C9C
330
81D7
100
AcDbEntity
  8
1
100
AcDbLine
 10
5361.879544961155
 20
2935.315599437068
 30
0.0
 11
5361.879544961155
 21
2815.315599437068
 31
0.0
  0
LINE
  5
7C9D
330
81D7
100
AcDbEntity
  8
1
100
AcDbLine
 10
5361.879544961155
 20
2935.315599437068
 30
0.0
 11
5394.679544961155
 21
2935.315599437068
 31
0.0
  0
LINE
  5
7C9E
330
81D7
100
AcDbEntity
  8
1
100
AcDbLine
 10
5361.879544961155
 20
2815.315599437068
 30
0.0
 11
5394.679544961155
 21
2815.315599437068
 31
0.0
  0
ARC
  5
7C9F
330
81D7
100
AcDbEntity
  8
1
100
AcDbCircle
 10
5452.379544961154
 20
2925.315599437068
 30
0.0
 40
10.0
100
AcDbArc
 50
0.0000000000003257
 51
90.0
  0
ARC
  5
7CA0
330
81D7
100
AcDbEntity
  8
1
100
AcDbCircle
 10
5452.379544961154
 20
2825.315599437068
 30
0.0
 40
10.0
100
AcDbArc
 50
270.0
 51
0.0000000000003257
  0
LINE
  5
7CA1
330
81D7
100
AcDbEntity
  8
1
100
AcDbLine
 10
5394.679544961155
 20
2815.315599437068
 30
0.0
 11
5452.379544961154
 21
2815.315599437068
 31
0.0
  0
LINE
  5
7CA2
330
81D7
100
AcDbEntity
  8
1
100
AcDbLine
 10
5394.679544961155
 20
2935.315599437068
 30
0.0
 11
5452.379544961154
 21
2935.315599437068
 31
0.0
  0
LINE
  5
7CA3
330
81D7
100
AcDbEntity
  8
1
100
AcDbLine
 10
4069.379544961154
 20
2994.815599437068
 30
0.0
 11
4069.379544961154
 21
2934.815599437068
 31
0.0
  0
LINE
  5
7CA4
330
81D7
100
AcDbEntity
  8
1
100
AcDbLine
 10
4064.379544961155
 20
2992.315599437068
 30
0.0
 11
4069.379544961154
 21
2992.315599437068
 31
0.0
  0
LINE
  5
7CA5
330
81D7
100
AcDbEntity
  8
1
100
AcDbLine
 10
4064.379544961155
 20
2937.315599437068
 30
0.0
 11
4069.379544961154
 21
2937.315599437068
 31
0.0
  0
LINE
  5
7CA6
330
81D7
100
AcDbEntity
  8
1
100
AcDbLine
 10
3954.379544961157
 20
3168.015599437068
 30
0.0
 11
3954.379544961149
 21
2400.815599437068
 31
0.0
  0
LINE
  5
7CA7
330
81D7
100
AcDbEntity
  8
1
100
AcDbLine
 10
4064.379544961157
 20
3168.015599437068
 30
0.0
 11
4064.379544961151
 21
2400.815599437068
 31
0.0
  0
LINE
  5
7CA8
330
81D7
100
AcDbEntity
  8
2
100
AcDbLine
 10
3841.268593014312
 20
2519.815599437067
 30
0.0
 11
4795.525446741507
 21
2519.815599437067
 31
0.0
  0
LINE
  5
7CA9
330
81D7
100
AcDbEntity
  8
1
100
AcDbLine
 10
3954.379544961153
 20
2638.815599437068
 30
0.0
 11
4064.379544961154
 21
2638.815599437068
 31
0.0
  0
LINE
  5
7CAA
330
81D7
100
AcDbEntity
  8
1
100
AcDbLine
 10
3954.379544961152
 20
2400.815599437068
 30
0.0
 11
4064.379544961151
 21
2400.815599437068
 31
0.0
  0
LINE
  5
7CAB
330
81D7
100
AcDbEntity
  8
1
100
AcDbLine
 10
3832.379544961153
 20
3244.815599437067
 30
0.0
 11
3832.379544961159
 21
2299.815599437067
 31
0.0
  0
LINE
  5
7CAC
330
81D7
100
AcDbEntity
  8
1
100
AcDbLine
 10
3832.379544961158
 20
2299.815599437067
 30
0.0
 11
4084.379544961159
 21
2299.815599437067
 31
0.0
  0
LINE
  5
7CAD
330
81D7
100
AcDbEntity
  8
1
100
AcDbLine
 10
4084.379544961151
 20
3244.815599437067
 30
0.0
 11
4084.379544961151
 21
3224.815599437068
 31
0.0
  0
LINE
  5
7CAE
330
81D7
100
AcDbEntity
  8
1
100
AcDbLine
 10
4084.379544961158
 20
2319.815599437067
 30
0.0
 11
4084.379544961158
 21
2299.815599437069
 31
0.0
  0
POINT
  5
7CAF
330
81D7
100
AcDbEntity
  8
1
100
AcDbPoint
 10
5462.379544961154
 20
2925.315599437068
 30
0.0
  0
LINE
  5
7CB0
330
81D7
100
AcDbEntity
  8
2
100
AcDbLine
 10
3087.539575757297
 20
5602.328478546994
 30
0.0
 11
944.3055706793947
 21
5602.328478546993
 31
0.0
  0
LINE
  5
7CB1
330
81D7
100
AcDbEntity
  8
2
100
AcDbLine
 10
1617.66764839239
 20
4601.069769792704
 30
0.0
 11
1617.66764839239
 21
6136.836861418318
 31
0.0
  0
INSERT
  5
7CB2
330
81D7
100
AcDbEntity
  8
0
100
AcDbBlockReference
  2
YA_N
 10
1902.396177633552
 20
-2784.746590060132
 30
0.0
  0
LINE
  5
7CB4
330
81D7
100
AcDbEntity
  8
1
100
AcDbLine
 10
5395.379544961155
 20
2150.347104507734
 30
0.0
 11
5395.379544961155
 21
2144.815599437068
 31
0.0
  0
LINE
  5
7CB5
330
81D7
100
AcDbEntity
  8
1
100
AcDbLine
 10
4020.379544961154
 20
1939.815599437068
 30
0.0
 11
5395.379544961155
 21
1939.815599437068
 31
0.0
1001
ACAD
1000
ASC_BOUNDS
1002
{
1070
    19
1002
}
  0
LINE
  5
7CB6
330
81D7
100
AcDbEntity
  8
1
100
AcDbLine
 10
5395.379544961155
 20
2039.815599437068
 30
0.0
 11
5395.379544961155
 21
1939.815599437068
 31
0.0
  0
LINE
  5
7CBA
330
81D7
100
AcDbEntity
  8
1
100
AcDbLine
 10
4069.379544961154
 20
2994.815599437068
 30
0.0
 11
4222.379544961154
 21
2994.815599437068
 31
0.0
  0
LINE
  5
7CBB
330
81D7
100
AcDbEntity
  8
1
100
AcDbLine
 10
4069.379544961154
 20
2934.815599437068
 30
0.0
 11
4086.233380219389
 21
2934.815599437068
 31
0.0
  0
LINE
  5
7CBC
330
81D7
100
AcDbEntity
  8
1
100
AcDbLine
 10
2927.667648392393
 20
1939.815599437068
 30
0.0
 11
1057.66764839239
 21
1939.815599437068
 31
0.0
1001
ACAD
1000
ASC_BOUNDS
1002
{
1070
    19
1002
}
  0
POINT
  5
7CC0
330
81D7
100
AcDbEntity
  8
1
100
AcDbPoint
 10
1057.66764839239
 20
2039.815599437068
 30
0.0
  0
POINT
  5
7CC1
330
81D7
100
AcDbEntity
  8
1
100
AcDbPoint
 10
1057.66764839239
 20
1939.815599437068
 30
0.0
  0
POINT
  5
7CC2
330
81D7
100
AcDbEntity
  8
1
100
AcDbPoint
 10
1057.66764839239
 20
2039.815599437068
 30
0.0
  0
POINT
  5
7CC3
330
81D7
100
AcDbEntity
  8
1
100
AcDbPoint
 10
1057.66764839239
 20
2144.815599437068
 30
0.0
  0
ARC
  5
7CC4
330
81D7
100
AcDbEntity
  8
1
100
AcDbCircle
 10
1617.667648392393
 20
2964.815599437068
 30
0.0
 40
536.0
100
AcDbArc
 50
86.14887687350229
 51
90.0
  0
CIRCLE
  5
7CC5
330
81D7
100
AcDbEntity
  8
1
100
AcDbCircle
 10
1617.667648392393
 20
2964.815599437068
 30
0.0
 40
203.2
  0
ARC
  5
7CC6
330
81D7
100
AcDbEntity
  8
1
100
AcDbCircle
 10
1617.667648392393
 20
2964.815599437068
 30
0.0
 40
280.0
100
AcDbArc
 50
70.82933319943862
 51
257.0658187862481
  0
ARC
  5
7CC7
330
81D7
100
AcDbEntity
  8
1
100
AcDbCircle
 10
2677.667648392393
 20
2519.815599437067
 30
0.0
 40
220.0
100
AcDbArc
 50
257.0658187862481
 51
70.82933319943859
  0
LINE
  5
7CC8
330
81D7
100
AcDbEntity
  8
1
100
AcDbLine
 10
1688.59872067184
 20
3155.233621129575
 30
0.0
 11
2719.207006666282
 21
2631.330090487304
 31
0.0
  0
LINE
  5
7CC9
330
81D7
100
AcDbEntity
  8
1
100
AcDbLine
 10
1576.550210388091
 20
2765.819126372939
 30
0.0
 11
2653.588046411528
 21
2403.277310585536
 31
0.0
  0
LINE
  5
7CCA
330
81D7
100
AcDbEntity
  8
1
100
AcDbLine
 10
1554.994802033842
 20
2691.919805535224
 30
0.0
 11
2628.424697682104
 21
2305.397475657047
 31
0.0
  0
LINE
  5
7CCB
330
81D7
100
AcDbEntity
  8
1
100
AcDbLine
 10
3954.379544961157
 20
3168.015599437068
 30
0.0
 11
4064.379544961157
 21
3168.015599437068
 31
0.0
  0
LINE
  5
7CCC
330
81D7
100
AcDbEntity
  8
1
100
AcDbLine
 10
3954.379544961153
 20
2761.615599437068
 30
0.0
 11
4064.379544961154
 21
2761.615599437068
 31
0.0
  0
LINE
  5
7CCD
330
81D7
100
AcDbEntity
  8
1
100
AcDbLine
 10
3832.379544961153
 20
3244.815599437067
 30
0.0
 11
4084.379544961151
 21
3244.815599437067
 31
0.0
  0
DIMENSION
  5
7CCE
330
81D7
100
AcDbEntity
  8
3
100
AcDbDimension
  2
*D6
 10
5342.379544961154
 20
3778.007552970695
 30
0.0
 11
4782.379544961155
 21
3838.007552970696
 31
0.0
 12
1317.573716349692
 22
2684.637504022605
 32
0.0
 71
     5
 42
-1.0
  3
Standard
100
AcDbAlignedDimension
 13
4222.379544961154
 23
3554.274183652376
 33
0.0
 14
5342.379544961154
 24
3557.317576990103
 34
0.0
100
AcDbRotatedDimension
1001
ACAD
1000
DSTYLE
1002
{
1070
    40
1040
30.0
1002
}
  0
LINE
  5
7CD2
330
81D7
100
AcDbEntity
  8
1
100
AcDbLine
 10
2177.667648392392
 20
6215.328478546992
 30
0.0
 11
1057.667648392392
 21
6215.328478546992
 31
0.0
  0
LINE
  5
7CD3
330
81D7
100
AcDbEntity
  8
1
100
AcDbLine
 10
2927.667648392391
 20
4840.328478546992
 30
0.0
 11
1057.667648392392
 21
4840.328478546992
 31
0.0
  0
LINE
  5
7CD4
330
81D7
100
AcDbEntity
  8
1
100
AcDbLine
 10
1057.66764839239
 20
4840.328478546992
 30
0.0
 11
1057.66764839239
 21
5042.328478546992
 31
0.0
  0
LINE
  5
7CD5
330
81D7
100
AcDbEntity
  8
1
100
AcDbLine
 10
2177.667648392392
 20
6162.328478546992
 30
0.0
 11
2177.667648392392
 21
6215.328478546992
 31
0.0
  0
LINE
  5
7CD6
330
81D7
100
AcDbEntity
  8
1
100
AcDbLine
 10
2927.667648392391
 20
4840.328478546992
 30
0.0
 11
2927.667648392391
 21
5640.328478546994
 31
0.0
  0
LINE
  5
7CD7
330
81D7
100
AcDbEntity
  8
1
100
AcDbLine
 10
2927.667648392391
 20
5640.328478546992
 30
0.0
 11
2578.667648392392
 21
5640.328478546992
 31
0.0
  0
LINE
  5
7CD8
330
81D7
100
AcDbEntity
  8
2
100
AcDbLine
 10
2677.667648392391
 20
4527.752938368144
 30
0.0
 11
2677.667648392391
 21
5432.426821113203
 31
0.0
  0
DIMENSION
  5
7CD9
330
81D7
100
AcDbEntity
  8
3
100
AcDbDimension
  2
*D10
 10
2177.667648392392
 20
6517.343137052214
 30
0.0
 11
2552.667648392391
 21
6577.343137052214
 31
0.0
 12
1555.193403414105
 22
2225.514067513171
 32
0.0
 71
     5
 42
-1.0
  3
Standard
100
AcDbAlignedDimension
 13
2927.667648392391
 23
5640.328478546994
 33
0.0
 14
2177.667648392392
 24
6215.328478546992
 34
0.0
100
AcDbRotatedDimension
1001
ACAD
1000
DSTYLE
1002
{
1070
    40
1040
30.0
1002
}
  0
DIMENSION
  5
7CDA
330
81D7
100
AcDbEntity
  8
3
100
AcDbDimension
  2
*D11
 10
1057.667648392392
 20
6517.343137052214
 30
0.0
 11
1617.667648392392
 21
6577.343137052214
 31
0.0
 12
1555.193403414105
 22
2225.514067513171
 32
0.0
 71
     5
 42
-1.0
  3
Standard
100
AcDbAlignedDimension
 13
2177.667648392392
 23
6215.328478546992
 33
0.0
 14
1057.667648392392
 24
6215.328478546992
 34
0.0
100
AcDbRotatedDimension
1001
ACAD
1000
DSTYLE
1002
{
1070
    40
1040
30.0
1002
}
  0
DIMENSION
  5
7CDB
330
81D7
100
AcDbEntity
  8
3
100
AcDbDimension
  2
*D12
 10
757.2434262259756
 20
4840.328478546992
 30
0.0
 11
697.2434262259756
 21
5527.828478546992
 31
0.0
 12
1555.193403414105
 22
2225.514067513171
 32
0.0
 71
     5
 42
-1.0
  3
Standard
100
AcDbAlignedDimension
 13
1057.667648392392
 23
6215.328478546992
 33
0.0
 14
1057.66764839239
 24
4840.328478546992
 34
0.0
 50
270.0
100
AcDbRotatedDimension
1001
ACAD
1000
DSTYLE
1002
{
1070
    40
1040
30.0
1002
}
  0
DIMENSION
  5
7CDD
330
81D7
100
AcDbEntity
  8
3
100
AcDbDimension
  2
*D14
 10
3228.408354779016
 20
4840.328478546992
 30
0.0
 11
3168.408354779016
 21
5240.328478546992
 31
0.0
 12
1555.193403414105
 22
2225.514067513171
 32
0.0
 71
     5
 42
-1.0
  3
Standard
100
AcDbAlignedDimension
 13
2927.667648392391
 23
5640.328478546994
 33
0.0
 14
2927.667648392391
 24
4840.328478546992
 34
0.0
 50
270.0
100
AcDbRotatedDimension
1001
ACAD
1000
DSTYLE
1002
{
1070
    40
1040
30.0
1002
}
  0
DIMENSION
  5
7CDE
330
81D7
100
AcDbEntity
  8
3
100
AcDbDimension
  2
*D15
 10
5666.270538789289
 20
3439.815599437068
 30
0.0
 11
5666.270538789289
 21
2964.815599437068
 31
0.0
 12
1317.573716349692
 22
2684.637504022605
 32
0.0
 70
   128
  1
\U+03C6<>
 71
     5
 42
-1.0
  3
Standard
100
AcDbAlignedDimension
 13
5347.879544961156
 23
2489.815599437068
 33
0.0
 14
5347.879544961156
 24
3439.815599437068
 34
0.0
 50
90.0
100
AcDbRotatedDimension
1001
ACAD
1000
DSTYLE
1002
{
1070
    40
1040
30.0
1002
}
  0
CIRCLE
  5
7CDF
330
81D7
100
AcDbEntity
  8
1
100
AcDbCircle
 10
1617.667648392393
 20
2964.815599437068
 30
0.0
 40
475.0
  0
CIRCLE
  5
7CE0
330
81D7
100
AcDbEntity
  8
1
100
AcDbCircle
 10
1617.667648392393
 20
2964.815599437068
 30
0.0
 40
515.0
  0
LINE
  5
7CE1
330
81D7
100
AcDbEntity
  8
1
100
AcDbLine
 10
1709.614921957353
 20
3229.28809117103
 30
0.0
 11
2749.911934764861
 21
2727.615414370895
 31
0.0
  0
LINE
  5
7CE2
330
81D7
100
AcDbEntity
  8
1
100
AcDbLine
 10
4020.379544961145
 20
2039.815599437068
 30
0.0
 11
4020.379544961135
 21
1939.815599437068
 31
0.0
  0
LINE
  5
7CE3
330
81D7
100
AcDbEntity
  8
1
100
AcDbLine
 10
2897.667648392394
 20
4652.328478546992
 30
0.0
 11
1337.667648392393
 21
4652.328478546992
 31
0.0
  0
LINE
  5
7CE4
330
81D7
100
AcDbEntity
  8
1
100
AcDbLine
 10
2897.667648392394
 20
4942.328478546993
 30
0.0
 11
1337.667648392393
 21
4942.328478546992
 31
0.0
  0
LINE
  5
7CE5
330
81D7
100
AcDbEntity
  8
1
100
AcDbLine
 10
2796.667648392393
 20
4812.328478546993
 30
0.0
 11
2558.667648392393
 21
4812.328478546993
 31
0.0
  0
LINE
  5
7CE6
330
81D7
100
AcDbEntity
  8
1
100
AcDbLine
 10
2796.667648392393
 20
4922.328478546994
 30
0.0
 11
2558.667648392393
 21
4922.328478546994
 31
0.0
  0
LINE
  5
7CE7
330
81D7
100
AcDbEntity
  8
1
100
AcDbLine
 10
1337.667648392393
 20
4652.328478546992
 30
0.0
 11
1337.667648392393
 21
4942.328478546992
 31
0.0
  0
LINE
  5
7CE8
330
81D7
100
AcDbEntity
  8
1
100
AcDbLine
 10
2897.667648392394
 20
4652.328478546992
 30
0.0
 11
2897.667648392394
 21
4942.328478546993
 31
0.0
  0
LINE
  5
7CE9
330
81D7
100
AcDbEntity
  8
1
100
AcDbLine
 10
1414.467648392393
 20
4812.328478546993
 30
0.0
 11
1414.467648392393
 21
4922.328478546992
 31
0.0
  0
LINE
  5
7CEA
330
81D7
100
AcDbEntity
  8
1
100
AcDbLine
 10
1820.867648392392
 20
4812.328478546993
 30
0.0
 11
1820.867648392392
 21
4922.328478546992
 31
0.0
  0
LINE
  5
7CEB
330
81D7
100
AcDbEntity
  8
1
100
AcDbLine
 10
2558.667648392393
 20
4812.328478546993
 30
0.0
 11
2558.667648392393
 21
4922.328478546994
 31
0.0
  0
LINE
  5
7CEC
330
81D7
100
AcDbEntity
  8
1
100
AcDbLine
 10
2796.667648392393
 20
4812.328478546993
 30
0.0
 11
2796.667648392393
 21
4922.328478546994
 31
0.0
  0
LINE
  5
7CED
330
81D7
100
AcDbEntity
  8
1
100
AcDbLine
 10
1820.867648392392
 20
4922.328478546992
 30
0.0
 11
1414.467648392393
 21
4922.328478546992
 31
0.0
  0
LINE
  5
7CEE
330
81D7
100
AcDbEntity
  8
1
100
AcDbLine
 10
1820.867648392392
 20
4812.328478546993
 30
0.0
 11
1414.467648392393
 21
4812.328478546993
 31
0.0
  0
LINE
  5
7CEF
330
81D7
100
AcDbEntity
  8
1
100
AcDbLine
 10
2578.667648392392
 20
6162.328478546992
 30
0.0
 11
974.6676483923918
 21
6162.328478546992
 31
0.0
  0
LINE
  5
7CF0
330
81D7
100
AcDbEntity
  8
1
100
AcDbLine
 10
2578.667648392392
 20
5042.328478546992
 30
0.0
 11
974.6676483923918
 21
5042.328478546992
 31
0.0
  0
LINE
  5
7CF1
330
81D7
100
AcDbEntity
  8
1
100
AcDbLine
 10
2860.167648392391
 20
5488.828478546993
 30
0.0
 11
2578.667648392392
 21
5488.828478546993
 31
0.0
  0
LINE
  5
7CF2
330
81D7
100
AcDbEntity
  8
1
100
AcDbLine
 10
2495.167648392391
 20
4927.328478546993
 30
0.0
 11
2495.167648392391
 21
5042.328478546992
 31
0.0
  0
LINE
  5
7CF3
330
81D7
100
AcDbEntity
  8
1
100
AcDbLine
 10
2860.167648392391
 20
4927.328478546993
 30
0.0
 11
2860.167648392391
 21
5488.828478546993
 31
0.0
  0
LINE
  5
7CF4
330
81D7
100
AcDbEntity
  8
1
100
AcDbLine
 10
2860.167648392391
 20
4927.328478546993
 30
0.0
 11
2495.167648392391
 21
4927.328478546994
 31
0.0
  0
LINE
  5
7CF5
330
81D7
100
AcDbEntity
  8
1
100
AcDbLine
 10
2653.667648392391
 20
4922.328478546994
 30
0.0
 11
2653.667648392391
 21
4927.328478546993
 31
0.0
  0
LINE
  5
7CF6
330
81D7
100
AcDbEntity
  8
1
100
AcDbLine
 10
2701.667648392391
 20
4922.328478546994
 30
0.0
 11
2701.667648392391
 21
4927.328478546993
 31
0.0
  0
LINE
  5
7CF7
330
81D7
100
AcDbEntity
  8
1
100
AcDbLine
 10
1587.667648392391
 20
4922.328478546992
 30
0.0
 11
1587.667648392391
 21
5042.328478546992
 31
0.0
  0
LINE
  5
7CF8
330
81D7
100
AcDbEntity
  8
1
100
AcDbLine
 10
1647.66764839239
 20
4922.328478546992
 30
0.0
 11
1647.66764839239
 21
5042.328478546992
 31
0.0
  0
LINE
  5
7CF9
330
81D7
100
AcDbEntity
  8
1
100
AcDbLine
 10
4069.379544961154
 20
2702.315599437069
 30
0.0
 11
4630.879544961154
 21
2702.315599437069
 31
0.0
  0
LINE
  5
7CFA
330
81D7
100
AcDbEntity
  8
1
100
AcDbLine
 10
4069.379544961154
 20
2337.315599437068
 30
0.0
 11
4630.879544961154
 21
2337.31559943707
 31
0.0
  0
LINE
  5
7CFB
330
81D7
100
AcDbEntity
  8
1
100
AcDbLine
 10
4069.379544961154
 20
2702.315599437068
 30
0.0
 11
4069.379544961154
 21
2337.315599437068
 31
0.0
  0
LINE
  5
7CFC
330
81D7
100
AcDbEntity
  8
1
100
AcDbLine
 10
4064.379544961154
 20
2543.815599437068
 30
0.0
 11
4069.379544961154
 21
2543.815599437068
 31
0.0
  0
LINE
  5
7CFD
330
81D7
100
AcDbEntity
  8
1
100
AcDbLine
 10
4064.379544961154
 20
2495.815599437068
 30
0.0
 11
4069.379544961154
 21
2495.815599437068
 31
0.0
  0
DIMENSION
  5
7D04
330
81D7
100
AcDbEntity
  8
3
100
AcDbDimension
  2
*D16
 10
749.7306630971304
 20
2964.815599437068
 30
0.0
 11
689.7306630971304
 21
3274.815599437068
 31
0.0
 12
1555.193403414105
 22
2684.637504022605
 32
0.0
 71
     5
 42
-1.0
  3
Standard
100
AcDbAlignedDimension
 13
1611.167648392393
 23
3584.815599437068
 33
0.0
 14
961.4123096138465
 24
2964.815599437068
 34
0.0
 50
270.0
100
AcDbRotatedDimension
1001
ACAD
1000
DSTYLE
1002
{
1070
    40
1040
30.0
1002
}
  0
LINE
  5
7D09
330
81D7
100
AcDbEntity
  8
1
100
AcDbLine
 10
4182.379544961154
 20
3584.815599437068
 30
0.0
 11
4182.379544961154
 21
3581.815599437068
 31
0.0
  0
LINE
  5
7D0A
330
81D7
100
AcDbEntity
  8
1
100
AcDbLine
 10
5382.379544961154
 20
3584.815599437068
 30
0.0
 11
5382.379544961154
 21
3581.815599437068
 31
0.0
  0
LINE
  5
7D0B
330
81D7
100
AcDbEntity
  8
1
100
AcDbLine
 10
4782.379544961155
 20
3581.815599437068
 30
0.0
 11
4182.379544961153
 21
3581.815599437068
 31
0.0
  0
LINE
  5
7D0C
330
81D7
100
AcDbEntity
  8
1
100
AcDbLine
 10
4782.379544961156
 20
3581.815599437068
 30
0.0
 11
5382.379544961154
 21
3581.815599437068
 31
0.0
  0
LINE
  5
7D0D
330
81D7
100
AcDbEntity
  8
1
100
AcDbLine
 10
2578.667648392392
 20
5042.328478546992
 30
0.0
 11
2578.667648392392
 21
6162.328478546992
 31
0.0
  0
LINE
  5
7D0F
330
81D7
100
AcDbEntity
  8
1
100
AcDbLine
 10
974.6676483923918
 20
5042.328478546992
 30
0.0
 11
974.6676483923913
 21
6162.32847854699
 31
0.0
  0
LINE
  5
7D10
330
81D7
100
AcDbEntity
  8
1
100
AcDbLine
 10
1057.66764839239
 20
6162.328478546992
 30
0.0
 11
1057.66764839239
 21
6215.328478546992
 31
0.0
  0
LINE
  5
7D11
330
81D7
100
AcDbEntity
  8
1
100
AcDbLine
 10
1653.66764839239
 20
5042.328478546992
 30
0.0
 11
1653.66764839239
 21
6162.328478546992
 31
0.0
  0
LINE
  5
7D12
330
81D7
100
AcDbEntity
  8
1
100
AcDbLine
 10
1653.66764839239
 20
6162.328478546992
 30
0.0
 11
2578.667648392392
 21
5042.328478546992
 31
0.0
  0
LINE
  5
7D13
330
81D7
100
AcDbEntity
  8
1
100
AcDbLine
 10
2578.667648392392
 20
6162.328478546992
 30
0.0
 11
1653.66764839239
 21
5042.328478546992
 31
0.0
  0
LINE
  5
7D14
330
81D7
100
AcDbEntity
  8
1
100
AcDbLine
 10
4630.879544961154
 20
2702.315599437068
 30
0.0
 11
4630.879544961154
 21
2337.315599437068
 31
0.0
  0
LINE
  5
7D15
330
81D7
100
AcDbEntity
  8
1
100
AcDbLine
 10
4156.000385522848
 20
2284.815599437068
 30
0.0
 11
4562.906563040444
 21
2284.815599437068
 31
0.0
  0
LINE
  5
7D16
330
81D7
100
AcDbEntity
  8
1
100
AcDbLine
 10
4562.906563040444
 20
2337.315599437069
 30
0.0
 11
4562.906563040444
 21
2244.815599437067
 31
0.0
  0
LINE
  5
7D17
330
81D7
100
AcDbEntity
  8
1
100
AcDbLine
 10
4156.000385522848
 20
2337.315599437069
 30
0.0
 11
4156.000385522848
 21
2244.815599437067
 31
0.0
  0
LINE
  5
7F2B
330
81D7
100
AcDbEntity
  8
4
100
AcDbLine
 10
5550.0
 20
1500.0
 30
0.0
 11
5550.0
 21
900.0
 31
0.0
  0
LINE
  5
7F2C
330
81D7
100
AcDbEntity
  8
4
100
AcDbLine
 10
3450.0
 20
1500.0
 30
0.0
 11
3450.0
 21
900.0
 31
0.0
  0
LINE
  5
7F2D
330
81D7
100
AcDbEntity
  8
4
100
AcDbLine
 10
1950.0
 20
1500.0
 30
0.0
 11
1950.0
 21
900.0
 31
0.0
  0
LINE
  5
7F30
330
81D7
100
AcDbEntity
  8
4
100
AcDbLine
 10
1950.0
 20
900.0
 30
0.0
 11
5550.0
 21
900.0
 31
0.0
  0
LINE
  5
7F31
330
81D7
100
AcDbEntity
  8
4
100
AcDbLine
 10
1950.0
 20
1200.0
 30
0.0
 11
5550.0
 21
1200.0
 31
0.0
  0
TEXT
  5
7F32
330
81D7
100
AcDbEntity
  8
4
100
AcDbText
 10
2065.506242540704
 20
1294.629077599838
 30
0.0
 40
150.0
  1
機器名称
100
AcDbText
  0
TEXT
  5
7F33
330
81D7
100
AcDbEntity
  8
4
100
AcDbText
 10
2058.774318074392
 20
964.9354701960326
 30
0.0
 40
150.0
  1
機器型番
100
AcDbText
  0
TEXT
  5
7F34
330
81D7
100
AcDbEntity
  8
4
100
AcDbText
 10
3533.036236462995
 20
1267.715306872705
 30
0.0
 40
150.0
  1
ミツヤ多翼送風機
100
AcDbText
  0
TEXT
  5
7F35
330
81D7
100
AcDbEntity
  8
4
100
AcDbText
 10
3559.963486756442
 20
951.4787528398301
 30
0.0
 40
150.0
  1
MF#5 1/2-5
100
AcDbText
  0
TEXT
  5
7F37
330
81D7
100
AcDbEntity
  8
4
100
AcDbText
 10
2460.896315274695
 20
7150.286523997547
 30
0.0
 40
161.9999999999998
  1
床置防振ベット
100
AcDbText
  0
TEXT
  5
7F38
330
81D7
100
AcDbEntity
  8
4
100
AcDbText
 10
948.5027799883393
 20
7601.642928597894
 30
0.0
 40
216.0
  1
遠心式両吸込両持多翼ファン
100
AcDbText
  0
LINE
  5
7F39
330
81D7
100
AcDbEntity
  8
4
100
AcDbLine
 10
750.0
 20
7408.226262794413
 30
0.0
 11
5550.0
 21
7408.226262794413
 31
0.0
  0
LINE
  5
7F3A
330
81D7
100
AcDbEntity
  8
4
100
AcDbLine
 10
750.0
 20
8008.226262794414
 30
0.0
 11
5550.0
 21
8008.226262794414
 31
0.0
  0
LINE
  5
7F3B
330
81D7
100
AcDbEntity
  8
4
100
AcDbLine
 10
1950.0
 20
1500.0
 30
0.0
 11
5550.0
 21
1500.0
 31
0.0
  0
LINE
  5
7F3C
330
81D7
100
AcDbEntity
  8
4
100
AcDbLine
 10
750.0
 20
8008.226262794414
 30
0.0
 11
750.0
 21
7408.226262794413
 31
0.0
  0
TEXT
  5
7F3D
330
81D7
100
AcDbEntity
  8
4
100
AcDbText
 10
1153.319818546588
 20
7146.958432639029
 30
0.0
 40
161.9999999999998
  1
左回転上向
100
AcDbText
  0
TEXT
  5
7F3E
330
81D7
100
AcDbEntity
  8
4
100
AcDbText
 10
4406.908677747869
 20
8118.183244485924
 30
0.0
 40
168.0
  1
No.
100
AcDbText
  0
TEXT
  5
7F3F
330
81D7
100
AcDbEntity
  8
4
100
AcDbText
 10
3933.888187800039
 20
7150.286523997547
 30
0.0
 40
161.9999999999998
  1
縮尺：1/30
100
AcDbText
  0
LINE
  5
7F40
330
81D7
100
AcDbEntity
  8
4
100
AcDbLine
 10
5550.0
 20
8008.226262794414
 30
0.0
 11
5550.0
 21
7408.226262794413
 31
0.0
  0
LINE
  5
7F41
330
81D7
100
AcDbEntity
  8
4
100
AcDbLine
 10
6300.0
 20
8850.0
 30
0.0
 11
6300.0
 21
8850.0
 31
0.0
  0
LINE
  5
7F42
330
81D7
100
AcDbEntity
  8
4
100
AcDbLine
 10
4321.852267079594
 20
8043.790749376205
 30
0.0
 11
4321.852267079594
 21
8359.956784649257
 31
0.0
  0
LINE
  5
7F43
330
81D7
100
AcDbEntity
  8
4
100
AcDbLine
 10
4321.852267079594
 20
8359.956784649257
 30
0.0
 11
5550.0
 21
8359.956784649257
 31
0.0
  0
LINE
  5
7F44
330
81D7
100
AcDbEntity
  8
4
100
AcDbLine
 10
5550.0
 20
8359.956784649257
 30
0.0
 11
5550.0
 21
8043.790749376205
 31
0.0
  0
LINE
  5
7F45
330
81D7
100
AcDbEntity
  8
4
100
AcDbLine
 10
5550.0
 20
8043.790749376205
 30
0.0
 11
4321.852267079594
 21
8043.790749376205
 31
0.0
  0
LINE
  5
7F46
330
81D7
100
AcDbEntity
  8
4
100
AcDbLine
 10
0.0
 20
0.0
 30
0.0
 11
0.0
 21
8850.0
 31
0.0
  0
LINE
  5
7F47
330
81D7
100
AcDbEntity
  8
4
100
AcDbLine
 10
0.0
 20
8850.0
 30
0.0
 11
6300.0
 21
8850.0
 31
0.0
  0
LINE
  5
7F48
330
81D7
100
AcDbEntity
  8
4
100
AcDbLine
 10
6300.0
 20
8850.0
 30
0.0
 11
6300.0
 21
0.0
 31
0.0
  0
LINE
  5
7F49
330
81D7
100
AcDbEntity
  8
4
100
AcDbLine
 10
6300.0
 20
0.0
 30
0.0
 11
0.0
 21
0.0
 31
0.0
  0
DIMENSION
  5
8220
330
81D7
100
AcDbEntity
  8
3
100
AcDbDimension
  2
*D28
 10
4782.379544961156
 20
3988.54265228186
 30
0.0
 11
4307.379544961154
 21
4087.114080853289
 31
0.0
 70
    32
 71
     5
 42
950.0000000000031
  3
IGA
100
AcDbAlignedDimension
 13
3832.379544961153
 23
3244.815599437067
 33
0.0
 14
4782.379544961156
 24
3883.007552970695
 34
0.0
100
AcDbRotatedDimension
1001
ACAD
1000
DSTYLE
1002
{
1070
     3
1000
(<>)
1070
    40
1040
30.0
1070
    42
1040
1.0
1070
   143
1040
0.039
1070
   172
1070
     1
1070
   271
1070
     4
1070
   272
1070
     4
1070
   279
1070
     0
1070
   284
1070
     0
1070
   285
1070
     0
1070
   286
1070
     0
1070
   341
1005
81EB
1070
   343
1005
81EB
1070
   344
1005
81EB
1002
}
  0
DIMENSION
  5
822D
330
81D7
100
AcDbEntity
  8
3
100
AcDbDimension
  2
*D29
 10
5462.379544961154
 20
3988.54265228186
 30
0.0
 11
5122.379544961155
 21
4087.114080853289
 31
0.0
 70
    32
 71
     5
 42
679.9999999999982
  3
IGA
100
AcDbAlignedDimension
 13
4782.379544961156
 23
3883.007552970695
 33
0.0
 14
5462.379544961154
 24
2925.315599437068
 34
0.0
100
AcDbRotatedDimension
1001
ACAD
1000
DSTYLE
1002
{
1070
     3
1000
(<>)
1070
    40
1040
30.0
1070
    42
1040
1.0
1070
   143
1040
0.039
1070
   172
1070
     1
1070
   271
1070
     4
1070
   272
1070
     4
1070
   279
1070
     1
1070
   284
1070
     0
1070
   285
1070
     0
1070
   286
1070
     0
1070
   341
1005
81EB
1070
   343
1005
81EB
1070
   344
1005
81EB
1002
}
  0
DIMENSION
  5
82C7
330
81D7
100
AcDbEntity
  8
3
100
AcDbDimension
  2
*D38
 10
2927.667648392391
 20
4427.98278876884
 30
0.0
 11
1992.667648392391
 21
4502.98278876884
 31
0.0
 70
    32
 71
     5
 42
1869.999999999998
  3
IGA
100
AcDbAlignedDimension
 13
1057.667648392392
 23
4840.328478546992
 33
0.0
 14
2927.667648392391
 24
4840.328478546992
 34
0.0
100
AcDbRotatedDimension
1001
ACAD
1000
DSTYLE
1002
{
1070
    40
1040
30.0
1070
    42
1040
1.0
1070
   143
1040
0.039
1070
   172
1070
     1
1070
   271
1070
     4
1070
   272
1070
     4
1070
   279
1070
     0
1070
   284
1070
     0
1070
   285
1070
     0
1070
   286
1070
     0
1070
   341
1005
81EB
1070
   343
1005
81EB
1070
   344
1005
81EB
1002
}
  0
DIMENSION
  5
82D4
330
81D7
100
AcDbEntity
  8
3
100
AcDbDimension
  2
*D39
 10
974.6676483923931
 20
3884.774007978141
 30
0.0
 11
1296.167648392393
 21
3959.774007978141
 31
0.0
 70
    32
 71
     5
 42
643.0
  3
IGA
100
AcDbAlignedDimension
 13
1617.667648392393
 23
3606.900467925746
 33
0.0
 14
974.6676483923929
 24
2897.815599437068
 34
0.0
100
AcDbRotatedDimension
1001
ACAD
1000
DSTYLE
1002
{
1070
    40
1040
30.0
1070
    42
1040
1.0
1070
   143
1040
0.039
1070
   172
1070
     1
1070
   271
1070
     4
1070
   272
1070
     4
1070
   279
1070
     0
1070
   284
1070
     0
1070
   285
1070
     0
1070
   286
1070
     0
1070
   341
1005
81EB
1070
   343
1005
81EB
1070
   344
1005
81EB
1002
}
  0
DIMENSION
  5
82EA
330
81D7
100
AcDbEntity
  8
3
100
AcDbDimension
  2
*D40
 10
4782.379544961155
 20
1734.444351636742
 30
0.0
 11
4401.379544961154
 21
1809.444351636742
 31
0.0
 70
    32
 71
     5
 42
761.9999999999995
  3
IGA
100
AcDbAlignedDimension
 13
4020.379544961154
 23
1939.815599437068
 33
0.0
 14
4782.379544961155
 24
1939.815599437068
 34
0.0
100
AcDbRotatedDimension
1001
ACAD
1000
DSTYLE
1002
{
1070
    40
1040
30.0
1070
    42
1040
1.0
1070
   143
1040
0.039
1070
   172
1070
     1
1070
   271
1070
     4
1070
   272
1070
     4
1070
   279
1070
     0
1070
   284
1070
     0
1070
   285
1070
     0
1070
   286
1070
     0
1070
   341
1005
81EB
1070
   343
1005
81EB
1070
   344
1005
81EB
1002
}
  0
DIMENSION
  5
82F7
330
81D7
100
AcDbEntity
  8
3
100
AcDbDimension
  2
*D41
 10
5395.379544961155
 20
1734.444351636742
 30
0.0
 11
5088.879544961154
 21
1809.444351636742
 31
0.0
 70
    32
 71
     5
 42
613.0
  3
IGA
100
AcDbAlignedDimension
 13
4782.379544961155
 23
1939.815599437068
 33
0.0
 14
5395.379544961155
 24
1939.815599437068
 34
0.0
100
AcDbRotatedDimension
1001
ACAD
1000
DSTYLE
1002
{
1070
    40
1040
30.0
1070
    42
1040
1.0
1070
   143
1040
0.039
1070
   172
1070
     1
1070
   271
1070
     4
1070
   272
1070
     4
1070
   279
1070
     1
1070
   284
1070
     0
1070
   285
1070
     0
1070
   286
1070
     0
1070
   341
1005
81EB
1070
   343
1005
81EB
1070
   344
1005
81EB
1002
}
  0
DIMENSION
  5
8304
330
81D7
100
AcDbEntity
  8
3
100
AcDbDimension
  2
*D42
 10
1617.667648392393
 20
1734.444351636742
 30
0.0
 11
1337.667648392392
 21
1809.444351636742
 31
0.0
 70
    32
 71
     5
 42
560.0000000000022
  3
IGA
100
AcDbAlignedDimension
 13
1057.66764839239
 23
1939.815599437068
 33
0.0
 14
1617.667648392393
 24
1939.815599437068
 34
0.0
100
AcDbRotatedDimension
1001
ACAD
1000
DSTYLE
1002
{
1070
    40
1040
30.0
1070
    42
1040
1.0
1070
   143
1040
0.039
1070
   172
1070
     1
1070
   271
1070
     4
1070
   272
1070
     4
1070
   279
1070
     0
1070
   284
1070
     0
1070
   285
1070
     0
1070
   286
1070
     0
1070
   341
1005
81EB
1070
   343
1005
81EB
1070
   344
1005
81EB
1002
}
  0
DIMENSION
  5
8311
330
81D7
100
AcDbEntity
  8
3
100
AcDbDimension
  2
*D43
 10
2927.667648392393
 20
1734.444351636742
 30
0.0
 11
2272.667648392393
 21
1809.444351636742
 31
0.0
 70
    32
 71
     5
 42
1310.0
  3
IGA
100
AcDbAlignedDimension
 13
1617.667648392393
 23
1939.815599437068
 33
0.0
 14
2927.667648392393
 24
1939.815599437068
 34
0.0
100
AcDbRotatedDimension
1001
ACAD
1000
DSTYLE
1002
{
1070
    40
1040
30.0
1070
    42
1040
1.0
1070
   143
1040
0.039
1070
   172
1070
     1
1070
   271
1070
     4
1070
   272
1070
     4
1070
   279
1070
     1
1070
   284
1070
     0
1070
   285
1070
     0
1070
   286
1070
     0
1070
   341
1005
81EB
1070
   343
1005
81EB
1070
   344
1005
81EB
1002
}
  0
DIMENSION
  5
831E
330
81D7
100
AcDbEntity
  8
3
100
AcDbDimension
  2
*D44
 10
749.7306630971308
 20
2144.815599437068
 30
0.0
 11
674.7306630971304
 21
2554.815599437068
 31
0.0
 70
    32
 71
     5
 42
819.9999999999995
  3
IGA
100
AcDbAlignedDimension
 13
961.4123096138465
 23
2964.815599437068
 33
0.0
 14
1057.66764839239
 24
2144.815599437068
 34
0.0
 50
90.0
100
AcDbRotatedDimension
1001
ACAD
1000
DSTYLE
1002
{
1070
    40
1040
30.0
1070
    42
1040
1.0
1070
   143
1040
0.039
1070
   172
1070
     1
1070
   271
1070
     4
1070
   272
1070
     4
1070
   279
1070
     0
1070
   284
1070
     0
1070
   285
1070
     0
1070
   286
1070
     0
1070
   341
1005
81EB
1070
   343
1005
81EB
1070
   344
1005
81EB
1002
}
  0
DIMENSION
  5
832B
330
81D7
100
AcDbEntity
  8
3
100
AcDbDimension
  2
*D45
 10
749.7306630971308
 20
2039.815599437068
 30
0.0
 11
507.5878059542733
 21
2165.387028008497
 31
0.0
 70
    32
  1
(<>)
 71
     5
 42
105.0
  3
IGA
100
AcDbAlignedDimension
 13
1057.66764839239
 23
2144.815599437068
 33
0.0
 14
1057.66764839239
 24
2039.815599437068
 34
0.0
 50
90.0
100
AcDbRotatedDimension
1001
ACAD
1000
DSTYLE
1002
{
1070
    40
1040
30.0
1070
    42
1040
1.0
1070
   143
1040
0.039
1070
   172
1070
     1
1070
   271
1070
     4
1070
   272
1070
     4
1070
   279
1070
     1
1070
   284
1070
     0
1070
   285
1070
     0
1070
   286
1070
     0
1070
   341
1005
81EB
1070
   343
1005
81EB
1070
   344
1005
8432
1002
}
  0
DIMENSION
  5
833D
330
81D7
100
AcDbEntity
  8
3
100
AcDbDimension
  2
*D46
 10
749.7306630971308
 20
1939.815599437068
 30
0.0
 11
749.7306630971308
 21
1819.815599437068
 31
0.0
 70
   160
 71
     5
 42
100.0
  3
IGA
100
AcDbAlignedDimension
 13
1057.66764839239
 23
2039.815599437068
 33
0.0
 14
1057.66764839239
 24
1939.815599437068
 34
0.0
 50
90.0
100
AcDbRotatedDimension
1001
ACAD
1000
DSTYLE
1002
{
1070
    40
1040
30.0
1070
    42
1040
1.0
1070
   143
1040
0.039
1070
   172
1070
     1
1070
   271
1070
     4
1070
   272
1070
     4
1070
   279
1070
     1
1070
   284
1070
     0
1070
   285
1070
     0
1070
   286
1070
     0
1070
   341
1005
81EB
1070
   343
1005
8432
1070
   344
1005
81EB
1002
}
  0
DIMENSION
  5
8379
330
81D7
100
AcDbEntity
  8
3
100
AcDbDimension
  2
*D47
 10
389.7447414633208
 20
3584.815599437069
 30
0.0
 11
291.1733128918916
 21
2762.315599437068
 31
0.0
 70
    32
  1
(<>)
 71
     5
 42
1645.0
  3
IGA
100
AcDbAlignedDimension
 13
1057.66764839239
 23
1939.815599437068
 33
0.0
 14
1611.167648392393
 24
3584.815599437068
 34
0.0
 50
90.0
100
AcDbRotatedDimension
1001
ACAD
1000
DSTYLE
1002
{
1070
    40
1040
30.0
1070
    42
1040
1.0
1070
   143
1040
0.039
1070
   172
1070
     1
1070
   271
1070
     4
1070
   272
1070
     4
1070
   279
1070
     0
1070
   284
1070
     0
1070
   285
1070
     0
1070
   286
1070
     0
1070
   341
1005
81EB
1070
   343
1005
81EB
1070
   344
1005
81EB
1002
}
  0
ENDSEC
  0
SECTION
  2
OBJECTS
  0
DICTIONARY
  5
8174
330
0
100
AcDbDictionary
281
     1
  3
ACAD_CIP_PREVIOUS_PRODUCT_INFO
350
821F
  3
ACAD_COLOR
350
81CA
  3
ACAD_DETAILVIEWSTYLE
350
81D1
  3
ACAD_GROUP
350
8175
  3
ACAD_LAYOUT
350
81C9
  3
ACAD_MATERIAL
350
8178
  3
ACAD_MLEADERSTYLE
350
81CD
  3
ACAD_MLINESTYLE
350
81C6
  3
ACAD_PLOTSETTINGS
350
81C8
  3
ACAD_PLOTSTYLENAME
350
8176
  3
ACAD_SCALELIST
350
81AA
  3
ACAD_SECTIONVIEWSTYLE
350
81CF
  3
ACAD_TABLESTYLE
350
81CB
  3
ACAD_VISUALSTYLE
350
8191
  3
ACDB_RECOMPOSE_DATA
350
84B4
  3
AcDbVariableDictionary
350
84A7
  3
DWGPROPS
350
84B5
  0
DICTIONARY
  5
849D
330
81BC
100
AcDbDictionary
280
     1
281
     1
  3
ADSK_XREC_LAYER_RECONCILED
360
849E
  0
DICTIONARY
  5
849F
330
81DB
100
AcDbDictionary
280
     1
281
     1
  3
ADSK_XREC_LAYER_RECONCILED
360
84A0
  0
DICTIONARY
  5
84A1
330
81DE
100
AcDbDictionary
280
     1
281
     1
  3
ADSK_XREC_LAYER_RECONCILED
360
84A2
  0
DICTIONARY
  5
84A3
330
81DF
100
AcDbDictionary
280
     1
281
     1
  3
ADSK_XREC_LAYER_RECONCILED
360
84A4
  0
DICTIONARY
  5
84A5
330
81E0
100
AcDbDictionary
280
     1
281
     1
  3
ADSK_XREC_LAYER_RECONCILED
360
84A6
  0
XRECORD
  5
821F
102
{ACAD_REACTORS
330
8174
102
}
330
8174
100
AcDbXrecord
280
     1
300
ACDLT
300
2015
300
INVLTS_F_S
  0
DICTIONARY
  5
81CA
102
{ACAD_REACTORS
330
8174
102
}
330
8174
100
AcDbDictionary
281
     1
  0
DICTIONARY
  5
81D1
102
{ACAD_REACTORS
330
8174
102
}
330
8174
100
AcDbDictionary
281
     1
  3
Imperial24
350
81D2
  0
DICTIONARY
  5
8175
102
{ACAD_REACTORS
330
8174
102
}
330
8174
100
AcDbDictionary
281
     1
  0
DICTIONARY
  5
81C9
102
{ACAD_REACTORS
330
8174
102
}
330
8174
100
AcDbDictionary
281
     1
  3
Model
350
81DA
  3
レイアウト1
350
81D6
  0
DICTIONARY
  5
8178
102
{ACAD_REACTORS
330
8174
102
}
330
8174
100
AcDbDictionary
281
     1
  3
ByBlock
350
8181
  3
ByLayer
350
8179
  3
Global
350
8189
  0
DICTIONARY
  5
81CD
102
{ACAD_REACTORS
330
8174
102
}
330
8174
100
AcDbDictionary
281
     1
  3
Standard
350
81CE
  0
DICTIONARY
  5
81C6
102
{ACAD_REACTORS
330
8174
102
}
330
8174
100
AcDbDictionary
281
     1
  3
Standard
350
81C7
  0
DICTIONARY
  5
81C8
102
{ACAD_REACTORS
330
8174
102
}
330
8174
100
AcDbDictionary
281
     1
  0
ACDBDICTIONARYWDFLT
  5
8176
102
{ACAD_REACTORS
330
8174
102
}
330
8174
100
AcDbDictionary
281
     1
  3
Normal
350
8177
100
AcDbDictionaryWithDefault
340
8177
  0
DICTIONARY
  5
81AA
102
{ACAD_REACTORS
330
8174
102
}
330
8174
100
AcDbDictionary
281
     1
  3
A0
350
81AB
  3
A1
350
81AC
  3
A2
350
81AD
  3
A3
350
81AE
  3
A4
350
81AF
  3
A5
350
81B0
  3
A6
350
81B1
  3
A7
350
81B2
  3
A8
350
81B3
  3
A9
350
81B4
  3
B0
350
81B5
  3
B1
350
81B6
  3
B2
350
81B7
  3
B3
350
81B8
  3
B4
350
81B9
  3
B5
350
81BA
  3
B6
350
81BB
  0
DICTIONARY
  5
81CF
102
{ACAD_REACTORS
330
8174
102
}
330
8174
100
AcDbDictionary
281
     1
  3
Imperial24
350
81D0
  0
DICTIONARY
  5
81CB
102
{ACAD_REACTORS
330
8174
102
}
330
8174
100
AcDbDictionary
281
     1
  3
Standard
350
81CC
  0
DICTIONARY
  5
8191
102
{ACAD_REACTORS
330
8174
102
}
330
8174
100
AcDbDictionary
281
     1
  3
2dWireframe
350
8197
  3
Basic
350
8196
  3
Brighten
350
819D
  3
ColorChange
350
81A1
  3
Conceptual
350
819A
  3
Dim
350
819C
  3
EdgeColorOff
350
81A9
  3
Facepattern
350
81A0
  3
Flat
350
8192
  3
FlatWithEdges
350
8193
  3
Gouraud
350
8194
  3
GouraudWithEdges
350
8195
  3
Hidden
350
8199
  3
JitterOff
350
81A7
  3
Linepattern
350
819F
  3
OverhangOff
350
81A8
  3
Realistic
350
819B
  3
Shaded
350
81A6
  3
Shaded with edges
350
81A5
  3
Shades of Gray
350
81A2
  3
Sketchy
350
81A3
  3
Thicken
350
819E
  3
Wireframe
350
8198
  3
X-Ray
350
81A4
  0
XRECORD
  5
84B4
102
{ACAD_REACTORS
330
8174
102
}
330
8174
100
AcDbXrecord
280
     1
 90
        1
330
81CC
  0
DICTIONARY
  5
84A7
102
{ACAD_REACTORS
330
8174
102
}
330
8174
100
AcDbDictionary
281
     1
  3
CANNOSCALE
350
84AC
  3
CMLEADERSTYLE
350
84A9
  3
CTABLESTYLE
350
84A8
  3
CVIEWDETAILSTYLE
350
84AA
  3
CVIEWSECTIONSTYLE
350
84AB
  3
DIMASSOC
350
84AF
  3
INDEXCTL
350
84AE
  3
SORTENTS
350
84AD
  3
XCLIPFRAME
350
84B0
  0
XRECORD
  5
84B5
102
{ACAD_REACTORS
330
8174
102
}
330
8174
100
AcDbXrecord
280
     1
  1
DWGPROPS COOKIE
  2

  3

  4

  6

  7

  8
yasukiyo.ogawa
  9

300
=
301
=
302
=
303
=
304
=
305
=
306
=
307
=
308
=
309
=
 40
0.0509260995370371
 41
2451389.500923611
 42
2460269.610293913
  1

 90
        0
  0
XRECORD
  5
849E
102
{ACAD_REACTORS
330
849D
102
}
330
849D
100
AcDbXrecord
280
     1
290
     1
  0
XRECORD
  5
84A0
102
{ACAD_REACTORS
330
849F
102
}
330
849F
100
AcDbXrecord
280
     1
290
     1
  0
XRECORD
  5
84A2
102
{ACAD_REACTORS
330
84A1
102
}
330
84A1
100
AcDbXrecord
280
     1
290
     1
  0
XRECORD
  5
84A4
102
{ACAD_REACTORS
330
84A3
102
}
330
84A3
100
AcDbXrecord
280
     1
290
     1
  0
XRECORD
  5
84A6
102
{ACAD_REACTORS
330
84A5
102
}
330
84A5
100
AcDbXrecord
280
     1
290
     1
  0
ACDBDETAILVIEWSTYLE
  5
81D2
102
{ACAD_XDICTIONARY
360
84ED
102
}
102
{ACAD_REACTORS
330
81D1
102
}
330
81D1
100
AcDbModelDocViewStyle
 70
     0
  3
Imperial24
290
     0
100
AcDbDetailViewStyle
 70
     0
 71
     0
 90
        3
 71
     1
340
81BD
 40
0.24
340
0
 40
0.24
300

 40
0.36
280
     3
 71
     2
340
81C4
 90
       25
 71
     3
340
81BD
 40
0.24
 90
        1
 40
0.75
 90
        1
300
%<\AcVar ViewType \f "%tc1">% %<\AcVar ViewDetailId>%\PSCALE %<\AcVar ViewScale \f "%sn">%
 71
     4
340
81C4
 90
       25
340
81C4
 90
       25
280
     0
  0
LAYOUT
  5
81DA
102
{ACAD_XDICTIONARY
360
84F1
102
}
102
{ACAD_REACTORS
330
81C9
102
}
330
81C9
100
AcDbPlotSettings
  1

  2
RICOH imagio MP W3600 RPCS
  4

  6

 40
0.0
 41
0.0
 42
0.0
 43
0.0
 44
0.0
 45
0.0
 46
0.0
 47
0.0
 48
0.0
 49
0.0
140
0.0
141
0.0
142
1.0
143
1.0
 70
  1712
 72
     0
 73
     0
 74
     0
  7

 75
     0
147
1.0
148
0.0
149
0.0
100
AcDbLayout
  1
Model
 70
     1
 71
     0
 10
0.0
 20
0.0
 11
12.0
 21
9.0
 12
0.0
 22
0.0
 32
0.0
 14
0.0
 24
0.0
 34
0.0
 15
0.0
 25
0.0
 35
0.0
146
0.0
 13
0.0
 23
0.0
 33
0.0
 16
1.0
 26
0.0
 36
0.0
 17
0.0
 27
1.0
 37
0.0
 76
     0
330
81D7
331
81DC
  0
LAYOUT
  5
81D6
102
{ACAD_XDICTIONARY
360
84EF
102
}
102
{ACAD_REACTORS
330
81C9
102
}
330
81C9
100
AcDbPlotSettings
  1

  2
RICOH imagio MP W3600 RPCS
  4

  6

 40
0.0
 41
0.0
 42
0.0
 43
0.0
 44
0.0
 45
0.0
 46
0.0
 47
0.0
 48
0.0
 49
0.0
140
0.0
141
0.0
142
1.0
143
1.0
 70
   688
 72
     0
 73
     0
 74
     5
  7

 75
    16
147
1.0
148
0.0
149
0.0
100
AcDbLayout
  1
レイアウト1
 70
     1
 71
     1
 10
0.0
 20
0.0
 11
12.0
 21
9.0
 12
0.0
 22
0.0
 32
0.0
 14
1.000000000000000E+20
 24
1.000000000000000E+20
 34
1.000000000000000E+20
 15
-1.000000000000000E+20
 25
-1.000000000000000E+20
 35
-1.000000000000000E+20
146
0.0
 13
0.0
 23
0.0
 33
0.0
 16
1.0
 26
0.0
 36
0.0
 17
0.0
 27
1.0
 37
0.0
 76
     0
330
81D3
  0
MATERIAL
  5
8181
102
{ACAD_XDICTIONARY
360
8182
102
}
102
{ACAD_REACTORS
330
8178
102
}
330
8178
100
AcDbMaterial
  1
ByBlock
 72
     0
 43
0.0208333333333333
 43
0.0
 43
0.0
 43
0.0
 43
0.0
 43
0.0208333333333333
 43
0.0
 43
0.0
 43
0.0
 43
0.0
 43
1.0
 43
0.0
 43
0.0
 43
0.0
 43
0.0
 43
1.0
 77
     0
 47
0.0208333333333333
 47
0.0
 47
0.0
 47
0.0
 47
0.0
 47
0.0208333333333333
 47
0.0
 47
0.0
 47
0.0
 47
0.0
 47
1.0
 47
0.0
 47
0.0
 47
0.0
 47
0.0
 47
1.0
171
     0
 49
0.0208333333333333
 49
0.0
 49
0.0
 49
0.0
 49
0.0
 49
0.0208333333333333
 49
0.0
 49
0.0
 49
0.0
 49
0.0
 49
1.0
 49
0.0
 49
0.0
 49
0.0
 49
0.0
 49
1.0
175
     0
142
0.0208333333333333
142
0.0
142
0.0
142
0.0
142
0.0
142
0.0208333333333333
142
0.0
142
0.0
142
0.0
142
0.0
142
1.0
142
0.0
142
0.0
142
0.0
142
0.0
142
1.0
179
     0
144
0.0208333333333333
144
0.0
144
0.0
144
0.0
144
0.0
144
0.0208333333333333
144
0.0
144
0.0
144
0.0
144
0.0
144
1.0
144
0.0
144
0.0
144
0.0
144
0.0
144
1.0
147
0.0208333333333333
147
0.0
147
0.0
147
0.0
147
0.0
147
0.0208333333333333
147
0.0
147
0.0
147
0.0
147
0.0
147
1.0
147
0.0
147
0.0
147
0.0
147
0.0
147
1.0
  0
MATERIAL
  5
8179
102
{ACAD_XDICTIONARY
360
817A
102
}
102
{ACAD_REACTORS
330
8178
102
}
330
8178
100
AcDbMaterial
  1
ByLayer
 72
     0
 43
0.0208333333333333
 43
0.0
 43
0.0
 43
0.0
 43
0.0
 43
0.0208333333333333
 43
0.0
 43
0.0
 43
0.0
 43
0.0
 43
1.0
 43
0.0
 43
0.0
 43
0.0
 43
0.0
 43
1.0
 77
     0
 47
0.0208333333333333
 47
0.0
 47
0.0
 47
0.0
 47
0.0
 47
0.0208333333333333
 47
0.0
 47
0.0
 47
0.0
 47
0.0
 47
1.0
 47
0.0
 47
0.0
 47
0.0
 47
0.0
 47
1.0
171
     0
 49
0.0208333333333333
 49
0.0
 49
0.0
 49
0.0
 49
0.0
 49
0.0208333333333333
 49
0.0
 49
0.0
 49
0.0
 49
0.0
 49
1.0
 49
0.0
 49
0.0
 49
0.0
 49
0.0
 49
1.0
175
     0
142
0.0208333333333333
142
0.0
142
0.0
142
0.0
142
0.0
142
0.0208333333333333
142
0.0
142
0.0
142
0.0
142
0.0
142
1.0
142
0.0
142
0.0
142
0.0
142
0.0
142
1.0
179
     0
144
0.0208333333333333
144
0.0
144
0.0
144
0.0
144
0.0
144
0.0208333333333333
144
0.0
144
0.0
144
0.0
144
0.0
144
1.0
144
0.0
144
0.0
144
0.0
144
0.0
144
1.0
147
0.0208333333333333
147
0.0
147
0.0
147
0.0
147
0.0
147
0.0208333333333333
147
0.0
147
0.0
147
0.0
147
0.0
147
1.0
147
0.0
147
0.0
147
0.0
147
0.0
147
1.0
  0
MATERIAL
  5
8189
102
{ACAD_XDICTIONARY
360
818A
102
}
102
{ACAD_REACTORS
330
8178
102
}
330
8178
100
AcDbMaterial
  1
Global
 72
     0
 43
0.0208333333333333
 43
0.0
 43
0.0
 43
0.0
 43
0.0
 43
0.0208333333333333
 43
0.0
 43
0.0
 43
0.0
 43
0.0
 43
1.0
 43
0.0
 43
0.0
 43
0.0
 43
0.0
 43
1.0
 77
     0
 47
0.0208333333333333
 47
0.0
 47
0.0
 47
0.0
 47
0.0
 47
0.0208333333333333
 47
0.0
 47
0.0
 47
0.0
 47
0.0
 47
1.0
 47
0.0
 47
0.0
 47
0.0
 47
0.0
 47
1.0
171
     0
 49
0.0208333333333333
 49
0.0
 49
0.0
 49
0.0
 49
0.0
 49
0.0208333333333333
 49
0.0
 49
0.0
 49
0.0
 49
0.0
 49
1.0
 49
0.0
 49
0.0
 49
0.0
 49
0.0
 49
1.0
175
     0
142
0.0208333333333333
142
0.0
142
0.0
142
0.0
142
0.0
142
0.0208333333333333
142
0.0
142
0.0
142
0.0
142
0.0
142
1.0
142
0.0
142
0.0
142
0.0
142
0.0
142
1.0
179
     0
144
0.0208333333333333
144
0.0
144
0.0
144
0.0
144
0.0
144
0.0208333333333333
144
0.0
144
0.0
144
0.0
144
0.0
144
1.0
144
0.0
144
0.0
144
0.0
144
0.0
144
1.0
147
0.0208333333333333
147
0.0
147
0.0
147
0.0
147
0.0
147
0.0208333333333333
147
0.0
147
0.0
147
0.0
147
0.0
147
1.0
147
0.0
147
0.0
147
0.0
147
0.0
147
1.0
  0
MLEADERSTYLE
  5
81CE
102
{ACAD_REACTORS
330
81CD
102
}
330
81CD
100
AcDbMLeaderStyle
170
     2
171
     1
172
     0
 90
        2
 40
0.0
 41
0.0
173
     1
 91
-1056964608
340
81C2
 92
       -2
290
     1
 42
0.09
291
     1
 43
0.36
  3
Standard
 44
0.18
300

342
81BD
174
     1
178
     6
175
     1
176
     0
 93
-1056964608
 45
0.18
292
     0
297
     0
 46
0.18
 94
-1056964608
 47
1.0
 49
1.0
140
1.0
293
     1
141
0.0
294
     1
177
     0
142
1.0
295
     0
296
     0
143
0.125
1001
ACAD_MLEADERVER
1070
     2
  0
MLINESTYLE
  5
81C7
102
{ACAD_REACTORS
330
81C6
102
}
330
81C6
100
AcDbMlineStyle
  2
STANDARD
 70
     0
  3

 62
   256
 51
90.0
 52
90.0
 71
     2
 49
0.5
 62
   256
  6
BYLAYER
 49
-0.5
 62
   256
  6
BYLAYER
  0
ACDBPLACEHOLDER
  5
8177
102
{ACAD_REACTORS
330
8176
102
}
330
8176
  0
SCALE
  5
81AB
102
{ACAD_REACTORS
330
81AA
102
}
330
81AA
100
AcDbScale
 70
     0
300
1:1
140
1.0
141
1.0
290
     1
  0
SCALE
  5
81AC
102
{ACAD_REACTORS
330
81AA
102
}
330
81AA
100
AcDbScale
 70
     0
300
1/128" = 1'-0"
140
0.0078125
141
12.0
290
     0
  0
SCALE
  5
81AD
102
{ACAD_REACTORS
330
81AA
102
}
330
81AA
100
AcDbScale
 70
     0
300
1/64" = 1'-0"
140
0.015625
141
12.0
290
     0
  0
SCALE
  5
81AE
102
{ACAD_REACTORS
330
81AA
102
}
330
81AA
100
AcDbScale
 70
     0
300
1/32" = 1'-0"
140
0.03125
141
12.0
290
     0
  0
SCALE
  5
81AF
102
{ACAD_REACTORS
330
81AA
102
}
330
81AA
100
AcDbScale
 70
     0
300
1/16" = 1'-0"
140
0.0625
141
12.0
290
     0
  0
SCALE
  5
81B0
102
{ACAD_REACTORS
330
81AA
102
}
330
81AA
100
AcDbScale
 70
     0
300
3/32" = 1'-0"
140
0.09375
141
12.0
290
     0
  0
SCALE
  5
81B1
102
{ACAD_REACTORS
330
81AA
102
}
330
81AA
100
AcDbScale
 70
     0
300
1/8" = 1'-0"
140
0.125
141
12.0
290
     0
  0
SCALE
  5
81B2
102
{ACAD_REACTORS
330
81AA
102
}
330
81AA
100
AcDbScale
 70
     0
300
3/16" = 1'-0"
140
0.1875
141
12.0
290
     0
  0
SCALE
  5
81B3
102
{ACAD_REACTORS
330
81AA
102
}
330
81AA
100
AcDbScale
 70
     0
300
1/4" = 1'-0"
140
0.25
141
12.0
290
     0
  0
SCALE
  5
81B4
102
{ACAD_REACTORS
330
81AA
102
}
330
81AA
100
AcDbScale
 70
     0
300
3/8" = 1'-0"
140
0.375
141
12.0
290
     0
  0
SCALE
  5
81B5
102
{ACAD_REACTORS
330
81AA
102
}
330
81AA
100
AcDbScale
 70
     0
300
1/2" = 1'-0"
140
0.5
141
12.0
290
     0
  0
SCALE
  5
81B6
102
{ACAD_REACTORS
330
81AA
102
}
330
81AA
100
AcDbScale
 70
     0
300
3/4" = 1'-0"
140
0.75
141
12.0
290
     0
  0
SCALE
  5
81B7
102
{ACAD_REACTORS
330
81AA
102
}
330
81AA
100
AcDbScale
 70
     0
300
1" = 1'-0"
140
1.0
141
12.0
290
     0
  0
SCALE
  5
81B8
102
{ACAD_REACTORS
330
81AA
102
}
330
81AA
100
AcDbScale
 70
     0
300
1-1/2" = 1'-0"
140
1.5
141
12.0
290
     0
  0
SCALE
  5
81B9
102
{ACAD_REACTORS
330
81AA
102
}
330
81AA
100
AcDbScale
 70
     0
300
3" = 1'-0"
140
3.0
141
12.0
290
     0
  0
SCALE
  5
81BA
102
{ACAD_REACTORS
330
81AA
102
}
330
81AA
100
AcDbScale
 70
     0
300
6" = 1'-0"
140
6.0
141
12.0
290
     0
  0
SCALE
  5
81BB
102
{ACAD_REACTORS
330
81AA
102
}
330
81AA
100
AcDbScale
 70
     0
300
1'-0" = 1'-0"
140
12.0
141
12.0
290
     0
  0
ACDBSECTIONVIEWSTYLE
  5
81D0
102
{ACAD_XDICTIONARY
360
84EB
102
}
102
{ACAD_REACTORS
330
81CF
102
}
330
81CF
100
AcDbModelDocViewStyle
 70
     0
  3
Imperial24
290
     0
100
AcDbSectionViewStyle
 70
     0
 71
     0
 90
       78
 71
     1
340
81BD
 40
0.24
340
0
340
0
 40
0.24
300
I, O, Q, S, X, Z
 40
0.48
 90
        3
 40
0.18
 90
        1
 71
     2
340
81C4
 90
       25
340
81C4
 90
       50
 40
0.24
 40
0.0
 40
0.24
 71
     3
340
81BD
 40
0.24
 90
        1
 40
0.75
 90
        1
300
%<\AcVar ViewType \f "%tc1">% %<\AcVar ViewSectionStartId>%-%<\AcVar ViewSectionEndId>%\PSCALE %<\AcVar ViewScale \f "%sn">%
 71
     4
300
ANSI31
 40
1.0
 90
        0
290
     0
290
     0
 90
        6
 40
0.0
 40
1.570796326794896
 40
0.2617993877991494
 40
1.308996938995747
 40
-0.2617993877991494
 40
1.832595714594046
  0
TABLESTYLE
  5
81CC
102
{ACAD_XDICTIONARY
360
84B2
102
}
102
{ACAD_REACTORS
330
81CB
102
}
330
81CB
100
AcDbTableStyle
  3
Standard
 70
     0
 71
     0
 40
0.06
 41
0.06
280
     0
281
     0
  7
STANDARD
140
0.18
170
     2
 62
     0
 63
     7
283
     0
274
    -2
284
     1
 64
     0
275
    -2
285
     1
 65
     0
276
    -2
286
     1
 66
     0
277
    -2
287
     1
 67
     0
278
    -2
288
     1
 68
     0
279
    -2
289
     1
 69
     0
  7
STANDARD
140
0.25
170
     5
 62
     0
 63
     7
283
     0
274
    -2
284
     1
 64
     0
275
    -2
285
     1
 65
     0
276
    -2
286
     1
 66
     0
277
    -2
287
     1
 67
     0
278
    -2
288
     1
 68
     0
279
    -2
289
     1
 69
     0
  7
STANDARD
140
0.18
170
     5
 62
     0
 63
     7
283
     0
274
    -2
284
     1
 64
     0
275
    -2
285
     1
 65
     0
276
    -2
286
     1
 66
     0
277
    -2
287
     1
 67
     0
278
    -2
288
     1
 68
     0
279
    -2
289
     1
 69
     0
  0
VISUALSTYLE
  5
8197
102
{ACAD_XDICTIONARY
360
84C3
102
}
102
{ACAD_REACTORS
330
8191
102
}
330
8191
100
AcDbVisualStyle
  2
2dWireframe
 70
     4
 71
     0
 72
     2
 73
     0
 90
        0
 40
-0.6
 41
-30.0
 62
     5
 63
     7
 74
     1
 91
        4
 64
     7
 65
   257
 75
     1
175
     1
 42
1.0
 92
        0
 66
   257
 43
1.0
 76
     1
 77
     6
 78
     2
 67
     7
 79
     5
170
     0
171
     0
290
     0
174
     0
 93
        1
 44
0.0
173
     0
291
     0
 45
0.0
1001
ACAD
1000
AcDbSavedByObjectVersion
1070
     0
  0
VISUALSTYLE
  5
8196
102
{ACAD_XDICTIONARY
360
84C1
102
}
102
{ACAD_REACTORS
330
8191
102
}
330
8191
100
AcDbVisualStyle
  2
Basic
 70
     7
 71
     1
 72
     0
 73
     1
 90
        0
 40
-0.6
 41
-30.0
 62
     5
 63
     7
 74
     0
 91
        4
 64
     7
 65
   257
 75
     1
175
     1
 42
1.0
 92
        8
 66
     7
 43
1.0
 76
     1
 77
     6
 78
     2
 67
     7
 79
     5
170
     0
171
     0
290
     0
174
     0
 93
        1
 44
0.0
173
     0
291
     1
 45
0.0
1001
ACAD
1000
AcDbSavedByObjectVersion
1070
     0
  0
VISUALSTYLE
  5
819D
102
{ACAD_XDICTIONARY
360
84CF
102
}
102
{ACAD_REACTORS
330
8191
102
}
330
8191
100
AcDbVisualStyle
  2
Brighten
 70
    12
 71
     2
 72
     2
 73
     0
 90
        0
 40
-0.6
 41
-30.0
 62
     5
 63
     7
 74
     1
 91
        4
 64
     7
 65
   257
 75
     1
175
     1
 42
1.0
 92
        8
 66
     7
 43
1.0
 76
     1
 77
     6
 78
     2
 67
     7
 79
     5
170
     0
171
     0
290
     0
174
     0
 93
        1
 44
50.0
173
     0
291
     1
 45
0.0
1001
ACAD
1000
AcDbSavedByObjectVersion
1070
     0
  0
VISUALSTYLE
  5
81A1
102
{ACAD_XDICTIONARY
360
84D7
102
}
102
{ACAD_REACTORS
330
8191
102
}
330
8191
100
AcDbVisualStyle
  2
ColorChange
 70
    16
 71
     2
 72
     2
 73
     3
 90
        0
 40
-0.6
 41
-30.0
 62
     5
 63
     8
 74
     1
 91
        4
 64
     7
 65
   257
 75
     1
175
     1
 42
1.0
 92
        8
 66
     8
 43
1.0
 76
     1
 77
     6
 78
     2
 67
     7
 79
     5
170
     0
171
     0
290
     0
174
     0
 93
        1
 44
0.0
173
     0
291
     1
 45
0.0
1001
ACAD
1000
AcDbSavedByObjectVersion
1070
     0
  0
VISUALSTYLE
  5
819A
102
{ACAD_XDICTIONARY
360
84C9
102
}
102
{ACAD_REACTORS
330
8191
102
}
330
8191
100
AcDbVisualStyle
  2
Conceptual
 70
     9
 71
     3
 72
     2
 73
     0
 90
        0
 40
-0.6
 41
-30.0
 62
     5
 63
     7
 74
     2
 91
        2
 64
     7
 65
   257
 75
     1
175
     1
 42
179.0
 92
        8
 66
     7
 43
1.0
 76
     1
 77
     6
 78
     2
 67
     7
 79
     3
170
     0
171
     0
290
     0
174
     0
 93
        1
 44
0.0
173
     0
291
     0
 45
0.0
1001
ACAD
1000
AcDbSavedByObjectVersion
1070
     0
  0
VISUALSTYLE
  5
819C
102
{ACAD_XDICTIONARY
360
84CD
102
}
102
{ACAD_REACTORS
330
8191
102
}
330
8191
100
AcDbVisualStyle
  2
Dim
 70
    11
 71
     2
 72
     2
 73
     0
 90
        0
 40
-0.6
 41
-30.0
 62
     5
 63
     7
 74
     1
 91
        4
 64
     7
 65
   257
 75
     1
175
     1
 42
1.0
 92
        8
 66
     7
 43
1.0
 76
     1
 77
     6
 78
     2
 67
     7
 79
     5
170
     0
171
     0
290
     0
174
     0
 93
        1
 44
-50.0
173
     0
291
     1
 45
0.0
1001
ACAD
1000
AcDbSavedByObjectVersion
1070
     0
  0
VISUALSTYLE
  5
81A9
102
{ACAD_XDICTIONARY
360
84E7
102
}
102
{ACAD_REACTORS
330
8191
102
}
330
8191
100
AcDbVisualStyle
  2
EdgeColorOff
 70
    22
 71
     2
 72
     2
 73
     0
 90
        0
 40
-0.6
 41
-30.0
 62
     5
 63
     7
 74
     1
 91
        4
 64
     7
 65
   257
 75
     1
175
     1
 42
1.0
 92
        8
 66
     7
 43
1.0
 76
     1
 77
     6
 78
     2
 67
     7
 79
     5
170
     0
171
     0
290
     0
174
     0
 93
        1
 44
0.0
173
     0
291
     1
 45
0.0
1001
ACAD
1000
AcDbSavedByObjectVersion
1070
     0
  0
VISUALSTYLE
  5
81A0
102
{ACAD_XDICTIONARY
360
84D5
102
}
102
{ACAD_REACTORS
330
8191
102
}
330
8191
100
AcDbVisualStyle
  2
Facepattern
 70
    15
 71
     2
 72
     2
 73
     0
 90
        0
 40
-0.6
 41
-30.0
 62
     5
 63
     7
 74
     1
 91
        4
 64
     7
 65
   257
 75
     1
175
     1
 42
1.0
 92
        8
 66
     7
 43
1.0
 76
     1
 77
     6
 78
     2
 67
     7
 79
     5
170
     0
171
     0
290
     0
174
     0
 93
        1
 44
0.0
173
     0
291
     1
 45
0.0
1001
ACAD
1000
AcDbSavedByObjectVersion
1070
     0
  0
VISUALSTYLE
  5
8192
102
{ACAD_XDICTIONARY
360
84B9
102
}
102
{ACAD_REACTORS
330
8191
102
}
330
8191
100
AcDbVisualStyle
  2
Flat
 70
     0
 71
     2
 72
     1
 73
     1
 90
        2
 40
-0.6
 41
30.0
 62
     5
 63
     7
 74
     0
 91
        0
 64
     7
 65
   257
 75
     1
175
     1
 42
1.0
 92
        8
 66
     7
 43
1.0
 76
     1
 77
     6
 78
     2
 67
     7
 79
     5
170
     0
171
     0
290
     0
174
     0
 93
       13
 44
0.0
173
     0
291
     1
 45
0.0
1001
ACAD
1000
AcDbSavedByObjectVersion
1070
     0
  0
VISUALSTYLE
  5
8193
102
{ACAD_XDICTIONARY
360
84BB
102
}
102
{ACAD_REACTORS
330
8191
102
}
330
8191
100
AcDbVisualStyle
  2
FlatWithEdges
 70
     1
 71
     2
 72
     1
 73
     1
 90
        2
 40
-0.6
 41
30.0
 62
     5
 63
     7
 74
     1
 91
        0
 64
     7
 65
   257
 75
     1
175
     1
 42
1.0
 92
        0
 66
   257
 43
1.0
 76
     1
 77
     6
 78
     2
 67
     7
 79
     5
170
     0
171
     0
290
     0
174
     0
 93
       13
 44
0.0
173
     0
291
     1
 45
0.0
1001
ACAD
1000
AcDbSavedByObjectVersion
1070
     0
  0
VISUALSTYLE
  5
8194
102
{ACAD_XDICTIONARY
360
84BD
102
}
102
{ACAD_REACTORS
330
8191
102
}
330
8191
100
AcDbVisualStyle
  2
Gouraud
 70
     2
 71
     2
 72
     2
 73
     1
 90
        2
 40
-0.6
 41
30.0
 62
     5
 63
     7
 74
     0
 91
        0
 64
     7
 65
   257
 75
     1
175
     1
 42
1.0
 92
        0
 66
     7
 43
1.0
 76
     1
 77
     6
 78
     2
 67
     7
 79
     5
170
     0
171
     0
290
     0
174
     0
 93
       13
 44
0.0
173
     0
291
     1
 45
0.0
1001
ACAD
1000
AcDbSavedByObjectVersion
1070
     0
  0
VISUALSTYLE
  5
8195
102
{ACAD_XDICTIONARY
360
84BF
102
}
102
{ACAD_REACTORS
330
8191
102
}
330
8191
100
AcDbVisualStyle
  2
GouraudWithEdges
 70
     3
 71
     2
 72
     2
 73
     1
 90
        2
 40
-0.6
 41
30.0
 62
     5
 63
     7
 74
     1
 91
        0
 64
     7
 65
   257
 75
     1
175
     1
 42
1.0
 92
        0
 66
   257
 43
1.0
 76
     1
 77
     6
 78
     2
 67
     7
 79
     5
170
     0
171
     0
290
     0
174
     0
 93
       13
 44
0.0
173
     0
291
     1
 45
0.0
1001
ACAD
1000
AcDbSavedByObjectVersion
1070
     0
  0
VISUALSTYLE
  5
8199
102
{ACAD_XDICTIONARY
360
84C7
102
}
102
{ACAD_REACTORS
330
8191
102
}
330
8191
100
AcDbVisualStyle
  2
Hidden
 70
     6
 71
     1
 72
     2
 73
     2
 90
        0
 40
-0.6
 41
-30.0
 62
     5
 63
     7
 74
     2
 91
        2
 64
     7
 65
   257
 75
     2
175
     1
 42
40.0
 92
        0
 66
   257
 43
1.0
 76
     1
 77
     6
 78
     2
 67
     7
 79
     3
170
     0
171
     0
290
     0
174
     0
 93
        1
 44
0.0
173
     0
291
     0
 45
0.0
1001
ACAD
1000
AcDbSavedByObjectVersion
1070
     0
  0
VISUALSTYLE
  5
81A7
102
{ACAD_XDICTIONARY
360
84E3
102
}
102
{ACAD_REACTORS
330
8191
102
}
330
8191
100
AcDbVisualStyle
  2
JitterOff
 70
    20
 71
     2
 72
     2
 73
     0
 90
        0
 40
-0.6
 41
-30.0
 62
     5
 63
     7
 74
     1
 91
        4
 64
     7
 65
   257
 75
     1
175
     1
 42
1.0
 92
       10
 66
     7
 43
1.0
 76
     1
 77
     6
 78
     2
 67
     7
 79
     5
170
     0
171
     0
290
     0
174
     0
 93
        1
 44
0.0
173
     0
291
     1
 45
0.0
1001
ACAD
1000
AcDbSavedByObjectVersion
1070
     0
  0
VISUALSTYLE
  5
819F
102
{ACAD_XDICTIONARY
360
84D3
102
}
102
{ACAD_REACTORS
330
8191
102
}
330
8191
100
AcDbVisualStyle
  2
Linepattern
 70
    14
 71
     2
 72
     2
 73
     0
 90
        0
 40
-0.6
 41
-30.0
 62
     5
 63
     7
 74
     1
 91
        4
 64
     7
 65
   257
 75
     7
175
     7
 42
1.0
 92
        8
 66
     7
 43
1.0
 76
     1
 77
     6
 78
     2
 67
     7
 79
     5
170
     0
171
     0
290
     0
174
     0
 93
        1
 44
0.0
173
     0
291
     1
 45
0.0
1001
ACAD
1000
AcDbSavedByObjectVersion
1070
     0
  0
VISUALSTYLE
  5
81A8
102
{ACAD_XDICTIONARY
360
84E5
102
}
102
{ACAD_REACTORS
330
8191
102
}
330
8191
100
AcDbVisualStyle
  2
OverhangOff
 70
    21
 71
     2
 72
     2
 73
     0
 90
        0
 40
-0.6
 41
-30.0
 62
     5
 63
     7
 74
     1
 91
        4
 64
     7
 65
   257
 75
     1
175
     1
 42
1.0
 92
        9
 66
     7
 43
1.0
 76
     1
 77
     6
 78
     2
 67
     7
 79
     5
170
     0
171
     0
290
     0
174
     0
 93
        1
 44
0.0
173
     0
291
     1
 45
0.0
1001
ACAD
1000
AcDbSavedByObjectVersion
1070
     0
  0
VISUALSTYLE
  5
819B
102
{ACAD_XDICTIONARY
360
84CB
102
}
102
{ACAD_REACTORS
330
8191
102
}
330
8191
100
AcDbVisualStyle
  2
Realistic
 70
     8
 71
     2
 72
     3
 73
     0
 90
        2
 40
-0.6
 41
30.0
 62
     5
 63
     7
 74
     0
 91
        0
 64
     7
 65
   257
 75
     1
175
     1
 42
1.0
 92
        8
 66
   257
 43
1.0
 76
     1
 77
     6
 78
     2
 67
     7
 79
     3
170
     0
171
     0
290
     0
174
     0
 93
       13
 44
0.0
173
     0
291
     0
 45
0.0
1001
ACAD
1000
AcDbSavedByObjectVersion
1070
     0
  0
VISUALSTYLE
  5
81A6
102
{ACAD_XDICTIONARY
360
84E1
102
}
102
{ACAD_REACTORS
330
8191
102
}
330
8191
100
AcDbVisualStyle
  2
Shaded
 70
    27
 71
     2
 72
     2
 73
     1
 90
        2
 40
-0.6
 41
30.0
 62
     5
 63
     7
 74
     0
 91
        4
 64
     7
 65
   257
 75
     1
175
     1
 42
1.0
 92
        8
 66
   257
 43
1.0
 76
     1
 77
     6
 78
     2
 67
     8
 79
     3
170
     0
171
     0
290
     0
174
     0
 93
        5
 44
0.0
173
     0
291
     0
 45
0.0
1001
ACAD
1000
AcDbSavedByObjectVersion
1070
     0
  0
VISUALSTYLE
  5
81A5
102
{ACAD_XDICTIONARY
360
84DF
102
}
102
{ACAD_REACTORS
330
8191
102
}
330
8191
100
AcDbVisualStyle
  2
Shaded with edges
 70
    26
 71
     2
 72
     2
 73
     1
 90
        2
 40
-0.6
 41
30.0
 62
     5
 63
     7
 74
     1
 91
       10
 64
     7
 65
   257
 75
     2
175
     1
 42
1.0
 92
        8
 66
   257
 43
1.0
 76
     1
 77
     6
 78
     2
 67
     7
 79
     3
170
     0
171
     0
290
     0
174
     0
 93
        5
 44
0.0
173
     0
291
     0
 45
0.0
1001
ACAD
1000
AcDbSavedByObjectVersion
1070
     0
  0
VISUALSTYLE
  5
81A2
102
{ACAD_XDICTIONARY
360
84D9
102
}
102
{ACAD_REACTORS
330
8191
102
}
330
8191
100
AcDbVisualStyle
  2
Shades of Gray
 70
    23
 71
     2
 72
     2
 73
     3
 90
        0
 40
-0.6
 41
-30.0
 62
     5
 63
     7
 74
     2
 91
        2
 64
     7
 65
     7
 75
     1
175
     1
 42
40.0
 92
        8
 66
     7
 43
1.0
 76
     1
 77
     6
 78
     2
 67
     7
 79
     3
170
     0
171
     0
290
     0
174
     0
 93
        1
 44
0.0
173
     0
291
     0
 45
0.0
1001
ACAD
1000
AcDbSavedByObjectVersion
1070
     0
  0
VISUALSTYLE
  5
81A3
102
{ACAD_XDICTIONARY
360
84DB
102
}
102
{ACAD_REACTORS
330
8191
102
}
330
8191
100
AcDbVisualStyle
  2
Sketchy
 70
    24
 71
     1
 72
     2
 73
     2
 90
        0
 40
-0.6
 41
-30.0
 62
     5
 63
     7
 74
     2
 91
        2
 64
     7
 65
     7
 75
     1
175
     1
 42
40.0
 92
       11
 66
     7
 43
1.0
 76
     1
 77
     6
 78
     2
 67
     7
 79
     6
170
     0
171
     0
290
     0
174
     0
 93
        1
 44
0.0
173
     0
291
     0
 45
0.0
1001
ACAD
1000
AcDbSavedByObjectVersion
1070
     0
  0
VISUALSTYLE
  5
819E
102
{ACAD_XDICTIONARY
360
84D1
102
}
102
{ACAD_REACTORS
330
8191
102
}
330
8191
100
AcDbVisualStyle
  2
Thicken
 70
    13
 71
     2
 72
     2
 73
     0
 90
        0
 40
-0.6
 41
-30.0
 62
     5
 63
     7
 74
     1
 91
        4
 64
     7
 65
   257
 75
     1
175
     1
 42
1.0
 92
       12
 66
     7
 43
1.0
 76
     1
 77
     6
 78
     2
 67
     7
 79
     5
170
     0
171
     0
290
     0
174
     0
 93
        1
 44
0.0
173
     0
291
     1
 45
0.0
1001
ACAD
1000
AcDbSavedByObjectVersion
1070
     0
  0
VISUALSTYLE
  5
8198
102
{ACAD_XDICTIONARY
360
84C5
102
}
102
{ACAD_REACTORS
330
8191
102
}
330
8191
100
AcDbVisualStyle
  2
Wireframe
 70
     5
 71
     0
 72
     2
 73
     0
 90
        0
 40
-0.6
 41
-30.0
 62
     5
 63
     7
 74
     1
 91
        4
 64
     7
 65
   257
 75
     1
175
     1
 42
1.0
 92
        0
 66
   257
 43
1.0
 76
     1
 77
     6
 78
     2
 67
     7
 79
     3
170
     0
171
     0
290
     0
174
     0
 93
        1
 44
0.0
173
     0
291
     0
 45
0.0
1001
ACAD
1000
AcDbSavedByObjectVersion
1070
     0
  0
VISUALSTYLE
  5
81A4
102
{ACAD_XDICTIONARY
360
84DD
102
}
102
{ACAD_REACTORS
330
8191
102
}
330
8191
100
AcDbVisualStyle
  2
X-Ray
 70
    25
 71
     2
 72
     2
 73
     1
 90
        1
 40
0.5
 41
-30.0
 62
     5
 63
     7
 74
     1
 91
        0
 64
     7
 65
   257
 75
     1
175
     1
 42
1.0
 92
        8
 66
     7
 43
1.0
 76
     1
 77
     6
 78
     2
 67
     7
 79
     3
170
     0
171
     0
290
     0
174
     0
 93
       13
 44
0.0
173
     0
291
     0
 45
0.0
1001
ACAD
1000
AcDbSavedByObjectVersion
1070
     0
  0
DICTIONARYVAR
  5
84AC
102
{ACAD_REACTORS
330
84A7
102
}
330
84A7
100
DictionaryVariables
280
     0
  1
1:1
  0
DICTIONARYVAR
  5
84A9
102
{ACAD_REACTORS
330
84A7
102
}
330
84A7
100
DictionaryVariables
280
     0
  1
STANDARD
  0
DICTIONARYVAR
  5
84A8
102
{ACAD_REACTORS
330
84A7
102
}
330
84A7
100
DictionaryVariables
280
     0
  1
STANDARD
  0
DICTIONARYVAR
  5
84AA
102
{ACAD_REACTORS
330
84A7
102
}
330
84A7
100
DictionaryVariables
280
     0
  1
Imperial24
  0
DICTIONARYVAR
  5
84AB
102
{ACAD_REACTORS
330
84A7
102
}
330
84A7
100
DictionaryVariables
280
     0
  1
Imperial24
  0
DICTIONARYVAR
  5
84AF
102
{ACAD_REACTORS
330
84A7
102
}
330
84A7
100
DictionaryVariables
280
     0
  1
1
  0
DICTIONARYVAR
  5
84AE
102
{ACAD_REACTORS
330
84A7
102
}
330
84A7
100
DictionaryVariables
280
     0
  1
0
  0
DICTIONARYVAR
  5
84AD
102
{ACAD_REACTORS
330
84A7
102
}
330
84A7
100
DictionaryVariables
280
     0
  1
127
  0
DICTIONARYVAR
  5
84B0
102
{ACAD_REACTORS
330
84A7
102
}
330
84A7
100
DictionaryVariables
280
     0
  1
2
  0
DICTIONARY
  5
84ED
330
81D2
100
AcDbDictionary
280
     1
281
     1
  3
ACAD_XREC_ROUNDTRIP
360
84EE
  0
DICTIONARY
  5
84F1
330
81DA
100
AcDbDictionary
280
     1
281
     1
  3
ACAD_XREC_ROUNDTRIP
360
84F2
  0
DICTIONARY
  5
84EF
330
81D6
100
AcDbDictionary
280
     1
281
     1
  3
ACAD_XREC_ROUNDTRIP
360
84F0
  0
DICTIONARY
  5
8182
330
8181
100
AcDbDictionary
280
     1
281
     1
  3
ACAD_XREC_ROUNDTRIP
360
84B7
  3
BUMPTILE
360
8184
  3
DIFFUSETILE
360
8183
  3
OPACITYTILE
360
8187
  3
REFLECTIONTILE
360
8186
  3
REFRACTIONTILE
360
8188
  3
SPECULARTILE
360
8185
  0
DICTIONARY
  5
817A
330
8179
100
AcDbDictionary
280
     1
281
     1
  3
ACAD_XREC_ROUNDTRIP
360
84B6
  3
BUMPTILE
360
817C
  3
DIFFUSETILE
360
817B
  3
OPACITYTILE
360
817F
  3
REFLECTIONTILE
360
817E
  3
REFRACTIONTILE
360
8180
  3
SPECULARTILE
360
817D
  0
DICTIONARY
  5
818A
330
8189
100
AcDbDictionary
280
     1
281
     1
  3
ACAD_XREC_ROUNDTRIP
360
84B8
  3
BUMPTILE
360
818C
  3
DIFFUSETILE
360
818B
  3
FBXASSET
360
82C4
  3
OPACITYTILE
360
818F
  3
REFLECTIONTILE
360
818E
  3
REFRACTIONTILE
360
8190
  3
SPECULARTILE
360
818D
  0
DICTIONARY
  5
84EB
330
81D0
100
AcDbDictionary
280
     1
281
     1
  3
ACAD_XREC_ROUNDTRIP
360
84EC
  0
DICTIONARY
  5
84B2
330
81CC
100
AcDbDictionary
280
     1
281
     1
  3
ACAD_ROUNDTRIP_2008_TABLESTYLE_CELLSTYLEMAP
360
84B3
  3
ACAD_XREC_ROUNDTRIP
360
84E9
  0
DICTIONARY
  5
84C3
330
8197
100
AcDbDictionary
280
     1
281
     1
  3
ACAD_XREC_ROUNDTRIP
360
84C4
  0
DICTIONARY
  5
84C1
330
8196
100
AcDbDictionary
280
     1
281
     1
  3
ACAD_XREC_ROUNDTRIP
360
84C2
  0
DICTIONARY
  5
84CF
330
819D
100
AcDbDictionary
280
     1
281
     1
  3
ACAD_XREC_ROUNDTRIP
360
84D0
  0
DICTIONARY
  5
84D7
330
81A1
100
AcDbDictionary
280
     1
281
     1
  3
ACAD_XREC_ROUNDTRIP
360
84D8
  0
DICTIONARY
  5
84C9
330
819A
100
AcDbDictionary
280
     1
281
     1
  3
ACAD_XREC_ROUNDTRIP
360
84CA
  0
DICTIONARY
  5
84CD
330
819C
100
AcDbDictionary
280
     1
281
     1
  3
ACAD_XREC_ROUNDTRIP
360
84CE
  0
DICTIONARY
  5
84E7
330
81A9
100
AcDbDictionary
280
     1
281
     1
  3
ACAD_XREC_ROUNDTRIP
360
84E8
  0
DICTIONARY
  5
84D5
330
81A0
100
AcDbDictionary
280
     1
281
     1
  3
ACAD_XREC_ROUNDTRIP
360
84D6
  0
DICTIONARY
  5
84B9
330
8192
100
AcDbDictionary
280
     1
281
     1
  3
ACAD_XREC_ROUNDTRIP
360
84BA
  0
DICTIONARY
  5
84BB
330
8193
100
AcDbDictionary
280
     1
281
     1
  3
ACAD_XREC_ROUNDTRIP
360
84BC
  0
DICTIONARY
  5
84BD
330
8194
100
AcDbDictionary
280
     1
281
     1
  3
ACAD_XREC_ROUNDTRIP
360
84BE
  0
DICTIONARY
  5
84BF
330
8195
100
AcDbDictionary
280
     1
281
     1
  3
ACAD_XREC_ROUNDTRIP
360
84C0
  0
DICTIONARY
  5
84C7
330
8199
100
AcDbDictionary
280
     1
281
     1
  3
ACAD_XREC_ROUNDTRIP
360
84C8
  0
DICTIONARY
  5
84E3
330
81A7
100
AcDbDictionary
280
     1
281
     1
  3
ACAD_XREC_ROUNDTRIP
360
84E4
  0
DICTIONARY
  5
84D3
330
819F
100
AcDbDictionary
280
     1
281
     1
  3
ACAD_XREC_ROUNDTRIP
360
84D4
  0
DICTIONARY
  5
84E5
330
81A8
100
AcDbDictionary
280
     1
281
     1
  3
ACAD_XREC_ROUNDTRIP
360
84E6
  0
DICTIONARY
  5
84CB
330
819B
100
AcDbDictionary
280
     1
281
     1
  3
ACAD_XREC_ROUNDTRIP
360
84CC
  0
DICTIONARY
  5
84E1
330
81A6
100
AcDbDictionary
280
     1
281
     1
  3
ACAD_XREC_ROUNDTRIP
360
84E2
  0
DICTIONARY
  5
84DF
330
81A5
100
AcDbDictionary
280
     1
281
     1
  3
ACAD_XREC_ROUNDTRIP
360
84E0
  0
DICTIONARY
  5
84D9
330
81A2
100
AcDbDictionary
280
     1
281
     1
  3
ACAD_XREC_ROUNDTRIP
360
84DA
  0
DICTIONARY
  5
84DB
330
81A3
100
AcDbDictionary
280
     1
281
     1
  3
ACAD_XREC_ROUNDTRIP
360
84DC
  0
DICTIONARY
  5
84D1
330
819E
100
AcDbDictionary
280
     1
281
     1
  3
ACAD_XREC_ROUNDTRIP
360
84D2
  0
DICTIONARY
  5
84C5
330
8198
100
AcDbDictionary
280
     1
281
     1
  3
ACAD_XREC_ROUNDTRIP
360
84C6
  0
DICTIONARY
  5
84DD
330
81A4
100
AcDbDictionary
280
     1
281
     1
  3
ACAD_XREC_ROUNDTRIP
360
84DE
  0
XRECORD
  5
84EE
102
{ACAD_REACTORS
330
84ED
102
}
330
84ED
100
AcDbXrecord
280
     1
102
DISPLAYNAME
  1
Imperial24
102
FLAGS
 90
        0
  0
XRECORD
  5
84F2
102
{ACAD_REACTORS
330
84F1
102
}
330
84F1
100
AcDbXrecord
280
     1
102
SHADEPLOT
 70
     0
102
SHADEPLOTRESLEVEL
 70
     2
102
SHADEPLOTCUSTOMDPI
 70
   300
  0
XRECORD
  5
84F0
102
{ACAD_REACTORS
330
84EF
102
}
330
84EF
100
AcDbXrecord
280
     1
102
SHADEPLOT
 70
     0
102
SHADEPLOTRESLEVEL
 70
     2
102
SHADEPLOTCUSTOMDPI
 70
   300
  0
XRECORD
  5
84B7
102
{ACAD_REACTORS
330
8182
102
}
330
8182
100
AcDbXrecord
280
     1
102
MATERIAL
148
0.0
149
0.0
149
0.0
 93
        0
 94
      127
282
     0
 72
     0
 77
     0
171
     0
175
     0
179
     0
273
     0
  0
XRECORD
  5
8184
102
{ACAD_REACTORS
330
8182
102
}
330
8182
100
AcDbXrecord
280
     1
270
     1
271
     1
  0
XRECORD
  5
8183
102
{ACAD_REACTORS
330
8182
102
}
330
8182
100
AcDbXrecord
280
     1
270
     1
271
     1
  0
XRECORD
  5
8187
102
{ACAD_REACTORS
330
8182
102
}
330
8182
100
AcDbXrecord
280
     1
270
     1
271
     1
  0
XRECORD
  5
8186
102
{ACAD_REACTORS
330
8182
102
}
330
8182
100
AcDbXrecord
280
     1
270
     1
271
     1
  0
XRECORD
  5
8188
102
{ACAD_REACTORS
330
8182
102
}
330
8182
100
AcDbXrecord
280
     1
270
     1
271
     1
  0
XRECORD
  5
8185
102
{ACAD_REACTORS
330
8182
102
}
330
8182
100
AcDbXrecord
280
     1
270
     1
271
     1
  0
XRECORD
  5
84B6
102
{ACAD_REACTORS
330
817A
102
}
330
817A
100
AcDbXrecord
280
     1
102
MATERIAL
148
0.0
149
0.0
149
0.0
 93
        0
 94
      127
282
     0
 72
     0
 77
     0
171
     0
175
     0
179
     0
273
     0
  0
XRECORD
  5
817C
102
{ACAD_REACTORS
330
817A
102
}
330
817A
100
AcDbXrecord
280
     1
270
     1
271
     1
  0
XRECORD
  5
817B
102
{ACAD_REACTORS
330
817A
102
}
330
817A
100
AcDbXrecord
280
     1
270
     1
271
     1
  0
XRECORD
  5
817F
102
{ACAD_REACTORS
330
817A
102
}
330
817A
100
AcDbXrecord
280
     1
270
     1
271
     1
  0
XRECORD
  5
817E
102
{ACAD_REACTORS
330
817A
102
}
330
817A
100
AcDbXrecord
280
     1
270
     1
271
     1
  0
XRECORD
  5
8180
102
{ACAD_REACTORS
330
817A
102
}
330
817A
100
AcDbXrecord
280
     1
270
     1
271
     1
  0
XRECORD
  5
817D
102
{ACAD_REACTORS
330
817A
102
}
330
817A
100
AcDbXrecord
280
     1
270
     1
271
     1
  0
XRECORD
  5
84B8
102
{ACAD_REACTORS
330
818A
102
}
330
818A
100
AcDbXrecord
280
     1
102
MATERIAL
148
0.0
149
0.0
149
0.0
 93
        0
 94
      127
282
     0
 72
     0
 77
     0
171
     0
175
     0
179
     0
273
     0
  0
XRECORD
  5
818C
102
{ACAD_REACTORS
330
818A
102
}
330
818A
100
AcDbXrecord
280
     1
270
     1
271
     1
  0
XRECORD
  5
818B
102
{ACAD_REACTORS
330
818A
102
}
330
818A
100
AcDbXrecord
280
     1
270
     1
271
     1
  0
XRECORD
  5
82C4
102
{ACAD_REACTORS
330
818A
102
}
330
818A
100
AcDbXrecord
280
     1
 70
     1
 90
1959938040
 71
     1
  1
1B3CB37B-22E4-4362-A8C0-A5FCC189B78A
311
504B03041400060808006B7474571FC8EF52D7000000200100004F00000039364641443737352D413536372D343342462D423036432D3844343233423834443439452F4173736574446174612F446566696E6974696F6E4974657261746F7250726F706572746965732E62696EEB606060F80F0540260323103700495E20ED
311
9E9A975A94991C9C9C919A9BC8C00612C9C94F4ACC6147C831019920AE4B6A5A62694E0948976F6671726A4E4E625E6A7E69B12042A9426E6209D0B8C41C3D90264E20860914834C48875806B2DF0F88414E02D189290556F689C5C5A925B6FA694915FA166EE6E666C68E46BA066E2E4EBA264EA6AEBA4EAEAE06BA166E4E
311
C66E0616CE064E2ECEFA45A9C5F9A545C9A9C5FA46FA06F15093E30BF2D283221DEB0C19188280D6B330BCDF77326CA76B713857851ED02297F4E6989D063337019948601F00504B03041400060808006B7474578BF20A8EEC000000300200004500000039364641443737352D413536372D343342462D423036432D384434
311
3233423834443439452F4173736574446174612F496E7374616E636550726F706572746965732E62696EEB606060F80F0540260323103700495E20ED9E9A975A94991C9C9C919A9BA802143074327676323677D235327235D135313633D275B47036D0753475737636B4B07432B770644768046931363471713532B5D43535
311
3131D635313332D475727372D13534373670367376B67474B5042A03DBCBA019D37FE8ABC6157B20CD04146B0062181F4C03F940F0C11EA29A8141C08141002C0426541C106CAC2CA046088033B02A030AC2157C6006F21A8018AAF50194E6010A610250382264E08660284CD9E98021862280A91564B406929A0FF62C401E
311
28B6F88038B83CB1243943D7A928312F25350524432B0000504B03041400060808006B74745728BB58AF800100009E0500003D00000039364641443737352D413536372D343342462D423036432D3844343233423834443439452F536368656D61732F436F6D6D6F6E536368656D612E786D6CBD544D4FC23018BEFB2B96DE
311
15493C78601010A34B880709DEDFB52FD0D8B54BD70DF6EFED3AC0B12E6442E2716BFB3CEFF3D18E26FB440405EA8C2B1992E1C323095052C5B8DC842437EBFB673219DF8DA659866649B798C078B48AE6410122242F2A4994AC7F93815DF85C049C8564CA0A901499DD886B2EB9B1E02448F358701A9235880C49A0119892
311
A20C89D1B9FD768815CAD268CB5E0355B40B1E47F3E37A2020464BED06AA57CE8FCC20C3C3446D46761A2632A8C1283D07031EFF2AE7CCB1BFEEE916E406DFAC8E36FFD99A9D60A6944090EEDC3B670C7DC13DE86B6B2C5C240D6E503BB85ACD579D513F1B9F9A69DC9CC22AFA80C426D40AF0B21EA168559156B6276F0F72
311
6A6BFF04DCD513A87A62CAD41FB24FCB2858B3952E3D852084DA25B9303C15687973CC8E8AAE11DF2836C38C6A9E765E8C1BA1BFB1DC29CDFE518C8B5A7655A4ED7E77291ABEB80DBD82EC866ADE1B8D05AF9E35CF09D7A061F38A986D9EC412B8F0F65E5D81534D9B231D1E5A8FE577A241F3A5FD01504B03041400060808
311
006B7474572CCEBD668A040000E01200003E00000039364641443737352D413536372D343342462D423036432D3844343233423834443439452F536368656D61732F47656E65726963536368656D612E786D6CD5586D6FDB380CFE7EBF42F0F7A649B70E1B90744856B4970F450FCD7A5F05459613EDE4174872DADCAF3F52
311
2F8ED3B88D2F1D06AC4050DBA2493EE4438AF2F8EB73AEC8466823CB62928C06C384888297A92C5693A4B6D9D9E7E4EBD51FE3A931C22EF85AE4EC6AFC38BF261BA626C9AD288496DC3F4FCEAFC63366845F7A10452AF41DB320C0D44EC26EAB20918735565582695670811A6A49643A49A6E9069FA4604A64B29016DC4B48
311
552F95E4932463CA888468C1D2B250DB4962750DF7CE273069CE8363F1FF4EDB00E0A21999574AE4A2B00C353B93F3BD4777B8A61ED8F604ABFEDD79CE56A2B7BDFBDBC50996E0ADDE16FED26223C5D30956C29BDF4A55EA686E5E58B112DA45CE67F76F4FA27EFA3FB672FD7372FC388FAECDCA5209E693CAD167BADCD272
311
F943701B3812F8A3D852008B1D2E32DB927B2F833C6EA95879925356D254582695095A3CE982924720BE5774A3CB9CDCDB350427D2DF20DA1B5532EBE2D5D6288D75D4F7E4FD9890A0EF8E3D93EBB8F8BA4758158EF6FB90A6F9520281C93DE7AAC6D24607DA296BB96018123F821A7D6A5C5884050C475DA4865442732C8B
311
95684A50165CBB3A32F25F783A4A480ED59AD7F924B968AEA50131F46303223E6A397B0E52976030DC1DCA81D7E7C1EDEEA42C19FF27635C505E2BD5198A599020DF50A2330FCB3AAF28CB0124108429553EF1B228802E2265D8F7CC2401042B155BCC7070F1E5C55F13B4A9577362CCCE46C32174E010C3C378C44841A4BD
311
A00FE3A12006CE11EE6AEC59894D3526DDE1CD59D503ECC324017F8061B7F162162FA62EDD81AE3308617770796DCBDAD2B2625C5AE8A63DE20B2C8AA5E95E76E5730823955956E33E705425A2187C185D36489A1B44D3DCEC2172F6BA2105C3546287A7194B2331768EBBE64F6E70A9930ABE0ADEA89E9E2C38523B810287
311
AD67A54A039C1606EAFE68F8304610BB9093DBDDABC0B2AE4E290DCDA15376D7E39F72B556F0B32EAB5D3D498B4C41ABADEC3A1434C422D87E8025A84BDCB2B1417ED750FAE4DA8976863974C577C7F902D3F156AD354DEA3540DE6BEAE2BEA52F7A2EB4CA43802ECE5BF2CE2EDC9347179FFB023CE412E60BE16DA0BE29B3
311
74988A553F561DC04615DD35F7D2C8979F60E5955CE93DF29DED8AFA1EE6642D53418086C03C47C377910F75F7E8F5EF665F70B60FFB22AEDF897D119E8423C773E819A3C1E55E550599EE6EDCA34D0C86FD72057DF2CD46F16A470682471C164E4346D5306BF12D7D12D82CFF673D41636C347443FEB51B50D72EA171A8E4
311
A58623A4A16E0FA2B8B10A0D23268D87C33896EE8FB73305A74BF224EDBADFA0BD674AB354D63DB7BD5D83426761C077DE767728235446A552754EB93B755891C3C4CC6CADE37CF0E912A7BB38DBA010F9DE1282EDF470CA69A9CDA482E334C4A6EA4107987980B17E72F31730EBF88BBD39E7C629F56797A3C0009C2C5AE7
311
951D9A05A02773440F02EEB4DE396A3B6A570C72CCFBCD823B0B8ED3F1D5CEDDFED772FA70236C83FB7D86C385D570B87107535572A60A96035F8F7C6A7192F13007246BBE0521855E6AC46F3E27689CEE7D186A6FD679D98CDCAD13333E04EBE7ED6F55FF01504B03041400060808006B7474576180134D5F0100006B0300
311
004500000039364641443737352D413536372D343342462D423036432D3844343233423834443439452F536368656D61732F52656E6465724D6174657269616C536368656D612E786D6CA5934D6FC2300C86EFFB1551EEE343DBA41D1A103009551ADAD40EAE28A4A68D9426284961FCFBE5A340113B2071746D3F765EBF4D
311
C6BFB5407BD0862B49F0B037C0082453059725C18DDD3EBFE3F1E829991803366715D474942CD30FB4A782E00C64017A412D684E454CE3FE28995203B162A6EA5AC94B66997D225E109CD63B0135484BAD1B3C07E9080CA35DB3119C11BCA5C200461A68A1A438126C75E3E230D40FF81FB3F03C91D1E3A3A0AF79FE28E25B
311
C39EC3E17E4C2A2D94A0833A51AF55BCCA7D88572FCBAC529C4140B020FC3AAFA886621DCED7EAD7664CC86024E806DC297DA1BB393E4156543457A4537DB8817349A70F8ACBF09B3EEE2CB2F33E91B65D60786E4E3B39B77E3FEEEF5650424525DA657FB8B46BE6BF064646F0A0F7327C0BC1BC1B4CBBC1C419FA3CCB2350
311
0007872A2580CAAE5461865565294E4EDB4617B62FF579DF9A5B2F54E834076A597573A020912FED777F9B3F504B03041400060808006B747457767550A951000000570000004700000039364641443737352D413536372D343342462D423036432D3844343233423834443439452F4173736574446174612F417373657454
311
61626C654F66436F6E74656E74732E62696E536160603074327676323677D235327235D135313633D275B47036D0753475737636B4B07432B7701402AACB4D2C492DCA4CCC492C28484D2C4ACC4B4E050A82012F90744FCD03CA26072767A4E6260200504B03041400060808006B747457F865834058000000680000004500
311
000039364641443737352D413536372D343342462D423036432D3844343233423834443439452F4173736574446174612F53747265616D56657273696F6E5461626C652E696E66558CBD0A80300C06F73E4B117FB66E451741D041DC5BF98480A492E4FDD18EAEC7DD4555D89EF28DF51A0B1BD8340C4DE7DD848B988C0ACF
311
0649566493F2408C508DDEBB99D5129FF8F1AF8CF5B9503E20FAE5A16B5AF702504B03041400060808006B747457230DBBCC340100009A0400003600000039364641443737352D413536372D343342462D423036432D3844343233423834443439452F4173736574446174612F636E782E786D6CCD943F4FC33010C5BF4AE4
311
3D76FE80842AC71582A51348540C6C57E752AC3A76645F107C7BEC3603A888A943D7F3BBF3F34F7E27D79FA32D3E3044E35DC76A5EB1029DF6BD71FB8ECD349477AC582B19BCA71F32563818B163B9CC94DC073F4F4BA9C701669BABD6B8C352BC8F11690B3B8B4FC38377848E222BB485183B16F53B8EC06126DF633CF01E
311
0878CD03463F078D6912991197493A2010F64C3555D396755D36D5B6BE59B5B7ABA67D93222B95DC796F17BD4997053F15FA742B539514F958C939984593DFC2D45F1EF9CE38299252C9482131593AE86B4A1D304DD668A0844E784D486512218C529CC44A8ACCE01789471C8C33B965938C01F9F09CEC6120835747E43FAF
311
9727B37191C069BC5E1EE70E2F4FE1E5F8835E4F813C26E6DA7272EE901B375C2025E2B8465268F25651DF504B03041400060808006B747457BCEBC5BE070100004F0300003400000039364641443737352D413536372D343342462D423036432D3844343233423834443439452F536368656D61732F636E782E786D6CCD93
311
BD4E042114855F85D00FCC8F2666C3B08585958D5AD921DC5DC90277028CD1B717468ADDC44E8BEDE0F0859C73B888FDA777E40362B218663AB09E12081A8D0DC799AEF9D0DD51B2972222E6338C92A03CCCB4CA548A63C475699281835A5D559D0DA726DEA3F7189EF53B784589762AA599A66DCBD49AD1403A31A3B26203
311
8B90708D1ACA0DD97A6837E8082A83A172ECC7A91B866EEC5F869BDD74BB1BA757C12B29C51BA26BBC0D19222E4463598462A717BC1E4BB146DB989A81CA736FACB4217821A44839960E1A99BF9642AA657156AB5CAAE21BF8C348C16BD48BC00F10205A7D9D892FCCFD5BE4270806E26379A56895BBCEE4BF79FC5B017C9B
311
FD3202F52BC86F504B03041400060808006B747457410A3D5871000000A40000002C00000039364641443737352D413536372D343342462D423036432D3844343233423834443439452F636E782E786D6C55CC4D0E82301086E1AB34B31774E7A22D31F1069E60020334B633A63FC6E34B0909B07DDE2F9FEE7EC1AB2FC5E4
311
840DDC9A2B28E25E06C7938192C7CB1D54677514C9871928C640062A83D55394F2D968A0118BAFEA1DBF377CA444F98919176EAB9FEAAB9F2960DA5BBB1E2ED3FA6FFF504B03041400060808006B747457EE1ADD067F000000A300000007000000636E782E786D6C4D8CD10E822018465F85FDF79425026E8893C8F770898E
311
A9D0485A8F1F342FBAFAB6B3EF1CD17EB615BD4D7859EF1AB89C0A40C63DFC68DDDC40DC27CC01B55204EFF7BF1B20376CA6818C418A39F8F83CD068A621AE99AED62D07AC69DF69C62ADC55946152AA1EAB82DE30D7E45A2A4E34A9EFC9386725CDAF9736E7E517504B03041400060808006B74745716E99B5DA600000035
311
010000130000005B436F6E74656E745F54797065735D2E786D6C9590410E82301045AFD2740F4517C6180A0BF5065E60AC53688469D30E066F6F91AD9AB89CF9FFFD3F99BA9DC7413C3026E749CB4D59498164FCCD51A7E5C4B6D84BD136F5E5193089ECA5A465CF1C0E4A25D3E308A9F401292BD6C711388FB15301CC1D3A
311
54DBAADA29E38991B8E0254336F5092D4C038BF39CD76B6FC6A538AEBEA54A4B08617006389FA516557DE4AE8E7E70DE30729138228C5F021CD93F02D4FB0DCD0B504B03041400060808006B7474573DEE336E64000000790000001B0000006175746F6465736B2D64657369676E2D7061636B6167652E786D6C35CBC10E83
311
200C00D05F21DCA56CA76D41FC96062B120735B69A7DBE268BB7777961F8D5AF396893C2ADB70FE7ADA196782C2DF776D7A97B5933C430F15651E5469C55D70F80A4992A3ADC954792C525AE70A1E4D6AD9816CC044FEFDF01FE3FDE907802504B03041400060808006B7474576E73B8E6F800000096010000370000003936
311
4641443737352D413536372D343342462D423036432D3844343233423834443439452F4173736574446174612F636F72652E786D6C8550CB6E833010FC15B477037EA46A22E38894E40B7AEACD320EB1126CE447D5CFAF1DA8D49E7ADAD5ECCCECEEF0E3D7FCA83EB50FC6D90E70DD42A5AD72A3B15307295ED12B5447C1BD
311
73F1170D2A2B67DD418141F0C9BBB46C9072366A5B50EB46BD8132041DA1528FDC7410D44DCFB296296646B8D78B547739E91AD72B4FF094CCB849CD98DDCCD5680FE24C29EE870B458CF60C3172DAA3D34BDB23D293F31EBFB161C72EBC2962C1A3997FB62BAF65D42308D2128A3046A47DC7EC407707423F7853988287E8
311
F3CFDBD2F21D88BE5C3DC82879B34EFFB8A665FCDF35191B29D95C57450081F391CF81E04D4929976784B99644C537504B03041400060808006B7474575EC52062F7000000940100003500000039364641443737352D413536372D343342462D423036432D3844343233423834443439452F536368656D61732F636F72652E
311
786D6C8550CB4EC33010FC9568EF4EE24711AD1C57296D7F004EDC2CC70D561B3BF203F1F9D84990E0C46957B333B3BBC38F5FD3A3FAD43E18673BC0750B95B6CA0DC68E1DA47843CF501D05F7CEC55F34A8AC9C74070506C147EFD2BC41CAD9A86D41AD1BF406CA1074844A3D72D341501F7A92B54C3133C2BD9EA5BACB51
311
D7B85E7982A764864D6A86EC666E467B10174A717FBE52C468CF1023A73D3A3DB53D223DB9ECF10B3BEFD89537452C7834D3CF76E5B58C7A00415A4211C688B46F981DE8EE40E83B6F0A53F0107DFE795B5ABE03F1BADC1978B3CEFE78A679F8DF33191B29D93C57450081F389CB40F0A66494CB1260AE254FF10D504B0304
311
1400060808006B7474575F75DAB902010000D70100002D00000039364641443737352D413536372D343342462D423036432D3844343233423834443439452F636F72652E786D6C9591CB4EC33010457F259ABDF37EB5725C35847E012B76269E06AB8D1DF981F87C1C1204EC6065EBFADC19DF197A7A9FEFD11B1A2BB5EA20
311
8B5388508D5A483575E0DD95B4109D18355ABB1F18448ACFD8C12A03A393D17ED9A5512B876A559516B88BDC5A74108DF770E9C08EAF38F3987B17087B8B173EDEF88471166F1CA34ECE5FD6D120772880E5695E902C2379FA9495C7A23AE6C5334D5692512F952BF2BD19CE2F2822BDB81009584593ED35505E8A9D9122FC
311
515E251A6087FA721E9AA622E7AA6E4859F417D2A7F5036987322FFAB61CCAC3632812CC8C5A67C264F622EB0CFE6ADF8CBF92F945FC33D9E6B0C0B2EF50C93A664693CF1D84735D09FB00504B03041400060808006B7474575BD2213E07010000B201000008000000636F72652E786D6C8D50CB6EC32010FC15B4776C034E
311
D54498C869922FE8A9376A888B6283C5236AFFBE90B8527BEB69D1CCECCE307CFF394FE8A67D30CE7640AA0690B68353C68E1DA478C1CF80F6827BE7E22F19202B67DD418141F0D1BBB4ACD0E06CD4B6A0D629BD8232041D010D537E7410860F3DCB4AA69815E15A2D72B8CA5157A47AE8048F66FE591DBC96512B10B4A10C
311
138269F34ADA1DDBEC287BE375510A9E9251AB9551D9DD5C8CF6204E8C91FE7866B8657D8B5B7AD8E2C353D363DAD3D396BCB4C74D7BE67559163C449FFFBC1EC939230AF2567C79FDA0047F776E5A05399442CE4E5F201A5E17E24FE8B4A87F84363632BA1E7C6C04102407BA13D9B83498C7BDDE3C4BDBE21B504B010214
311
001400060808006B7474571FC8EF52D7000000200100004F000000000000000000000000000000000039364641443737352D413536372D343342462D423036432D3844343233423834443439452F4173736574446174612F446566696E6974696F6E4974657261746F7250726F706572746965732E62696E504B0102140014
311
00060808006B7474578BF20A8EEC0000003002000045000000000000000000000000004401000039364641443737352D413536372D343342462D423036432D3844343233423834443439452F4173736574446174612F496E7374616E636550726F706572746965732E62696E504B010214001400060808006B74745728BB58
311
AF800100009E0500003D000000000000000000000000009302000039364641443737352D413536372D343342462D423036432D3844343233423834443439452F536368656D61732F436F6D6D6F6E536368656D612E786D6C504B010214001400060808006B7474572CCEBD668A040000E01200003E00000000000000000000
311
0000006E04000039364641443737352D413536372D343342462D423036432D3844343233423834443439452F536368656D61732F47656E65726963536368656D612E786D6C504B010214001400060808006B7474576180134D5F0100006B03000045000000000000000000000000005409000039364641443737352D413536
311
372D343342462D423036432D3844343233423834443439452F536368656D61732F52656E6465724D6174657269616C536368656D612E786D6C504B010214001400060808006B747457767550A951000000570000004700000000000000000000000000160B000039364641443737352D413536372D343342462D423036432D
311
3844343233423834443439452F4173736574446174612F41737365745461626C654F66436F6E74656E74732E62696E504B010214001400060808006B747457F865834058000000680000004500000000000000000000000000CC0B000039364641443737352D413536372D343342462D423036432D38443432334238344434
311
39452F4173736574446174612F53747265616D56657273696F6E5461626C652E696E66504B010214001400060808006B747457230DBBCC340100009A0400003600000000000000000000000000870C000039364641443737352D413536372D343342462D423036432D3844343233423834443439452F417373657444617461
311
2F636E782E786D6C504B010214001400060808006B747457BCEBC5BE070100004F03000034000000000000000000000000000F0E000039364641443737352D413536372D343342462D423036432D3844343233423834443439452F536368656D61732F636E782E786D6C504B010214001400060808006B747457410A3D5871
311
000000A40000002C00000000000000000000000000680F000039364641443737352D413536372D343342462D423036432D3844343233423834443439452F636E782E786D6C504B010214001400060808006B747457EE1ADD067F000000A3000000070000000000000000000000000023100000636E782E786D6C504B010214
311
001400060808006B74745716E99B5DA6000000350100001300000000000000000000000000C71000005B436F6E74656E745F54797065735D2E786D6C504B010214001400060808006B7474573DEE336E64000000790000001B000000000000000000000000009E1100006175746F6465736B2D64657369676E2D7061636B61
311
67652E786D6C504B010214001400060808006B7474576E73B8E6F80000009601000037000000000000000000000000003B12000039364641443737352D413536372D343342462D423036432D3844343233423834443439452F4173736574446174612F636F72652E786D6C504B010214001400060808006B7474575EC52062
311
F70000009401000035000000000000000000000000008813000039364641443737352D413536372D343342462D423036432D3844343233423834443439452F536368656D61732F636F72652E786D6C504B010214001400060808006B7474575F75DAB902010000D70100002D00000000000000000000000000D21400003936
311
4641443737352D413536372D343342462D423036432D3844343233423834443439452F636F72652E786D6C504B010214001400060808006B7474575BD2213E07010000B201000008000000000000000000000000001F160000636F72652E786D6C504B050600000000110011005A0600004C1700000000
310
504B03041400060808006B747457000000000000000000000000370000006662782F33424439353834392D413646372D344331412D413741352D4431444246443831333633312F617474726962757465732E62696E504B03041400060808006B747457000000000000000000000000350000006662782F3342443935383439
310
2D413646372D344331412D413741352D4431444246443831333633312F76657274696365732E62696E504B03041400060808006B747457F270F1330600000004000000360000006662782F33424439353834392D413646372D344331412D413741352D4431444246443831333633312F747269616E676C65732E62696E6366
310
60600000504B03041400060808006B74745751464CB48900000043010000360000006662782F33424439353834392D413646372D344331412D413741352D4431444246443831333633312F6469726563746F72792E786D6C9D8F310EC2300C45AF127987122606C71DD918B841D4B851A43646695A717C52A85029031293A5
310
A76FBF6FACEF7DA7264E43906840EF0FA03836E242F406C6DCEE4EA06AC22492573150D1F66C60C640E8938CB705396EEDD86DE9B5042FE27813D640EA63BB001C722AF6E55CB61E4863F58284D5D3F53DD715CE1C3985E63FD7F1B7EBDD617E9F1E504B03041400060808006B747457429B87C139070000201C0000340000
310
006662782F33424439353834392D413646372D344331412D413741352D4431444246443831333633312F6F626A656374732E786D6CDD59DB6EDB3810FD1542FBB2FBA09B652776E1B8F0252E8C226D51A38B7D13689976B8D10DA49438FBF53BA4485992655BE9B640B10990380C359C39337366381ABF3F44217A268CD324
310
BE335CCB31108983644BE3FD9D91673B7368A0F7133466499255F61928C611B933C4B23119EF5992A76A694B76380F9BABCBD95F88072426060A42CCF99DC1834712610BE759B225FCC9DAE20C5BFBDDC172AD62635DEC9EE1F4B171548A1989335015D66390A23470EB7F8249F6646C8B0DB56DBD6EDBBC0BDB6C69785D51
310
1AF30CC7C189560D39BD6E5A796E7F71DF1B8CCC41BFEF99FD9B9E6BCE96B385E9DE7ACEFC663E1F4DEF47069A8C374912960E4849BC052FBE1A13776C8BFF94E62B14DAF40E9238268142B36DC39628B994F0262635605D695AC52185AD9505AFA3F167B67502A5A6520D6D6D9CFE5D8DDE64F33780C0BB4429E3444439CF
310
18F85A615FE48333B68BD59A5F284711CE08A3384421DD30CCC041B0B570504D8CC816210A09CCA417B5BCAAAE10D8D773A94DCB5D1E86227F8D89CC341FF291645C6A46FF21ECA87DF534D009ACCD699C0D95B1D96B0A2246635B2E16FFF37AEA9F05906817E23D440B98293679BD065E73C105AB8531F9B8DC1CD6821FDA
310
0F4F5992129689C893C9ACF24E7BB0125A107C1D402970ADFBEE88CA5780FE13205FEA82C6E039460FFD435FDBCE70CC77098BC03BC841A6033F1C243E9E7C1ADBE5C313846A5C790E5348DB1F8469CD8CDAD9154827E36708FA8479CAB875804388E9071A8B3C87404161024BC0F7BBCDC198AC804C61119EC221580FDF63
310
5B7C44F0AB90037CD3F0501BFD7670944E98669E1D7DF5016286D1A07455CDC673F80E7E08BED3C5FAE33A673B1C900795D80BB2A331CDA098B62B5403BD96F2DF569F64469ED853DB15C039FB4410478B5FD6CA2F483A06541175B8708D5C79A090EE61886392E45CADB71155908409F337AF7E91C3AD67FDA983A0380CF2
310
5B44402B9941750F184D0528C644995732A175C449F0A00AC07DE1547F83832701AF1F00637D8F1E10B5983585E651EAE328C96341DFA7E1DD34CDF21CF9E5BAA39E33EA0D4737DA582EC5EBECD1D4502A2FCE89707AE69079CD5B8A35B4E4228FFAC0966D1604D033E5999FA438A0597B2C348C50190A605F54794B77BB9C
310
03A9B7C2D2D0D8F2DC01722A3FCB432E6BAF0EF16984F7C4DF6151E15ACFAB01540AD716B422B30F13CE694CB8EC504E98AB818A6301111471ABA5B60421E57E4432FC3DF1274B5E23FC18D9853EF45299E866AF479F565055CF731245E796C4BEB4FFD5E7384AC3A24BBB8681DB6B9CD08AAB505A1CF10CF1E6E3CC77B644
310
36DDD7A497BCA0F1ED247DF4DDE2CFC0C3F04F87471F41A1F5861A79DDB3AE357047E26B08A4723370BD5BED886B58E9A332D1838439744DC1ABFF42E8FEB11BA1753A879370E7D330CC23BFA8071989A005C359CE3AE5EBCDC03971BEE2854642544EDAD1101AE4CEA4297B0FDD7D8055B2F938479A9563C0281AC31DAD93
310
212756B486B0F485BC8F8A6BD775EFBF5DEA7FE6CBEA3DE589BCBE246CDBAA69BD8DD01D986E18045DAA0A57C691943C1957932F921797EB38F4B510C56FC52D41450823CF540C26E40DA8F5FEC05F70160091AEE56F730619B125DB634F5113A7C61CC6040ED5D2749F5ABDE900D989F2516BBC56825023983660C1B30FE2
310
43F81583ABA1F3E3B6EA6AEC627D250A9B058395A31E17647DFEB06E488195CE4F7F111891978604B53A178DDC0551DF56C77EB5214159F46D75E1F1EC318F3631A6A2328AB0C0DBF4DD7B7997BCB3E1A2600F97B7B737DEB4673ACBC5CCECCF06F7E6ECFEDE3187CB99B774867367B698DB8CF0246701E176CF767CDD3BA5
310
F15E0746015D971B054C15AE5FFD743C371DFC3FBE5184C9069F8BC55FF54251B67BA2216BE462D70B452B516FDED6FDBB2744DD5EC4DED43917B3021DE097CB169091AEF7DD5B0B2D5A7712ED3A572AE21B0BEFD9DBCA4FAF3135426FAD0FB51D6D945FE762983DB554297DBB2D461C336F3EF36E6766AF77DF37FBDE4DCF
310
9C027B99D3C1723E7787A3D9ED705A22AE6A61D7BAF24B70A856B632468369304F420A4379B2457B92C00D08A60E1DF8954584CB9B0D3400AA8CEB37021D9E7E2E66AA19DE84FAE9E011C3603A5415390F60280AB78E3B43ADA3DF600C2A26917238653D41E151D16EA09CD13B034220A3505FAC0D8CB3E4F0504A6F8C2BC1
310
6D38DE8B3B53F154F9F7F131810EC4CAD1AE724F175C9465B5E884E1402ADF1300DBE986E4FB4DD7EA209CC1C74D9E95C61C178ED62810F40B81C23898FA3D29780F403C97ED722DB9A70649A7C9FCC53828A49A19667B395EAFE03D5D7CB1C5647CF519A561BE17EEBC54EF6B924CD167847931841A43602833532CEEE1F3
310
77F61796C02BA6082D290401FAFD30BCF9C39E275194C4C5923D552FAAD0FA115E3B6D6D3DF283C6C57107B6EC7BD4581FE6569C5878CB9F60015CCBA8988D1610D702A0A4A74A00688F085FC063B5FDAB055245A0D2C2565B57018F9CE9234824F12E47A44D7543650009B9005A1573DAF2835E18DB0C86E0937F01504B03
310
041400060808006B747457F09988A23E01000046050000300000006662782F33424439353834392D413646372D344331412D413741352D4431444246443831333633312F636E782E786D6CCD94CF4A033110C65F65C97D93FDA320259B82079FC08378CB66A76BEC6EB22413B16F6F52D3AA48C543A1BD85C937F0FD663E86
310
AFDFE7A97803E7B5351DA969450A30CA0EDA8C1D09B829EF48B116DC598BDF64A43072868EA432117C74362CB934C046862955276DB6B928119DEE038227859AA4F71DF1EA05664965403B80DFD241A2A43575E06D700A623FEA1972BF72201106229AAA69CBBA2E9BEAB1BE59B5B7ABA67DE62C2905EFAD9DB25E1B046797
310
42D9F830D14CC559FA163C389D358980882F67B4D786B3F82FB88F6ECD9875B85B926E5926AD24C63131AB10B08C229033679F62C159E2FD41FD70FF7470500CDA8142EB76171A407D6A0047633426E17FFC7BE1DFD8B67F8DB897DAF649D86CEB6CA887B4FA18D7DFFB8F2992669CAE2FF44763E7CF7C3C25A8D5F5211F7C
310
9D8998ED4F5E5C7ABA80E203504B03041400060808006B747457EB2FB6E97E000000A30000000B0000006662782F636E782E786D6C4D8C4D0AC3201805AF22DFDEB6627E0CA8C154728FD09820351A6C2C3D7EB564D1D583E1CDF0FEB339F436F1658317402E3740C63FC26CFD2A201D0B66807AC96308C7DF0D909F3623A0
310
60907C8D21ED279ACD322557A8B3FE79423AE8AE6655875533B6B8BA138555AB6AAC891E46CD086D28C9C6B528797EBDBC252FBF504B03041400060808006B747457A6D797065F0000008200000007000000636E782E786D6C4DCB3B0E80201045D1AD90E9FD7516806B51190811670C8A61F982B1B0BAC9C97B72CA7B1037
310
C6D3332918DA1E04D2CAC69353902EDB8C20262D23F3F59B81A079470595414B17391D1F19B4730A5583A7ED43BBE4025D9592775E5ADFFA01504B03041400060808006B7474574FEB6A7CA0000000F4000000130000005B436F6E74656E745F54797065735D2E786D6C7D8F4B0EC2300C44AF1279DFA6B0400835ED02B801
310
1730C16D239A8F121795DB93D02D6269CFBC19BBED573B8B17C564BC53B0AB1B10E4B47F18372A5878A88E20FAAEBDBD032591BD2E299898C349CAA427B2986A1FC86565F0D122E7318E32A07EE24872DF3407A9BD63725C71C980AEBDD080CBCCE2BAE6F5D69B7110E7CD57AA146008B3D1C8F92C5954F993BB1BF787F39A
310
89ABC491D09600F9FDA2FB00504B03041400060808006B7474573DEE336E64000000790000001B0000006175746F6465736B2D64657369676E2D7061636B6167652E786D6C35CBC10E83200C00D05F21DCA56CA76D41FC96062B120735B69A7DBE268BB7777961F8D5AF396893C2ADB70FE7ADA196782C2DF776D7A97B5933
310
C430F15651E5469C55D70F80A4992A3ADC954792C525AE70A1E4D6AD9816CC044FEFDF01FE3FDE907802504B03041400060808006B7474578B6BE0ABF9000000960100003B0000006662782F33424439353834392D413646372D344331412D413741352D4431444246443831333633312F7265736F75726365732F636F7265
310
2E786D6C8550CB6E833010FC15B47743308440641C81D27E414FBD596643AD041BF951F5F36B072AB5A79E76353B33BB3BECF2B53CB24FB44E19DD43991F20432DCDA4F4DC43F037D24276E1CC1AE37FD120D362C11E120C9CCDD6847587A4D11E7542B59970078573E821938FD8F4E0E4072E2217C14786BBE7AB90773163
310
5EE61B8FB310D4B44BD514DDD44DA1055E37CDF5D48E1D69AAAE25F5EBF14ABA761CC8D80E74A8BB97E6D474AC4862CEBC5A7EB64B8BC2E3049C1E6845CA92D0C35B599FABE39956EFAC484CCE9CB7F1E77D69FA0EB845678295E858B14DFFB88675FADF3528ED2BBABB6E0A07BC8C473E079C1529A5589E11C69A12E5DF50
310
4B03041400060808006B747457161B9844F1000000B1010000310000006662782F33424439353834392D413646372D344331412D413741352D4431444246443831333633312F636F72652E786D6C8D50CB6EC32010FC156BEFD8C6D879091339B5F2053DF58680B82831583CAA7E7E2176A5F696D3A2D9196676E8F97B7E14
310
5FCA796D4D0FB8ACA1504658A9CDD4430C377480E2CCA8B336FCA14161F8AC7AC830303A391B970D12D60465326AAC541BC8BD57010AF1488F1EBCF854332F790C89E1EFE5C2C59D4FAAC4E5CA6334E8F9572A9CE24149604DDD1084316AEA77DC9E48776AC807AD3293D118B5DCACB44CEEFAA69503462EE3B13BB44734EC
310
AE7BD4BEE1010DFBA143231E2FD7F180C98E605A6531A33EB874F3F649BEEE55F92AFC97392EF285CCDA04D26C86ABC203CB799E0B46AB5C601ACF76D3CC65B31F504B03041400060808006B7474571EFA1F2D54010000DD0200000C0000006662782F636F72652E786D6C8D52CB6E833010FC15E4BB798740641C254AFB05
310
3DF5E61843AD808D8C8DF2F9B5798872685A21196B7677666764747E76AD37323570294A10F921F098A0B2E2A22981D135CC8177C64849A97FB4014F908E95C0C100A34649D32F10954233E150212BB680641898061E6DEDA50403FD621DF189D1B66378F83DA10FD2303FF2E73E8C8CE1D532CA2BCBC66BCE14C06996DD8E
310
F9B5805952E4307D3FDC60915F2FF09A5FE24B5ABC65C7AC40811BC648F36E55A78A11CD2A80E3304E6014C138FC88D2537238C5C9270A5C27468356D6F322EADC015CDF9F2898F11D9FE9ABBFF90C173A8917BE79620038B2EB4D058C02978FFD4DE1ED33B4C2363F4DEEED6AE161A191512D556A2B95345B6924AD61963A
310
F4A60F0573D5324F04BFF1C42F785E73D8A08868EC6A44DBEBDD68A7BEDFA9670A8EFAE909A93AD26ECBCD2B6EE726B4B3B48E53D94AF59FE9D5EA1A66E01E26FE06504B03041400060808006B747457BC74740B07010000B201000008000000636F72652E786D6C8D50CB6EC32010FC15B477FC8E634798C856DA2FE8A937
310
6A8883628365206AFFBE1053A9BDF5B4686676671872FE5C66F4109B915A7590271920A146CDA59A3A70F68A1B40674A36ADED2F1920C516D14180819269D36E8DD0A895152AA04A731141668CB080C6D93F3A30E34D2C2C61CE7A85B9272B1BEF6C12499EEC3A4AAC5C7E56C74D302B38D0222B4A9CE7B8C8DEF2EA541E4E
310
45F94ED2A0A4C439C9A395E4DE5D5EA5D88056757D3936438BEBB26D70F57AB8E0B6197A3C347DD157ED4B7DAC5B9286654A8CDDFC9FE3119FD322C31EC197A43B45C987D67314F8501C69357F01CD481A883FA1DDCAFF115A2A5B16F1E0BE6180E63ED093F0C6A1413F9EF5FA19DAA6DF504B010214001400060808006B74
310
74570000000000000000000000003700000000000000000000000000000000006662782F33424439353834392D413646372D344331412D413741352D4431444246443831333633312F617474726962757465732E62696E504B010214001400060808006B747457000000000000000000000000350000000000000000000000
310
0000550000006662782F33424439353834392D413646372D344331412D413741352D4431444246443831333633312F76657274696365732E62696E504B010214001400060808006B747457F270F13306000000040000003600000000000000000000000000A80000006662782F33424439353834392D413646372D34433141
310
2D413741352D4431444246443831333633312F747269616E676C65732E62696E504B010214001400060808006B74745751464CB489000000430100003600000000000000000000000000020100006662782F33424439353834392D413646372D344331412D413741352D4431444246443831333633312F6469726563746F72
310
792E786D6C504B010214001400060808006B747457429B87C139070000201C00003400000000000000000000000000DF0100006662782F33424439353834392D413646372D344331412D413741352D4431444246443831333633312F6F626A656374732E786D6C504B010214001400060808006B747457F09988A23E010000
310
4605000030000000000000000000000000006A0900006662782F33424439353834392D413646372D344331412D413741352D4431444246443831333633312F636E782E786D6C504B010214001400060808006B747457EB2FB6E97E000000A30000000B00000000000000000000000000F60A00006662782F636E782E786D6C
310
504B010214001400060808006B747457A6D797065F0000008200000007000000000000000000000000009D0B0000636E782E786D6C504B010214001400060808006B7474574FEB6A7CA0000000F40000001300000000000000000000000000210C00005B436F6E74656E745F54797065735D2E786D6C504B01021400140006
310
0808006B7474573DEE336E64000000790000001B00000000000000000000000000F20C00006175746F6465736B2D64657369676E2D7061636B6167652E786D6C504B010214001400060808006B7474578B6BE0ABF9000000960100003B000000000000000000000000008F0D00006662782F33424439353834392D41364637
310
2D344331412D413741352D4431444246443831333633312F7265736F75726365732F636F72652E786D6C504B010214001400060808006B747457161B9844F1000000B10100003100000000000000000000000000E10E00006662782F33424439353834392D413646372D344331412D413741352D4431444246443831333633
310
312F636F72652E786D6C504B010214001400060808006B7474571EFA1F2D54010000DD0200000C00000000000000000000000000211000006662782F636F72652E786D6C504B010214001400060808006B747457BC74740B07010000B201000008000000000000000000000000009F110000636F72652E786D6C504B050600
310
0000000E000E0080040000CC1200000000
  0
XRECORD
  5
818F
102
{ACAD_REACTORS
330
818A
102
}
330
818A
100
AcDbXrecord
280
     1
270
     1
271
     1
  0
XRECORD
  5
818E
102
{ACAD_REACTORS
330
818A
102
}
330
818A
100
AcDbXrecord
280
     1
270
     1
271
     1
  0
XRECORD
  5
8190
102
{ACAD_REACTORS
330
818A
102
}
330
818A
100
AcDbXrecord
280
     1
270
     1
271
     1
  0
XRECORD
  5
818D
102
{ACAD_REACTORS
330
818A
102
}
330
818A
100
AcDbXrecord
280
     1
270
     1
271
     1
  0
XRECORD
  5
84EC
102
{ACAD_REACTORS
330
84EB
102
}
330
84EB
100
AcDbXrecord
280
     1
102
DISPLAYNAME
  1
Imperial24
102
FLAGS
 90
        0
  0
CELLSTYLEMAP
  5
84B3
102
{ACAD_REACTORS
330
84B2
102
}
330
84B2
100
AcDbCellStyleMap
 90
        3
300
CELLSTYLE
  1
TABLEFORMAT_BEGIN
 90
        5
170
     1
 91
        0
 92
    32768
 62
   257
 93
        1
300
CONTENTFORMAT
  1
CONTENTFORMAT_BEGIN
 90
        0
 91
        0
 92
      512
 93
        0
300

 40
0.0
140
1.0
 94
        5
 62
     0
340
81BD
144
0.25
309
CONTENTFORMAT_END
171
     0
 94
        0
309
TABLEFORMAT_END
  1
CELLSTYLE_BEGIN
 90
        1
 91
        1
300
_TITLE
309
CELLSTYLE_END
300
CELLSTYLE
  1
TABLEFORMAT_BEGIN
 90
        5
170
     1
 91
        0
 92
        0
 62
   257
 93
        1
300
CONTENTFORMAT
  1
CONTENTFORMAT_BEGIN
 90
        0
 91
        0
 92
      512
 93
        0
300

 40
0.0
140
1.0
 94
        5
 62
     0
340
81BD
144
0.18
309
CONTENTFORMAT_END
171
     0
 94
        0
309
TABLEFORMAT_END
  1
CELLSTYLE_BEGIN
 90
        2
 91
        1
300
_HEADER
309
CELLSTYLE_END
300
CELLSTYLE
  1
TABLEFORMAT_BEGIN
 90
        5
170
     1
 91
        0
 92
        0
 62
   257
 93
        1
300
CONTENTFORMAT
  1
CONTENTFORMAT_BEGIN
 90
        0
 91
        0
 92
      512
 93
        0
300

 40
0.0
140
1.0
 94
        2
 62
     0
340
81BD
144
0.18
309
CONTENTFORMAT_END
171
     0
 94
        0
309
TABLEFORMAT_END
  1
CELLSTYLE_BEGIN
 90
        3
 91
        2
300
_DATA
309
CELLSTYLE_END
  0
XRECORD
  5
84E9
102
{ACAD_REACTORS
330
84B2
102
}
330
84B2
100
AcDbXrecord
280
     1
102
ACAD_ROUNDTRIP_PRE2007_TABLESTYLE
 90
      512
 91
        0
  1

 92
      512
 93
        0
  2

 94
      512
 95
        0
  3

  0
XRECORD
  5
84C4
102
{ACAD_REACTORS
330
84C3
102
}
330
84C3
100
AcDbXrecord
280
     1
102
RTVSPost2010Prop28
280
     1
102
RTVSPost2010PropOp28
 70
     1
102
RTVSPost2010Prop29
280
     1
102
RTVSPost2010PropOp29
 70
     1
102
RTVSPost2010Prop30
280
     0
102
RTVSPost2010PropOp30
 70
     1
102
RTVSPost2010Prop31
280
     0
102
RTVSPost2010PropOp31
 70
     1
102
RTVSPost2010Prop32
280
     0
102
RTVSPost2010PropOp32
 70
     1
102
RTVSPost2010Prop33
280
     0
102
RTVSPost2010PropOp33
 70
     1
102
RTVSPost2010Prop34
280
     0
102
RTVSPost2010PropOp34
 70
     1
102
RTVSPost2010Prop35
280
     0
102
RTVSPost2010PropOp35
 70
     1
102
RTVSPost2010Prop36
280
     0
102
RTVSPost2010PropOp36
 70
     1
102
RTVSPost2010Prop37
 90
       50
102
RTVSPost2010PropOp37
 70
     1
102
RTVSPost2010Prop38
140
0.0
102
RTVSPost2010PropOp38
 70
     1
102
RTVSPost2010Prop39
140
1.0
102
RTVSPost2010PropOp39
 70
     1
102
RTVSPost2010Prop40
 90
        0
102
RTVSPost2010PropOp40
 70
     1
102
RTVSPost2010Prop41ColorIndex
 90
       18
102
RTVSPost2010Prop41ColorRGB
 90
        0
102
RTVSPost2010PropOp41
 70
     1
102
RTVSPost2010Prop42
 90
       50
102
RTVSPost2010PropOp42
 70
     1
102
RTVSPost2010Prop43
 90
        3
102
RTVSPost2010PropOp43
 70
     1
102
RTVSPost2010Prop44ColorIndex
 90
        5
102
RTVSPost2010Prop44ColorRGB
 90
      255
102
RTVSPost2010PropOp44
 70
     1
102
RTVSPost2010Prop45
280
     0
102
RTVSPost2010PropOp45
 70
     1
102
RTVSPost2010Prop46
 90
       50
102
RTVSPost2010PropOp46
 70
     1
102
RTVSPost2010Prop47
 90
       50
102
RTVSPost2010PropOp47
 70
     1
102
RTVSPost2010Prop48
 90
       50
102
RTVSPost2010PropOp48
 70
     1
102
RTVSPost2010Prop49
280
     0
102
RTVSPost2010PropOp49
 70
     1
102
RTVSPost2010Prop50
 90
       50
102
RTVSPost2010PropOp50
 70
     1
102
RTVSPost2010Prop51ColorIndex
 90
      256
102
RTVSPost2010Prop51ColorRGB
 90
-16777216
102
RTVSPost2010PropOp51
 70
     0
102
RTVSPost2010Prop52
140
1.0
102
RTVSPost2010PropOp52
 70
     0
102
RTVSPost2010Prop53
 90
        2
102
RTVSPost2010PropOp53
 70
     1
102
RTVSPost2010Prop54
  1
strokes_ogs.tif
102
RTVSPost2010PropOp54
 70
     1
102
RTVSPost2010Prop55
280
     0
102
RTVSPost2010PropOp55
 70
     1
102
RTVSPost2010Prop56
140
1.0
102
RTVSPost2010PropOp56
 70
     1
102
RTVSPost2010Prop57
140
1.0
102
RTVSPost2010PropOp57
 70
     1
102
RTVSPropertyOp0
 70
     1
102
RTVSPropertyOp1
 70
     1
102
RTVSPropertyOp2
 70
     1
102
RTVSPropertyOp3
 70
     1
102
RTVSPropertyOp4
 70
     1
102
RTVSPropertyOp5
 70
     1
102
RTVSPropertyOp6
 70
     1
102
RTVSPropertyOp7
 70
     1
102
RTVSPropertyOp8
 70
     1
102
RTVSPropertyOp9
 70
     1
102
RTVSPropertyOp10
 70
     1
102
RTVSPropertyOp11
 70
     1
102
RTVSPropertyOp12
 70
     1
102
RTVSPropertyOp13
 70
     1
102
RTVSPropertyOp14
 70
     1
102
RTVSPropertyOp15
 70
     1
102
RTVSPropertyOp16
 70
     1
102
RTVSPropertyOp17
 70
     1
102
RTVSPropertyOp18
 70
     1
102
RTVSPropertyOp19
 70
     1
102
RTVSPropertyOp20
 70
     1
102
RTVSPropertyOp21
 70
     1
102
RTVSPropertyOp22
 70
     1
102
RTVSPropertyOp23
 70
     1
102
RTVSPropertyOp24
 70
     1
102
RTVSPropertyOp25
 70
     1
102
RTVSPropertyOp26
 70
     1
102
RTVSPropertyOp27
 70
     1
102
RTVSPropertyOp28
 70
     1
102
RTVSPropertyOp29
 70
     1
102
RTVSPropertyOp30
 70
     1
102
RTVSPropertyOp31
 70
     1
102
RTVSPropertyOp32
 70
     1
102
RTVSPropertyOp33
 70
     1
102
RTVSPropertyOp34
 70
     1
102
RTVSPropertyOp35
 70
     1
102
RTVSPropertyOp36
 70
     1
102
RTVSPropertyOp37
 70
     1
102
RTVSPropertyOp38
 70
     1
102
RTVSPropertyOp39
 70
     1
102
RTVSPropertyOp40
 70
     1
102
RTVSPropertyOp41
 70
     1
102
RTVSPropertyOp42
 70
     1
102
RTVSPropertyOp43
 70
     1
102
RTVSPropertyOp44
 70
     1
102
RTVSPropertyOp45
 70
     1
102
RTVSPropertyOp46
 70
     1
102
RTVSPropertyOp47
 70
     1
102
RTVSPropertyOp48
 70
     1
102
RTVSPropertyOp49
 70
     1
102
RTVSPropertyOp50
 70
     1
102
RTVSPropertyOp51
 70
     0
102
RTVSPropertyOp52
 70
     0
102
RTVSPropertyOp53
 70
     1
102
RTVSPropertyOp54
 70
     1
102
RTVSPropertyOp55
 70
     1
102
RTVSPropertyOp56
 70
     1
102
RTVSPropertyOp57
 70
     1
102
RTVSPropertyOp58
 70
     1
102
RTVSPropertyOp59
 70
     1
102
RTVSPropertyOp60
 70
     1
102
RTVSPropertyOp61
 70
     1
102
RTVSPropertyOp62
 70
     1
  0
XRECORD
  5
84C2
102
{ACAD_REACTORS
330
84C1
102
}
330
84C1
100
AcDbXrecord
280
     1
102
RTVSPost2010Prop28
280
     0
102
RTVSPost2010PropOp28
 70
     1
102
RTVSPost2010Prop29
280
     1
102
RTVSPost2010PropOp29
 70
     1
102
RTVSPost2010Prop30
280
     1
102
RTVSPost2010PropOp30
 70
     1
102
RTVSPost2010Prop31
280
     0
102
RTVSPost2010PropOp31
 70
     1
102
RTVSPost2010Prop32
280
     0
102
RTVSPost2010PropOp32
 70
     1
102
RTVSPost2010Prop33
280
     0
102
RTVSPost2010PropOp33
 70
     1
102
RTVSPost2010Prop34
280
     0
102
RTVSPost2010PropOp34
 70
     1
102
RTVSPost2010Prop35
280
     0
102
RTVSPost2010PropOp35
 70
     1
102
RTVSPost2010Prop36
280
     0
102
RTVSPost2010PropOp36
 70
     1
102
RTVSPost2010Prop37
 90
       50
102
RTVSPost2010PropOp37
 70
     1
102
RTVSPost2010Prop38
140
0.0
102
RTVSPost2010PropOp38
 70
     1
102
RTVSPost2010Prop39
140
1.0
102
RTVSPost2010PropOp39
 70
     1
102
RTVSPost2010Prop40
 90
        0
102
RTVSPost2010PropOp40
 70
     1
102
RTVSPost2010Prop41ColorIndex
 90
       18
102
RTVSPost2010Prop41ColorRGB
 90
        0
102
RTVSPost2010PropOp41
 70
     1
102
RTVSPost2010Prop42
 90
       50
102
RTVSPost2010PropOp42
 70
     1
102
RTVSPost2010Prop43
 90
        3
102
RTVSPost2010PropOp43
 70
     1
102
RTVSPost2010Prop44ColorIndex
 90
        5
102
RTVSPost2010Prop44ColorRGB
 90
      255
102
RTVSPost2010PropOp44
 70
     1
102
RTVSPost2010Prop45
280
     0
102
RTVSPost2010PropOp45
 70
     1
102
RTVSPost2010Prop46
 90
       50
102
RTVSPost2010PropOp46
 70
     1
102
RTVSPost2010Prop47
 90
       50
102
RTVSPost2010PropOp47
 70
     1
102
RTVSPost2010Prop48
 90
       50
102
RTVSPost2010PropOp48
 70
     1
102
RTVSPost2010Prop49
280
     0
102
RTVSPost2010PropOp49
 70
     1
102
RTVSPost2010Prop50
 90
       50
102
RTVSPost2010PropOp50
 70
     1
102
RTVSPost2010Prop51ColorIndex
 90
      256
102
RTVSPost2010Prop51ColorRGB
 90
-16777216
102
RTVSPost2010PropOp51
 70
     0
102
RTVSPost2010Prop52
140
1.0
102
RTVSPost2010PropOp52
 70
     0
102
RTVSPost2010Prop53
 90
        2
102
RTVSPost2010PropOp53
 70
     1
102
RTVSPost2010Prop54
  1
strokes_ogs.tif
102
RTVSPost2010PropOp54
 70
     1
102
RTVSPost2010Prop55
280
     0
102
RTVSPost2010PropOp55
 70
     1
102
RTVSPost2010Prop56
140
1.0
102
RTVSPost2010PropOp56
 70
     1
102
RTVSPost2010Prop57
140
1.0
102
RTVSPost2010PropOp57
 70
     1
102
RTVSPropertyOp0
 70
     1
102
RTVSPropertyOp1
 70
     1
102
RTVSPropertyOp2
 70
     1
102
RTVSPropertyOp3
 70
     1
102
RTVSPropertyOp4
 70
     1
102
RTVSPropertyOp5
 70
     1
102
RTVSPropertyOp6
 70
     1
102
RTVSPropertyOp7
 70
     1
102
RTVSPropertyOp8
 70
     1
102
RTVSPropertyOp9
 70
     1
102
RTVSPropertyOp10
 70
     1
102
RTVSPropertyOp11
 70
     1
102
RTVSPropertyOp12
 70
     1
102
RTVSPropertyOp13
 70
     1
102
RTVSPropertyOp14
 70
     1
102
RTVSPropertyOp15
 70
     1
102
RTVSPropertyOp16
 70
     1
102
RTVSPropertyOp17
 70
     1
102
RTVSPropertyOp18
 70
     1
102
RTVSPropertyOp19
 70
     1
102
RTVSPropertyOp20
 70
     1
102
RTVSPropertyOp21
 70
     1
102
RTVSPropertyOp22
 70
     1
102
RTVSPropertyOp23
 70
     1
102
RTVSPropertyOp24
 70
     1
102
RTVSPropertyOp25
 70
     1
102
RTVSPropertyOp26
 70
     1
102
RTVSPropertyOp27
 70
     1
102
RTVSPropertyOp28
 70
     1
102
RTVSPropertyOp29
 70
     1
102
RTVSPropertyOp30
 70
     1
102
RTVSPropertyOp31
 70
     1
102
RTVSPropertyOp32
 70
     1
102
RTVSPropertyOp33
 70
     1
102
RTVSPropertyOp34
 70
     1
102
RTVSPropertyOp35
 70
     1
102
RTVSPropertyOp36
 70
     1
102
RTVSPropertyOp37
 70
     1
102
RTVSPropertyOp38
 70
     1
102
RTVSPropertyOp39
 70
     1
102
RTVSPropertyOp40
 70
     1
102
RTVSPropertyOp41
 70
     1
102
RTVSPropertyOp42
 70
     1
102
RTVSPropertyOp43
 70
     1
102
RTVSPropertyOp44
 70
     1
102
RTVSPropertyOp45
 70
     1
102
RTVSPropertyOp46
 70
     1
102
RTVSPropertyOp47
 70
     1
102
RTVSPropertyOp48
 70
     1
102
RTVSPropertyOp49
 70
     1
102
RTVSPropertyOp50
 70
     1
102
RTVSPropertyOp51
 70
     0
102
RTVSPropertyOp52
 70
     0
102
RTVSPropertyOp53
 70
     1
102
RTVSPropertyOp54
 70
     1
102
RTVSPropertyOp55
 70
     1
102
RTVSPropertyOp56
 70
     1
102
RTVSPropertyOp57
 70
     1
102
RTVSPropertyOp58
 70
     1
102
RTVSPropertyOp59
 70
     1
102
RTVSPropertyOp60
 70
     1
102
RTVSPropertyOp61
 70
     1
102
RTVSPropertyOp62
 70
     1
  0
XRECORD
  5
84D0
102
{ACAD_REACTORS
330
84CF
102
}
330
84CF
100
AcDbXrecord
280
     1
102
RTVSPost2010Prop28
280
     0
102
RTVSPost2010PropOp28
 70
     1
102
RTVSPost2010Prop29
280
     1
102
RTVSPost2010PropOp29
 70
     1
102
RTVSPost2010Prop30
280
     1
102
RTVSPost2010PropOp30
 70
     1
102
RTVSPost2010Prop31
280
     0
102
RTVSPost2010PropOp31
 70
     1
102
RTVSPost2010Prop32
280
     0
102
RTVSPost2010PropOp32
 70
     1
102
RTVSPost2010Prop33
280
     0
102
RTVSPost2010PropOp33
 70
     1
102
RTVSPost2010Prop34
280
     0
102
RTVSPost2010PropOp34
 70
     1
102
RTVSPost2010Prop35
280
     0
102
RTVSPost2010PropOp35
 70
     1
102
RTVSPost2010Prop36
280
     0
102
RTVSPost2010PropOp36
 70
     1
102
RTVSPost2010Prop37
 90
       50
102
RTVSPost2010PropOp37
 70
     1
102
RTVSPost2010Prop38
140
0.0
102
RTVSPost2010PropOp38
 70
     1
102
RTVSPost2010Prop39
140
1.0
102
RTVSPost2010PropOp39
 70
     1
102
RTVSPost2010Prop40
 90
        0
102
RTVSPost2010PropOp40
 70
     1
102
RTVSPost2010Prop41ColorIndex
 90
       18
102
RTVSPost2010Prop41ColorRGB
 90
        0
102
RTVSPost2010PropOp41
 70
     1
102
RTVSPost2010Prop42
 90
       50
102
RTVSPost2010PropOp42
 70
     1
102
RTVSPost2010Prop43
 90
        3
102
RTVSPost2010PropOp43
 70
     1
102
RTVSPost2010Prop44ColorIndex
 90
        5
102
RTVSPost2010Prop44ColorRGB
 90
      255
102
RTVSPost2010PropOp44
 70
     1
102
RTVSPost2010Prop45
280
     0
102
RTVSPost2010PropOp45
 70
     1
102
RTVSPost2010Prop46
 90
       50
102
RTVSPost2010PropOp46
 70
     1
102
RTVSPost2010Prop47
 90
       50
102
RTVSPost2010PropOp47
 70
     1
102
RTVSPost2010Prop48
 90
       50
102
RTVSPost2010PropOp48
 70
     1
102
RTVSPost2010Prop49
280
     0
102
RTVSPost2010PropOp49
 70
     1
102
RTVSPost2010Prop50
 90
       50
102
RTVSPost2010PropOp50
 70
     1
102
RTVSPost2010Prop51ColorIndex
 90
      256
102
RTVSPost2010Prop51ColorRGB
 90
-16777216
102
RTVSPost2010PropOp51
 70
     0
102
RTVSPost2010Prop52
140
1.0
102
RTVSPost2010PropOp52
 70
     0
102
RTVSPost2010Prop53
 90
        2
102
RTVSPost2010PropOp53
 70
     1
102
RTVSPost2010Prop54
  1
strokes_ogs.tif
102
RTVSPost2010PropOp54
 70
     1
102
RTVSPost2010Prop55
280
     0
102
RTVSPost2010PropOp55
 70
     1
102
RTVSPost2010Prop56
140
1.0
102
RTVSPost2010PropOp56
 70
     1
102
RTVSPost2010Prop57
140
1.0
102
RTVSPost2010PropOp57
 70
     1
102
RTVSPropertyOp0
 70
     1
102
RTVSPropertyOp1
 70
     1
102
RTVSPropertyOp2
 70
     1
102
RTVSPropertyOp3
 70
     1
102
RTVSPropertyOp4
 70
     1
102
RTVSPropertyOp5
 70
     1
102
RTVSPropertyOp6
 70
     1
102
RTVSPropertyOp7
 70
     1
102
RTVSPropertyOp8
 70
     1
102
RTVSPropertyOp9
 70
     1
102
RTVSPropertyOp10
 70
     1
102
RTVSPropertyOp11
 70
     1
102
RTVSPropertyOp12
 70
     1
102
RTVSPropertyOp13
 70
     1
102
RTVSPropertyOp14
 70
     1
102
RTVSPropertyOp15
 70
     1
102
RTVSPropertyOp16
 70
     1
102
RTVSPropertyOp17
 70
     1
102
RTVSPropertyOp18
 70
     1
102
RTVSPropertyOp19
 70
     1
102
RTVSPropertyOp20
 70
     1
102
RTVSPropertyOp21
 70
     1
102
RTVSPropertyOp22
 70
     1
102
RTVSPropertyOp23
 70
     1
102
RTVSPropertyOp24
 70
     1
102
RTVSPropertyOp25
 70
     1
102
RTVSPropertyOp26
 70
     1
102
RTVSPropertyOp27
 70
     1
102
RTVSPropertyOp28
 70
     1
102
RTVSPropertyOp29
 70
     1
102
RTVSPropertyOp30
 70
     1
102
RTVSPropertyOp31
 70
     1
102
RTVSPropertyOp32
 70
     1
102
RTVSPropertyOp33
 70
     1
102
RTVSPropertyOp34
 70
     1
102
RTVSPropertyOp35
 70
     1
102
RTVSPropertyOp36
 70
     1
102
RTVSPropertyOp37
 70
     1
102
RTVSPropertyOp38
 70
     1
102
RTVSPropertyOp39
 70
     1
102
RTVSPropertyOp40
 70
     1
102
RTVSPropertyOp41
 70
     1
102
RTVSPropertyOp42
 70
     1
102
RTVSPropertyOp43
 70
     1
102
RTVSPropertyOp44
 70
     1
102
RTVSPropertyOp45
 70
     1
102
RTVSPropertyOp46
 70
     1
102
RTVSPropertyOp47
 70
     1
102
RTVSPropertyOp48
 70
     1
102
RTVSPropertyOp49
 70
     1
102
RTVSPropertyOp50
 70
     1
102
RTVSPropertyOp51
 70
     0
102
RTVSPropertyOp52
 70
     0
102
RTVSPropertyOp53
 70
     1
102
RTVSPropertyOp54
 70
     1
102
RTVSPropertyOp55
 70
     1
102
RTVSPropertyOp56
 70
     1
102
RTVSPropertyOp57
 70
     1
102
RTVSPropertyOp58
 70
     1
102
RTVSPropertyOp59
 70
     1
102
RTVSPropertyOp60
 70
     1
102
RTVSPropertyOp61
 70
     1
102
RTVSPropertyOp62
 70
     1
  0
XRECORD
  5
84D8
102
{ACAD_REACTORS
330
84D7
102
}
330
84D7
100
AcDbXrecord
280
     1
102
RTVSPost2010Prop28
280
     0
102
RTVSPost2010PropOp28
 70
     1
102
RTVSPost2010Prop29
280
     1
102
RTVSPost2010PropOp29
 70
     1
102
RTVSPost2010Prop30
280
     1
102
RTVSPost2010PropOp30
 70
     1
102
RTVSPost2010Prop31
280
     0
102
RTVSPost2010PropOp31
 70
     1
102
RTVSPost2010Prop32
280
     0
102
RTVSPost2010PropOp32
 70
     1
102
RTVSPost2010Prop33
280
     0
102
RTVSPost2010PropOp33
 70
     1
102
RTVSPost2010Prop34
280
     0
102
RTVSPost2010PropOp34
 70
     1
102
RTVSPost2010Prop35
280
     0
102
RTVSPost2010PropOp35
 70
     1
102
RTVSPost2010Prop36
280
     0
102
RTVSPost2010PropOp36
 70
     1
102
RTVSPost2010Prop37
 90
       50
102
RTVSPost2010PropOp37
 70
     1
102
RTVSPost2010Prop38
140
0.0
102
RTVSPost2010PropOp38
 70
     1
102
RTVSPost2010Prop39
140
1.0
102
RTVSPost2010PropOp39
 70
     1
102
RTVSPost2010Prop40
 90
        0
102
RTVSPost2010PropOp40
 70
     1
102
RTVSPost2010Prop41ColorIndex
 90
       18
102
RTVSPost2010Prop41ColorRGB
 90
        0
102
RTVSPost2010PropOp41
 70
     1
102
RTVSPost2010Prop42
 90
       50
102
RTVSPost2010PropOp42
 70
     1
102
RTVSPost2010Prop43
 90
        3
102
RTVSPost2010PropOp43
 70
     1
102
RTVSPost2010Prop44ColorIndex
 90
        5
102
RTVSPost2010Prop44ColorRGB
 90
      255
102
RTVSPost2010PropOp44
 70
     1
102
RTVSPost2010Prop45
280
     0
102
RTVSPost2010PropOp45
 70
     1
102
RTVSPost2010Prop46
 90
       50
102
RTVSPost2010PropOp46
 70
     1
102
RTVSPost2010Prop47
 90
       50
102
RTVSPost2010PropOp47
 70
     1
102
RTVSPost2010Prop48
 90
       50
102
RTVSPost2010PropOp48
 70
     1
102
RTVSPost2010Prop49
280
     0
102
RTVSPost2010PropOp49
 70
     1
102
RTVSPost2010Prop50
 90
       50
102
RTVSPost2010PropOp50
 70
     1
102
RTVSPost2010Prop51ColorIndex
 90
      256
102
RTVSPost2010Prop51ColorRGB
 90
-16777216
102
RTVSPost2010PropOp51
 70
     0
102
RTVSPost2010Prop52
140
1.0
102
RTVSPost2010PropOp52
 70
     0
102
RTVSPost2010Prop53
 90
        2
102
RTVSPost2010PropOp53
 70
     1
102
RTVSPost2010Prop54
  1
strokes_ogs.tif
102
RTVSPost2010PropOp54
 70
     1
102
RTVSPost2010Prop55
280
     0
102
RTVSPost2010PropOp55
 70
     1
102
RTVSPost2010Prop56
140
1.0
102
RTVSPost2010PropOp56
 70
     1
102
RTVSPost2010Prop57
140
1.0
102
RTVSPost2010PropOp57
 70
     1
102
RTVSPropertyOp0
 70
     1
102
RTVSPropertyOp1
 70
     1
102
RTVSPropertyOp2
 70
     1
102
RTVSPropertyOp3
 70
     1
102
RTVSPropertyOp4
 70
     1
102
RTVSPropertyOp5
 70
     1
102
RTVSPropertyOp6
 70
     1
102
RTVSPropertyOp7
 70
     1
102
RTVSPropertyOp8
 70
     1
102
RTVSPropertyOp9
 70
     1
102
RTVSPropertyOp10
 70
     1
102
RTVSPropertyOp11
 70
     1
102
RTVSPropertyOp12
 70
     1
102
RTVSPropertyOp13
 70
     1
102
RTVSPropertyOp14
 70
     1
102
RTVSPropertyOp15
 70
     1
102
RTVSPropertyOp16
 70
     1
102
RTVSPropertyOp17
 70
     1
102
RTVSPropertyOp18
 70
     1
102
RTVSPropertyOp19
 70
     1
102
RTVSPropertyOp20
 70
     1
102
RTVSPropertyOp21
 70
     1
102
RTVSPropertyOp22
 70
     1
102
RTVSPropertyOp23
 70
     1
102
RTVSPropertyOp24
 70
     1
102
RTVSPropertyOp25
 70
     1
102
RTVSPropertyOp26
 70
     1
102
RTVSPropertyOp27
 70
     1
102
RTVSPropertyOp28
 70
     1
102
RTVSPropertyOp29
 70
     1
102
RTVSPropertyOp30
 70
     1
102
RTVSPropertyOp31
 70
     1
102
RTVSPropertyOp32
 70
     1
102
RTVSPropertyOp33
 70
     1
102
RTVSPropertyOp34
 70
     1
102
RTVSPropertyOp35
 70
     1
102
RTVSPropertyOp36
 70
     1
102
RTVSPropertyOp37
 70
     1
102
RTVSPropertyOp38
 70
     1
102
RTVSPropertyOp39
 70
     1
102
RTVSPropertyOp40
 70
     1
102
RTVSPropertyOp41
 70
     1
102
RTVSPropertyOp42
 70
     1
102
RTVSPropertyOp43
 70
     1
102
RTVSPropertyOp44
 70
     1
102
RTVSPropertyOp45
 70
     1
102
RTVSPropertyOp46
 70
     1
102
RTVSPropertyOp47
 70
     1
102
RTVSPropertyOp48
 70
     1
102
RTVSPropertyOp49
 70
     1
102
RTVSPropertyOp50
 70
     1
102
RTVSPropertyOp51
 70
     0
102
RTVSPropertyOp52
 70
     0
102
RTVSPropertyOp53
 70
     1
102
RTVSPropertyOp54
 70
     1
102
RTVSPropertyOp55
 70
     1
102
RTVSPropertyOp56
 70
     1
102
RTVSPropertyOp57
 70
     1
102
RTVSPropertyOp58
 70
     1
102
RTVSPropertyOp59
 70
     1
102
RTVSPropertyOp60
 70
     1
102
RTVSPropertyOp61
 70
     1
102
RTVSPropertyOp62
 70
     1
  0
XRECORD
  5
84CA
102
{ACAD_REACTORS
330
84C9
102
}
330
84C9
100
AcDbXrecord
280
     1
102
RTVSPost2010Prop28
280
     0
102
RTVSPost2010PropOp28
 70
     1
102
RTVSPost2010Prop29
280
     1
102
RTVSPost2010PropOp29
 70
     1
102
RTVSPost2010Prop30
280
     1
102
RTVSPost2010PropOp30
 70
     1
102
RTVSPost2010Prop31
280
     0
102
RTVSPost2010PropOp31
 70
     1
102
RTVSPost2010Prop32
280
     0
102
RTVSPost2010PropOp32
 70
     1
102
RTVSPost2010Prop33
280
     0
102
RTVSPost2010PropOp33
 70
     1
102
RTVSPost2010Prop34
280
     0
102
RTVSPost2010PropOp34
 70
     1
102
RTVSPost2010Prop35
280
     0
102
RTVSPost2010PropOp35
 70
     1
102
RTVSPost2010Prop36
280
     0
102
RTVSPost2010PropOp36
 70
     1
102
RTVSPost2010Prop37
 90
       50
102
RTVSPost2010PropOp37
 70
     1
102
RTVSPost2010Prop38
140
0.0
102
RTVSPost2010PropOp38
 70
     1
102
RTVSPost2010Prop39
140
1.0
102
RTVSPost2010PropOp39
 70
     1
102
RTVSPost2010Prop40
 90
        0
102
RTVSPost2010PropOp40
 70
     1
102
RTVSPost2010Prop41ColorIndex
 90
       18
102
RTVSPost2010Prop41ColorRGB
 90
        0
102
RTVSPost2010PropOp41
 70
     1
102
RTVSPost2010Prop42
 90
       50
102
RTVSPost2010PropOp42
 70
     1
102
RTVSPost2010Prop43
 90
        3
102
RTVSPost2010PropOp43
 70
     1
102
RTVSPost2010Prop44ColorIndex
 90
        5
102
RTVSPost2010Prop44ColorRGB
 90
      255
102
RTVSPost2010PropOp44
 70
     1
102
RTVSPost2010Prop45
280
     0
102
RTVSPost2010PropOp45
 70
     1
102
RTVSPost2010Prop46
 90
       50
102
RTVSPost2010PropOp46
 70
     1
102
RTVSPost2010Prop47
 90
       50
102
RTVSPost2010PropOp47
 70
     1
102
RTVSPost2010Prop48
 90
       50
102
RTVSPost2010PropOp48
 70
     1
102
RTVSPost2010Prop49
280
     0
102
RTVSPost2010PropOp49
 70
     1
102
RTVSPost2010Prop50
 90
       50
102
RTVSPost2010PropOp50
 70
     1
102
RTVSPost2010Prop51ColorIndex
 90
      256
102
RTVSPost2010Prop51ColorRGB
 90
-16777216
102
RTVSPost2010PropOp51
 70
     0
102
RTVSPost2010Prop52
140
1.0
102
RTVSPost2010PropOp52
 70
     0
102
RTVSPost2010Prop53
 90
        2
102
RTVSPost2010PropOp53
 70
     1
102
RTVSPost2010Prop54
  1
strokes_ogs.tif
102
RTVSPost2010PropOp54
 70
     1
102
RTVSPost2010Prop55
280
     0
102
RTVSPost2010PropOp55
 70
     1
102
RTVSPost2010Prop56
140
1.0
102
RTVSPost2010PropOp56
 70
     1
102
RTVSPost2010Prop57
140
1.0
102
RTVSPost2010PropOp57
 70
     1
102
RTVSPropertyOp0
 70
     1
102
RTVSPropertyOp1
 70
     1
102
RTVSPropertyOp2
 70
     1
102
RTVSPropertyOp3
 70
     1
102
RTVSPropertyOp4
 70
     1
102
RTVSPropertyOp5
 70
     1
102
RTVSPropertyOp6
 70
     1
102
RTVSPropertyOp7
 70
     1
102
RTVSPropertyOp8
 70
     1
102
RTVSPropertyOp9
 70
     1
102
RTVSPropertyOp10
 70
     1
102
RTVSPropertyOp11
 70
     1
102
RTVSPropertyOp12
 70
     1
102
RTVSPropertyOp13
 70
     1
102
RTVSPropertyOp14
 70
     1
102
RTVSPropertyOp15
 70
     1
102
RTVSPropertyOp16
 70
     1
102
RTVSPropertyOp17
 70
     1
102
RTVSPropertyOp18
 70
     1
102
RTVSPropertyOp19
 70
     1
102
RTVSPropertyOp20
 70
     1
102
RTVSPropertyOp21
 70
     1
102
RTVSPropertyOp22
 70
     1
102
RTVSPropertyOp23
 70
     1
102
RTVSPropertyOp24
 70
     1
102
RTVSPropertyOp25
 70
     1
102
RTVSPropertyOp26
 70
     1
102
RTVSPropertyOp27
 70
     1
102
RTVSPropertyOp28
 70
     1
102
RTVSPropertyOp29
 70
     1
102
RTVSPropertyOp30
 70
     1
102
RTVSPropertyOp31
 70
     1
102
RTVSPropertyOp32
 70
     1
102
RTVSPropertyOp33
 70
     1
102
RTVSPropertyOp34
 70
     1
102
RTVSPropertyOp35
 70
     1
102
RTVSPropertyOp36
 70
     1
102
RTVSPropertyOp37
 70
     1
102
RTVSPropertyOp38
 70
     1
102
RTVSPropertyOp39
 70
     1
102
RTVSPropertyOp40
 70
     1
102
RTVSPropertyOp41
 70
     1
102
RTVSPropertyOp42
 70
     1
102
RTVSPropertyOp43
 70
     1
102
RTVSPropertyOp44
 70
     1
102
RTVSPropertyOp45
 70
     1
102
RTVSPropertyOp46
 70
     1
102
RTVSPropertyOp47
 70
     1
102
RTVSPropertyOp48
 70
     1
102
RTVSPropertyOp49
 70
     1
102
RTVSPropertyOp50
 70
     1
102
RTVSPropertyOp51
 70
     0
102
RTVSPropertyOp52
 70
     0
102
RTVSPropertyOp53
 70
     1
102
RTVSPropertyOp54
 70
     1
102
RTVSPropertyOp55
 70
     1
102
RTVSPropertyOp56
 70
     1
102
RTVSPropertyOp57
 70
     1
102
RTVSPropertyOp58
 70
     1
102
RTVSPropertyOp59
 70
     1
102
RTVSPropertyOp60
 70
     1
102
RTVSPropertyOp61
 70
     1
102
RTVSPropertyOp62
 70
     1
  0
XRECORD
  5
84CE
102
{ACAD_REACTORS
330
84CD
102
}
330
84CD
100
AcDbXrecord
280
     1
102
RTVSPost2010Prop28
280
     0
102
RTVSPost2010PropOp28
 70
     1
102
RTVSPost2010Prop29
280
     1
102
RTVSPost2010PropOp29
 70
     1
102
RTVSPost2010Prop30
280
     1
102
RTVSPost2010PropOp30
 70
     1
102
RTVSPost2010Prop31
280
     0
102
RTVSPost2010PropOp31
 70
     1
102
RTVSPost2010Prop32
280
     0
102
RTVSPost2010PropOp32
 70
     1
102
RTVSPost2010Prop33
280
     0
102
RTVSPost2010PropOp33
 70
     1
102
RTVSPost2010Prop34
280
     0
102
RTVSPost2010PropOp34
 70
     1
102
RTVSPost2010Prop35
280
     0
102
RTVSPost2010PropOp35
 70
     1
102
RTVSPost2010Prop36
280
     0
102
RTVSPost2010PropOp36
 70
     1
102
RTVSPost2010Prop37
 90
       50
102
RTVSPost2010PropOp37
 70
     1
102
RTVSPost2010Prop38
140
0.0
102
RTVSPost2010PropOp38
 70
     1
102
RTVSPost2010Prop39
140
1.0
102
RTVSPost2010PropOp39
 70
     1
102
RTVSPost2010Prop40
 90
        0
102
RTVSPost2010PropOp40
 70
     1
102
RTVSPost2010Prop41ColorIndex
 90
       18
102
RTVSPost2010Prop41ColorRGB
 90
        0
102
RTVSPost2010PropOp41
 70
     1
102
RTVSPost2010Prop42
 90
       50
102
RTVSPost2010PropOp42
 70
     1
102
RTVSPost2010Prop43
 90
        3
102
RTVSPost2010PropOp43
 70
     1
102
RTVSPost2010Prop44ColorIndex
 90
        5
102
RTVSPost2010Prop44ColorRGB
 90
      255
102
RTVSPost2010PropOp44
 70
     1
102
RTVSPost2010Prop45
280
     0
102
RTVSPost2010PropOp45
 70
     1
102
RTVSPost2010Prop46
 90
       50
102
RTVSPost2010PropOp46
 70
     1
102
RTVSPost2010Prop47
 90
       50
102
RTVSPost2010PropOp47
 70
     1
102
RTVSPost2010Prop48
 90
       50
102
RTVSPost2010PropOp48
 70
     1
102
RTVSPost2010Prop49
280
     0
102
RTVSPost2010PropOp49
 70
     1
102
RTVSPost2010Prop50
 90
       50
102
RTVSPost2010PropOp50
 70
     1
102
RTVSPost2010Prop51ColorIndex
 90
      256
102
RTVSPost2010Prop51ColorRGB
 90
-16777216
102
RTVSPost2010PropOp51
 70
     0
102
RTVSPost2010Prop52
140
1.0
102
RTVSPost2010PropOp52
 70
     0
102
RTVSPost2010Prop53
 90
        2
102
RTVSPost2010PropOp53
 70
     1
102
RTVSPost2010Prop54
  1
strokes_ogs.tif
102
RTVSPost2010PropOp54
 70
     1
102
RTVSPost2010Prop55
280
     0
102
RTVSPost2010PropOp55
 70
     1
102
RTVSPost2010Prop56
140
1.0
102
RTVSPost2010PropOp56
 70
     1
102
RTVSPost2010Prop57
140
1.0
102
RTVSPost2010PropOp57
 70
     1
102
RTVSPropertyOp0
 70
     1
102
RTVSPropertyOp1
 70
     1
102
RTVSPropertyOp2
 70
     1
102
RTVSPropertyOp3
 70
     1
102
RTVSPropertyOp4
 70
     1
102
RTVSPropertyOp5
 70
     1
102
RTVSPropertyOp6
 70
     1
102
RTVSPropertyOp7
 70
     1
102
RTVSPropertyOp8
 70
     1
102
RTVSPropertyOp9
 70
     1
102
RTVSPropertyOp10
 70
     1
102
RTVSPropertyOp11
 70
     1
102
RTVSPropertyOp12
 70
     1
102
RTVSPropertyOp13
 70
     1
102
RTVSPropertyOp14
 70
     1
102
RTVSPropertyOp15
 70
     1
102
RTVSPropertyOp16
 70
     1
102
RTVSPropertyOp17
 70
     1
102
RTVSPropertyOp18
 70
     1
102
RTVSPropertyOp19
 70
     1
102
RTVSPropertyOp20
 70
     1
102
RTVSPropertyOp21
 70
     1
102
RTVSPropertyOp22
 70
     1
102
RTVSPropertyOp23
 70
     1
102
RTVSPropertyOp24
 70
     1
102
RTVSPropertyOp25
 70
     1
102
RTVSPropertyOp26
 70
     1
102
RTVSPropertyOp27
 70
     1
102
RTVSPropertyOp28
 70
     1
102
RTVSPropertyOp29
 70
     1
102
RTVSPropertyOp30
 70
     1
102
RTVSPropertyOp31
 70
     1
102
RTVSPropertyOp32
 70
     1
102
RTVSPropertyOp33
 70
     1
102
RTVSPropertyOp34
 70
     1
102
RTVSPropertyOp35
 70
     1
102
RTVSPropertyOp36
 70
     1
102
RTVSPropertyOp37
 70
     1
102
RTVSPropertyOp38
 70
     1
102
RTVSPropertyOp39
 70
     1
102
RTVSPropertyOp40
 70
     1
102
RTVSPropertyOp41
 70
     1
102
RTVSPropertyOp42
 70
     1
102
RTVSPropertyOp43
 70
     1
102
RTVSPropertyOp44
 70
     1
102
RTVSPropertyOp45
 70
     1
102
RTVSPropertyOp46
 70
     1
102
RTVSPropertyOp47
 70
     1
102
RTVSPropertyOp48
 70
     1
102
RTVSPropertyOp49
 70
     1
102
RTVSPropertyOp50
 70
     1
102
RTVSPropertyOp51
 70
     0
102
RTVSPropertyOp52
 70
     0
102
RTVSPropertyOp53
 70
     1
102
RTVSPropertyOp54
 70
     1
102
RTVSPropertyOp55
 70
     1
102
RTVSPropertyOp56
 70
     1
102
RTVSPropertyOp57
 70
     1
102
RTVSPropertyOp58
 70
     1
102
RTVSPropertyOp59
 70
     1
102
RTVSPropertyOp60
 70
     1
102
RTVSPropertyOp61
 70
     1
102
RTVSPropertyOp62
 70
     1
  0
XRECORD
  5
84E8
102
{ACAD_REACTORS
330
84E7
102
}
330
84E7
100
AcDbXrecord
280
     1
102
RTVSPost2010Prop28
280
     0
102
RTVSPost2010PropOp28
 70
     1
102
RTVSPost2010Prop29
280
     1
102
RTVSPost2010PropOp29
 70
     1
102
RTVSPost2010Prop30
280
     1
102
RTVSPost2010PropOp30
 70
     1
102
RTVSPost2010Prop31
280
     0
102
RTVSPost2010PropOp31
 70
     1
102
RTVSPost2010Prop32
280
     0
102
RTVSPost2010PropOp32
 70
     1
102
RTVSPost2010Prop33
280
     0
102
RTVSPost2010PropOp33
 70
     1
102
RTVSPost2010Prop34
280
     0
102
RTVSPost2010PropOp34
 70
     1
102
RTVSPost2010Prop35
280
     0
102
RTVSPost2010PropOp35
 70
     1
102
RTVSPost2010Prop36
280
     0
102
RTVSPost2010PropOp36
 70
     1
102
RTVSPost2010Prop37
 90
       50
102
RTVSPost2010PropOp37
 70
     0
102
RTVSPost2010Prop38
140
0.0
102
RTVSPost2010PropOp38
 70
     0
102
RTVSPost2010Prop39
140
1.0
102
RTVSPost2010PropOp39
 70
     0
102
RTVSPost2010Prop40
 90
        0
102
RTVSPost2010PropOp40
 70
     0
102
RTVSPost2010Prop41ColorIndex
 90
       18
102
RTVSPost2010Prop41ColorRGB
 90
        0
102
RTVSPost2010PropOp41
 70
     0
102
RTVSPost2010Prop42
 90
       50
102
RTVSPost2010PropOp42
 70
     0
102
RTVSPost2010Prop43
 90
        3
102
RTVSPost2010PropOp43
 70
     0
102
RTVSPost2010Prop44ColorIndex
 90
        5
102
RTVSPost2010Prop44ColorRGB
 90
      255
102
RTVSPost2010PropOp44
 70
     0
102
RTVSPost2010Prop45
280
     0
102
RTVSPost2010PropOp45
 70
     1
102
RTVSPost2010Prop46
 90
       50
102
RTVSPost2010PropOp46
 70
     0
102
RTVSPost2010Prop47
 90
       50
102
RTVSPost2010PropOp47
 70
     0
102
RTVSPost2010Prop48
 90
       50
102
RTVSPost2010PropOp48
 70
     0
102
RTVSPost2010Prop49
280
     0
102
RTVSPost2010PropOp49
 70
     1
102
RTVSPost2010Prop50
 90
       50
102
RTVSPost2010PropOp50
 70
     0
102
RTVSPost2010Prop51ColorIndex
 90
      256
102
RTVSPost2010Prop51ColorRGB
 90
-16777216
102
RTVSPost2010PropOp51
 70
     0
102
RTVSPost2010Prop52
140
1.0
102
RTVSPost2010PropOp52
 70
     0
102
RTVSPost2010Prop53
 90
        2
102
RTVSPost2010PropOp53
 70
     0
102
RTVSPost2010Prop54
  1
strokes_ogs.tif
102
RTVSPost2010PropOp54
 70
     0
102
RTVSPost2010Prop55
280
     0
102
RTVSPost2010PropOp55
 70
     1
102
RTVSPost2010Prop56
140
1.0
102
RTVSPost2010PropOp56
 70
     0
102
RTVSPost2010Prop57
140
1.0
102
RTVSPost2010PropOp57
 70
     0
102
RTVSPropertyOp0
 70
     0
102
RTVSPropertyOp1
 70
     0
102
RTVSPropertyOp2
 70
     0
102
RTVSPropertyOp3
 70
     0
102
RTVSPropertyOp4
 70
     0
102
RTVSPropertyOp5
 70
     0
102
RTVSPropertyOp6
 70
     0
102
RTVSPropertyOp7
 70
     0
102
RTVSPropertyOp8
 70
     0
102
RTVSPropertyOp9
 70
     0
102
RTVSPropertyOp10
 70
     0
102
RTVSPropertyOp11
 70
     0
102
RTVSPropertyOp12
 70
     0
102
RTVSPropertyOp13
 70
     0
102
RTVSPropertyOp14
 70
     2
102
RTVSPropertyOp15
 70
     0
102
RTVSPropertyOp16
 70
     0
102
RTVSPropertyOp17
 70
     0
102
RTVSPropertyOp18
 70
     0
102
RTVSPropertyOp19
 70
     0
102
RTVSPropertyOp20
 70
     0
102
RTVSPropertyOp21
 70
     0
102
RTVSPropertyOp22
 70
     0
102
RTVSPropertyOp23
 70
     0
102
RTVSPropertyOp24
 70
     0
102
RTVSPropertyOp25
 70
     0
102
RTVSPropertyOp26
 70
     0
102
RTVSPropertyOp27
 70
     0
102
RTVSPropertyOp28
 70
     1
102
RTVSPropertyOp29
 70
     1
102
RTVSPropertyOp30
 70
     1
102
RTVSPropertyOp31
 70
     1
102
RTVSPropertyOp32
 70
     1
102
RTVSPropertyOp33
 70
     1
102
RTVSPropertyOp34
 70
     1
102
RTVSPropertyOp35
 70
     1
102
RTVSPropertyOp36
 70
     1
102
RTVSPropertyOp37
 70
     0
102
RTVSPropertyOp38
 70
     0
102
RTVSPropertyOp39
 70
     0
102
RTVSPropertyOp40
 70
     0
102
RTVSPropertyOp41
 70
     0
102
RTVSPropertyOp42
 70
     0
102
RTVSPropertyOp43
 70
     0
102
RTVSPropertyOp44
 70
     0
102
RTVSPropertyOp45
 70
     1
102
RTVSPropertyOp46
 70
     0
102
RTVSPropertyOp47
 70
     0
102
RTVSPropertyOp48
 70
     0
102
RTVSPropertyOp49
 70
     1
102
RTVSPropertyOp50
 70
     0
102
RTVSPropertyOp51
 70
     0
102
RTVSPropertyOp52
 70
     0
102
RTVSPropertyOp53
 70
     0
102
RTVSPropertyOp54
 70
     0
102
RTVSPropertyOp55
 70
     1
102
RTVSPropertyOp56
 70
     0
102
RTVSPropertyOp57
 70
     0
102
RTVSPropertyOp58
 70
     0
102
RTVSPropertyOp59
 70
     0
102
RTVSPropertyOp60
 70
     0
102
RTVSPropertyOp61
 70
     0
102
RTVSPropertyOp62
 70
     0
  0
XRECORD
  5
84D6
102
{ACAD_REACTORS
330
84D5
102
}
330
84D5
100
AcDbXrecord
280
     1
102
RTVSPost2010Prop28
280
     0
102
RTVSPost2010PropOp28
 70
     1
102
RTVSPost2010Prop29
280
     1
102
RTVSPost2010PropOp29
 70
     1
102
RTVSPost2010Prop30
280
     1
102
RTVSPost2010PropOp30
 70
     1
102
RTVSPost2010Prop31
280
     0
102
RTVSPost2010PropOp31
 70
     1
102
RTVSPost2010Prop32
280
     0
102
RTVSPost2010PropOp32
 70
     1
102
RTVSPost2010Prop33
280
     0
102
RTVSPost2010PropOp33
 70
     1
102
RTVSPost2010Prop34
280
     0
102
RTVSPost2010PropOp34
 70
     1
102
RTVSPost2010Prop35
280
     0
102
RTVSPost2010PropOp35
 70
     1
102
RTVSPost2010Prop36
280
     0
102
RTVSPost2010PropOp36
 70
     1
102
RTVSPost2010Prop37
 90
       50
102
RTVSPost2010PropOp37
 70
     1
102
RTVSPost2010Prop38
140
0.0
102
RTVSPost2010PropOp38
 70
     1
102
RTVSPost2010Prop39
140
1.0
102
RTVSPost2010PropOp39
 70
     1
102
RTVSPost2010Prop40
 90
        0
102
RTVSPost2010PropOp40
 70
     1
102
RTVSPost2010Prop41ColorIndex
 90
       18
102
RTVSPost2010Prop41ColorRGB
 90
        0
102
RTVSPost2010PropOp41
 70
     1
102
RTVSPost2010Prop42
 90
       50
102
RTVSPost2010PropOp42
 70
     1
102
RTVSPost2010Prop43
 90
        3
102
RTVSPost2010PropOp43
 70
     1
102
RTVSPost2010Prop44ColorIndex
 90
        5
102
RTVSPost2010Prop44ColorRGB
 90
      255
102
RTVSPost2010PropOp44
 70
     1
102
RTVSPost2010Prop45
280
     0
102
RTVSPost2010PropOp45
 70
     1
102
RTVSPost2010Prop46
 90
       50
102
RTVSPost2010PropOp46
 70
     1
102
RTVSPost2010Prop47
 90
       50
102
RTVSPost2010PropOp47
 70
     1
102
RTVSPost2010Prop48
 90
       50
102
RTVSPost2010PropOp48
 70
     1
102
RTVSPost2010Prop49
280
     0
102
RTVSPost2010PropOp49
 70
     1
102
RTVSPost2010Prop50
 90
       50
102
RTVSPost2010PropOp50
 70
     1
102
RTVSPost2010Prop51ColorIndex
 90
      256
102
RTVSPost2010Prop51ColorRGB
 90
-16777216
102
RTVSPost2010PropOp51
 70
     0
102
RTVSPost2010Prop52
140
1.0
102
RTVSPost2010PropOp52
 70
     0
102
RTVSPost2010Prop53
 90
        2
102
RTVSPost2010PropOp53
 70
     1
102
RTVSPost2010Prop54
  1
strokes_ogs.tif
102
RTVSPost2010PropOp54
 70
     1
102
RTVSPost2010Prop55
280
     0
102
RTVSPost2010PropOp55
 70
     1
102
RTVSPost2010Prop56
140
1.0
102
RTVSPost2010PropOp56
 70
     1
102
RTVSPost2010Prop57
140
1.0
102
RTVSPost2010PropOp57
 70
     1
102
RTVSPropertyOp0
 70
     1
102
RTVSPropertyOp1
 70
     1
102
RTVSPropertyOp2
 70
     1
102
RTVSPropertyOp3
 70
     1
102
RTVSPropertyOp4
 70
     1
102
RTVSPropertyOp5
 70
     1
102
RTVSPropertyOp6
 70
     1
102
RTVSPropertyOp7
 70
     1
102
RTVSPropertyOp8
 70
     1
102
RTVSPropertyOp9
 70
     1
102
RTVSPropertyOp10
 70
     1
102
RTVSPropertyOp11
 70
     1
102
RTVSPropertyOp12
 70
     1
102
RTVSPropertyOp13
 70
     1
102
RTVSPropertyOp14
 70
     1
102
RTVSPropertyOp15
 70
     1
102
RTVSPropertyOp16
 70
     1
102
RTVSPropertyOp17
 70
     1
102
RTVSPropertyOp18
 70
     1
102
RTVSPropertyOp19
 70
     1
102
RTVSPropertyOp20
 70
     1
102
RTVSPropertyOp21
 70
     1
102
RTVSPropertyOp22
 70
     1
102
RTVSPropertyOp23
 70
     1
102
RTVSPropertyOp24
 70
     1
102
RTVSPropertyOp25
 70
     1
102
RTVSPropertyOp26
 70
     1
102
RTVSPropertyOp27
 70
     1
102
RTVSPropertyOp28
 70
     1
102
RTVSPropertyOp29
 70
     1
102
RTVSPropertyOp30
 70
     1
102
RTVSPropertyOp31
 70
     1
102
RTVSPropertyOp32
 70
     1
102
RTVSPropertyOp33
 70
     1
102
RTVSPropertyOp34
 70
     1
102
RTVSPropertyOp35
 70
     1
102
RTVSPropertyOp36
 70
     1
102
RTVSPropertyOp37
 70
     1
102
RTVSPropertyOp38
 70
     1
102
RTVSPropertyOp39
 70
     1
102
RTVSPropertyOp40
 70
     1
102
RTVSPropertyOp41
 70
     1
102
RTVSPropertyOp42
 70
     1
102
RTVSPropertyOp43
 70
     1
102
RTVSPropertyOp44
 70
     1
102
RTVSPropertyOp45
 70
     1
102
RTVSPropertyOp46
 70
     1
102
RTVSPropertyOp47
 70
     1
102
RTVSPropertyOp48
 70
     1
102
RTVSPropertyOp49
 70
     1
102
RTVSPropertyOp50
 70
     1
102
RTVSPropertyOp51
 70
     0
102
RTVSPropertyOp52
 70
     0
102
RTVSPropertyOp53
 70
     1
102
RTVSPropertyOp54
 70
     1
102
RTVSPropertyOp55
 70
     1
102
RTVSPropertyOp56
 70
     1
102
RTVSPropertyOp57
 70
     1
102
RTVSPropertyOp58
 70
     1
102
RTVSPropertyOp59
 70
     1
102
RTVSPropertyOp60
 70
     1
102
RTVSPropertyOp61
 70
     1
102
RTVSPropertyOp62
 70
     1
  0
XRECORD
  5
84BA
102
{ACAD_REACTORS
330
84B9
102
}
330
84B9
100
AcDbXrecord
280
     1
102
RTVSPost2010Prop28
280
     0
102
RTVSPost2010PropOp28
 70
     1
102
RTVSPost2010Prop29
280
     1
102
RTVSPost2010PropOp29
 70
     1
102
RTVSPost2010Prop30
280
     1
102
RTVSPost2010PropOp30
 70
     1
102
RTVSPost2010Prop31
280
     0
102
RTVSPost2010PropOp31
 70
     1
102
RTVSPost2010Prop32
280
     0
102
RTVSPost2010PropOp32
 70
     1
102
RTVSPost2010Prop33
280
     0
102
RTVSPost2010PropOp33
 70
     1
102
RTVSPost2010Prop34
280
     0
102
RTVSPost2010PropOp34
 70
     1
102
RTVSPost2010Prop35
280
     0
102
RTVSPost2010PropOp35
 70
     1
102
RTVSPost2010Prop36
280
     0
102
RTVSPost2010PropOp36
 70
     1
102
RTVSPost2010Prop37
 90
       50
102
RTVSPost2010PropOp37
 70
     1
102
RTVSPost2010Prop38
140
0.0
102
RTVSPost2010PropOp38
 70
     1
102
RTVSPost2010Prop39
140
1.0
102
RTVSPost2010PropOp39
 70
     1
102
RTVSPost2010Prop40
 90
        0
102
RTVSPost2010PropOp40
 70
     1
102
RTVSPost2010Prop41ColorIndex
 90
       18
102
RTVSPost2010Prop41ColorRGB
 90
        0
102
RTVSPost2010PropOp41
 70
     1
102
RTVSPost2010Prop42
 90
       50
102
RTVSPost2010PropOp42
 70
     1
102
RTVSPost2010Prop43
 90
        3
102
RTVSPost2010PropOp43
 70
     1
102
RTVSPost2010Prop44ColorIndex
 90
        5
102
RTVSPost2010Prop44ColorRGB
 90
      255
102
RTVSPost2010PropOp44
 70
     1
102
RTVSPost2010Prop45
280
     0
102
RTVSPost2010PropOp45
 70
     1
102
RTVSPost2010Prop46
 90
       50
102
RTVSPost2010PropOp46
 70
     1
102
RTVSPost2010Prop47
 90
       50
102
RTVSPost2010PropOp47
 70
     1
102
RTVSPost2010Prop48
 90
       50
102
RTVSPost2010PropOp48
 70
     1
102
RTVSPost2010Prop49
280
     0
102
RTVSPost2010PropOp49
 70
     1
102
RTVSPost2010Prop50
 90
       50
102
RTVSPost2010PropOp50
 70
     1
102
RTVSPost2010Prop51ColorIndex
 90
      256
102
RTVSPost2010Prop51ColorRGB
 90
-16777216
102
RTVSPost2010PropOp51
 70
     0
102
RTVSPost2010Prop52
140
1.0
102
RTVSPost2010PropOp52
 70
     0
102
RTVSPost2010Prop53
 90
        2
102
RTVSPost2010PropOp53
 70
     1
102
RTVSPost2010Prop54
  1
strokes_ogs.tif
102
RTVSPost2010PropOp54
 70
     1
102
RTVSPost2010Prop55
280
     0
102
RTVSPost2010PropOp55
 70
     1
102
RTVSPost2010Prop56
140
1.0
102
RTVSPost2010PropOp56
 70
     1
102
RTVSPost2010Prop57
140
1.0
102
RTVSPost2010PropOp57
 70
     1
102
RTVSPropertyOp0
 70
     1
102
RTVSPropertyOp1
 70
     1
102
RTVSPropertyOp2
 70
     1
102
RTVSPropertyOp3
 70
     1
102
RTVSPropertyOp4
 70
     1
102
RTVSPropertyOp5
 70
     1
102
RTVSPropertyOp6
 70
     1
102
RTVSPropertyOp7
 70
     1
102
RTVSPropertyOp8
 70
     1
102
RTVSPropertyOp9
 70
     1
102
RTVSPropertyOp10
 70
     1
102
RTVSPropertyOp11
 70
     1
102
RTVSPropertyOp12
 70
     1
102
RTVSPropertyOp13
 70
     1
102
RTVSPropertyOp14
 70
     1
102
RTVSPropertyOp15
 70
     1
102
RTVSPropertyOp16
 70
     1
102
RTVSPropertyOp17
 70
     1
102
RTVSPropertyOp18
 70
     1
102
RTVSPropertyOp19
 70
     1
102
RTVSPropertyOp20
 70
     1
102
RTVSPropertyOp21
 70
     1
102
RTVSPropertyOp22
 70
     1
102
RTVSPropertyOp23
 70
     1
102
RTVSPropertyOp24
 70
     1
102
RTVSPropertyOp25
 70
     1
102
RTVSPropertyOp26
 70
     1
102
RTVSPropertyOp27
 70
     1
102
RTVSPropertyOp28
 70
     1
102
RTVSPropertyOp29
 70
     1
102
RTVSPropertyOp30
 70
     1
102
RTVSPropertyOp31
 70
     1
102
RTVSPropertyOp32
 70
     1
102
RTVSPropertyOp33
 70
     1
102
RTVSPropertyOp34
 70
     1
102
RTVSPropertyOp35
 70
     1
102
RTVSPropertyOp36
 70
     1
102
RTVSPropertyOp37
 70
     1
102
RTVSPropertyOp38
 70
     1
102
RTVSPropertyOp39
 70
     1
102
RTVSPropertyOp40
 70
     1
102
RTVSPropertyOp41
 70
     1
102
RTVSPropertyOp42
 70
     1
102
RTVSPropertyOp43
 70
     1
102
RTVSPropertyOp44
 70
     1
102
RTVSPropertyOp45
 70
     1
102
RTVSPropertyOp46
 70
     1
102
RTVSPropertyOp47
 70
     1
102
RTVSPropertyOp48
 70
     1
102
RTVSPropertyOp49
 70
     1
102
RTVSPropertyOp50
 70
     1
102
RTVSPropertyOp51
 70
     0
102
RTVSPropertyOp52
 70
     0
102
RTVSPropertyOp53
 70
     1
102
RTVSPropertyOp54
 70
     1
102
RTVSPropertyOp55
 70
     1
102
RTVSPropertyOp56
 70
     1
102
RTVSPropertyOp57
 70
     1
102
RTVSPropertyOp58
 70
     1
102
RTVSPropertyOp59
 70
     1
102
RTVSPropertyOp60
 70
     1
102
RTVSPropertyOp61
 70
     1
102
RTVSPropertyOp62
 70
     1
  0
XRECORD
  5
84BC
102
{ACAD_REACTORS
330
84BB
102
}
330
84BB
100
AcDbXrecord
280
     1
102
RTVSPost2010Prop28
280
     0
102
RTVSPost2010PropOp28
 70
     1
102
RTVSPost2010Prop29
280
     1
102
RTVSPost2010PropOp29
 70
     1
102
RTVSPost2010Prop30
280
     1
102
RTVSPost2010PropOp30
 70
     1
102
RTVSPost2010Prop31
280
     0
102
RTVSPost2010PropOp31
 70
     1
102
RTVSPost2010Prop32
280
     0
102
RTVSPost2010PropOp32
 70
     1
102
RTVSPost2010Prop33
280
     0
102
RTVSPost2010PropOp33
 70
     1
102
RTVSPost2010Prop34
280
     0
102
RTVSPost2010PropOp34
 70
     1
102
RTVSPost2010Prop35
280
     0
102
RTVSPost2010PropOp35
 70
     1
102
RTVSPost2010Prop36
280
     0
102
RTVSPost2010PropOp36
 70
     1
102
RTVSPost2010Prop37
 90
       50
102
RTVSPost2010PropOp37
 70
     1
102
RTVSPost2010Prop38
140
0.0
102
RTVSPost2010PropOp38
 70
     1
102
RTVSPost2010Prop39
140
1.0
102
RTVSPost2010PropOp39
 70
     1
102
RTVSPost2010Prop40
 90
        0
102
RTVSPost2010PropOp40
 70
     1
102
RTVSPost2010Prop41ColorIndex
 90
       18
102
RTVSPost2010Prop41ColorRGB
 90
        0
102
RTVSPost2010PropOp41
 70
     1
102
RTVSPost2010Prop42
 90
       50
102
RTVSPost2010PropOp42
 70
     1
102
RTVSPost2010Prop43
 90
        3
102
RTVSPost2010PropOp43
 70
     1
102
RTVSPost2010Prop44ColorIndex
 90
        5
102
RTVSPost2010Prop44ColorRGB
 90
      255
102
RTVSPost2010PropOp44
 70
     1
102
RTVSPost2010Prop45
280
     0
102
RTVSPost2010PropOp45
 70
     1
102
RTVSPost2010Prop46
 90
       50
102
RTVSPost2010PropOp46
 70
     1
102
RTVSPost2010Prop47
 90
       50
102
RTVSPost2010PropOp47
 70
     1
102
RTVSPost2010Prop48
 90
       50
102
RTVSPost2010PropOp48
 70
     1
102
RTVSPost2010Prop49
280
     0
102
RTVSPost2010PropOp49
 70
     1
102
RTVSPost2010Prop50
 90
       50
102
RTVSPost2010PropOp50
 70
     1
102
RTVSPost2010Prop51ColorIndex
 90
      256
102
RTVSPost2010Prop51ColorRGB
 90
-16777216
102
RTVSPost2010PropOp51
 70
     0
102
RTVSPost2010Prop52
140
1.0
102
RTVSPost2010PropOp52
 70
     0
102
RTVSPost2010Prop53
 90
        2
102
RTVSPost2010PropOp53
 70
     1
102
RTVSPost2010Prop54
  1
strokes_ogs.tif
102
RTVSPost2010PropOp54
 70
     1
102
RTVSPost2010Prop55
280
     0
102
RTVSPost2010PropOp55
 70
     1
102
RTVSPost2010Prop56
140
1.0
102
RTVSPost2010PropOp56
 70
     1
102
RTVSPost2010Prop57
140
1.0
102
RTVSPost2010PropOp57
 70
     1
102
RTVSPropertyOp0
 70
     1
102
RTVSPropertyOp1
 70
     1
102
RTVSPropertyOp2
 70
     1
102
RTVSPropertyOp3
 70
     1
102
RTVSPropertyOp4
 70
     1
102
RTVSPropertyOp5
 70
     1
102
RTVSPropertyOp6
 70
     1
102
RTVSPropertyOp7
 70
     1
102
RTVSPropertyOp8
 70
     1
102
RTVSPropertyOp9
 70
     1
102
RTVSPropertyOp10
 70
     1
102
RTVSPropertyOp11
 70
     1
102
RTVSPropertyOp12
 70
     1
102
RTVSPropertyOp13
 70
     1
102
RTVSPropertyOp14
 70
     1
102
RTVSPropertyOp15
 70
     1
102
RTVSPropertyOp16
 70
     1
102
RTVSPropertyOp17
 70
     1
102
RTVSPropertyOp18
 70
     1
102
RTVSPropertyOp19
 70
     1
102
RTVSPropertyOp20
 70
     1
102
RTVSPropertyOp21
 70
     1
102
RTVSPropertyOp22
 70
     1
102
RTVSPropertyOp23
 70
     1
102
RTVSPropertyOp24
 70
     1
102
RTVSPropertyOp25
 70
     1
102
RTVSPropertyOp26
 70
     1
102
RTVSPropertyOp27
 70
     1
102
RTVSPropertyOp28
 70
     1
102
RTVSPropertyOp29
 70
     1
102
RTVSPropertyOp30
 70
     1
102
RTVSPropertyOp31
 70
     1
102
RTVSPropertyOp32
 70
     1
102
RTVSPropertyOp33
 70
     1
102
RTVSPropertyOp34
 70
     1
102
RTVSPropertyOp35
 70
     1
102
RTVSPropertyOp36
 70
     1
102
RTVSPropertyOp37
 70
     1
102
RTVSPropertyOp38
 70
     1
102
RTVSPropertyOp39
 70
     1
102
RTVSPropertyOp40
 70
     1
102
RTVSPropertyOp41
 70
     1
102
RTVSPropertyOp42
 70
     1
102
RTVSPropertyOp43
 70
     1
102
RTVSPropertyOp44
 70
     1
102
RTVSPropertyOp45
 70
     1
102
RTVSPropertyOp46
 70
     1
102
RTVSPropertyOp47
 70
     1
102
RTVSPropertyOp48
 70
     1
102
RTVSPropertyOp49
 70
     1
102
RTVSPropertyOp50
 70
     1
102
RTVSPropertyOp51
 70
     0
102
RTVSPropertyOp52
 70
     0
102
RTVSPropertyOp53
 70
     1
102
RTVSPropertyOp54
 70
     1
102
RTVSPropertyOp55
 70
     1
102
RTVSPropertyOp56
 70
     1
102
RTVSPropertyOp57
 70
     1
102
RTVSPropertyOp58
 70
     1
102
RTVSPropertyOp59
 70
     1
102
RTVSPropertyOp60
 70
     1
102
RTVSPropertyOp61
 70
     1
102
RTVSPropertyOp62
 70
     1
  0
XRECORD
  5
84BE
102
{ACAD_REACTORS
330
84BD
102
}
330
84BD
100
AcDbXrecord
280
     1
102
RTVSPost2010Prop28
280
     0
102
RTVSPost2010PropOp28
 70
     1
102
RTVSPost2010Prop29
280
     1
102
RTVSPost2010PropOp29
 70
     1
102
RTVSPost2010Prop30
280
     1
102
RTVSPost2010PropOp30
 70
     1
102
RTVSPost2010Prop31
280
     0
102
RTVSPost2010PropOp31
 70
     1
102
RTVSPost2010Prop32
280
     0
102
RTVSPost2010PropOp32
 70
     1
102
RTVSPost2010Prop33
280
     0
102
RTVSPost2010PropOp33
 70
     1
102
RTVSPost2010Prop34
280
     0
102
RTVSPost2010PropOp34
 70
     1
102
RTVSPost2010Prop35
280
     0
102
RTVSPost2010PropOp35
 70
     1
102
RTVSPost2010Prop36
280
     0
102
RTVSPost2010PropOp36
 70
     1
102
RTVSPost2010Prop37
 90
       50
102
RTVSPost2010PropOp37
 70
     1
102
RTVSPost2010Prop38
140
0.0
102
RTVSPost2010PropOp38
 70
     1
102
RTVSPost2010Prop39
140
1.0
102
RTVSPost2010PropOp39
 70
     1
102
RTVSPost2010Prop40
 90
        0
102
RTVSPost2010PropOp40
 70
     1
102
RTVSPost2010Prop41ColorIndex
 90
       18
102
RTVSPost2010Prop41ColorRGB
 90
        0
102
RTVSPost2010PropOp41
 70
     1
102
RTVSPost2010Prop42
 90
       50
102
RTVSPost2010PropOp42
 70
     1
102
RTVSPost2010Prop43
 90
        3
102
RTVSPost2010PropOp43
 70
     1
102
RTVSPost2010Prop44ColorIndex
 90
        5
102
RTVSPost2010Prop44ColorRGB
 90
      255
102
RTVSPost2010PropOp44
 70
     1
102
RTVSPost2010Prop45
280
     0
102
RTVSPost2010PropOp45
 70
     1
102
RTVSPost2010Prop46
 90
       50
102
RTVSPost2010PropOp46
 70
     1
102
RTVSPost2010Prop47
 90
       50
102
RTVSPost2010PropOp47
 70
     1
102
RTVSPost2010Prop48
 90
       50
102
RTVSPost2010PropOp48
 70
     1
102
RTVSPost2010Prop49
280
     0
102
RTVSPost2010PropOp49
 70
     1
102
RTVSPost2010Prop50
 90
       50
102
RTVSPost2010PropOp50
 70
     1
102
RTVSPost2010Prop51ColorIndex
 90
      256
102
RTVSPost2010Prop51ColorRGB
 90
-16777216
102
RTVSPost2010PropOp51
 70
     0
102
RTVSPost2010Prop52
140
1.0
102
RTVSPost2010PropOp52
 70
     0
102
RTVSPost2010Prop53
 90
        2
102
RTVSPost2010PropOp53
 70
     1
102
RTVSPost2010Prop54
  1
strokes_ogs.tif
102
RTVSPost2010PropOp54
 70
     1
102
RTVSPost2010Prop55
280
     0
102
RTVSPost2010PropOp55
 70
     1
102
RTVSPost2010Prop56
140
1.0
102
RTVSPost2010PropOp56
 70
     1
102
RTVSPost2010Prop57
140
1.0
102
RTVSPost2010PropOp57
 70
     1
102
RTVSPropertyOp0
 70
     1
102
RTVSPropertyOp1
 70
     1
102
RTVSPropertyOp2
 70
     1
102
RTVSPropertyOp3
 70
     1
102
RTVSPropertyOp4
 70
     1
102
RTVSPropertyOp5
 70
     1
102
RTVSPropertyOp6
 70
     1
102
RTVSPropertyOp7
 70
     1
102
RTVSPropertyOp8
 70
     1
102
RTVSPropertyOp9
 70
     1
102
RTVSPropertyOp10
 70
     1
102
RTVSPropertyOp11
 70
     1
102
RTVSPropertyOp12
 70
     1
102
RTVSPropertyOp13
 70
     1
102
RTVSPropertyOp14
 70
     1
102
RTVSPropertyOp15
 70
     1
102
RTVSPropertyOp16
 70
     1
102
RTVSPropertyOp17
 70
     1
102
RTVSPropertyOp18
 70
     1
102
RTVSPropertyOp19
 70
     1
102
RTVSPropertyOp20
 70
     1
102
RTVSPropertyOp21
 70
     1
102
RTVSPropertyOp22
 70
     1
102
RTVSPropertyOp23
 70
     1
102
RTVSPropertyOp24
 70
     1
102
RTVSPropertyOp25
 70
     1
102
RTVSPropertyOp26
 70
     1
102
RTVSPropertyOp27
 70
     1
102
RTVSPropertyOp28
 70
     1
102
RTVSPropertyOp29
 70
     1
102
RTVSPropertyOp30
 70
     1
102
RTVSPropertyOp31
 70
     1
102
RTVSPropertyOp32
 70
     1
102
RTVSPropertyOp33
 70
     1
102
RTVSPropertyOp34
 70
     1
102
RTVSPropertyOp35
 70
     1
102
RTVSPropertyOp36
 70
     1
102
RTVSPropertyOp37
 70
     1
102
RTVSPropertyOp38
 70
     1
102
RTVSPropertyOp39
 70
     1
102
RTVSPropertyOp40
 70
     1
102
RTVSPropertyOp41
 70
     1
102
RTVSPropertyOp42
 70
     1
102
RTVSPropertyOp43
 70
     1
102
RTVSPropertyOp44
 70
     1
102
RTVSPropertyOp45
 70
     1
102
RTVSPropertyOp46
 70
     1
102
RTVSPropertyOp47
 70
     1
102
RTVSPropertyOp48
 70
     1
102
RTVSPropertyOp49
 70
     1
102
RTVSPropertyOp50
 70
     1
102
RTVSPropertyOp51
 70
     0
102
RTVSPropertyOp52
 70
     0
102
RTVSPropertyOp53
 70
     1
102
RTVSPropertyOp54
 70
     1
102
RTVSPropertyOp55
 70
     1
102
RTVSPropertyOp56
 70
     1
102
RTVSPropertyOp57
 70
     1
102
RTVSPropertyOp58
 70
     1
102
RTVSPropertyOp59
 70
     1
102
RTVSPropertyOp60
 70
     1
102
RTVSPropertyOp61
 70
     1
102
RTVSPropertyOp62
 70
     1
  0
XRECORD
  5
84C0
102
{ACAD_REACTORS
330
84BF
102
}
330
84BF
100
AcDbXrecord
280
     1
102
RTVSPost2010Prop28
280
     0
102
RTVSPost2010PropOp28
 70
     1
102
RTVSPost2010Prop29
280
     1
102
RTVSPost2010PropOp29
 70
     1
102
RTVSPost2010Prop30
280
     1
102
RTVSPost2010PropOp30
 70
     1
102
RTVSPost2010Prop31
280
     0
102
RTVSPost2010PropOp31
 70
     1
102
RTVSPost2010Prop32
280
     0
102
RTVSPost2010PropOp32
 70
     1
102
RTVSPost2010Prop33
280
     0
102
RTVSPost2010PropOp33
 70
     1
102
RTVSPost2010Prop34
280
     0
102
RTVSPost2010PropOp34
 70
     1
102
RTVSPost2010Prop35
280
     0
102
RTVSPost2010PropOp35
 70
     1
102
RTVSPost2010Prop36
280
     0
102
RTVSPost2010PropOp36
 70
     1
102
RTVSPost2010Prop37
 90
       50
102
RTVSPost2010PropOp37
 70
     1
102
RTVSPost2010Prop38
140
0.0
102
RTVSPost2010PropOp38
 70
     1
102
RTVSPost2010Prop39
140
1.0
102
RTVSPost2010PropOp39
 70
     1
102
RTVSPost2010Prop40
 90
        0
102
RTVSPost2010PropOp40
 70
     1
102
RTVSPost2010Prop41ColorIndex
 90
       18
102
RTVSPost2010Prop41ColorRGB
 90
        0
102
RTVSPost2010PropOp41
 70
     1
102
RTVSPost2010Prop42
 90
       50
102
RTVSPost2010PropOp42
 70
     1
102
RTVSPost2010Prop43
 90
        3
102
RTVSPost2010PropOp43
 70
     1
102
RTVSPost2010Prop44ColorIndex
 90
        5
102
RTVSPost2010Prop44ColorRGB
 90
      255
102
RTVSPost2010PropOp44
 70
     1
102
RTVSPost2010Prop45
280
     0
102
RTVSPost2010PropOp45
 70
     1
102
RTVSPost2010Prop46
 90
       50
102
RTVSPost2010PropOp46
 70
     1
102
RTVSPost2010Prop47
 90
       50
102
RTVSPost2010PropOp47
 70
     1
102
RTVSPost2010Prop48
 90
       50
102
RTVSPost2010PropOp48
 70
     1
102
RTVSPost2010Prop49
280
     0
102
RTVSPost2010PropOp49
 70
     1
102
RTVSPost2010Prop50
 90
       50
102
RTVSPost2010PropOp50
 70
     1
102
RTVSPost2010Prop51ColorIndex
 90
      256
102
RTVSPost2010Prop51ColorRGB
 90
-16777216
102
RTVSPost2010PropOp51
 70
     0
102
RTVSPost2010Prop52
140
1.0
102
RTVSPost2010PropOp52
 70
     0
102
RTVSPost2010Prop53
 90
        2
102
RTVSPost2010PropOp53
 70
     1
102
RTVSPost2010Prop54
  1
strokes_ogs.tif
102
RTVSPost2010PropOp54
 70
     1
102
RTVSPost2010Prop55
280
     0
102
RTVSPost2010PropOp55
 70
     1
102
RTVSPost2010Prop56
140
1.0
102
RTVSPost2010PropOp56
 70
     1
102
RTVSPost2010Prop57
140
1.0
102
RTVSPost2010PropOp57
 70
     1
102
RTVSPropertyOp0
 70
     1
102
RTVSPropertyOp1
 70
     1
102
RTVSPropertyOp2
 70
     1
102
RTVSPropertyOp3
 70
     1
102
RTVSPropertyOp4
 70
     1
102
RTVSPropertyOp5
 70
     1
102
RTVSPropertyOp6
 70
     1
102
RTVSPropertyOp7
 70
     1
102
RTVSPropertyOp8
 70
     1
102
RTVSPropertyOp9
 70
     1
102
RTVSPropertyOp10
 70
     1
102
RTVSPropertyOp11
 70
     1
102
RTVSPropertyOp12
 70
     1
102
RTVSPropertyOp13
 70
     1
102
RTVSPropertyOp14
 70
     1
102
RTVSPropertyOp15
 70
     1
102
RTVSPropertyOp16
 70
     1
102
RTVSPropertyOp17
 70
     1
102
RTVSPropertyOp18
 70
     1
102
RTVSPropertyOp19
 70
     1
102
RTVSPropertyOp20
 70
     1
102
RTVSPropertyOp21
 70
     1
102
RTVSPropertyOp22
 70
     1
102
RTVSPropertyOp23
 70
     1
102
RTVSPropertyOp24
 70
     1
102
RTVSPropertyOp25
 70
     1
102
RTVSPropertyOp26
 70
     1
102
RTVSPropertyOp27
 70
     1
102
RTVSPropertyOp28
 70
     1
102
RTVSPropertyOp29
 70
     1
102
RTVSPropertyOp30
 70
     1
102
RTVSPropertyOp31
 70
     1
102
RTVSPropertyOp32
 70
     1
102
RTVSPropertyOp33
 70
     1
102
RTVSPropertyOp34
 70
     1
102
RTVSPropertyOp35
 70
     1
102
RTVSPropertyOp36
 70
     1
102
RTVSPropertyOp37
 70
     1
102
RTVSPropertyOp38
 70
     1
102
RTVSPropertyOp39
 70
     1
102
RTVSPropertyOp40
 70
     1
102
RTVSPropertyOp41
 70
     1
102
RTVSPropertyOp42
 70
     1
102
RTVSPropertyOp43
 70
     1
102
RTVSPropertyOp44
 70
     1
102
RTVSPropertyOp45
 70
     1
102
RTVSPropertyOp46
 70
     1
102
RTVSPropertyOp47
 70
     1
102
RTVSPropertyOp48
 70
     1
102
RTVSPropertyOp49
 70
     1
102
RTVSPropertyOp50
 70
     1
102
RTVSPropertyOp51
 70
     0
102
RTVSPropertyOp52
 70
     0
102
RTVSPropertyOp53
 70
     1
102
RTVSPropertyOp54
 70
     1
102
RTVSPropertyOp55
 70
     1
102
RTVSPropertyOp56
 70
     1
102
RTVSPropertyOp57
 70
     1
102
RTVSPropertyOp58
 70
     1
102
RTVSPropertyOp59
 70
     1
102
RTVSPropertyOp60
 70
     1
102
RTVSPropertyOp61
 70
     1
102
RTVSPropertyOp62
 70
     1
  0
XRECORD
  5
84C8
102
{ACAD_REACTORS
330
84C7
102
}
330
84C7
100
AcDbXrecord
280
     1
102
RTVSPost2010Prop28
280
     0
102
RTVSPost2010PropOp28
 70
     1
102
RTVSPost2010Prop29
280
     1
102
RTVSPost2010PropOp29
 70
     1
102
RTVSPost2010Prop30
280
     1
102
RTVSPost2010PropOp30
 70
     1
102
RTVSPost2010Prop31
280
     0
102
RTVSPost2010PropOp31
 70
     1
102
RTVSPost2010Prop32
280
     0
102
RTVSPost2010PropOp32
 70
     1
102
RTVSPost2010Prop33
280
     0
102
RTVSPost2010PropOp33
 70
     1
102
RTVSPost2010Prop34
280
     0
102
RTVSPost2010PropOp34
 70
     1
102
RTVSPost2010Prop35
280
     0
102
RTVSPost2010PropOp35
 70
     1
102
RTVSPost2010Prop36
280
     0
102
RTVSPost2010PropOp36
 70
     1
102
RTVSPost2010Prop37
 90
       50
102
RTVSPost2010PropOp37
 70
     1
102
RTVSPost2010Prop38
140
0.0
102
RTVSPost2010PropOp38
 70
     1
102
RTVSPost2010Prop39
140
1.0
102
RTVSPost2010PropOp39
 70
     1
102
RTVSPost2010Prop40
 90
        0
102
RTVSPost2010PropOp40
 70
     1
102
RTVSPost2010Prop41ColorIndex
 90
       18
102
RTVSPost2010Prop41ColorRGB
 90
        0
102
RTVSPost2010PropOp41
 70
     1
102
RTVSPost2010Prop42
 90
       50
102
RTVSPost2010PropOp42
 70
     1
102
RTVSPost2010Prop43
 90
        3
102
RTVSPost2010PropOp43
 70
     1
102
RTVSPost2010Prop44ColorIndex
 90
        5
102
RTVSPost2010Prop44ColorRGB
 90
      255
102
RTVSPost2010PropOp44
 70
     1
102
RTVSPost2010Prop45
280
     0
102
RTVSPost2010PropOp45
 70
     1
102
RTVSPost2010Prop46
 90
       50
102
RTVSPost2010PropOp46
 70
     1
102
RTVSPost2010Prop47
 90
       50
102
RTVSPost2010PropOp47
 70
     1
102
RTVSPost2010Prop48
 90
       50
102
RTVSPost2010PropOp48
 70
     1
102
RTVSPost2010Prop49
280
     0
102
RTVSPost2010PropOp49
 70
     1
102
RTVSPost2010Prop50
 90
       50
102
RTVSPost2010PropOp50
 70
     1
102
RTVSPost2010Prop51ColorIndex
 90
      256
102
RTVSPost2010Prop51ColorRGB
 90
-16777216
102
RTVSPost2010PropOp51
 70
     0
102
RTVSPost2010Prop52
140
1.0
102
RTVSPost2010PropOp52
 70
     0
102
RTVSPost2010Prop53
 90
        2
102
RTVSPost2010PropOp53
 70
     1
102
RTVSPost2010Prop54
  1
strokes_ogs.tif
102
RTVSPost2010PropOp54
 70
     1
102
RTVSPost2010Prop55
280
     0
102
RTVSPost2010PropOp55
 70
     1
102
RTVSPost2010Prop56
140
1.0
102
RTVSPost2010PropOp56
 70
     1
102
RTVSPost2010Prop57
140
1.0
102
RTVSPost2010PropOp57
 70
     1
102
RTVSPropertyOp0
 70
     1
102
RTVSPropertyOp1
 70
     1
102
RTVSPropertyOp2
 70
     1
102
RTVSPropertyOp3
 70
     1
102
RTVSPropertyOp4
 70
     1
102
RTVSPropertyOp5
 70
     1
102
RTVSPropertyOp6
 70
     1
102
RTVSPropertyOp7
 70
     1
102
RTVSPropertyOp8
 70
     1
102
RTVSPropertyOp9
 70
     1
102
RTVSPropertyOp10
 70
     1
102
RTVSPropertyOp11
 70
     1
102
RTVSPropertyOp12
 70
     1
102
RTVSPropertyOp13
 70
     1
102
RTVSPropertyOp14
 70
     1
102
RTVSPropertyOp15
 70
     1
102
RTVSPropertyOp16
 70
     1
102
RTVSPropertyOp17
 70
     1
102
RTVSPropertyOp18
 70
     1
102
RTVSPropertyOp19
 70
     1
102
RTVSPropertyOp20
 70
     1
102
RTVSPropertyOp21
 70
     1
102
RTVSPropertyOp22
 70
     1
102
RTVSPropertyOp23
 70
     1
102
RTVSPropertyOp24
 70
     1
102
RTVSPropertyOp25
 70
     1
102
RTVSPropertyOp26
 70
     1
102
RTVSPropertyOp27
 70
     1
102
RTVSPropertyOp28
 70
     1
102
RTVSPropertyOp29
 70
     1
102
RTVSPropertyOp30
 70
     1
102
RTVSPropertyOp31
 70
     1
102
RTVSPropertyOp32
 70
     1
102
RTVSPropertyOp33
 70
     1
102
RTVSPropertyOp34
 70
     1
102
RTVSPropertyOp35
 70
     1
102
RTVSPropertyOp36
 70
     1
102
RTVSPropertyOp37
 70
     1
102
RTVSPropertyOp38
 70
     1
102
RTVSPropertyOp39
 70
     1
102
RTVSPropertyOp40
 70
     1
102
RTVSPropertyOp41
 70
     1
102
RTVSPropertyOp42
 70
     1
102
RTVSPropertyOp43
 70
     1
102
RTVSPropertyOp44
 70
     1
102
RTVSPropertyOp45
 70
     1
102
RTVSPropertyOp46
 70
     1
102
RTVSPropertyOp47
 70
     1
102
RTVSPropertyOp48
 70
     1
102
RTVSPropertyOp49
 70
     1
102
RTVSPropertyOp50
 70
     1
102
RTVSPropertyOp51
 70
     0
102
RTVSPropertyOp52
 70
     0
102
RTVSPropertyOp53
 70
     1
102
RTVSPropertyOp54
 70
     1
102
RTVSPropertyOp55
 70
     1
102
RTVSPropertyOp56
 70
     1
102
RTVSPropertyOp57
 70
     1
102
RTVSPropertyOp58
 70
     1
102
RTVSPropertyOp59
 70
     1
102
RTVSPropertyOp60
 70
     1
102
RTVSPropertyOp61
 70
     1
102
RTVSPropertyOp62
 70
     1
  0
XRECORD
  5
84E4
102
{ACAD_REACTORS
330
84E3
102
}
330
84E3
100
AcDbXrecord
280
     1
102
RTVSPost2010Prop28
280
     0
102
RTVSPost2010PropOp28
 70
     1
102
RTVSPost2010Prop29
280
     1
102
RTVSPost2010PropOp29
 70
     1
102
RTVSPost2010Prop30
280
     1
102
RTVSPost2010PropOp30
 70
     1
102
RTVSPost2010Prop31
280
     0
102
RTVSPost2010PropOp31
 70
     1
102
RTVSPost2010Prop32
280
     0
102
RTVSPost2010PropOp32
 70
     1
102
RTVSPost2010Prop33
280
     0
102
RTVSPost2010PropOp33
 70
     1
102
RTVSPost2010Prop34
280
     0
102
RTVSPost2010PropOp34
 70
     1
102
RTVSPost2010Prop35
280
     0
102
RTVSPost2010PropOp35
 70
     1
102
RTVSPost2010Prop36
280
     0
102
RTVSPost2010PropOp36
 70
     1
102
RTVSPost2010Prop37
 90
       50
102
RTVSPost2010PropOp37
 70
     0
102
RTVSPost2010Prop38
140
0.0
102
RTVSPost2010PropOp38
 70
     0
102
RTVSPost2010Prop39
140
1.0
102
RTVSPost2010PropOp39
 70
     0
102
RTVSPost2010Prop40
 90
        0
102
RTVSPost2010PropOp40
 70
     0
102
RTVSPost2010Prop41ColorIndex
 90
       18
102
RTVSPost2010Prop41ColorRGB
 90
        0
102
RTVSPost2010PropOp41
 70
     0
102
RTVSPost2010Prop42
 90
       50
102
RTVSPost2010PropOp42
 70
     0
102
RTVSPost2010Prop43
 90
        3
102
RTVSPost2010PropOp43
 70
     0
102
RTVSPost2010Prop44ColorIndex
 90
        5
102
RTVSPost2010Prop44ColorRGB
 90
      255
102
RTVSPost2010PropOp44
 70
     0
102
RTVSPost2010Prop45
280
     0
102
RTVSPost2010PropOp45
 70
     1
102
RTVSPost2010Prop46
 90
       50
102
RTVSPost2010PropOp46
 70
     0
102
RTVSPost2010Prop47
 90
       50
102
RTVSPost2010PropOp47
 70
     0
102
RTVSPost2010Prop48
 90
       50
102
RTVSPost2010PropOp48
 70
     0
102
RTVSPost2010Prop49
280
     0
102
RTVSPost2010PropOp49
 70
     1
102
RTVSPost2010Prop50
 90
       50
102
RTVSPost2010PropOp50
 70
     0
102
RTVSPost2010Prop51ColorIndex
 90
      256
102
RTVSPost2010Prop51ColorRGB
 90
-16777216
102
RTVSPost2010PropOp51
 70
     0
102
RTVSPost2010Prop52
140
1.0
102
RTVSPost2010PropOp52
 70
     0
102
RTVSPost2010Prop53
 90
        2
102
RTVSPost2010PropOp53
 70
     0
102
RTVSPost2010Prop54
  1
strokes_ogs.tif
102
RTVSPost2010PropOp54
 70
     0
102
RTVSPost2010Prop55
280
     0
102
RTVSPost2010PropOp55
 70
     1
102
RTVSPost2010Prop56
140
1.0
102
RTVSPost2010PropOp56
 70
     0
102
RTVSPost2010Prop57
140
1.0
102
RTVSPost2010PropOp57
 70
     0
102
RTVSPropertyOp0
 70
     0
102
RTVSPropertyOp1
 70
     0
102
RTVSPropertyOp2
 70
     0
102
RTVSPropertyOp3
 70
     0
102
RTVSPropertyOp4
 70
     0
102
RTVSPropertyOp5
 70
     0
102
RTVSPropertyOp6
 70
     0
102
RTVSPropertyOp7
 70
     0
102
RTVSPropertyOp8
 70
     0
102
RTVSPropertyOp9
 70
     0
102
RTVSPropertyOp10
 70
     0
102
RTVSPropertyOp11
 70
     0
102
RTVSPropertyOp12
 70
     0
102
RTVSPropertyOp13
 70
     0
102
RTVSPropertyOp14
 70
     2
102
RTVSPropertyOp15
 70
     0
102
RTVSPropertyOp16
 70
     0
102
RTVSPropertyOp17
 70
     0
102
RTVSPropertyOp18
 70
     0
102
RTVSPropertyOp19
 70
     0
102
RTVSPropertyOp20
 70
     0
102
RTVSPropertyOp21
 70
     0
102
RTVSPropertyOp22
 70
     0
102
RTVSPropertyOp23
 70
     0
102
RTVSPropertyOp24
 70
     0
102
RTVSPropertyOp25
 70
     0
102
RTVSPropertyOp26
 70
     0
102
RTVSPropertyOp27
 70
     0
102
RTVSPropertyOp28
 70
     1
102
RTVSPropertyOp29
 70
     1
102
RTVSPropertyOp30
 70
     1
102
RTVSPropertyOp31
 70
     1
102
RTVSPropertyOp32
 70
     1
102
RTVSPropertyOp33
 70
     1
102
RTVSPropertyOp34
 70
     1
102
RTVSPropertyOp35
 70
     1
102
RTVSPropertyOp36
 70
     1
102
RTVSPropertyOp37
 70
     0
102
RTVSPropertyOp38
 70
     0
102
RTVSPropertyOp39
 70
     0
102
RTVSPropertyOp40
 70
     0
102
RTVSPropertyOp41
 70
     0
102
RTVSPropertyOp42
 70
     0
102
RTVSPropertyOp43
 70
     0
102
RTVSPropertyOp44
 70
     0
102
RTVSPropertyOp45
 70
     1
102
RTVSPropertyOp46
 70
     0
102
RTVSPropertyOp47
 70
     0
102
RTVSPropertyOp48
 70
     0
102
RTVSPropertyOp49
 70
     1
102
RTVSPropertyOp50
 70
     0
102
RTVSPropertyOp51
 70
     0
102
RTVSPropertyOp52
 70
     0
102
RTVSPropertyOp53
 70
     0
102
RTVSPropertyOp54
 70
     0
102
RTVSPropertyOp55
 70
     1
102
RTVSPropertyOp56
 70
     0
102
RTVSPropertyOp57
 70
     0
102
RTVSPropertyOp58
 70
     0
102
RTVSPropertyOp59
 70
     0
102
RTVSPropertyOp60
 70
     0
102
RTVSPropertyOp61
 70
     0
102
RTVSPropertyOp62
 70
     0
  0
XRECORD
  5
84D4
102
{ACAD_REACTORS
330
84D3
102
}
330
84D3
100
AcDbXrecord
280
     1
102
RTVSPost2010Prop28
280
     0
102
RTVSPost2010PropOp28
 70
     1
102
RTVSPost2010Prop29
280
     1
102
RTVSPost2010PropOp29
 70
     1
102
RTVSPost2010Prop30
280
     1
102
RTVSPost2010PropOp30
 70
     1
102
RTVSPost2010Prop31
280
     0
102
RTVSPost2010PropOp31
 70
     1
102
RTVSPost2010Prop32
280
     0
102
RTVSPost2010PropOp32
 70
     1
102
RTVSPost2010Prop33
280
     0
102
RTVSPost2010PropOp33
 70
     1
102
RTVSPost2010Prop34
280
     0
102
RTVSPost2010PropOp34
 70
     1
102
RTVSPost2010Prop35
280
     0
102
RTVSPost2010PropOp35
 70
     1
102
RTVSPost2010Prop36
280
     0
102
RTVSPost2010PropOp36
 70
     1
102
RTVSPost2010Prop37
 90
       50
102
RTVSPost2010PropOp37
 70
     1
102
RTVSPost2010Prop38
140
0.0
102
RTVSPost2010PropOp38
 70
     1
102
RTVSPost2010Prop39
140
1.0
102
RTVSPost2010PropOp39
 70
     1
102
RTVSPost2010Prop40
 90
        0
102
RTVSPost2010PropOp40
 70
     1
102
RTVSPost2010Prop41ColorIndex
 90
       18
102
RTVSPost2010Prop41ColorRGB
 90
        0
102
RTVSPost2010PropOp41
 70
     1
102
RTVSPost2010Prop42
 90
       50
102
RTVSPost2010PropOp42
 70
     1
102
RTVSPost2010Prop43
 90
        3
102
RTVSPost2010PropOp43
 70
     1
102
RTVSPost2010Prop44ColorIndex
 90
        5
102
RTVSPost2010Prop44ColorRGB
 90
      255
102
RTVSPost2010PropOp44
 70
     1
102
RTVSPost2010Prop45
280
     0
102
RTVSPost2010PropOp45
 70
     1
102
RTVSPost2010Prop46
 90
       50
102
RTVSPost2010PropOp46
 70
     1
102
RTVSPost2010Prop47
 90
       50
102
RTVSPost2010PropOp47
 70
     1
102
RTVSPost2010Prop48
 90
       50
102
RTVSPost2010PropOp48
 70
     1
102
RTVSPost2010Prop49
280
     0
102
RTVSPost2010PropOp49
 70
     1
102
RTVSPost2010Prop50
 90
       50
102
RTVSPost2010PropOp50
 70
     1
102
RTVSPost2010Prop51ColorIndex
 90
      256
102
RTVSPost2010Prop51ColorRGB
 90
-16777216
102
RTVSPost2010PropOp51
 70
     0
102
RTVSPost2010Prop52
140
1.0
102
RTVSPost2010PropOp52
 70
     0
102
RTVSPost2010Prop53
 90
        2
102
RTVSPost2010PropOp53
 70
     1
102
RTVSPost2010Prop54
  1
strokes_ogs.tif
102
RTVSPost2010PropOp54
 70
     1
102
RTVSPost2010Prop55
280
     0
102
RTVSPost2010PropOp55
 70
     1
102
RTVSPost2010Prop56
140
1.0
102
RTVSPost2010PropOp56
 70
     1
102
RTVSPost2010Prop57
140
1.0
102
RTVSPost2010PropOp57
 70
     1
102
RTVSPropertyOp0
 70
     1
102
RTVSPropertyOp1
 70
     1
102
RTVSPropertyOp2
 70
     1
102
RTVSPropertyOp3
 70
     1
102
RTVSPropertyOp4
 70
     1
102
RTVSPropertyOp5
 70
     1
102
RTVSPropertyOp6
 70
     1
102
RTVSPropertyOp7
 70
     1
102
RTVSPropertyOp8
 70
     1
102
RTVSPropertyOp9
 70
     1
102
RTVSPropertyOp10
 70
     1
102
RTVSPropertyOp11
 70
     1
102
RTVSPropertyOp12
 70
     1
102
RTVSPropertyOp13
 70
     1
102
RTVSPropertyOp14
 70
     1
102
RTVSPropertyOp15
 70
     1
102
RTVSPropertyOp16
 70
     1
102
RTVSPropertyOp17
 70
     1
102
RTVSPropertyOp18
 70
     1
102
RTVSPropertyOp19
 70
     1
102
RTVSPropertyOp20
 70
     1
102
RTVSPropertyOp21
 70
     1
102
RTVSPropertyOp22
 70
     1
102
RTVSPropertyOp23
 70
     1
102
RTVSPropertyOp24
 70
     1
102
RTVSPropertyOp25
 70
     1
102
RTVSPropertyOp26
 70
     1
102
RTVSPropertyOp27
 70
     1
102
RTVSPropertyOp28
 70
     1
102
RTVSPropertyOp29
 70
     1
102
RTVSPropertyOp30
 70
     1
102
RTVSPropertyOp31
 70
     1
102
RTVSPropertyOp32
 70
     1
102
RTVSPropertyOp33
 70
     1
102
RTVSPropertyOp34
 70
     1
102
RTVSPropertyOp35
 70
     1
102
RTVSPropertyOp36
 70
     1
102
RTVSPropertyOp37
 70
     1
102
RTVSPropertyOp38
 70
     1
102
RTVSPropertyOp39
 70
     1
102
RTVSPropertyOp40
 70
     1
102
RTVSPropertyOp41
 70
     1
102
RTVSPropertyOp42
 70
     1
102
RTVSPropertyOp43
 70
     1
102
RTVSPropertyOp44
 70
     1
102
RTVSPropertyOp45
 70
     1
102
RTVSPropertyOp46
 70
     1
102
RTVSPropertyOp47
 70
     1
102
RTVSPropertyOp48
 70
     1
102
RTVSPropertyOp49
 70
     1
102
RTVSPropertyOp50
 70
     1
102
RTVSPropertyOp51
 70
     0
102
RTVSPropertyOp52
 70
     0
102
RTVSPropertyOp53
 70
     1
102
RTVSPropertyOp54
 70
     1
102
RTVSPropertyOp55
 70
     1
102
RTVSPropertyOp56
 70
     1
102
RTVSPropertyOp57
 70
     1
102
RTVSPropertyOp58
 70
     1
102
RTVSPropertyOp59
 70
     1
102
RTVSPropertyOp60
 70
     1
102
RTVSPropertyOp61
 70
     1
102
RTVSPropertyOp62
 70
     1
  0
XRECORD
  5
84E6
102
{ACAD_REACTORS
330
84E5
102
}
330
84E5
100
AcDbXrecord
280
     1
102
RTVSPost2010Prop28
280
     0
102
RTVSPost2010PropOp28
 70
     1
102
RTVSPost2010Prop29
280
     1
102
RTVSPost2010PropOp29
 70
     1
102
RTVSPost2010Prop30
280
     1
102
RTVSPost2010PropOp30
 70
     1
102
RTVSPost2010Prop31
280
     0
102
RTVSPost2010PropOp31
 70
     1
102
RTVSPost2010Prop32
280
     0
102
RTVSPost2010PropOp32
 70
     1
102
RTVSPost2010Prop33
280
     0
102
RTVSPost2010PropOp33
 70
     1
102
RTVSPost2010Prop34
280
     0
102
RTVSPost2010PropOp34
 70
     1
102
RTVSPost2010Prop35
280
     0
102
RTVSPost2010PropOp35
 70
     1
102
RTVSPost2010Prop36
280
     0
102
RTVSPost2010PropOp36
 70
     1
102
RTVSPost2010Prop37
 90
       50
102
RTVSPost2010PropOp37
 70
     0
102
RTVSPost2010Prop38
140
0.0
102
RTVSPost2010PropOp38
 70
     0
102
RTVSPost2010Prop39
140
1.0
102
RTVSPost2010PropOp39
 70
     0
102
RTVSPost2010Prop40
 90
        0
102
RTVSPost2010PropOp40
 70
     0
102
RTVSPost2010Prop41ColorIndex
 90
       18
102
RTVSPost2010Prop41ColorRGB
 90
        0
102
RTVSPost2010PropOp41
 70
     0
102
RTVSPost2010Prop42
 90
       50
102
RTVSPost2010PropOp42
 70
     0
102
RTVSPost2010Prop43
 90
        3
102
RTVSPost2010PropOp43
 70
     0
102
RTVSPost2010Prop44ColorIndex
 90
        5
102
RTVSPost2010Prop44ColorRGB
 90
      255
102
RTVSPost2010PropOp44
 70
     0
102
RTVSPost2010Prop45
280
     0
102
RTVSPost2010PropOp45
 70
     1
102
RTVSPost2010Prop46
 90
       50
102
RTVSPost2010PropOp46
 70
     0
102
RTVSPost2010Prop47
 90
       50
102
RTVSPost2010PropOp47
 70
     0
102
RTVSPost2010Prop48
 90
       50
102
RTVSPost2010PropOp48
 70
     0
102
RTVSPost2010Prop49
280
     0
102
RTVSPost2010PropOp49
 70
     1
102
RTVSPost2010Prop50
 90
       50
102
RTVSPost2010PropOp50
 70
     0
102
RTVSPost2010Prop51ColorIndex
 90
      256
102
RTVSPost2010Prop51ColorRGB
 90
-16777216
102
RTVSPost2010PropOp51
 70
     0
102
RTVSPost2010Prop52
140
1.0
102
RTVSPost2010PropOp52
 70
     0
102
RTVSPost2010Prop53
 90
        2
102
RTVSPost2010PropOp53
 70
     0
102
RTVSPost2010Prop54
  1
strokes_ogs.tif
102
RTVSPost2010PropOp54
 70
     0
102
RTVSPost2010Prop55
280
     0
102
RTVSPost2010PropOp55
 70
     1
102
RTVSPost2010Prop56
140
1.0
102
RTVSPost2010PropOp56
 70
     0
102
RTVSPost2010Prop57
140
1.0
102
RTVSPost2010PropOp57
 70
     0
102
RTVSPropertyOp0
 70
     0
102
RTVSPropertyOp1
 70
     0
102
RTVSPropertyOp2
 70
     0
102
RTVSPropertyOp3
 70
     0
102
RTVSPropertyOp4
 70
     0
102
RTVSPropertyOp5
 70
     0
102
RTVSPropertyOp6
 70
     0
102
RTVSPropertyOp7
 70
     0
102
RTVSPropertyOp8
 70
     0
102
RTVSPropertyOp9
 70
     0
102
RTVSPropertyOp10
 70
     0
102
RTVSPropertyOp11
 70
     0
102
RTVSPropertyOp12
 70
     0
102
RTVSPropertyOp13
 70
     0
102
RTVSPropertyOp14
 70
     2
102
RTVSPropertyOp15
 70
     0
102
RTVSPropertyOp16
 70
     0
102
RTVSPropertyOp17
 70
     0
102
RTVSPropertyOp18
 70
     0
102
RTVSPropertyOp19
 70
     0
102
RTVSPropertyOp20
 70
     0
102
RTVSPropertyOp21
 70
     0
102
RTVSPropertyOp22
 70
     0
102
RTVSPropertyOp23
 70
     0
102
RTVSPropertyOp24
 70
     0
102
RTVSPropertyOp25
 70
     0
102
RTVSPropertyOp26
 70
     0
102
RTVSPropertyOp27
 70
     0
102
RTVSPropertyOp28
 70
     1
102
RTVSPropertyOp29
 70
     1
102
RTVSPropertyOp30
 70
     1
102
RTVSPropertyOp31
 70
     1
102
RTVSPropertyOp32
 70
     1
102
RTVSPropertyOp33
 70
     1
102
RTVSPropertyOp34
 70
     1
102
RTVSPropertyOp35
 70
     1
102
RTVSPropertyOp36
 70
     1
102
RTVSPropertyOp37
 70
     0
102
RTVSPropertyOp38
 70
     0
102
RTVSPropertyOp39
 70
     0
102
RTVSPropertyOp40
 70
     0
102
RTVSPropertyOp41
 70
     0
102
RTVSPropertyOp42
 70
     0
102
RTVSPropertyOp43
 70
     0
102
RTVSPropertyOp44
 70
     0
102
RTVSPropertyOp45
 70
     1
102
RTVSPropertyOp46
 70
     0
102
RTVSPropertyOp47
 70
     0
102
RTVSPropertyOp48
 70
     0
102
RTVSPropertyOp49
 70
     1
102
RTVSPropertyOp50
 70
     0
102
RTVSPropertyOp51
 70
     0
102
RTVSPropertyOp52
 70
     0
102
RTVSPropertyOp53
 70
     0
102
RTVSPropertyOp54
 70
     0
102
RTVSPropertyOp55
 70
     1
102
RTVSPropertyOp56
 70
     0
102
RTVSPropertyOp57
 70
     0
102
RTVSPropertyOp58
 70
     0
102
RTVSPropertyOp59
 70
     0
102
RTVSPropertyOp60
 70
     0
102
RTVSPropertyOp61
 70
     0
102
RTVSPropertyOp62
 70
     0
  0
XRECORD
  5
84CC
102
{ACAD_REACTORS
330
84CB
102
}
330
84CB
100
AcDbXrecord
280
     1
102
RTVSPost2010Prop28
280
     0
102
RTVSPost2010PropOp28
 70
     1
102
RTVSPost2010Prop29
280
     1
102
RTVSPost2010PropOp29
 70
     1
102
RTVSPost2010Prop30
280
     1
102
RTVSPost2010PropOp30
 70
     1
102
RTVSPost2010Prop31
280
     0
102
RTVSPost2010PropOp31
 70
     1
102
RTVSPost2010Prop32
280
     0
102
RTVSPost2010PropOp32
 70
     1
102
RTVSPost2010Prop33
280
     0
102
RTVSPost2010PropOp33
 70
     1
102
RTVSPost2010Prop34
280
     0
102
RTVSPost2010PropOp34
 70
     1
102
RTVSPost2010Prop35
280
     0
102
RTVSPost2010PropOp35
 70
     1
102
RTVSPost2010Prop36
280
     0
102
RTVSPost2010PropOp36
 70
     1
102
RTVSPost2010Prop37
 90
       50
102
RTVSPost2010PropOp37
 70
     1
102
RTVSPost2010Prop38
140
0.0
102
RTVSPost2010PropOp38
 70
     1
102
RTVSPost2010Prop39
140
1.0
102
RTVSPost2010PropOp39
 70
     1
102
RTVSPost2010Prop40
 90
        0
102
RTVSPost2010PropOp40
 70
     1
102
RTVSPost2010Prop41ColorIndex
 90
       18
102
RTVSPost2010Prop41ColorRGB
 90
        0
102
RTVSPost2010PropOp41
 70
     1
102
RTVSPost2010Prop42
 90
       50
102
RTVSPost2010PropOp42
 70
     1
102
RTVSPost2010Prop43
 90
        3
102
RTVSPost2010PropOp43
 70
     1
102
RTVSPost2010Prop44ColorIndex
 90
        5
102
RTVSPost2010Prop44ColorRGB
 90
      255
102
RTVSPost2010PropOp44
 70
     1
102
RTVSPost2010Prop45
280
     0
102
RTVSPost2010PropOp45
 70
     1
102
RTVSPost2010Prop46
 90
       50
102
RTVSPost2010PropOp46
 70
     1
102
RTVSPost2010Prop47
 90
       50
102
RTVSPost2010PropOp47
 70
     1
102
RTVSPost2010Prop48
 90
       50
102
RTVSPost2010PropOp48
 70
     1
102
RTVSPost2010Prop49
280
     0
102
RTVSPost2010PropOp49
 70
     1
102
RTVSPost2010Prop50
 90
       50
102
RTVSPost2010PropOp50
 70
     1
102
RTVSPost2010Prop51ColorIndex
 90
      256
102
RTVSPost2010Prop51ColorRGB
 90
-16777216
102
RTVSPost2010PropOp51
 70
     0
102
RTVSPost2010Prop52
140
1.0
102
RTVSPost2010PropOp52
 70
     0
102
RTVSPost2010Prop53
 90
        2
102
RTVSPost2010PropOp53
 70
     1
102
RTVSPost2010Prop54
  1
strokes_ogs.tif
102
RTVSPost2010PropOp54
 70
     1
102
RTVSPost2010Prop55
280
     0
102
RTVSPost2010PropOp55
 70
     1
102
RTVSPost2010Prop56
140
1.0
102
RTVSPost2010PropOp56
 70
     1
102
RTVSPost2010Prop57
140
1.0
102
RTVSPost2010PropOp57
 70
     1
102
RTVSPropertyOp0
 70
     1
102
RTVSPropertyOp1
 70
     1
102
RTVSPropertyOp2
 70
     1
102
RTVSPropertyOp3
 70
     1
102
RTVSPropertyOp4
 70
     1
102
RTVSPropertyOp5
 70
     1
102
RTVSPropertyOp6
 70
     1
102
RTVSPropertyOp7
 70
     1
102
RTVSPropertyOp8
 70
     1
102
RTVSPropertyOp9
 70
     1
102
RTVSPropertyOp10
 70
     1
102
RTVSPropertyOp11
 70
     1
102
RTVSPropertyOp12
 70
     1
102
RTVSPropertyOp13
 70
     1
102
RTVSPropertyOp14
 70
     1
102
RTVSPropertyOp15
 70
     1
102
RTVSPropertyOp16
 70
     1
102
RTVSPropertyOp17
 70
     1
102
RTVSPropertyOp18
 70
     1
102
RTVSPropertyOp19
 70
     1
102
RTVSPropertyOp20
 70
     1
102
RTVSPropertyOp21
 70
     1
102
RTVSPropertyOp22
 70
     1
102
RTVSPropertyOp23
 70
     1
102
RTVSPropertyOp24
 70
     1
102
RTVSPropertyOp25
 70
     1
102
RTVSPropertyOp26
 70
     1
102
RTVSPropertyOp27
 70
     1
102
RTVSPropertyOp28
 70
     1
102
RTVSPropertyOp29
 70
     1
102
RTVSPropertyOp30
 70
     1
102
RTVSPropertyOp31
 70
     1
102
RTVSPropertyOp32
 70
     1
102
RTVSPropertyOp33
 70
     1
102
RTVSPropertyOp34
 70
     1
102
RTVSPropertyOp35
 70
     1
102
RTVSPropertyOp36
 70
     1
102
RTVSPropertyOp37
 70
     1
102
RTVSPropertyOp38
 70
     1
102
RTVSPropertyOp39
 70
     1
102
RTVSPropertyOp40
 70
     1
102
RTVSPropertyOp41
 70
     1
102
RTVSPropertyOp42
 70
     1
102
RTVSPropertyOp43
 70
     1
102
RTVSPropertyOp44
 70
     1
102
RTVSPropertyOp45
 70
     1
102
RTVSPropertyOp46
 70
     1
102
RTVSPropertyOp47
 70
     1
102
RTVSPropertyOp48
 70
     1
102
RTVSPropertyOp49
 70
     1
102
RTVSPropertyOp50
 70
     1
102
RTVSPropertyOp51
 70
     0
102
RTVSPropertyOp52
 70
     0
102
RTVSPropertyOp53
 70
     1
102
RTVSPropertyOp54
 70
     1
102
RTVSPropertyOp55
 70
     1
102
RTVSPropertyOp56
 70
     1
102
RTVSPropertyOp57
 70
     1
102
RTVSPropertyOp58
 70
     1
102
RTVSPropertyOp59
 70
     1
102
RTVSPropertyOp60
 70
     1
102
RTVSPropertyOp61
 70
     1
102
RTVSPropertyOp62
 70
     1
  0
XRECORD
  5
84E2
102
{ACAD_REACTORS
330
84E1
102
}
330
84E1
100
AcDbXrecord
280
     1
102
RTVSPost2010Prop28
280
     0
102
RTVSPost2010PropOp28
 70
     1
102
RTVSPost2010Prop29
280
     1
102
RTVSPost2010PropOp29
 70
     1
102
RTVSPost2010Prop30
280
     1
102
RTVSPost2010PropOp30
 70
     1
102
RTVSPost2010Prop31
280
     0
102
RTVSPost2010PropOp31
 70
     1
102
RTVSPost2010Prop32
280
     0
102
RTVSPost2010PropOp32
 70
     1
102
RTVSPost2010Prop33
280
     0
102
RTVSPost2010PropOp33
 70
     1
102
RTVSPost2010Prop34
280
     0
102
RTVSPost2010PropOp34
 70
     1
102
RTVSPost2010Prop35
280
     0
102
RTVSPost2010PropOp35
 70
     1
102
RTVSPost2010Prop36
280
     0
102
RTVSPost2010PropOp36
 70
     1
102
RTVSPost2010Prop37
 90
       50
102
RTVSPost2010PropOp37
 70
     1
102
RTVSPost2010Prop38
140
0.0
102
RTVSPost2010PropOp38
 70
     1
102
RTVSPost2010Prop39
140
1.0
102
RTVSPost2010PropOp39
 70
     1
102
RTVSPost2010Prop40
 90
        0
102
RTVSPost2010PropOp40
 70
     1
102
RTVSPost2010Prop41ColorIndex
 90
       18
102
RTVSPost2010Prop41ColorRGB
 90
        0
102
RTVSPost2010PropOp41
 70
     1
102
RTVSPost2010Prop42
 90
       50
102
RTVSPost2010PropOp42
 70
     1
102
RTVSPost2010Prop43
 90
        3
102
RTVSPost2010PropOp43
 70
     1
102
RTVSPost2010Prop44ColorIndex
 90
        5
102
RTVSPost2010Prop44ColorRGB
 90
      255
102
RTVSPost2010PropOp44
 70
     1
102
RTVSPost2010Prop45
280
     0
102
RTVSPost2010PropOp45
 70
     1
102
RTVSPost2010Prop46
 90
       50
102
RTVSPost2010PropOp46
 70
     1
102
RTVSPost2010Prop47
 90
       50
102
RTVSPost2010PropOp47
 70
     1
102
RTVSPost2010Prop48
 90
       50
102
RTVSPost2010PropOp48
 70
     1
102
RTVSPost2010Prop49
280
     0
102
RTVSPost2010PropOp49
 70
     1
102
RTVSPost2010Prop50
 90
       50
102
RTVSPost2010PropOp50
 70
     1
102
RTVSPost2010Prop51ColorIndex
 90
      256
102
RTVSPost2010Prop51ColorRGB
 90
-16777216
102
RTVSPost2010PropOp51
 70
     0
102
RTVSPost2010Prop52
140
1.0
102
RTVSPost2010PropOp52
 70
     0
102
RTVSPost2010Prop53
 90
        2
102
RTVSPost2010PropOp53
 70
     1
102
RTVSPost2010Prop54
  1
strokes_ogs.tif
102
RTVSPost2010PropOp54
 70
     1
102
RTVSPost2010Prop55
280
     0
102
RTVSPost2010PropOp55
 70
     1
102
RTVSPost2010Prop56
140
1.0
102
RTVSPost2010PropOp56
 70
     1
102
RTVSPost2010Prop57
140
1.0
102
RTVSPost2010PropOp57
 70
     1
102
RTVSPropertyOp0
 70
     1
102
RTVSPropertyOp1
 70
     1
102
RTVSPropertyOp2
 70
     1
102
RTVSPropertyOp3
 70
     1
102
RTVSPropertyOp4
 70
     1
102
RTVSPropertyOp5
 70
     1
102
RTVSPropertyOp6
 70
     1
102
RTVSPropertyOp7
 70
     1
102
RTVSPropertyOp8
 70
     1
102
RTVSPropertyOp9
 70
     1
102
RTVSPropertyOp10
 70
     1
102
RTVSPropertyOp11
 70
     1
102
RTVSPropertyOp12
 70
     1
102
RTVSPropertyOp13
 70
     1
102
RTVSPropertyOp14
 70
     1
102
RTVSPropertyOp15
 70
     1
102
RTVSPropertyOp16
 70
     1
102
RTVSPropertyOp17
 70
     1
102
RTVSPropertyOp18
 70
     1
102
RTVSPropertyOp19
 70
     1
102
RTVSPropertyOp20
 70
     1
102
RTVSPropertyOp21
 70
     1
102
RTVSPropertyOp22
 70
     1
102
RTVSPropertyOp23
 70
     1
102
RTVSPropertyOp24
 70
     1
102
RTVSPropertyOp25
 70
     1
102
RTVSPropertyOp26
 70
     1
102
RTVSPropertyOp27
 70
     1
102
RTVSPropertyOp28
 70
     1
102
RTVSPropertyOp29
 70
     1
102
RTVSPropertyOp30
 70
     1
102
RTVSPropertyOp31
 70
     1
102
RTVSPropertyOp32
 70
     1
102
RTVSPropertyOp33
 70
     1
102
RTVSPropertyOp34
 70
     1
102
RTVSPropertyOp35
 70
     1
102
RTVSPropertyOp36
 70
     1
102
RTVSPropertyOp37
 70
     1
102
RTVSPropertyOp38
 70
     1
102
RTVSPropertyOp39
 70
     1
102
RTVSPropertyOp40
 70
     1
102
RTVSPropertyOp41
 70
     1
102
RTVSPropertyOp42
 70
     1
102
RTVSPropertyOp43
 70
     1
102
RTVSPropertyOp44
 70
     1
102
RTVSPropertyOp45
 70
     1
102
RTVSPropertyOp46
 70
     1
102
RTVSPropertyOp47
 70
     1
102
RTVSPropertyOp48
 70
     1
102
RTVSPropertyOp49
 70
     1
102
RTVSPropertyOp50
 70
     1
102
RTVSPropertyOp51
 70
     0
102
RTVSPropertyOp52
 70
     0
102
RTVSPropertyOp53
 70
     1
102
RTVSPropertyOp54
 70
     1
102
RTVSPropertyOp55
 70
     1
102
RTVSPropertyOp56
 70
     1
102
RTVSPropertyOp57
 70
     1
102
RTVSPropertyOp58
 70
     1
102
RTVSPropertyOp59
 70
     1
102
RTVSPropertyOp60
 70
     1
102
RTVSPropertyOp61
 70
     1
102
RTVSPropertyOp62
 70
     1
  0
XRECORD
  5
84E0
102
{ACAD_REACTORS
330
84DF
102
}
330
84DF
100
AcDbXrecord
280
     1
102
RTVSPost2010Prop28
280
     0
102
RTVSPost2010PropOp28
 70
     1
102
RTVSPost2010Prop29
280
     1
102
RTVSPost2010PropOp29
 70
     1
102
RTVSPost2010Prop30
280
     1
102
RTVSPost2010PropOp30
 70
     1
102
RTVSPost2010Prop31
280
     0
102
RTVSPost2010PropOp31
 70
     1
102
RTVSPost2010Prop32
280
     0
102
RTVSPost2010PropOp32
 70
     1
102
RTVSPost2010Prop33
280
     0
102
RTVSPost2010PropOp33
 70
     1
102
RTVSPost2010Prop34
280
     0
102
RTVSPost2010PropOp34
 70
     1
102
RTVSPost2010Prop35
280
     0
102
RTVSPost2010PropOp35
 70
     1
102
RTVSPost2010Prop36
280
     0
102
RTVSPost2010PropOp36
 70
     1
102
RTVSPost2010Prop37
 90
       50
102
RTVSPost2010PropOp37
 70
     1
102
RTVSPost2010Prop38
140
0.0
102
RTVSPost2010PropOp38
 70
     1
102
RTVSPost2010Prop39
140
1.0
102
RTVSPost2010PropOp39
 70
     1
102
RTVSPost2010Prop40
 90
        0
102
RTVSPost2010PropOp40
 70
     1
102
RTVSPost2010Prop41ColorIndex
 90
       18
102
RTVSPost2010Prop41ColorRGB
 90
        0
102
RTVSPost2010PropOp41
 70
     1
102
RTVSPost2010Prop42
 90
       50
102
RTVSPost2010PropOp42
 70
     1
102
RTVSPost2010Prop43
 90
        3
102
RTVSPost2010PropOp43
 70
     1
102
RTVSPost2010Prop44ColorIndex
 90
        5
102
RTVSPost2010Prop44ColorRGB
 90
      255
102
RTVSPost2010PropOp44
 70
     1
102
RTVSPost2010Prop45
280
     0
102
RTVSPost2010PropOp45
 70
     1
102
RTVSPost2010Prop46
 90
       50
102
RTVSPost2010PropOp46
 70
     1
102
RTVSPost2010Prop47
 90
       50
102
RTVSPost2010PropOp47
 70
     1
102
RTVSPost2010Prop48
 90
       50
102
RTVSPost2010PropOp48
 70
     1
102
RTVSPost2010Prop49
280
     0
102
RTVSPost2010PropOp49
 70
     1
102
RTVSPost2010Prop50
 90
       50
102
RTVSPost2010PropOp50
 70
     1
102
RTVSPost2010Prop51ColorIndex
 90
      256
102
RTVSPost2010Prop51ColorRGB
 90
-16777216
102
RTVSPost2010PropOp51
 70
     0
102
RTVSPost2010Prop52
140
1.0
102
RTVSPost2010PropOp52
 70
     0
102
RTVSPost2010Prop53
 90
        2
102
RTVSPost2010PropOp53
 70
     1
102
RTVSPost2010Prop54
  1
strokes_ogs.tif
102
RTVSPost2010PropOp54
 70
     1
102
RTVSPost2010Prop55
280
     0
102
RTVSPost2010PropOp55
 70
     1
102
RTVSPost2010Prop56
140
1.0
102
RTVSPost2010PropOp56
 70
     1
102
RTVSPost2010Prop57
140
1.0
102
RTVSPost2010PropOp57
 70
     1
102
RTVSPropertyOp0
 70
     1
102
RTVSPropertyOp1
 70
     1
102
RTVSPropertyOp2
 70
     1
102
RTVSPropertyOp3
 70
     1
102
RTVSPropertyOp4
 70
     1
102
RTVSPropertyOp5
 70
     1
102
RTVSPropertyOp6
 70
     1
102
RTVSPropertyOp7
 70
     1
102
RTVSPropertyOp8
 70
     1
102
RTVSPropertyOp9
 70
     1
102
RTVSPropertyOp10
 70
     1
102
RTVSPropertyOp11
 70
     1
102
RTVSPropertyOp12
 70
     1
102
RTVSPropertyOp13
 70
     1
102
RTVSPropertyOp14
 70
     1
102
RTVSPropertyOp15
 70
     1
102
RTVSPropertyOp16
 70
     1
102
RTVSPropertyOp17
 70
     1
102
RTVSPropertyOp18
 70
     1
102
RTVSPropertyOp19
 70
     1
102
RTVSPropertyOp20
 70
     1
102
RTVSPropertyOp21
 70
     1
102
RTVSPropertyOp22
 70
     1
102
RTVSPropertyOp23
 70
     1
102
RTVSPropertyOp24
 70
     1
102
RTVSPropertyOp25
 70
     1
102
RTVSPropertyOp26
 70
     1
102
RTVSPropertyOp27
 70
     1
102
RTVSPropertyOp28
 70
     1
102
RTVSPropertyOp29
 70
     1
102
RTVSPropertyOp30
 70
     1
102
RTVSPropertyOp31
 70
     1
102
RTVSPropertyOp32
 70
     1
102
RTVSPropertyOp33
 70
     1
102
RTVSPropertyOp34
 70
     1
102
RTVSPropertyOp35
 70
     1
102
RTVSPropertyOp36
 70
     1
102
RTVSPropertyOp37
 70
     1
102
RTVSPropertyOp38
 70
     1
102
RTVSPropertyOp39
 70
     1
102
RTVSPropertyOp40
 70
     1
102
RTVSPropertyOp41
 70
     1
102
RTVSPropertyOp42
 70
     1
102
RTVSPropertyOp43
 70
     1
102
RTVSPropertyOp44
 70
     1
102
RTVSPropertyOp45
 70
     1
102
RTVSPropertyOp46
 70
     1
102
RTVSPropertyOp47
 70
     1
102
RTVSPropertyOp48
 70
     1
102
RTVSPropertyOp49
 70
     1
102
RTVSPropertyOp50
 70
     1
102
RTVSPropertyOp51
 70
     0
102
RTVSPropertyOp52
 70
     0
102
RTVSPropertyOp53
 70
     1
102
RTVSPropertyOp54
 70
     1
102
RTVSPropertyOp55
 70
     1
102
RTVSPropertyOp56
 70
     1
102
RTVSPropertyOp57
 70
     1
102
RTVSPropertyOp58
 70
     1
102
RTVSPropertyOp59
 70
     1
102
RTVSPropertyOp60
 70
     1
102
RTVSPropertyOp61
 70
     1
102
RTVSPropertyOp62
 70
     1
  0
XRECORD
  5
84DA
102
{ACAD_REACTORS
330
84D9
102
}
330
84D9
100
AcDbXrecord
280
     1
102
RTVSPost2010Prop28
280
     0
102
RTVSPost2010PropOp28
 70
     1
102
RTVSPost2010Prop29
280
     1
102
RTVSPost2010PropOp29
 70
     1
102
RTVSPost2010Prop30
280
     1
102
RTVSPost2010PropOp30
 70
     1
102
RTVSPost2010Prop31
280
     0
102
RTVSPost2010PropOp31
 70
     1
102
RTVSPost2010Prop32
280
     0
102
RTVSPost2010PropOp32
 70
     1
102
RTVSPost2010Prop33
280
     0
102
RTVSPost2010PropOp33
 70
     1
102
RTVSPost2010Prop34
280
     0
102
RTVSPost2010PropOp34
 70
     1
102
RTVSPost2010Prop35
280
     0
102
RTVSPost2010PropOp35
 70
     1
102
RTVSPost2010Prop36
280
     0
102
RTVSPost2010PropOp36
 70
     1
102
RTVSPost2010Prop37
 90
       50
102
RTVSPost2010PropOp37
 70
     1
102
RTVSPost2010Prop38
140
0.0
102
RTVSPost2010PropOp38
 70
     1
102
RTVSPost2010Prop39
140
1.0
102
RTVSPost2010PropOp39
 70
     1
102
RTVSPost2010Prop40
 90
        0
102
RTVSPost2010PropOp40
 70
     1
102
RTVSPost2010Prop41ColorIndex
 90
       18
102
RTVSPost2010Prop41ColorRGB
 90
        0
102
RTVSPost2010PropOp41
 70
     1
102
RTVSPost2010Prop42
 90
       50
102
RTVSPost2010PropOp42
 70
     1
102
RTVSPost2010Prop43
 90
        3
102
RTVSPost2010PropOp43
 70
     1
102
RTVSPost2010Prop44ColorIndex
 90
        5
102
RTVSPost2010Prop44ColorRGB
 90
      255
102
RTVSPost2010PropOp44
 70
     1
102
RTVSPost2010Prop45
280
     0
102
RTVSPost2010PropOp45
 70
     1
102
RTVSPost2010Prop46
 90
       50
102
RTVSPost2010PropOp46
 70
     1
102
RTVSPost2010Prop47
 90
       50
102
RTVSPost2010PropOp47
 70
     1
102
RTVSPost2010Prop48
 90
       50
102
RTVSPost2010PropOp48
 70
     1
102
RTVSPost2010Prop49
280
     0
102
RTVSPost2010PropOp49
 70
     1
102
RTVSPost2010Prop50
 90
       50
102
RTVSPost2010PropOp50
 70
     1
102
RTVSPost2010Prop51ColorIndex
 90
      256
102
RTVSPost2010Prop51ColorRGB
 90
-16777216
102
RTVSPost2010PropOp51
 70
     0
102
RTVSPost2010Prop52
140
1.0
102
RTVSPost2010PropOp52
 70
     0
102
RTVSPost2010Prop53
 90
        2
102
RTVSPost2010PropOp53
 70
     1
102
RTVSPost2010Prop54
  1
strokes_ogs.tif
102
RTVSPost2010PropOp54
 70
     1
102
RTVSPost2010Prop55
280
     0
102
RTVSPost2010PropOp55
 70
     1
102
RTVSPost2010Prop56
140
1.0
102
RTVSPost2010PropOp56
 70
     1
102
RTVSPost2010Prop57
140
1.0
102
RTVSPost2010PropOp57
 70
     1
102
RTVSPropertyOp0
 70
     1
102
RTVSPropertyOp1
 70
     1
102
RTVSPropertyOp2
 70
     1
102
RTVSPropertyOp3
 70
     1
102
RTVSPropertyOp4
 70
     1
102
RTVSPropertyOp5
 70
     1
102
RTVSPropertyOp6
 70
     1
102
RTVSPropertyOp7
 70
     1
102
RTVSPropertyOp8
 70
     1
102
RTVSPropertyOp9
 70
     1
102
RTVSPropertyOp10
 70
     1
102
RTVSPropertyOp11
 70
     1
102
RTVSPropertyOp12
 70
     1
102
RTVSPropertyOp13
 70
     1
102
RTVSPropertyOp14
 70
     1
102
RTVSPropertyOp15
 70
     1
102
RTVSPropertyOp16
 70
     1
102
RTVSPropertyOp17
 70
     1
102
RTVSPropertyOp18
 70
     1
102
RTVSPropertyOp19
 70
     1
102
RTVSPropertyOp20
 70
     1
102
RTVSPropertyOp21
 70
     1
102
RTVSPropertyOp22
 70
     1
102
RTVSPropertyOp23
 70
     1
102
RTVSPropertyOp24
 70
     1
102
RTVSPropertyOp25
 70
     1
102
RTVSPropertyOp26
 70
     1
102
RTVSPropertyOp27
 70
     1
102
RTVSPropertyOp28
 70
     1
102
RTVSPropertyOp29
 70
     1
102
RTVSPropertyOp30
 70
     1
102
RTVSPropertyOp31
 70
     1
102
RTVSPropertyOp32
 70
     1
102
RTVSPropertyOp33
 70
     1
102
RTVSPropertyOp34
 70
     1
102
RTVSPropertyOp35
 70
     1
102
RTVSPropertyOp36
 70
     1
102
RTVSPropertyOp37
 70
     1
102
RTVSPropertyOp38
 70
     1
102
RTVSPropertyOp39
 70
     1
102
RTVSPropertyOp40
 70
     1
102
RTVSPropertyOp41
 70
     1
102
RTVSPropertyOp42
 70
     1
102
RTVSPropertyOp43
 70
     1
102
RTVSPropertyOp44
 70
     1
102
RTVSPropertyOp45
 70
     1
102
RTVSPropertyOp46
 70
     1
102
RTVSPropertyOp47
 70
     1
102
RTVSPropertyOp48
 70
     1
102
RTVSPropertyOp49
 70
     1
102
RTVSPropertyOp50
 70
     1
102
RTVSPropertyOp51
 70
     0
102
RTVSPropertyOp52
 70
     0
102
RTVSPropertyOp53
 70
     1
102
RTVSPropertyOp54
 70
     1
102
RTVSPropertyOp55
 70
     1
102
RTVSPropertyOp56
 70
     1
102
RTVSPropertyOp57
 70
     1
102
RTVSPropertyOp58
 70
     1
102
RTVSPropertyOp59
 70
     1
102
RTVSPropertyOp60
 70
     1
102
RTVSPropertyOp61
 70
     1
102
RTVSPropertyOp62
 70
     1
  0
XRECORD
  5
84DC
102
{ACAD_REACTORS
330
84DB
102
}
330
84DB
100
AcDbXrecord
280
     1
102
RTVSPost2010Prop28
280
     0
102
RTVSPost2010PropOp28
 70
     1
102
RTVSPost2010Prop29
280
     1
102
RTVSPost2010PropOp29
 70
     1
102
RTVSPost2010Prop30
280
     1
102
RTVSPost2010PropOp30
 70
     1
102
RTVSPost2010Prop31
280
     0
102
RTVSPost2010PropOp31
 70
     1
102
RTVSPost2010Prop32
280
     0
102
RTVSPost2010PropOp32
 70
     1
102
RTVSPost2010Prop33
280
     0
102
RTVSPost2010PropOp33
 70
     1
102
RTVSPost2010Prop34
280
     0
102
RTVSPost2010PropOp34
 70
     1
102
RTVSPost2010Prop35
280
     0
102
RTVSPost2010PropOp35
 70
     1
102
RTVSPost2010Prop36
280
     0
102
RTVSPost2010PropOp36
 70
     1
102
RTVSPost2010Prop37
 90
       50
102
RTVSPost2010PropOp37
 70
     1
102
RTVSPost2010Prop38
140
0.0
102
RTVSPost2010PropOp38
 70
     1
102
RTVSPost2010Prop39
140
1.0
102
RTVSPost2010PropOp39
 70
     1
102
RTVSPost2010Prop40
 90
        0
102
RTVSPost2010PropOp40
 70
     1
102
RTVSPost2010Prop41ColorIndex
 90
       18
102
RTVSPost2010Prop41ColorRGB
 90
        0
102
RTVSPost2010PropOp41
 70
     1
102
RTVSPost2010Prop42
 90
       50
102
RTVSPost2010PropOp42
 70
     1
102
RTVSPost2010Prop43
 90
        3
102
RTVSPost2010PropOp43
 70
     1
102
RTVSPost2010Prop44ColorIndex
 90
        5
102
RTVSPost2010Prop44ColorRGB
 90
      255
102
RTVSPost2010PropOp44
 70
     1
102
RTVSPost2010Prop45
280
     0
102
RTVSPost2010PropOp45
 70
     1
102
RTVSPost2010Prop46
 90
       50
102
RTVSPost2010PropOp46
 70
     1
102
RTVSPost2010Prop47
 90
       50
102
RTVSPost2010PropOp47
 70
     1
102
RTVSPost2010Prop48
 90
       50
102
RTVSPost2010PropOp48
 70
     1
102
RTVSPost2010Prop49
280
     0
102
RTVSPost2010PropOp49
 70
     1
102
RTVSPost2010Prop50
 90
       50
102
RTVSPost2010PropOp50
 70
     1
102
RTVSPost2010Prop51ColorIndex
 90
      256
102
RTVSPost2010Prop51ColorRGB
 90
-16777216
102
RTVSPost2010PropOp51
 70
     0
102
RTVSPost2010Prop52
140
1.0
102
RTVSPost2010PropOp52
 70
     0
102
RTVSPost2010Prop53
 90
        2
102
RTVSPost2010PropOp53
 70
     1
102
RTVSPost2010Prop54
  1
strokes_ogs.tif
102
RTVSPost2010PropOp54
 70
     1
102
RTVSPost2010Prop55
280
     0
102
RTVSPost2010PropOp55
 70
     1
102
RTVSPost2010Prop56
140
1.0
102
RTVSPost2010PropOp56
 70
     1
102
RTVSPost2010Prop57
140
1.0
102
RTVSPost2010PropOp57
 70
     1
102
RTVSPropertyOp0
 70
     1
102
RTVSPropertyOp1
 70
     1
102
RTVSPropertyOp2
 70
     1
102
RTVSPropertyOp3
 70
     1
102
RTVSPropertyOp4
 70
     1
102
RTVSPropertyOp5
 70
     1
102
RTVSPropertyOp6
 70
     1
102
RTVSPropertyOp7
 70
     1
102
RTVSPropertyOp8
 70
     1
102
RTVSPropertyOp9
 70
     1
102
RTVSPropertyOp10
 70
     1
102
RTVSPropertyOp11
 70
     1
102
RTVSPropertyOp12
 70
     1
102
RTVSPropertyOp13
 70
     1
102
RTVSPropertyOp14
 70
     1
102
RTVSPropertyOp15
 70
     1
102
RTVSPropertyOp16
 70
     1
102
RTVSPropertyOp17
 70
     1
102
RTVSPropertyOp18
 70
     1
102
RTVSPropertyOp19
 70
     1
102
RTVSPropertyOp20
 70
     1
102
RTVSPropertyOp21
 70
     1
102
RTVSPropertyOp22
 70
     1
102
RTVSPropertyOp23
 70
     1
102
RTVSPropertyOp24
 70
     1
102
RTVSPropertyOp25
 70
     1
102
RTVSPropertyOp26
 70
     1
102
RTVSPropertyOp27
 70
     1
102
RTVSPropertyOp28
 70
     1
102
RTVSPropertyOp29
 70
     1
102
RTVSPropertyOp30
 70
     1
102
RTVSPropertyOp31
 70
     1
102
RTVSPropertyOp32
 70
     1
102
RTVSPropertyOp33
 70
     1
102
RTVSPropertyOp34
 70
     1
102
RTVSPropertyOp35
 70
     1
102
RTVSPropertyOp36
 70
     1
102
RTVSPropertyOp37
 70
     1
102
RTVSPropertyOp38
 70
     1
102
RTVSPropertyOp39
 70
     1
102
RTVSPropertyOp40
 70
     1
102
RTVSPropertyOp41
 70
     1
102
RTVSPropertyOp42
 70
     1
102
RTVSPropertyOp43
 70
     1
102
RTVSPropertyOp44
 70
     1
102
RTVSPropertyOp45
 70
     1
102
RTVSPropertyOp46
 70
     1
102
RTVSPropertyOp47
 70
     1
102
RTVSPropertyOp48
 70
     1
102
RTVSPropertyOp49
 70
     1
102
RTVSPropertyOp50
 70
     1
102
RTVSPropertyOp51
 70
     0
102
RTVSPropertyOp52
 70
     0
102
RTVSPropertyOp53
 70
     1
102
RTVSPropertyOp54
 70
     1
102
RTVSPropertyOp55
 70
     1
102
RTVSPropertyOp56
 70
     1
102
RTVSPropertyOp57
 70
     1
102
RTVSPropertyOp58
 70
     1
102
RTVSPropertyOp59
 70
     1
102
RTVSPropertyOp60
 70
     1
102
RTVSPropertyOp61
 70
     1
102
RTVSPropertyOp62
 70
     1
  0
XRECORD
  5
84D2
102
{ACAD_REACTORS
330
84D1
102
}
330
84D1
100
AcDbXrecord
280
     1
102
RTVSPost2010Prop28
280
     0
102
RTVSPost2010PropOp28
 70
     1
102
RTVSPost2010Prop29
280
     1
102
RTVSPost2010PropOp29
 70
     1
102
RTVSPost2010Prop30
280
     1
102
RTVSPost2010PropOp30
 70
     1
102
RTVSPost2010Prop31
280
     0
102
RTVSPost2010PropOp31
 70
     1
102
RTVSPost2010Prop32
280
     0
102
RTVSPost2010PropOp32
 70
     1
102
RTVSPost2010Prop33
280
     0
102
RTVSPost2010PropOp33
 70
     1
102
RTVSPost2010Prop34
280
     0
102
RTVSPost2010PropOp34
 70
     1
102
RTVSPost2010Prop35
280
     0
102
RTVSPost2010PropOp35
 70
     1
102
RTVSPost2010Prop36
280
     0
102
RTVSPost2010PropOp36
 70
     1
102
RTVSPost2010Prop37
 90
       50
102
RTVSPost2010PropOp37
 70
     1
102
RTVSPost2010Prop38
140
0.0
102
RTVSPost2010PropOp38
 70
     1
102
RTVSPost2010Prop39
140
1.0
102
RTVSPost2010PropOp39
 70
     1
102
RTVSPost2010Prop40
 90
        0
102
RTVSPost2010PropOp40
 70
     1
102
RTVSPost2010Prop41ColorIndex
 90
       18
102
RTVSPost2010Prop41ColorRGB
 90
        0
102
RTVSPost2010PropOp41
 70
     1
102
RTVSPost2010Prop42
 90
       50
102
RTVSPost2010PropOp42
 70
     1
102
RTVSPost2010Prop43
 90
        3
102
RTVSPost2010PropOp43
 70
     1
102
RTVSPost2010Prop44ColorIndex
 90
        5
102
RTVSPost2010Prop44ColorRGB
 90
      255
102
RTVSPost2010PropOp44
 70
     1
102
RTVSPost2010Prop45
280
     0
102
RTVSPost2010PropOp45
 70
     1
102
RTVSPost2010Prop46
 90
       50
102
RTVSPost2010PropOp46
 70
     1
102
RTVSPost2010Prop47
 90
       50
102
RTVSPost2010PropOp47
 70
     1
102
RTVSPost2010Prop48
 90
       50
102
RTVSPost2010PropOp48
 70
     1
102
RTVSPost2010Prop49
280
     0
102
RTVSPost2010PropOp49
 70
     1
102
RTVSPost2010Prop50
 90
       50
102
RTVSPost2010PropOp50
 70
     1
102
RTVSPost2010Prop51ColorIndex
 90
      256
102
RTVSPost2010Prop51ColorRGB
 90
-16777216
102
RTVSPost2010PropOp51
 70
     0
102
RTVSPost2010Prop52
140
1.0
102
RTVSPost2010PropOp52
 70
     0
102
RTVSPost2010Prop53
 90
        2
102
RTVSPost2010PropOp53
 70
     1
102
RTVSPost2010Prop54
  1
strokes_ogs.tif
102
RTVSPost2010PropOp54
 70
     1
102
RTVSPost2010Prop55
280
     0
102
RTVSPost2010PropOp55
 70
     1
102
RTVSPost2010Prop56
140
1.0
102
RTVSPost2010PropOp56
 70
     1
102
RTVSPost2010Prop57
140
1.0
102
RTVSPost2010PropOp57
 70
     1
102
RTVSPropertyOp0
 70
     1
102
RTVSPropertyOp1
 70
     1
102
RTVSPropertyOp2
 70
     1
102
RTVSPropertyOp3
 70
     1
102
RTVSPropertyOp4
 70
     1
102
RTVSPropertyOp5
 70
     1
102
RTVSPropertyOp6
 70
     1
102
RTVSPropertyOp7
 70
     1
102
RTVSPropertyOp8
 70
     1
102
RTVSPropertyOp9
 70
     1
102
RTVSPropertyOp10
 70
     1
102
RTVSPropertyOp11
 70
     1
102
RTVSPropertyOp12
 70
     1
102
RTVSPropertyOp13
 70
     1
102
RTVSPropertyOp14
 70
     1
102
RTVSPropertyOp15
 70
     1
102
RTVSPropertyOp16
 70
     1
102
RTVSPropertyOp17
 70
     1
102
RTVSPropertyOp18
 70
     1
102
RTVSPropertyOp19
 70
     1
102
RTVSPropertyOp20
 70
     1
102
RTVSPropertyOp21
 70
     1
102
RTVSPropertyOp22
 70
     1
102
RTVSPropertyOp23
 70
     1
102
RTVSPropertyOp24
 70
     1
102
RTVSPropertyOp25
 70
     1
102
RTVSPropertyOp26
 70
     1
102
RTVSPropertyOp27
 70
     1
102
RTVSPropertyOp28
 70
     1
102
RTVSPropertyOp29
 70
     1
102
RTVSPropertyOp30
 70
     1
102
RTVSPropertyOp31
 70
     1
102
RTVSPropertyOp32
 70
     1
102
RTVSPropertyOp33
 70
     1
102
RTVSPropertyOp34
 70
     1
102
RTVSPropertyOp35
 70
     1
102
RTVSPropertyOp36
 70
     1
102
RTVSPropertyOp37
 70
     1
102
RTVSPropertyOp38
 70
     1
102
RTVSPropertyOp39
 70
     1
102
RTVSPropertyOp40
 70
     1
102
RTVSPropertyOp41
 70
     1
102
RTVSPropertyOp42
 70
     1
102
RTVSPropertyOp43
 70
     1
102
RTVSPropertyOp44
 70
     1
102
RTVSPropertyOp45
 70
     1
102
RTVSPropertyOp46
 70
     1
102
RTVSPropertyOp47
 70
     1
102
RTVSPropertyOp48
 70
     1
102
RTVSPropertyOp49
 70
     1
102
RTVSPropertyOp50
 70
     1
102
RTVSPropertyOp51
 70
     0
102
RTVSPropertyOp52
 70
     0
102
RTVSPropertyOp53
 70
     1
102
RTVSPropertyOp54
 70
     1
102
RTVSPropertyOp55
 70
     1
102
RTVSPropertyOp56
 70
     1
102
RTVSPropertyOp57
 70
     1
102
RTVSPropertyOp58
 70
     1
102
RTVSPropertyOp59
 70
     1
102
RTVSPropertyOp60
 70
     1
102
RTVSPropertyOp61
 70
     1
102
RTVSPropertyOp62
 70
     1
  0
XRECORD
  5
84C6
102
{ACAD_REACTORS
330
84C5
102
}
330
84C5
100
AcDbXrecord
280
     1
102
RTVSPost2010Prop28
280
     0
102
RTVSPost2010PropOp28
 70
     1
102
RTVSPost2010Prop29
280
     1
102
RTVSPost2010PropOp29
 70
     1
102
RTVSPost2010Prop30
280
     1
102
RTVSPost2010PropOp30
 70
     1
102
RTVSPost2010Prop31
280
     0
102
RTVSPost2010PropOp31
 70
     1
102
RTVSPost2010Prop32
280
     0
102
RTVSPost2010PropOp32
 70
     1
102
RTVSPost2010Prop33
280
     0
102
RTVSPost2010PropOp33
 70
     1
102
RTVSPost2010Prop34
280
     0
102
RTVSPost2010PropOp34
 70
     1
102
RTVSPost2010Prop35
280
     0
102
RTVSPost2010PropOp35
 70
     1
102
RTVSPost2010Prop36
280
     0
102
RTVSPost2010PropOp36
 70
     1
102
RTVSPost2010Prop37
 90
       50
102
RTVSPost2010PropOp37
 70
     1
102
RTVSPost2010Prop38
140
0.0
102
RTVSPost2010PropOp38
 70
     1
102
RTVSPost2010Prop39
140
1.0
102
RTVSPost2010PropOp39
 70
     1
102
RTVSPost2010Prop40
 90
        0
102
RTVSPost2010PropOp40
 70
     1
102
RTVSPost2010Prop41ColorIndex
 90
       18
102
RTVSPost2010Prop41ColorRGB
 90
        0
102
RTVSPost2010PropOp41
 70
     1
102
RTVSPost2010Prop42
 90
       50
102
RTVSPost2010PropOp42
 70
     1
102
RTVSPost2010Prop43
 90
        3
102
RTVSPost2010PropOp43
 70
     1
102
RTVSPost2010Prop44ColorIndex
 90
        5
102
RTVSPost2010Prop44ColorRGB
 90
      255
102
RTVSPost2010PropOp44
 70
     1
102
RTVSPost2010Prop45
280
     0
102
RTVSPost2010PropOp45
 70
     1
102
RTVSPost2010Prop46
 90
       50
102
RTVSPost2010PropOp46
 70
     1
102
RTVSPost2010Prop47
 90
       50
102
RTVSPost2010PropOp47
 70
     1
102
RTVSPost2010Prop48
 90
       50
102
RTVSPost2010PropOp48
 70
     1
102
RTVSPost2010Prop49
280
     0
102
RTVSPost2010PropOp49
 70
     1
102
RTVSPost2010Prop50
 90
       50
102
RTVSPost2010PropOp50
 70
     1
102
RTVSPost2010Prop51ColorIndex
 90
      256
102
RTVSPost2010Prop51ColorRGB
 90
-16777216
102
RTVSPost2010PropOp51
 70
     0
102
RTVSPost2010Prop52
140
1.0
102
RTVSPost2010PropOp52
 70
     0
102
RTVSPost2010Prop53
 90
        2
102
RTVSPost2010PropOp53
 70
     1
102
RTVSPost2010Prop54
  1
strokes_ogs.tif
102
RTVSPost2010PropOp54
 70
     1
102
RTVSPost2010Prop55
280
     0
102
RTVSPost2010PropOp55
 70
     1
102
RTVSPost2010Prop56
140
1.0
102
RTVSPost2010PropOp56
 70
     1
102
RTVSPost2010Prop57
140
1.0
102
RTVSPost2010PropOp57
 70
     1
102
RTVSPropertyOp0
 70
     1
102
RTVSPropertyOp1
 70
     1
102
RTVSPropertyOp2
 70
     1
102
RTVSPropertyOp3
 70
     1
102
RTVSPropertyOp4
 70
     1
102
RTVSPropertyOp5
 70
     1
102
RTVSPropertyOp6
 70
     1
102
RTVSPropertyOp7
 70
     1
102
RTVSPropertyOp8
 70
     1
102
RTVSPropertyOp9
 70
     1
102
RTVSPropertyOp10
 70
     1
102
RTVSPropertyOp11
 70
     1
102
RTVSPropertyOp12
 70
     1
102
RTVSPropertyOp13
 70
     1
102
RTVSPropertyOp14
 70
     1
102
RTVSPropertyOp15
 70
     1
102
RTVSPropertyOp16
 70
     1
102
RTVSPropertyOp17
 70
     1
102
RTVSPropertyOp18
 70
     1
102
RTVSPropertyOp19
 70
     1
102
RTVSPropertyOp20
 70
     1
102
RTVSPropertyOp21
 70
     1
102
RTVSPropertyOp22
 70
     1
102
RTVSPropertyOp23
 70
     1
102
RTVSPropertyOp24
 70
     1
102
RTVSPropertyOp25
 70
     1
102
RTVSPropertyOp26
 70
     1
102
RTVSPropertyOp27
 70
     1
102
RTVSPropertyOp28
 70
     1
102
RTVSPropertyOp29
 70
     1
102
RTVSPropertyOp30
 70
     1
102
RTVSPropertyOp31
 70
     1
102
RTVSPropertyOp32
 70
     1
102
RTVSPropertyOp33
 70
     1
102
RTVSPropertyOp34
 70
     1
102
RTVSPropertyOp35
 70
     1
102
RTVSPropertyOp36
 70
     1
102
RTVSPropertyOp37
 70
     1
102
RTVSPropertyOp38
 70
     1
102
RTVSPropertyOp39
 70
     1
102
RTVSPropertyOp40
 70
     1
102
RTVSPropertyOp41
 70
     1
102
RTVSPropertyOp42
 70
     1
102
RTVSPropertyOp43
 70
     1
102
RTVSPropertyOp44
 70
     1
102
RTVSPropertyOp45
 70
     1
102
RTVSPropertyOp46
 70
     1
102
RTVSPropertyOp47
 70
     1
102
RTVSPropertyOp48
 70
     1
102
RTVSPropertyOp49
 70
     1
102
RTVSPropertyOp50
 70
     1
102
RTVSPropertyOp51
 70
     0
102
RTVSPropertyOp52
 70
     0
102
RTVSPropertyOp53
 70
     1
102
RTVSPropertyOp54
 70
     1
102
RTVSPropertyOp55
 70
     1
102
RTVSPropertyOp56
 70
     1
102
RTVSPropertyOp57
 70
     1
102
RTVSPropertyOp58
 70
     1
102
RTVSPropertyOp59
 70
     1
102
RTVSPropertyOp60
 70
     1
102
RTVSPropertyOp61
 70
     1
102
RTVSPropertyOp62
 70
     1
  0
XRECORD
  5
84DE
102
{ACAD_REACTORS
330
84DD
102
}
330
84DD
100
AcDbXrecord
280
     1
102
RTVSPost2010Prop28
280
     0
102
RTVSPost2010PropOp28
 70
     1
102
RTVSPost2010Prop29
280
     1
102
RTVSPost2010PropOp29
 70
     1
102
RTVSPost2010Prop30
280
     1
102
RTVSPost2010PropOp30
 70
     1
102
RTVSPost2010Prop31
280
     0
102
RTVSPost2010PropOp31
 70
     1
102
RTVSPost2010Prop32
280
     0
102
RTVSPost2010PropOp32
 70
     1
102
RTVSPost2010Prop33
280
     0
102
RTVSPost2010PropOp33
 70
     1
102
RTVSPost2010Prop34
280
     0
102
RTVSPost2010PropOp34
 70
     1
102
RTVSPost2010Prop35
280
     0
102
RTVSPost2010PropOp35
 70
     1
102
RTVSPost2010Prop36
280
     0
102
RTVSPost2010PropOp36
 70
     1
102
RTVSPost2010Prop37
 90
       50
102
RTVSPost2010PropOp37
 70
     1
102
RTVSPost2010Prop38
140
0.0
102
RTVSPost2010PropOp38
 70
     1
102
RTVSPost2010Prop39
140
1.0
102
RTVSPost2010PropOp39
 70
     1
102
RTVSPost2010Prop40
 90
        0
102
RTVSPost2010PropOp40
 70
     1
102
RTVSPost2010Prop41ColorIndex
 90
       18
102
RTVSPost2010Prop41ColorRGB
 90
        0
102
RTVSPost2010PropOp41
 70
     1
102
RTVSPost2010Prop42
 90
       50
102
RTVSPost2010PropOp42
 70
     1
102
RTVSPost2010Prop43
 90
        3
102
RTVSPost2010PropOp43
 70
     1
102
RTVSPost2010Prop44ColorIndex
 90
        5
102
RTVSPost2010Prop44ColorRGB
 90
      255
102
RTVSPost2010PropOp44
 70
     1
102
RTVSPost2010Prop45
280
     0
102
RTVSPost2010PropOp45
 70
     1
102
RTVSPost2010Prop46
 90
       50
102
RTVSPost2010PropOp46
 70
     1
102
RTVSPost2010Prop47
 90
       50
102
RTVSPost2010PropOp47
 70
     1
102
RTVSPost2010Prop48
 90
       50
102
RTVSPost2010PropOp48
 70
     1
102
RTVSPost2010Prop49
280
     0
102
RTVSPost2010PropOp49
 70
     1
102
RTVSPost2010Prop50
 90
       50
102
RTVSPost2010PropOp50
 70
     1
102
RTVSPost2010Prop51ColorIndex
 90
      256
102
RTVSPost2010Prop51ColorRGB
 90
-16777216
102
RTVSPost2010PropOp51
 70
     0
102
RTVSPost2010Prop52
140
1.0
102
RTVSPost2010PropOp52
 70
     0
102
RTVSPost2010Prop53
 90
        2
102
RTVSPost2010PropOp53
 70
     1
102
RTVSPost2010Prop54
  1
strokes_ogs.tif
102
RTVSPost2010PropOp54
 70
     1
102
RTVSPost2010Prop55
280
     0
102
RTVSPost2010PropOp55
 70
     1
102
RTVSPost2010Prop56
140
1.0
102
RTVSPost2010PropOp56
 70
     1
102
RTVSPost2010Prop57
140
1.0
102
RTVSPost2010PropOp57
 70
     1
102
RTVSPropertyOp0
 70
     1
102
RTVSPropertyOp1
 70
     1
102
RTVSPropertyOp2
 70
     1
102
RTVSPropertyOp3
 70
     1
102
RTVSPropertyOp4
 70
     1
102
RTVSPropertyOp5
 70
     1
102
RTVSPropertyOp6
 70
     1
102
RTVSPropertyOp7
 70
     1
102
RTVSPropertyOp8
 70
     1
102
RTVSPropertyOp9
 70
     1
102
RTVSPropertyOp10
 70
     1
102
RTVSPropertyOp11
 70
     1
102
RTVSPropertyOp12
 70
     1
102
RTVSPropertyOp13
 70
     1
102
RTVSPropertyOp14
 70
     1
102
RTVSPropertyOp15
 70
     1
102
RTVSPropertyOp16
 70
     1
102
RTVSPropertyOp17
 70
     1
102
RTVSPropertyOp18
 70
     1
102
RTVSPropertyOp19
 70
     1
102
RTVSPropertyOp20
 70
     1
102
RTVSPropertyOp21
 70
     1
102
RTVSPropertyOp22
 70
     1
102
RTVSPropertyOp23
 70
     1
102
RTVSPropertyOp24
 70
     1
102
RTVSPropertyOp25
 70
     1
102
RTVSPropertyOp26
 70
     1
102
RTVSPropertyOp27
 70
     1
102
RTVSPropertyOp28
 70
     1
102
RTVSPropertyOp29
 70
     1
102
RTVSPropertyOp30
 70
     1
102
RTVSPropertyOp31
 70
     1
102
RTVSPropertyOp32
 70
     1
102
RTVSPropertyOp33
 70
     1
102
RTVSPropertyOp34
 70
     1
102
RTVSPropertyOp35
 70
     1
102
RTVSPropertyOp36
 70
     1
102
RTVSPropertyOp37
 70
     1
102
RTVSPropertyOp38
 70
     1
102
RTVSPropertyOp39
 70
     1
102
RTVSPropertyOp40
 70
     1
102
RTVSPropertyOp41
 70
     1
102
RTVSPropertyOp42
 70
     1
102
RTVSPropertyOp43
 70
     1
102
RTVSPropertyOp44
 70
     1
102
RTVSPropertyOp45
 70
     1
102
RTVSPropertyOp46
 70
     1
102
RTVSPropertyOp47
 70
     1
102
RTVSPropertyOp48
 70
     1
102
RTVSPropertyOp49
 70
     1
102
RTVSPropertyOp50
 70
     1
102
RTVSPropertyOp51
 70
     0
102
RTVSPropertyOp52
 70
     0
102
RTVSPropertyOp53
 70
     1
102
RTVSPropertyOp54
 70
     1
102
RTVSPropertyOp55
 70
     1
102
RTVSPropertyOp56
 70
     1
102
RTVSPropertyOp57
 70
     1
102
RTVSPropertyOp58
 70
     1
102
RTVSPropertyOp59
 70
     1
102
RTVSPropertyOp60
 70
     1
102
RTVSPropertyOp61
 70
     1
102
RTVSPropertyOp62
 70
     1
  0
ENDSEC
  0
EOF
