  0
SECTION
  2
HEADER
  9
$ACADVER
  1
AC1015
  9
$ACADMAINTVER
 70
    20
  9
$DWGCODEPAGE
  3
ANSI_932
  9
$INSBASE
 10
0.0
 20
0.0
 30
0.0
  9
$EXTMIN
 10
-0.1922460740788665
 20
-0.2700599612071528
 30
-0.0015258207003583
  9
$EXTMAX
 10
6300.192275410744
 20
8850.270101172235
 30
0.0000000349246037
  9
$LIMMIN
 10
0.0
 20
0.0
  9
$LIMMAX
 10
297.0
 20
210.0
  9
$ORTHOMODE
 70
     1
  9
$REGENMODE
 70
     1
  9
$FILLMODE
 70
     0
  9
$QTEXTMODE
 70
     0
  9
$MIRRTEXT
 70
     1
  9
$LTSCALE
 40
100.0
  9
$ATTMODE
 70
     1
  9
$TEXTSIZE
 40
180.0
  9
$TRACEWID
 40
0.05
  9
$TEXTSTYLE
  7
STANDARD
  9
$CLAYER
  8
3
  9
$CELTYPE
  6
ByLayer
  9
$CECOLOR
 62
   256
  9
$CELTSCALE
 40
1.0
  9
$DISPSILH
 70
     0
  9
$DIMSCALE
 40
30.0
  9
$DIMASZ
 40
2.0
  9
$DIMEXO
 40
0.5
  9
$DIMDLI
 40
10.0
  9
$DIMRND
 40
0.0
  9
$DIMDLE
 40
0.0
  9
$DIMEXE
 40
1.0
  9
$DIMTP
 40
1.0
  9
$DIMTM
 40
1.0
  9
$DIMTXT
 40
3.0
  9
$DIMCEN
 40
0.0
  9
$DIMTSZ
 40
0.0
  9
$DIMTOL
 70
     0
  9
$DIMLIM
 70
     0
  9
$DIMTIH
 70
     0
  9
$DIMTOH
 70
     0
  9
$DIMSE1
 70
     0
  9
$DIMSE2
 70
     0
  9
$DIMTAD
 70
     1
  9
$DIMZIN
 70
     8
  9
$DIMBLK
  1

  9
$DIMASO
 70
     1
  9
$DIMSHO
 70
     1
  9
$DIMPOST
  1

  9
$DIMAPOST
  1

  9
$DIMALT
 70
     0
  9
$DIMALTD
 70
     2
  9
$DIMALTF
 40
0.039
  9
$DIMLFAC
 40
1.0
  9
$DIMTOFL
 70
     1
  9
$DIMTVP
 40
0.0
  9
$DIMTIX
 70
     0
  9
$DIMSOXD
 70
     0
  9
$DIMSAH
 70
     1
  9
$DIMBLK1
  1
OPEN
  9
$DIMBLK2
  1
OPEN
  9
$DIMSTYLE
  2
IGA
  9
$DIMCLRD
 70
     0
  9
$DIMCLRE
 70
     0
  9
$DIMCLRT
 70
     0
  9
$DIMTFAC
 40
10.0
  9
$DIMGAP
 40
1.0
  9
$DIMJUST
 70
     0
  9
$DIMSD1
 70
     0
  9
$DIMSD2
 70
     0
  9
$DIMTOLJ
 70
     1
  9
$DIMTZIN
 70
     0
  9
$DIMALTZ
 70
     0
  9
$DIMALTTZ
 70
     0
  9
$DIMUPT
 70
     0
  9
$DIMDEC
 70
     4
  9
$DIMTDEC
 70
     4
  9
$DIMALTU
 70
     2
  9
$DIMALTTD
 70
     2
  9
$DIMTXSTY
  7
STANDARD
  9
$DIMAUNIT
 70
     0
  9
$DIMADEC
 70
     0
  9
$DIMALTRND
 40
0.0
  9
$DIMAZIN
 70
     0
  9
$DIMDSEP
 70
    46
  9
$DIMATFIT
 70
     3
  9
$DIMFRAC
 70
     0
  9
$DIMLDRBLK
  1
OPEN
  9
$DIMLUNIT
 70
     2
  9
$DIMLWD
 70
    -2
  9
$DIMLWE
 70
    -2
  9
$DIMTMOVE
 70
     0
  9
$LUNITS
 70
     2
  9
$LUPREC
 70
     3
  9
$SKETCHINC
 40
0.1
  9
$FILLETRAD
 40
50.0
  9
$AUNITS
 70
     0
  9
$AUPREC
 70
     0
  9
$MENU
  1
acad
  9
$ELEVATION
 40
0.0
  9
$PELEVATION
 40
0.0
  9
$THICKNESS
 40
0.0
  9
$LIMCHECK
 70
     0
  9
$CHAMFERA
 40
0.5
  9
$CHAMFERB
 40
0.5
  9
$CHAMFERC
 40
0.0
  9
$CHAMFERD
 40
0.0
  9
$SKPOLY
 70
     0
  9
$TDCREATE
 40
2451389.493851273
  9
$TDUCREATE
 40
2451389.118851273
  9
$TDUPDATE
 40
2460270.731543912
  9
$TDUUPDATE
 40
2460270.356543912
  9
$TDINDWG
 40
1.1445679167
  9
$TDUSRTIMER
 40
1.1445676852
  9
$USRTIMER
 70
     1
  9
$ANGBASE
 50
0.0
  9
$ANGDIR
 70
     0
  9
$PDMODE
 70
     0
  9
$PDSIZE
 40
0.0
  9
$PLINEWID
 40
0.0
  9
$SPLFRAME
 70
     0
  9
$SPLINETYPE
 70
     6
  9
$SPLINESEGS
 70
     8
  9
$HANDSEED
  5
852F
  9
$SURFTAB1
 70
     6
  9
$SURFTAB2
 70
     6
  9
$SURFTYPE
 70
     6
  9
$SURFU
 70
     6
  9
$SURFV
 70
     6
  9
$UCSBASE
  2

  9
$UCSNAME
  2

  9
$UCSORG
 10
0.0
 20
0.0
 30
0.0
  9
$UCSXDIR
 10
1.0
 20
0.0
 30
0.0
  9
$UCSYDIR
 10
0.0
 20
1.0
 30
0.0
  9
$UCSORTHOREF
  2

  9
$UCSORTHOVIEW
 70
     0
  9
$UCSORGTOP
 10
0.0
 20
0.0
 30
0.0
  9
$UCSORGBOTTOM
 10
0.0
 20
0.0
 30
0.0
  9
$UCSORGLEFT
 10
0.0
 20
0.0
 30
0.0
  9
$UCSORGRIGHT
 10
0.0
 20
0.0
 30
0.0
  9
$UCSORGFRONT
 10
0.0
 20
0.0
 30
0.0
  9
$UCSORGBACK
 10
0.0
 20
0.0
 30
0.0
  9
$PUCSBASE
  2

  9
$PUCSNAME
  2

  9
$PUCSORG
 10
0.0
 20
0.0
 30
0.0
  9
$PUCSXDIR
 10
1.0
 20
0.0
 30
0.0
  9
$PUCSYDIR
 10
0.0
 20
1.0
 30
0.0
  9
$PUCSORTHOREF
  2

  9
$PUCSORTHOVIEW
 70
     0
  9
$PUCSORGTOP
 10
0.0
 20
0.0
 30
0.0
  9
$PUCSORGBOTTOM
 10
0.0
 20
0.0
 30
0.0
  9
$PUCSORGLEFT
 10
0.0
 20
0.0
 30
0.0
  9
$PUCSORGRIGHT
 10
0.0
 20
0.0
 30
0.0
  9
$PUCSORGFRONT
 10
0.0
 20
0.0
 30
0.0
  9
$PUCSORGBACK
 10
0.0
 20
0.0
 30
0.0
  9
$USERI1
 70
     0
  9
$USERI2
 70
     0
  9
$USERI3
 70
     0
  9
$USERI4
 70
     0
  9
$USERI5
 70
     0
  9
$USERR1
 40
0.0
  9
$USERR2
 40
0.0
  9
$USERR3
 40
0.0
  9
$USERR4
 40
0.0
  9
$USERR5
 40
0.0
  9
$WORLDVIEW
 70
     1
  9
$SHADEDGE
 70
     3
  9
$SHADEDIF
 70
    70
  9
$TILEMODE
 70
     1
  9
$MAXACTVP
 70
    16
  9
$PINSBASE
 10
0.0
 20
0.0
 30
0.0
  9
$PLIMCHECK
 70
     0
  9
$PEXTMIN
 10
1.000000000000000E+20
 20
1.000000000000000E+20
 30
1.000000000000000E+20
  9
$PEXTMAX
 10
-1.000000000000000E+20
 20
-1.000000000000000E+20
 30
-1.000000000000000E+20
  9
$PLIMMIN
 10
0.0
 20
0.0
  9
$PLIMMAX
 10
12.0
 20
9.0
  9
$UNITMODE
 70
     0
  9
$VISRETAIN
 70
     0
  9
$PLINEGEN
 70
     0
  9
$PSLTSCALE
 70
     1
  9
$TREEDEPTH
 70
  3020
  9
$CMLSTYLE
  2
Standard
  9
$CMLJUST
 70
     0
  9
$CMLSCALE
 40
1.0
  9
$PROXYGRAPHICS
 70
     1
  9
$MEASUREMENT
 70
     0
  9
$CELWEIGHT
370
    -1
  9
$ENDCAPS
280
     0
  9
$JOINSTYLE
280
     0
  9
$LWDISPLAY
290
     0
  9
$INSUNITS
 70
     0
  9
$HYPERLINKBASE
  1

  9
$STYLESHEET
  1

  9
$XEDIT
290
     1
  9
$CEPSNTYPE
380
     0
  9
$PSTYLEMODE
290
     1
  9
$FINGERPRINTGUID
  2
{654E8B95-D8C0-46A9-BBC9-3CC7EC84DCB7}
  9
$VERSIONGUID
  2
{87846807-26B5-432A-BAEC-7E04BA059E8C}
  9
$EXTNAMES
290
     1
  9
$PSVPSCALE
 40
0.0
  9
$OLESTARTUP
290
     0
  0
ENDSEC
  0
SECTION
  2
CLASSES
  0
CLASS
  1
ACDBDICTIONARYWDFLT
  2
AcDbDictionaryWithDefault
  3
ObjectDBX Classes
 90
        0
280
     0
281
     0
  0
CLASS
  1
MATERIAL
  2
AcDbMaterial
  3
ObjectDBX Classes
 90
     1153
280
     0
281
     0
  0
CLASS
  1
VISUALSTYLE
  2
AcDbVisualStyle
  3
ObjectDBX Classes
 90
     4095
280
     0
281
     0
  0
CLASS
  1
SCALE
  2
AcDbScale
  3
ObjectDBX Classes
 90
     1153
280
     0
281
     0
  0
CLASS
  1
TABLESTYLE
  2
AcDbTableStyle
  3
ObjectDBX Classes
 90
     4095
280
     0
281
     0
  0
CLASS
  1
MLEADERSTYLE
  2
AcDbMLeaderStyle
  3
ACDB_MLEADERSTYLE_CLASS
 90
     4095
280
     0
281
     0
  0
CLASS
  1
ACDBSECTIONVIEWSTYLE
  2
AcDbSectionViewStyle
  3
ObjectDBX Classes
 90
     1025
280
     0
281
     0
  0
CLASS
  1
ACDBDETAILVIEWSTYLE
  2
AcDbDetailViewStyle
  3
ObjectDBX Classes
 90
     1025
280
     0
281
     0
  0
CLASS
  1
DICTIONARYVAR
  2
AcDbDictionaryVar
  3
ObjectDBX Classes
 90
        0
280
     0
281
     0
  0
CLASS
  1
CELLSTYLEMAP
  2
AcDbCellStyleMap
  3
ObjectDBX Classes
 90
     1152
280
     0
281
     0
  0
CLASS
  1
ACDBPLACEHOLDER
  2
AcDbPlaceHolder
  3
ObjectDBX Classes
 90
        0
280
     0
281
     0
  0
CLASS
  1
LAYOUT
  2
AcDbLayout
  3
ObjectDBX Classes
 90
        0
280
     0
281
     0
  0
ENDSEC
  0
SECTION
  2
TABLES
  0
TABLE
  2
VPORT
  5
8189
330
0
100
AcDbSymbolTable
 70
     1
  0
VPORT
  5
81F5
330
8189
100
AcDbSymbolTableRecord
100
AcDbViewportTableRecord
  2
*ACTIVE
 70
     0
 10
0.0
 20
0.0
 11
1.0
 21
1.0
 12
3150.000014668333
 22
4425.000020605512
 13
0.0
 23
0.0
 14
10.0
 24
10.0
 15
10.0
 25
10.0
 16
0.0
 26
0.0
 36
1.0
 17
0.0
 27
0.0
 37
0.0
 40
8923.786010742821
 41
2.62292817679558
 42
50.0
 43
0.0
 44
0.0
 50
0.0
 51
0.0
 71
     0
 72
   100
 73
     1
 74
     0
 75
     0
 76
     0
 77
     0
 78
     0
281
     0
 65
     1
110
0.0
120
0.0
130
0.0
111
1.0
121
0.0
131
0.0
112
0.0
122
1.0
132
0.0
 79
     0
146
0.0
1001
ACAD_NAV_VCDISPLAY
1070
     3
  0
ENDTAB
  0
TABLE
  2
LTYPE
  5
8186
330
0
100
AcDbSymbolTable
 70
     3
  0
LTYPE
  5
81DB
330
8186
100
AcDbSymbolTableRecord
100
AcDbLinetypeTableRecord
  2
ByBlock
 70
     0
  3

 72
    65
 73
     0
 40
0.0
  0
LTYPE
  5
81DC
330
8186
100
AcDbSymbolTableRecord
100
AcDbLinetypeTableRecord
  2
ByLayer
 70
     0
  3

 72
    65
 73
     0
 40
0.0
  0
LTYPE
  5
81DD
330
8186
100
AcDbSymbolTableRecord
100
AcDbLinetypeTableRecord
  2
CONTINUOUS
 70
     0
  3
Solid line
 72
    65
 73
     0
 40
0.0
  0
LTYPE
  5
81F6
330
8186
100
AcDbSymbolTableRecord
100
AcDbLinetypeTableRecord
  2
CENTER
 70
     0
  3
____ _ ____ _ ____ _ ____ _ ____ _ ____ _ ____ 
 72
    65
 73
     4
 40
2.0
 49
1.25
 74
     0
 49
-0.25
 74
     0
 49
0.25
 74
     0
 49
-0.25
 74
     0
  0
ENDTAB
  0
TABLE
  2
LAYER
  5
8183
330
0
100
AcDbSymbolTable
 70
     6
  0
LAYER
  5
81D5
102
{ACAD_XDICTIONARY
360
8486
102
}
330
8183
100
AcDbSymbolTableRecord
100
AcDbLayerTableRecord
  2
0
 70
     0
 62
     7
  6
CONTINUOUS
370
    -3
390
8190
  0
LAYER
  5
81F4
102
{ACAD_XDICTIONARY
360
8488
102
}
330
8183
100
AcDbSymbolTableRecord
100
AcDbLayerTableRecord
  2
3
 70
     0
 62
     2
  6
CONTINUOUS
370
    -3
390
8190
  0
LAYER
  5
81F7
102
{ACAD_XDICTIONARY
360
848A
102
}
330
8183
100
AcDbSymbolTableRecord
100
AcDbLayerTableRecord
  2
2
 70
     0
 62
     3
  6
CENTER
370
    -3
390
8190
  0
LAYER
  5
81F8
102
{ACAD_XDICTIONARY
360
848C
102
}
330
8183
100
AcDbSymbolTableRecord
100
AcDbLayerTableRecord
  2
1
 70
     0
 62
     4
  6
CONTINUOUS
370
    -3
390
8190
  0
LAYER
  5
81F9
102
{ACAD_XDICTIONARY
360
848E
102
}
330
8183
100
AcDbSymbolTableRecord
100
AcDbLayerTableRecord
  2
4
 70
     0
 62
     7
  6
CONTINUOUS
370
    -3
390
8190
  0
LAYER
  5
81FA
330
8183
100
AcDbSymbolTableRecord
100
AcDbLayerTableRecord
  2
DEFPOINTS
 70
     0
 62
     7
  6
CONTINUOUS
290
     0
370
    -3
390
8190
  0
ENDTAB
  0
TABLE
  2
STYLE
  5
8184
330
0
100
AcDbSymbolTable
 70
     2
  0
STYLE
  5
81D6
330
8184
100
AcDbSymbolTableRecord
100
AcDbTextStyleTableRecord
  2
STANDARD
 70
     0
 40
0.0
 41
1.0
 50
0.0
 71
     0
 42
180.0
  3
simplex.shx
  4
extfont.shx
  0
STYLE
  5
81DA
330
8184
100
AcDbSymbolTableRecord
100
AcDbTextStyleTableRecord
  2
Annotative
 70
     0
 40
0.0
 41
1.0
 50
0.0
 71
     0
 42
0.2
  3
txt
  4

1001
AcadAnnotative
1000
AnnotativeData
1002
{
1070
     1
1070
     1
1002
}
  0
ENDTAB
  0
TABLE
  2
VIEW
  5
8187
330
0
100
AcDbSymbolTable
 70
     0
  0
ENDTAB
  0
TABLE
  2
UCS
  5
8188
330
0
100
AcDbSymbolTable
 70
     0
  0
ENDTAB
  0
TABLE
  2
APPID
  5
818A
330
0
100
AcDbSymbolTable
 70
     8
  0
APPID
  5
81D7
330
818A
100
AcDbSymbolTableRecord
100
AcDbRegAppTableRecord
  2
ACAD
 70
     0
  0
APPID
  5
81DE
330
818A
100
AcDbSymbolTableRecord
100
AcDbRegAppTableRecord
  2
AcadAnnotative
 70
     0
  0
APPID
  5
82C1
330
818A
100
AcDbSymbolTableRecord
100
AcDbRegAppTableRecord
  2
ACAD_DSTYLE_DIMJAG
 70
     0
  0
APPID
  5
82C2
330
818A
100
AcDbSymbolTableRecord
100
AcDbRegAppTableRecord
  2
ACAD_DSTYLE_DIMTALN
 70
     0
  0
APPID
  5
835A
330
818A
100
AcDbSymbolTableRecord
100
AcDbRegAppTableRecord
  2
AcadAnnoMonitorAlertIconDisabled
 70
     0
  0
APPID
  5
835B
330
818A
100
AcDbSymbolTableRecord
100
AcDbRegAppTableRecord
  2
ACAD_EXEMPT_FROM_CAD_STANDARDS
 70
     0
  0
APPID
  5
849A
330
818A
100
AcDbSymbolTableRecord
100
AcDbRegAppTableRecord
  2
ACAD_NAV_VCDISPLAY
 70
     0
  0
APPID
  5
8526
330
818A
100
AcDbSymbolTableRecord
100
AcDbRegAppTableRecord
  2
ACAD_MLEADERVER
 70
     0
  0
ENDTAB
  0
TABLE
  2
DIMSTYLE
  5
818B
330
0
100
AcDbSymbolTable
 70
     4
100
AcDbDimStyleTable
 71
     1
340
81FB
  0
DIMSTYLE
105
81D8
102
{ACAD_REACTORS
330
7C96
330
7C97
330
7C9D
330
7C9E
330
7CDC
330
7CE7
330
7CE8
330
7CE9
330
7CEB
330
7CEC
330
7CF3
102
}
330
818B
100
AcDbSymbolTableRecord
100
AcDbDimStyleTableRecord
  2
Standard
 70
     0
340
81D6
  0
DIMSTYLE
105
81D9
330
818B
100
AcDbSymbolTableRecord
100
AcDbDimStyleTableRecord
  2
Annotative
 70
     0
340
81D6
1001
AcadAnnotative
1000
AnnotativeData
1002
{
1070
     1
1070
     1
1002
}
  0
DIMSTYLE
105
81FB
102
{ACAD_REACTORS
330
823B
330
8248
330
82C3
330
82D0
330
82DD
330
82EA
330
8304
330
8311
330
831E
330
8330
330
8342
102
}
330
818B
100
AcDbSymbolTableRecord
100
AcDbDimStyleTableRecord
  2
IGA
 70
     0
 40
2.0
 41
2.0
 42
0.5
 43
10.0
 44
1.0
 47
1.0
 48
1.0
 73
     0
 74
     0
 77
     1
 78
     8
140
3.0
141
0.0
143
0.03937
146
10.0
147
1.0
173
     1
271
     3
272
     3
279
     2
284
     8
285
     8
286
     8
340
81D6
  0
DIMSTYLE
105
81FC
330
818B
100
AcDbSymbolTableRecord
100
AcDbDimStyleTableRecord
  2
MATSU
 70
     0
 41
2.0
 42
1.0
 43
10.0
 44
1.0
 73
     0
 74
     0
 77
     1
 78
     8
140
3.0
141
0.0
143
0.03937
147
0.5
172
     1
173
     1
176
   256
177
   256
178
   256
271
     3
272
     3
279
     2
284
     8
285
     8
286
     8
340
81D6
  0
ENDTAB
  0
TABLE
  2
BLOCK_RECORD
  5
8182
330
0
100
AcDbSymbolTable
 70
    49
  0
BLOCK_RECORD
  5
81F0
330
8182
100
AcDbSymbolTableRecord
100
AcDbBlockTableRecord
  2
*Model_Space
340
81F3
  0
BLOCK_RECORD
  5
81EC
330
8182
100
AcDbSymbolTableRecord
100
AcDbBlockTableRecord
  2
*Paper_Space
340
81EF
  0
BLOCK_RECORD
  5
8200
330
8182
100
AcDbSymbolTableRecord
100
AcDbBlockTableRecord
  2
$MODEL_SPACE
340
0
  0
BLOCK_RECORD
  5
8202
330
8182
100
AcDbSymbolTableRecord
100
AcDbBlockTableRecord
  2
$PAPER_SPACE
340
0
  0
BLOCK_RECORD
  5
8204
330
8182
100
AcDbSymbolTableRecord
100
AcDbBlockTableRecord
  2
_OPEN
340
0
102
{BLKREFS
331
7EE7
331
7EE8
331
7EF2
331
7EF3
331
7EFD
331
7EFE
331
7F08
331
7F09
331
7F13
331
7F14
331
7F1E
331
7F1F
331
8174
331
7F4E
331
7F4F
331
807F
331
8080
331
808C
331
808D
331
8099
331
809A
331
80A6
331
80A7
331
810F
331
837C
331
837D
331
83A9
331
83AA
331
7E4D
331
7E4E
331
7E58
331
7E59
331
7E63
331
7E64
331
7E6E
331
7E6F
331
7E79
331
7E7A
331
7EC6
331
7EC7
331
8067
331
8068
331
82F1
331
82F2
331
830B
331
830C
331
805C
331
805D
331
8110
331
82CA
331
82CB
331
82D7
331
82D8
331
82E4
331
82E5
331
841D
331
8482
331
84DF
331
84E0
331
84E8
331
84E9
102
}
  0
BLOCK_RECORD
  5
8206
330
8182
100
AcDbSymbolTableRecord
100
AcDbBlockTableRecord
  2
YA_N
340
0
102
{BLKREFS
331
7C33
331
7C51
331
7C53
331
7CC0
102
}
  0
BLOCK_RECORD
  5
8208
330
8182
100
AcDbSymbolTableRecord
100
AcDbBlockTableRecord
  2
*D4
340
0
  0
BLOCK_RECORD
  5
820A
330
8182
100
AcDbSymbolTableRecord
100
AcDbBlockTableRecord
  2
*D5
340
0
  0
BLOCK_RECORD
  5
820C
330
8182
100
AcDbSymbolTableRecord
100
AcDbBlockTableRecord
  2
*D6
340
0
  0
BLOCK_RECORD
  5
820E
330
8182
100
AcDbSymbolTableRecord
100
AcDbBlockTableRecord
  2
*D7
340
0
  0
BLOCK_RECORD
  5
8210
330
8182
100
AcDbSymbolTableRecord
100
AcDbBlockTableRecord
  2
*D8
340
0
  0
BLOCK_RECORD
  5
8212
330
8182
100
AcDbSymbolTableRecord
100
AcDbBlockTableRecord
  2
*D9
340
0
  0
BLOCK_RECORD
  5
8214
330
8182
100
AcDbSymbolTableRecord
100
AcDbBlockTableRecord
  2
*D10
340
0
  0
BLOCK_RECORD
  5
8216
330
8182
100
AcDbSymbolTableRecord
100
AcDbBlockTableRecord
  2
*U11
340
0
102
{BLKREFS
331
8069
102
}
  0
BLOCK_RECORD
  5
8217
330
8182
100
AcDbSymbolTableRecord
100
AcDbBlockTableRecord
  2
*D12
340
0
  0
BLOCK_RECORD
  5
8219
330
8182
100
AcDbSymbolTableRecord
100
AcDbBlockTableRecord
  2
*D13
340
0
  0
BLOCK_RECORD
  5
821B
330
8182
100
AcDbSymbolTableRecord
100
AcDbBlockTableRecord
  2
*D14
340
0
  0
BLOCK_RECORD
  5
821D
330
8182
100
AcDbSymbolTableRecord
100
AcDbBlockTableRecord
  2
*D15
340
0
  0
BLOCK_RECORD
  5
821F
330
8182
100
AcDbSymbolTableRecord
100
AcDbBlockTableRecord
  2
*D16
340
0
  0
BLOCK_RECORD
  5
8221
330
8182
100
AcDbSymbolTableRecord
100
AcDbBlockTableRecord
  2
*D17
340
0
  0
BLOCK_RECORD
  5
8223
330
8182
100
AcDbSymbolTableRecord
100
AcDbBlockTableRecord
  2
*D18
340
0
  0
BLOCK_RECORD
  5
8225
330
8182
100
AcDbSymbolTableRecord
100
AcDbBlockTableRecord
  2
*D19
340
0
  0
BLOCK_RECORD
  5
8227
330
8182
100
AcDbSymbolTableRecord
100
AcDbBlockTableRecord
  2
_DOT
340
0
102
{BLKREFS
331
8173
102
}
  0
BLOCK_RECORD
  5
8228
330
8182
100
AcDbSymbolTableRecord
100
AcDbBlockTableRecord
  2
*D21
340
0
  0
BLOCK_RECORD
  5
822B
330
8182
100
AcDbSymbolTableRecord
100
AcDbBlockTableRecord
  2
*D22
340
0
  0
BLOCK_RECORD
  5
822D
330
8182
100
AcDbSymbolTableRecord
100
AcDbBlockTableRecord
  2
*D23
340
0
  0
BLOCK_RECORD
  5
822F
330
8182
100
AcDbSymbolTableRecord
100
AcDbBlockTableRecord
  2
*D24
340
0
  0
BLOCK_RECORD
  5
8231
330
8182
100
AcDbSymbolTableRecord
100
AcDbBlockTableRecord
  2
*D25
340
0
  0
BLOCK_RECORD
  5
8233
330
8182
100
AcDbSymbolTableRecord
100
AcDbBlockTableRecord
  2
_NONE
340
0
  0
BLOCK_RECORD
  5
8235
330
8182
100
AcDbSymbolTableRecord
100
AcDbBlockTableRecord
  2
*D27
340
0
  0
BLOCK_RECORD
  5
8237
330
8182
100
AcDbSymbolTableRecord
100
AcDbBlockTableRecord
  2
*D28
340
0
  0
BLOCK_RECORD
  5
823C
330
8182
100
AcDbSymbolTableRecord
100
AcDbBlockTableRecord
  2
*D29
340
0
  0
BLOCK_RECORD
  5
8249
330
8182
100
AcDbSymbolTableRecord
100
AcDbBlockTableRecord
  2
*D30
340
0
  0
BLOCK_RECORD
  5
8267
330
8182
100
AcDbSymbolTableRecord
100
AcDbBlockTableRecord
  2
*D31
340
0
  0
BLOCK_RECORD
  5
8274
330
8182
100
AcDbSymbolTableRecord
100
AcDbBlockTableRecord
  2
*D32
340
0
  0
BLOCK_RECORD
  5
8281
330
8182
100
AcDbSymbolTableRecord
100
AcDbBlockTableRecord
  2
*D33
340
0
  0
BLOCK_RECORD
  5
828E
330
8182
100
AcDbSymbolTableRecord
100
AcDbBlockTableRecord
  2
*D34
340
0
  0
BLOCK_RECORD
  5
829B
330
8182
100
AcDbSymbolTableRecord
100
AcDbBlockTableRecord
  2
*D35
340
0
  0
BLOCK_RECORD
  5
82A6
330
8182
100
AcDbSymbolTableRecord
100
AcDbBlockTableRecord
  2
*D36
340
0
  0
BLOCK_RECORD
  5
82B3
330
8182
100
AcDbSymbolTableRecord
100
AcDbBlockTableRecord
  2
*D37
340
0
  0
BLOCK_RECORD
  5
82C4
330
8182
100
AcDbSymbolTableRecord
100
AcDbBlockTableRecord
  2
*D38
340
0
  0
BLOCK_RECORD
  5
82D1
330
8182
100
AcDbSymbolTableRecord
100
AcDbBlockTableRecord
  2
*D39
340
0
  0
BLOCK_RECORD
  5
82DE
330
8182
100
AcDbSymbolTableRecord
100
AcDbBlockTableRecord
  2
*D40
340
0
  0
BLOCK_RECORD
  5
82EB
330
8182
100
AcDbSymbolTableRecord
100
AcDbBlockTableRecord
  2
*D41
340
0
  0
BLOCK_RECORD
  5
82F7
330
8182
100
AcDbSymbolTableRecord
100
AcDbBlockTableRecord
  2
*D42
340
0
  0
BLOCK_RECORD
  5
8305
330
8182
100
AcDbSymbolTableRecord
100
AcDbBlockTableRecord
  2
*D43
340
0
  0
BLOCK_RECORD
  5
8312
330
8182
100
AcDbSymbolTableRecord
100
AcDbBlockTableRecord
  2
*D44
340
0
  0
BLOCK_RECORD
  5
831F
330
8182
100
AcDbSymbolTableRecord
100
AcDbBlockTableRecord
  2
*D45
340
0
  0
BLOCK_RECORD
  5
8331
330
8182
100
AcDbSymbolTableRecord
100
AcDbBlockTableRecord
  2
*D46
340
0
  0
BLOCK_RECORD
  5
8343
330
8182
100
AcDbSymbolTableRecord
100
AcDbBlockTableRecord
  2
*D47
340
0
  0
BLOCK_RECORD
  5
8410
330
8182
100
AcDbSymbolTableRecord
100
AcDbBlockTableRecord
  2
_DotSmall
340
0
102
{BLKREFS
331
841E
331
8481
102
}
  0
ENDTAB
  0
ENDSEC
  0
SECTION
  2
BLOCKS
  0
BLOCK
  5
81F1
330
81F0
100
AcDbEntity
  8
0
100
AcDbBlockBegin
  2
*Model_Space
 70
     0
 10
0.0
 20
0.0
 30
0.0
  3
*Model_Space
  1

  0
ENDBLK
  5
81F2
330
81F0
100
AcDbEntity
  8
0
100
AcDbBlockEnd
  0
BLOCK
  5
81ED
330
81EC
100
AcDbEntity
 67
     1
  8
0
100
AcDbBlockBegin
  2
*Paper_Space
 70
     0
 10
0.0
 20
0.0
 30
0.0
  3
*Paper_Space
  1

  0
ENDBLK
  5
81EE
330
81EC
100
AcDbEntity
 67
     1
  8
0
100
AcDbBlockEnd
  0
BLOCK
  5
8201
330
8200
100
AcDbEntity
  8
0
100
AcDbBlockBegin
  2
$MODEL_SPACE
 70
     0
 10
0.0
 20
0.0
 30
0.0
  3
$MODEL_SPACE
  1

  0
ENDBLK
  5
1B
330
8200
100
AcDbEntity
  8
0
100
AcDbBlockEnd
  0
BLOCK
  5
8203
330
8202
100
AcDbEntity
  8
0
100
AcDbBlockBegin
  2
$PAPER_SPACE
 70
     0
 10
0.0
 20
0.0
 30
0.0
  3
$PAPER_SPACE
  1

  0
ENDBLK
  5
18
330
8202
100
AcDbEntity
  8
0
100
AcDbBlockEnd
  0
BLOCK
  5
8205
330
8204
100
AcDbEntity
  8
0
100
AcDbBlockBegin
  2
_OPEN
 70
     0
 10
0.0
 20
0.0
 30
0.0
  3
_OPEN
  1

  0
LINE
  5
79FD
330
8204
100
AcDbEntity
  8
0
  6
ByBlock
 62
     0
100
AcDbLine
 10
-1.0
 20
0.1666666666666666
 30
0.0
 11
0.0
 21
0.0
 31
0.0
  0
LINE
  5
79FE
330
8204
100
AcDbEntity
  8
0
  6
ByBlock
 62
     0
100
AcDbLine
 10
0.0
 20
0.0
 30
0.0
 11
-1.0
 21
-0.1666666666666666
 31
0.0
  0
LINE
  5
79FF
330
8204
100
AcDbEntity
  8
0
  6
ByBlock
 62
     0
100
AcDbLine
 10
0.0
 20
0.0
 30
0.0
 11
-1.0
 21
0.0
 31
0.0
  0
ENDBLK
  5
7A01
330
8204
100
AcDbEntity
  8
0
100
AcDbBlockEnd
  0
BLOCK
  5
8207
330
8206
100
AcDbEntity
  8
0
100
AcDbBlockBegin
  2
YA_N
 70
     0
 10
0.0
 20
0.0
 30
0.0
  3
YA_N
  1

  0
ENDBLK
  5
7A0C
330
8206
100
AcDbEntity
  8
0
100
AcDbBlockEnd
  0
BLOCK
  5
8209
330
8208
100
AcDbEntity
  8
0
100
AcDbBlockBegin
  2
*D4
 70
     1
 10
0.0
 20
0.0
 30
0.0
  3
*D4
  1

  0
LINE
  5
7E4A
330
8208
100
AcDbEntity
  8
0
  6
ByBlock
100
AcDbLine
 10
-585.0011226335136
 20
1241.178095414463
 30
0.0
 11
-734.616231076725
 21
1241.178095414463
 31
0.0
  0
LINE
  5
7E4B
330
8208
100
AcDbEntity
  8
0
  6
ByBlock
100
AcDbLine
 10
-585.0011226335136
 20
316.1780954144632
 30
0.0
 11
-734.616231076725
 21
316.1780954144632
 31
0.0
  0
LINE
  5
7E4C
330
8208
100
AcDbEntity
  8
0
  6
ByBlock
100
AcDbLine
 10
-704.616231076725
 20
1181.178095414463
 30
0.0
 11
-704.616231076725
 21
376.1780954144632
 31
0.0
  0
INSERT
  5
7E4D
330
8208
100
AcDbEntity
  8
0
  6
ByBlock
100
AcDbBlockReference
  2
_OPEN
 10
-704.616231076725
 20
1241.178095414463
 30
0.0
 41
60.0
 42
60.0
 43
60.0
 50
90.0
  0
INSERT
  5
7E4E
330
8208
100
AcDbEntity
  8
0
  6
ByBlock
100
AcDbBlockReference
  2
_OPEN
 10
-704.616231076725
 20
316.1780954144632
 30
0.0
 41
60.0
 42
60.0
 43
60.0
 50
270.0
  0
TEXT
  5
7E4F
330
8208
100
AcDbEntity
  8
3
100
AcDbText
 10
-719.616231076725
 20
662.9638097001776
 30
0.0
 40
90.0
  1
925
 50
90.0
100
AcDbText
  0
POINT
  5
7E50
330
8208
100
AcDbEntity
  8
DEFPOINTS
  6
ByBlock
 62
     0
100
AcDbPoint
 10
-555.0011226335136
 20
1241.178095414463
 30
0.0
  0
POINT
  5
7E51
330
8208
100
AcDbEntity
  8
DEFPOINTS
  6
ByBlock
 62
     0
100
AcDbPoint
 10
-555.0011226335136
 20
316.1780954144632
 30
0.0
  0
POINT
  5
7E52
330
8208
100
AcDbEntity
  8
DEFPOINTS
  6
ByBlock
 62
     0
100
AcDbPoint
 10
-704.616231076725
 20
316.1780954144632
 30
0.0
  0
ENDBLK
  5
7E53
330
8208
100
AcDbEntity
  8
0
100
AcDbBlockEnd
  0
BLOCK
  5
820B
330
820A
100
AcDbEntity
  8
0
100
AcDbBlockBegin
  2
*D5
 70
     1
 10
0.0
 20
0.0
 30
0.0
  3
*D5
  1

  0
LINE
  5
7E55
330
820A
100
AcDbEntity
  8
0
  6
ByBlock
100
AcDbLine
 10
-585.0011226335136
 20
1241.178095414463
 30
0.0
 11
-884.9595311745868
 21
1241.178095414463
 31
0.0
  0
LINE
  5
7E56
330
820A
100
AcDbEntity
  8
0
  6
ByBlock
100
AcDbLine
 10
-621.2564614120601
 20
280.1780954144632
 30
0.0
 11
-884.9595311745868
 21
280.1780954144632
 31
0.0
  0
LINE
  5
7E57
330
820A
100
AcDbEntity
  8
0
  6
ByBlock
100
AcDbLine
 10
-854.959531174587
 20
1181.178095414463
 30
0.0
 11
-854.959531174587
 21
340.1780954144633
 31
0.0
  0
INSERT
  5
7E58
330
820A
100
AcDbEntity
  8
0
  6
ByBlock
100
AcDbBlockReference
  2
_OPEN
 10
-854.959531174587
 20
1241.178095414463
 30
0.0
 41
60.0
 42
60.0
 43
60.0
 50
90.0
  0
INSERT
  5
7E59
330
820A
100
AcDbEntity
  8
0
  6
ByBlock
100
AcDbBlockReference
  2
_OPEN
 10
-854.959531174587
 20
280.1780954144632
 30
0.0
 41
60.0
 42
60.0
 43
60.0
 50
270.0
  0
TEXT
  5
7E5A
330
820A
100
AcDbEntity
  8
3
100
AcDbText
 10
-869.9595311745868
 20
664.2495239858917
 30
0.0
 40
90.0
  1
961
 50
90.0
100
AcDbText
  0
POINT
  5
7E5B
330
820A
100
AcDbEntity
  8
DEFPOINTS
  6
ByBlock
 62
     0
100
AcDbPoint
 10
-555.0011226335136
 20
1241.178095414463
 30
0.0
  0
POINT
  5
7E5C
330
820A
100
AcDbEntity
  8
DEFPOINTS
  6
ByBlock
 62
     0
100
AcDbPoint
 10
-591.25646141206
 20
280.1780954144632
 30
0.0
  0
POINT
  5
7E5D
330
820A
100
AcDbEntity
  8
DEFPOINTS
  6
ByBlock
 62
     0
100
AcDbPoint
 10
-854.959531174587
 20
280.1780954144632
 30
0.0
  0
ENDBLK
  5
7E5E
330
820A
100
AcDbEntity
  8
0
100
AcDbBlockEnd
  0
BLOCK
  5
820D
330
820C
100
AcDbEntity
  8
0
100
AcDbBlockBegin
  2
*D6
 70
     1
 10
0.0
 20
0.0
 30
0.0
  3
*D6
  1

  0
LINE
  5
7E60
330
820C
100
AcDbEntity
  8
0
  6
ByBlock
100
AcDbLine
 10
-621.2564614120601
 20
280.1780954144632
 30
0.0
 11
-884.9595311745868
 21
280.1780954144632
 31
0.0
  0
LINE
  5
7E61
330
820C
100
AcDbEntity
  8
0
  6
ByBlock
100
AcDbLine
 10
-525.0011226335153
 20
-399.8219045855366
 30
0.0
 11
-884.9595311745868
 21
-399.8219045855366
 31
0.0
  0
LINE
  5
7E62
330
820C
100
AcDbEntity
  8
0
  6
ByBlock
100
AcDbLine
 10
-854.959531174587
 20
220.1780954144633
 30
0.0
 11
-854.959531174587
 21
-339.8219045855366
 31
0.0
  0
INSERT
  5
7E63
330
820C
100
AcDbEntity
  8
0
  6
ByBlock
100
AcDbBlockReference
  2
_OPEN
 10
-854.959531174587
 20
280.1780954144632
 30
0.0
 41
60.0
 42
60.0
 43
60.0
 50
90.0
  0
INSERT
  5
7E64
330
820C
100
AcDbEntity
  8
0
  6
ByBlock
100
AcDbBlockReference
  2
_OPEN
 10
-854.959531174587
 20
-399.8219045855366
 30
0.0
 41
60.0
 42
60.0
 43
60.0
 50
270.0
  0
TEXT
  5
7E65
330
820C
100
AcDbEntity
  8
3
100
AcDbText
 10
-869.9595311745868
 20
-175.5361902998222
 30
0.0
 40
90.0
  1
680
 50
90.0
100
AcDbText
  0
POINT
  5
7E66
330
820C
100
AcDbEntity
  8
DEFPOINTS
  6
ByBlock
 62
     0
100
AcDbPoint
 10
-591.25646141206
 20
280.1780954144632
 30
0.0
  0
POINT
  5
7E67
330
820C
100
AcDbEntity
  8
DEFPOINTS
  6
ByBlock
 62
     0
100
AcDbPoint
 10
-495.0011226335155
 20
-399.8219045855366
 30
0.0
  0
POINT
  5
7E68
330
820C
100
AcDbEntity
  8
DEFPOINTS
  6
ByBlock
 62
     0
100
AcDbPoint
 10
-854.959531174587
 20
-399.8219045855366
 30
0.0
  0
ENDBLK
  5
7E69
330
820C
100
AcDbEntity
  8
0
100
AcDbBlockEnd
  0
BLOCK
  5
820F
330
820E
100
AcDbEntity
  8
0
100
AcDbBlockBegin
  2
*D7
 70
     1
 10
0.0
 20
0.0
 30
0.0
  3
*D7
  1

  0
LINE
  5
7E6B
330
820E
100
AcDbEntity
  8
0
  6
ByBlock
100
AcDbLine
 10
-555.0011226335136
 20
1313.678095414463
 30
0.0
 11
-555.0011226335136
 21
1464.572505130094
 31
0.0
  0
LINE
  5
7E6C
330
820E
100
AcDbEntity
  8
0
  6
ByBlock
100
AcDbLine
 10
64.99887736648634
 20
1312.14053775802
 30
0.0
 11
64.99887736648634
 21
1464.572505130094
 31
0.0
  0
LINE
  5
7E6D
330
820E
100
AcDbEntity
  8
0
  6
ByBlock
100
AcDbLine
 10
-495.0011226335136
 20
1434.572505130094
 30
0.0
 11
4.99887736648634
 21
1434.572505130094
 31
0.0
  0
INSERT
  5
7E6E
330
820E
100
AcDbEntity
  8
0
  6
ByBlock
100
AcDbBlockReference
  2
_OPEN
 10
-555.0011226335136
 20
1434.572505130094
 30
0.0
 41
60.0
 42
60.0
 43
60.0
 50
180.0
  0
INSERT
  5
7E6F
330
820E
100
AcDbEntity
  8
0
  6
ByBlock
100
AcDbBlockReference
  2
_OPEN
 10
64.99887736648634
 20
1434.572505130094
 30
0.0
 41
60.0
 42
60.0
 43
60.0
  0
TEXT
  5
7E70
330
820E
100
AcDbEntity
  8
3
100
AcDbText
 10
-360.7154083477992
 20
1449.572505130094
 30
0.0
 40
90.0
  1
620
100
AcDbText
  0
POINT
  5
7E71
330
820E
100
AcDbEntity
  8
DEFPOINTS
  6
ByBlock
 62
     0
100
AcDbPoint
 10
-555.0011226335136
 20
1283.678095414463
 30
0.0
  0
POINT
  5
7E72
330
820E
100
AcDbEntity
  8
DEFPOINTS
  6
ByBlock
 62
     0
100
AcDbPoint
 10
64.99887736648634
 20
1282.140537758021
 30
0.0
  0
POINT
  5
7E73
330
820E
100
AcDbEntity
  8
DEFPOINTS
  6
ByBlock
 62
     0
100
AcDbPoint
 10
64.99887736648634
 20
1434.572505130094
 30
0.0
  0
ENDBLK
  5
7E74
330
820E
100
AcDbEntity
  8
0
100
AcDbBlockEnd
  0
BLOCK
  5
8211
330
8210
100
AcDbEntity
  8
0
100
AcDbBlockBegin
  2
*D8
 70
     1
 10
0.0
 20
0.0
 30
0.0
  3
*D8
  1

  0
LINE
  5
7E76
330
8210
100
AcDbEntity
  8
0
  6
ByBlock
100
AcDbLine
 10
64.99887736648634
 20
1312.14053775802
 30
0.0
 11
64.99887736648634
 21
1464.815705119519
 31
0.0
  0
LINE
  5
7E77
330
8210
100
AcDbEntity
  8
0
  6
ByBlock
100
AcDbLine
 10
838.8305404942775
 20
310.1780954144633
 30
0.0
 11
838.8305404942775
 21
1464.815705119519
 31
0.0
  0
LINE
  5
7E78
330
8210
100
AcDbEntity
  8
0
  6
ByBlock
100
AcDbLine
 10
124.9988773664863
 20
1434.815705119519
 30
0.0
 11
778.8305404942774
 21
1434.815705119519
 31
0.0
  0
INSERT
  5
7E79
330
8210
100
AcDbEntity
  8
0
  6
ByBlock
100
AcDbBlockReference
  2
_OPEN
 10
64.99887736648634
 20
1434.815705119519
 30
0.0
 41
60.0
 42
60.0
 43
60.0
 50
180.0
  0
INSERT
  5
7E7A
330
8210
100
AcDbEntity
  8
0
  6
ByBlock
100
AcDbBlockReference
  2
_OPEN
 10
838.8305404942775
 20
1434.815705119519
 30
0.0
 41
60.0
 42
60.0
 43
60.0
  0
TEXT
  5
7E7B
330
8210
100
AcDbEntity
  8
3
100
AcDbText
 10
336.2004232160963
 20
1449.815705119519
 30
0.0
 40
90.0
  1
777
100
AcDbText
  0
POINT
  5
7E7C
330
8210
100
AcDbEntity
  8
DEFPOINTS
  6
ByBlock
 62
     0
100
AcDbPoint
 10
64.99887736648634
 20
1282.140537758021
 30
0.0
  0
POINT
  5
7E7D
330
8210
100
AcDbEntity
  8
DEFPOINTS
  6
ByBlock
 62
     0
100
AcDbPoint
 10
838.8305404942775
 20
280.1780954144632
 30
0.0
  0
POINT
  5
7E7E
330
8210
100
AcDbEntity
  8
DEFPOINTS
  6
ByBlock
 62
     0
100
AcDbPoint
 10
838.8305404942775
 20
1434.815705119519
 30
0.0
  0
ENDBLK
  5
7E7F
330
8210
100
AcDbEntity
  8
0
100
AcDbBlockEnd
  0
BLOCK
  5
8213
330
8212
100
AcDbEntity
  8
0
100
AcDbBlockBegin
  2
*D9
 70
     1
 10
0.0
 20
0.0
 30
0.0
  3
*D9
  1

  0
LINE
  5
7EC3
330
8212
100
AcDbEntity
  8
0
  6
ByBlock
100
AcDbLine
 10
2904.805828611463
 20
1240.636679629771
 30
0.0
 11
2904.805828611463
 21
1464.37004894809
 31
0.0
  0
LINE
  5
7EC4
330
8212
100
AcDbEntity
  8
0
  6
ByBlock
100
AcDbLine
 10
4024.805828611461
 20
1243.680072967499
 30
0.0
 11
4024.805828611461
 21
1464.37004894809
 31
0.0
  0
LINE
  5
7EC5
330
8212
100
AcDbEntity
  8
0
  6
ByBlock
100
AcDbLine
 10
2964.805828611463
 20
1434.37004894809
 30
0.0
 11
3964.805828611462
 21
1434.37004894809
 31
0.0
  0
INSERT
  5
7EC6
330
8212
100
AcDbEntity
  8
0
  6
ByBlock
100
AcDbBlockReference
  2
_OPEN
 10
2904.805828611463
 20
1434.37004894809
 30
0.0
 41
60.0
 42
60.0
 43
60.0
 50
180.0
  0
INSERT
  5
7EC7
330
8212
100
AcDbEntity
  8
0
  6
ByBlock
100
AcDbBlockReference
  2
_OPEN
 10
4024.805828611461
 20
1434.37004894809
 30
0.0
 41
60.0
 42
60.0
 43
60.0
  0
TEXT
  5
7EC8
330
8212
100
AcDbEntity
  8
3
100
AcDbText
 10
3323.377257182892
 20
1449.37004894809
 30
0.0
 40
90.0
  1
1120
100
AcDbText
  0
POINT
  5
7EC9
330
8212
100
AcDbEntity
  8
DEFPOINTS
  6
ByBlock
 62
     0
100
AcDbPoint
 10
2904.805828611463
 20
1210.636679629771
 30
0.0
  0
POINT
  5
7ECA
330
8212
100
AcDbEntity
  8
DEFPOINTS
  6
ByBlock
 62
     0
100
AcDbPoint
 10
4024.805828611461
 20
1213.680072967499
 30
0.0
  0
POINT
  5
7ECB
330
8212
100
AcDbEntity
  8
DEFPOINTS
  6
ByBlock
 62
     0
100
AcDbPoint
 10
4024.805828611461
 20
1434.37004894809
 30
0.0
  0
ENDBLK
  5
7ECC
330
8212
100
AcDbEntity
  8
0
100
AcDbBlockEnd
  0
BLOCK
  5
8215
330
8214
100
AcDbEntity
  8
0
100
AcDbBlockBegin
  2
*D10
 70
     1
 10
0.0
 20
0.0
 30
0.0
  3
*D10
  1

  0
LINE
  5
8064
330
8214
100
AcDbEntity
  8
0
  6
ByBlock
100
AcDbLine
 10
4204.479014639256
 20
3097.454481859346
 30
0.0
 11
4204.479014639256
 21
4187.222372330842
 31
0.0
  0
LINE
  5
8065
330
8214
100
AcDbEntity
  8
0
  6
ByBlock
100
AcDbLine
 10
5102.479014639261
 20
4102.237520526027
 30
0.0
 11
5102.479014639261
 21
4187.222372330842
 31
0.0
  0
LINE
  5
8066
330
8214
100
AcDbEntity
  8
0
  6
ByBlock
100
AcDbLine
 10
4264.479014639259
 20
4157.222372330842
 30
0.0
 11
5042.479014639261
 21
4157.222372330842
 31
0.0
  0
INSERT
  5
8067
330
8214
100
AcDbEntity
  8
0
  6
ByBlock
100
AcDbBlockReference
  2
_OPEN
 10
4204.479014639256
 20
4157.222372330842
 30
0.0
 41
60.0
 42
60.0
 43
60.0
 50
180.0
  0
INSERT
  5
8068
330
8214
100
AcDbEntity
  8
0
  6
ByBlock
100
AcDbBlockReference
  2
_OPEN
 10
5102.479014639261
 20
4157.222372330842
 30
0.0
 41
60.0
 42
60.0
 43
60.0
  0
INSERT
  5
8069
330
8214
100
AcDbEntity
  8
3
100
AcDbBlockReference
  2
*U11
 10
0.0
 20
0.0
 30
0.0
  0
POINT
  5
806A
330
8214
100
AcDbEntity
  8
DEFPOINTS
  6
ByBlock
 62
     0
100
AcDbPoint
 10
4204.479014639256
 20
3067.454481859346
 30
0.0
  0
POINT
  5
806B
330
8214
100
AcDbEntity
  8
DEFPOINTS
  6
ByBlock
 62
     0
100
AcDbPoint
 10
5102.479014639261
 20
4072.237520526026
 30
0.0
  0
POINT
  5
806C
330
8214
100
AcDbEntity
  8
DEFPOINTS
  6
ByBlock
 62
     0
100
AcDbPoint
 10
5102.479014639261
 20
4157.222372330842
 30
0.0
  0
ENDBLK
  5
806D
330
8214
100
AcDbEntity
  8
0
100
AcDbBlockEnd
  0
BLOCK
  5
8239
330
8216
100
AcDbEntity
  8
0
100
AcDbBlockBegin
  2
*U11
 70
     1
 10
0.0
 20
0.0
 30
0.0
  3
*U11
  1

  0
TEXT
  5
817D
330
8216
100
AcDbEntity
  8
3
100
AcDbText
 10
4524.90758606783
 20
4322.222372330844
 30
0.0
 40
90.0
  1
MAX
100
AcDbText
  0
TEXT
  5
817E
330
8216
100
AcDbEntity
  8
3
100
AcDbText
 10
4537.764728924973
 20
4172.222372330844
 30
0.0
 40
90.0
  1
920
100
AcDbText
  0
ENDBLK
  5
8180
330
8216
100
AcDbEntity
  8
0
100
AcDbBlockEnd
  0
BLOCK
  5
8218
330
8217
100
AcDbEntity
  8
0
100
AcDbBlockBegin
  2
*D12
 70
     1
 10
0.0
 20
0.0
 30
0.0
  3
*D12
  1

  0
LINE
  5
8059
330
8217
100
AcDbEntity
  8
0
  6
ByBlock
100
AcDbLine
 10
5102.479014639261
 20
4102.237520526027
 30
0.0
 11
5102.479014639261
 21
4187.222372330842
 31
0.0
  0
LINE
  5
805A
330
8217
100
AcDbEntity
  8
0
  6
ByBlock
100
AcDbLine
 10
5771.97901463926
 20
2777.954481859346
 30
0.0
 11
5771.97901463926
 21
4187.222372330842
 31
0.0
  0
LINE
  5
805B
330
8217
100
AcDbEntity
  8
0
  6
ByBlock
100
AcDbLine
 10
5162.47901463926
 20
4157.222372330842
 30
0.0
 11
5711.979014639258
 21
4157.222372330842
 31
0.0
  0
INSERT
  5
805C
330
8217
100
AcDbEntity
  8
0
  6
ByBlock
100
AcDbBlockReference
  2
_OPEN
 10
5102.479014639261
 20
4157.222372330842
 30
0.0
 41
60.0
 42
60.0
 43
60.0
 50
180.0
  0
INSERT
  5
805D
330
8217
100
AcDbEntity
  8
0
  6
ByBlock
100
AcDbBlockReference
  2
_OPEN
 10
5771.97901463926
 20
4157.222372330842
 30
0.0
 41
60.0
 42
60.0
 43
60.0
  0
TEXT
  5
805E
330
8217
100
AcDbEntity
  8
3
100
AcDbText
 10
5263.657586067832
 20
4210.793800902272
 30
0.0
 40
90.0
  1
(680)
100
AcDbText
  0
POINT
  5
805F
330
8217
100
AcDbEntity
  8
DEFPOINTS
  6
ByBlock
 62
     0
100
AcDbPoint
 10
5102.479014639261
 20
4072.237520526026
 30
0.0
  0
POINT
  5
8060
330
8217
100
AcDbEntity
  8
DEFPOINTS
  6
ByBlock
 62
     0
100
AcDbPoint
 10
5771.97901463926
 20
2747.954481859345
 30
0.0
  0
POINT
  5
8061
330
8217
100
AcDbEntity
  8
DEFPOINTS
  6
ByBlock
 62
     0
100
AcDbPoint
 10
5771.97901463926
 20
4157.222372330842
 30
0.0
  0
ENDBLK
  5
8062
330
8217
100
AcDbEntity
  8
0
100
AcDbBlockEnd
  0
BLOCK
  5
821A
330
8219
100
AcDbEntity
  8
0
100
AcDbBlockBegin
  2
*D13
 70
     1
 10
0.0
 20
0.0
 30
0.0
  3
*D13
  1

  0
LINE
  5
7EE4
330
8219
100
AcDbEntity
  8
0
  6
ByBlock
100
AcDbLine
 10
1374.998877366484
 20
3444.814411033823
 30
0.0
 11
1374.998877366484
 21
4321.829069539044
 31
0.0
  0
LINE
  5
7EE5
330
8219
100
AcDbEntity
  8
0
  6
ByBlock
100
AcDbLine
 10
624.9988773664848
 20
4019.814411033823
 30
0.0
 11
624.9988773664848
 21
4321.829069539044
 31
0.0
  0
LINE
  5
7EE6
330
8219
100
AcDbEntity
  8
0
  6
ByBlock
100
AcDbLine
 10
1314.998877366485
 20
4291.829069539044
 30
0.0
 11
684.998877366485
 21
4291.829069539044
 31
0.0
  0
INSERT
  5
7EE7
330
8219
100
AcDbEntity
  8
0
  6
ByBlock
100
AcDbBlockReference
  2
_OPEN
 10
1374.998877366484
 20
4291.829069539044
 30
0.0
 41
60.0
 42
60.0
 43
60.0
  0
INSERT
  5
7EE8
330
8219
100
AcDbEntity
  8
0
  6
ByBlock
100
AcDbBlockReference
  2
_OPEN
 10
624.9988773664848
 20
4291.829069539044
 30
0.0
 41
60.0
 42
60.0
 43
60.0
 50
180.0
  0
TEXT
  5
7EE9
330
8219
100
AcDbEntity
  8
3
100
AcDbText
 10
884.2845916521994
 20
4306.829069539044
 30
0.0
 40
90.0
  1
750
100
AcDbText
  0
POINT
  5
7EEA
330
8219
100
AcDbEntity
  8
DEFPOINTS
  6
ByBlock
 62
     0
100
AcDbPoint
 10
1374.998877366484
 20
3414.814411033823
 30
0.0
  0
POINT
  5
7EEB
330
8219
100
AcDbEntity
  8
DEFPOINTS
  6
ByBlock
 62
     0
100
AcDbPoint
 10
624.9988773664848
 20
3989.814411033823
 30
0.0
  0
POINT
  5
7EEC
330
8219
100
AcDbEntity
  8
DEFPOINTS
  6
ByBlock
 62
     0
100
AcDbPoint
 10
624.9988773664848
 20
4291.829069539044
 30
0.0
  0
ENDBLK
  5
7EED
330
8219
100
AcDbEntity
  8
0
100
AcDbBlockEnd
  0
BLOCK
  5
821C
330
821B
100
AcDbEntity
  8
0
100
AcDbBlockBegin
  2
*D14
 70
     1
 10
0.0
 20
0.0
 30
0.0
  3
*D14
  1

  0
LINE
  5
7EEF
330
821B
100
AcDbEntity
  8
0
  6
ByBlock
100
AcDbLine
 10
624.9988773664848
 20
4019.814411033823
 30
0.0
 11
624.9988773664848
 21
4321.829069539044
 31
0.0
  0
LINE
  5
7EF0
330
821B
100
AcDbEntity
  8
0
  6
ByBlock
100
AcDbLine
 10
-495.0011226335146
 20
4019.814411033823
 30
0.0
 11
-495.0011226335146
 21
4321.829069539044
 31
0.0
  0
LINE
  5
7EF1
330
821B
100
AcDbEntity
  8
0
  6
ByBlock
100
AcDbLine
 10
564.9988773664849
 20
4291.829069539044
 30
0.0
 11
-435.0011226335144
 21
4291.829069539044
 31
0.0
  0
INSERT
  5
7EF2
330
821B
100
AcDbEntity
  8
0
  6
ByBlock
100
AcDbBlockReference
  2
_OPEN
 10
624.9988773664848
 20
4291.829069539044
 30
0.0
 41
60.0
 42
60.0
 43
60.0
  0
INSERT
  5
7EF3
330
821B
100
AcDbEntity
  8
0
  6
ByBlock
100
AcDbBlockReference
  2
_OPEN
 10
-495.0011226335146
 20
4291.829069539044
 30
0.0
 41
60.0
 42
60.0
 43
60.0
 50
180.0
  0
TEXT
  5
7EF4
330
821B
100
AcDbEntity
  8
3
100
AcDbText
 10
-76.42969406208618
 20
4306.829069539044
 30
0.0
 40
90.0
  1
1120
100
AcDbText
  0
POINT
  5
7EF5
330
821B
100
AcDbEntity
  8
DEFPOINTS
  6
ByBlock
 62
     0
100
AcDbPoint
 10
624.9988773664848
 20
3989.814411033823
 30
0.0
  0
POINT
  5
7EF6
330
821B
100
AcDbEntity
  8
DEFPOINTS
  6
ByBlock
 62
     0
100
AcDbPoint
 10
-495.0011226335146
 20
3989.814411033823
 30
0.0
  0
POINT
  5
7EF7
330
821B
100
AcDbEntity
  8
DEFPOINTS
  6
ByBlock
 62
     0
100
AcDbPoint
 10
-495.0011226335146
 20
4291.829069539044
 30
0.0
  0
ENDBLK
  5
7EF8
330
821B
100
AcDbEntity
  8
0
100
AcDbBlockEnd
  0
BLOCK
  5
821E
330
821D
100
AcDbEntity
  8
0
100
AcDbBlockBegin
  2
*D15
 70
     1
 10
0.0
 20
0.0
 30
0.0
  3
*D15
  1

  0
LINE
  5
7EFA
330
821D
100
AcDbEntity
  8
0
  6
ByBlock
100
AcDbLine
 10
-525.0011226335145
 20
3989.814411033823
 30
0.0
 11
-825.4253447999309
 21
3989.814411033823
 31
0.0
  0
LINE
  5
7EFB
330
821D
100
AcDbEntity
  8
0
  6
ByBlock
100
AcDbLine
 10
-525.0011226335151
 20
2614.814411033822
 30
0.0
 11
-825.4253447999309
 21
2614.814411033822
 31
0.0
  0
LINE
  5
7EFC
330
821D
100
AcDbEntity
  8
0
  6
ByBlock
100
AcDbLine
 10
-795.4253447999308
 20
3929.814411033823
 30
0.0
 11
-795.4253447999308
 21
2674.814411033822
 31
0.0
  0
INSERT
  5
7EFD
330
821D
100
AcDbEntity
  8
0
  6
ByBlock
100
AcDbBlockReference
  2
_OPEN
 10
-795.4253447999308
 20
3989.814411033823
 30
0.0
 41
60.0
 42
60.0
 43
60.0
 50
90.0
  0
INSERT
  5
7EFE
330
821D
100
AcDbEntity
  8
0
  6
ByBlock
100
AcDbBlockReference
  2
_OPEN
 10
-795.4253447999308
 20
2614.814411033822
 30
0.0
 41
60.0
 42
60.0
 43
60.0
 50
270.0
  0
TEXT
  5
7EFF
330
821D
100
AcDbEntity
  8
3
100
AcDbText
 10
-810.4253447999308
 20
3152.314411033823
 30
0.0
 40
90.0
  1
1375
 50
90.0
100
AcDbText
  0
POINT
  5
7F00
330
821D
100
AcDbEntity
  8
DEFPOINTS
  6
ByBlock
 62
     0
100
AcDbPoint
 10
-495.0011226335146
 20
3989.814411033823
 30
0.0
  0
POINT
  5
7F01
330
821D
100
AcDbEntity
  8
DEFPOINTS
  6
ByBlock
 62
     0
100
AcDbPoint
 10
-495.001122633515
 20
2614.814411033822
 30
0.0
  0
POINT
  5
7F02
330
821D
100
AcDbEntity
  8
DEFPOINTS
  6
ByBlock
 62
     0
100
AcDbPoint
 10
-795.4253447999308
 20
2614.814411033822
 30
0.0
  0
ENDBLK
  5
7F03
330
821D
100
AcDbEntity
  8
0
100
AcDbBlockEnd
  0
BLOCK
  5
8220
330
821F
100
AcDbEntity
  8
0
100
AcDbBlockBegin
  2
*D16
 70
     1
 10
0.0
 20
0.0
 30
0.0
  3
*D16
  1

  0
LINE
  5
7F05
330
821F
100
AcDbEntity
  8
0
  6
ByBlock
100
AcDbLine
 10
1374.998877366484
 20
2584.814411033822
 30
0.0
 11
1374.998877366484
 21
2277.667251551749
 31
0.0
  0
LINE
  5
7F06
330
821F
100
AcDbEntity
  8
0
  6
ByBlock
100
AcDbLine
 10
-495.001122633515
 20
2584.814411033821
 30
0.0
 11
-495.001122633515
 21
2277.667251551749
 31
0.0
  0
LINE
  5
7F07
330
821F
100
AcDbEntity
  8
0
  6
ByBlock
100
AcDbLine
 10
1314.998877366485
 20
2307.667251551749
 30
0.0
 11
-435.001122633515
 21
2307.667251551749
 31
0.0
  0
INSERT
  5
7F08
330
821F
100
AcDbEntity
  8
0
  6
ByBlock
100
AcDbBlockReference
  2
_OPEN
 10
1374.998877366484
 20
2307.667251551749
 30
0.0
 41
60.0
 42
60.0
 43
60.0
  0
INSERT
  5
7F09
330
821F
100
AcDbEntity
  8
0
  6
ByBlock
100
AcDbBlockReference
  2
_OPEN
 10
-495.001122633515
 20
2307.667251551749
 30
0.0
 41
60.0
 42
60.0
 43
60.0
 50
180.0
  0
TEXT
  5
7F0A
330
821F
100
AcDbEntity
  8
3
100
AcDbText
 10
289.9988773664849
 20
2322.667251551749
 30
0.0
 40
90.0
  1
1870
100
AcDbText
  0
POINT
  5
7F0B
330
821F
100
AcDbEntity
  8
DEFPOINTS
  6
ByBlock
 62
     0
100
AcDbPoint
 10
1374.998877366484
 20
2614.814411033822
 30
0.0
  0
POINT
  5
7F0C
330
821F
100
AcDbEntity
  8
DEFPOINTS
  6
ByBlock
 62
     0
100
AcDbPoint
 10
-495.001122633515
 20
2614.814411033822
 30
0.0
  0
POINT
  5
7F0D
330
821F
100
AcDbEntity
  8
DEFPOINTS
  6
ByBlock
 62
     0
100
AcDbPoint
 10
-495.001122633515
 20
2307.667251551749
 30
0.0
  0
ENDBLK
  5
7F0E
330
821F
100
AcDbEntity
  8
0
100
AcDbBlockEnd
  0
BLOCK
  5
8222
330
8221
100
AcDbEntity
  8
0
100
AcDbBlockBegin
  2
*D17
 70
     1
 10
0.0
 20
0.0
 30
0.0
  3
*D17
  1

  0
LINE
  5
7F10
330
8221
100
AcDbEntity
  8
0
  6
ByBlock
100
AcDbLine
 10
1404.998877366485
 20
3414.814411033823
 30
0.0
 11
1705.739583753108
 21
3414.814411033823
 31
0.0
  0
LINE
  5
7F11
330
8221
100
AcDbEntity
  8
0
  6
ByBlock
100
AcDbLine
 10
1404.998877366485
 20
2614.814411033822
 30
0.0
 11
1705.739583753108
 21
2614.814411033822
 31
0.0
  0
LINE
  5
7F12
330
8221
100
AcDbEntity
  8
0
  6
ByBlock
100
AcDbLine
 10
1675.739583753109
 20
3354.814411033823
 30
0.0
 11
1675.739583753109
 21
2674.814411033822
 31
0.0
  0
INSERT
  5
7F13
330
8221
100
AcDbEntity
  8
0
  6
ByBlock
100
AcDbBlockReference
  2
_OPEN
 10
1675.739583753109
 20
3414.814411033823
 30
0.0
 41
60.0
 42
60.0
 43
60.0
 50
90.0
  0
INSERT
  5
7F14
330
8221
100
AcDbEntity
  8
0
  6
ByBlock
100
AcDbBlockReference
  2
_OPEN
 10
1675.739583753109
 20
2614.814411033822
 30
0.0
 41
60.0
 42
60.0
 43
60.0
 50
270.0
  0
TEXT
  5
7F15
330
8221
100
AcDbEntity
  8
3
100
AcDbText
 10
1660.739583753108
 20
2899.100125319537
 30
0.0
 40
90.0
  1
800
 50
90.0
100
AcDbText
  0
POINT
  5
7F16
330
8221
100
AcDbEntity
  8
DEFPOINTS
  6
ByBlock
 62
     0
100
AcDbPoint
 10
1374.998877366484
 20
3414.814411033823
 30
0.0
  0
POINT
  5
7F17
330
8221
100
AcDbEntity
  8
DEFPOINTS
  6
ByBlock
 62
     0
100
AcDbPoint
 10
1374.998877366484
 20
2614.814411033822
 30
0.0
  0
POINT
  5
7F18
330
8221
100
AcDbEntity
  8
DEFPOINTS
  6
ByBlock
 62
     0
100
AcDbPoint
 10
1675.739583753109
 20
2614.814411033822
 30
0.0
  0
ENDBLK
  5
7F19
330
8221
100
AcDbEntity
  8
0
100
AcDbBlockEnd
  0
BLOCK
  5
8224
330
8223
100
AcDbEntity
  8
0
100
AcDbBlockBegin
  2
*D18
 70
     1
 10
0.0
 20
0.0
 30
0.0
  3
*D18
  1

  0
LINE
  5
7F1B
330
8223
100
AcDbEntity
  8
0
  6
ByBlock
100
AcDbLine
 10
4060.305828611461
 20
-194.8219045855367
 30
0.0
 11
4378.696822439597
 21
-194.8219045855367
 31
0.0
  0
LINE
  5
7F1C
330
8223
100
AcDbEntity
  8
0
  6
ByBlock
100
AcDbLine
 10
4060.305828611461
 20
755.1780954144633
 30
0.0
 11
4378.696822439597
 21
755.1780954144633
 31
0.0
  0
LINE
  5
7F1D
330
8223
100
AcDbEntity
  8
0
  6
ByBlock
100
AcDbLine
 10
4348.696822439597
 20
-134.8219045855366
 30
0.0
 11
4348.696822439597
 21
695.1780954144632
 31
0.0
  0
INSERT
  5
7F1E
330
8223
100
AcDbEntity
  8
0
  6
ByBlock
100
AcDbBlockReference
  2
_OPEN
 10
4348.696822439597
 20
-194.8219045855367
 30
0.0
 41
60.0
 42
60.0
 43
60.0
 50
270.0
  0
INSERT
  5
7F1F
330
8223
100
AcDbEntity
  8
0
  6
ByBlock
100
AcDbBlockReference
  2
_OPEN
 10
4348.696822439597
 20
755.1780954144633
 30
0.0
 41
60.0
 42
60.0
 43
60.0
 50
90.0
  0
TEXT
  5
7F20
330
8223
100
AcDbEntity
  8
3
100
AcDbText
 10
4333.696822439597
 20
119.4638097001776
 30
0.0
 40
90.0
  1
\U+03C6950
 50
90.0
100
AcDbText
  0
POINT
  5
7F21
330
8223
100
AcDbEntity
  8
DEFPOINTS
  6
ByBlock
 62
     0
100
AcDbPoint
 10
4030.305828611463
 20
-194.8219045855367
 30
0.0
  0
POINT
  5
7F22
330
8223
100
AcDbEntity
  8
DEFPOINTS
  6
ByBlock
 62
     0
100
AcDbPoint
 10
4030.305828611463
 20
755.1780954144633
 30
0.0
  0
POINT
  5
7F23
330
8223
100
AcDbEntity
  8
DEFPOINTS
  6
ByBlock
 62
     0
100
AcDbPoint
 10
4348.696822439597
 20
755.1780954144633
 30
0.0
  0
ENDBLK
  5
7F24
330
8223
100
AcDbEntity
  8
0
100
AcDbBlockEnd
  0
BLOCK
  5
8226
330
8225
100
AcDbEntity
  8
0
100
AcDbBlockBegin
  2
*D19
 70
     1
 10
0.0
 20
0.0
 30
0.0
  3
*D19
  1

  0
LINE
  5
816E
330
8225
100
AcDbEntity
  8
3
 62
     0
100
AcDbLine
 10
1127.672063394282
 20
1992.454481859344
 30
0.0
 11
752.7136548532107
 21
1992.454481859344
 31
0.0
  0
LINE
  5
816F
330
8225
100
AcDbEntity
  8
3
 62
     0
100
AcDbLine
 10
1127.672063394282
 20
1892.454481859344
 30
0.0
 11
752.7136548532107
 21
1892.454481859344
 31
0.0
  0
LINE
  5
8170
330
8225
100
AcDbEntity
  8
3
 62
     0
100
AcDbLine
 10
782.7136548532108
 20
2052.454481859345
 30
0.0
 11
782.7136548532108
 21
2112.454481859345
 31
0.0
  0
LINE
  5
8171
330
8225
100
AcDbEntity
  8
3
 62
     0
100
AcDbLine
 10
782.7136548532108
 20
1832.454481859345
 30
0.0
 11
782.7136548532104
 21
1498.168767573631
 31
0.0
  0
LINE
  5
8172
330
8225
100
AcDbEntity
  8
3
 62
     0
100
AcDbLine
 10
782.7136548532108
 20
1992.454481859344
 30
0.0
 11
782.7136548532108
 21
1892.454481859344
 31
0.0
  0
INSERT
  5
8173
330
8225
100
AcDbEntity
  8
3
 62
     0
100
AcDbBlockReference
  2
_DOT
 10
782.7136548532108
 20
1992.454481859344
 30
0.0
 41
60.0
 42
60.0
 43
60.0
 50
270.0
  0
INSERT
  5
8174
330
8225
100
AcDbEntity
  8
3
 62
     0
100
AcDbBlockReference
  2
_OPEN
 10
782.7136548532108
 20
1892.454481859344
 30
0.0
 41
60.0
 42
60.0
 43
60.0
 50
90.0
  0
TEXT
  5
8181
330
8225
100
AcDbEntity
  8
3
 62
     0
100
AcDbText
 10
527.7140000000001
 20
1476.01
 30
0.0
 40
90.0
  1
100
100
AcDbText
  0
POINT
  5
8176
330
8225
100
AcDbEntity
  8
DEFPOINTS
 62
     0
100
AcDbPoint
 10
1142.672063394282
 20
1992.454481859344
 30
0.0
  0
POINT
  5
8177
330
8225
100
AcDbEntity
  8
DEFPOINTS
 62
     0
100
AcDbPoint
 10
1142.672063394282
 20
1892.454481859344
 30
0.0
  0
POINT
  5
8178
330
8225
100
AcDbEntity
  8
DEFPOINTS
 62
     0
100
AcDbPoint
 10
782.7136548532108
 20
1892.454481859344
 30
0.0
  0
ENDBLK
  5
8002
330
8225
100
AcDbEntity
  8
0
100
AcDbBlockEnd
  0
BLOCK
  5
822A
330
8227
100
AcDbEntity
  8
0
100
AcDbBlockBegin
  2
_DOT
 70
     0
 10
0.0
 20
0.0
 30
0.0
  3
_DOT
  1

  0
LWPOLYLINE
  5
8005
330
8227
100
AcDbEntity
  8
0
  6
ByBlock
 62
     0
100
AcDbPolyline
 90
        2
 70
     1
 43
0.25
 10
-0.125
 20
0.0
 42
1.0
 10
0.125
 20
0.0
 42
1.0
  0
LINE
  5
8009
330
8227
100
AcDbEntity
  8
0
  6
ByBlock
 62
     0
100
AcDbLine
 10
-0.25
 20
0.0
 30
0.0
 11
-1.0
 21
0.0
 31
0.0
  0
ENDBLK
  5
7FE8
330
8227
100
AcDbEntity
  8
0
100
AcDbBlockEnd
  0
BLOCK
  5
8229
330
8228
100
AcDbEntity
  8
0
100
AcDbBlockBegin
  2
*D21
 70
     1
 10
0.0
 20
0.0
 30
0.0
  3
*D21
  1

  0
LINE
  5
7F4B
330
8228
100
AcDbEntity
  8
0
  6
ByBlock
100
AcDbLine
 10
-555.0011226335136
 20
1313.678095414463
 30
0.0
 11
-555.0011226335136
 21
1659.834042793846
 31
0.0
  0
LINE
  5
7F4C
330
8228
100
AcDbEntity
  8
0
  6
ByBlock
100
AcDbLine
 10
1374.998877366484
 20
-269.8219045855366
 30
0.0
 11
1374.998877366484
 21
1659.834042793846
 31
0.0
  0
LINE
  5
7F4D
330
8228
100
AcDbEntity
  8
0
  6
ByBlock
100
AcDbLine
 10
-495.0011226335136
 20
1629.834042793846
 30
0.0
 11
1314.998877366484
 21
1629.834042793846
 31
0.0
  0
INSERT
  5
7F4E
330
8228
100
AcDbEntity
  8
0
  6
ByBlock
100
AcDbBlockReference
  2
_OPEN
 10
-555.0011226335136
 20
1629.834042793846
 30
0.0
 41
60.0
 42
60.0
 43
60.0
 50
180.0
  0
INSERT
  5
7F4F
330
8228
100
AcDbEntity
  8
0
  6
ByBlock
100
AcDbBlockReference
  2
_OPEN
 10
1374.998877366484
 20
1629.834042793846
 30
0.0
 41
60.0
 42
60.0
 43
60.0
  0
TEXT
  5
7F50
330
8228
100
AcDbEntity
  8
3
100
AcDbText
 10
259.9988773664855
 20
1644.834042793847
 30
0.0
 40
90.0
  1
1930
100
AcDbText
  0
POINT
  5
7F51
330
8228
100
AcDbEntity
  8
DEFPOINTS
  6
ByBlock
 62
     0
100
AcDbPoint
 10
-555.0011226335136
 20
1283.678095414463
 30
0.0
  0
POINT
  5
7F52
330
8228
100
AcDbEntity
  8
DEFPOINTS
  6
ByBlock
 62
     0
100
AcDbPoint
 10
1374.998877366484
 20
-299.8219045855366
 30
0.0
  0
POINT
  5
7F53
330
8228
100
AcDbEntity
  8
DEFPOINTS
  6
ByBlock
 62
     0
100
AcDbPoint
 10
1374.998877366484
 20
1629.834042793846
 30
0.0
  0
ENDBLK
  5
7F54
330
8228
100
AcDbEntity
  8
0
100
AcDbBlockEnd
  0
BLOCK
  5
822C
330
822B
100
AcDbEntity
  8
0
100
AcDbBlockBegin
  2
*D22
 70
     1
 10
0.0
 20
0.0
 30
0.0
  3
*D22
  1

  0
LINE
  5
807C
330
822B
100
AcDbEntity
  8
0
  6
ByBlock
 62
     0
100
AcDbLine
 10
1142.672063394282
 20
1965.454481859344
 30
0.0
 11
1142.672063394282
 21
1764.850623707603
 31
0.0
  0
LINE
  5
807D
330
822B
100
AcDbEntity
  8
0
  6
ByBlock
 62
     0
100
AcDbLine
 10
1702.672063394284
 20
1965.454481859344
 30
0.0
 11
1702.672063394284
 21
1764.850623707603
 31
0.0
  0
LINE
  5
807E
330
822B
100
AcDbEntity
  8
0
  6
ByBlock
 62
     0
100
AcDbLine
 10
1202.672063394282
 20
1794.850623707603
 30
0.0
 11
1642.672063394284
 21
1794.850623707603
 31
0.0
  0
INSERT
  5
807F
330
822B
100
AcDbEntity
  8
0
  6
ByBlock
 62
     0
100
AcDbBlockReference
  2
_OPEN
 10
1142.672063394282
 20
1794.850623707603
 30
0.0
 41
60.0
 42
60.0
 43
60.0
 50
180.0
  0
INSERT
  5
8080
330
822B
100
AcDbEntity
  8
0
  6
ByBlock
 62
     0
100
AcDbBlockReference
  2
_OPEN
 10
1702.672063394284
 20
1794.850623707603
 30
0.0
 41
60.0
 42
60.0
 43
60.0
  0
TEXT
  5
8081
330
822B
100
AcDbEntity
  8
3
 62
     0
100
AcDbText
 10
1306.957777679997
 20
1824.850623707603
 30
0.0
 40
90.0
  1
560
100
AcDbText
  0
POINT
  5
8082
330
822B
100
AcDbEntity
  8
DEFPOINTS
  6
ByBlock
 62
     0
100
AcDbPoint
 10
1142.672063394282
 20
1980.454481859346
 30
0.0
  0
POINT
  5
8083
330
822B
100
AcDbEntity
  8
DEFPOINTS
  6
ByBlock
 62
     0
100
AcDbPoint
 10
1702.672063394284
 20
1980.454481859346
 30
0.0
  0
POINT
  5
8084
330
822B
100
AcDbEntity
  8
DEFPOINTS
  6
ByBlock
 62
     0
100
AcDbPoint
 10
1702.672063394284
 20
1794.850623707603
 30
0.0
  0
ENDBLK
  5
8085
330
822B
100
AcDbEntity
  8
0
100
AcDbBlockEnd
  0
BLOCK
  5
822E
330
822D
100
AcDbEntity
  8
0
100
AcDbBlockBegin
  2
*D23
 70
     1
 10
0.0
 20
0.0
 30
0.0
  3
*D23
  1

  0
LINE
  5
8089
330
822D
100
AcDbEntity
  8
0
  6
ByBlock
 62
     0
100
AcDbLine
 10
1702.672063394284
 20
1965.454481859344
 30
0.0
 11
1702.672063394284
 21
1764.850623707603
 31
0.0
  0
LINE
  5
808A
330
822D
100
AcDbEntity
  8
0
  6
ByBlock
 62
     0
100
AcDbLine
 10
3012.672063394284
 20
1965.454481859344
 30
0.0
 11
3012.672063394284
 21
1764.850623707603
 31
0.0
  0
LINE
  5
808B
330
822D
100
AcDbEntity
  8
0
  6
ByBlock
 62
     0
100
AcDbLine
 10
1762.672063394284
 20
1794.850623707603
 30
0.0
 11
2952.672063394284
 21
1794.850623707603
 31
0.0
  0
INSERT
  5
808C
330
822D
100
AcDbEntity
  8
0
  6
ByBlock
 62
     0
100
AcDbBlockReference
  2
_OPEN
 10
1702.672063394284
 20
1794.850623707603
 30
0.0
 41
60.0
 42
60.0
 43
60.0
 50
180.0
  0
INSERT
  5
808D
330
822D
100
AcDbEntity
  8
0
  6
ByBlock
 62
     0
100
AcDbBlockReference
  2
_OPEN
 10
3012.672063394284
 20
1794.850623707603
 30
0.0
 41
60.0
 42
60.0
 43
60.0
  0
TEXT
  5
808E
330
822D
100
AcDbEntity
  8
3
 62
     0
100
AcDbText
 10
2216.243491965713
 20
1824.850623707603
 30
0.0
 40
90.0
  1
1310
100
AcDbText
  0
POINT
  5
808F
330
822D
100
AcDbEntity
  8
DEFPOINTS
  6
ByBlock
 62
     0
100
AcDbPoint
 10
1702.672063394284
 20
1980.454481859346
 30
0.0
  0
POINT
  5
8090
330
822D
100
AcDbEntity
  8
DEFPOINTS
  6
ByBlock
 62
     0
100
AcDbPoint
 10
3012.672063394284
 20
1980.454481859346
 30
0.0
  0
POINT
  5
8091
330
822D
100
AcDbEntity
  8
DEFPOINTS
  6
ByBlock
 62
     0
100
AcDbPoint
 10
3012.672063394284
 20
1794.850623707603
 30
0.0
  0
ENDBLK
  5
8092
330
822D
100
AcDbEntity
  8
0
100
AcDbBlockEnd
  0
BLOCK
  5
8230
330
822F
100
AcDbEntity
  8
0
100
AcDbBlockBegin
  2
*D24
 70
     1
 10
0.0
 20
0.0
 30
0.0
  3
*D24
  1

  0
LINE
  5
8096
330
822F
100
AcDbEntity
  8
0
  6
ByBlock
 62
     0
100
AcDbLine
 10
3903.72807256285
 20
1965.454481859344
 30
0.0
 11
3903.72807256285
 21
1764.850623707603
 31
0.0
  0
LINE
  5
8097
330
822F
100
AcDbEntity
  8
0
  6
ByBlock
 62
     0
100
AcDbLine
 10
4665.728072562848
 20
1965.454481859344
 30
0.0
 11
4665.728072562848
 21
1764.850623707603
 31
0.0
  0
LINE
  5
8098
330
822F
100
AcDbEntity
  8
0
  6
ByBlock
 62
     0
100
AcDbLine
 10
3963.72807256285
 20
1794.850623707603
 30
0.0
 11
4605.728072562849
 21
1794.850623707603
 31
0.0
  0
INSERT
  5
8099
330
822F
100
AcDbEntity
  8
0
  6
ByBlock
 62
     0
100
AcDbBlockReference
  2
_OPEN
 10
3903.72807256285
 20
1794.850623707603
 30
0.0
 41
60.0
 42
60.0
 43
60.0
 50
180.0
  0
INSERT
  5
809A
330
822F
100
AcDbEntity
  8
0
  6
ByBlock
 62
     0
100
AcDbBlockReference
  2
_OPEN
 10
4665.728072562848
 20
1794.850623707603
 30
0.0
 41
60.0
 42
60.0
 43
60.0
  0
TEXT
  5
809B
330
822F
100
AcDbEntity
  8
3
 62
     0
100
AcDbText
 10
4169.013786848565
 20
1824.850623707603
 30
0.0
 40
90.0
  1
762
100
AcDbText
  0
POINT
  5
809C
330
822F
100
AcDbEntity
  8
DEFPOINTS
  6
ByBlock
 62
     0
100
AcDbPoint
 10
3903.72807256285
 20
1980.454481859346
 30
0.0
  0
POINT
  5
809D
330
822F
100
AcDbEntity
  8
DEFPOINTS
  6
ByBlock
 62
     0
100
AcDbPoint
 10
4665.728072562848
 20
1980.454481859346
 30
0.0
  0
POINT
  5
809E
330
822F
100
AcDbEntity
  8
DEFPOINTS
  6
ByBlock
 62
     0
100
AcDbPoint
 10
4665.728072562848
 20
1794.850623707603
 30
0.0
  0
ENDBLK
  5
809F
330
822F
100
AcDbEntity
  8
0
100
AcDbBlockEnd
  0
BLOCK
  5
8232
330
8231
100
AcDbEntity
  8
0
100
AcDbBlockBegin
  2
*D25
 70
     1
 10
0.0
 20
0.0
 30
0.0
  3
*D25
  1

  0
LINE
  5
80A3
330
8231
100
AcDbEntity
  8
0
  6
ByBlock
 62
     0
100
AcDbLine
 10
4665.728072562848
 20
1965.454481859344
 30
0.0
 11
4665.728072562848
 21
1764.850623707603
 31
0.0
  0
LINE
  5
80A4
330
8231
100
AcDbEntity
  8
0
  6
ByBlock
 62
     0
100
AcDbLine
 10
5278.72807256285
 20
1965.454481859344
 30
0.0
 11
5278.72807256285
 21
1764.850623707603
 31
0.0
  0
LINE
  5
80A5
330
8231
100
AcDbEntity
  8
0
  6
ByBlock
 62
     0
100
AcDbLine
 10
4725.728072562849
 20
1794.850623707603
 30
0.0
 11
5218.72807256285
 21
1794.850623707603
 31
0.0
  0
INSERT
  5
80A6
330
8231
100
AcDbEntity
  8
0
  6
ByBlock
 62
     0
100
AcDbBlockReference
  2
_OPEN
 10
4665.728072562848
 20
1794.850623707603
 30
0.0
 41
60.0
 42
60.0
 43
60.0
 50
180.0
  0
INSERT
  5
80A7
330
8231
100
AcDbEntity
  8
0
  6
ByBlock
 62
     0
100
AcDbBlockReference
  2
_OPEN
 10
5278.72807256285
 20
1794.850623707603
 30
0.0
 41
60.0
 42
60.0
 43
60.0
  0
TEXT
  5
80A8
330
8231
100
AcDbEntity
  8
3
 62
     0
100
AcDbText
 10
4865.085215419993
 20
1824.850623707603
 30
0.0
 40
90.0
  1
613
100
AcDbText
  0
POINT
  5
80A9
330
8231
100
AcDbEntity
  8
DEFPOINTS
  6
ByBlock
 62
     0
100
AcDbPoint
 10
4665.728072562848
 20
1980.454481859346
 30
0.0
  0
POINT
  5
80AA
330
8231
100
AcDbEntity
  8
DEFPOINTS
  6
ByBlock
 62
     0
100
AcDbPoint
 10
5278.72807256285
 20
1980.454481859346
 30
0.0
  0
POINT
  5
80AB
330
8231
100
AcDbEntity
  8
DEFPOINTS
  6
ByBlock
 62
     0
100
AcDbPoint
 10
5278.72807256285
 20
1794.850623707603
 30
0.0
  0
ENDBLK
  5
80AC
330
8231
100
AcDbEntity
  8
0
100
AcDbBlockEnd
  0
BLOCK
  5
8234
330
8233
100
AcDbEntity
  8
0
100
AcDbBlockBegin
  2
_NONE
 70
     0
 10
0.0
 20
0.0
 30
0.0
  3
_NONE
  1

  0
CIRCLE
  5
80B0
330
8233
100
AcDbEntity
  8
0
  6
ByBlock
 62
     0
100
AcDbCircle
 10
0.0
 20
0.0
 30
0.0
 40
0.25
  0
ENDBLK
  5
80B1
330
8233
100
AcDbEntity
  8
0
100
AcDbBlockEnd
  0
BLOCK
  5
8236
330
8235
100
AcDbEntity
  8
0
100
AcDbBlockBegin
  2
*D27
 70
     1
 10
0.0
 20
0.0
 30
0.0
  3
*D27
  1

  0
LINE
  5
8103
330
8235
100
AcDbEntity
  8
0
  6
ByBlock
 62
     0
100
AcDbLine
 10
781.692421547341
 20
1992.454481859344
 30
0.0
 11
781.692421547341
 21
2107.454481859345
 31
0.0
  0
TEXT
  5
8104
330
8235
100
AcDbEntity
  8
3
 62
     0
100
AcDbText
 10
668.1209929759122
 20
1893.525910430774
 30
0.0
 40
90.0
  1
(115)
 50
90.0
100
AcDbText
  0
POINT
  5
8105
330
8235
100
AcDbEntity
  8
DEFPOINTS
  6
ByBlock
 62
     0
100
AcDbPoint
 10
1142.672063394282
 20
1992.454481859344
 30
0.0
  0
POINT
  5
8106
330
8235
100
AcDbEntity
  8
DEFPOINTS
  6
ByBlock
 62
     0
100
AcDbPoint
 10
1142.672063394284
 20
2107.454481859345
 30
0.0
  0
POINT
  5
8107
330
8235
100
AcDbEntity
  8
DEFPOINTS
  6
ByBlock
 62
     0
100
AcDbPoint
 10
781.692421547341
 20
2107.454481859345
 30
0.0
  0
ENDBLK
  5
8108
330
8235
100
AcDbEntity
  8
0
100
AcDbBlockEnd
  0
BLOCK
  5
8238
330
8237
100
AcDbEntity
  8
0
100
AcDbBlockBegin
  2
*D28
 70
     1
 10
0.0
 20
0.0
 30
0.0
  3
*D28
  1

  0
LINE
  5
810C
330
8237
100
AcDbEntity
  8
0
  6
ByBlock
 62
     0
100
AcDbLine
 10
1127.672063394282
 20
1892.454481859344
 30
0.0
 11
485.4428413834283
 21
1892.454481859344
 31
0.0
  0
LINE
  5
810D
330
8237
100
AcDbEntity
  8
0
  6
ByBlock
 62
     0
100
AcDbLine
 10
1067.672063394284
 20
3748.454481859345
 30
0.0
 11
485.4428413834283
 21
3748.454481859345
 31
0.0
  0
LINE
  5
810E
330
8237
100
AcDbEntity
  8
0
  6
ByBlock
 62
     0
100
AcDbLine
 10
515.4428413834283
 20
1952.454481859344
 30
0.0
 11
515.4428413834283
 21
3688.454481859346
 31
0.0
  0
INSERT
  5
810F
330
8237
100
AcDbEntity
  8
0
  6
ByBlock
 62
     0
100
AcDbBlockReference
  2
_OPEN
 10
515.4428413834283
 20
1892.454481859344
 30
0.0
 41
60.0
 42
60.0
 43
60.0
 50
270.0
  0
INSERT
  5
8110
330
8237
100
AcDbEntity
  8
0
  6
ByBlock
 62
     0
100
AcDbBlockReference
  2
_OPEN
 10
515.4428413834283
 20
3748.454481859345
 30
0.0
 41
60.0
 42
60.0
 43
60.0
 50
90.0
  0
TEXT
  5
8111
330
8237
100
AcDbEntity
  8
3
 62
     0
100
AcDbText
 10
446.8714128119999
 20
2612.597339002203
 30
0.0
 40
90.0
  1
(1856)
 50
90.0
100
AcDbText
  0
POINT
  5
8112
330
8237
100
AcDbEntity
  8
DEFPOINTS
  6
ByBlock
 62
     0
100
AcDbPoint
 10
1142.672063394282
 20
1892.454481859344
 30
0.0
  0
POINT
  5
8113
330
8237
100
AcDbEntity
  8
DEFPOINTS
  6
ByBlock
 62
     0
100
AcDbPoint
 10
1082.672063394284
 20
3748.454481859345
 30
0.0
  0
POINT
  5
8114
330
8237
100
AcDbEntity
  8
DEFPOINTS
  6
ByBlock
 62
     0
100
AcDbPoint
 10
515.4428413834283
 20
3748.454481859345
 30
0.0
  0
ENDBLK
  5
8115
330
8237
100
AcDbEntity
  8
0
100
AcDbBlockEnd
  0
BLOCK
  5
823D
330
823C
100
AcDbEntity
  8
0
100
AcDbBlockBegin
  2
*D29
 70
     1
 10
0.0
 20
0.0
 30
0.0
  3
*D29
  1

  0
LINE
  5
84DC
330
823C
100
AcDbEntity
  8
3
 62
     0
370
    -2
100
AcDbLine
 10
3715.728072562848
 20
3082.454481859346
 30
0.0
 11
3715.728072562848
 21
4187.41295078125
 31
0.0
  0
LINE
  5
84DD
330
823C
100
AcDbEntity
  8
3
 62
     0
370
    -2
100
AcDbLine
 10
4665.728072562849
 20
4061.646435392971
 30
0.0
 11
4665.728072562849
 21
4187.41295078125
 31
0.0
  0
LINE
  5
84DE
330
823C
100
AcDbEntity
  8
3
 62
     0
370
    -2
100
AcDbLine
 10
3775.728072562849
 20
4157.41295078125
 30
0.0
 11
4605.728072562849
 21
4157.41295078125
 31
0.0
  0
INSERT
  5
84DF
330
823C
100
AcDbEntity
  8
3
 62
     0
370
    -2
100
AcDbBlockReference
  2
_OPEN
 10
3715.728072562848
 20
4157.41295078125
 30
0.0
 41
60.0
 42
60.0
 43
60.0
 50
180.0
  0
INSERT
  5
84E0
330
823C
100
AcDbEntity
  8
3
 62
     0
370
    -2
100
AcDbBlockReference
  2
_OPEN
 10
4665.728072562849
 20
4157.41295078125
 30
0.0
 41
60.0
 42
60.0
 43
60.0
  0
MTEXT
  5
84E1
330
823C
100
AcDbEntity
  8
3
 62
     0
100
AcDbMText
 10
4190.728072562849
 20
4255.984379352678
 30
0.0
 40
90.0
 41
0.0
 71
     5
 72
     1
  1
\A1;(950)
 73
     1
 44
1.0
1001
ACAD
1000
MTEXTBEGIN
1070
    73
1070
     1
1070
    44
1040
1.0
1070
    74
1070
     0
1000
MTEXTEND
  0
POINT
  5
84E2
330
823C
100
AcDbEntity
  8
DEFPOINTS
 62
     0
100
AcDbPoint
 10
3715.728072562848
 20
3067.454481859346
 30
0.0
  0
POINT
  5
84E3
330
823C
100
AcDbEntity
  8
DEFPOINTS
 62
     0
100
AcDbPoint
 10
4665.728072562849
 20
4046.646435392972
 30
0.0
  0
POINT
  5
84E4
330
823C
100
AcDbEntity
  8
DEFPOINTS
 62
     0
100
AcDbPoint
 10
4665.728072562849
 20
4157.41295078125
 30
0.0
  0
ENDBLK
  5
823E
330
823C
100
AcDbEntity
  8
0
100
AcDbBlockEnd
  0
BLOCK
  5
824A
330
8249
100
AcDbEntity
  8
0
100
AcDbBlockBegin
  2
*D30
 70
     1
 10
0.0
 20
0.0
 30
0.0
  3
*D30
  1

  0
LINE
  5
84E5
330
8249
100
AcDbEntity
  8
3
 62
     0
370
    -2
100
AcDbLine
 10
4665.728072562849
 20
4061.646435392971
 30
0.0
 11
4665.728072562849
 21
4187.41295078125
 31
0.0
  0
LINE
  5
84E6
330
8249
100
AcDbEntity
  8
3
 62
     0
370
    -2
100
AcDbLine
 10
5345.728072562849
 20
2762.954481859346
 30
0.0
 11
5345.728072562849
 21
4187.41295078125
 31
0.0
  0
LINE
  5
84E7
330
8249
100
AcDbEntity
  8
3
 62
     0
370
    -2
100
AcDbLine
 10
4725.72807256285
 20
4157.41295078125
 30
0.0
 11
5285.728072562849
 21
4157.41295078125
 31
0.0
  0
INSERT
  5
84E8
330
8249
100
AcDbEntity
  8
3
 62
     0
370
    -2
100
AcDbBlockReference
  2
_OPEN
 10
4665.728072562849
 20
4157.41295078125
 30
0.0
 41
60.0
 42
60.0
 43
60.0
 50
180.0
  0
INSERT
  5
84E9
330
8249
100
AcDbEntity
  8
3
 62
     0
370
    -2
100
AcDbBlockReference
  2
_OPEN
 10
5345.728072562849
 20
4157.41295078125
 30
0.0
 41
60.0
 42
60.0
 43
60.0
  0
MTEXT
  5
84EA
330
8249
100
AcDbEntity
  8
3
 62
     0
100
AcDbMText
 10
5005.72807256285
 20
4255.984379352678
 30
0.0
 40
90.0
 41
0.0
 71
     5
 72
     1
  1
\A1;(680)
 73
     1
 44
1.0
1001
ACAD
1000
MTEXTBEGIN
1070
    73
1070
     1
1070
    44
1040
1.0
1070
    74
1070
     0
1000
MTEXTEND
  0
POINT
  5
84EB
330
8249
100
AcDbEntity
  8
DEFPOINTS
 62
     0
100
AcDbPoint
 10
4665.728072562849
 20
4046.646435392972
 30
0.0
  0
POINT
  5
84EC
330
8249
100
AcDbEntity
  8
DEFPOINTS
 62
     0
100
AcDbPoint
 10
5345.728072562849
 20
2747.954481859345
 30
0.0
  0
POINT
  5
84ED
330
8249
100
AcDbEntity
  8
DEFPOINTS
 62
     0
100
AcDbPoint
 10
5345.728072562849
 20
4157.41295078125
 30
0.0
  0
ENDBLK
  5
824B
330
8249
100
AcDbEntity
  8
0
100
AcDbBlockEnd
  0
BLOCK
  5
8268
330
8267
100
AcDbEntity
  8
0
100
AcDbBlockBegin
  2
*D31
 70
     1
 10
0.0
 20
0.0
 30
0.0
  3
*D31
  1

  0
LINE
  5
826A
330
8267
100
AcDbEntity
  8
3
 62
     0
370
    -2
100
AcDbLine
 10
1142.672063394282
 20
1900.579481859345
 30
0.0
 11
1142.672063394282
 21
1711.450623707603
 31
0.0
  0
LINE
  5
826B
330
8267
100
AcDbEntity
  8
3
 62
     0
370
    -2
100
AcDbLine
 10
1702.672063394284
 20
1900.579481859345
 30
0.0
 11
1702.672063394284
 21
1711.450623707603
 31
0.0
  0
LINE
  5
826C
330
8267
100
AcDbEntity
  8
3
 62
     0
370
    -2
100
AcDbLine
 10
1148.072063394282
 20
1716.850623707603
 30
0.0
 11
1413.029206251426
 21
1716.850623707603
 31
0.0
  0
LINE
  5
826D
330
8267
100
AcDbEntity
  8
3
 62
     0
370
    -2
100
AcDbLine
 10
1697.272063394284
 20
1716.850623707603
 30
0.0
 11
1432.31492053714
 21
1716.850623707603
 31
0.0
  0
SOLID
  5
826E
330
8267
100
AcDbEntity
  8
3
 62
     0
100
AcDbTrace
 10
1148.072063394282
 20
1717.750623707603
 30
0.0
 11
1148.072063394282
 21
1715.950623707603
 31
0.0
 12
1142.672063394282
 22
1716.850623707603
 32
0.0
 13
1142.672063394282
 23
1716.850623707603
 33
0.0
  0
SOLID
  5
826F
330
8267
100
AcDbEntity
  8
3
 62
     0
100
AcDbTrace
 10
1697.272063394284
 20
1717.750623707603
 30
0.0
 11
1697.272063394284
 21
1715.950623707603
 31
0.0
 12
1702.672063394284
 22
1716.850623707603
 32
0.0
 13
1702.672063394284
 23
1716.850623707603
 33
0.0
  0
MTEXT
  5
8270
330
8267
100
AcDbEntity
  8
3
 62
     0
100
AcDbMText
 10
1422.672063394283
 20
1716.850623707603
 30
0.0
 40
5.399999999999999
 41
0.0
 71
     5
 72
     1
  1
\A1;560
 73
     1
 44
1.0
1001
ACAD
1000
MTEXTBEGIN
1070
    73
1070
     1
1070
    44
1040
1.0
1070
    74
1070
     0
1000
MTEXTEND
  0
POINT
  5
8271
330
8267
100
AcDbEntity
  8
DEFPOINTS
 62
     0
100
AcDbPoint
 10
1142.672063394282
 20
1902.454481859345
 30
0.0
  0
POINT
  5
8272
330
8267
100
AcDbEntity
  8
DEFPOINTS
 62
     0
100
AcDbPoint
 10
1702.672063394284
 20
1902.454481859345
 30
0.0
  0
POINT
  5
8273
330
8267
100
AcDbEntity
  8
DEFPOINTS
 62
     0
100
AcDbPoint
 10
1702.672063394284
 20
1716.850623707603
 30
0.0
  0
ENDBLK
  5
8269
330
8267
100
AcDbEntity
  8
0
100
AcDbBlockEnd
  0
BLOCK
  5
8275
330
8274
100
AcDbEntity
  8
0
100
AcDbBlockBegin
  2
*D32
 70
     1
 10
0.0
 20
0.0
 30
0.0
  3
*D32
  1

  0
LINE
  5
8277
330
8274
100
AcDbEntity
  8
3
 62
     0
370
    -2
100
AcDbLine
 10
1702.672063394284
 20
1900.579481859345
 30
0.0
 11
1702.672063394284
 21
1711.450623707603
 31
0.0
  0
LINE
  5
8278
330
8274
100
AcDbEntity
  8
3
 62
     0
370
    -2
100
AcDbLine
 10
3012.672063394284
 20
1900.579481859345
 30
0.0
 11
3012.672063394284
 21
1711.450623707603
 31
0.0
  0
LINE
  5
8279
330
8274
100
AcDbEntity
  8
3
 62
     0
370
    -2
100
AcDbLine
 10
1708.072063394284
 20
1716.850623707603
 30
0.0
 11
2346.48634910857
 21
1716.850623707603
 31
0.0
  0
LINE
  5
827A
330
8274
100
AcDbEntity
  8
3
 62
     0
370
    -2
100
AcDbLine
 10
3007.272063394284
 20
1716.850623707603
 30
0.0
 11
2368.857777679998
 21
1716.850623707603
 31
0.0
  0
SOLID
  5
827B
330
8274
100
AcDbEntity
  8
3
 62
     0
100
AcDbTrace
 10
1708.072063394284
 20
1717.750623707603
 30
0.0
 11
1708.072063394284
 21
1715.950623707603
 31
0.0
 12
1702.672063394284
 22
1716.850623707603
 32
0.0
 13
1702.672063394284
 23
1716.850623707603
 33
0.0
  0
SOLID
  5
827C
330
8274
100
AcDbEntity
  8
3
 62
     0
100
AcDbTrace
 10
3007.272063394284
 20
1717.750623707603
 30
0.0
 11
3007.272063394284
 21
1715.950623707603
 31
0.0
 12
3012.672063394284
 22
1716.850623707603
 32
0.0
 13
3012.672063394284
 23
1716.850623707603
 33
0.0
  0
MTEXT
  5
827D
330
8274
100
AcDbEntity
  8
3
 62
     0
100
AcDbMText
 10
2357.672063394284
 20
1716.850623707603
 30
0.0
 40
5.399999999999999
 41
0.0
 71
     5
 72
     1
  1
\A1;1310
 73
     1
 44
1.0
1001
ACAD
1000
MTEXTBEGIN
1070
    73
1070
     1
1070
    44
1040
1.0
1070
    74
1070
     0
1000
MTEXTEND
  0
POINT
  5
827E
330
8274
100
AcDbEntity
  8
DEFPOINTS
 62
     0
100
AcDbPoint
 10
1702.672063394284
 20
1902.454481859345
 30
0.0
  0
POINT
  5
827F
330
8274
100
AcDbEntity
  8
DEFPOINTS
 62
     0
100
AcDbPoint
 10
3012.672063394284
 20
1902.454481859345
 30
0.0
  0
POINT
  5
8280
330
8274
100
AcDbEntity
  8
DEFPOINTS
 62
     0
100
AcDbPoint
 10
3012.672063394284
 20
1716.850623707603
 30
0.0
  0
ENDBLK
  5
8276
330
8274
100
AcDbEntity
  8
0
100
AcDbBlockEnd
  0
BLOCK
  5
8282
330
8281
100
AcDbEntity
  8
0
100
AcDbBlockBegin
  2
*D33
 70
     1
 10
0.0
 20
0.0
 30
0.0
  3
*D33
  1

  0
LINE
  5
8284
330
8281
100
AcDbEntity
  8
3
 62
     0
370
    -2
100
AcDbLine
 10
3903.72807256285
 20
1900.579481859345
 30
0.0
 11
3903.72807256285
 21
1711.450623707603
 31
0.0
  0
LINE
  5
8285
330
8281
100
AcDbEntity
  8
3
 62
     0
370
    -2
100
AcDbLine
 10
4665.728072562848
 20
1900.579481859345
 30
0.0
 11
4665.728072562848
 21
1711.450623707603
 31
0.0
  0
LINE
  5
8286
330
8281
100
AcDbEntity
  8
3
 62
     0
370
    -2
100
AcDbLine
 10
3909.12807256285
 20
1716.850623707603
 30
0.0
 11
4275.085215419991
 21
1716.850623707603
 31
0.0
  0
LINE
  5
8287
330
8281
100
AcDbEntity
  8
3
 62
     0
370
    -2
100
AcDbLine
 10
4660.328072562848
 20
1716.850623707603
 30
0.0
 11
4294.370929705705
 21
1716.850623707603
 31
0.0
  0
SOLID
  5
8288
330
8281
100
AcDbEntity
  8
3
 62
     0
100
AcDbTrace
 10
3909.12807256285
 20
1717.750623707603
 30
0.0
 11
3909.12807256285
 21
1715.950623707603
 31
0.0
 12
3903.72807256285
 22
1716.850623707603
 32
0.0
 13
3903.72807256285
 23
1716.850623707603
 33
0.0
  0
SOLID
  5
8289
330
8281
100
AcDbEntity
  8
3
 62
     0
100
AcDbTrace
 10
4660.328072562848
 20
1717.750623707603
 30
0.0
 11
4660.328072562848
 21
1715.950623707603
 31
0.0
 12
4665.728072562848
 22
1716.850623707603
 32
0.0
 13
4665.728072562848
 23
1716.850623707603
 33
0.0
  0
MTEXT
  5
828A
330
8281
100
AcDbEntity
  8
3
 62
     0
100
AcDbMText
 10
4284.728072562848
 20
1716.850623707603
 30
0.0
 40
5.399999999999999
 41
0.0
 71
     5
 72
     1
  1
\A1;762
 73
     1
 44
1.0
1001
ACAD
1000
MTEXTBEGIN
1070
    73
1070
     1
1070
    44
1040
1.0
1070
    74
1070
     0
1000
MTEXTEND
  0
POINT
  5
828B
330
8281
100
AcDbEntity
  8
DEFPOINTS
 62
     0
100
AcDbPoint
 10
3903.72807256285
 20
1902.454481859345
 30
0.0
  0
POINT
  5
828C
330
8281
100
AcDbEntity
  8
DEFPOINTS
 62
     0
100
AcDbPoint
 10
4665.728072562848
 20
1902.454481859345
 30
0.0
  0
POINT
  5
828D
330
8281
100
AcDbEntity
  8
DEFPOINTS
 62
     0
100
AcDbPoint
 10
4665.728072562848
 20
1716.850623707603
 30
0.0
  0
ENDBLK
  5
8283
330
8281
100
AcDbEntity
  8
0
100
AcDbBlockEnd
  0
BLOCK
  5
828F
330
828E
100
AcDbEntity
  8
0
100
AcDbBlockBegin
  2
*D34
 70
     1
 10
0.0
 20
0.0
 30
0.0
  3
*D34
  1

  0
LINE
  5
8291
330
828E
100
AcDbEntity
  8
3
 62
     0
370
    -2
100
AcDbLine
 10
4665.728072562848
 20
1900.579481859345
 30
0.0
 11
4665.728072562848
 21
1711.450623707603
 31
0.0
  0
LINE
  5
8292
330
828E
100
AcDbEntity
  8
3
 62
     0
370
    -2
100
AcDbLine
 10
5278.72807256285
 20
1900.579481859345
 30
0.0
 11
5278.72807256285
 21
1711.450623707603
 31
0.0
  0
LINE
  5
8293
330
828E
100
AcDbEntity
  8
3
 62
     0
370
    -2
100
AcDbLine
 10
4671.128072562847
 20
1716.850623707603
 30
0.0
 11
4963.099501134277
 21
1716.850623707603
 31
0.0
  0
LINE
  5
8294
330
828E
100
AcDbEntity
  8
3
 62
     0
370
    -2
100
AcDbLine
 10
5273.328072562851
 20
1716.850623707603
 30
0.0
 11
4981.35664399142
 21
1716.850623707603
 31
0.0
  0
SOLID
  5
8295
330
828E
100
AcDbEntity
  8
3
 62
     0
100
AcDbTrace
 10
4671.128072562847
 20
1717.750623707603
 30
0.0
 11
4671.128072562847
 21
1715.950623707603
 31
0.0
 12
4665.728072562848
 22
1716.850623707603
 32
0.0
 13
4665.728072562848
 23
1716.850623707603
 33
0.0
  0
SOLID
  5
8296
330
828E
100
AcDbEntity
  8
3
 62
     0
100
AcDbTrace
 10
5273.328072562851
 20
1717.750623707603
 30
0.0
 11
5273.328072562851
 21
1715.950623707603
 31
0.0
 12
5278.72807256285
 22
1716.850623707603
 32
0.0
 13
5278.72807256285
 23
1716.850623707603
 33
0.0
  0
MTEXT
  5
8297
330
828E
100
AcDbEntity
  8
3
 62
     0
100
AcDbMText
 10
4972.228072562849
 20
1716.850623707603
 30
0.0
 40
5.399999999999999
 41
0.0
 71
     5
 72
     1
  1
\A1;613
 73
     1
 44
1.0
1001
ACAD
1000
MTEXTBEGIN
1070
    73
1070
     1
1070
    44
1040
1.0
1070
    74
1070
     0
1000
MTEXTEND
  0
POINT
  5
8298
330
828E
100
AcDbEntity
  8
DEFPOINTS
 62
     0
100
AcDbPoint
 10
4665.728072562848
 20
1902.454481859345
 30
0.0
  0
POINT
  5
8299
330
828E
100
AcDbEntity
  8
DEFPOINTS
 62
     0
100
AcDbPoint
 10
5278.72807256285
 20
1902.454481859345
 30
0.0
  0
POINT
  5
829A
330
828E
100
AcDbEntity
  8
DEFPOINTS
 62
     0
100
AcDbPoint
 10
5278.72807256285
 20
1716.850623707603
 30
0.0
  0
ENDBLK
  5
8290
330
828E
100
AcDbEntity
  8
0
100
AcDbBlockEnd
  0
BLOCK
  5
829C
330
829B
100
AcDbEntity
  8
0
100
AcDbBlockBegin
  2
*D35
 70
     1
 10
0.0
 20
0.0
 30
0.0
  3
*D35
  1

  0
LINE
  5
829E
330
829B
100
AcDbEntity
  8
3
 62
     0
370
    -2
100
AcDbLine
 10
781.692421547341
 20
2007.854481859345
 30
0.0
 11
781.692421547341
 21
2048.140196145059
 31
0.0
  0
LINE
  5
829F
330
829B
100
AcDbEntity
  8
3
 62
     0
370
    -2
100
AcDbLine
 10
781.692421547341
 20
2102.054481859346
 30
0.0
 11
781.692421547341
 21
2061.768767573631
 31
0.0
  0
SOLID
  5
82A0
330
829B
100
AcDbEntity
  8
3
 62
     0
100
AcDbTrace
 10
780.792421547341
 20
2007.854481859345
 30
0.0
 11
782.592421547341
 21
2007.854481859345
 31
0.0
 12
781.692421547341
 22
2002.454481859345
 32
0.0
 13
781.692421547341
 23
2002.454481859345
 33
0.0
  0
SOLID
  5
82A1
330
829B
100
AcDbEntity
  8
3
 62
     0
100
AcDbTrace
 10
780.792421547341
 20
2102.054481859346
 30
0.0
 11
782.592421547341
 21
2102.054481859346
 31
0.0
 12
781.692421547341
 22
2107.454481859345
 32
0.0
 13
781.692421547341
 23
2107.454481859345
 33
0.0
  0
MTEXT
  5
82A2
330
829B
100
AcDbEntity
  8
3
 62
     0
100
AcDbMText
 10
781.6924215473407
 20
2054.954481859345
 30
0.0
 40
5.399999999999999
 41
0.0
 71
     5
 72
     1
  1
\A1;(105)
 73
     1
 44
1.0
1001
ACAD
1000
MTEXTBEGIN
1070
    73
1070
     1
1070
    44
1040
1.0
1070
    74
1070
     0
1000
MTEXTEND
  0
POINT
  5
82A3
330
829B
100
AcDbEntity
  8
DEFPOINTS
 62
     0
100
AcDbPoint
 10
1142.672063394282
 20
2002.454481859345
 30
0.0
  0
POINT
  5
82A4
330
829B
100
AcDbEntity
  8
DEFPOINTS
 62
     0
100
AcDbPoint
 10
1142.672063394284
 20
2107.454481859345
 30
0.0
  0
POINT
  5
82A5
330
829B
100
AcDbEntity
  8
DEFPOINTS
 62
     0
100
AcDbPoint
 10
781.692421547341
 20
2107.454481859345
 30
0.0
  0
ENDBLK
  5
829D
330
829B
100
AcDbEntity
  8
0
100
AcDbBlockEnd
  0
BLOCK
  5
82A7
330
82A6
100
AcDbEntity
  8
0
100
AcDbBlockBegin
  2
*D36
 70
     1
 10
0.0
 20
0.0
 30
0.0
  3
*D36
  1

  0
LINE
  5
82A9
330
82A6
100
AcDbEntity
  8
3
 62
     0
370
    -2
100
AcDbLine
 10
1140.797063394282
 20
1902.454481859345
 30
0.0
 11
510.0428413834279
 21
1902.454481859345
 31
0.0
  0
LINE
  5
82AA
330
82A6
100
AcDbEntity
  8
3
 62
     0
370
    -2
100
AcDbLine
 10
1080.797063394284
 20
3748.454481859345
 30
0.0
 11
510.0428413834284
 21
3748.454481859346
 31
0.0
  0
LINE
  5
82AB
330
82A6
100
AcDbEntity
  8
3
 62
     0
370
    -2
100
AcDbLine
 10
515.4428413834279
 20
1907.854481859345
 30
0.0
 11
515.4428413834282
 21
2818.640196145059
 31
0.0
  0
LINE
  5
82AC
330
82A6
100
AcDbEntity
  8
3
 62
     0
370
    -2
100
AcDbLine
 10
515.4428413834283
 20
3743.054481859346
 30
0.0
 11
515.4428413834282
 21
2832.268767573631
 31
0.0
  0
SOLID
  5
82AD
330
82A6
100
AcDbEntity
  8
3
 62
     0
100
AcDbTrace
 10
514.542841383428
 20
1907.854481859345
 30
0.0
 11
516.342841383428
 21
1907.854481859345
 31
0.0
 12
515.4428413834279
 22
1902.454481859345
 32
0.0
 13
515.4428413834279
 23
1902.454481859345
 33
0.0
  0
SOLID
  5
82AE
330
82A6
100
AcDbEntity
  8
3
 62
     0
100
AcDbTrace
 10
514.5428413834284
 20
3743.054481859346
 30
0.0
 11
516.3428413834282
 21
3743.054481859346
 31
0.0
 12
515.4428413834283
 22
3748.454481859346
 32
0.0
 13
515.4428413834283
 23
3748.454481859346
 33
0.0
  0
MTEXT
  5
82AF
330
82A6
100
AcDbEntity
  8
3
 62
     0
100
AcDbMText
 10
515.4428413834278
 20
2825.454481859345
 30
0.0
 40
5.399999999999999
 41
0.0
 71
     5
 72
     1
  1
\A1;(1846)
 73
     1
 44
1.0
1001
ACAD
1000
MTEXTBEGIN
1070
    73
1070
     1
1070
    44
1040
1.0
1070
    74
1070
     0
1000
MTEXTEND
  0
POINT
  5
82B0
330
82A6
100
AcDbEntity
  8
DEFPOINTS
 62
     0
100
AcDbPoint
 10
1142.672063394282
 20
1902.454481859345
 30
0.0
  0
POINT
  5
82B1
330
82A6
100
AcDbEntity
  8
DEFPOINTS
 62
     0
100
AcDbPoint
 10
1082.672063394284
 20
3748.454481859345
 30
0.0
  0
POINT
  5
82B2
330
82A6
100
AcDbEntity
  8
DEFPOINTS
 62
     0
100
AcDbPoint
 10
515.4428413834283
 20
3748.454481859346
 30
0.0
  0
ENDBLK
  5
82A8
330
82A6
100
AcDbEntity
  8
0
100
AcDbBlockEnd
  0
BLOCK
  5
82B4
330
82B3
100
AcDbEntity
  8
0
100
AcDbBlockBegin
  2
*D37
 70
     1
 10
0.0
 20
0.0
 30
0.0
  3
*D37
  1

  0
LINE
  5
82B6
330
82B3
100
AcDbEntity
  8
3
 62
     0
370
    -2
100
AcDbLine
 10
1140.797063394282
 20
2002.454481859345
 30
0.0
 11
777.3136548532107
 21
2002.454481859345
 31
0.0
  0
LINE
  5
82B7
330
82B3
100
AcDbEntity
  8
3
 62
     0
370
    -2
100
AcDbLine
 10
1140.797063394282
 20
1902.454481859345
 30
0.0
 11
777.3136548532107
 21
1902.454481859345
 31
0.0
  0
LINE
  5
82B8
330
82B3
100
AcDbEntity
  8
3
 62
     0
370
    -2
100
AcDbLine
 10
782.7136548532108
 20
1997.054481859344
 30
0.0
 11
782.7136548532108
 21
1957.854481859345
 31
0.0
  0
LINE
  5
82B9
330
82B3
100
AcDbEntity
  8
3
 62
     0
370
    -2
100
AcDbLine
 10
782.7136548532108
 20
1907.854481859345
 30
0.0
 11
782.7136548532108
 21
1947.054481859344
 31
0.0
  0
SOLID
  5
82BA
330
82B3
100
AcDbEntity
  8
3
 62
     0
100
AcDbTrace
 10
781.8136548532107
 20
1997.054481859344
 30
0.0
 11
783.6136548532107
 21
1997.054481859344
 31
0.0
 12
782.7136548532108
 22
2002.454481859345
 32
0.0
 13
782.7136548532108
 23
2002.454481859345
 33
0.0
  0
SOLID
  5
82BB
330
82B3
100
AcDbEntity
  8
3
 62
     0
100
AcDbTrace
 10
781.8136548532107
 20
1907.854481859345
 30
0.0
 11
783.6136548532107
 21
1907.854481859345
 31
0.0
 12
782.7136548532108
 22
1902.454481859345
 32
0.0
 13
782.7136548532108
 23
1902.454481859345
 33
0.0
  0
MTEXT
  5
82BC
330
82B3
100
AcDbEntity
  8
3
 62
     0
100
AcDbMText
 10
782.7136548532104
 20
1952.454481859345
 30
0.0
 40
5.399999999999999
 41
0.0
 71
     5
 72
     1
  1
\A1;100
 73
     1
 44
1.0
1001
ACAD
1000
MTEXTBEGIN
1070
    73
1070
     1
1070
    44
1040
1.0
1070
    74
1070
     0
1000
MTEXTEND
  0
POINT
  5
82BD
330
82B3
100
AcDbEntity
  8
DEFPOINTS
 62
     0
100
AcDbPoint
 10
1142.672063394282
 20
2002.454481859345
 30
0.0
  0
POINT
  5
82BE
330
82B3
100
AcDbEntity
  8
DEFPOINTS
 62
     0
100
AcDbPoint
 10
1142.672063394282
 20
1902.454481859345
 30
0.0
  0
POINT
  5
82BF
330
82B3
100
AcDbEntity
  8
DEFPOINTS
 62
     0
100
AcDbPoint
 10
782.7136548532108
 20
1902.454481859345
 30
0.0
  0
ENDBLK
  5
82B5
330
82B3
100
AcDbEntity
  8
0
100
AcDbBlockEnd
  0
BLOCK
  5
82C5
330
82C4
100
AcDbEntity
  8
0
100
AcDbBlockBegin
  2
*D38
 70
     1
 10
0.0
 20
0.0
 30
0.0
  3
*D38
  1

  0
LINE
  5
82C7
330
82C4
100
AcDbEntity
  8
3
 62
     0
370
    -2
100
AcDbLine
 10
3903.72807256285
 20
1887.454481859344
 30
0.0
 11
3903.72807256285
 21
1686.850623707603
 31
0.0
  0
LINE
  5
82C8
330
82C4
100
AcDbEntity
  8
3
 62
     0
370
    -2
100
AcDbLine
 10
4665.728072562848
 20
1887.454481859344
 30
0.0
 11
4665.728072562848
 21
1686.850623707603
 31
0.0
  0
LINE
  5
82C9
330
82C4
100
AcDbEntity
  8
3
 62
     0
370
    -2
100
AcDbLine
 10
3963.72807256285
 20
1716.850623707603
 30
0.0
 11
4605.728072562848
 21
1716.850623707603
 31
0.0
  0
INSERT
  5
82CA
330
82C4
100
AcDbEntity
  8
3
 62
     0
370
    -2
100
AcDbBlockReference
  2
_OPEN
 10
3903.72807256285
 20
1716.850623707603
 30
0.0
 41
60.0
 42
60.0
 43
60.0
 50
180.0
  0
INSERT
  5
82CB
330
82C4
100
AcDbEntity
  8
3
 62
     0
370
    -2
100
AcDbBlockReference
  2
_OPEN
 10
4665.728072562848
 20
1716.850623707603
 30
0.0
 41
60.0
 42
60.0
 43
60.0
  0
MTEXT
  5
82CC
330
82C4
100
AcDbEntity
  8
3
 62
     0
100
AcDbMText
 10
4284.728072562848
 20
1791.850623707603
 30
0.0
 40
90.0
 41
0.0
 71
     5
 72
     1
  1
\A1;762
 73
     1
 44
1.0
1001
ACAD
1000
MTEXTBEGIN
1070
    73
1070
     1
1070
    44
1040
1.0
1070
    74
1070
     0
1000
MTEXTEND
  0
POINT
  5
82CD
330
82C4
100
AcDbEntity
  8
DEFPOINTS
 62
     0
100
AcDbPoint
 10
3903.72807256285
 20
1902.454481859345
 30
0.0
  0
POINT
  5
82CE
330
82C4
100
AcDbEntity
  8
DEFPOINTS
 62
     0
100
AcDbPoint
 10
4665.728072562848
 20
1902.454481859345
 30
0.0
  0
POINT
  5
82CF
330
82C4
100
AcDbEntity
  8
DEFPOINTS
 62
     0
100
AcDbPoint
 10
4665.728072562848
 20
1716.850623707603
 30
0.0
  0
ENDBLK
  5
82C6
330
82C4
100
AcDbEntity
  8
0
100
AcDbBlockEnd
  0
BLOCK
  5
82D2
330
82D1
100
AcDbEntity
  8
0
100
AcDbBlockBegin
  2
*D39
 70
     1
 10
0.0
 20
0.0
 30
0.0
  3
*D39
  1

  0
LINE
  5
82D4
330
82D1
100
AcDbEntity
  8
3
 62
     0
370
    -2
100
AcDbLine
 10
4665.728072562848
 20
1887.454481859344
 30
0.0
 11
4665.728072562848
 21
1686.850623707603
 31
0.0
  0
LINE
  5
82D5
330
82D1
100
AcDbEntity
  8
3
 62
     0
370
    -2
100
AcDbLine
 10
5278.72807256285
 20
1887.454481859344
 30
0.0
 11
5278.72807256285
 21
1686.850623707603
 31
0.0
  0
LINE
  5
82D6
330
82D1
100
AcDbEntity
  8
3
 62
     0
370
    -2
100
AcDbLine
 10
4725.728072562848
 20
1716.850623707603
 30
0.0
 11
5218.72807256285
 21
1716.850623707603
 31
0.0
  0
INSERT
  5
82D7
330
82D1
100
AcDbEntity
  8
3
 62
     0
370
    -2
100
AcDbBlockReference
  2
_OPEN
 10
4665.728072562848
 20
1716.850623707603
 30
0.0
 41
60.0
 42
60.0
 43
60.0
 50
180.0
  0
INSERT
  5
82D8
330
82D1
100
AcDbEntity
  8
3
 62
     0
370
    -2
100
AcDbBlockReference
  2
_OPEN
 10
5278.72807256285
 20
1716.850623707603
 30
0.0
 41
60.0
 42
60.0
 43
60.0
  0
MTEXT
  5
82D9
330
82D1
100
AcDbEntity
  8
3
 62
     0
100
AcDbMText
 10
4972.228072562849
 20
1791.850623707603
 30
0.0
 40
90.0
 41
0.0
 71
     5
 72
     1
  1
\A1;613
 73
     1
 44
1.0
1001
ACAD
1000
MTEXTBEGIN
1070
    73
1070
     1
1070
    44
1040
1.0
1070
    74
1070
     0
1000
MTEXTEND
  0
POINT
  5
82DA
330
82D1
100
AcDbEntity
  8
DEFPOINTS
 62
     0
100
AcDbPoint
 10
4665.728072562848
 20
1902.454481859345
 30
0.0
  0
POINT
  5
82DB
330
82D1
100
AcDbEntity
  8
DEFPOINTS
 62
     0
100
AcDbPoint
 10
5278.72807256285
 20
1902.454481859345
 30
0.0
  0
POINT
  5
82DC
330
82D1
100
AcDbEntity
  8
DEFPOINTS
 62
     0
100
AcDbPoint
 10
5278.72807256285
 20
1716.850623707603
 30
0.0
  0
ENDBLK
  5
82D3
330
82D1
100
AcDbEntity
  8
0
100
AcDbBlockEnd
  0
BLOCK
  5
82DF
330
82DE
100
AcDbEntity
  8
0
100
AcDbBlockBegin
  2
*D40
 70
     1
 10
0.0
 20
0.0
 30
0.0
  3
*D40
  1

  0
LINE
  5
82E1
330
82DE
100
AcDbEntity
  8
3
 62
     0
370
    -2
100
AcDbLine
 10
1142.672063394282
 20
1887.454481859344
 30
0.0
 11
1142.672063394282
 21
1686.850623707603
 31
0.0
  0
LINE
  5
82E2
330
82DE
100
AcDbEntity
  8
3
 62
     0
370
    -2
100
AcDbLine
 10
1702.672063394284
 20
1887.454481859344
 30
0.0
 11
1702.672063394284
 21
1686.850623707603
 31
0.0
  0
LINE
  5
82E3
330
82DE
100
AcDbEntity
  8
3
 62
     0
370
    -2
100
AcDbLine
 10
1202.672063394282
 20
1716.850623707603
 30
0.0
 11
1642.672063394284
 21
1716.850623707603
 31
0.0
  0
INSERT
  5
82E4
330
82DE
100
AcDbEntity
  8
3
 62
     0
370
    -2
100
AcDbBlockReference
  2
_OPEN
 10
1142.672063394282
 20
1716.850623707603
 30
0.0
 41
60.0
 42
60.0
 43
60.0
 50
180.0
  0
INSERT
  5
82E5
330
82DE
100
AcDbEntity
  8
3
 62
     0
370
    -2
100
AcDbBlockReference
  2
_OPEN
 10
1702.672063394284
 20
1716.850623707603
 30
0.0
 41
60.0
 42
60.0
 43
60.0
  0
MTEXT
  5
82E6
330
82DE
100
AcDbEntity
  8
3
 62
     0
100
AcDbMText
 10
1422.672063394283
 20
1791.850623707603
 30
0.0
 40
90.0
 41
0.0
 71
     5
 72
     1
  1
\A1;560
 73
     1
 44
1.0
1001
ACAD
1000
MTEXTBEGIN
1070
    73
1070
     1
1070
    44
1040
1.0
1070
    74
1070
     0
1000
MTEXTEND
  0
POINT
  5
82E7
330
82DE
100
AcDbEntity
  8
DEFPOINTS
 62
     0
100
AcDbPoint
 10
1142.672063394282
 20
1902.454481859345
 30
0.0
  0
POINT
  5
82E8
330
82DE
100
AcDbEntity
  8
DEFPOINTS
 62
     0
100
AcDbPoint
 10
1702.672063394284
 20
1902.454481859345
 30
0.0
  0
POINT
  5
82E9
330
82DE
100
AcDbEntity
  8
DEFPOINTS
 62
     0
100
AcDbPoint
 10
1702.672063394284
 20
1716.850623707603
 30
0.0
  0
ENDBLK
  5
82E0
330
82DE
100
AcDbEntity
  8
0
100
AcDbBlockEnd
  0
BLOCK
  5
82EC
330
82EB
100
AcDbEntity
  8
0
100
AcDbBlockBegin
  2
*D41
 70
     1
 10
0.0
 20
0.0
 30
0.0
  3
*D41
  1

  0
LINE
  5
82EE
330
82EB
100
AcDbEntity
  8
3
 62
     0
370
    -2
100
AcDbLine
 10
1702.672063394284
 20
1887.454481859344
 30
0.0
 11
1702.672063394284
 21
1686.850623707603
 31
0.0
  0
LINE
  5
82EF
330
82EB
100
AcDbEntity
  8
3
 62
     0
370
    -2
100
AcDbLine
 10
3012.672063394284
 20
1887.454481859344
 30
0.0
 11
3012.672063394284
 21
1686.850623707603
 31
0.0
  0
LINE
  5
82F0
330
82EB
100
AcDbEntity
  8
3
 62
     0
370
    -2
100
AcDbLine
 10
1762.672063394284
 20
1716.850623707603
 30
0.0
 11
2952.672063394284
 21
1716.850623707603
 31
0.0
  0
INSERT
  5
82F1
330
82EB
100
AcDbEntity
  8
3
 62
     0
370
    -2
100
AcDbBlockReference
  2
_OPEN
 10
1702.672063394284
 20
1716.850623707603
 30
0.0
 41
60.0
 42
60.0
 43
60.0
 50
180.0
  0
INSERT
  5
82F2
330
82EB
100
AcDbEntity
  8
3
 62
     0
370
    -2
100
AcDbBlockReference
  2
_OPEN
 10
3012.672063394284
 20
1716.850623707603
 30
0.0
 41
60.0
 42
60.0
 43
60.0
  0
MTEXT
  5
82F3
330
82EB
100
AcDbEntity
  8
3
 62
     0
100
AcDbMText
 10
2357.672063394284
 20
1791.850623707603
 30
0.0
 40
90.0
 41
0.0
 71
     5
 72
     1
  1
\A1;1310
 73
     1
 44
1.0
1001
ACAD
1000
MTEXTBEGIN
1070
    73
1070
     1
1070
    44
1040
1.0
1070
    74
1070
     0
1000
MTEXTEND
  0
POINT
  5
82F4
330
82EB
100
AcDbEntity
  8
DEFPOINTS
 62
     0
100
AcDbPoint
 10
1702.672063394284
 20
1902.454481859345
 30
0.0
  0
POINT
  5
82F5
330
82EB
100
AcDbEntity
  8
DEFPOINTS
 62
     0
100
AcDbPoint
 10
3012.672063394284
 20
1902.454481859345
 30
0.0
  0
POINT
  5
82F6
330
82EB
100
AcDbEntity
  8
DEFPOINTS
 62
     0
100
AcDbPoint
 10
3012.672063394284
 20
1716.850623707603
 30
0.0
  0
ENDBLK
  5
82ED
330
82EB
100
AcDbEntity
  8
0
100
AcDbBlockEnd
  0
BLOCK
  5
82F8
330
82F7
100
AcDbEntity
  8
0
100
AcDbBlockBegin
  2
*D42
 70
     1
 10
0.0
 20
0.0
 30
0.0
  3
*D42
  1

  0
LINE
  5
82FA
330
82F7
100
AcDbEntity
  8
3
 62
     0
370
    -2
100
AcDbLine
 10
3012.672063394282
 20
4866.906332099682
 30
0.0
 11
3012.672063394282
 21
4466.23417261761
 31
0.0
  0
LINE
  5
82FB
330
82F7
100
AcDbEntity
  8
3
 62
     0
370
    -2
100
AcDbLine
 10
1142.672063394282
 20
4866.906332099682
 30
0.0
 11
1142.672063394282
 21
4466.23417261761
 31
0.0
  0
LINE
  5
82FC
330
82F7
100
AcDbEntity
  8
3
 62
     0
370
    -2
100
AcDbLine
 10
3007.272063394282
 20
4471.634172617609
 30
0.0
 11
2100.94349196571
 21
4471.634172617609
 31
0.0
  0
LINE
  5
82FD
330
82F7
100
AcDbEntity
  8
3
 62
     0
370
    -2
100
AcDbLine
 10
1148.072063394282
 20
4471.634172617609
 30
0.0
 11
2054.400634822853
 21
4471.634172617609
 31
0.0
  0
SOLID
  5
82FE
330
82F7
100
AcDbEntity
  8
3
 62
     0
100
AcDbTrace
 10
3007.272063394282
 20
4472.534172617609
 30
0.0
 11
3007.272063394282
 21
4470.73417261761
 31
0.0
 12
3012.672063394282
 22
4471.634172617609
 32
0.0
 13
3012.672063394282
 23
4471.634172617609
 33
0.0
  0
SOLID
  5
82FF
330
82F7
100
AcDbEntity
  8
3
 62
     0
100
AcDbTrace
 10
1148.072063394282
 20
4472.534172617609
 30
0.0
 11
1148.072063394282
 21
4470.73417261761
 31
0.0
 12
1142.672063394282
 22
4471.634172617609
 32
0.0
 13
1142.672063394282
 23
4471.634172617609
 33
0.0
  0
MTEXT
  5
8300
330
82F7
100
AcDbEntity
  8
3
 62
     0
100
AcDbMText
 10
2077.672063394282
 20
4471.634172617609
 30
0.0
 40
5.399999999999999
 41
0.0
 71
     5
 72
     1
  1
\A1;1870.0000
 73
     1
 44
1.0
1001
ACAD
1000
MTEXTBEGIN
1070
    73
1070
     1
1070
    44
1040
1.0
1070
    74
1070
     0
1000
MTEXTEND
  0
POINT
  5
8301
330
82F7
100
AcDbEntity
  8
DEFPOINTS
 62
     0
100
AcDbPoint
 10
3012.672063394282
 20
4868.781332099683
 30
0.0
  0
POINT
  5
8302
330
82F7
100
AcDbEntity
  8
DEFPOINTS
 62
     0
100
AcDbPoint
 10
1142.672063394282
 20
4868.781332099683
 30
0.0
  0
POINT
  5
8303
330
82F7
100
AcDbEntity
  8
DEFPOINTS
 62
     0
100
AcDbPoint
 10
1142.672063394282
 20
4471.634172617609
 30
0.0
  0
ENDBLK
  5
82F9
330
82F7
100
AcDbEntity
  8
0
100
AcDbBlockEnd
  0
BLOCK
  5
8306
330
8305
100
AcDbEntity
  8
0
100
AcDbBlockBegin
  2
*D43
 70
     1
 10
0.0
 20
0.0
 30
0.0
  3
*D43
  1

  0
LINE
  5
8308
330
8305
100
AcDbEntity
  8
3
 62
     0
370
    -2
100
AcDbLine
 10
1142.672063394283
 20
4853.781332099682
 30
0.0
 11
1142.672063394283
 21
4444.183853609036
 31
0.0
  0
LINE
  5
8309
330
8305
100
AcDbEntity
  8
3
 62
     0
370
    -2
100
AcDbLine
 10
3012.672063394282
 20
4853.781332099682
 30
0.0
 11
3012.672063394282
 21
4444.183853609036
 31
0.0
  0
LINE
  5
830A
330
8305
100
AcDbEntity
  8
3
 62
     0
370
    -2
100
AcDbLine
 10
1202.672063394283
 20
4474.183853609036
 30
0.0
 11
2952.672063394281
 21
4474.183853609036
 31
0.0
  0
INSERT
  5
830B
330
8305
100
AcDbEntity
  8
3
 62
     0
370
    -2
100
AcDbBlockReference
  2
_OPEN
 10
1142.672063394283
 20
4474.183853609036
 30
0.0
 41
60.0
 42
60.0
 43
60.0
 50
180.0
  0
INSERT
  5
830C
330
8305
100
AcDbEntity
  8
3
 62
     0
370
    -2
100
AcDbBlockReference
  2
_OPEN
 10
3012.672063394282
 20
4474.183853609036
 30
0.0
 41
60.0
 42
60.0
 43
60.0
  0
MTEXT
  5
830D
330
8305
100
AcDbEntity
  8
3
 62
     0
100
AcDbMText
 10
2077.672063394282
 20
4549.183853609036
 30
0.0
 40
90.0
 41
0.0
 71
     5
 72
     1
  1
\A1;1870
 73
     1
 44
1.0
1001
ACAD
1000
MTEXTBEGIN
1070
    73
1070
     1
1070
    44
1040
1.0
1070
    74
1070
     0
1000
MTEXTEND
  0
POINT
  5
830E
330
8305
100
AcDbEntity
  8
DEFPOINTS
 62
     0
100
AcDbPoint
 10
1142.672063394283
 20
4868.781332099683
 30
0.0
  0
POINT
  5
830F
330
8305
100
AcDbEntity
  8
DEFPOINTS
 62
     0
100
AcDbPoint
 10
3012.672063394282
 20
4868.781332099683
 30
0.0
  0
POINT
  5
8310
330
8305
100
AcDbEntity
  8
DEFPOINTS
 62
     0
100
AcDbPoint
 10
3012.672063394282
 20
4474.183853609036
 30
0.0
  0
ENDBLK
  5
8307
330
8305
100
AcDbEntity
  8
0
100
AcDbBlockEnd
  0
BLOCK
  5
8313
330
8312
100
AcDbEntity
  8
0
100
AcDbBlockBegin
  2
*D44
 70
     1
 10
0.0
 20
0.0
 30
0.0
  3
*D44
  1

  0
LINE
  5
8379
330
8312
100
AcDbEntity
  8
3
 62
     0
370
    -2
100
AcDbLine
 10
1031.416724615737
 20
2787.454481859346
 30
0.0
 11
752.7136548532105
 21
2787.454481859346
 31
0.0
  0
LINE
  5
837A
330
8312
100
AcDbEntity
  8
3
 62
     0
370
    -2
100
AcDbLine
 10
1127.672063394282
 20
2107.454481859345
 30
0.0
 11
752.7136548532104
 21
2107.454481859345
 31
0.0
  0
LINE
  5
837B
330
8312
100
AcDbEntity
  8
3
 62
     0
370
    -2
100
AcDbLine
 10
782.7136548532105
 20
2727.454481859346
 30
0.0
 11
782.7136548532104
 21
2167.454481859345
 31
0.0
  0
INSERT
  5
837C
330
8312
100
AcDbEntity
  8
3
 62
     0
370
    -2
100
AcDbBlockReference
  2
_OPEN
 10
782.7136548532105
 20
2787.454481859346
 30
0.0
 41
60.0
 42
60.0
 43
60.0
 50
90.0
  0
INSERT
  5
837D
330
8312
100
AcDbEntity
  8
3
 62
     0
370
    -2
100
AcDbBlockReference
  2
_OPEN
 10
782.7136548532104
 20
2107.454481859345
 30
0.0
 41
60.0
 42
60.0
 43
60.0
 50
270.0
  0
MTEXT
  5
837E
330
8312
100
AcDbEntity
  8
3
 62
     0
100
AcDbMText
 10
707.71365485321
 20
2447.454481859346
 30
0.0
 40
90.0
 41
0.0
 71
     5
 72
     1
  1
\A1;680
 11
0.0000000000000001
 21
1.0
 31
0.0
 73
     1
 44
1.0
1001
ACAD
1000
MTEXTBEGIN
1070
    73
1070
     1
1070
    44
1040
1.0
1070
    74
1070
     0
1000
MTEXTEND
  0
POINT
  5
837F
330
8312
100
AcDbEntity
  8
DEFPOINTS
 62
     0
100
AcDbPoint
 10
1046.416724615736
 20
2787.454481859346
 30
0.0
  0
POINT
  5
8380
330
8312
100
AcDbEntity
  8
DEFPOINTS
 62
     0
100
AcDbPoint
 10
1142.672063394282
 20
2107.454481859345
 30
0.0
  0
POINT
  5
8381
330
8312
100
AcDbEntity
  8
DEFPOINTS
 62
     0
100
AcDbPoint
 10
782.7136548532104
 20
2107.454481859345
 30
0.0
  0
ENDBLK
  5
8314
330
8312
100
AcDbEntity
  8
0
100
AcDbBlockEnd
  0
BLOCK
  5
8320
330
831F
100
AcDbEntity
  8
0
100
AcDbBlockBegin
  2
*D45
 70
     1
 10
0.0
 20
0.0
 30
0.0
  3
*D45
  1

  0
LINE
  5
8414
330
831F
100
AcDbEntity
  8
3
 62
     0
370
    -2
100
AcDbLine
 10
1127.672063394282
 20
2107.454481859345
 30
0.0
 11
752.7136548532104
 21
2107.454481859345
 31
0.0
  0
LINE
  5
8415
330
831F
100
AcDbEntity
  8
3
 62
     0
370
    -2
100
AcDbLine
 10
1127.672063394282
 20
2002.454481859345
 30
0.0
 11
752.7136548532104
 21
2002.454481859345
 31
0.0
  0
LINE
  5
8416
330
831F
100
AcDbEntity
  8
3
 62
     0
370
    -2
100
AcDbLine
 10
782.7136548532104
 20
2167.454481859345
 30
0.0
 11
782.7136548532104
 21
2227.454481859346
 31
0.0
  0
LINE
  5
8417
330
831F
100
AcDbEntity
  8
3
 62
     0
370
    -2
100
AcDbLine
 10
782.7136548532104
 20
2002.454481859345
 30
0.0
 11
782.7136548532104
 21
1942.454481859344
 31
0.0
  0
LINE
  5
8418
330
831F
100
AcDbEntity
  8
3
 62
     0
370
    -2
100
AcDbLine
 10
782.7136548532104
 20
2054.954481859345
 30
0.0
 11
639.1422262817818
 21
2098.025910430774
 31
0.0
  0
LINE
  5
8419
330
831F
100
AcDbEntity
  8
3
 62
     0
370
    -2
100
AcDbLine
 10
639.1422262817818
 20
2098.025910430774
 30
0.0
 11
639.1422262817819
 21
2488.025910430773
 31
0.0
  0
MTEXT
  5
841A
330
831F
100
AcDbEntity
  8
3
 62
     0
100
AcDbMText
 10
540.570797710353
 20
2293.025910430773
 30
0.0
 40
90.0
 41
0.0
 71
     5
 72
     1
  1
\A1;(105)
 11
0.0000000000000001
 21
1.0
 31
0.0
 73
     1
 44
1.0
1001
ACAD
1000
MTEXTBEGIN
1070
    73
1070
     1
1070
    44
1040
1.0
1070
    74
1070
     0
1000
MTEXTEND
  0
LINE
  5
841B
330
831F
100
AcDbEntity
  8
3
 62
     0
370
    -2
100
AcDbLine
 10
782.7136548532104
 20
2107.454481859345
 30
0.0
 11
782.7136548532104
 21
2002.454481859345
 31
0.0
  0
LINE
  5
841C
330
831F
100
AcDbEntity
  8
3
 62
     0
370
    -2
100
AcDbLine
 10
782.7136548532104
 20
2107.454481859345
 30
0.0
 11
782.7136548532104
 21
2002.454481859345
 31
0.0
  0
INSERT
  5
841D
330
831F
100
AcDbEntity
  8
3
 62
     0
370
    -2
100
AcDbBlockReference
  2
_OPEN
 10
782.7136548532104
 20
2107.454481859345
 30
0.0
 41
60.0
 42
60.0
 43
60.0
 50
270.0
  0
INSERT
  5
841E
330
831F
100
AcDbEntity
  8
3
 62
     0
370
    -2
100
AcDbBlockReference
  2
_DotSmall
 10
782.7136548532104
 20
2002.454481859345
 30
0.0
 41
60.0
 42
60.0
 43
60.0
 50
90.0
  0
POINT
  5
841F
330
831F
100
AcDbEntity
  8
DEFPOINTS
 62
     0
100
AcDbPoint
 10
1142.672063394282
 20
2107.454481859345
 30
0.0
  0
POINT
  5
8420
330
831F
100
AcDbEntity
  8
DEFPOINTS
 62
     0
100
AcDbPoint
 10
1142.672063394282
 20
2002.454481859345
 30
0.0
  0
POINT
  5
8421
330
831F
100
AcDbEntity
  8
DEFPOINTS
 62
     0
100
AcDbPoint
 10
782.7136548532104
 20
2002.454481859345
 30
0.0
  0
ENDBLK
  5
8321
330
831F
100
AcDbEntity
  8
0
100
AcDbBlockEnd
  0
BLOCK
  5
8332
330
8331
100
AcDbEntity
  8
0
100
AcDbBlockBegin
  2
*D46
 70
     1
 10
0.0
 20
0.0
 30
0.0
  3
*D46
  1

  0
LINE
  5
847B
330
8331
100
AcDbEntity
  8
3
 62
     0
370
    -2
100
AcDbLine
 10
1127.672063394282
 20
2002.454481859345
 30
0.0
 11
752.7136548532104
 21
2002.454481859345
 31
0.0
  0
LINE
  5
847C
330
8331
100
AcDbEntity
  8
3
 62
     0
370
    -2
100
AcDbLine
 10
1127.672063394282
 20
1902.454481859345
 30
0.0
 11
752.7136548532104
 21
1902.454481859345
 31
0.0
  0
LINE
  5
847D
330
8331
100
AcDbEntity
  8
3
 62
     0
370
    -2
100
AcDbLine
 10
782.7136548532104
 20
2002.454481859345
 30
0.0
 11
782.7136548532104
 21
2062.454481859345
 31
0.0
  0
LINE
  5
847E
330
8331
100
AcDbEntity
  8
3
 62
     0
370
    -2
100
AcDbLine
 10
782.7136548532104
 20
1842.454481859344
 30
0.0
 11
782.7136548532103
 21
1782.454481859345
 31
0.0
  0
MTEXT
  5
847F
330
8331
100
AcDbEntity
  8
3
 62
     0
100
AcDbMText
 10
704.4736475204118
 20
1762.275842845742
 30
0.0
 40
90.0
 41
0.0
 71
     5
 72
     1
  1
\A1;100
 11
0.0000000000000001
 21
1.0
 31
0.0
 73
     1
 44
1.0
1001
ACAD
1000
MTEXTBEGIN
1070
    73
1070
     1
1070
    44
1040
1.0
1070
    74
1070
     0
1000
MTEXTEND
  0
LINE
  5
8480
330
8331
100
AcDbEntity
  8
3
 62
     0
370
    -2
100
AcDbLine
 10
782.7136548532104
 20
2002.454481859345
 30
0.0
 11
782.7136548532104
 21
1902.454481859345
 31
0.0
  0
INSERT
  5
8481
330
8331
100
AcDbEntity
  8
3
 62
     0
370
    -2
100
AcDbBlockReference
  2
_DotSmall
 10
782.7136548532104
 20
2002.454481859345
 30
0.0
 41
60.0
 42
60.0
 43
60.0
 50
270.0
  0
INSERT
  5
8482
330
8331
100
AcDbEntity
  8
3
 62
     0
370
    -2
100
AcDbBlockReference
  2
_OPEN
 10
782.7136548532104
 20
1902.454481859345
 30
0.0
 41
60.0
 42
60.0
 43
60.0
 50
90.0
  0
POINT
  5
8483
330
8331
100
AcDbEntity
  8
DEFPOINTS
 62
     0
100
AcDbPoint
 10
1142.672063394282
 20
2002.454481859345
 30
0.0
  0
POINT
  5
8484
330
8331
100
AcDbEntity
  8
DEFPOINTS
 62
     0
100
AcDbPoint
 10
1142.672063394282
 20
1902.454481859345
 30
0.0
  0
POINT
  5
8485
330
8331
100
AcDbEntity
  8
DEFPOINTS
 62
     0
100
AcDbPoint
 10
782.7136548532104
 20
1902.454481859345
 30
0.0
  0
ENDBLK
  5
8333
330
8331
100
AcDbEntity
  8
0
100
AcDbBlockEnd
  0
BLOCK
  5
8344
330
8343
100
AcDbEntity
  8
0
100
AcDbBlockBegin
  2
*D47
 70
     1
 10
0.0
 20
0.0
 30
0.0
  3
*D47
  1

  0
LINE
  5
83A6
330
8343
100
AcDbEntity
  8
3
 62
     0
370
    -2
100
AcDbLine
 10
1067.672063394284
 20
3748.454481859345
 30
0.0
 11
416.191835952872
 21
3748.454481859346
 31
0.0
  0
LINE
  5
83A7
330
8343
100
AcDbEntity
  8
3
 62
     0
370
    -2
100
AcDbLine
 10
1127.672063394282
 20
1902.454481859345
 30
0.0
 11
416.1918359528716
 21
1902.454481859345
 31
0.0
  0
LINE
  5
83A8
330
8343
100
AcDbEntity
  8
3
 62
     0
370
    -2
100
AcDbLine
 10
446.191835952872
 20
3688.454481859345
 30
0.0
 11
446.1918359528716
 21
1962.454481859345
 31
0.0
  0
INSERT
  5
83A9
330
8343
100
AcDbEntity
  8
3
 62
     0
370
    -2
100
AcDbBlockReference
  2
_OPEN
 10
446.191835952872
 20
3748.454481859346
 30
0.0
 41
60.0
 42
60.0
 43
60.0
 50
90.0
  0
INSERT
  5
83AA
330
8343
100
AcDbEntity
  8
3
 62
     0
370
    -2
100
AcDbBlockReference
  2
_OPEN
 10
446.1918359528715
 20
1902.454481859345
 30
0.0
 41
60.0
 42
60.0
 43
60.0
 50
270.0
  0
MTEXT
  5
83AB
330
8343
100
AcDbEntity
  8
3
 62
     0
100
AcDbMText
 10
371.1918359528714
 20
2825.454481859345
 30
0.0
 40
90.0
 41
0.0
 71
     5
 72
     1
  1
\A1;1846
 11
0.0000000000000001
 21
1.0
 31
0.0
 73
     1
 44
1.0
1001
ACAD
1000
MTEXTBEGIN
1070
    73
1070
     1
1070
    44
1040
1.0
1070
    74
1070
     0
1000
MTEXTEND
  0
POINT
  5
83AC
330
8343
100
AcDbEntity
  8
DEFPOINTS
 62
     0
100
AcDbPoint
 10
1082.672063394284
 20
3748.454481859345
 30
0.0
  0
POINT
  5
83AD
330
8343
100
AcDbEntity
  8
DEFPOINTS
 62
     0
100
AcDbPoint
 10
1142.672063394282
 20
1902.454481859345
 30
0.0
  0
POINT
  5
83AE
330
8343
100
AcDbEntity
  8
DEFPOINTS
 62
     0
100
AcDbPoint
 10
446.1918359528715
 20
1902.454481859345
 30
0.0
  0
ENDBLK
  5
8345
330
8343
100
AcDbEntity
  8
0
100
AcDbBlockEnd
  0
BLOCK
  5
8412
330
8410
100
AcDbEntity
  8
0
100
AcDbBlockBegin
  2
_DotSmall
 70
     0
 10
0.0
 20
0.0
 30
0.0
  3
_DotSmall
  1

  0
LWPOLYLINE
  5
8411
330
8410
100
AcDbEntity
  8
0
  6
ByBlock
 62
     0
100
AcDbPolyline
 90
        2
 70
     1
 43
0.5
 10
-0.0625
 20
0.0
 42
1.0
 10
0.0625
 20
0.0
 42
1.0
  0
ENDBLK
  5
8413
330
8410
100
AcDbEntity
  8
0
100
AcDbBlockEnd
  0
ENDSEC
  0
SECTION
  2
ENTITIES
  0
INSERT
  5
7C33
330
81F0
100
AcDbEntity
  8
0
100
AcDbBlockReference
  2
YA_N
 10
6.0
 20
5.0
 30
0.0
  0
LINE
  5
7C35
330
81F0
100
AcDbEntity
  8
2
100
AcDbLine
 10
1046.416724615736
 20
2787.454481859346
 30
0.0
 11
2547.996818032976
 21
2787.454481859346
 31
0.0
  0
LINE
  5
7C36
330
81F0
100
AcDbEntity
  8
2
100
AcDbLine
 10
1702.672063394284
 20
3789.416924202903
 30
0.0
 11
1702.672063394284
 21
1902.454481859346
 31
0.0
  0
ARC
  5
7C37
330
81F0
100
AcDbEntity
  8
1
100
AcDbCircle
 10
1635.672063394284
 20
2854.454481859345
 30
0.0
 40
844.0
100
AcDbArc
 50
355.4468476127809
 51
85.44684761278093
  0
ARC
  5
7C38
330
81F0
100
AcDbEntity
  8
1
100
AcDbCircle
 10
1769.672063394284
 20
2854.454481859345
 30
0.0
 40
710.0
100
AcDbArc
 50
294.318882792005
 51
354.5851582938705
  0
ARC
  5
7C39
330
81F0
100
AcDbEntity
  8
1
100
AcDbCircle
 10
1756.172063394284
 20
2733.954481859345
 30
0.0
 40
589.5
100
AcDbArc
 50
174.7929639116505
 51
243.2692061508288
  0
LINE
  5
7C3A
330
81F0
100
AcDbEntity
  8
1
100
AcDbLine
 10
1082.672063394284
 20
3790.954481859346
 30
0.0
 11
1082.672063394284
 21
2780.954481859346
 31
0.0
  0
LINE
  5
7C3B
330
81F0
100
AcDbEntity
  8
1
100
AcDbLine
 10
1082.672063394284
 20
2823.454481859346
 30
0.0
 11
1167.882385109446
 21
2823.454481859346
 31
0.0
  0
LINE
  5
7C3C
330
81F0
100
AcDbEntity
  8
1
100
AcDbLine
 10
1082.672063394284
 20
3748.454481859345
 30
0.0
 11
1702.672063394284
 21
3695.79091872631
 31
0.0
  0
LINE
  5
7C3D
330
81F0
100
AcDbEntity
  8
1
100
AcDbLine
 10
1082.672063394284
 20
3790.954481859346
 30
0.0
 11
1085.672063394284
 21
3790.954481859346
 31
0.0
  0
LINE
  5
7C3E
330
81F0
100
AcDbEntity
  8
1
100
AcDbLine
 10
1082.672063394284
 20
2780.954481859346
 30
0.0
 11
1085.672063394284
 21
2780.954481859346
 31
0.0
  0
LINE
  5
7C3F
330
81F0
100
AcDbEntity
  8
1
100
AcDbLine
 10
1122.672063394284
 20
3745.056832624956
 30
0.0
 11
1122.672063394284
 21
2823.454481859346
 31
0.0
  0
LINE
  5
7C40
330
81F0
100
AcDbEntity
  8
1
100
AcDbLine
 10
1085.672063394284
 20
3790.954481859346
 30
0.0
 11
1085.672063394284
 21
2780.954481859346
 31
0.0
  0
LINE
  5
7C41
330
81F0
100
AcDbEntity
  8
1
100
AcDbLine
 10
3012.672063394282
 20
2207.454481859346
 30
0.0
 11
3012.672063394282
 21
2107.454481859345
 31
0.0
  0
LINE
  5
7C42
330
81F0
100
AcDbEntity
  8
1
100
AcDbLine
 10
1142.672063394284
 20
2207.454481859346
 30
0.0
 11
1142.672063394284
 21
2107.454481859345
 31
0.0
  0
LINE
  5
7C43
330
81F0
100
AcDbEntity
  8
1
100
AcDbLine
 10
3012.672063394282
 20
2107.454481859345
 30
0.0
 11
1142.672063394282
 21
2107.454481859345
 31
0.0
1001
ACAD
1000
ASC_BOUNDS
1002
{
1070
    19
1002
}
  0
LINE
  5
7C44
330
81F0
100
AcDbEntity
  8
1
100
AcDbLine
 10
3012.672063394282
 20
2207.454481859346
 30
0.0
 11
1142.672063394282
 21
2207.454481859346
 31
0.0
  0
LINE
  5
7C45
330
81F0
100
AcDbEntity
  8
2
100
AcDbLine
 10
2762.672063394284
 20
2775.45697285545
 30
0.0
 11
2762.672063394286
 21
1902.454481859345
 31
0.0
  0
LINE
  5
7C46
330
81F0
100
AcDbEntity
  8
2
100
AcDbLine
 10
3123.608031519879
 20
2482.454481859345
 30
0.0
 11
2547.82913694045
 21
2482.454481859345
 31
0.0
  0
LINE
  5
7C47
330
81F0
100
AcDbEntity
  8
1
100
AcDbLine
 10
5225.72807256285
 20
3748.454481859345
 30
0.0
 11
5225.72807256285
 21
2823.454481859346
 31
0.0
  0
LINE
  5
7C48
330
81F0
100
AcDbEntity
  8
1
100
AcDbLine
 10
3903.728072562842
 20
2107.454481859345
 30
0.0
 11
5278.728072562858
 21
2107.454481859345
 31
0.0
1001
ACAD
1000
ASC_BOUNDS
1002
{
1070
    19
1005
0
1005
0
1005
0
1005
0
1002
}
  0
LINE
  5
7C49
330
81F0
100
AcDbEntity
  8
1
100
AcDbLine
 10
3903.72807256285
 20
2207.454481859346
 30
0.0
 11
5278.72807256285
 21
2207.454481859346
 31
0.0
  0
LINE
  5
7C4A
330
81F0
100
AcDbEntity
  8
1
100
AcDbLine
 10
3903.72807256285
 20
2207.454481859346
 30
0.0
 11
3903.728072562842
 21
2107.454481859345
 31
0.0
  0
LINE
  5
7C4B
330
81F0
100
AcDbEntity
  8
1
100
AcDbLine
 10
5278.72807256285
 20
2207.454481859346
 30
0.0
 11
5278.728072562858
 21
2107.454481859345
 31
0.0
  0
LINE
  5
7C4C
330
81F0
100
AcDbEntity
  8
1
100
AcDbLine
 10
4665.728072562849
 20
3748.454481859345
 30
0.0
 11
5225.72807256285
 21
3748.454481859345
 31
0.0
  0
LINE
  5
7C4D
330
81F0
100
AcDbEntity
  8
2
100
AcDbLine
 10
3723.148973917151
 20
2787.454481859346
 30
0.0
 11
5376.247720320588
 21
2787.454481859346
 31
0.0
  0
LINE
  5
7C4E
330
81F0
100
AcDbEntity
  8
1
100
AcDbLine
 10
5216.22807256285
 20
2107.454481859345
 30
0.0
 11
5278.728072562858
 21
2107.454481859345
 31
0.0
1001
ACAD
1000
ASC_BOUNDS
1002
{
1070
    19
1005
0
1005
0
1002
}
  0
LINE
  5
7C4F
330
81F0
100
AcDbEntity
  8
2
100
AcDbLine
 10
4665.728072562849
 20
3920.673423095367
 30
0.0
 11
4665.728072562848
 21
1902.454481859345
 31
0.0
  0
POINT
  5
7C50
330
81F0
100
AcDbEntity
  8
1
100
AcDbPoint
 10
2476.503726522076
 20
2762.454481859346
 30
0.0
  0
INSERT
  5
7C51
330
81F0
100
AcDbEntity
  8
0
100
AcDbBlockReference
  2
YA_N
 10
-1638.667820090515
 20
-980.7401201518075
 30
0.0
 41
20.0
 42
20.0
 43
20.0
  0
INSERT
  5
7C53
330
81F0
100
AcDbEntity
  8
0
100
AcDbBlockReference
  2
YA_N
 10
-1552.816625123014
 20
-1070.405552057982
 30
0.0
 41
20.0
 42
20.0
 43
20.0
  0
ARC
  5
7C55
330
81F0
100
AcDbEntity
  8
1
100
AcDbCircle
 10
2762.672063394284
 20
2482.454481859345
 30
0.0
 40
185.0
100
AcDbArc
 50
287.9452509999999
 51
252.054749
  0
LINE
  5
7C56
330
81F0
100
AcDbEntity
  8
1
100
AcDbLine
 10
2705.672063394284
 20
2306.454481859345
 30
0.0
 11
2819.672063394284
 21
2306.454481859345
 31
0.0
  0
LINE
  5
7C58
330
81F0
100
AcDbEntity
  8
1
100
AcDbLine
 10
2600.672063394284
 20
2377.713514859346
 30
0.0
 11
2600.672063394284
 21
2302.454481859345
 31
0.0
  0
LINE
  5
7C59
330
81F0
100
AcDbEntity
  8
1
100
AcDbLine
 10
2660.172063394285
 20
2307.603040859345
 30
0.0
 11
2669.678777394283
 21
2322.525648859345
 31
0.0
  0
LINE
  5
7C5C
330
81F0
100
AcDbEntity
  8
1
100
AcDbLine
 10
2660.172063394285
 20
2319.454481859345
 30
0.0
 11
2660.172063394285
 21
2302.454481859345
 31
0.0
  0
LINE
  5
7C5E
330
81F0
100
AcDbEntity
  8
1
100
AcDbLine
 10
2657.172063394285
 20
2322.454481859345
 30
0.0
 11
2603.672063394284
 21
2322.454481859345
 31
0.0
  0
ARC
  5
7C5F
330
81F0
100
AcDbEntity
  8
1
100
AcDbCircle
 10
2603.672063394284
 20
2319.454481859345
 30
0.0
 40
3.0
100
AcDbArc
 50
90.0
 51
180.0
  0
LINE
  5
7C66
330
81F0
100
AcDbEntity
  8
1
100
AcDbLine
 10
2651.848150394284
 20
2322.454481859345
 30
0.0
 11
2657.027898394284
 21
2330.585096859346
 31
0.0
  0
ARC
  5
7C68
330
81F0
100
AcDbEntity
  8
1
100
AcDbCircle
 10
2657.172063394285
 20
2319.454481859345
 30
0.0
 40
3.0
100
AcDbArc
 50
0.0
 51
90.0
  0
LINE
  5
7C69
330
81F0
100
AcDbEntity
  8
1
100
AcDbLine
 10
2600.672063394284
 20
2377.713514859346
 30
0.0
 11
2607.056035394283
 21
2382.411268859346
 31
0.0
  0
LINE
  5
7C6E
330
81F0
100
AcDbEntity
  8
1
100
AcDbLine
 10
2865.172063394284
 20
2307.603040859345
 30
0.0
 11
2855.665349394283
 21
2322.525648859345
 31
0.0
  0
LINE
  5
7C72
330
81F0
100
AcDbEntity
  8
1
100
AcDbLine
 10
2865.172063394284
 20
2319.454481859345
 30
0.0
 11
2865.172063394284
 21
2302.454481859345
 31
0.0
  0
LINE
  5
7C73
330
81F0
100
AcDbEntity
  8
1
100
AcDbLine
 10
2924.672063394285
 20
2377.713514859346
 30
0.0
 11
2924.672063394285
 21
2302.454481859345
 31
0.0
  0
LINE
  5
7C75
330
81F0
100
AcDbEntity
  8
1
100
AcDbLine
 10
2868.172063394284
 20
2322.454481859345
 30
0.0
 11
2921.672063394284
 21
2322.454481859345
 31
0.0
  0
LINE
  5
7C77
330
81F0
100
AcDbEntity
  8
1
100
AcDbLine
 10
2873.495977394283
 20
2322.454481859345
 30
0.0
 11
2868.316228394284
 21
2330.585096859346
 31
0.0
  0
ARC
  5
7C78
330
81F0
100
AcDbEntity
  8
1
100
AcDbCircle
 10
2868.172063394284
 20
2319.454481859345
 30
0.0
 40
3.0
100
AcDbArc
 50
90.0
 51
180.0
  0
ARC
  5
7C79
330
81F0
100
AcDbEntity
  8
1
100
AcDbCircle
 10
2921.672063394284
 20
2319.454481859345
 30
0.0
 40
3.0
100
AcDbArc
 50
0.0
 51
90.0
  0
LINE
  5
7C84
330
81F0
100
AcDbEntity
  8
1
100
AcDbLine
 10
2924.672063394285
 20
2377.713514859346
 30
0.0
 11
2918.288152394283
 21
2382.411268859346
 31
0.0
  0
LINE
  5
7C85
330
81F0
100
AcDbEntity
  8
1
100
AcDbLine
 10
2987.672063394284
 20
2247.454481859346
 30
0.0
 11
2537.672063394284
 21
2247.454481859346
 31
0.0
  0
LINE
  5
7C86
330
81F0
100
AcDbEntity
  8
1
100
AcDbLine
 10
2962.672063394284
 20
2247.454481859346
 30
0.0
 11
2962.672063394284
 21
2207.454481859346
 31
0.0
  0
LINE
  5
7C87
330
81F0
100
AcDbEntity
  8
1
100
AcDbLine
 10
2562.672063394284
 20
2247.454481859346
 30
0.0
 11
2562.672063394284
 21
2207.454481859346
 31
0.0
  0
LINE
  5
7C88
330
81F0
100
AcDbEntity
  8
1
100
AcDbLine
 10
2972.773601795407
 20
2302.454481859345
 30
0.0
 11
2832.672063394284
 21
2302.454481859345
 31
0.0
  0
LINE
  5
7C89
330
81F0
100
AcDbEntity
  8
1
100
AcDbLine
 10
2537.672063394284
 20
2247.454481859346
 30
0.0
 11
2552.874380028796
 21
2302.454481859345
 31
0.0
  0
LINE
  5
7C8A
330
81F0
100
AcDbEntity
  8
1
100
AcDbLine
 10
2987.672063394284
 20
2247.454481859346
 30
0.0
 11
2972.773601795407
 21
2302.454481859345
 31
0.0
  0
LINE
  5
7C8C
330
81F0
100
AcDbEntity
  8
1
100
AcDbLine
 10
2832.672063394284
 20
2292.454481859345
 30
0.0
 11
2692.672063394284
 21
2292.454481859345
 31
0.0
  0
LINE
  5
7C8D
330
81F0
100
AcDbEntity
  8
1
100
AcDbLine
 10
2832.672063394284
 20
2302.454481859345
 30
0.0
 11
2832.672063394284
 21
2292.454481859345
 31
0.0
  0
LINE
  5
7C8E
330
81F0
100
AcDbEntity
  8
1
100
AcDbLine
 10
2692.672063394284
 20
2302.454481859345
 30
0.0
 11
2692.672063394284
 21
2292.454481859345
 31
0.0
  0
LINE
  5
7C8F
330
81F0
100
AcDbEntity
  8
1
100
AcDbLine
 10
2692.672063394284
 20
2302.454481859345
 30
0.0
 11
2552.874380028796
 21
2302.454481859345
 31
0.0
  0
LINE
  5
7C92
330
81F0
100
AcDbEntity
  8
1
100
AcDbLine
 10
3012.672063394284
 20
2002.454481859345
 30
0.0
 11
1142.672063394282
 21
2002.454481859345
 31
0.0
1001
ACAD
1000
ASC_BOUNDS
1002
{
1070
    19
1002
}
  0
LINE
  5
7C93
330
81F0
100
AcDbEntity
  8
1
100
AcDbLine
 10
3012.672063394284
 20
2002.454481859345
 30
0.0
 11
3012.672063394284
 21
1902.454481859345
 31
0.0
  0
LINE
  5
7C94
330
81F0
100
AcDbEntity
  8
1
100
AcDbLine
 10
1142.672063394282
 20
2002.454481859345
 30
0.0
 11
1142.672063394282
 21
1902.454481859345
 31
0.0
  0
LINE
  5
7C95
330
81F0
100
AcDbEntity
  8
1
100
AcDbLine
 10
3903.72807256284
 20
2002.454481859345
 30
0.0
 11
5278.72807256285
 21
2002.454481859345
 31
0.0
1001
ACAD
1000
ASC_BOUNDS
1002
{
1070
    19
1005
0
1005
0
1005
0
1005
0
1005
0
1005
0
1002
}
  0
DIMENSION
  5
7C96
330
81F0
100
AcDbEntity
  8
3
100
AcDbDimension
  2
*D4
 10
933.0569549510727
 20
2823.454481859346
 30
0.0
 11
873.0569549510729
 21
3285.954481859345
 31
0.0
 12
1637.673186027797
 22
2507.276386444882
 32
0.0
 71
     5
 42
-1.0
  3
Standard
100
AcDbAlignedDimension
 13
1082.672063394284
 23
3748.454481859345
 33
0.0
 14
1082.672063394284
 24
2823.454481859346
 34
0.0
 50
90.0
100
AcDbRotatedDimension
1001
ACAD
1000
DSTYLE
1002
{
1070
    40
1040
30.0
1002
}
  0
DIMENSION
  5
7C97
330
81F0
100
AcDbEntity
  8
3
100
AcDbDimension
  2
*D5
 10
782.7136548532108
 20
2787.454481859346
 30
0.0
 11
722.7136548532107
 21
3267.954481859345
 31
0.0
 12
1637.673186027797
 22
2507.276386444882
 32
0.0
 71
     5
 42
-1.0
  3
Standard
100
AcDbAlignedDimension
 13
1082.672063394284
 23
3748.454481859345
 33
0.0
 14
1046.416724615736
 24
2787.454481859346
 34
0.0
 50
90.0
100
AcDbRotatedDimension
1001
ACAD
1000
DSTYLE
1002
{
1070
    40
1040
30.0
1002
}
  0
POINT
  5
7C99
330
81F0
100
AcDbEntity
  8
1
100
AcDbPoint
 10
1142.672063394282
 20
2002.454481859345
 30
0.0
  0
POINT
  5
7C9A
330
81F0
100
AcDbEntity
  8
1
100
AcDbPoint
 10
1142.672063394282
 20
1937.454481859346
 30
0.0
  0
POINT
  5
7C9B
330
81F0
100
AcDbEntity
  8
1
100
AcDbPoint
 10
1142.672063394282
 20
2002.454481859345
 30
0.0
  0
POINT
  5
7C9C
330
81F0
100
AcDbEntity
  8
1
100
AcDbPoint
 10
1142.672063394284
 20
2107.454481859345
 30
0.0
  0
DIMENSION
  5
7C9D
330
81F0
100
AcDbEntity
  8
3
100
AcDbDimension
  2
*D7
 10
1702.672063394284
 20
3941.848891574977
 30
0.0
 11
1392.672063394284
 21
4001.848891574977
 31
0.0
 12
1637.673186027797
 22
2507.276386444882
 32
0.0
 71
     5
 42
-1.0
  3
Standard
100
AcDbAlignedDimension
 13
1082.672063394284
 23
3790.954481859346
 33
0.0
 14
1702.672063394284
 24
3789.416924202903
 34
0.0
100
AcDbRotatedDimension
1001
ACAD
1000
DSTYLE
1002
{
1070
    40
1040
30.0
1002
}
  0
DIMENSION
  5
7C9E
330
81F0
100
AcDbEntity
  8
3
100
AcDbDimension
  2
*D8
 10
2476.503726522075
 20
3942.092091564402
 30
0.0
 11
2089.587894958179
 21
4002.092091564401
 31
0.0
 12
1637.673186027797
 22
2507.276386444882
 32
0.0
  1
777
 71
     5
 42
-1.0
  3
Standard
100
AcDbAlignedDimension
 13
1702.672063394284
 23
3789.416924202903
 33
0.0
 14
2476.503726522075
 24
2787.454481859346
 34
0.0
100
AcDbRotatedDimension
1001
ACAD
1000
DSTYLE
1002
{
1070
    40
1040
30.0
1002
}
  0
CIRCLE
  5
7C9F
330
81F0
100
AcDbEntity
  8
1
100
AcDbCircle
 10
2762.672063394284
 20
2482.454481859345
 30
0.0
 40
119.0
  0
LINE
  5
7CA0
330
81F0
100
AcDbEntity
  8
1
100
AcDbLine
 10
5225.72807256285
 20
2823.454481859345
 30
0.0
 11
5225.72807256285
 21
2207.454481859346
 31
0.0
  0
LINE
  5
7CA1
330
81F0
100
AcDbEntity
  8
1
100
AcDbLine
 10
4105.728072562849
 20
3748.454481859345
 30
0.0
 11
4105.728072562849
 21
2787.454481859346
 31
0.0
  0
LINE
  5
7CA2
330
81F0
100
AcDbEntity
  8
1
100
AcDbLine
 10
4665.728072562848
 20
3748.454481859345
 30
0.0
 11
4105.728072562849
 21
3748.454481859345
 31
0.0
  0
LINE
  5
7CA3
330
81F0
100
AcDbEntity
  8
1
100
AcDbLine
 10
4105.728072562849
 20
2787.454481859346
 30
0.0
 11
4105.728072562849
 21
2664.954481859347
 31
0.0
  0
LINE
  5
7CA4
330
81F0
100
AcDbEntity
  8
1
100
AcDbLine
 10
3977.72807256285
 20
2761.654481859345
 30
0.0
 11
4053.428072562851
 21
2761.654481859345
 31
0.0
  0
LINE
  5
7CA5
330
81F0
100
AcDbEntity
  8
1
100
AcDbLine
 10
3967.72807256285
 20
2751.654481859346
 30
0.0
 11
3967.72807256285
 21
2664.954481859347
 31
0.0
  0
LINE
  5
7CA6
330
81F0
100
AcDbEntity
  8
1
100
AcDbLine
 10
4092.728072562849
 20
2761.654481859345
 30
0.0
 11
4092.72807256285
 21
2664.954481859347
 31
0.0
  0
ARC
  5
7CA7
330
81F0
100
AcDbEntity
  8
1
100
AcDbCircle
 10
3977.72807256285
 20
2751.654481859346
 30
0.0
 40
10.0
100
AcDbArc
 50
90.0
 51
180.0000000000003
  0
LINE
  5
7CA8
330
81F0
100
AcDbEntity
  8
1
100
AcDbLine
 10
4053.428072562851
 20
2761.654481859345
 30
0.0
 11
4092.72807256285
 21
2761.654481859345
 31
0.0
  0
LINE
  5
7CA9
330
81F0
100
AcDbEntity
  8
1
100
AcDbLine
 10
5345.728072562848
 20
2747.954481859345
 30
0.0
 11
5345.728072562848
 21
2647.954481859346
 31
0.0
  0
LINE
  5
7CAA
330
81F0
100
AcDbEntity
  8
1
100
AcDbLine
 10
5245.228072562849
 20
2757.954481859345
 30
0.0
 11
5245.228072562849
 21
2637.954481859345
 31
0.0
  0
LINE
  5
7CAB
330
81F0
100
AcDbEntity
  8
1
100
AcDbLine
 10
5245.228072562849
 20
2757.954481859345
 30
0.0
 11
5278.028072562849
 21
2757.954481859345
 31
0.0
  0
LINE
  5
7CAC
330
81F0
100
AcDbEntity
  8
1
100
AcDbLine
 10
5245.228072562849
 20
2637.954481859345
 30
0.0
 11
5278.028072562849
 21
2637.954481859345
 31
0.0
  0
ARC
  5
7CAD
330
81F0
100
AcDbEntity
  8
1
100
AcDbCircle
 10
5335.728072562849
 20
2747.954481859345
 30
0.0
 40
10.0
100
AcDbArc
 50
0.0000000000003257
 51
90.0
  0
ARC
  5
7CAE
330
81F0
100
AcDbEntity
  8
1
100
AcDbCircle
 10
5335.728072562849
 20
2647.954481859346
 30
0.0
 40
10.0
100
AcDbArc
 50
270.0
 51
0.0000000000003257
  0
LINE
  5
7CAF
330
81F0
100
AcDbEntity
  8
1
100
AcDbLine
 10
5278.028072562849
 20
2637.954481859345
 30
0.0
 11
5335.728072562849
 21
2637.954481859345
 31
0.0
  0
LINE
  5
7CB0
330
81F0
100
AcDbEntity
  8
1
100
AcDbLine
 10
5278.028072562849
 20
2757.954481859345
 30
0.0
 11
5335.728072562849
 21
2757.954481859345
 31
0.0
  0
LINE
  5
7CB1
330
81F0
100
AcDbEntity
  8
1
100
AcDbLine
 10
3952.72807256285
 20
2817.454481859346
 30
0.0
 11
3952.72807256285
 21
2757.454481859346
 31
0.0
  0
LINE
  5
7CB2
330
81F0
100
AcDbEntity
  8
1
100
AcDbLine
 10
3947.728072562849
 20
2814.954481859345
 30
0.0
 11
3952.72807256285
 21
2814.954481859345
 31
0.0
  0
LINE
  5
7CB3
330
81F0
100
AcDbEntity
  8
1
100
AcDbLine
 10
3947.728072562849
 20
2759.954481859345
 30
0.0
 11
3952.72807256285
 21
2759.954481859345
 31
0.0
  0
LINE
  5
7CB4
330
81F0
100
AcDbEntity
  8
1
100
AcDbLine
 10
3837.728072562851
 20
2990.654481859345
 30
0.0
 11
3837.728072562847
 21
2363.454481859345
 31
0.0
  0
LINE
  5
7CB5
330
81F0
100
AcDbEntity
  8
1
100
AcDbLine
 10
3947.728072562851
 20
2990.654481859345
 30
0.0
 11
3947.728072562847
 21
2363.454481859345
 31
0.0
  0
LINE
  5
7CB6
330
81F0
100
AcDbEntity
  8
2
100
AcDbLine
 10
3805.083980095519
 20
2482.454481859345
 30
0.0
 11
4550.008860806756
 21
2482.454481859345
 31
0.0
  0
LINE
  5
7CB7
330
81F0
100
AcDbEntity
  8
1
100
AcDbLine
 10
3837.728072562848
 20
2601.454481859346
 30
0.0
 11
3947.728072562848
 21
2601.454481859346
 31
0.0
  0
LINE
  5
7CB8
330
81F0
100
AcDbEntity
  8
1
100
AcDbLine
 10
3837.728072562847
 20
2363.454481859345
 30
0.0
 11
3947.728072562847
 21
2363.454481859345
 31
0.0
  0
LINE
  5
7CB9
330
81F0
100
AcDbEntity
  8
1
100
AcDbLine
 10
3715.728072562848
 20
3067.454481859346
 30
0.0
 11
3715.728072562853
 21
2262.454481859345
 31
0.0
  0
LINE
  5
7CBA
330
81F0
100
AcDbEntity
  8
1
100
AcDbLine
 10
3715.728072562851
 20
2262.454481859345
 30
0.0
 11
3967.728072562853
 21
2262.454481859345
 31
0.0
  0
LINE
  5
7CBB
330
81F0
100
AcDbEntity
  8
1
100
AcDbLine
 10
3967.728072562845
 20
3067.454481859346
 30
0.0
 11
3967.728072562847
 21
3047.454481859345
 31
0.0
  0
LINE
  5
7CBC
330
81F0
100
AcDbEntity
  8
1
100
AcDbLine
 10
3967.728072562851
 20
2282.454481859346
 30
0.0
 11
3967.728072562851
 21
2262.454481859345
 31
0.0
  0
POINT
  5
7CBD
330
81F0
100
AcDbEntity
  8
1
100
AcDbPoint
 10
5345.728072562848
 20
2747.954481859345
 30
0.0
  0
LINE
  5
7CBE
330
81F0
100
AcDbEntity
  8
2
100
AcDbLine
 10
3172.543990759188
 20
5630.781332099684
 30
0.0
 11
1029.309985681286
 21
5630.781332099681
 31
0.0
  0
LINE
  5
7CBF
330
81F0
100
AcDbEntity
  8
2
100
AcDbLine
 10
1702.672063394282
 20
4629.522623345396
 30
0.0
 11
1702.672063394282
 21
6165.289714971009
 31
0.0
  0
INSERT
  5
7CC0
330
81F0
100
AcDbEntity
  8
0
100
AcDbBlockReference
  2
YA_N
 10
1902.396177633552
 20
-2784.746590060132
 30
0.0
  0
LINE
  5
7CC2
330
81F0
100
AcDbEntity
  8
1
100
AcDbLine
 10
5278.72807256285
 20
2112.985986930012
 30
0.0
 11
5278.72807256285
 21
2107.454481859345
 31
0.0
  0
LINE
  5
7CC3
330
81F0
100
AcDbEntity
  8
1
100
AcDbLine
 10
3903.72807256285
 20
1902.454481859345
 30
0.0
 11
5278.72807256285
 21
1902.454481859345
 31
0.0
1001
ACAD
1000
ASC_BOUNDS
1002
{
1070
    19
1002
}
  0
LINE
  5
7CC4
330
81F0
100
AcDbEntity
  8
1
100
AcDbLine
 10
5278.72807256285
 20
2002.454481859345
 30
0.0
 11
5278.72807256285
 21
1902.454481859345
 31
0.0
  0
LINE
  5
7CC8
330
81F0
100
AcDbEntity
  8
1
100
AcDbLine
 10
3952.72807256285
 20
2817.454481859346
 30
0.0
 11
4105.728072562849
 21
2817.454481859346
 31
0.0
  0
LINE
  5
7CC9
330
81F0
100
AcDbEntity
  8
1
100
AcDbLine
 10
3952.72807256285
 20
2757.454481859346
 30
0.0
 11
3969.581907821083
 21
2757.454481859346
 31
0.0
  0
LINE
  5
7CCA
330
81F0
100
AcDbEntity
  8
1
100
AcDbLine
 10
3012.672063394284
 20
1902.454481859345
 30
0.0
 11
1142.672063394282
 21
1902.454481859345
 31
0.0
1001
ACAD
1000
ASC_BOUNDS
1002
{
1070
    19
1002
}
  0
POINT
  5
7CCE
330
81F0
100
AcDbEntity
  8
1
100
AcDbPoint
 10
1142.672063394282
 20
2002.454481859345
 30
0.0
  0
POINT
  5
7CCF
330
81F0
100
AcDbEntity
  8
1
100
AcDbPoint
 10
1142.672063394282
 20
1902.454481859345
 30
0.0
  0
POINT
  5
7CD0
330
81F0
100
AcDbEntity
  8
1
100
AcDbPoint
 10
1142.672063394282
 20
2002.454481859345
 30
0.0
  0
POINT
  5
7CD1
330
81F0
100
AcDbEntity
  8
1
100
AcDbPoint
 10
1142.672063394282
 20
2107.454481859345
 30
0.0
  0
ARC
  5
7CD2
330
81F0
100
AcDbEntity
  8
1
100
AcDbCircle
 10
1702.672063394284
 20
2787.454481859346
 30
0.0
 40
536.0
100
AcDbArc
 50
176.1488768735023
 51
180.0
  0
CIRCLE
  5
7CD3
330
81F0
100
AcDbEntity
  8
1
100
AcDbCircle
 10
1702.672063394284
 20
2787.454481859346
 30
0.0
 40
203.2
  0
ARC
  5
7CD4
330
81F0
100
AcDbEntity
  8
1
100
AcDbCircle
 10
1702.672063394284
 20
2787.454481859346
 30
0.0
 40
280.0
100
AcDbArc
 50
70.82933319943862
 51
257.0658187862481
  0
ARC
  5
7CD5
330
81F0
100
AcDbEntity
  8
1
100
AcDbCircle
 10
2762.672063394284
 20
2482.454481859345
 30
0.0
 40
220.0
100
AcDbArc
 50
257.0658187862481
 51
70.82933319943859
  0
LINE
  5
7CD6
330
81F0
100
AcDbEntity
  8
1
100
AcDbLine
 10
1773.603135673731
 20
2977.872503551852
 30
0.0
 11
2804.211421668174
 21
2593.968972909583
 31
0.0
  0
LINE
  5
7CD7
330
81F0
100
AcDbEntity
  8
1
100
AcDbLine
 10
1661.554625389982
 20
2588.458008795217
 30
0.0
 11
2738.592461413418
 21
2365.916193007813
 31
0.0
  0
LINE
  5
7CD8
330
81F0
100
AcDbEntity
  8
1
100
AcDbLine
 10
1639.999217035734
 20
2514.558687957502
 30
0.0
 11
2713.429112683995
 21
2268.036358079325
 31
0.0
  0
LINE
  5
7CD9
330
81F0
100
AcDbEntity
  8
1
100
AcDbLine
 10
3837.728072562851
 20
2990.654481859345
 30
0.0
 11
3947.728072562851
 21
2990.654481859345
 31
0.0
  0
LINE
  5
7CDA
330
81F0
100
AcDbEntity
  8
1
100
AcDbLine
 10
3837.728072562848
 20
2584.254481859346
 30
0.0
 11
3947.728072562848
 21
2584.254481859346
 31
0.0
  0
LINE
  5
7CDB
330
81F0
100
AcDbEntity
  8
1
100
AcDbLine
 10
3715.728072562848
 20
3067.454481859346
 30
0.0
 11
3967.728072562845
 21
3067.454481859346
 31
0.0
  0
DIMENSION
  5
7CDC
330
81F0
100
AcDbEntity
  8
3
100
AcDbDimension
  2
*D9
 10
5225.72807256285
 20
3941.646435392974
 30
0.0
 11
4665.728072562848
 21
4001.646435392973
 31
0.0
 12
1200.922243951386
 22
2507.276386444882
 32
0.0
 71
     5
 42
-1.0
  3
Standard
100
AcDbAlignedDimension
 13
4105.728072562849
 23
3717.913066074654
 33
0.0
 14
5225.72807256285
 24
3720.956459412383
 34
0.0
100
AcDbRotatedDimension
1001
ACAD
1000
DSTYLE
1002
{
1070
    40
1040
30.0
1002
}
  0
LINE
  5
7CE0
330
81F0
100
AcDbEntity
  8
1
100
AcDbLine
 10
2262.672063394282
 20
6243.781332099684
 30
0.0
 11
1142.672063394283
 21
6243.781332099681
 31
0.0
  0
LINE
  5
7CE1
330
81F0
100
AcDbEntity
  8
1
100
AcDbLine
 10
3012.672063394282
 20
4868.781332099683
 30
0.0
 11
1142.672063394283
 21
4868.781332099683
 31
0.0
  0
LINE
  5
7CE2
330
81F0
100
AcDbEntity
  8
1
100
AcDbLine
 10
1142.672063394282
 20
4868.781332099683
 30
0.0
 11
1142.672063394282
 21
5070.781332099682
 31
0.0
  0
LINE
  5
7CE3
330
81F0
100
AcDbEntity
  8
1
100
AcDbLine
 10
2262.672063394282
 20
6190.781332099682
 30
0.0
 11
2262.672063394282
 21
6243.781332099681
 31
0.0
  0
LINE
  5
7CE4
330
81F0
100
AcDbEntity
  8
1
100
AcDbLine
 10
3012.672063394282
 20
4868.781332099684
 30
0.0
 11
3012.672063394282
 21
5668.781332099683
 31
0.0
  0
LINE
  5
7CE5
330
81F0
100
AcDbEntity
  8
1
100
AcDbLine
 10
3012.672063394282
 20
5668.781332099681
 30
0.0
 11
2479.672063394282
 21
5668.781332099681
 31
0.0
  0
LINE
  5
7CE6
330
81F0
100
AcDbEntity
  8
2
100
AcDbLine
 10
2762.672063394282
 20
4556.205791920836
 30
0.0
 11
2762.672063394282
 21
5460.879674665894
 31
0.0
  0
DIMENSION
  5
7CE7
330
81F0
100
AcDbEntity
  8
3
100
AcDbDimension
  2
*D13
 10
2262.672063394282
 20
6545.795990604904
 30
0.0
 11
2637.672063394282
 21
6605.795990604905
 31
0.0
 12
1637.673186027797
 22
2253.966921065861
 32
0.0
 71
     5
 42
-1.0
  3
Standard
100
AcDbAlignedDimension
 13
3012.672063394282
 23
5668.781332099683
 33
0.0
 14
2262.672063394282
 24
6243.781332099684
 34
0.0
100
AcDbRotatedDimension
1001
ACAD
1000
DSTYLE
1002
{
1070
    40
1040
30.0
1002
}
  0
DIMENSION
  5
7CE8
330
81F0
100
AcDbEntity
  8
3
100
AcDbDimension
  2
*D14
 10
1142.672063394283
 20
6545.795990604904
 30
0.0
 11
1702.672063394283
 21
6605.795990604905
 31
0.0
 12
1637.673186027797
 22
2253.966921065861
 32
0.0
 71
     5
 42
-1.0
  3
Standard
100
AcDbAlignedDimension
 13
2262.672063394282
 23
6243.781332099684
 33
0.0
 14
1142.672063394283
 24
6243.781332099681
 34
0.0
100
AcDbRotatedDimension
1001
ACAD
1000
DSTYLE
1002
{
1070
    40
1040
30.0
1002
}
  0
DIMENSION
  5
7CE9
330
81F0
100
AcDbEntity
  8
3
100
AcDbDimension
  2
*D15
 10
842.2478412278668
 20
4868.781332099683
 30
0.0
 11
782.2478412278668
 21
5556.281332099681
 31
0.0
 12
1637.673186027797
 22
2253.966921065861
 32
0.0
 71
     5
 42
-1.0
  3
Standard
100
AcDbAlignedDimension
 13
1142.672063394283
 23
6243.781332099681
 33
0.0
 14
1142.672063394282
 24
4868.781332099683
 34
0.0
 50
270.0
100
AcDbRotatedDimension
1001
ACAD
1000
DSTYLE
1002
{
1070
    40
1040
30.0
1002
}
  0
DIMENSION
  5
7CEB
330
81F0
100
AcDbEntity
  8
3
100
AcDbDimension
  2
*D17
 10
3313.412769780907
 20
4868.781332099683
 30
0.0
 11
3253.412769780906
 21
5268.781332099684
 31
0.0
 12
1637.673186027797
 22
2253.966921065861
 32
0.0
 71
     5
 42
-1.0
  3
Standard
100
AcDbAlignedDimension
 13
3012.672063394282
 23
5668.781332099683
 33
0.0
 14
3012.672063394282
 24
4868.781332099683
 34
0.0
 50
270.0
100
AcDbRotatedDimension
1001
ACAD
1000
DSTYLE
1002
{
1070
    40
1040
30.0
1002
}
  0
DIMENSION
  5
7CEC
330
81F0
100
AcDbEntity
  8
3
100
AcDbDimension
  2
*D18
 10
5549.619066390984
 20
3262.454481859345
 30
0.0
 11
5549.619066390984
 21
2787.454481859346
 31
0.0
 12
1200.922243951386
 22
2507.276386444882
 32
0.0
 70
   128
  1
\U+03C6<>
 71
     5
 42
-1.0
  3
Standard
100
AcDbAlignedDimension
 13
5231.228072562849
 23
2312.454481859345
 33
0.0
 14
5231.228072562849
 24
3262.454481859345
 34
0.0
 50
90.0
100
AcDbRotatedDimension
1001
ACAD
1000
DSTYLE
1002
{
1070
    40
1040
30.0
1002
}
  0
CIRCLE
  5
7CED
330
81F0
100
AcDbEntity
  8
1
100
AcDbCircle
 10
1702.672063394284
 20
2787.454481859346
 30
0.0
 40
475.0
  0
CIRCLE
  5
7CEE
330
81F0
100
AcDbEntity
  8
1
100
AcDbCircle
 10
1702.672063394284
 20
2787.454481859346
 30
0.0
 40
515.0
  0
LINE
  5
7CEF
330
81F0
100
AcDbEntity
  8
1
100
AcDbLine
 10
1794.619336959244
 20
3051.926973593307
 30
0.0
 11
2834.916349766753
 21
2690.254296793173
 31
0.0
  0
DIMENSION
  5
7CF3
330
81F0
100
AcDbEntity
  8
3
100
AcDbDimension
  2
*D21
 10
3012.672063394282
 20
4137.110429238729
 30
0.0
 11
2047.672063394283
 21
4197.110429238729
 31
0.0
 12
1637.673186027797
 22
2507.276386444882
 32
0.0
 71
     5
 42
-1.0
  3
Standard
100
AcDbAlignedDimension
 13
1082.672063394284
 23
3790.954481859346
 33
0.0
 14
3012.672063394282
 24
2207.454481859346
 34
0.0
100
AcDbRotatedDimension
1001
ACAD
1000
DSTYLE
1002
{
1070
    40
1040
30.0
1002
}
  0
LINE
  5
7CF4
330
81F0
100
AcDbEntity
  8
1
100
AcDbLine
 10
3903.72807256284
 20
2002.454481859345
 30
0.0
 11
3903.728072562831
 21
1902.454481859345
 31
0.0
  0
LINE
  5
7CF5
330
81F0
100
AcDbEntity
  8
1
100
AcDbLine
 10
2982.672063394284
 20
4680.781332099683
 30
0.0
 11
1422.672063394284
 21
4680.781332099682
 31
0.0
  0
LINE
  5
7CF6
330
81F0
100
AcDbEntity
  8
1
100
AcDbLine
 10
2982.672063394284
 20
4970.781332099685
 30
0.0
 11
1422.672063394284
 21
4970.781332099682
 31
0.0
  0
LINE
  5
7CF7
330
81F0
100
AcDbEntity
  8
1
100
AcDbLine
 10
2881.672063394285
 20
4840.781332099685
 30
0.0
 11
2643.672063394284
 21
4840.781332099685
 31
0.0
  0
LINE
  5
7CF8
330
81F0
100
AcDbEntity
  8
1
100
AcDbLine
 10
2881.672063394285
 20
4950.781332099683
 30
0.0
 11
2643.672063394284
 21
4950.781332099683
 31
0.0
  0
LINE
  5
7CF9
330
81F0
100
AcDbEntity
  8
1
100
AcDbLine
 10
1422.672063394284
 20
4680.781332099682
 30
0.0
 11
1422.672063394284
 21
4970.781332099682
 31
0.0
  0
LINE
  5
7CFA
330
81F0
100
AcDbEntity
  8
1
100
AcDbLine
 10
2982.672063394284
 20
4680.781332099683
 30
0.0
 11
2982.672063394284
 21
4970.781332099685
 31
0.0
  0
LINE
  5
7CFB
330
81F0
100
AcDbEntity
  8
1
100
AcDbLine
 10
1499.472063394284
 20
4840.781332099682
 30
0.0
 11
1499.472063394284
 21
4950.781332099682
 31
0.0
  0
LINE
  5
7CFC
330
81F0
100
AcDbEntity
  8
1
100
AcDbLine
 10
1905.872063394284
 20
4840.781332099682
 30
0.0
 11
1905.872063394284
 21
4950.781332099682
 31
0.0
  0
LINE
  5
7CFD
330
81F0
100
AcDbEntity
  8
1
100
AcDbLine
 10
2643.672063394284
 20
4840.781332099682
 30
0.0
 11
2643.672063394284
 21
4950.781332099683
 31
0.0
  0
LINE
  5
7CFE
330
81F0
100
AcDbEntity
  8
1
100
AcDbLine
 10
2881.672063394285
 20
4840.781332099685
 30
0.0
 11
2881.672063394285
 21
4950.781332099683
 31
0.0
  0
LINE
  5
7CFF
330
81F0
100
AcDbEntity
  8
1
100
AcDbLine
 10
1905.872063394284
 20
4950.781332099682
 30
0.0
 11
1499.472063394284
 21
4950.781332099682
 31
0.0
  0
LINE
  5
7D00
330
81F0
100
AcDbEntity
  8
1
100
AcDbLine
 10
1905.872063394284
 20
4840.781332099684
 30
0.0
 11
1499.472063394284
 21
4840.781332099682
 31
0.0
  0
LINE
  5
7D01
330
81F0
100
AcDbEntity
  8
1
100
AcDbLine
 10
1082.672063394282
 20
5030.781332099682
 30
0.0
 11
1082.672063394282
 21
6230.781332099681
 31
0.0
  0
LINE
  5
7D02
330
81F0
100
AcDbEntity
  8
1
100
AcDbLine
 10
2479.672063394282
 20
5070.781332099682
 30
0.0
 11
2479.672063394282
 21
6190.781332099684
 31
0.0
  0
LINE
  5
7D03
330
81F0
100
AcDbEntity
  8
1
100
AcDbLine
 10
2479.672063394282
 20
6190.781332099682
 30
0.0
 11
1082.672063394282
 21
6190.781332099682
 31
0.0
  0
LINE
  5
7D04
330
81F0
100
AcDbEntity
  8
1
100
AcDbLine
 10
2479.672063394282
 20
5070.781332099682
 30
0.0
 11
1082.672063394282
 21
5070.781332099682
 31
0.0
  0
LINE
  5
7D05
330
81F0
100
AcDbEntity
  8
1
100
AcDbLine
 10
2945.172063394281
 20
5517.281332099685
 30
0.0
 11
2580.172063394281
 21
5517.281332099686
 31
0.0
  0
LINE
  5
7D06
330
81F0
100
AcDbEntity
  8
1
100
AcDbLine
 10
2580.172063394281
 20
4955.781332099685
 30
0.0
 11
2580.172063394281
 21
5517.281332099685
 31
0.0
  0
LINE
  5
7D07
330
81F0
100
AcDbEntity
  8
1
100
AcDbLine
 10
2945.172063394281
 20
4955.781332099685
 30
0.0
 11
2945.172063394281
 21
5517.281332099685
 31
0.0
  0
LINE
  5
7D08
330
81F0
100
AcDbEntity
  8
1
100
AcDbLine
 10
2945.172063394281
 20
4955.781332099685
 30
0.0
 11
2580.172063394281
 21
4955.781332099686
 31
0.0
  0
LINE
  5
7D09
330
81F0
100
AcDbEntity
  8
1
100
AcDbLine
 10
2738.672063394282
 20
4950.781332099683
 30
0.0
 11
2738.672063394282
 21
4955.781332099685
 31
0.0
  0
LINE
  5
7D0A
330
81F0
100
AcDbEntity
  8
1
100
AcDbLine
 10
2786.672063394282
 20
4950.781332099683
 30
0.0
 11
2786.672063394282
 21
4955.781332099685
 31
0.0
  0
LINE
  5
7D0B
330
81F0
100
AcDbEntity
  8
1
100
AcDbLine
 10
1672.672063394283
 20
4950.781332099682
 30
0.0
 11
1672.672063394283
 21
5070.781332099682
 31
0.0
  0
LINE
  5
7D0C
330
81F0
100
AcDbEntity
  8
1
100
AcDbLine
 10
1732.672063394282
 20
4950.781332099682
 30
0.0
 11
1732.672063394282
 21
5070.781332099682
 31
0.0
  0
LINE
  5
7D0D
330
81F0
100
AcDbEntity
  8
1
100
AcDbLine
 10
3952.728072562848
 20
2664.954481859347
 30
0.0
 11
4514.228072562848
 21
2664.954481859347
 31
0.0
  0
LINE
  5
7D0E
330
81F0
100
AcDbEntity
  8
1
100
AcDbLine
 10
3952.728072562848
 20
2299.954481859345
 30
0.0
 11
4514.228072562848
 21
2299.954481859348
 31
0.0
  0
LINE
  5
7D0F
330
81F0
100
AcDbEntity
  8
1
100
AcDbLine
 10
3952.728072562848
 20
2664.954481859346
 30
0.0
 11
3952.728072562848
 21
2299.954481859345
 31
0.0
  0
LINE
  5
7D10
330
81F0
100
AcDbEntity
  8
1
100
AcDbLine
 10
3947.728072562848
 20
2531.454481859347
 30
0.0
 11
3952.728072562848
 21
2531.454481859347
 31
0.0
  0
LINE
  5
7D11
330
81F0
100
AcDbEntity
  8
1
100
AcDbLine
 10
3947.728072562848
 20
2483.454481859347
 30
0.0
 11
3952.728072562848
 21
2483.454481859347
 31
0.0
  0
LINE
  5
7D12
330
81F0
100
AcDbEntity
  8
1
100
AcDbLine
 10
4092.728072562849
 20
2664.954481859347
 30
0.0
 11
4105.728072562849
 21
2664.954481859347
 31
0.0
  0
LINE
  5
7D1C
330
81F0
100
AcDbEntity
  8
1
100
AcDbLine
 10
1142.672063394282
 20
6190.781332099682
 30
0.0
 11
1142.672063394282
 21
6243.781332099681
 31
0.0
  0
LINE
  5
7D1D
330
81F0
100
AcDbEntity
  8
1
100
AcDbLine
 10
1085.672063394282
 20
6230.781332099681
 30
0.0
 11
1082.672063394282
 21
6230.781332099681
 31
0.0
  0
LINE
  5
7D1E
330
81F0
100
AcDbEntity
  8
1
100
AcDbLine
 10
1085.672063394282
 20
5030.781332099682
 30
0.0
 11
1082.672063394282
 21
5030.781332099682
 31
0.0
  0
LINE
  5
7D1F
330
81F0
100
AcDbEntity
  8
1
100
AcDbLine
 10
1085.672063394282
 20
5030.781332099682
 30
0.0
 11
1085.672063394282
 21
6230.781332099681
 31
0.0
  0
LINE
  5
7D20
330
81F0
100
AcDbEntity
  8
1
100
AcDbLine
 10
4514.228072562848
 20
2664.954481859346
 30
0.0
 11
4514.228072562848
 21
2299.954481859345
 31
0.0
  0
LINE
  5
7D21
330
81F0
100
AcDbEntity
  8
1
100
AcDbLine
 10
3947.728072562848
 20
2433.454481859345
 30
0.0
 11
3952.728072562848
 21
2433.454481859345
 31
0.0
  0
LINE
  5
7D22
330
81F0
100
AcDbEntity
  8
1
100
AcDbLine
 10
4436.504519407721
 20
2299.954481859348
 30
0.0
 11
4436.504519407721
 21
2207.454481859346
 31
0.0
  0
LINE
  5
7D23
330
81F0
100
AcDbEntity
  8
1
100
AcDbLine
 10
4015.897414477666
 20
2299.954481859347
 30
0.0
 11
4015.897414477666
 21
2207.454481859346
 31
0.0
  0
LINE
  5
7D24
330
81F0
100
AcDbEntity
  8
1
100
AcDbLine
 10
4015.897414477666
 20
2247.454481859346
 30
0.0
 11
4436.504519407721
 21
2247.454481859346
 31
0.0
  0
LINE
  5
7F74
330
81F0
100
AcDbEntity
  8
4
100
AcDbLine
 10
5550.0
 20
1500.0
 30
0.0
 11
5550.0
 21
900.0
 31
0.0
  0
LINE
  5
7F75
330
81F0
100
AcDbEntity
  8
4
100
AcDbLine
 10
3450.0
 20
1500.0
 30
0.0
 11
3450.0
 21
900.0
 31
0.0
  0
LINE
  5
7F76
330
81F0
100
AcDbEntity
  8
4
100
AcDbLine
 10
1950.0
 20
1500.0
 30
0.0
 11
1950.0
 21
900.0
 31
0.0
  0
LINE
  5
7F79
330
81F0
100
AcDbEntity
  8
4
100
AcDbLine
 10
1950.0
 20
900.0
 30
0.0
 11
5550.0
 21
900.0
 31
0.0
  0
LINE
  5
7F7A
330
81F0
100
AcDbEntity
  8
4
100
AcDbLine
 10
1950.0
 20
1200.0
 30
0.0
 11
5550.0
 21
1200.0
 31
0.0
  0
TEXT
  5
7F7B
330
81F0
100
AcDbEntity
  8
4
100
AcDbText
 10
2065.506242540704
 20
1294.629077599838
 30
0.0
 40
150.0
  1
機器名称
100
AcDbText
  0
TEXT
  5
7F7C
330
81F0
100
AcDbEntity
  8
4
100
AcDbText
 10
2058.774318074392
 20
964.9354701960326
 30
0.0
 40
150.0
  1
機器型番
100
AcDbText
  0
TEXT
  5
7F7D
330
81F0
100
AcDbEntity
  8
4
100
AcDbText
 10
3533.036236462995
 20
1267.715306872705
 30
0.0
 40
150.0
  1
ミツヤ多翼送風機
100
AcDbText
  0
TEXT
  5
7F7E
330
81F0
100
AcDbEntity
  8
4
100
AcDbText
 10
3559.963486756442
 20
951.4787528398301
 30
0.0
 40
150.0
  1
MF#5 1/2-5
100
AcDbText
  0
TEXT
  5
7F80
330
81F0
100
AcDbEntity
  8
4
100
AcDbText
 10
2413.372355401916
 20
7150.286523997547
 30
0.0
 40
161.9999999999998
  1
床置防振ベット
100
AcDbText
  0
TEXT
  5
7F81
330
81F0
100
AcDbEntity
  8
4
100
AcDbText
 10
948.5027799883393
 20
7601.642928597894
 30
0.0
 40
216.0
  1
遠心式両吸込両持多翼ファン
100
AcDbText
  0
LINE
  5
7F82
330
81F0
100
AcDbEntity
  8
4
100
AcDbLine
 10
750.0
 20
7408.226262794413
 30
0.0
 11
5550.0
 21
7408.226262794413
 31
0.0
  0
LINE
  5
7F83
330
81F0
100
AcDbEntity
  8
4
100
AcDbLine
 10
750.0
 20
8008.226262794414
 30
0.0
 11
5550.0
 21
8008.226262794414
 31
0.0
  0
LINE
  5
7F84
330
81F0
100
AcDbEntity
  8
4
100
AcDbLine
 10
1950.0
 20
1500.0
 30
0.0
 11
5550.0
 21
1500.0
 31
0.0
  0
LINE
  5
7F85
330
81F0
100
AcDbEntity
  8
4
100
AcDbLine
 10
750.0
 20
8008.226262794414
 30
0.0
 11
750.0
 21
7408.226262794413
 31
0.0
  0
TEXT
  5
7F86
330
81F0
100
AcDbEntity
  8
4
100
AcDbText
 10
1105.795858673809
 20
7146.958432639029
 30
0.0
 40
161.9999999999998
  1
左回転左横向
100
AcDbText
  0
TEXT
  5
7F87
330
81F0
100
AcDbEntity
  8
4
100
AcDbText
 10
4406.908677747869
 20
8118.183244485924
 30
0.0
 40
168.0
  1
No.
100
AcDbText
  0
TEXT
  5
7F88
330
81F0
100
AcDbEntity
  8
4
100
AcDbText
 10
3933.888187800039
 20
7150.286523997547
 30
0.0
 40
161.9999999999998
  1
縮尺：1/30
100
AcDbText
  0
LINE
  5
7F89
330
81F0
100
AcDbEntity
  8
4
100
AcDbLine
 10
5550.0
 20
8008.226262794414
 30
0.0
 11
5550.0
 21
7408.226262794413
 31
0.0
  0
LINE
  5
7F8A
330
81F0
100
AcDbEntity
  8
4
100
AcDbLine
 10
6300.0
 20
8850.0
 30
0.0
 11
6300.0
 21
8850.0
 31
0.0
  0
LINE
  5
7F8B
330
81F0
100
AcDbEntity
  8
4
100
AcDbLine
 10
4321.852267079594
 20
8043.790749376205
 30
0.0
 11
4321.852267079594
 21
8359.956784649257
 31
0.0
  0
LINE
  5
7F8C
330
81F0
100
AcDbEntity
  8
4
100
AcDbLine
 10
4321.852267079594
 20
8359.956784649257
 30
0.0
 11
5550.0
 21
8359.956784649257
 31
0.0
  0
LINE
  5
7F8D
330
81F0
100
AcDbEntity
  8
4
100
AcDbLine
 10
5550.0
 20
8359.956784649257
 30
0.0
 11
5550.0
 21
8043.790749376205
 31
0.0
  0
LINE
  5
7F8E
330
81F0
100
AcDbEntity
  8
4
100
AcDbLine
 10
5550.0
 20
8043.790749376205
 30
0.0
 11
4321.852267079594
 21
8043.790749376205
 31
0.0
  0
LINE
  5
7F8F
330
81F0
100
AcDbEntity
  8
4
100
AcDbLine
 10
0.0
 20
0.0
 30
0.0
 11
0.0
 21
8850.0
 31
0.0
  0
LINE
  5
7F90
330
81F0
100
AcDbEntity
  8
4
100
AcDbLine
 10
0.0
 20
8850.0
 30
0.0
 11
6300.0
 21
8850.0
 31
0.0
  0
LINE
  5
7F91
330
81F0
100
AcDbEntity
  8
4
100
AcDbLine
 10
6300.0
 20
8850.0
 30
0.0
 11
6300.0
 21
0.0
 31
0.0
  0
LINE
  5
7F92
330
81F0
100
AcDbEntity
  8
4
100
AcDbLine
 10
6300.0
 20
0.0
 30
0.0
 11
0.0
 21
0.0
 31
0.0
  0
DIMENSION
  5
823B
330
81F0
100
AcDbEntity
  8
3
100
AcDbDimension
  2
*D29
 10
4665.728072562849
 20
4157.41295078125
 30
0.0
 11
4190.728072562849
 21
4255.984379352678
 31
0.0
 70
    32
 71
     5
 42
950.0000000000017
  3
IGA
100
AcDbAlignedDimension
 13
3715.728072562848
 23
3067.454481859346
 33
0.0
 14
4665.728072562849
 24
4046.646435392972
 34
0.0
100
AcDbRotatedDimension
1001
ACAD
1000
DSTYLE
1002
{
1070
     3
1000
(<>)
1070
    40
1040
30.0
1070
   143
1040
0.039
1070
   172
1070
     1
1070
   271
1070
     4
1070
   272
1070
     4
1070
   279
1070
     0
1070
   284
1070
     0
1070
   285
1070
     0
1070
   286
1070
     0
1070
   341
1005
8204
1070
   343
1005
8204
1070
   344
1005
8204
1002
}
  0
DIMENSION
  5
8248
330
81F0
100
AcDbEntity
  8
3
100
AcDbDimension
  2
*D30
 10
5345.728072562849
 20
4157.41295078125
 30
0.0
 11
5005.72807256285
 21
4255.984379352678
 31
0.0
 70
    32
 71
     5
 42
679.999999999999
  3
IGA
100
AcDbAlignedDimension
 13
4665.728072562849
 23
4046.646435392972
 33
0.0
 14
5345.728072562849
 24
2747.954481859345
 34
0.0
100
AcDbRotatedDimension
1001
ACAD
1000
DSTYLE
1002
{
1070
     3
1000
(<>)
1070
    40
1040
30.0
1070
   143
1040
0.039
1070
   172
1070
     1
1070
   271
1070
     4
1070
   272
1070
     4
1070
   279
1070
     1
1070
   284
1070
     0
1070
   285
1070
     0
1070
   286
1070
     0
1070
   341
1005
8204
1070
   343
1005
8204
1070
   344
1005
8204
1002
}
  0
DIMENSION
  5
82C3
330
81F0
100
AcDbEntity
  8
3
100
AcDbDimension
  2
*D38
 10
4665.728072562848
 20
1716.850623707603
 30
0.0
 11
4284.728072562848
 21
1791.850623707603
 31
0.0
 70
    32
 71
     5
 42
761.9999999999982
  3
IGA
100
AcDbAlignedDimension
 13
3903.72807256285
 23
1902.454481859345
 33
0.0
 14
4665.728072562848
 24
1902.454481859345
 34
0.0
100
AcDbRotatedDimension
1001
ACAD
1000
DSTYLE
1002
{
1070
    40
1040
30.0
1070
   143
1040
0.039
1070
   172
1070
     1
1070
   271
1070
     4
1070
   272
1070
     4
1070
   279
1070
     0
1070
   284
1070
     0
1070
   285
1070
     0
1070
   286
1070
     0
1070
   341
1005
8204
1070
   343
1005
8204
1070
   344
1005
8204
1002
}
  0
DIMENSION
  5
82D0
330
81F0
100
AcDbEntity
  8
3
100
AcDbDimension
  2
*D39
 10
5278.72807256285
 20
1716.850623707603
 30
0.0
 11
4972.228072562849
 21
1791.850623707603
 31
0.0
 70
    32
 71
     5
 42
613.0000000000018
  3
IGA
100
AcDbAlignedDimension
 13
4665.728072562848
 23
1902.454481859345
 33
0.0
 14
5278.72807256285
 24
1902.454481859345
 34
0.0
100
AcDbRotatedDimension
1001
ACAD
1000
DSTYLE
1002
{
1070
    40
1040
30.0
1070
   143
1040
0.039
1070
   172
1070
     1
1070
   271
1070
     4
1070
   272
1070
     4
1070
   279
1070
     1
1070
   284
1070
     0
1070
   285
1070
     0
1070
   286
1070
     0
1070
   341
1005
8204
1070
   343
1005
8204
1070
   344
1005
8204
1002
}
  0
DIMENSION
  5
82DD
330
81F0
100
AcDbEntity
  8
3
100
AcDbDimension
  2
*D40
 10
1702.672063394284
 20
1716.850623707603
 30
0.0
 11
1422.672063394283
 21
1791.850623707603
 31
0.0
 70
    32
 71
     5
 42
560.000000000002
  3
IGA
100
AcDbAlignedDimension
 13
1142.672063394282
 23
1902.454481859345
 33
0.0
 14
1702.672063394284
 24
1902.454481859345
 34
0.0
100
AcDbRotatedDimension
1001
ACAD
1000
DSTYLE
1002
{
1070
    40
1040
30.0
1070
   143
1040
0.039
1070
   172
1070
     1
1070
   271
1070
     4
1070
   272
1070
     4
1070
   279
1070
     0
1070
   284
1070
     0
1070
   285
1070
     0
1070
   286
1070
     0
1070
   341
1005
8204
1070
   343
1005
8204
1070
   344
1005
8204
1002
}
  0
DIMENSION
  5
82EA
330
81F0
100
AcDbEntity
  8
3
100
AcDbDimension
  2
*D41
 10
3012.672063394284
 20
1716.850623707603
 30
0.0
 11
2357.672063394284
 21
1791.850623707603
 31
0.0
 70
    32
 71
     5
 42
1310.0
  3
IGA
100
AcDbAlignedDimension
 13
1702.672063394284
 23
1902.454481859345
 33
0.0
 14
3012.672063394284
 24
1902.454481859345
 34
0.0
100
AcDbRotatedDimension
1001
ACAD
1000
DSTYLE
1002
{
1070
    40
1040
30.0
1070
   143
1040
0.039
1070
   172
1070
     1
1070
   271
1070
     4
1070
   272
1070
     4
1070
   279
1070
     1
1070
   284
1070
     0
1070
   285
1070
     0
1070
   286
1070
     0
1070
   341
1005
8204
1070
   343
1005
8204
1070
   344
1005
8204
1002
}
  0
DIMENSION
  5
8304
330
81F0
100
AcDbEntity
  8
3
100
AcDbDimension
  2
*D43
 10
3012.672063394282
 20
4474.183853609036
 30
0.0
 11
2077.672063394282
 21
4549.183853609036
 31
0.0
 70
    32
 71
     5
 42
1869.999999999998
  3
IGA
100
AcDbAlignedDimension
 13
1142.672063394283
 23
4868.781332099683
 33
0.0
 14
3012.672063394282
 24
4868.781332099683
 34
0.0
100
AcDbRotatedDimension
1001
ACAD
1000
DSTYLE
1002
{
1070
    40
1040
30.0
1070
   143
1040
0.039
1070
   172
1070
     1
1070
   271
1070
     4
1070
   272
1070
     4
1070
   279
1070
     0
1070
   284
1070
     0
1070
   285
1070
     0
1070
   286
1070
     0
1070
   341
1005
8204
1070
   343
1005
8204
1070
   344
1005
8204
1002
}
  0
DIMENSION
  5
8311
330
81F0
100
AcDbEntity
  8
3
100
AcDbDimension
  2
*D44
 10
782.7136548532104
 20
2107.454481859345
 30
0.0
 11
707.71365485321
 21
2447.454481859346
 31
0.0
 70
    32
 71
     5
 42
680.0000000000009
  3
IGA
100
AcDbAlignedDimension
 13
1046.416724615736
 23
2787.454481859346
 33
0.0
 14
1142.672063394282
 24
2107.454481859345
 34
0.0
 50
90.0
100
AcDbRotatedDimension
1001
ACAD
1000
DSTYLE
1002
{
1070
    40
1040
30.0
1070
   143
1040
0.039
1070
   172
1070
     1
1070
   271
1070
     4
1070
   272
1070
     4
1070
   279
1070
     0
1070
   284
1070
     0
1070
   285
1070
     0
1070
   286
1070
     0
1070
   341
1005
8204
1070
   343
1005
8204
1070
   344
1005
8204
1002
}
  0
DIMENSION
  5
831E
330
81F0
100
AcDbEntity
  8
3
100
AcDbDimension
  2
*D45
 10
782.7136548532104
 20
2002.454481859345
 30
0.0
 11
540.570797710353
 21
2128.025910430773
 31
0.0
 70
    32
  1
(<>)
 71
     5
 42
105.0000000000004
  3
IGA
100
AcDbAlignedDimension
 13
1142.672063394282
 23
2107.454481859345
 33
0.0
 14
1142.672063394282
 24
2002.454481859345
 34
0.0
 50
90.0
100
AcDbRotatedDimension
1001
ACAD
1000
DSTYLE
1002
{
1070
    40
1040
30.0
1070
   143
1040
0.039
1070
   172
1070
     1
1070
   271
1070
     4
1070
   272
1070
     4
1070
   279
1070
     1
1070
   284
1070
     0
1070
   285
1070
     0
1070
   286
1070
     0
1070
   341
1005
8204
1070
   343
1005
8204
1070
   344
1005
8410
1002
}
  0
DIMENSION
  5
8330
330
81F0
100
AcDbEntity
  8
3
100
AcDbDimension
  2
*D46
 10
782.7136548532104
 20
1902.454481859345
 30
0.0
 11
779.4736475204118
 21
1762.275842845742
 31
0.0
 70
   160
 71
     5
 42
100.0
  3
IGA
100
AcDbAlignedDimension
 13
1142.672063394282
 23
2002.454481859345
 33
0.0
 14
1142.672063394282
 24
1902.454481859345
 34
0.0
 50
90.0
100
AcDbRotatedDimension
1001
ACAD
1000
DSTYLE
1002
{
1070
    40
1040
30.0
1070
   143
1040
0.039
1070
   172
1070
     1
1070
   271
1070
     4
1070
   272
1070
     4
1070
   279
1070
     1
1070
   284
1070
     0
1070
   285
1070
     0
1070
   286
1070
     0
1070
   341
1005
8204
1070
   343
1005
8410
1070
   344
1005
8204
1002
}
  0
DIMENSION
  5
8342
330
81F0
100
AcDbEntity
  8
3
100
AcDbDimension
  2
*D47
 10
446.1918359528715
 20
1902.454481859345
 30
0.0
 11
371.1918359528714
 21
2825.454481859345
 31
0.0
 70
    32
 71
     5
 42
1846.0
  3
IGA
100
AcDbAlignedDimension
 13
1082.672063394284
 23
3748.454481859345
 33
0.0
 14
1142.672063394282
 24
1902.454481859345
 34
0.0
 50
90.0
100
AcDbRotatedDimension
1001
ACAD
1000
DSTYLE
1002
{
1070
    40
1040
30.0
1070
   143
1040
0.039
1070
   172
1070
     1
1070
   271
1070
     4
1070
   272
1070
     4
1070
   279
1070
     0
1070
   284
1070
     0
1070
   285
1070
     0
1070
   286
1070
     0
1070
   341
1005
8204
1070
   343
1005
8204
1070
   344
1005
8204
1002
}
  0
ENDSEC
  0
SECTION
  2
OBJECTS
  0
DICTIONARY
  5
818D
330
0
100
AcDbDictionary
281
     1
  3
ACAD_CIP_PREVIOUS_PRODUCT_INFO
350
823A
  3
ACAD_COLOR
350
81E3
  3
ACAD_DETAILVIEWSTYLE
350
81EA
  3
ACAD_GROUP
350
818E
  3
ACAD_LAYOUT
350
81E2
  3
ACAD_MATERIAL
350
8191
  3
ACAD_MLEADERSTYLE
350
81E6
  3
ACAD_MLINESTYLE
350
81DF
  3
ACAD_PLOTSETTINGS
350
81E1
  3
ACAD_PLOTSTYLENAME
350
818F
  3
ACAD_SCALELIST
350
81C3
  3
ACAD_SECTIONVIEWSTYLE
350
81E8
  3
ACAD_TABLESTYLE
350
81E4
  3
ACAD_VISUALSTYLE
350
81AA
  3
ACDB_RECOMPOSE_DATA
350
84F0
  3
AcDbVariableDictionary
350
8490
  3
DWGPROPS
350
84F1
  0
DICTIONARY
  5
8486
330
81D5
100
AcDbDictionary
280
     1
281
     1
  3
ADSK_XREC_LAYER_RECONCILED
360
8487
  0
DICTIONARY
  5
8488
330
81F4
100
AcDbDictionary
280
     1
281
     1
  3
ADSK_XREC_LAYER_RECONCILED
360
8489
  0
DICTIONARY
  5
848A
330
81F7
100
AcDbDictionary
280
     1
281
     1
  3
ADSK_XREC_LAYER_RECONCILED
360
848B
  0
DICTIONARY
  5
848C
330
81F8
100
AcDbDictionary
280
     1
281
     1
  3
ADSK_XREC_LAYER_RECONCILED
360
848D
  0
DICTIONARY
  5
848E
330
81F9
100
AcDbDictionary
280
     1
281
     1
  3
ADSK_XREC_LAYER_RECONCILED
360
848F
  0
XRECORD
  5
823A
102
{ACAD_REACTORS
330
818D
102
}
330
818D
100
AcDbXrecord
280
     1
300
ACDLT
300
2015
300
INVLTS_F_S
  0
DICTIONARY
  5
81E3
102
{ACAD_REACTORS
330
818D
102
}
330
818D
100
AcDbDictionary
281
     1
  0
DICTIONARY
  5
81EA
102
{ACAD_REACTORS
330
818D
102
}
330
818D
100
AcDbDictionary
281
     1
  3
Imperial24
350
81EB
  0
DICTIONARY
  5
818E
102
{ACAD_REACTORS
330
818D
102
}
330
818D
100
AcDbDictionary
281
     1
  0
DICTIONARY
  5
81E2
102
{ACAD_REACTORS
330
818D
102
}
330
818D
100
AcDbDictionary
281
     1
  3
Model
350
81F3
  3
レイアウト1
350
81EF
  0
DICTIONARY
  5
8191
102
{ACAD_REACTORS
330
818D
102
}
330
818D
100
AcDbDictionary
281
     1
  3
ByBlock
350
819A
  3
ByLayer
350
8192
  3
Global
350
81A2
  0
DICTIONARY
  5
81E6
102
{ACAD_REACTORS
330
818D
102
}
330
818D
100
AcDbDictionary
281
     1
  3
Standard
350
81E7
  0
DICTIONARY
  5
81DF
102
{ACAD_REACTORS
330
818D
102
}
330
818D
100
AcDbDictionary
281
     1
  3
Standard
350
81E0
  0
DICTIONARY
  5
81E1
102
{ACAD_REACTORS
330
818D
102
}
330
818D
100
AcDbDictionary
281
     1
  0
ACDBDICTIONARYWDFLT
  5
818F
102
{ACAD_REACTORS
330
818D
102
}
330
818D
100
AcDbDictionary
281
     1
  3
Normal
350
8190
100
AcDbDictionaryWithDefault
340
8190
  0
DICTIONARY
  5
81C3
102
{ACAD_REACTORS
330
818D
102
}
330
818D
100
AcDbDictionary
281
     1
  3
A0
350
81C4
  3
A1
350
81C5
  3
A2
350
81C6
  3
A3
350
81C7
  3
A4
350
81C8
  3
A5
350
81C9
  3
A6
350
81CA
  3
A7
350
81CB
  3
A8
350
81CC
  3
A9
350
81CD
  3
B0
350
81CE
  3
B1
350
81CF
  3
B2
350
81D0
  3
B3
350
81D1
  3
B4
350
81D2
  3
B5
350
81D3
  3
B6
350
81D4
  0
DICTIONARY
  5
81E8
102
{ACAD_REACTORS
330
818D
102
}
330
818D
100
AcDbDictionary
281
     1
  3
Imperial24
350
81E9
  0
DICTIONARY
  5
81E4
102
{ACAD_REACTORS
330
818D
102
}
330
818D
100
AcDbDictionary
281
     1
  3
Standard
350
81E5
  0
DICTIONARY
  5
81AA
102
{ACAD_REACTORS
330
818D
102
}
330
818D
100
AcDbDictionary
281
     1
  3
2dWireframe
350
81B0
  3
Basic
350
81AF
  3
Brighten
350
81B6
  3
ColorChange
350
81BA
  3
Conceptual
350
81B3
  3
Dim
350
81B5
  3
EdgeColorOff
350
81C2
  3
Facepattern
350
81B9
  3
Flat
350
81AB
  3
FlatWithEdges
350
81AC
  3
Gouraud
350
81AD
  3
GouraudWithEdges
350
81AE
  3
Hidden
350
81B2
  3
JitterOff
350
81C0
  3
Linepattern
350
81B8
  3
OverhangOff
350
81C1
  3
Realistic
350
81B4
  3
Shaded
350
81BF
  3
Shaded with edges
350
81BE
  3
Shades of Gray
350
81BB
  3
Sketchy
350
81BC
  3
Thicken
350
81B7
  3
Wireframe
350
81B1
  3
X-Ray
350
81BD
  0
XRECORD
  5
84F0
102
{ACAD_REACTORS
330
818D
102
}
330
818D
100
AcDbXrecord
280
     1
 90
        1
330
81E5
  0
DICTIONARY
  5
8490
102
{ACAD_REACTORS
330
818D
102
}
330
818D
100
AcDbDictionary
281
     1
  3
CANNOSCALE
350
8495
  3
CMLEADERSTYLE
350
8492
  3
CTABLESTYLE
350
8491
  3
CVIEWDETAILSTYLE
350
8493
  3
CVIEWSECTIONSTYLE
350
8494
  3
DIMASSOC
350
8498
  3
INDEXCTL
350
8497
  3
SORTENTS
350
8496
  3
XCLIPFRAME
350
8499
  0
XRECORD
  5
84F1
102
{ACAD_REACTORS
330
818D
102
}
330
818D
100
AcDbXrecord
280
     1
  1
DWGPROPS COOKIE
  2

  3

  4

  6

  7

  8
yasukiyo.ogawa
  9

300
=
301
=
302
=
303
=
304
=
305
=
306
=
307
=
308
=
309
=
 40
1.144567013888888
 41
2451389.493851273
 42
2460270.731543912
  1

 90
        0
  0
XRECORD
  5
8487
102
{ACAD_REACTORS
330
8486
102
}
330
8486
100
AcDbXrecord
280
     1
290
     1
  0
XRECORD
  5
8489
102
{ACAD_REACTORS
330
8488
102
}
330
8488
100
AcDbXrecord
280
     1
290
     1
  0
XRECORD
  5
848B
102
{ACAD_REACTORS
330
848A
102
}
330
848A
100
AcDbXrecord
280
     1
290
     1
  0
XRECORD
  5
848D
102
{ACAD_REACTORS
330
848C
102
}
330
848C
100
AcDbXrecord
280
     1
290
     1
  0
XRECORD
  5
848F
102
{ACAD_REACTORS
330
848E
102
}
330
848E
100
AcDbXrecord
280
     1
290
     1
  0
ACDBDETAILVIEWSTYLE
  5
81EB
102
{ACAD_XDICTIONARY
360
8529
102
}
102
{ACAD_REACTORS
330
81EA
102
}
330
81EA
100
AcDbModelDocViewStyle
 70
     0
  3
Imperial24
290
     0
100
AcDbDetailViewStyle
 70
     0
 71
     0
 90
        3
 71
     1
340
81D6
 40
0.24
340
0
 40
0.24
300

 40
0.36
280
     3
 71
     2
340
81DD
 90
       25
 71
     3
340
81D6
 40
0.24
 90
        1
 40
0.75
 90
        1
300
%<\AcVar ViewType \f "%tc1">% %<\AcVar ViewDetailId>%\PSCALE %<\AcVar ViewScale \f "%sn">%
 71
     4
340
81DD
 90
       25
340
81DD
 90
       25
280
     0
  0
LAYOUT
  5
81F3
102
{ACAD_XDICTIONARY
360
852D
102
}
102
{ACAD_REACTORS
330
81E2
102
}
330
81E2
100
AcDbPlotSettings
  1

  2
RICOH imagio MP W3600 RPCS
  4

  6

 40
0.0
 41
0.0
 42
0.0
 43
0.0
 44
0.0
 45
0.0
 46
0.0
 47
0.0
 48
0.0
 49
0.0
140
0.0
141
0.0
142
1.0
143
1.0
 70
  1712
 72
     0
 73
     0
 74
     0
  7

 75
     0
147
1.0
148
0.0
149
0.0
100
AcDbLayout
  1
Model
 70
     1
 71
     0
 10
0.0
 20
0.0
 11
12.0
 21
9.0
 12
0.0
 22
0.0
 32
0.0
 14
0.0
 24
0.0
 34
0.0
 15
0.0
 25
0.0
 35
0.0
146
0.0
 13
0.0
 23
0.0
 33
0.0
 16
1.0
 26
0.0
 36
0.0
 17
0.0
 27
1.0
 37
0.0
 76
     0
330
81F0
331
81F5
  0
LAYOUT
  5
81EF
102
{ACAD_XDICTIONARY
360
852B
102
}
102
{ACAD_REACTORS
330
81E2
102
}
330
81E2
100
AcDbPlotSettings
  1

  2
RICOH imagio MP W3600 RPCS
  4

  6

 40
0.0
 41
0.0
 42
0.0
 43
0.0
 44
0.0
 45
0.0
 46
0.0
 47
0.0
 48
0.0
 49
0.0
140
0.0
141
0.0
142
1.0
143
1.0
 70
   688
 72
     0
 73
     0
 74
     5
  7

 75
    16
147
1.0
148
0.0
149
0.0
100
AcDbLayout
  1
レイアウト1
 70
     1
 71
     1
 10
0.0
 20
0.0
 11
12.0
 21
9.0
 12
0.0
 22
0.0
 32
0.0
 14
1.000000000000000E+20
 24
1.000000000000000E+20
 34
1.000000000000000E+20
 15
-1.000000000000000E+20
 25
-1.000000000000000E+20
 35
-1.000000000000000E+20
146
0.0
 13
0.0
 23
0.0
 33
0.0
 16
1.0
 26
0.0
 36
0.0
 17
0.0
 27
1.0
 37
0.0
 76
     0
330
81EC
  0
MATERIAL
  5
819A
102
{ACAD_XDICTIONARY
360
819B
102
}
102
{ACAD_REACTORS
330
8191
102
}
330
8191
100
AcDbMaterial
  1
ByBlock
 72
     0
 43
0.0208333333333333
 43
0.0
 43
0.0
 43
0.0
 43
0.0
 43
0.0208333333333333
 43
0.0
 43
0.0
 43
0.0
 43
0.0
 43
1.0
 43
0.0
 43
0.0
 43
0.0
 43
0.0
 43
1.0
 77
     0
 47
0.0208333333333333
 47
0.0
 47
0.0
 47
0.0
 47
0.0
 47
0.0208333333333333
 47
0.0
 47
0.0
 47
0.0
 47
0.0
 47
1.0
 47
0.0
 47
0.0
 47
0.0
 47
0.0
 47
1.0
171
     0
 49
0.0208333333333333
 49
0.0
 49
0.0
 49
0.0
 49
0.0
 49
0.0208333333333333
 49
0.0
 49
0.0
 49
0.0
 49
0.0
 49
1.0
 49
0.0
 49
0.0
 49
0.0
 49
0.0
 49
1.0
175
     0
142
0.0208333333333333
142
0.0
142
0.0
142
0.0
142
0.0
142
0.0208333333333333
142
0.0
142
0.0
142
0.0
142
0.0
142
1.0
142
0.0
142
0.0
142
0.0
142
0.0
142
1.0
179
     0
144
0.0208333333333333
144
0.0
144
0.0
144
0.0
144
0.0
144
0.0208333333333333
144
0.0
144
0.0
144
0.0
144
0.0
144
1.0
144
0.0
144
0.0
144
0.0
144
0.0
144
1.0
147
0.0208333333333333
147
0.0
147
0.0
147
0.0
147
0.0
147
0.0208333333333333
147
0.0
147
0.0
147
0.0
147
0.0
147
1.0
147
0.0
147
0.0
147
0.0
147
0.0
147
1.0
  0
MATERIAL
  5
8192
102
{ACAD_XDICTIONARY
360
8193
102
}
102
{ACAD_REACTORS
330
8191
102
}
330
8191
100
AcDbMaterial
  1
ByLayer
 72
     0
 43
0.0208333333333333
 43
0.0
 43
0.0
 43
0.0
 43
0.0
 43
0.0208333333333333
 43
0.0
 43
0.0
 43
0.0
 43
0.0
 43
1.0
 43
0.0
 43
0.0
 43
0.0
 43
0.0
 43
1.0
 77
     0
 47
0.0208333333333333
 47
0.0
 47
0.0
 47
0.0
 47
0.0
 47
0.0208333333333333
 47
0.0
 47
0.0
 47
0.0
 47
0.0
 47
1.0
 47
0.0
 47
0.0
 47
0.0
 47
0.0
 47
1.0
171
     0
 49
0.0208333333333333
 49
0.0
 49
0.0
 49
0.0
 49
0.0
 49
0.0208333333333333
 49
0.0
 49
0.0
 49
0.0
 49
0.0
 49
1.0
 49
0.0
 49
0.0
 49
0.0
 49
0.0
 49
1.0
175
     0
142
0.0208333333333333
142
0.0
142
0.0
142
0.0
142
0.0
142
0.0208333333333333
142
0.0
142
0.0
142
0.0
142
0.0
142
1.0
142
0.0
142
0.0
142
0.0
142
0.0
142
1.0
179
     0
144
0.0208333333333333
144
0.0
144
0.0
144
0.0
144
0.0
144
0.0208333333333333
144
0.0
144
0.0
144
0.0
144
0.0
144
1.0
144
0.0
144
0.0
144
0.0
144
0.0
144
1.0
147
0.0208333333333333
147
0.0
147
0.0
147
0.0
147
0.0
147
0.0208333333333333
147
0.0
147
0.0
147
0.0
147
0.0
147
1.0
147
0.0
147
0.0
147
0.0
147
0.0
147
1.0
  0
MATERIAL
  5
81A2
102
{ACAD_XDICTIONARY
360
81A3
102
}
102
{ACAD_REACTORS
330
8191
102
}
330
8191
100
AcDbMaterial
  1
Global
 72
     0
 43
0.0208333333333333
 43
0.0
 43
0.0
 43
0.0
 43
0.0
 43
0.0208333333333333
 43
0.0
 43
0.0
 43
0.0
 43
0.0
 43
1.0
 43
0.0
 43
0.0
 43
0.0
 43
0.0
 43
1.0
 77
     0
 47
0.0208333333333333
 47
0.0
 47
0.0
 47
0.0
 47
0.0
 47
0.0208333333333333
 47
0.0
 47
0.0
 47
0.0
 47
0.0
 47
1.0
 47
0.0
 47
0.0
 47
0.0
 47
0.0
 47
1.0
171
     0
 49
0.0208333333333333
 49
0.0
 49
0.0
 49
0.0
 49
0.0
 49
0.0208333333333333
 49
0.0
 49
0.0
 49
0.0
 49
0.0
 49
1.0
 49
0.0
 49
0.0
 49
0.0
 49
0.0
 49
1.0
175
     0
142
0.0208333333333333
142
0.0
142
0.0
142
0.0
142
0.0
142
0.0208333333333333
142
0.0
142
0.0
142
0.0
142
0.0
142
1.0
142
0.0
142
0.0
142
0.0
142
0.0
142
1.0
179
     0
144
0.0208333333333333
144
0.0
144
0.0
144
0.0
144
0.0
144
0.0208333333333333
144
0.0
144
0.0
144
0.0
144
0.0
144
1.0
144
0.0
144
0.0
144
0.0
144
0.0
144
1.0
147
0.0208333333333333
147
0.0
147
0.0
147
0.0
147
0.0
147
0.0208333333333333
147
0.0
147
0.0
147
0.0
147
0.0
147
1.0
147
0.0
147
0.0
147
0.0
147
0.0
147
1.0
  0
MLEADERSTYLE
  5
81E7
102
{ACAD_REACTORS
330
81E6
102
}
330
81E6
100
AcDbMLeaderStyle
170
     2
171
     1
172
     0
 90
        2
 40
0.0
 41
0.0
173
     1
 91
-1056964608
340
81DB
 92
       -2
290
     1
 42
0.09
291
     1
 43
0.36
  3
Standard
 44
0.18
300

342
81D6
174
     1
178
     6
175
     1
176
     0
 93
-1056964608
 45
0.18
292
     0
297
     0
 46
0.18
 94
-1056964608
 47
1.0
 49
1.0
140
1.0
293
     1
141
0.0
294
     1
177
     0
142
1.0
295
     0
296
     0
143
0.125
1001
ACAD_MLEADERVER
1070
     2
  0
MLINESTYLE
  5
81E0
102
{ACAD_REACTORS
330
81DF
102
}
330
81DF
100
AcDbMlineStyle
  2
STANDARD
 70
     0
  3

 62
   256
 51
90.0
 52
90.0
 71
     2
 49
0.5
 62
   256
  6
BYLAYER
 49
-0.5
 62
   256
  6
BYLAYER
  0
ACDBPLACEHOLDER
  5
8190
102
{ACAD_REACTORS
330
818F
102
}
330
818F
  0
SCALE
  5
81C4
102
{ACAD_REACTORS
330
81C3
102
}
330
81C3
100
AcDbScale
 70
     0
300
1:1
140
1.0
141
1.0
290
     1
  0
SCALE
  5
81C5
102
{ACAD_REACTORS
330
81C3
102
}
330
81C3
100
AcDbScale
 70
     0
300
1/128" = 1'-0"
140
0.0078125
141
12.0
290
     0
  0
SCALE
  5
81C6
102
{ACAD_REACTORS
330
81C3
102
}
330
81C3
100
AcDbScale
 70
     0
300
1/64" = 1'-0"
140
0.015625
141
12.0
290
     0
  0
SCALE
  5
81C7
102
{ACAD_REACTORS
330
81C3
102
}
330
81C3
100
AcDbScale
 70
     0
300
1/32" = 1'-0"
140
0.03125
141
12.0
290
     0
  0
SCALE
  5
81C8
102
{ACAD_REACTORS
330
81C3
102
}
330
81C3
100
AcDbScale
 70
     0
300
1/16" = 1'-0"
140
0.0625
141
12.0
290
     0
  0
SCALE
  5
81C9
102
{ACAD_REACTORS
330
81C3
102
}
330
81C3
100
AcDbScale
 70
     0
300
3/32" = 1'-0"
140
0.09375
141
12.0
290
     0
  0
SCALE
  5
81CA
102
{ACAD_REACTORS
330
81C3
102
}
330
81C3
100
AcDbScale
 70
     0
300
1/8" = 1'-0"
140
0.125
141
12.0
290
     0
  0
SCALE
  5
81CB
102
{ACAD_REACTORS
330
81C3
102
}
330
81C3
100
AcDbScale
 70
     0
300
3/16" = 1'-0"
140
0.1875
141
12.0
290
     0
  0
SCALE
  5
81CC
102
{ACAD_REACTORS
330
81C3
102
}
330
81C3
100
AcDbScale
 70
     0
300
1/4" = 1'-0"
140
0.25
141
12.0
290
     0
  0
SCALE
  5
81CD
102
{ACAD_REACTORS
330
81C3
102
}
330
81C3
100
AcDbScale
 70
     0
300
3/8" = 1'-0"
140
0.375
141
12.0
290
     0
  0
SCALE
  5
81CE
102
{ACAD_REACTORS
330
81C3
102
}
330
81C3
100
AcDbScale
 70
     0
300
1/2" = 1'-0"
140
0.5
141
12.0
290
     0
  0
SCALE
  5
81CF
102
{ACAD_REACTORS
330
81C3
102
}
330
81C3
100
AcDbScale
 70
     0
300
3/4" = 1'-0"
140
0.75
141
12.0
290
     0
  0
SCALE
  5
81D0
102
{ACAD_REACTORS
330
81C3
102
}
330
81C3
100
AcDbScale
 70
     0
300
1" = 1'-0"
140
1.0
141
12.0
290
     0
  0
SCALE
  5
81D1
102
{ACAD_REACTORS
330
81C3
102
}
330
81C3
100
AcDbScale
 70
     0
300
1-1/2" = 1'-0"
140
1.5
141
12.0
290
     0
  0
SCALE
  5
81D2
102
{ACAD_REACTORS
330
81C3
102
}
330
81C3
100
AcDbScale
 70
     0
300
3" = 1'-0"
140
3.0
141
12.0
290
     0
  0
SCALE
  5
81D3
102
{ACAD_REACTORS
330
81C3
102
}
330
81C3
100
AcDbScale
 70
     0
300
6" = 1'-0"
140
6.0
141
12.0
290
     0
  0
SCALE
  5
81D4
102
{ACAD_REACTORS
330
81C3
102
}
330
81C3
100
AcDbScale
 70
     0
300
1'-0" = 1'-0"
140
12.0
141
12.0
290
     0
  0
ACDBSECTIONVIEWSTYLE
  5
81E9
102
{ACAD_XDICTIONARY
360
8527
102
}
102
{ACAD_REACTORS
330
81E8
102
}
330
81E8
100
AcDbModelDocViewStyle
 70
     0
  3
Imperial24
290
     0
100
AcDbSectionViewStyle
 70
     0
 71
     0
 90
       78
 71
     1
340
81D6
 40
0.24
340
0
340
0
 40
0.24
300
I, O, Q, S, X, Z
 40
0.48
 90
        3
 40
0.18
 90
        1
 71
     2
340
81DD
 90
       25
340
81DD
 90
       50
 40
0.24
 40
0.0
 40
0.24
 71
     3
340
81D6
 40
0.24
 90
        1
 40
0.75
 90
        1
300
%<\AcVar ViewType \f "%tc1">% %<\AcVar ViewSectionStartId>%-%<\AcVar ViewSectionEndId>%\PSCALE %<\AcVar ViewScale \f "%sn">%
 71
     4
300
ANSI31
 40
1.0
 90
        0
290
     0
290
     0
 90
        6
 40
0.0
 40
1.570796326794896
 40
0.2617993877991494
 40
1.308996938995747
 40
-0.2617993877991494
 40
1.832595714594046
  0
TABLESTYLE
  5
81E5
102
{ACAD_XDICTIONARY
360
84EE
102
}
102
{ACAD_REACTORS
330
81E4
102
}
330
81E4
100
AcDbTableStyle
  3
Standard
 70
     0
 71
     0
 40
0.06
 41
0.06
280
     0
281
     0
  7
STANDARD
140
0.18
170
     2
 62
     0
 63
     7
283
     0
274
    -2
284
     1
 64
     0
275
    -2
285
     1
 65
     0
276
    -2
286
     1
 66
     0
277
    -2
287
     1
 67
     0
278
    -2
288
     1
 68
     0
279
    -2
289
     1
 69
     0
  7
STANDARD
140
0.25
170
     5
 62
     0
 63
     7
283
     0
274
    -2
284
     1
 64
     0
275
    -2
285
     1
 65
     0
276
    -2
286
     1
 66
     0
277
    -2
287
     1
 67
     0
278
    -2
288
     1
 68
     0
279
    -2
289
     1
 69
     0
  7
STANDARD
140
0.18
170
     5
 62
     0
 63
     7
283
     0
274
    -2
284
     1
 64
     0
275
    -2
285
     1
 65
     0
276
    -2
286
     1
 66
     0
277
    -2
287
     1
 67
     0
278
    -2
288
     1
 68
     0
279
    -2
289
     1
 69
     0
  0
VISUALSTYLE
  5
81B0
102
{ACAD_XDICTIONARY
360
84FF
102
}
102
{ACAD_REACTORS
330
81AA
102
}
330
81AA
100
AcDbVisualStyle
  2
2dWireframe
 70
     4
 71
     0
 72
     2
 73
     0
 90
        0
 40
-0.6
 41
-30.0
 62
     5
 63
     7
 74
     1
 91
        4
 64
     7
 65
   257
 75
     1
175
     1
 42
1.0
 92
        0
 66
   257
 43
1.0
 76
     1
 77
     6
 78
     2
 67
     7
 79
     5
170
     0
171
     0
290
     0
174
     0
 93
        1
 44
0.0
173
     0
291
     0
 45
0.0
1001
ACAD
1000
AcDbSavedByObjectVersion
1070
     0
  0
VISUALSTYLE
  5
81AF
102
{ACAD_XDICTIONARY
360
84FD
102
}
102
{ACAD_REACTORS
330
81AA
102
}
330
81AA
100
AcDbVisualStyle
  2
Basic
 70
     7
 71
     1
 72
     0
 73
     1
 90
        0
 40
-0.6
 41
-30.0
 62
     5
 63
     7
 74
     0
 91
        4
 64
     7
 65
   257
 75
     1
175
     1
 42
1.0
 92
        8
 66
     7
 43
1.0
 76
     1
 77
     6
 78
     2
 67
     7
 79
     5
170
     0
171
     0
290
     0
174
     0
 93
        1
 44
0.0
173
     0
291
     1
 45
0.0
1001
ACAD
1000
AcDbSavedByObjectVersion
1070
     0
  0
VISUALSTYLE
  5
81B6
102
{ACAD_XDICTIONARY
360
850B
102
}
102
{ACAD_REACTORS
330
81AA
102
}
330
81AA
100
AcDbVisualStyle
  2
Brighten
 70
    12
 71
     2
 72
     2
 73
     0
 90
        0
 40
-0.6
 41
-30.0
 62
     5
 63
     7
 74
     1
 91
        4
 64
     7
 65
   257
 75
     1
175
     1
 42
1.0
 92
        8
 66
     7
 43
1.0
 76
     1
 77
     6
 78
     2
 67
     7
 79
     5
170
     0
171
     0
290
     0
174
     0
 93
        1
 44
50.0
173
     0
291
     1
 45
0.0
1001
ACAD
1000
AcDbSavedByObjectVersion
1070
     0
  0
VISUALSTYLE
  5
81BA
102
{ACAD_XDICTIONARY
360
8513
102
}
102
{ACAD_REACTORS
330
81AA
102
}
330
81AA
100
AcDbVisualStyle
  2
ColorChange
 70
    16
 71
     2
 72
     2
 73
     3
 90
        0
 40
-0.6
 41
-30.0
 62
     5
 63
     8
 74
     1
 91
        4
 64
     7
 65
   257
 75
     1
175
     1
 42
1.0
 92
        8
 66
     8
 43
1.0
 76
     1
 77
     6
 78
     2
 67
     7
 79
     5
170
     0
171
     0
290
     0
174
     0
 93
        1
 44
0.0
173
     0
291
     1
 45
0.0
1001
ACAD
1000
AcDbSavedByObjectVersion
1070
     0
  0
VISUALSTYLE
  5
81B3
102
{ACAD_XDICTIONARY
360
8505
102
}
102
{ACAD_REACTORS
330
81AA
102
}
330
81AA
100
AcDbVisualStyle
  2
Conceptual
 70
     9
 71
     3
 72
     2
 73
     0
 90
        0
 40
-0.6
 41
-30.0
 62
     5
 63
     7
 74
     2
 91
        2
 64
     7
 65
   257
 75
     1
175
     1
 42
179.0
 92
        8
 66
     7
 43
1.0
 76
     1
 77
     6
 78
     2
 67
     7
 79
     3
170
     0
171
     0
290
     0
174
     0
 93
        1
 44
0.0
173
     0
291
     0
 45
0.0
1001
ACAD
1000
AcDbSavedByObjectVersion
1070
     0
  0
VISUALSTYLE
  5
81B5
102
{ACAD_XDICTIONARY
360
8509
102
}
102
{ACAD_REACTORS
330
81AA
102
}
330
81AA
100
AcDbVisualStyle
  2
Dim
 70
    11
 71
     2
 72
     2
 73
     0
 90
        0
 40
-0.6
 41
-30.0
 62
     5
 63
     7
 74
     1
 91
        4
 64
     7
 65
   257
 75
     1
175
     1
 42
1.0
 92
        8
 66
     7
 43
1.0
 76
     1
 77
     6
 78
     2
 67
     7
 79
     5
170
     0
171
     0
290
     0
174
     0
 93
        1
 44
-50.0
173
     0
291
     1
 45
0.0
1001
ACAD
1000
AcDbSavedByObjectVersion
1070
     0
  0
VISUALSTYLE
  5
81C2
102
{ACAD_XDICTIONARY
360
8523
102
}
102
{ACAD_REACTORS
330
81AA
102
}
330
81AA
100
AcDbVisualStyle
  2
EdgeColorOff
 70
    22
 71
     2
 72
     2
 73
     0
 90
        0
 40
-0.6
 41
-30.0
 62
     5
 63
     7
 74
     1
 91
        4
 64
     7
 65
   257
 75
     1
175
     1
 42
1.0
 92
        8
 66
     7
 43
1.0
 76
     1
 77
     6
 78
     2
 67
     7
 79
     5
170
     0
171
     0
290
     0
174
     0
 93
        1
 44
0.0
173
     0
291
     1
 45
0.0
1001
ACAD
1000
AcDbSavedByObjectVersion
1070
     0
  0
VISUALSTYLE
  5
81B9
102
{ACAD_XDICTIONARY
360
8511
102
}
102
{ACAD_REACTORS
330
81AA
102
}
330
81AA
100
AcDbVisualStyle
  2
Facepattern
 70
    15
 71
     2
 72
     2
 73
     0
 90
        0
 40
-0.6
 41
-30.0
 62
     5
 63
     7
 74
     1
 91
        4
 64
     7
 65
   257
 75
     1
175
     1
 42
1.0
 92
        8
 66
     7
 43
1.0
 76
     1
 77
     6
 78
     2
 67
     7
 79
     5
170
     0
171
     0
290
     0
174
     0
 93
        1
 44
0.0
173
     0
291
     1
 45
0.0
1001
ACAD
1000
AcDbSavedByObjectVersion
1070
     0
  0
VISUALSTYLE
  5
81AB
102
{ACAD_XDICTIONARY
360
84F5
102
}
102
{ACAD_REACTORS
330
81AA
102
}
330
81AA
100
AcDbVisualStyle
  2
Flat
 70
     0
 71
     2
 72
     1
 73
     1
 90
        2
 40
-0.6
 41
30.0
 62
     5
 63
     7
 74
     0
 91
        0
 64
     7
 65
   257
 75
     1
175
     1
 42
1.0
 92
        8
 66
     7
 43
1.0
 76
     1
 77
     6
 78
     2
 67
     7
 79
     5
170
     0
171
     0
290
     0
174
     0
 93
       13
 44
0.0
173
     0
291
     1
 45
0.0
1001
ACAD
1000
AcDbSavedByObjectVersion
1070
     0
  0
VISUALSTYLE
  5
81AC
102
{ACAD_XDICTIONARY
360
84F7
102
}
102
{ACAD_REACTORS
330
81AA
102
}
330
81AA
100
AcDbVisualStyle
  2
FlatWithEdges
 70
     1
 71
     2
 72
     1
 73
     1
 90
        2
 40
-0.6
 41
30.0
 62
     5
 63
     7
 74
     1
 91
        0
 64
     7
 65
   257
 75
     1
175
     1
 42
1.0
 92
        0
 66
   257
 43
1.0
 76
     1
 77
     6
 78
     2
 67
     7
 79
     5
170
     0
171
     0
290
     0
174
     0
 93
       13
 44
0.0
173
     0
291
     1
 45
0.0
1001
ACAD
1000
AcDbSavedByObjectVersion
1070
     0
  0
VISUALSTYLE
  5
81AD
102
{ACAD_XDICTIONARY
360
84F9
102
}
102
{ACAD_REACTORS
330
81AA
102
}
330
81AA
100
AcDbVisualStyle
  2
Gouraud
 70
     2
 71
     2
 72
     2
 73
     1
 90
        2
 40
-0.6
 41
30.0
 62
     5
 63
     7
 74
     0
 91
        0
 64
     7
 65
   257
 75
     1
175
     1
 42
1.0
 92
        0
 66
     7
 43
1.0
 76
     1
 77
     6
 78
     2
 67
     7
 79
     5
170
     0
171
     0
290
     0
174
     0
 93
       13
 44
0.0
173
     0
291
     1
 45
0.0
1001
ACAD
1000
AcDbSavedByObjectVersion
1070
     0
  0
VISUALSTYLE
  5
81AE
102
{ACAD_XDICTIONARY
360
84FB
102
}
102
{ACAD_REACTORS
330
81AA
102
}
330
81AA
100
AcDbVisualStyle
  2
GouraudWithEdges
 70
     3
 71
     2
 72
     2
 73
     1
 90
        2
 40
-0.6
 41
30.0
 62
     5
 63
     7
 74
     1
 91
        0
 64
     7
 65
   257
 75
     1
175
     1
 42
1.0
 92
        0
 66
   257
 43
1.0
 76
     1
 77
     6
 78
     2
 67
     7
 79
     5
170
     0
171
     0
290
     0
174
     0
 93
       13
 44
0.0
173
     0
291
     1
 45
0.0
1001
ACAD
1000
AcDbSavedByObjectVersion
1070
     0
  0
VISUALSTYLE
  5
81B2
102
{ACAD_XDICTIONARY
360
8503
102
}
102
{ACAD_REACTORS
330
81AA
102
}
330
81AA
100
AcDbVisualStyle
  2
Hidden
 70
     6
 71
     1
 72
     2
 73
     2
 90
        0
 40
-0.6
 41
-30.0
 62
     5
 63
     7
 74
     2
 91
        2
 64
     7
 65
   257
 75
     2
175
     1
 42
40.0
 92
        0
 66
   257
 43
1.0
 76
     1
 77
     6
 78
     2
 67
     7
 79
     3
170
     0
171
     0
290
     0
174
     0
 93
        1
 44
0.0
173
     0
291
     0
 45
0.0
1001
ACAD
1000
AcDbSavedByObjectVersion
1070
     0
  0
VISUALSTYLE
  5
81C0
102
{ACAD_XDICTIONARY
360
851F
102
}
102
{ACAD_REACTORS
330
81AA
102
}
330
81AA
100
AcDbVisualStyle
  2
JitterOff
 70
    20
 71
     2
 72
     2
 73
     0
 90
        0
 40
-0.6
 41
-30.0
 62
     5
 63
     7
 74
     1
 91
        4
 64
     7
 65
   257
 75
     1
175
     1
 42
1.0
 92
       10
 66
     7
 43
1.0
 76
     1
 77
     6
 78
     2
 67
     7
 79
     5
170
     0
171
     0
290
     0
174
     0
 93
        1
 44
0.0
173
     0
291
     1
 45
0.0
1001
ACAD
1000
AcDbSavedByObjectVersion
1070
     0
  0
VISUALSTYLE
  5
81B8
102
{ACAD_XDICTIONARY
360
850F
102
}
102
{ACAD_REACTORS
330
81AA
102
}
330
81AA
100
AcDbVisualStyle
  2
Linepattern
 70
    14
 71
     2
 72
     2
 73
     0
 90
        0
 40
-0.6
 41
-30.0
 62
     5
 63
     7
 74
     1
 91
        4
 64
     7
 65
   257
 75
     7
175
     7
 42
1.0
 92
        8
 66
     7
 43
1.0
 76
     1
 77
     6
 78
     2
 67
     7
 79
     5
170
     0
171
     0
290
     0
174
     0
 93
        1
 44
0.0
173
     0
291
     1
 45
0.0
1001
ACAD
1000
AcDbSavedByObjectVersion
1070
     0
  0
VISUALSTYLE
  5
81C1
102
{ACAD_XDICTIONARY
360
8521
102
}
102
{ACAD_REACTORS
330
81AA
102
}
330
81AA
100
AcDbVisualStyle
  2
OverhangOff
 70
    21
 71
     2
 72
     2
 73
     0
 90
        0
 40
-0.6
 41
-30.0
 62
     5
 63
     7
 74
     1
 91
        4
 64
     7
 65
   257
 75
     1
175
     1
 42
1.0
 92
        9
 66
     7
 43
1.0
 76
     1
 77
     6
 78
     2
 67
     7
 79
     5
170
     0
171
     0
290
     0
174
     0
 93
        1
 44
0.0
173
     0
291
     1
 45
0.0
1001
ACAD
1000
AcDbSavedByObjectVersion
1070
     0
  0
VISUALSTYLE
  5
81B4
102
{ACAD_XDICTIONARY
360
8507
102
}
102
{ACAD_REACTORS
330
81AA
102
}
330
81AA
100
AcDbVisualStyle
  2
Realistic
 70
     8
 71
     2
 72
     3
 73
     0
 90
        2
 40
-0.6
 41
30.0
 62
     5
 63
     7
 74
     0
 91
        0
 64
     7
 65
   257
 75
     1
175
     1
 42
1.0
 92
        8
 66
   257
 43
1.0
 76
     1
 77
     6
 78
     2
 67
     7
 79
     3
170
     0
171
     0
290
     0
174
     0
 93
       13
 44
0.0
173
     0
291
     0
 45
0.0
1001
ACAD
1000
AcDbSavedByObjectVersion
1070
     0
  0
VISUALSTYLE
  5
81BF
102
{ACAD_XDICTIONARY
360
851D
102
}
102
{ACAD_REACTORS
330
81AA
102
}
330
81AA
100
AcDbVisualStyle
  2
Shaded
 70
    27
 71
     2
 72
     2
 73
     1
 90
        2
 40
-0.6
 41
30.0
 62
     5
 63
     7
 74
     0
 91
        4
 64
     7
 65
   257
 75
     1
175
     1
 42
1.0
 92
        8
 66
   257
 43
1.0
 76
     1
 77
     6
 78
     2
 67
     8
 79
     3
170
     0
171
     0
290
     0
174
     0
 93
        5
 44
0.0
173
     0
291
     0
 45
0.0
1001
ACAD
1000
AcDbSavedByObjectVersion
1070
     0
  0
VISUALSTYLE
  5
81BE
102
{ACAD_XDICTIONARY
360
851B
102
}
102
{ACAD_REACTORS
330
81AA
102
}
330
81AA
100
AcDbVisualStyle
  2
Shaded with edges
 70
    26
 71
     2
 72
     2
 73
     1
 90
        2
 40
-0.6
 41
30.0
 62
     5
 63
     7
 74
     1
 91
       10
 64
     7
 65
   257
 75
     2
175
     1
 42
1.0
 92
        8
 66
   257
 43
1.0
 76
     1
 77
     6
 78
     2
 67
     7
 79
     3
170
     0
171
     0
290
     0
174
     0
 93
        5
 44
0.0
173
     0
291
     0
 45
0.0
1001
ACAD
1000
AcDbSavedByObjectVersion
1070
     0
  0
VISUALSTYLE
  5
81BB
102
{ACAD_XDICTIONARY
360
8515
102
}
102
{ACAD_REACTORS
330
81AA
102
}
330
81AA
100
AcDbVisualStyle
  2
Shades of Gray
 70
    23
 71
     2
 72
     2
 73
     3
 90
        0
 40
-0.6
 41
-30.0
 62
     5
 63
     7
 74
     2
 91
        2
 64
     7
 65
     7
 75
     1
175
     1
 42
40.0
 92
        8
 66
     7
 43
1.0
 76
     1
 77
     6
 78
     2
 67
     7
 79
     3
170
     0
171
     0
290
     0
174
     0
 93
        1
 44
0.0
173
     0
291
     0
 45
0.0
1001
ACAD
1000
AcDbSavedByObjectVersion
1070
     0
  0
VISUALSTYLE
  5
81BC
102
{ACAD_XDICTIONARY
360
8517
102
}
102
{ACAD_REACTORS
330
81AA
102
}
330
81AA
100
AcDbVisualStyle
  2
Sketchy
 70
    24
 71
     1
 72
     2
 73
     2
 90
        0
 40
-0.6
 41
-30.0
 62
     5
 63
     7
 74
     2
 91
        2
 64
     7
 65
     7
 75
     1
175
     1
 42
40.0
 92
       11
 66
     7
 43
1.0
 76
     1
 77
     6
 78
     2
 67
     7
 79
     6
170
     0
171
     0
290
     0
174
     0
 93
        1
 44
0.0
173
     0
291
     0
 45
0.0
1001
ACAD
1000
AcDbSavedByObjectVersion
1070
     0
  0
VISUALSTYLE
  5
81B7
102
{ACAD_XDICTIONARY
360
850D
102
}
102
{ACAD_REACTORS
330
81AA
102
}
330
81AA
100
AcDbVisualStyle
  2
Thicken
 70
    13
 71
     2
 72
     2
 73
     0
 90
        0
 40
-0.6
 41
-30.0
 62
     5
 63
     7
 74
     1
 91
        4
 64
     7
 65
   257
 75
     1
175
     1
 42
1.0
 92
       12
 66
     7
 43
1.0
 76
     1
 77
     6
 78
     2
 67
     7
 79
     5
170
     0
171
     0
290
     0
174
     0
 93
        1
 44
0.0
173
     0
291
     1
 45
0.0
1001
ACAD
1000
AcDbSavedByObjectVersion
1070
     0
  0
VISUALSTYLE
  5
81B1
102
{ACAD_XDICTIONARY
360
8501
102
}
102
{ACAD_REACTORS
330
81AA
102
}
330
81AA
100
AcDbVisualStyle
  2
Wireframe
 70
     5
 71
     0
 72
     2
 73
     0
 90
        0
 40
-0.6
 41
-30.0
 62
     5
 63
     7
 74
     1
 91
        4
 64
     7
 65
   257
 75
     1
175
     1
 42
1.0
 92
        0
 66
   257
 43
1.0
 76
     1
 77
     6
 78
     2
 67
     7
 79
     3
170
     0
171
     0
290
     0
174
     0
 93
        1
 44
0.0
173
     0
291
     0
 45
0.0
1001
ACAD
1000
AcDbSavedByObjectVersion
1070
     0
  0
VISUALSTYLE
  5
81BD
102
{ACAD_XDICTIONARY
360
8519
102
}
102
{ACAD_REACTORS
330
81AA
102
}
330
81AA
100
AcDbVisualStyle
  2
X-Ray
 70
    25
 71
     2
 72
     2
 73
     1
 90
        1
 40
0.5
 41
-30.0
 62
     5
 63
     7
 74
     1
 91
        0
 64
     7
 65
   257
 75
     1
175
     1
 42
1.0
 92
        8
 66
     7
 43
1.0
 76
     1
 77
     6
 78
     2
 67
     7
 79
     3
170
     0
171
     0
290
     0
174
     0
 93
       13
 44
0.0
173
     0
291
     0
 45
0.0
1001
ACAD
1000
AcDbSavedByObjectVersion
1070
     0
  0
DICTIONARYVAR
  5
8495
102
{ACAD_REACTORS
330
8490
102
}
330
8490
100
DictionaryVariables
280
     0
  1
1:1
  0
DICTIONARYVAR
  5
8492
102
{ACAD_REACTORS
330
8490
102
}
330
8490
100
DictionaryVariables
280
     0
  1
STANDARD
  0
DICTIONARYVAR
  5
8491
102
{ACAD_REACTORS
330
8490
102
}
330
8490
100
DictionaryVariables
280
     0
  1
STANDARD
  0
DICTIONARYVAR
  5
8493
102
{ACAD_REACTORS
330
8490
102
}
330
8490
100
DictionaryVariables
280
     0
  1
Imperial24
  0
DICTIONARYVAR
  5
8494
102
{ACAD_REACTORS
330
8490
102
}
330
8490
100
DictionaryVariables
280
     0
  1
Imperial24
  0
DICTIONARYVAR
  5
8498
102
{ACAD_REACTORS
330
8490
102
}
330
8490
100
DictionaryVariables
280
     0
  1
1
  0
DICTIONARYVAR
  5
8497
102
{ACAD_REACTORS
330
8490
102
}
330
8490
100
DictionaryVariables
280
     0
  1
0
  0
DICTIONARYVAR
  5
8496
102
{ACAD_REACTORS
330
8490
102
}
330
8490
100
DictionaryVariables
280
     0
  1
127
  0
DICTIONARYVAR
  5
8499
102
{ACAD_REACTORS
330
8490
102
}
330
8490
100
DictionaryVariables
280
     0
  1
2
  0
DICTIONARY
  5
8529
330
81EB
100
AcDbDictionary
280
     1
281
     1
  3
ACAD_XREC_ROUNDTRIP
360
852A
  0
DICTIONARY
  5
852D
330
81F3
100
AcDbDictionary
280
     1
281
     1
  3
ACAD_XREC_ROUNDTRIP
360
852E
  0
DICTIONARY
  5
852B
330
81EF
100
AcDbDictionary
280
     1
281
     1
  3
ACAD_XREC_ROUNDTRIP
360
852C
  0
DICTIONARY
  5
819B
330
819A
100
AcDbDictionary
280
     1
281
     1
  3
ACAD_XREC_ROUNDTRIP
360
84F3
  3
BUMPTILE
360
819D
  3
DIFFUSETILE
360
819C
  3
OPACITYTILE
360
81A0
  3
REFLECTIONTILE
360
819F
  3
REFRACTIONTILE
360
81A1
  3
SPECULARTILE
360
819E
  0
DICTIONARY
  5
8193
330
8192
100
AcDbDictionary
280
     1
281
     1
  3
ACAD_XREC_ROUNDTRIP
360
84F2
  3
BUMPTILE
360
8195
  3
DIFFUSETILE
360
8194
  3
OPACITYTILE
360
8198
  3
REFLECTIONTILE
360
8197
  3
REFRACTIONTILE
360
8199
  3
SPECULARTILE
360
8196
  0
DICTIONARY
  5
81A3
330
81A2
100
AcDbDictionary
280
     1
281
     1
  3
ACAD_XREC_ROUNDTRIP
360
84F4
  3
BUMPTILE
360
81A5
  3
DIFFUSETILE
360
81A4
  3
FBXASSET
360
82C0
  3
OPACITYTILE
360
81A8
  3
REFLECTIONTILE
360
81A7
  3
REFRACTIONTILE
360
81A9
  3
SPECULARTILE
360
81A6
  0
DICTIONARY
  5
8527
330
81E9
100
AcDbDictionary
280
     1
281
     1
  3
ACAD_XREC_ROUNDTRIP
360
8528
  0
DICTIONARY
  5
84EE
330
81E5
100
AcDbDictionary
280
     1
281
     1
  3
ACAD_ROUNDTRIP_2008_TABLESTYLE_CELLSTYLEMAP
360
84EF
  3
ACAD_XREC_ROUNDTRIP
360
8525
  0
DICTIONARY
  5
84FF
330
81B0
100
AcDbDictionary
280
     1
281
     1
  3
ACAD_XREC_ROUNDTRIP
360
8500
  0
DICTIONARY
  5
84FD
330
81AF
100
AcDbDictionary
280
     1
281
     1
  3
ACAD_XREC_ROUNDTRIP
360
84FE
  0
DICTIONARY
  5
850B
330
81B6
100
AcDbDictionary
280
     1
281
     1
  3
ACAD_XREC_ROUNDTRIP
360
850C
  0
DICTIONARY
  5
8513
330
81BA
100
AcDbDictionary
280
     1
281
     1
  3
ACAD_XREC_ROUNDTRIP
360
8514
  0
DICTIONARY
  5
8505
330
81B3
100
AcDbDictionary
280
     1
281
     1
  3
ACAD_XREC_ROUNDTRIP
360
8506
  0
DICTIONARY
  5
8509
330
81B5
100
AcDbDictionary
280
     1
281
     1
  3
ACAD_XREC_ROUNDTRIP
360
850A
  0
DICTIONARY
  5
8523
330
81C2
100
AcDbDictionary
280
     1
281
     1
  3
ACAD_XREC_ROUNDTRIP
360
8524
  0
DICTIONARY
  5
8511
330
81B9
100
AcDbDictionary
280
     1
281
     1
  3
ACAD_XREC_ROUNDTRIP
360
8512
  0
DICTIONARY
  5
84F5
330
81AB
100
AcDbDictionary
280
     1
281
     1
  3
ACAD_XREC_ROUNDTRIP
360
84F6
  0
DICTIONARY
  5
84F7
330
81AC
100
AcDbDictionary
280
     1
281
     1
  3
ACAD_XREC_ROUNDTRIP
360
84F8
  0
DICTIONARY
  5
84F9
330
81AD
100
AcDbDictionary
280
     1
281
     1
  3
ACAD_XREC_ROUNDTRIP
360
84FA
  0
DICTIONARY
  5
84FB
330
81AE
100
AcDbDictionary
280
     1
281
     1
  3
ACAD_XREC_ROUNDTRIP
360
84FC
  0
DICTIONARY
  5
8503
330
81B2
100
AcDbDictionary
280
     1
281
     1
  3
ACAD_XREC_ROUNDTRIP
360
8504
  0
DICTIONARY
  5
851F
330
81C0
100
AcDbDictionary
280
     1
281
     1
  3
ACAD_XREC_ROUNDTRIP
360
8520
  0
DICTIONARY
  5
850F
330
81B8
100
AcDbDictionary
280
     1
281
     1
  3
ACAD_XREC_ROUNDTRIP
360
8510
  0
DICTIONARY
  5
8521
330
81C1
100
AcDbDictionary
280
     1
281
     1
  3
ACAD_XREC_ROUNDTRIP
360
8522
  0
DICTIONARY
  5
8507
330
81B4
100
AcDbDictionary
280
     1
281
     1
  3
ACAD_XREC_ROUNDTRIP
360
8508
  0
DICTIONARY
  5
851D
330
81BF
100
AcDbDictionary
280
     1
281
     1
  3
ACAD_XREC_ROUNDTRIP
360
851E
  0
DICTIONARY
  5
851B
330
81BE
100
AcDbDictionary
280
     1
281
     1
  3
ACAD_XREC_ROUNDTRIP
360
851C
  0
DICTIONARY
  5
8515
330
81BB
100
AcDbDictionary
280
     1
281
     1
  3
ACAD_XREC_ROUNDTRIP
360
8516
  0
DICTIONARY
  5
8517
330
81BC
100
AcDbDictionary
280
     1
281
     1
  3
ACAD_XREC_ROUNDTRIP
360
8518
  0
DICTIONARY
  5
850D
330
81B7
100
AcDbDictionary
280
     1
281
     1
  3
ACAD_XREC_ROUNDTRIP
360
850E
  0
DICTIONARY
  5
8501
330
81B1
100
AcDbDictionary
280
     1
281
     1
  3
ACAD_XREC_ROUNDTRIP
360
8502
  0
DICTIONARY
  5
8519
330
81BD
100
AcDbDictionary
280
     1
281
     1
  3
ACAD_XREC_ROUNDTRIP
360
851A
  0
XRECORD
  5
852A
102
{ACAD_REACTORS
330
8529
102
}
330
8529
100
AcDbXrecord
280
     1
102
DISPLAYNAME
  1
Imperial24
102
FLAGS
 90
        0
  0
XRECORD
  5
852E
102
{ACAD_REACTORS
330
852D
102
}
330
852D
100
AcDbXrecord
280
     1
102
SHADEPLOT
 70
     0
102
SHADEPLOTRESLEVEL
 70
     2
102
SHADEPLOTCUSTOMDPI
 70
   300
  0
XRECORD
  5
852C
102
{ACAD_REACTORS
330
852B
102
}
330
852B
100
AcDbXrecord
280
     1
102
SHADEPLOT
 70
     0
102
SHADEPLOTRESLEVEL
 70
     2
102
SHADEPLOTCUSTOMDPI
 70
   300
  0
XRECORD
  5
84F3
102
{ACAD_REACTORS
330
819B
102
}
330
819B
100
AcDbXrecord
280
     1
102
MATERIAL
148
0.0
149
0.0
149
0.0
 93
        0
 94
      127
282
     0
 72
     0
 77
     0
171
     0
175
     0
179
     0
273
     0
  0
XRECORD
  5
819D
102
{ACAD_REACTORS
330
819B
102
}
330
819B
100
AcDbXrecord
280
     1
270
     1
271
     1
  0
XRECORD
  5
819C
102
{ACAD_REACTORS
330
819B
102
}
330
819B
100
AcDbXrecord
280
     1
270
     1
271
     1
  0
XRECORD
  5
81A0
102
{ACAD_REACTORS
330
819B
102
}
330
819B
100
AcDbXrecord
280
     1
270
     1
271
     1
  0
XRECORD
  5
819F
102
{ACAD_REACTORS
330
819B
102
}
330
819B
100
AcDbXrecord
280
     1
270
     1
271
     1
  0
XRECORD
  5
81A1
102
{ACAD_REACTORS
330
819B
102
}
330
819B
100
AcDbXrecord
280
     1
270
     1
271
     1
  0
XRECORD
  5
819E
102
{ACAD_REACTORS
330
819B
102
}
330
819B
100
AcDbXrecord
280
     1
270
     1
271
     1
  0
XRECORD
  5
84F2
102
{ACAD_REACTORS
330
8193
102
}
330
8193
100
AcDbXrecord
280
     1
102
MATERIAL
148
0.0
149
0.0
149
0.0
 93
        0
 94
      127
282
     0
 72
     0
 77
     0
171
     0
175
     0
179
     0
273
     0
  0
XRECORD
  5
8195
102
{ACAD_REACTORS
330
8193
102
}
330
8193
100
AcDbXrecord
280
     1
270
     1
271
     1
  0
XRECORD
  5
8194
102
{ACAD_REACTORS
330
8193
102
}
330
8193
100
AcDbXrecord
280
     1
270
     1
271
     1
  0
XRECORD
  5
8198
102
{ACAD_REACTORS
330
8193
102
}
330
8193
100
AcDbXrecord
280
     1
270
     1
271
     1
  0
XRECORD
  5
8197
102
{ACAD_REACTORS
330
8193
102
}
330
8193
100
AcDbXrecord
280
     1
270
     1
271
     1
  0
XRECORD
  5
8199
102
{ACAD_REACTORS
330
8193
102
}
330
8193
100
AcDbXrecord
280
     1
270
     1
271
     1
  0
XRECORD
  5
8196
102
{ACAD_REACTORS
330
8193
102
}
330
8193
100
AcDbXrecord
280
     1
270
     1
271
     1
  0
XRECORD
  5
84F4
102
{ACAD_REACTORS
330
81A3
102
}
330
81A3
100
AcDbXrecord
280
     1
102
MATERIAL
148
0.0
149
0.0
149
0.0
 93
        0
 94
      127
282
     0
 72
     0
 77
     0
171
     0
175
     0
179
     0
273
     0
  0
XRECORD
  5
81A5
102
{ACAD_REACTORS
330
81A3
102
}
330
81A3
100
AcDbXrecord
280
     1
270
     1
271
     1
  0
XRECORD
  5
81A4
102
{ACAD_REACTORS
330
81A3
102
}
330
81A3
100
AcDbXrecord
280
     1
270
     1
271
     1
  0
XRECORD
  5
82C0
102
{ACAD_REACTORS
330
81A3
102
}
330
81A3
100
AcDbXrecord
280
     1
 70
     1
 90
1959938040
 71
     1
  1
F99263E2-688C-495B-97E6-3B7F91592D06
311
504B03041400060808007673745770B3F8F3BF000000200100004F00000036374431394434362D313846382D343931452D414333362D4241323945443941333442442F4173736574446174612F446566696E6974696F6E4974657261746F7250726F706572746965732E62696EEB606060F80F0540260323103700495E20ED
311
9E9A975A94991C9C9C919A9BC8C00612C9C94F4ACC6147C831019920AE4B6A5A62694E0948976F6671726A4E4E625E6A7E69B12042A9426E6209D0B8C41C3D90264E20860914834C48875806B2DF0F88414E02D189290556F689C5C5A925B6FA694915FA166EE6E666C68E46BA066E2E4EBA264EA6AEBA4EAEAE06BA166E4E
311
C66E0616CE064E2ECEFA45A9C5F9A545C9A9C5FA46FA06F15093E30BF2D2191838EEF0983D015A02720308130200504B030414000608080076737457FE1B4874F0000000300200004500000036374431394434362D313846382D343931452D414333362D4241323945443941333442442F4173736574446174612F496E7374
311
616E636550726F706572746965732E62696EEB606060F80F0540260323103700495E20ED9E9A975A94991C9C9C919A9BA8021470B3B43432337635D235B3B070D635B13475D2B5347735D335763277B33434B534723130634768046931363471713532B5D435353131D635313332D475727372D13534373670367376B67474
311
B5042A03DBCBA019D37FE8ABC6157B20CD04146B0062181F4C03F940F0C11EA29A8141C08141002C0426541C106CAC2CA046088033B02A030AC2157C6006F21A8018AAF50194E6010A610250382264E08660284CD9E98021862280A91564B406929A0FF62C401E28B6F88038B83CB1243943D7A928312F25350524131B1BFB
311
9F161800504B03041400060808007673745728BB58AF800100009E0500003D00000036374431394434362D313846382D343931452D414333362D4241323945443941333442442F536368656D61732F436F6D6D6F6E536368656D612E786D6CBD544D4FC23018BEFB2B96DE15493C78601010A34B880709DEDFB52FD0D8B54B
311
D70DF6EFED3AC0B12E6442E2716BFB3CEFF3D18E26FB440405EA8C2B1992E1C323095052C5B8DC842437EBFB673219DF8DA659866649B798C078B48AE6410122242F2A4994AC7F93815DF85C049C8564CA0A901499DD886B2EB9B1E02448F358701A9235880C49A0119892A20C89D1B9FD768815CAD268CB5E0355B40B1E47
311
F3E37A2020464BED06AA57CE8FCC20C3C3446D46761A2632A8C1283D07031EFF2AE7CCB1BFEEE916E406DFAC8E36FFD99A9D60A6944090EEDC3B670C7DC13DE86B6B2C5C240D6E503BB85ACD579D513F1B9F9A69DC9CC22AFA80C426D40AF0B21EA168559156B6276F0F726A6BFF04DCD513A87A62CAD41FB24FCB2858B395
311
2E3D852084DA25B9303C15687973CC8E8AAE11DF2836C38C6A9E765E8C1BA1BFB1DC29CDFE518C8B5A7655A4ED7E77291ABEB80DBD82EC866ADE1B8D05AF9E35CF09D7A061F38A986D9EC412B8F0F65E5D81534D9B231D1E5A8FE577A241F3A5FD01504B0304140006080800767374572CCEBD668A040000E01200003E0000
311
0036374431394434362D313846382D343931452D414333362D4241323945443941333442442F536368656D61732F47656E65726963536368656D612E786D6CD5586D6FDB380CFE7EBF42F0F7A649B70E1B90744856B4970F450FCD7A5F05459613EDE4174872DADCAF3F522F8ED3B88D2F1D06AC4050DBA2493EE4438AF2F8
311
EB73AEC8466823CB62928C06C384888297A92C5693A4B6D9D9E7E4EBD51FE3A931C22EF85AE4EC6AFC38BF261BA626C9AD288496DC3F4FCEAFC63366845F7A10452AF41DB320C0D44EC26EAB20918735565582695670811A6A49643A49A6E9069FA4604A64B29016DC4B48552F95E4932463CA888468C1D2B250DB4962750D
311
F7CE273069CE8363F1FF4EDB00E0A21999574AE4A2B00C353B93F3BD4777B8A61ED8F604ABFEDD79CE56A2B7BDFBDBC50996E0ADDE16FED26223C5D30956C29BDF4A55EA686E5E58B112DA45CE67F76F4FA27EFA3FB672FD7372FC388FAECDCA5209E693CAD167BADCD272F943701B3812F8A3D852008B1D2E32DB927B2F83
311
3C6EA95879925356D254582695095A3CE982924720BE5774A3CB9CDCDB350427D2DF20DA1B5532EBE2D5D6288D75D4F7E4FD9890A0EF8E3D93EBB8F8BA4758158EF6FB90A6F9520281C93DE7AAC6D24607DA296BB96018123F821A7D6A5C5884050C475DA4865442732C8B95684A50165CBB3A32F25F783A4A480ED59AD7F9
311
24B968AEA50131F46303223E6A397B0E52976030DC1DCA81D7E7C1EDEEA42C19FF27635C505E2BD5198A599020DF50A2330FCB3AAF28CB0124108429553EF1B228802E2265D8F7CC2401042B155BCC7070F1E5C55F13B4A9577362CCCE46C32174E010C3C378C44841A4BDA00FE3A12006CE11EE6AEC59894D3526DDE1CD59
311
D503ECC324017F8061B7F162162FA62EDD81AE3308617770796DCBDAD2B2625C5AE8A63DE20B2C8AA5E95E76E5730823955956E33E705425A2187C185D36489A1B44D3DCEC2172F6BA2105C3546287A7194B2331768EBBE64F6E70A9930ABE0ADEA89E9E2C38523B810287AD67A54A039C1606EAFE68F8304610BB9093DBDD
311
ABC0B2AE4E290DCDA15376D7E39F72B556F0B32EAB5D3D498B4C41ABADEC3A1434C422D87E8025A84BDCB2B1417ED750FAE4DA8976863974C577C7F902D3F156AD354DEA3540DE6BEAE2BEA52F7A2EB4CA43802ECE5BF2CE2EDC9347179FFB023CE412E60BE16DA0BE29B374988A553F561DC04615DD35F7D2C8979F60E595
311
5CE93DF29DED8AFA1EE6642D53418086C03C47C377910F75F7E8F5EF665F70B60FFB22AEDF897D119E8423C773E819A3C1E55E550599EE6EDCA34D0C86FD72057DF2CD46F16A470682471C164E4346D5306BF12D7D12D82CFF673D41636C347443FEB51B50D72EA171A8E4A58623A4A16E0FA2B8B10A0D23268D87C33896EE
311
8FB73305A74BF224EDBADFA0BD674AB354D63DB7BD5D83426761C077DE767728235446A552754EB93B755891C3C4CC6CADE37CF0E912A7BB38DBA010F9DE1282EDF470CA69A9CDA482E334C4A6EA4107987980B17E72F31730EBF88BBD39E7C629F56797A3C0009C2C5AE7951D9A05A02773440F02EEB4DE396A3B6A570C72
311
CCFBCD823B0B8ED3F1D5CEDDFED772FA70236C83FB7D86C385D570B87107535572A60A96035F8F7C6A7192F13007246BBE0521855E6AC46F3E27689CEE7D186A6FD679D98CDCAD13333E04EBE7ED6F55FF01504B0304140006080800767374576180134D5F0100006B0300004500000036374431394434362D313846382D34
311
3931452D414333362D4241323945443941333442442F536368656D61732F52656E6465724D6174657269616C536368656D612E786D6CA5934D6FC2300C86EFFB1551EEE343DBA41D1A103009551ADAD40EAE28A4A68D9426284961FCFBE5A340113B2071746D3F765EBF4DC6BFB5407BD0862B49F0B037C0082453059725C1
311
8DDD3EBFE3F1E829991803366715D474942CD30FB4A782E00C64017A412D684E454CE3FE28995203B162A6EA5AC94B66997D225E109CD63B0135484BAD1B3C07E9080CA35DB3119C11BCA5C200461A68A1A438126C75E3E230D40FF81FB3F03C91D1E3A3A0AF79FE28E25BC39EC3E17E4C2A2D94A0833A51AF55BCCA7D8857
311
2FCBAC529C4140B020FC3AAFA886621DCED7EAD7664CC86024E806DC297DA1BB393E4156543457A4537DB8817349A70F8ACBF09B3EEE2CB2F33E91B65D60786E4E3B39B77E3FEEEF5650424525DA657FB8B46BE6BF064646F0A0F7327C0BC1BC1B4CBBC1C419FA3CCB23500007872A2580CAAE5461865565294E4EDB4617B6
311
2FF579DF9A5B2F54E834076A597573A020912FED777F9B3F504B030414000608080076737457BDD8B4D751000000570000004700000036374431394434362D313846382D343931452D414333362D4241323945443941333442442F4173736574446174612F41737365745461626C654F66436F6E74656E74732E62696E5361
311
606070B3B43432337635D235B3B070D635B13475D2B5347735D335763277B33434B5347231301302AACB4D2C492DCA4CCC492C28484D2C4ACC4B4E050A82012F90744FCD03CA26072767A4E6260200504B030414000608080076737457F865834058000000680000004500000036374431394434362D313846382D34393145
311
2D414333362D4241323945443941333442442F4173736574446174612F53747265616D56657273696F6E5461626C652E696E66558CBD0A80300C06F73E4B117FB66E451741D041DC5BF98480A492E4FDD18EAEC7DD4555D89EF28DF51A0B1BD8340C4DE7DD848B988C0ACF0649566493F2408C508DDEBB99D5129FF8F1AF8C
311
F5B9503E20FAE5A16B5AF702504B030414000608080076737457BE074B0E340100009A0400003600000036374431394434362D313846382D343931452D414333362D4241323945443941333442442F4173736574446174612F636E782E786D6CCD94314FC3301085FF4AE43D761222812AC71582A51348540C6C57E752AC3A
311
76645F10FC7BEC3603A888A943D7F3BBF3F327BF93EBCFD1161F18A2F1AE6335AF58814EFBDEB87DC7661ACA3B56AC950CDED30F192B1C8CD8B15C664AEE839FA7A5D4E300B3CD556BDC6129DEC788B4859DC5A7E1C13B42479115DA428C1D8BFA1D47E03093EF311E780F04BCE601A39F83C63489CC88CB241D10087BA69A
311
AAB929EBBA6CAA6DDDAE9ADB55DBBE4991954AEEBCB78BDEA4CB829F0A7DBA95A94A8A7CACE41CCCA2C96F61EA2F8F7C679C1449A964A490982C1DF435A50E98266B34504227BC26A432891046294E62254566F08BC4230EC699DCB249C6807C784EF63090C1AB23F29FD7CB93D9B848E0345E2F8F738797A7F072FC41AFA7
311
401E13736D393977C88D1B2E9012715C23293479ABA86F504B030414000608080076737457CD643310080100004F0300003400000036374431394434362D313846382D343931452D414333362D4241323945443941333442442F536368656D61732F636E782E786D6CCD93314F04211484FF0AA15FD85D37D15C58AEB0B0B2
311
512B3B84772739E06D8035FAEF8595E22EB1D3E23A18BE9099E121F69FDE910F88C96298E9C07A4A206834361C67BAE6437747C95E8A8898CF304A82F230D32A53298E11D7A549060E6A755575369C9A788FDE6378D6EFE01525DAA994669AB62D536B4603E9C48CCA8A0D2C42C2356A283764EBA1DDA023A80C86CAB11F6F
311
BA61E8C6FE659876E3ED6E9A5E05AFA4146F88AEF1366488B8108D65118A9D5EF07A2CC51A6D636A062ACFBDB1D286E0859022E5583A6864FE5A0AA996C559AD72A98A6FE00F2305AF512F023F408068F57526BE30F76F919F2018888FE595A255EE3A93FFE6F16F05F06DF6CB08D4AF20BF01504B03041400060808007673
311
7457410A3D5871000000A40000002C00000036374431394434362D313846382D343931452D414333362D4241323945443941333442442F636E782E786D6C55CC4D0E82301086E1AB34B31774E7A22D31F1069E60020334B633A63FC6E34B0909B07DDE2F9FEE7EC1AB2FC5E4840DDC9A2B28E25E06C7938192C7CB1D546775
311
14C9871928C640062A83D55394F2D968A0118BAFEA1DBF377CA444F98919176EAB9FEAAB9F2960DA5BBB1E2ED3FA6FFF504B030414000608080076737457DD6394667E000000A300000007000000636E782E786D6C4D8CD10AC22018465F45FE7B2B9B988273B85CEF319A1B92D3B0193D7E1ABBE8EA83C3778EEC3EAB476F
311
9B5E2E8616C8E104C8867B9C5C585AC8DB8C39A04EC914E3F6770314C6D5B6503128B9A4989F3B9AEC3C665FA977E1B14376314418CA30E1378EA92003D6D786E15E9FC560846E686F8A71AC4A995FAF6CCDAB2F504B03041400060808007673745716E99B5DA600000035010000130000005B436F6E74656E745F54797065
311
735D2E786D6C9590410E82301045AFD2740F4517C6180A0BF5065E60AC53688469D30E066F6F91AD9AB89CF9FFFD3F99BA9DC7413C3026E749CB4D59498164FCCD51A7E5C4B6D84BD136F5E5193089ECA5A465CF1C0E4A25D3E308A9F401292BD6C711388FB15301CC1D3A54DBAADA29E38991B8E0254336F5092D4C038BF3
311
9CD76B6FC6A538AEBEA54A4B08617006389FA516557DE4AE8E7E70DE30729138228C5F021CD93F02D4FB0DCD0B504B0304140006080800767374573DEE336E64000000790000001B0000006175746F6465736B2D64657369676E2D7061636B6167652E786D6C35CBC10E83200C00D05F21DCA56CA76D41FC96062B120735B6
311
9A7DBE268BB7777961F8D5AF396893C2ADB70FE7ADA196782C2DF776D7A97B5933C430F15651E5469C55D70F80A4992A3ADC954792C525AE70A1E4D6AD9816CC044FEFDF01FE3FDE907802504B030414000608080076737457302FD91DF9000000960100003700000036374431394434362D313846382D343931452D414333
311
362D4241323945443941333442442F4173736574446174612F636F72652E786D6C8550C16E842010FD15337754D056DD201B6DED17F4D41B01D625BB821168FAF985D526EDA9A799BC79EFCDCCA3E7AFE59E7DAACD696B7AC079099932C24A6DE61E82BFA016B233A39BB5FE170D32C317D5438281D179B3613D20618D5726
311
A1C64A7580DC39E52113F7D8F4E0C4552D3CE7C14786BBE52B17373EAB1CE73B8FD110B43CA45A46377DD16A03D63CBF4CD3D474A82DA711D5E4A94403AE1BD44D6F156EBA719C86961649CCA8D7CBCF76B129EE9504464A52218C1129DF717D22CDA9AE3F6891988C3ABFC59F8FA5E93B6043BAFA957B4E8B7DFAC735ACF2
311
7FD7A08DAFC8E1BA2B1C301C8F7C0C182D524AB13C228C3525CABE01504B0304140006080800767374574608DAB6F7000000940100003500000036374431394434362D313846382D343931452D414333362D4241323945443941333442442F536368656D61732F636F72652E786D6C8550C16E842010FD15337754D056DD20
311
9BB5A13FD09E7A23C8BA645730024D3FBFA036694F3DCDE4CD7B6F661E3D7FCD8FEC53AD4E5BD303CE4BC8949176D466EA21F82B6A213B33BA5AEB7FD1203362563D2418189D561B960392D67865126AECA80E5038A73C64F2119B1E9CBCA959E422F8C870F77C11F22E2695E37CE7311A821E0FA91EA39BBE6AB5026B9E5F
311
38E74D87DA920FA8264F25BAE0BA411D7FAD70D30D03BFB4B4486246BD9E7FB6CB5509AF4660A42415C21891F21DD727D29CEAFA831689C9A8F36BFCF9589ABE03F6B6DDE968B1CFFE788665FCDF3368E32B7278EE0A070CC713B701A345CA28962DC058539EEC1B504B03041400060808007673745747E7E8CB02010000D7
311
0100002D00000036374431394434362D313846382D343931452D414333362D4241323945443941333442442F636F72652E786D6C9591C172832010865F85D93B2A6A4DCC201953D327E8A9372A1BC3248223D0E9E317AB9DB6B7F604F3F3FDBBFCBBFCF83EDEC91BCE4E5BD3004B3220687AABB4191A08FE42F7408E82CFD6
311
FA1F181023476C609141F061B661DAA4DE1A8F66518D55B889D239F440FA7BBC34E0FA2B8E3291C147C2DD9249F6373960C2929513DCEBF1CBDACF283D2A1079961794319A67CFAC3CE4BB4359BEF07421050FDAF822DF9AE1F88A8AD8C9C748201E78BABE462A68B5315AC53FEA8BC61944B5EB58DD951565FBA73D2D6B76
311
A6ED6351D1539BD7E7AE6E8BF2D4C522D12CB8F3739CCC566499C15FEDABF157B230A97F265B1D0E04FB0E952E63163CFDDC413C9795880F504B030414000608080076737457B0AD99CD07010000B201000008000000636F72652E786D6C8D50C16E842014FC15F2EEA8A8ADEE06D9AC0DFD829E7AA3C2BA64158CE0A6FDFB
311
C24A93F6D6D32333F3DE0C434F9FF384EE6A75DA9A0E4856005266B0529BB183CD5F700BE8C4E86AADFF250364C4AC3A8830303AAE765B123458E39589A8B152255038A73CA0610A8F0EDC7055B3C8C4E683C2DDB2450C3731AA8C64BB8E51AFE79FD56155C22B09AC2CCA0A1382CBE28DD4C7B239D6F53BCDA392D16DD332
311
596919DCF545AB1558F3FCC2396F0EB82D788FEBF2A9C0675237F8C05F2BD21CFA9E9F5B9AC765469D5FC39FD39190D32327EED197E63BC5E887B5531284501259337D012B681E893FA1B745FE23B436BE2AD3C17DC3012321D08308C6B1C1301EF58619DB66DF504B010214001400060808007673745770B3F8F3BF000000
311
200100004F000000000000000000000000000000000036374431394434362D313846382D343931452D414333362D4241323945443941333442442F4173736574446174612F446566696E6974696F6E4974657261746F7250726F706572746965732E62696E504B0102140014000608080076737457FE1B4874F00000003002
311
000045000000000000000000000000002C01000036374431394434362D313846382D343931452D414333362D4241323945443941333442442F4173736574446174612F496E7374616E636550726F706572746965732E62696E504B010214001400060808007673745728BB58AF800100009E0500003D000000000000000000
311
000000007F02000036374431394434362D313846382D343931452D414333362D4241323945443941333442442F536368656D61732F436F6D6D6F6E536368656D612E786D6C504B01021400140006080800767374572CCEBD668A040000E01200003E000000000000000000000000005A04000036374431394434362D313846
311
382D343931452D414333362D4241323945443941333442442F536368656D61732F47656E65726963536368656D612E786D6C504B01021400140006080800767374576180134D5F0100006B03000045000000000000000000000000004009000036374431394434362D313846382D343931452D414333362D42413239454439
311
41333442442F536368656D61732F52656E6465724D6174657269616C536368656D612E786D6C504B0102140014000608080076737457BDD8B4D751000000570000004700000000000000000000000000020B000036374431394434362D313846382D343931452D414333362D4241323945443941333442442F417373657444
311
6174612F41737365745461626C654F66436F6E74656E74732E62696E504B0102140014000608080076737457F865834058000000680000004500000000000000000000000000B80B000036374431394434362D313846382D343931452D414333362D4241323945443941333442442F4173736574446174612F53747265616D
311
56657273696F6E5461626C652E696E66504B0102140014000608080076737457BE074B0E340100009A0400003600000000000000000000000000730C000036374431394434362D313846382D343931452D414333362D4241323945443941333442442F4173736574446174612F636E782E786D6C504B010214001400060808
311
0076737457CD643310080100004F0300003400000000000000000000000000FB0D000036374431394434362D313846382D343931452D414333362D4241323945443941333442442F536368656D61732F636E782E786D6C504B0102140014000608080076737457410A3D5871000000A40000002C0000000000000000000000
311
0000550F000036374431394434362D313846382D343931452D414333362D4241323945443941333442442F636E782E786D6C504B0102140014000608080076737457DD6394667E000000A3000000070000000000000000000000000010100000636E782E786D6C504B010214001400060808007673745716E99B5DA6000000
311
350100001300000000000000000000000000B31000005B436F6E74656E745F54797065735D2E786D6C504B01021400140006080800767374573DEE336E64000000790000001B000000000000000000000000008A1100006175746F6465736B2D64657369676E2D7061636B6167652E786D6C504B0102140014000608080076
311
737457302FD91DF90000009601000037000000000000000000000000002712000036374431394434362D313846382D343931452D414333362D4241323945443941333442442F4173736574446174612F636F72652E786D6C504B01021400140006080800767374574608DAB6F7000000940100003500000000000000000000
311
0000007513000036374431394434362D313846382D343931452D414333362D4241323945443941333442442F536368656D61732F636F72652E786D6C504B010214001400060808007673745747E7E8CB02010000D70100002D00000000000000000000000000BF14000036374431394434362D313846382D343931452D4143
311
33362D4241323945443941333442442F636F72652E786D6C504B0102140014000608080076737457B0AD99CD07010000B201000008000000000000000000000000000C160000636F72652E786D6C504B050600000000110011005A060000391700000000
310
504B030414000608080076737457000000000000000000000000370000006662782F38433839413434442D334144362D344631422D393031302D4637394435343232303937462F617474726962757465732E62696E504B030414000608080076737457000000000000000000000000350000006662782F3843383941343444
310
2D334144362D344631422D393031302D4637394435343232303937462F76657274696365732E62696E504B030414000608080076737457F270F1330600000004000000360000006662782F38433839413434442D334144362D344631422D393031302D4637394435343232303937462F747269616E676C65732E62696E6366
310
60600000504B03041400060808007673745751464CB48900000043010000360000006662782F38433839413434442D334144362D344631422D393031302D4637394435343232303937462F6469726563746F72792E786D6C9D8F310EC2300C45AF127987122606C71DD918B841D4B851A43646695A717C52A85029031293A5
310
A76FBF6FACEF7DA7264E43906840EF0FA03836E242F406C6DCEE4EA06AC22492573150D1F66C60C640E8938CB705396EEDD86DE9B5042FE27813D640EA63BB001C722AF6E55CB61E4863F58284D5D3F53DD715CE1C3985E63FD7F1B7EBDD617E9F1E504B030414000608080076737457CD8BB0B236070000201C0000340000
310
006662782F38433839413434442D334144362D344631422D393031302D4637394435343232303937462F6F626A656374732E786D6CDD59596FDB3810FE2B84F665F74197AFD885E222B6E3C228D21635BAD837819669871B5D20A5C4D95FBF438A942559B6956E0B149B00B14293C3996FEE91F7FE1085E899304E93F8D670
310
2DC740240E922D8DF7B7469EEDCCB181DE4F91C79224ABEC33508C23726B886563EAED5992A76A694B76380F9BABCBD95F88072426060A42CCF9ADC1834712610BE759B225FCC9DAE20C5BFBDDC172AD62639DEC9EE1F4B171558A1989336015D663A0A23870EBFF8248F6D4B3C586DAB65EB76DFD0BDB6C29789D511AF30C
310
C7C109570D3ABD6E5CF5DDC1E2BE379C98C3C1A06F0E463DD79C2D670BD3BDE93BF3D17C3EB9BB9F1868EA6D92242C159092780B5A7C35A6AE678B6F4AF1150A6D7C07491C9340A1D9B6614B145D4A7813931AB0AE14ADA29042D6CA42BFA3F067B67502A5C6520D6D2D9CFEAC5A6FB2F91B40E05DAC947122AC9C670C74AD
310
B02FFCC1F1EC62B5A617CA518433C2280E5148370C3350106C2D14542323BC4590420233A9454DAFCA2B18F6755F6AE3729787A1F05F632A3DCD077F2419979CD17F083B725FBD0D780269731A6763256CF69A02898967CBC5E2BB7E4F7D5900897621DE83B580986253BFD7C06B2E62C16A614C3F2E3787B5880FED97A72C
310
4909CB84E54967567EA73558312D30BE0EA014B8D6757744E52B40FF09902F79411E688ED1C3E030D0B2331CF35DC222D00E7290E9C01F0789C79327CF2E0F4F11AAC5CA739882DBFE204C6B62D4EEAE403AF59EC1E813D657C2AD031C824D3FD058F839180A0A13588278BFDB1C8CE90A82292CC2291C82F4F0EBD9E211C1
310
474107E24D43436DE1B783A2B4C334FDECA8AB0F60338C06A5AA6A329EC377F843F0BD5BAC3FAE73B6C30179508EBD203B1AD30C92693B4335D06B2EFF6DF5497AE4893CB55D01DCB34F44E068D1CB5AE90549C5002B220F17AA912B0F14DC3D0C714C929CABF5B640152461C2FCCDAB5FF870EB5D7F6A23282E03FF1616D0
310
1ACC20BB078CA6021463AAC42B23A175C449C4416580FB42A9FE06074F025E3F8088F53D7C80D562D6249A47A98FA3248F45F83E35EFA66856DF913FAE3BE93993DE7832D2C272495E7B8F0E0D25F3E29E08A7672E99D7B4A5A286A65CF8D100A2659B0401D44C79E627290E68D66E0B0D21948702D81759DED2DD2EE710D4
310
5B6169706CF5DD21722A7FCB4B2E73AF2EF16984F7C4DF6191E15AEFAB015412D712B422B30F13CE694CB8AC504E22570315C7824050D8ADA6DA628494FB11C9F0F7D89F4C790DF3636417FA504B65A29ABD6E7D9A41953DCF5114955B12FB52FE579FE3280D8B2AED1A066EAF71432BAE826971C533D89B8F33DFD9125974
310
5FA35EC6058D6F27EA93EF267F061E867F3A3CFA0A0AA537E4C8EB9A75ADA13B113F63082AA3A1DBBFD18AB88695BE2A1335489843D514BCFA2F84EE1FBB05B44EF77012EE7C1A8679E417F9202311946038CB59277F1D0D9D13E5ABB8D07088CA4D3B1A4281DC3968CADA43571F20952C3ECE05CDCA3520148DA147EB24C8
310
8914AD262C7521FB51D1765DD7FEDBA9FEE77859ED539EC8EB4BC2B6AD9CD6CB085D81E98241844B95E14A3B9294A75ED5F922D9B85CC761A089A8F8567409CA421879A66230213BA0D6FE81BFE02C8040BA969FE60C3C624BB6C79AA2464E8D398C295CAAA9E93AB5DAE940B013E9A35678AD44408D60DA80459C7D100FE1
310
570CAA86CA8FDBAAAAB18BF595486C160C568E7C5CA0F5F9C3BA4105563A9FFE2230222F0D0A6A752E0AB90BA4BEAD8EF56A838292E8DBEAC2F1EC318F3631A622330AB3C0DBF4DD7BD94BDEDAD028D8E3E5CDCDA87FD7339DE562660E66C37B73767FEF98E3E5ACBF74C67367B698DB8CF0246701E176CF767C5D3BA5F15E
310
1B46015D978E02A60AD75B3F6DCF4D05FF8F3B8A30D9E073B6F8AB361465B9270AB2862F766D285A03F5E66DD5BF7B12A8DB93D89B2AE76256A00DFC72DA8260A4F37DF7D24293D695443BCF958CF8C6C47BB65BF9E939A616D05BF3436D475BC8AFC762983DB56429DDDDCAB8B69C4081D6BFEF99A3F1786E0E26C39939B9
310
B91F99FDD9CD72E20E27BD85736C09552EEC9A577E8918AA99AD8CD1601ACC9390C2509E6CD19E24D001C1D4A1437C6511E1B2B3810240A571FD46A0C3E9E762A69AE14DA84F078F1806D3A1CAC879004351E83A6E0DB58E7E8331A89844CAE194F504894759BB8172466F0D30818C427EB13630CE92C34349BD31AE04B5E1
310
782F7AA6E254F9FFF19840076CE52857B9A70B2E4AB29A75C2702095EF0920DAE982E4FB45D7EC209CC1E326CF4A618E0B47691408FA8540211C4CFD9E14BC07083C97E5722DB9A70649A7C9FC453B28A89A19667B395EAFE07DB7F8628BC9F8EA334AC37C2FD47929DFD72899A2CE08F36208E581612831532CFAF0F93BFB
310
0B4BE015538496148C00FD7E188FFEB0E749142571B164DFA9175568FD08AF9DB6B61EF941E1E2B8435BD63D6AAC0F732B4E2CBCE54FB000AA6554CC460B886B065086A78A01688D085DC0B1DAFED502A924502961ABA5AB8047CEF4113892789723DCA6BAA13280045F00AE8A396DF9A0173C9BC1107CFA2F504B03041400
310
0608080076737457E52092AF3D01000046050000300000006662782F38433839413434442D334144362D344631422D393031302D4637394435343232303937462F636E782E786D6CCD94CF4A033110C65F25E4BE7F5D504A36050F3E8107F196CD4ED7D86C664966C5BEBD49DD56452A1E0AED2D4CBE81EF37F33162FD3E5A
310
F6063E18742DAFF29233701A7BE38696CFB4C9EE385B4BE111E99B8C33A74668792A7329068FF3B4947AD8A8D9A6AA356EBB14159137DD4C1038D35685D0F2A05F6054B99A097B08DBBC57A4F22AF71070F61A623F9911967EED4111F45CD6657D93555556978F55B3AA6F574DF32C8AA494A243B48BDE38028F13D3181F2E
310
9A294591BEA598BD59348980CB2F6779679C28E2BF1421BA75C3A2A3DD9474D3648D5614C754A026A02C8A408DA2F8144B5124DE1FD40FF74F0707AC371E34A1DF5D6800D5A9011C8DE53109FFE3DF0BFFC6C6EE35E25E6ADB2761175B67433DA435C4B8FEDE7F4C917283BDBED01F8D9D3FF3F19490D1D7877CF07526E262
310
7FF2E2D2D305941F504B030414000608080076737457A46F5AD67E000000A30000000B0000006662782F636E782E786D6C4D8CD10AC22018465F45FE7B4B973585E95889EF319A1B92D3B0193D7E1ABBE8EA83C3774ED77F568FDE36BD5C0C12E88100B2E11E27171609799B3107D4AB2EC5B8FDDD008571B5122A06D52D29
310
E6E78E263B8FD957EA5D78EC90DFB81818D3F834E80B66865EB1209460D30A7D664D43446B8A71AC4A995FAF6CCDAB2F504B030414000608080076737457A6D797065F0000008200000007000000636E782E786D6C4DCB3B0E80201045D1AD90E9FD7516806B51190811670C8A61F982B1B0BAC9C97B72CA7B1037C6D33329
310
18DA1E04D2CAC69353902EDB8C20262D23F3F59B81A079470595414B17391D1F19B4730A5583A7ED43BBE4025D9592775E5ADFFA01504B0304140006080800767374574FEB6A7CA0000000F4000000130000005B436F6E74656E745F54797065735D2E786D6C7D8F4B0EC2300C44AF1279DFA6B0400835ED02B8011730C16D
310
239A8F121795DB93D02D6269CFBC19BBED573B8B17C564BC53B0AB1B10E4B47F18372A5878A88E20FAAEBDBD032591BD2E299898C349CAA427B2986A1FC86565F0D122E7318E32A07EE24872DF3407A9BD63725C71C980AEBDD080CBCCE2BAE6F5D69B7110E7CD57AA146008B3D1C8F92C5954F993BB1BF787F39A89ABC491
310
D09600F9FDA2FB00504B0304140006080800767374573DEE336E64000000790000001B0000006175746F6465736B2D64657369676E2D7061636B6167652E786D6C35CBC10E83200C00D05F21DCA56CA76D41FC96062B120735B69A7DBE268BB7777961F8D5AF396893C2ADB70FE7ADA196782C2DF776D7A97B5933C430F156
310
51E5469C55D70F80A4992A3ADC954792C525AE70A1E4D6AD9816CC044FEFDF01FE3FDE907802504B030414000608080076737457946E19DCF7000000960100003B0000006662782F38433839413434442D334144362D344631422D393031302D4637394435343232303937462F7265736F75726365732F636F72652E786D6C
310
8550CB6EC32010FC156BEFD80653398D30511D355FD0536F086F5C94182C1E553FBF10BB527BEA69D1ECCC2C33E2F4B5DCAB4FF4C1383B00AD5BA8D06A37193B0F90E2951CA03A49E19D8BBF685059B5E00005062966EFD2BA43DAD988B6A0D64DB8832A048C50E97B7E0C10F4072EAA56296646B8D5ABD23735634DEB8D27
310
454A66DAA566CA6EE66AD083A48CF3BE6F9FC80B3D33C2E9A527231F3919C7737F793EBC8E1D6F4553C45244B3FC5CD71E55C409246B59472825AC7DA3FCC8FA23E7EFA2294C2942F439F37EB4A403E931B8E43506D16CDB3FAE699DFE774DC6C68EEDAE9B22E41CF9938F85144D69298F4785799646E537504B0304140006
310
08080076737457A7C8E16DF2000000B1010000310000006662782F38433839413434442D334144362D344631422D393031302D4637394435343232303937462F636F72652E786D6C8D504B6EC32014BC8AC51E1B30ADE30813A5B57C82AEBA43401C94182C3E558F5F885DA9DD65F5D0BC1966DEB0D3F772AFBEB40FC6D901
310
E01A814A5BE994B1F30052BCC003A84E9C79E7E21F1AA8AC58F4000A0C389BBD4BEB0E4967A3B605B54EE91D1421E8082A79CF8F010479D58BA8458A99116EF52AE44DCCBAC6F5C6E32C9AE5572ABD16512BC009222DC41812F481E99174474A3F5953989CA564D46E6554763717A33DE087F7437FA67484ED797C8574C26F
310
B04718C1A9EBC7174A08EABB893545CC59883EDFBC7F52AE7B56BE09FF654EAB7A22B3B1B125BBE1A60880E39CE7B1E0AC2905E6F16837CF5236FF01504B0304140006080800767374574A052C4652010000DD0200000C0000006662782F636F72652E786D6C8D525D6F832014FD2B867754288B5D8334B3597FC19EF64691
310
3A52058360FAF3077EA4F361DD6282E4DC7BCEBDE7047ABC776D324A3B28A34B80D21C24520B532BDD94C0BB2BDC83E4C8A835C6FD680389E69D2C418401A38D35BE5F2061B4933AA2DAD47201F930480712D1864B0906F1253B9E72EF42C7704B7B2E6EBC91294AE73E46BD57F5425575505357252D6008135214F90B7C43
310
270C093A17B022158155752ACEAFFBF76A47729A4532A34E75EB74612577B2060CE77807118238FF40E4808B03219F348B9D8C0ECE06CFCBD0E80EB0EBE54EB319DFE8F9BEFE5BCF2BED7678D19B19437010D69B0A8C66319FF09BC2DB66180687FC1CBFB4AB855B8046299CB124546AE31FA591B75E06E93C993E9ACDD5A0
310
3C09FCA6839FE83CD7084171DD84D5B80BD78B7771FA76A75E5A38BA7BA28DED78FB586E5EF1713E066D2CAD74615A63FFC35EADAE6166F161B26F504B0304140006080800767374578C6748D804010000B201000008000000636F72652E786D6C8D504B6EC32010BD0A628F633095D30813D5517382AEBAA3401C141B2C3E
310
517BFB424CA576D7D5A037EFC7B0E3E73283BBF6C1383B40DCB410682B9D32761A608A17B487E0C899772EFEA24160C5A2075860C8D9E45D5A2B249D8DDA16D43AA52B2842D0110239E7C70083BCEA453422C5CC08B76615F22626DDE066E37116CDF223955E8BA815E4A4251DC21891F60DD303E90F94BEB35D6172969251
310
35CAA89C6E2E467BC831A1B4EFDB27F4824F04517CEED148478AC6F1D49F9FF7AF63475BB62B62CE42F4F9CFD524F78C20887BC965BB6DC5D987737325E4520A383B7F419E1DCAE24FE9B4AA7F94363676A41A6E8A903BE7428F450E2E17CCE371DE3CCBB5F937504B01021400140006080800767374570000000000000000
310
000000003700000000000000000000000000000000006662782F38433839413434442D334144362D344631422D393031302D4637394435343232303937462F617474726962757465732E62696E504B01021400140006080800767374570000000000000000000000003500000000000000000000000000550000006662782F
310
38433839413434442D334144362D344631422D393031302D4637394435343232303937462F76657274696365732E62696E504B0102140014000608080076737457F270F13306000000040000003600000000000000000000000000A80000006662782F38433839413434442D334144362D344631422D393031302D46373944
310
35343232303937462F747269616E676C65732E62696E504B010214001400060808007673745751464CB489000000430100003600000000000000000000000000020100006662782F38433839413434442D334144362D344631422D393031302D4637394435343232303937462F6469726563746F72792E786D6C504B010214
310
0014000608080076737457CD8BB0B236070000201C00003400000000000000000000000000DF0100006662782F38433839413434442D334144362D344631422D393031302D4637394435343232303937462F6F626A656374732E786D6C504B0102140014000608080076737457E52092AF3D01000046050000300000000000
310
0000000000000000670900006662782F38433839413434442D334144362D344631422D393031302D4637394435343232303937462F636E782E786D6C504B0102140014000608080076737457A46F5AD67E000000A30000000B00000000000000000000000000F20A00006662782F636E782E786D6C504B0102140014000608
310
080076737457A6D797065F000000820000000700000000000000000000000000990B0000636E782E786D6C504B01021400140006080800767374574FEB6A7CA0000000F400000013000000000000000000000000001D0C00005B436F6E74656E745F54797065735D2E786D6C504B01021400140006080800767374573DEE33
310
6E64000000790000001B00000000000000000000000000EE0C00006175746F6465736B2D64657369676E2D7061636B6167652E786D6C504B0102140014000608080076737457946E19DCF7000000960100003B000000000000000000000000008B0D00006662782F38433839413434442D334144362D344631422D39303130
310
2D4637394435343232303937462F7265736F75726365732F636F72652E786D6C504B0102140014000608080076737457A7C8E16DF2000000B10100003100000000000000000000000000DB0E00006662782F38433839413434442D334144362D344631422D393031302D4637394435343232303937462F636F72652E786D6C
310
504B01021400140006080800767374574A052C4652010000DD0200000C000000000000000000000000001C1000006662782F636F72652E786D6C504B01021400140006080800767374578C6748D804010000B2010000080000000000000000000000000098110000636F72652E786D6C504B0506000000000E000E00800400
310
00C21200000000
  0
XRECORD
  5
81A8
102
{ACAD_REACTORS
330
81A3
102
}
330
81A3
100
AcDbXrecord
280
     1
270
     1
271
     1
  0
XRECORD
  5
81A7
102
{ACAD_REACTORS
330
81A3
102
}
330
81A3
100
AcDbXrecord
280
     1
270
     1
271
     1
  0
XRECORD
  5
81A9
102
{ACAD_REACTORS
330
81A3
102
}
330
81A3
100
AcDbXrecord
280
     1
270
     1
271
     1
  0
XRECORD
  5
81A6
102
{ACAD_REACTORS
330
81A3
102
}
330
81A3
100
AcDbXrecord
280
     1
270
     1
271
     1
  0
XRECORD
  5
8528
102
{ACAD_REACTORS
330
8527
102
}
330
8527
100
AcDbXrecord
280
     1
102
DISPLAYNAME
  1
Imperial24
102
FLAGS
 90
        0
  0
CELLSTYLEMAP
  5
84EF
102
{ACAD_REACTORS
330
84EE
102
}
330
84EE
100
AcDbCellStyleMap
 90
        3
300
CELLSTYLE
  1
TABLEFORMAT_BEGIN
 90
        5
170
     1
 91
        0
 92
    32768
 62
   257
 93
        1
300
CONTENTFORMAT
  1
CONTENTFORMAT_BEGIN
 90
        0
 91
        0
 92
      512
 93
        0
300

 40
0.0
140
1.0
 94
        5
 62
     0
340
81D6
144
0.25
309
CONTENTFORMAT_END
171
     0
 94
        0
309
TABLEFORMAT_END
  1
CELLSTYLE_BEGIN
 90
        1
 91
        1
300
_TITLE
309
CELLSTYLE_END
300
CELLSTYLE
  1
TABLEFORMAT_BEGIN
 90
        5
170
     1
 91
        0
 92
        0
 62
   257
 93
        1
300
CONTENTFORMAT
  1
CONTENTFORMAT_BEGIN
 90
        0
 91
        0
 92
      512
 93
        0
300

 40
0.0
140
1.0
 94
        5
 62
     0
340
81D6
144
0.18
309
CONTENTFORMAT_END
171
     0
 94
        0
309
TABLEFORMAT_END
  1
CELLSTYLE_BEGIN
 90
        2
 91
        1
300
_HEADER
309
CELLSTYLE_END
300
CELLSTYLE
  1
TABLEFORMAT_BEGIN
 90
        5
170
     1
 91
        0
 92
        0
 62
   257
 93
        1
300
CONTENTFORMAT
  1
CONTENTFORMAT_BEGIN
 90
        0
 91
        0
 92
      512
 93
        0
300

 40
0.0
140
1.0
 94
        2
 62
     0
340
81D6
144
0.18
309
CONTENTFORMAT_END
171
     0
 94
        0
309
TABLEFORMAT_END
  1
CELLSTYLE_BEGIN
 90
        3
 91
        2
300
_DATA
309
CELLSTYLE_END
  0
XRECORD
  5
8525
102
{ACAD_REACTORS
330
84EE
102
}
330
84EE
100
AcDbXrecord
280
     1
102
ACAD_ROUNDTRIP_PRE2007_TABLESTYLE
 90
      512
 91
        0
  1

 92
      512
 93
        0
  2

 94
      512
 95
        0
  3

  0
XRECORD
  5
8500
102
{ACAD_REACTORS
330
84FF
102
}
330
84FF
100
AcDbXrecord
280
     1
102
RTVSPost2010Prop28
280
     1
102
RTVSPost2010PropOp28
 70
     1
102
RTVSPost2010Prop29
280
     1
102
RTVSPost2010PropOp29
 70
     1
102
RTVSPost2010Prop30
280
     0
102
RTVSPost2010PropOp30
 70
     1
102
RTVSPost2010Prop31
280
     0
102
RTVSPost2010PropOp31
 70
     1
102
RTVSPost2010Prop32
280
     0
102
RTVSPost2010PropOp32
 70
     1
102
RTVSPost2010Prop33
280
     0
102
RTVSPost2010PropOp33
 70
     1
102
RTVSPost2010Prop34
280
     0
102
RTVSPost2010PropOp34
 70
     1
102
RTVSPost2010Prop35
280
     0
102
RTVSPost2010PropOp35
 70
     1
102
RTVSPost2010Prop36
280
     0
102
RTVSPost2010PropOp36
 70
     1
102
RTVSPost2010Prop37
 90
       50
102
RTVSPost2010PropOp37
 70
     1
102
RTVSPost2010Prop38
140
0.0
102
RTVSPost2010PropOp38
 70
     1
102
RTVSPost2010Prop39
140
1.0
102
RTVSPost2010PropOp39
 70
     1
102
RTVSPost2010Prop40
 90
        0
102
RTVSPost2010PropOp40
 70
     1
102
RTVSPost2010Prop41ColorIndex
 90
       18
102
RTVSPost2010Prop41ColorRGB
 90
        0
102
RTVSPost2010PropOp41
 70
     1
102
RTVSPost2010Prop42
 90
       50
102
RTVSPost2010PropOp42
 70
     1
102
RTVSPost2010Prop43
 90
        3
102
RTVSPost2010PropOp43
 70
     1
102
RTVSPost2010Prop44ColorIndex
 90
        5
102
RTVSPost2010Prop44ColorRGB
 90
      255
102
RTVSPost2010PropOp44
 70
     1
102
RTVSPost2010Prop45
280
     0
102
RTVSPost2010PropOp45
 70
     1
102
RTVSPost2010Prop46
 90
       50
102
RTVSPost2010PropOp46
 70
     1
102
RTVSPost2010Prop47
 90
       50
102
RTVSPost2010PropOp47
 70
     1
102
RTVSPost2010Prop48
 90
       50
102
RTVSPost2010PropOp48
 70
     1
102
RTVSPost2010Prop49
280
     0
102
RTVSPost2010PropOp49
 70
     1
102
RTVSPost2010Prop50
 90
       50
102
RTVSPost2010PropOp50
 70
     1
102
RTVSPost2010Prop51ColorIndex
 90
      256
102
RTVSPost2010Prop51ColorRGB
 90
-16777216
102
RTVSPost2010PropOp51
 70
     0
102
RTVSPost2010Prop52
140
1.0
102
RTVSPost2010PropOp52
 70
     0
102
RTVSPost2010Prop53
 90
        2
102
RTVSPost2010PropOp53
 70
     1
102
RTVSPost2010Prop54
  1
strokes_ogs.tif
102
RTVSPost2010PropOp54
 70
     1
102
RTVSPost2010Prop55
280
     0
102
RTVSPost2010PropOp55
 70
     1
102
RTVSPost2010Prop56
140
1.0
102
RTVSPost2010PropOp56
 70
     1
102
RTVSPost2010Prop57
140
1.0
102
RTVSPost2010PropOp57
 70
     1
102
RTVSPropertyOp0
 70
     1
102
RTVSPropertyOp1
 70
     1
102
RTVSPropertyOp2
 70
     1
102
RTVSPropertyOp3
 70
     1
102
RTVSPropertyOp4
 70
     1
102
RTVSPropertyOp5
 70
     1
102
RTVSPropertyOp6
 70
     1
102
RTVSPropertyOp7
 70
     1
102
RTVSPropertyOp8
 70
     1
102
RTVSPropertyOp9
 70
     1
102
RTVSPropertyOp10
 70
     1
102
RTVSPropertyOp11
 70
     1
102
RTVSPropertyOp12
 70
     1
102
RTVSPropertyOp13
 70
     1
102
RTVSPropertyOp14
 70
     1
102
RTVSPropertyOp15
 70
     1
102
RTVSPropertyOp16
 70
     1
102
RTVSPropertyOp17
 70
     1
102
RTVSPropertyOp18
 70
     1
102
RTVSPropertyOp19
 70
     1
102
RTVSPropertyOp20
 70
     1
102
RTVSPropertyOp21
 70
     1
102
RTVSPropertyOp22
 70
     1
102
RTVSPropertyOp23
 70
     1
102
RTVSPropertyOp24
 70
     1
102
RTVSPropertyOp25
 70
     1
102
RTVSPropertyOp26
 70
     1
102
RTVSPropertyOp27
 70
     1
102
RTVSPropertyOp28
 70
     1
102
RTVSPropertyOp29
 70
     1
102
RTVSPropertyOp30
 70
     1
102
RTVSPropertyOp31
 70
     1
102
RTVSPropertyOp32
 70
     1
102
RTVSPropertyOp33
 70
     1
102
RTVSPropertyOp34
 70
     1
102
RTVSPropertyOp35
 70
     1
102
RTVSPropertyOp36
 70
     1
102
RTVSPropertyOp37
 70
     1
102
RTVSPropertyOp38
 70
     1
102
RTVSPropertyOp39
 70
     1
102
RTVSPropertyOp40
 70
     1
102
RTVSPropertyOp41
 70
     1
102
RTVSPropertyOp42
 70
     1
102
RTVSPropertyOp43
 70
     1
102
RTVSPropertyOp44
 70
     1
102
RTVSPropertyOp45
 70
     1
102
RTVSPropertyOp46
 70
     1
102
RTVSPropertyOp47
 70
     1
102
RTVSPropertyOp48
 70
     1
102
RTVSPropertyOp49
 70
     1
102
RTVSPropertyOp50
 70
     1
102
RTVSPropertyOp51
 70
     0
102
RTVSPropertyOp52
 70
     0
102
RTVSPropertyOp53
 70
     1
102
RTVSPropertyOp54
 70
     1
102
RTVSPropertyOp55
 70
     1
102
RTVSPropertyOp56
 70
     1
102
RTVSPropertyOp57
 70
     1
102
RTVSPropertyOp58
 70
     1
102
RTVSPropertyOp59
 70
     1
102
RTVSPropertyOp60
 70
     1
102
RTVSPropertyOp61
 70
     1
102
RTVSPropertyOp62
 70
     1
  0
XRECORD
  5
84FE
102
{ACAD_REACTORS
330
84FD
102
}
330
84FD
100
AcDbXrecord
280
     1
102
RTVSPost2010Prop28
280
     0
102
RTVSPost2010PropOp28
 70
     1
102
RTVSPost2010Prop29
280
     1
102
RTVSPost2010PropOp29
 70
     1
102
RTVSPost2010Prop30
280
     1
102
RTVSPost2010PropOp30
 70
     1
102
RTVSPost2010Prop31
280
     0
102
RTVSPost2010PropOp31
 70
     1
102
RTVSPost2010Prop32
280
     0
102
RTVSPost2010PropOp32
 70
     1
102
RTVSPost2010Prop33
280
     0
102
RTVSPost2010PropOp33
 70
     1
102
RTVSPost2010Prop34
280
     0
102
RTVSPost2010PropOp34
 70
     1
102
RTVSPost2010Prop35
280
     0
102
RTVSPost2010PropOp35
 70
     1
102
RTVSPost2010Prop36
280
     0
102
RTVSPost2010PropOp36
 70
     1
102
RTVSPost2010Prop37
 90
       50
102
RTVSPost2010PropOp37
 70
     1
102
RTVSPost2010Prop38
140
0.0
102
RTVSPost2010PropOp38
 70
     1
102
RTVSPost2010Prop39
140
1.0
102
RTVSPost2010PropOp39
 70
     1
102
RTVSPost2010Prop40
 90
        0
102
RTVSPost2010PropOp40
 70
     1
102
RTVSPost2010Prop41ColorIndex
 90
       18
102
RTVSPost2010Prop41ColorRGB
 90
        0
102
RTVSPost2010PropOp41
 70
     1
102
RTVSPost2010Prop42
 90
       50
102
RTVSPost2010PropOp42
 70
     1
102
RTVSPost2010Prop43
 90
        3
102
RTVSPost2010PropOp43
 70
     1
102
RTVSPost2010Prop44ColorIndex
 90
        5
102
RTVSPost2010Prop44ColorRGB
 90
      255
102
RTVSPost2010PropOp44
 70
     1
102
RTVSPost2010Prop45
280
     0
102
RTVSPost2010PropOp45
 70
     1
102
RTVSPost2010Prop46
 90
       50
102
RTVSPost2010PropOp46
 70
     1
102
RTVSPost2010Prop47
 90
       50
102
RTVSPost2010PropOp47
 70
     1
102
RTVSPost2010Prop48
 90
       50
102
RTVSPost2010PropOp48
 70
     1
102
RTVSPost2010Prop49
280
     0
102
RTVSPost2010PropOp49
 70
     1
102
RTVSPost2010Prop50
 90
       50
102
RTVSPost2010PropOp50
 70
     1
102
RTVSPost2010Prop51ColorIndex
 90
      256
102
RTVSPost2010Prop51ColorRGB
 90
-16777216
102
RTVSPost2010PropOp51
 70
     0
102
RTVSPost2010Prop52
140
1.0
102
RTVSPost2010PropOp52
 70
     0
102
RTVSPost2010Prop53
 90
        2
102
RTVSPost2010PropOp53
 70
     1
102
RTVSPost2010Prop54
  1
strokes_ogs.tif
102
RTVSPost2010PropOp54
 70
     1
102
RTVSPost2010Prop55
280
     0
102
RTVSPost2010PropOp55
 70
     1
102
RTVSPost2010Prop56
140
1.0
102
RTVSPost2010PropOp56
 70
     1
102
RTVSPost2010Prop57
140
1.0
102
RTVSPost2010PropOp57
 70
     1
102
RTVSPropertyOp0
 70
     1
102
RTVSPropertyOp1
 70
     1
102
RTVSPropertyOp2
 70
     1
102
RTVSPropertyOp3
 70
     1
102
RTVSPropertyOp4
 70
     1
102
RTVSPropertyOp5
 70
     1
102
RTVSPropertyOp6
 70
     1
102
RTVSPropertyOp7
 70
     1
102
RTVSPropertyOp8
 70
     1
102
RTVSPropertyOp9
 70
     1
102
RTVSPropertyOp10
 70
     1
102
RTVSPropertyOp11
 70
     1
102
RTVSPropertyOp12
 70
     1
102
RTVSPropertyOp13
 70
     1
102
RTVSPropertyOp14
 70
     1
102
RTVSPropertyOp15
 70
     1
102
RTVSPropertyOp16
 70
     1
102
RTVSPropertyOp17
 70
     1
102
RTVSPropertyOp18
 70
     1
102
RTVSPropertyOp19
 70
     1
102
RTVSPropertyOp20
 70
     1
102
RTVSPropertyOp21
 70
     1
102
RTVSPropertyOp22
 70
     1
102
RTVSPropertyOp23
 70
     1
102
RTVSPropertyOp24
 70
     1
102
RTVSPropertyOp25
 70
     1
102
RTVSPropertyOp26
 70
     1
102
RTVSPropertyOp27
 70
     1
102
RTVSPropertyOp28
 70
     1
102
RTVSPropertyOp29
 70
     1
102
RTVSPropertyOp30
 70
     1
102
RTVSPropertyOp31
 70
     1
102
RTVSPropertyOp32
 70
     1
102
RTVSPropertyOp33
 70
     1
102
RTVSPropertyOp34
 70
     1
102
RTVSPropertyOp35
 70
     1
102
RTVSPropertyOp36
 70
     1
102
RTVSPropertyOp37
 70
     1
102
RTVSPropertyOp38
 70
     1
102
RTVSPropertyOp39
 70
     1
102
RTVSPropertyOp40
 70
     1
102
RTVSPropertyOp41
 70
     1
102
RTVSPropertyOp42
 70
     1
102
RTVSPropertyOp43
 70
     1
102
RTVSPropertyOp44
 70
     1
102
RTVSPropertyOp45
 70
     1
102
RTVSPropertyOp46
 70
     1
102
RTVSPropertyOp47
 70
     1
102
RTVSPropertyOp48
 70
     1
102
RTVSPropertyOp49
 70
     1
102
RTVSPropertyOp50
 70
     1
102
RTVSPropertyOp51
 70
     0
102
RTVSPropertyOp52
 70
     0
102
RTVSPropertyOp53
 70
     1
102
RTVSPropertyOp54
 70
     1
102
RTVSPropertyOp55
 70
     1
102
RTVSPropertyOp56
 70
     1
102
RTVSPropertyOp57
 70
     1
102
RTVSPropertyOp58
 70
     1
102
RTVSPropertyOp59
 70
     1
102
RTVSPropertyOp60
 70
     1
102
RTVSPropertyOp61
 70
     1
102
RTVSPropertyOp62
 70
     1
  0
XRECORD
  5
850C
102
{ACAD_REACTORS
330
850B
102
}
330
850B
100
AcDbXrecord
280
     1
102
RTVSPost2010Prop28
280
     0
102
RTVSPost2010PropOp28
 70
     1
102
RTVSPost2010Prop29
280
     1
102
RTVSPost2010PropOp29
 70
     1
102
RTVSPost2010Prop30
280
     1
102
RTVSPost2010PropOp30
 70
     1
102
RTVSPost2010Prop31
280
     0
102
RTVSPost2010PropOp31
 70
     1
102
RTVSPost2010Prop32
280
     0
102
RTVSPost2010PropOp32
 70
     1
102
RTVSPost2010Prop33
280
     0
102
RTVSPost2010PropOp33
 70
     1
102
RTVSPost2010Prop34
280
     0
102
RTVSPost2010PropOp34
 70
     1
102
RTVSPost2010Prop35
280
     0
102
RTVSPost2010PropOp35
 70
     1
102
RTVSPost2010Prop36
280
     0
102
RTVSPost2010PropOp36
 70
     1
102
RTVSPost2010Prop37
 90
       50
102
RTVSPost2010PropOp37
 70
     1
102
RTVSPost2010Prop38
140
0.0
102
RTVSPost2010PropOp38
 70
     1
102
RTVSPost2010Prop39
140
1.0
102
RTVSPost2010PropOp39
 70
     1
102
RTVSPost2010Prop40
 90
        0
102
RTVSPost2010PropOp40
 70
     1
102
RTVSPost2010Prop41ColorIndex
 90
       18
102
RTVSPost2010Prop41ColorRGB
 90
        0
102
RTVSPost2010PropOp41
 70
     1
102
RTVSPost2010Prop42
 90
       50
102
RTVSPost2010PropOp42
 70
     1
102
RTVSPost2010Prop43
 90
        3
102
RTVSPost2010PropOp43
 70
     1
102
RTVSPost2010Prop44ColorIndex
 90
        5
102
RTVSPost2010Prop44ColorRGB
 90
      255
102
RTVSPost2010PropOp44
 70
     1
102
RTVSPost2010Prop45
280
     0
102
RTVSPost2010PropOp45
 70
     1
102
RTVSPost2010Prop46
 90
       50
102
RTVSPost2010PropOp46
 70
     1
102
RTVSPost2010Prop47
 90
       50
102
RTVSPost2010PropOp47
 70
     1
102
RTVSPost2010Prop48
 90
       50
102
RTVSPost2010PropOp48
 70
     1
102
RTVSPost2010Prop49
280
     0
102
RTVSPost2010PropOp49
 70
     1
102
RTVSPost2010Prop50
 90
       50
102
RTVSPost2010PropOp50
 70
     1
102
RTVSPost2010Prop51ColorIndex
 90
      256
102
RTVSPost2010Prop51ColorRGB
 90
-16777216
102
RTVSPost2010PropOp51
 70
     0
102
RTVSPost2010Prop52
140
1.0
102
RTVSPost2010PropOp52
 70
     0
102
RTVSPost2010Prop53
 90
        2
102
RTVSPost2010PropOp53
 70
     1
102
RTVSPost2010Prop54
  1
strokes_ogs.tif
102
RTVSPost2010PropOp54
 70
     1
102
RTVSPost2010Prop55
280
     0
102
RTVSPost2010PropOp55
 70
     1
102
RTVSPost2010Prop56
140
1.0
102
RTVSPost2010PropOp56
 70
     1
102
RTVSPost2010Prop57
140
1.0
102
RTVSPost2010PropOp57
 70
     1
102
RTVSPropertyOp0
 70
     1
102
RTVSPropertyOp1
 70
     1
102
RTVSPropertyOp2
 70
     1
102
RTVSPropertyOp3
 70
     1
102
RTVSPropertyOp4
 70
     1
102
RTVSPropertyOp5
 70
     1
102
RTVSPropertyOp6
 70
     1
102
RTVSPropertyOp7
 70
     1
102
RTVSPropertyOp8
 70
     1
102
RTVSPropertyOp9
 70
     1
102
RTVSPropertyOp10
 70
     1
102
RTVSPropertyOp11
 70
     1
102
RTVSPropertyOp12
 70
     1
102
RTVSPropertyOp13
 70
     1
102
RTVSPropertyOp14
 70
     1
102
RTVSPropertyOp15
 70
     1
102
RTVSPropertyOp16
 70
     1
102
RTVSPropertyOp17
 70
     1
102
RTVSPropertyOp18
 70
     1
102
RTVSPropertyOp19
 70
     1
102
RTVSPropertyOp20
 70
     1
102
RTVSPropertyOp21
 70
     1
102
RTVSPropertyOp22
 70
     1
102
RTVSPropertyOp23
 70
     1
102
RTVSPropertyOp24
 70
     1
102
RTVSPropertyOp25
 70
     1
102
RTVSPropertyOp26
 70
     1
102
RTVSPropertyOp27
 70
     1
102
RTVSPropertyOp28
 70
     1
102
RTVSPropertyOp29
 70
     1
102
RTVSPropertyOp30
 70
     1
102
RTVSPropertyOp31
 70
     1
102
RTVSPropertyOp32
 70
     1
102
RTVSPropertyOp33
 70
     1
102
RTVSPropertyOp34
 70
     1
102
RTVSPropertyOp35
 70
     1
102
RTVSPropertyOp36
 70
     1
102
RTVSPropertyOp37
 70
     1
102
RTVSPropertyOp38
 70
     1
102
RTVSPropertyOp39
 70
     1
102
RTVSPropertyOp40
 70
     1
102
RTVSPropertyOp41
 70
     1
102
RTVSPropertyOp42
 70
     1
102
RTVSPropertyOp43
 70
     1
102
RTVSPropertyOp44
 70
     1
102
RTVSPropertyOp45
 70
     1
102
RTVSPropertyOp46
 70
     1
102
RTVSPropertyOp47
 70
     1
102
RTVSPropertyOp48
 70
     1
102
RTVSPropertyOp49
 70
     1
102
RTVSPropertyOp50
 70
     1
102
RTVSPropertyOp51
 70
     0
102
RTVSPropertyOp52
 70
     0
102
RTVSPropertyOp53
 70
     1
102
RTVSPropertyOp54
 70
     1
102
RTVSPropertyOp55
 70
     1
102
RTVSPropertyOp56
 70
     1
102
RTVSPropertyOp57
 70
     1
102
RTVSPropertyOp58
 70
     1
102
RTVSPropertyOp59
 70
     1
102
RTVSPropertyOp60
 70
     1
102
RTVSPropertyOp61
 70
     1
102
RTVSPropertyOp62
 70
     1
  0
XRECORD
  5
8514
102
{ACAD_REACTORS
330
8513
102
}
330
8513
100
AcDbXrecord
280
     1
102
RTVSPost2010Prop28
280
     0
102
RTVSPost2010PropOp28
 70
     1
102
RTVSPost2010Prop29
280
     1
102
RTVSPost2010PropOp29
 70
     1
102
RTVSPost2010Prop30
280
     1
102
RTVSPost2010PropOp30
 70
     1
102
RTVSPost2010Prop31
280
     0
102
RTVSPost2010PropOp31
 70
     1
102
RTVSPost2010Prop32
280
     0
102
RTVSPost2010PropOp32
 70
     1
102
RTVSPost2010Prop33
280
     0
102
RTVSPost2010PropOp33
 70
     1
102
RTVSPost2010Prop34
280
     0
102
RTVSPost2010PropOp34
 70
     1
102
RTVSPost2010Prop35
280
     0
102
RTVSPost2010PropOp35
 70
     1
102
RTVSPost2010Prop36
280
     0
102
RTVSPost2010PropOp36
 70
     1
102
RTVSPost2010Prop37
 90
       50
102
RTVSPost2010PropOp37
 70
     1
102
RTVSPost2010Prop38
140
0.0
102
RTVSPost2010PropOp38
 70
     1
102
RTVSPost2010Prop39
140
1.0
102
RTVSPost2010PropOp39
 70
     1
102
RTVSPost2010Prop40
 90
        0
102
RTVSPost2010PropOp40
 70
     1
102
RTVSPost2010Prop41ColorIndex
 90
       18
102
RTVSPost2010Prop41ColorRGB
 90
        0
102
RTVSPost2010PropOp41
 70
     1
102
RTVSPost2010Prop42
 90
       50
102
RTVSPost2010PropOp42
 70
     1
102
RTVSPost2010Prop43
 90
        3
102
RTVSPost2010PropOp43
 70
     1
102
RTVSPost2010Prop44ColorIndex
 90
        5
102
RTVSPost2010Prop44ColorRGB
 90
      255
102
RTVSPost2010PropOp44
 70
     1
102
RTVSPost2010Prop45
280
     0
102
RTVSPost2010PropOp45
 70
     1
102
RTVSPost2010Prop46
 90
       50
102
RTVSPost2010PropOp46
 70
     1
102
RTVSPost2010Prop47
 90
       50
102
RTVSPost2010PropOp47
 70
     1
102
RTVSPost2010Prop48
 90
       50
102
RTVSPost2010PropOp48
 70
     1
102
RTVSPost2010Prop49
280
     0
102
RTVSPost2010PropOp49
 70
     1
102
RTVSPost2010Prop50
 90
       50
102
RTVSPost2010PropOp50
 70
     1
102
RTVSPost2010Prop51ColorIndex
 90
      256
102
RTVSPost2010Prop51ColorRGB
 90
-16777216
102
RTVSPost2010PropOp51
 70
     0
102
RTVSPost2010Prop52
140
1.0
102
RTVSPost2010PropOp52
 70
     0
102
RTVSPost2010Prop53
 90
        2
102
RTVSPost2010PropOp53
 70
     1
102
RTVSPost2010Prop54
  1
strokes_ogs.tif
102
RTVSPost2010PropOp54
 70
     1
102
RTVSPost2010Prop55
280
     0
102
RTVSPost2010PropOp55
 70
     1
102
RTVSPost2010Prop56
140
1.0
102
RTVSPost2010PropOp56
 70
     1
102
RTVSPost2010Prop57
140
1.0
102
RTVSPost2010PropOp57
 70
     1
102
RTVSPropertyOp0
 70
     1
102
RTVSPropertyOp1
 70
     1
102
RTVSPropertyOp2
 70
     1
102
RTVSPropertyOp3
 70
     1
102
RTVSPropertyOp4
 70
     1
102
RTVSPropertyOp5
 70
     1
102
RTVSPropertyOp6
 70
     1
102
RTVSPropertyOp7
 70
     1
102
RTVSPropertyOp8
 70
     1
102
RTVSPropertyOp9
 70
     1
102
RTVSPropertyOp10
 70
     1
102
RTVSPropertyOp11
 70
     1
102
RTVSPropertyOp12
 70
     1
102
RTVSPropertyOp13
 70
     1
102
RTVSPropertyOp14
 70
     1
102
RTVSPropertyOp15
 70
     1
102
RTVSPropertyOp16
 70
     1
102
RTVSPropertyOp17
 70
     1
102
RTVSPropertyOp18
 70
     1
102
RTVSPropertyOp19
 70
     1
102
RTVSPropertyOp20
 70
     1
102
RTVSPropertyOp21
 70
     1
102
RTVSPropertyOp22
 70
     1
102
RTVSPropertyOp23
 70
     1
102
RTVSPropertyOp24
 70
     1
102
RTVSPropertyOp25
 70
     1
102
RTVSPropertyOp26
 70
     1
102
RTVSPropertyOp27
 70
     1
102
RTVSPropertyOp28
 70
     1
102
RTVSPropertyOp29
 70
     1
102
RTVSPropertyOp30
 70
     1
102
RTVSPropertyOp31
 70
     1
102
RTVSPropertyOp32
 70
     1
102
RTVSPropertyOp33
 70
     1
102
RTVSPropertyOp34
 70
     1
102
RTVSPropertyOp35
 70
     1
102
RTVSPropertyOp36
 70
     1
102
RTVSPropertyOp37
 70
     1
102
RTVSPropertyOp38
 70
     1
102
RTVSPropertyOp39
 70
     1
102
RTVSPropertyOp40
 70
     1
102
RTVSPropertyOp41
 70
     1
102
RTVSPropertyOp42
 70
     1
102
RTVSPropertyOp43
 70
     1
102
RTVSPropertyOp44
 70
     1
102
RTVSPropertyOp45
 70
     1
102
RTVSPropertyOp46
 70
     1
102
RTVSPropertyOp47
 70
     1
102
RTVSPropertyOp48
 70
     1
102
RTVSPropertyOp49
 70
     1
102
RTVSPropertyOp50
 70
     1
102
RTVSPropertyOp51
 70
     0
102
RTVSPropertyOp52
 70
     0
102
RTVSPropertyOp53
 70
     1
102
RTVSPropertyOp54
 70
     1
102
RTVSPropertyOp55
 70
     1
102
RTVSPropertyOp56
 70
     1
102
RTVSPropertyOp57
 70
     1
102
RTVSPropertyOp58
 70
     1
102
RTVSPropertyOp59
 70
     1
102
RTVSPropertyOp60
 70
     1
102
RTVSPropertyOp61
 70
     1
102
RTVSPropertyOp62
 70
     1
  0
XRECORD
  5
8506
102
{ACAD_REACTORS
330
8505
102
}
330
8505
100
AcDbXrecord
280
     1
102
RTVSPost2010Prop28
280
     0
102
RTVSPost2010PropOp28
 70
     1
102
RTVSPost2010Prop29
280
     1
102
RTVSPost2010PropOp29
 70
     1
102
RTVSPost2010Prop30
280
     1
102
RTVSPost2010PropOp30
 70
     1
102
RTVSPost2010Prop31
280
     0
102
RTVSPost2010PropOp31
 70
     1
102
RTVSPost2010Prop32
280
     0
102
RTVSPost2010PropOp32
 70
     1
102
RTVSPost2010Prop33
280
     0
102
RTVSPost2010PropOp33
 70
     1
102
RTVSPost2010Prop34
280
     0
102
RTVSPost2010PropOp34
 70
     1
102
RTVSPost2010Prop35
280
     0
102
RTVSPost2010PropOp35
 70
     1
102
RTVSPost2010Prop36
280
     0
102
RTVSPost2010PropOp36
 70
     1
102
RTVSPost2010Prop37
 90
       50
102
RTVSPost2010PropOp37
 70
     1
102
RTVSPost2010Prop38
140
0.0
102
RTVSPost2010PropOp38
 70
     1
102
RTVSPost2010Prop39
140
1.0
102
RTVSPost2010PropOp39
 70
     1
102
RTVSPost2010Prop40
 90
        0
102
RTVSPost2010PropOp40
 70
     1
102
RTVSPost2010Prop41ColorIndex
 90
       18
102
RTVSPost2010Prop41ColorRGB
 90
        0
102
RTVSPost2010PropOp41
 70
     1
102
RTVSPost2010Prop42
 90
       50
102
RTVSPost2010PropOp42
 70
     1
102
RTVSPost2010Prop43
 90
        3
102
RTVSPost2010PropOp43
 70
     1
102
RTVSPost2010Prop44ColorIndex
 90
        5
102
RTVSPost2010Prop44ColorRGB
 90
      255
102
RTVSPost2010PropOp44
 70
     1
102
RTVSPost2010Prop45
280
     0
102
RTVSPost2010PropOp45
 70
     1
102
RTVSPost2010Prop46
 90
       50
102
RTVSPost2010PropOp46
 70
     1
102
RTVSPost2010Prop47
 90
       50
102
RTVSPost2010PropOp47
 70
     1
102
RTVSPost2010Prop48
 90
       50
102
RTVSPost2010PropOp48
 70
     1
102
RTVSPost2010Prop49
280
     0
102
RTVSPost2010PropOp49
 70
     1
102
RTVSPost2010Prop50
 90
       50
102
RTVSPost2010PropOp50
 70
     1
102
RTVSPost2010Prop51ColorIndex
 90
      256
102
RTVSPost2010Prop51ColorRGB
 90
-16777216
102
RTVSPost2010PropOp51
 70
     0
102
RTVSPost2010Prop52
140
1.0
102
RTVSPost2010PropOp52
 70
     0
102
RTVSPost2010Prop53
 90
        2
102
RTVSPost2010PropOp53
 70
     1
102
RTVSPost2010Prop54
  1
strokes_ogs.tif
102
RTVSPost2010PropOp54
 70
     1
102
RTVSPost2010Prop55
280
     0
102
RTVSPost2010PropOp55
 70
     1
102
RTVSPost2010Prop56
140
1.0
102
RTVSPost2010PropOp56
 70
     1
102
RTVSPost2010Prop57
140
1.0
102
RTVSPost2010PropOp57
 70
     1
102
RTVSPropertyOp0
 70
     1
102
RTVSPropertyOp1
 70
     1
102
RTVSPropertyOp2
 70
     1
102
RTVSPropertyOp3
 70
     1
102
RTVSPropertyOp4
 70
     1
102
RTVSPropertyOp5
 70
     1
102
RTVSPropertyOp6
 70
     1
102
RTVSPropertyOp7
 70
     1
102
RTVSPropertyOp8
 70
     1
102
RTVSPropertyOp9
 70
     1
102
RTVSPropertyOp10
 70
     1
102
RTVSPropertyOp11
 70
     1
102
RTVSPropertyOp12
 70
     1
102
RTVSPropertyOp13
 70
     1
102
RTVSPropertyOp14
 70
     1
102
RTVSPropertyOp15
 70
     1
102
RTVSPropertyOp16
 70
     1
102
RTVSPropertyOp17
 70
     1
102
RTVSPropertyOp18
 70
     1
102
RTVSPropertyOp19
 70
     1
102
RTVSPropertyOp20
 70
     1
102
RTVSPropertyOp21
 70
     1
102
RTVSPropertyOp22
 70
     1
102
RTVSPropertyOp23
 70
     1
102
RTVSPropertyOp24
 70
     1
102
RTVSPropertyOp25
 70
     1
102
RTVSPropertyOp26
 70
     1
102
RTVSPropertyOp27
 70
     1
102
RTVSPropertyOp28
 70
     1
102
RTVSPropertyOp29
 70
     1
102
RTVSPropertyOp30
 70
     1
102
RTVSPropertyOp31
 70
     1
102
RTVSPropertyOp32
 70
     1
102
RTVSPropertyOp33
 70
     1
102
RTVSPropertyOp34
 70
     1
102
RTVSPropertyOp35
 70
     1
102
RTVSPropertyOp36
 70
     1
102
RTVSPropertyOp37
 70
     1
102
RTVSPropertyOp38
 70
     1
102
RTVSPropertyOp39
 70
     1
102
RTVSPropertyOp40
 70
     1
102
RTVSPropertyOp41
 70
     1
102
RTVSPropertyOp42
 70
     1
102
RTVSPropertyOp43
 70
     1
102
RTVSPropertyOp44
 70
     1
102
RTVSPropertyOp45
 70
     1
102
RTVSPropertyOp46
 70
     1
102
RTVSPropertyOp47
 70
     1
102
RTVSPropertyOp48
 70
     1
102
RTVSPropertyOp49
 70
     1
102
RTVSPropertyOp50
 70
     1
102
RTVSPropertyOp51
 70
     0
102
RTVSPropertyOp52
 70
     0
102
RTVSPropertyOp53
 70
     1
102
RTVSPropertyOp54
 70
     1
102
RTVSPropertyOp55
 70
     1
102
RTVSPropertyOp56
 70
     1
102
RTVSPropertyOp57
 70
     1
102
RTVSPropertyOp58
 70
     1
102
RTVSPropertyOp59
 70
     1
102
RTVSPropertyOp60
 70
     1
102
RTVSPropertyOp61
 70
     1
102
RTVSPropertyOp62
 70
     1
  0
XRECORD
  5
850A
102
{ACAD_REACTORS
330
8509
102
}
330
8509
100
AcDbXrecord
280
     1
102
RTVSPost2010Prop28
280
     0
102
RTVSPost2010PropOp28
 70
     1
102
RTVSPost2010Prop29
280
     1
102
RTVSPost2010PropOp29
 70
     1
102
RTVSPost2010Prop30
280
     1
102
RTVSPost2010PropOp30
 70
     1
102
RTVSPost2010Prop31
280
     0
102
RTVSPost2010PropOp31
 70
     1
102
RTVSPost2010Prop32
280
     0
102
RTVSPost2010PropOp32
 70
     1
102
RTVSPost2010Prop33
280
     0
102
RTVSPost2010PropOp33
 70
     1
102
RTVSPost2010Prop34
280
     0
102
RTVSPost2010PropOp34
 70
     1
102
RTVSPost2010Prop35
280
     0
102
RTVSPost2010PropOp35
 70
     1
102
RTVSPost2010Prop36
280
     0
102
RTVSPost2010PropOp36
 70
     1
102
RTVSPost2010Prop37
 90
       50
102
RTVSPost2010PropOp37
 70
     1
102
RTVSPost2010Prop38
140
0.0
102
RTVSPost2010PropOp38
 70
     1
102
RTVSPost2010Prop39
140
1.0
102
RTVSPost2010PropOp39
 70
     1
102
RTVSPost2010Prop40
 90
        0
102
RTVSPost2010PropOp40
 70
     1
102
RTVSPost2010Prop41ColorIndex
 90
       18
102
RTVSPost2010Prop41ColorRGB
 90
        0
102
RTVSPost2010PropOp41
 70
     1
102
RTVSPost2010Prop42
 90
       50
102
RTVSPost2010PropOp42
 70
     1
102
RTVSPost2010Prop43
 90
        3
102
RTVSPost2010PropOp43
 70
     1
102
RTVSPost2010Prop44ColorIndex
 90
        5
102
RTVSPost2010Prop44ColorRGB
 90
      255
102
RTVSPost2010PropOp44
 70
     1
102
RTVSPost2010Prop45
280
     0
102
RTVSPost2010PropOp45
 70
     1
102
RTVSPost2010Prop46
 90
       50
102
RTVSPost2010PropOp46
 70
     1
102
RTVSPost2010Prop47
 90
       50
102
RTVSPost2010PropOp47
 70
     1
102
RTVSPost2010Prop48
 90
       50
102
RTVSPost2010PropOp48
 70
     1
102
RTVSPost2010Prop49
280
     0
102
RTVSPost2010PropOp49
 70
     1
102
RTVSPost2010Prop50
 90
       50
102
RTVSPost2010PropOp50
 70
     1
102
RTVSPost2010Prop51ColorIndex
 90
      256
102
RTVSPost2010Prop51ColorRGB
 90
-16777216
102
RTVSPost2010PropOp51
 70
     0
102
RTVSPost2010Prop52
140
1.0
102
RTVSPost2010PropOp52
 70
     0
102
RTVSPost2010Prop53
 90
        2
102
RTVSPost2010PropOp53
 70
     1
102
RTVSPost2010Prop54
  1
strokes_ogs.tif
102
RTVSPost2010PropOp54
 70
     1
102
RTVSPost2010Prop55
280
     0
102
RTVSPost2010PropOp55
 70
     1
102
RTVSPost2010Prop56
140
1.0
102
RTVSPost2010PropOp56
 70
     1
102
RTVSPost2010Prop57
140
1.0
102
RTVSPost2010PropOp57
 70
     1
102
RTVSPropertyOp0
 70
     1
102
RTVSPropertyOp1
 70
     1
102
RTVSPropertyOp2
 70
     1
102
RTVSPropertyOp3
 70
     1
102
RTVSPropertyOp4
 70
     1
102
RTVSPropertyOp5
 70
     1
102
RTVSPropertyOp6
 70
     1
102
RTVSPropertyOp7
 70
     1
102
RTVSPropertyOp8
 70
     1
102
RTVSPropertyOp9
 70
     1
102
RTVSPropertyOp10
 70
     1
102
RTVSPropertyOp11
 70
     1
102
RTVSPropertyOp12
 70
     1
102
RTVSPropertyOp13
 70
     1
102
RTVSPropertyOp14
 70
     1
102
RTVSPropertyOp15
 70
     1
102
RTVSPropertyOp16
 70
     1
102
RTVSPropertyOp17
 70
     1
102
RTVSPropertyOp18
 70
     1
102
RTVSPropertyOp19
 70
     1
102
RTVSPropertyOp20
 70
     1
102
RTVSPropertyOp21
 70
     1
102
RTVSPropertyOp22
 70
     1
102
RTVSPropertyOp23
 70
     1
102
RTVSPropertyOp24
 70
     1
102
RTVSPropertyOp25
 70
     1
102
RTVSPropertyOp26
 70
     1
102
RTVSPropertyOp27
 70
     1
102
RTVSPropertyOp28
 70
     1
102
RTVSPropertyOp29
 70
     1
102
RTVSPropertyOp30
 70
     1
102
RTVSPropertyOp31
 70
     1
102
RTVSPropertyOp32
 70
     1
102
RTVSPropertyOp33
 70
     1
102
RTVSPropertyOp34
 70
     1
102
RTVSPropertyOp35
 70
     1
102
RTVSPropertyOp36
 70
     1
102
RTVSPropertyOp37
 70
     1
102
RTVSPropertyOp38
 70
     1
102
RTVSPropertyOp39
 70
     1
102
RTVSPropertyOp40
 70
     1
102
RTVSPropertyOp41
 70
     1
102
RTVSPropertyOp42
 70
     1
102
RTVSPropertyOp43
 70
     1
102
RTVSPropertyOp44
 70
     1
102
RTVSPropertyOp45
 70
     1
102
RTVSPropertyOp46
 70
     1
102
RTVSPropertyOp47
 70
     1
102
RTVSPropertyOp48
 70
     1
102
RTVSPropertyOp49
 70
     1
102
RTVSPropertyOp50
 70
     1
102
RTVSPropertyOp51
 70
     0
102
RTVSPropertyOp52
 70
     0
102
RTVSPropertyOp53
 70
     1
102
RTVSPropertyOp54
 70
     1
102
RTVSPropertyOp55
 70
     1
102
RTVSPropertyOp56
 70
     1
102
RTVSPropertyOp57
 70
     1
102
RTVSPropertyOp58
 70
     1
102
RTVSPropertyOp59
 70
     1
102
RTVSPropertyOp60
 70
     1
102
RTVSPropertyOp61
 70
     1
102
RTVSPropertyOp62
 70
     1
  0
XRECORD
  5
8524
102
{ACAD_REACTORS
330
8523
102
}
330
8523
100
AcDbXrecord
280
     1
102
RTVSPost2010Prop28
280
     0
102
RTVSPost2010PropOp28
 70
     1
102
RTVSPost2010Prop29
280
     1
102
RTVSPost2010PropOp29
 70
     1
102
RTVSPost2010Prop30
280
     1
102
RTVSPost2010PropOp30
 70
     1
102
RTVSPost2010Prop31
280
     0
102
RTVSPost2010PropOp31
 70
     1
102
RTVSPost2010Prop32
280
     0
102
RTVSPost2010PropOp32
 70
     1
102
RTVSPost2010Prop33
280
     0
102
RTVSPost2010PropOp33
 70
     1
102
RTVSPost2010Prop34
280
     0
102
RTVSPost2010PropOp34
 70
     1
102
RTVSPost2010Prop35
280
     0
102
RTVSPost2010PropOp35
 70
     1
102
RTVSPost2010Prop36
280
     0
102
RTVSPost2010PropOp36
 70
     1
102
RTVSPost2010Prop37
 90
       50
102
RTVSPost2010PropOp37
 70
     0
102
RTVSPost2010Prop38
140
0.0
102
RTVSPost2010PropOp38
 70
     0
102
RTVSPost2010Prop39
140
1.0
102
RTVSPost2010PropOp39
 70
     0
102
RTVSPost2010Prop40
 90
        0
102
RTVSPost2010PropOp40
 70
     0
102
RTVSPost2010Prop41ColorIndex
 90
       18
102
RTVSPost2010Prop41ColorRGB
 90
        0
102
RTVSPost2010PropOp41
 70
     0
102
RTVSPost2010Prop42
 90
       50
102
RTVSPost2010PropOp42
 70
     0
102
RTVSPost2010Prop43
 90
        3
102
RTVSPost2010PropOp43
 70
     0
102
RTVSPost2010Prop44ColorIndex
 90
        5
102
RTVSPost2010Prop44ColorRGB
 90
      255
102
RTVSPost2010PropOp44
 70
     0
102
RTVSPost2010Prop45
280
     0
102
RTVSPost2010PropOp45
 70
     1
102
RTVSPost2010Prop46
 90
       50
102
RTVSPost2010PropOp46
 70
     0
102
RTVSPost2010Prop47
 90
       50
102
RTVSPost2010PropOp47
 70
     0
102
RTVSPost2010Prop48
 90
       50
102
RTVSPost2010PropOp48
 70
     0
102
RTVSPost2010Prop49
280
     0
102
RTVSPost2010PropOp49
 70
     1
102
RTVSPost2010Prop50
 90
       50
102
RTVSPost2010PropOp50
 70
     0
102
RTVSPost2010Prop51ColorIndex
 90
      256
102
RTVSPost2010Prop51ColorRGB
 90
-16777216
102
RTVSPost2010PropOp51
 70
     0
102
RTVSPost2010Prop52
140
1.0
102
RTVSPost2010PropOp52
 70
     0
102
RTVSPost2010Prop53
 90
        2
102
RTVSPost2010PropOp53
 70
     0
102
RTVSPost2010Prop54
  1
strokes_ogs.tif
102
RTVSPost2010PropOp54
 70
     0
102
RTVSPost2010Prop55
280
     0
102
RTVSPost2010PropOp55
 70
     1
102
RTVSPost2010Prop56
140
1.0
102
RTVSPost2010PropOp56
 70
     0
102
RTVSPost2010Prop57
140
1.0
102
RTVSPost2010PropOp57
 70
     0
102
RTVSPropertyOp0
 70
     0
102
RTVSPropertyOp1
 70
     0
102
RTVSPropertyOp2
 70
     0
102
RTVSPropertyOp3
 70
     0
102
RTVSPropertyOp4
 70
     0
102
RTVSPropertyOp5
 70
     0
102
RTVSPropertyOp6
 70
     0
102
RTVSPropertyOp7
 70
     0
102
RTVSPropertyOp8
 70
     0
102
RTVSPropertyOp9
 70
     0
102
RTVSPropertyOp10
 70
     0
102
RTVSPropertyOp11
 70
     0
102
RTVSPropertyOp12
 70
     0
102
RTVSPropertyOp13
 70
     0
102
RTVSPropertyOp14
 70
     2
102
RTVSPropertyOp15
 70
     0
102
RTVSPropertyOp16
 70
     0
102
RTVSPropertyOp17
 70
     0
102
RTVSPropertyOp18
 70
     0
102
RTVSPropertyOp19
 70
     0
102
RTVSPropertyOp20
 70
     0
102
RTVSPropertyOp21
 70
     0
102
RTVSPropertyOp22
 70
     0
102
RTVSPropertyOp23
 70
     0
102
RTVSPropertyOp24
 70
     0
102
RTVSPropertyOp25
 70
     0
102
RTVSPropertyOp26
 70
     0
102
RTVSPropertyOp27
 70
     0
102
RTVSPropertyOp28
 70
     1
102
RTVSPropertyOp29
 70
     1
102
RTVSPropertyOp30
 70
     1
102
RTVSPropertyOp31
 70
     1
102
RTVSPropertyOp32
 70
     1
102
RTVSPropertyOp33
 70
     1
102
RTVSPropertyOp34
 70
     1
102
RTVSPropertyOp35
 70
     1
102
RTVSPropertyOp36
 70
     1
102
RTVSPropertyOp37
 70
     0
102
RTVSPropertyOp38
 70
     0
102
RTVSPropertyOp39
 70
     0
102
RTVSPropertyOp40
 70
     0
102
RTVSPropertyOp41
 70
     0
102
RTVSPropertyOp42
 70
     0
102
RTVSPropertyOp43
 70
     0
102
RTVSPropertyOp44
 70
     0
102
RTVSPropertyOp45
 70
     1
102
RTVSPropertyOp46
 70
     0
102
RTVSPropertyOp47
 70
     0
102
RTVSPropertyOp48
 70
     0
102
RTVSPropertyOp49
 70
     1
102
RTVSPropertyOp50
 70
     0
102
RTVSPropertyOp51
 70
     0
102
RTVSPropertyOp52
 70
     0
102
RTVSPropertyOp53
 70
     0
102
RTVSPropertyOp54
 70
     0
102
RTVSPropertyOp55
 70
     1
102
RTVSPropertyOp56
 70
     0
102
RTVSPropertyOp57
 70
     0
102
RTVSPropertyOp58
 70
     0
102
RTVSPropertyOp59
 70
     0
102
RTVSPropertyOp60
 70
     0
102
RTVSPropertyOp61
 70
     0
102
RTVSPropertyOp62
 70
     0
  0
XRECORD
  5
8512
102
{ACAD_REACTORS
330
8511
102
}
330
8511
100
AcDbXrecord
280
     1
102
RTVSPost2010Prop28
280
     0
102
RTVSPost2010PropOp28
 70
     1
102
RTVSPost2010Prop29
280
     1
102
RTVSPost2010PropOp29
 70
     1
102
RTVSPost2010Prop30
280
     1
102
RTVSPost2010PropOp30
 70
     1
102
RTVSPost2010Prop31
280
     0
102
RTVSPost2010PropOp31
 70
     1
102
RTVSPost2010Prop32
280
     0
102
RTVSPost2010PropOp32
 70
     1
102
RTVSPost2010Prop33
280
     0
102
RTVSPost2010PropOp33
 70
     1
102
RTVSPost2010Prop34
280
     0
102
RTVSPost2010PropOp34
 70
     1
102
RTVSPost2010Prop35
280
     0
102
RTVSPost2010PropOp35
 70
     1
102
RTVSPost2010Prop36
280
     0
102
RTVSPost2010PropOp36
 70
     1
102
RTVSPost2010Prop37
 90
       50
102
RTVSPost2010PropOp37
 70
     1
102
RTVSPost2010Prop38
140
0.0
102
RTVSPost2010PropOp38
 70
     1
102
RTVSPost2010Prop39
140
1.0
102
RTVSPost2010PropOp39
 70
     1
102
RTVSPost2010Prop40
 90
        0
102
RTVSPost2010PropOp40
 70
     1
102
RTVSPost2010Prop41ColorIndex
 90
       18
102
RTVSPost2010Prop41ColorRGB
 90
        0
102
RTVSPost2010PropOp41
 70
     1
102
RTVSPost2010Prop42
 90
       50
102
RTVSPost2010PropOp42
 70
     1
102
RTVSPost2010Prop43
 90
        3
102
RTVSPost2010PropOp43
 70
     1
102
RTVSPost2010Prop44ColorIndex
 90
        5
102
RTVSPost2010Prop44ColorRGB
 90
      255
102
RTVSPost2010PropOp44
 70
     1
102
RTVSPost2010Prop45
280
     0
102
RTVSPost2010PropOp45
 70
     1
102
RTVSPost2010Prop46
 90
       50
102
RTVSPost2010PropOp46
 70
     1
102
RTVSPost2010Prop47
 90
       50
102
RTVSPost2010PropOp47
 70
     1
102
RTVSPost2010Prop48
 90
       50
102
RTVSPost2010PropOp48
 70
     1
102
RTVSPost2010Prop49
280
     0
102
RTVSPost2010PropOp49
 70
     1
102
RTVSPost2010Prop50
 90
       50
102
RTVSPost2010PropOp50
 70
     1
102
RTVSPost2010Prop51ColorIndex
 90
      256
102
RTVSPost2010Prop51ColorRGB
 90
-16777216
102
RTVSPost2010PropOp51
 70
     0
102
RTVSPost2010Prop52
140
1.0
102
RTVSPost2010PropOp52
 70
     0
102
RTVSPost2010Prop53
 90
        2
102
RTVSPost2010PropOp53
 70
     1
102
RTVSPost2010Prop54
  1
strokes_ogs.tif
102
RTVSPost2010PropOp54
 70
     1
102
RTVSPost2010Prop55
280
     0
102
RTVSPost2010PropOp55
 70
     1
102
RTVSPost2010Prop56
140
1.0
102
RTVSPost2010PropOp56
 70
     1
102
RTVSPost2010Prop57
140
1.0
102
RTVSPost2010PropOp57
 70
     1
102
RTVSPropertyOp0
 70
     1
102
RTVSPropertyOp1
 70
     1
102
RTVSPropertyOp2
 70
     1
102
RTVSPropertyOp3
 70
     1
102
RTVSPropertyOp4
 70
     1
102
RTVSPropertyOp5
 70
     1
102
RTVSPropertyOp6
 70
     1
102
RTVSPropertyOp7
 70
     1
102
RTVSPropertyOp8
 70
     1
102
RTVSPropertyOp9
 70
     1
102
RTVSPropertyOp10
 70
     1
102
RTVSPropertyOp11
 70
     1
102
RTVSPropertyOp12
 70
     1
102
RTVSPropertyOp13
 70
     1
102
RTVSPropertyOp14
 70
     1
102
RTVSPropertyOp15
 70
     1
102
RTVSPropertyOp16
 70
     1
102
RTVSPropertyOp17
 70
     1
102
RTVSPropertyOp18
 70
     1
102
RTVSPropertyOp19
 70
     1
102
RTVSPropertyOp20
 70
     1
102
RTVSPropertyOp21
 70
     1
102
RTVSPropertyOp22
 70
     1
102
RTVSPropertyOp23
 70
     1
102
RTVSPropertyOp24
 70
     1
102
RTVSPropertyOp25
 70
     1
102
RTVSPropertyOp26
 70
     1
102
RTVSPropertyOp27
 70
     1
102
RTVSPropertyOp28
 70
     1
102
RTVSPropertyOp29
 70
     1
102
RTVSPropertyOp30
 70
     1
102
RTVSPropertyOp31
 70
     1
102
RTVSPropertyOp32
 70
     1
102
RTVSPropertyOp33
 70
     1
102
RTVSPropertyOp34
 70
     1
102
RTVSPropertyOp35
 70
     1
102
RTVSPropertyOp36
 70
     1
102
RTVSPropertyOp37
 70
     1
102
RTVSPropertyOp38
 70
     1
102
RTVSPropertyOp39
 70
     1
102
RTVSPropertyOp40
 70
     1
102
RTVSPropertyOp41
 70
     1
102
RTVSPropertyOp42
 70
     1
102
RTVSPropertyOp43
 70
     1
102
RTVSPropertyOp44
 70
     1
102
RTVSPropertyOp45
 70
     1
102
RTVSPropertyOp46
 70
     1
102
RTVSPropertyOp47
 70
     1
102
RTVSPropertyOp48
 70
     1
102
RTVSPropertyOp49
 70
     1
102
RTVSPropertyOp50
 70
     1
102
RTVSPropertyOp51
 70
     0
102
RTVSPropertyOp52
 70
     0
102
RTVSPropertyOp53
 70
     1
102
RTVSPropertyOp54
 70
     1
102
RTVSPropertyOp55
 70
     1
102
RTVSPropertyOp56
 70
     1
102
RTVSPropertyOp57
 70
     1
102
RTVSPropertyOp58
 70
     1
102
RTVSPropertyOp59
 70
     1
102
RTVSPropertyOp60
 70
     1
102
RTVSPropertyOp61
 70
     1
102
RTVSPropertyOp62
 70
     1
  0
XRECORD
  5
84F6
102
{ACAD_REACTORS
330
84F5
102
}
330
84F5
100
AcDbXrecord
280
     1
102
RTVSPost2010Prop28
280
     0
102
RTVSPost2010PropOp28
 70
     1
102
RTVSPost2010Prop29
280
     1
102
RTVSPost2010PropOp29
 70
     1
102
RTVSPost2010Prop30
280
     1
102
RTVSPost2010PropOp30
 70
     1
102
RTVSPost2010Prop31
280
     0
102
RTVSPost2010PropOp31
 70
     1
102
RTVSPost2010Prop32
280
     0
102
RTVSPost2010PropOp32
 70
     1
102
RTVSPost2010Prop33
280
     0
102
RTVSPost2010PropOp33
 70
     1
102
RTVSPost2010Prop34
280
     0
102
RTVSPost2010PropOp34
 70
     1
102
RTVSPost2010Prop35
280
     0
102
RTVSPost2010PropOp35
 70
     1
102
RTVSPost2010Prop36
280
     0
102
RTVSPost2010PropOp36
 70
     1
102
RTVSPost2010Prop37
 90
       50
102
RTVSPost2010PropOp37
 70
     1
102
RTVSPost2010Prop38
140
0.0
102
RTVSPost2010PropOp38
 70
     1
102
RTVSPost2010Prop39
140
1.0
102
RTVSPost2010PropOp39
 70
     1
102
RTVSPost2010Prop40
 90
        0
102
RTVSPost2010PropOp40
 70
     1
102
RTVSPost2010Prop41ColorIndex
 90
       18
102
RTVSPost2010Prop41ColorRGB
 90
        0
102
RTVSPost2010PropOp41
 70
     1
102
RTVSPost2010Prop42
 90
       50
102
RTVSPost2010PropOp42
 70
     1
102
RTVSPost2010Prop43
 90
        3
102
RTVSPost2010PropOp43
 70
     1
102
RTVSPost2010Prop44ColorIndex
 90
        5
102
RTVSPost2010Prop44ColorRGB
 90
      255
102
RTVSPost2010PropOp44
 70
     1
102
RTVSPost2010Prop45
280
     0
102
RTVSPost2010PropOp45
 70
     1
102
RTVSPost2010Prop46
 90
       50
102
RTVSPost2010PropOp46
 70
     1
102
RTVSPost2010Prop47
 90
       50
102
RTVSPost2010PropOp47
 70
     1
102
RTVSPost2010Prop48
 90
       50
102
RTVSPost2010PropOp48
 70
     1
102
RTVSPost2010Prop49
280
     0
102
RTVSPost2010PropOp49
 70
     1
102
RTVSPost2010Prop50
 90
       50
102
RTVSPost2010PropOp50
 70
     1
102
RTVSPost2010Prop51ColorIndex
 90
      256
102
RTVSPost2010Prop51ColorRGB
 90
-16777216
102
RTVSPost2010PropOp51
 70
     0
102
RTVSPost2010Prop52
140
1.0
102
RTVSPost2010PropOp52
 70
     0
102
RTVSPost2010Prop53
 90
        2
102
RTVSPost2010PropOp53
 70
     1
102
RTVSPost2010Prop54
  1
strokes_ogs.tif
102
RTVSPost2010PropOp54
 70
     1
102
RTVSPost2010Prop55
280
     0
102
RTVSPost2010PropOp55
 70
     1
102
RTVSPost2010Prop56
140
1.0
102
RTVSPost2010PropOp56
 70
     1
102
RTVSPost2010Prop57
140
1.0
102
RTVSPost2010PropOp57
 70
     1
102
RTVSPropertyOp0
 70
     1
102
RTVSPropertyOp1
 70
     1
102
RTVSPropertyOp2
 70
     1
102
RTVSPropertyOp3
 70
     1
102
RTVSPropertyOp4
 70
     1
102
RTVSPropertyOp5
 70
     1
102
RTVSPropertyOp6
 70
     1
102
RTVSPropertyOp7
 70
     1
102
RTVSPropertyOp8
 70
     1
102
RTVSPropertyOp9
 70
     1
102
RTVSPropertyOp10
 70
     1
102
RTVSPropertyOp11
 70
     1
102
RTVSPropertyOp12
 70
     1
102
RTVSPropertyOp13
 70
     1
102
RTVSPropertyOp14
 70
     1
102
RTVSPropertyOp15
 70
     1
102
RTVSPropertyOp16
 70
     1
102
RTVSPropertyOp17
 70
     1
102
RTVSPropertyOp18
 70
     1
102
RTVSPropertyOp19
 70
     1
102
RTVSPropertyOp20
 70
     1
102
RTVSPropertyOp21
 70
     1
102
RTVSPropertyOp22
 70
     1
102
RTVSPropertyOp23
 70
     1
102
RTVSPropertyOp24
 70
     1
102
RTVSPropertyOp25
 70
     1
102
RTVSPropertyOp26
 70
     1
102
RTVSPropertyOp27
 70
     1
102
RTVSPropertyOp28
 70
     1
102
RTVSPropertyOp29
 70
     1
102
RTVSPropertyOp30
 70
     1
102
RTVSPropertyOp31
 70
     1
102
RTVSPropertyOp32
 70
     1
102
RTVSPropertyOp33
 70
     1
102
RTVSPropertyOp34
 70
     1
102
RTVSPropertyOp35
 70
     1
102
RTVSPropertyOp36
 70
     1
102
RTVSPropertyOp37
 70
     1
102
RTVSPropertyOp38
 70
     1
102
RTVSPropertyOp39
 70
     1
102
RTVSPropertyOp40
 70
     1
102
RTVSPropertyOp41
 70
     1
102
RTVSPropertyOp42
 70
     1
102
RTVSPropertyOp43
 70
     1
102
RTVSPropertyOp44
 70
     1
102
RTVSPropertyOp45
 70
     1
102
RTVSPropertyOp46
 70
     1
102
RTVSPropertyOp47
 70
     1
102
RTVSPropertyOp48
 70
     1
102
RTVSPropertyOp49
 70
     1
102
RTVSPropertyOp50
 70
     1
102
RTVSPropertyOp51
 70
     0
102
RTVSPropertyOp52
 70
     0
102
RTVSPropertyOp53
 70
     1
102
RTVSPropertyOp54
 70
     1
102
RTVSPropertyOp55
 70
     1
102
RTVSPropertyOp56
 70
     1
102
RTVSPropertyOp57
 70
     1
102
RTVSPropertyOp58
 70
     1
102
RTVSPropertyOp59
 70
     1
102
RTVSPropertyOp60
 70
     1
102
RTVSPropertyOp61
 70
     1
102
RTVSPropertyOp62
 70
     1
  0
XRECORD
  5
84F8
102
{ACAD_REACTORS
330
84F7
102
}
330
84F7
100
AcDbXrecord
280
     1
102
RTVSPost2010Prop28
280
     0
102
RTVSPost2010PropOp28
 70
     1
102
RTVSPost2010Prop29
280
     1
102
RTVSPost2010PropOp29
 70
     1
102
RTVSPost2010Prop30
280
     1
102
RTVSPost2010PropOp30
 70
     1
102
RTVSPost2010Prop31
280
     0
102
RTVSPost2010PropOp31
 70
     1
102
RTVSPost2010Prop32
280
     0
102
RTVSPost2010PropOp32
 70
     1
102
RTVSPost2010Prop33
280
     0
102
RTVSPost2010PropOp33
 70
     1
102
RTVSPost2010Prop34
280
     0
102
RTVSPost2010PropOp34
 70
     1
102
RTVSPost2010Prop35
280
     0
102
RTVSPost2010PropOp35
 70
     1
102
RTVSPost2010Prop36
280
     0
102
RTVSPost2010PropOp36
 70
     1
102
RTVSPost2010Prop37
 90
       50
102
RTVSPost2010PropOp37
 70
     1
102
RTVSPost2010Prop38
140
0.0
102
RTVSPost2010PropOp38
 70
     1
102
RTVSPost2010Prop39
140
1.0
102
RTVSPost2010PropOp39
 70
     1
102
RTVSPost2010Prop40
 90
        0
102
RTVSPost2010PropOp40
 70
     1
102
RTVSPost2010Prop41ColorIndex
 90
       18
102
RTVSPost2010Prop41ColorRGB
 90
        0
102
RTVSPost2010PropOp41
 70
     1
102
RTVSPost2010Prop42
 90
       50
102
RTVSPost2010PropOp42
 70
     1
102
RTVSPost2010Prop43
 90
        3
102
RTVSPost2010PropOp43
 70
     1
102
RTVSPost2010Prop44ColorIndex
 90
        5
102
RTVSPost2010Prop44ColorRGB
 90
      255
102
RTVSPost2010PropOp44
 70
     1
102
RTVSPost2010Prop45
280
     0
102
RTVSPost2010PropOp45
 70
     1
102
RTVSPost2010Prop46
 90
       50
102
RTVSPost2010PropOp46
 70
     1
102
RTVSPost2010Prop47
 90
       50
102
RTVSPost2010PropOp47
 70
     1
102
RTVSPost2010Prop48
 90
       50
102
RTVSPost2010PropOp48
 70
     1
102
RTVSPost2010Prop49
280
     0
102
RTVSPost2010PropOp49
 70
     1
102
RTVSPost2010Prop50
 90
       50
102
RTVSPost2010PropOp50
 70
     1
102
RTVSPost2010Prop51ColorIndex
 90
      256
102
RTVSPost2010Prop51ColorRGB
 90
-16777216
102
RTVSPost2010PropOp51
 70
     0
102
RTVSPost2010Prop52
140
1.0
102
RTVSPost2010PropOp52
 70
     0
102
RTVSPost2010Prop53
 90
        2
102
RTVSPost2010PropOp53
 70
     1
102
RTVSPost2010Prop54
  1
strokes_ogs.tif
102
RTVSPost2010PropOp54
 70
     1
102
RTVSPost2010Prop55
280
     0
102
RTVSPost2010PropOp55
 70
     1
102
RTVSPost2010Prop56
140
1.0
102
RTVSPost2010PropOp56
 70
     1
102
RTVSPost2010Prop57
140
1.0
102
RTVSPost2010PropOp57
 70
     1
102
RTVSPropertyOp0
 70
     1
102
RTVSPropertyOp1
 70
     1
102
RTVSPropertyOp2
 70
     1
102
RTVSPropertyOp3
 70
     1
102
RTVSPropertyOp4
 70
     1
102
RTVSPropertyOp5
 70
     1
102
RTVSPropertyOp6
 70
     1
102
RTVSPropertyOp7
 70
     1
102
RTVSPropertyOp8
 70
     1
102
RTVSPropertyOp9
 70
     1
102
RTVSPropertyOp10
 70
     1
102
RTVSPropertyOp11
 70
     1
102
RTVSPropertyOp12
 70
     1
102
RTVSPropertyOp13
 70
     1
102
RTVSPropertyOp14
 70
     1
102
RTVSPropertyOp15
 70
     1
102
RTVSPropertyOp16
 70
     1
102
RTVSPropertyOp17
 70
     1
102
RTVSPropertyOp18
 70
     1
102
RTVSPropertyOp19
 70
     1
102
RTVSPropertyOp20
 70
     1
102
RTVSPropertyOp21
 70
     1
102
RTVSPropertyOp22
 70
     1
102
RTVSPropertyOp23
 70
     1
102
RTVSPropertyOp24
 70
     1
102
RTVSPropertyOp25
 70
     1
102
RTVSPropertyOp26
 70
     1
102
RTVSPropertyOp27
 70
     1
102
RTVSPropertyOp28
 70
     1
102
RTVSPropertyOp29
 70
     1
102
RTVSPropertyOp30
 70
     1
102
RTVSPropertyOp31
 70
     1
102
RTVSPropertyOp32
 70
     1
102
RTVSPropertyOp33
 70
     1
102
RTVSPropertyOp34
 70
     1
102
RTVSPropertyOp35
 70
     1
102
RTVSPropertyOp36
 70
     1
102
RTVSPropertyOp37
 70
     1
102
RTVSPropertyOp38
 70
     1
102
RTVSPropertyOp39
 70
     1
102
RTVSPropertyOp40
 70
     1
102
RTVSPropertyOp41
 70
     1
102
RTVSPropertyOp42
 70
     1
102
RTVSPropertyOp43
 70
     1
102
RTVSPropertyOp44
 70
     1
102
RTVSPropertyOp45
 70
     1
102
RTVSPropertyOp46
 70
     1
102
RTVSPropertyOp47
 70
     1
102
RTVSPropertyOp48
 70
     1
102
RTVSPropertyOp49
 70
     1
102
RTVSPropertyOp50
 70
     1
102
RTVSPropertyOp51
 70
     0
102
RTVSPropertyOp52
 70
     0
102
RTVSPropertyOp53
 70
     1
102
RTVSPropertyOp54
 70
     1
102
RTVSPropertyOp55
 70
     1
102
RTVSPropertyOp56
 70
     1
102
RTVSPropertyOp57
 70
     1
102
RTVSPropertyOp58
 70
     1
102
RTVSPropertyOp59
 70
     1
102
RTVSPropertyOp60
 70
     1
102
RTVSPropertyOp61
 70
     1
102
RTVSPropertyOp62
 70
     1
  0
XRECORD
  5
84FA
102
{ACAD_REACTORS
330
84F9
102
}
330
84F9
100
AcDbXrecord
280
     1
102
RTVSPost2010Prop28
280
     0
102
RTVSPost2010PropOp28
 70
     1
102
RTVSPost2010Prop29
280
     1
102
RTVSPost2010PropOp29
 70
     1
102
RTVSPost2010Prop30
280
     1
102
RTVSPost2010PropOp30
 70
     1
102
RTVSPost2010Prop31
280
     0
102
RTVSPost2010PropOp31
 70
     1
102
RTVSPost2010Prop32
280
     0
102
RTVSPost2010PropOp32
 70
     1
102
RTVSPost2010Prop33
280
     0
102
RTVSPost2010PropOp33
 70
     1
102
RTVSPost2010Prop34
280
     0
102
RTVSPost2010PropOp34
 70
     1
102
RTVSPost2010Prop35
280
     0
102
RTVSPost2010PropOp35
 70
     1
102
RTVSPost2010Prop36
280
     0
102
RTVSPost2010PropOp36
 70
     1
102
RTVSPost2010Prop37
 90
       50
102
RTVSPost2010PropOp37
 70
     1
102
RTVSPost2010Prop38
140
0.0
102
RTVSPost2010PropOp38
 70
     1
102
RTVSPost2010Prop39
140
1.0
102
RTVSPost2010PropOp39
 70
     1
102
RTVSPost2010Prop40
 90
        0
102
RTVSPost2010PropOp40
 70
     1
102
RTVSPost2010Prop41ColorIndex
 90
       18
102
RTVSPost2010Prop41ColorRGB
 90
        0
102
RTVSPost2010PropOp41
 70
     1
102
RTVSPost2010Prop42
 90
       50
102
RTVSPost2010PropOp42
 70
     1
102
RTVSPost2010Prop43
 90
        3
102
RTVSPost2010PropOp43
 70
     1
102
RTVSPost2010Prop44ColorIndex
 90
        5
102
RTVSPost2010Prop44ColorRGB
 90
      255
102
RTVSPost2010PropOp44
 70
     1
102
RTVSPost2010Prop45
280
     0
102
RTVSPost2010PropOp45
 70
     1
102
RTVSPost2010Prop46
 90
       50
102
RTVSPost2010PropOp46
 70
     1
102
RTVSPost2010Prop47
 90
       50
102
RTVSPost2010PropOp47
 70
     1
102
RTVSPost2010Prop48
 90
       50
102
RTVSPost2010PropOp48
 70
     1
102
RTVSPost2010Prop49
280
     0
102
RTVSPost2010PropOp49
 70
     1
102
RTVSPost2010Prop50
 90
       50
102
RTVSPost2010PropOp50
 70
     1
102
RTVSPost2010Prop51ColorIndex
 90
      256
102
RTVSPost2010Prop51ColorRGB
 90
-16777216
102
RTVSPost2010PropOp51
 70
     0
102
RTVSPost2010Prop52
140
1.0
102
RTVSPost2010PropOp52
 70
     0
102
RTVSPost2010Prop53
 90
        2
102
RTVSPost2010PropOp53
 70
     1
102
RTVSPost2010Prop54
  1
strokes_ogs.tif
102
RTVSPost2010PropOp54
 70
     1
102
RTVSPost2010Prop55
280
     0
102
RTVSPost2010PropOp55
 70
     1
102
RTVSPost2010Prop56
140
1.0
102
RTVSPost2010PropOp56
 70
     1
102
RTVSPost2010Prop57
140
1.0
102
RTVSPost2010PropOp57
 70
     1
102
RTVSPropertyOp0
 70
     1
102
RTVSPropertyOp1
 70
     1
102
RTVSPropertyOp2
 70
     1
102
RTVSPropertyOp3
 70
     1
102
RTVSPropertyOp4
 70
     1
102
RTVSPropertyOp5
 70
     1
102
RTVSPropertyOp6
 70
     1
102
RTVSPropertyOp7
 70
     1
102
RTVSPropertyOp8
 70
     1
102
RTVSPropertyOp9
 70
     1
102
RTVSPropertyOp10
 70
     1
102
RTVSPropertyOp11
 70
     1
102
RTVSPropertyOp12
 70
     1
102
RTVSPropertyOp13
 70
     1
102
RTVSPropertyOp14
 70
     1
102
RTVSPropertyOp15
 70
     1
102
RTVSPropertyOp16
 70
     1
102
RTVSPropertyOp17
 70
     1
102
RTVSPropertyOp18
 70
     1
102
RTVSPropertyOp19
 70
     1
102
RTVSPropertyOp20
 70
     1
102
RTVSPropertyOp21
 70
     1
102
RTVSPropertyOp22
 70
     1
102
RTVSPropertyOp23
 70
     1
102
RTVSPropertyOp24
 70
     1
102
RTVSPropertyOp25
 70
     1
102
RTVSPropertyOp26
 70
     1
102
RTVSPropertyOp27
 70
     1
102
RTVSPropertyOp28
 70
     1
102
RTVSPropertyOp29
 70
     1
102
RTVSPropertyOp30
 70
     1
102
RTVSPropertyOp31
 70
     1
102
RTVSPropertyOp32
 70
     1
102
RTVSPropertyOp33
 70
     1
102
RTVSPropertyOp34
 70
     1
102
RTVSPropertyOp35
 70
     1
102
RTVSPropertyOp36
 70
     1
102
RTVSPropertyOp37
 70
     1
102
RTVSPropertyOp38
 70
     1
102
RTVSPropertyOp39
 70
     1
102
RTVSPropertyOp40
 70
     1
102
RTVSPropertyOp41
 70
     1
102
RTVSPropertyOp42
 70
     1
102
RTVSPropertyOp43
 70
     1
102
RTVSPropertyOp44
 70
     1
102
RTVSPropertyOp45
 70
     1
102
RTVSPropertyOp46
 70
     1
102
RTVSPropertyOp47
 70
     1
102
RTVSPropertyOp48
 70
     1
102
RTVSPropertyOp49
 70
     1
102
RTVSPropertyOp50
 70
     1
102
RTVSPropertyOp51
 70
     0
102
RTVSPropertyOp52
 70
     0
102
RTVSPropertyOp53
 70
     1
102
RTVSPropertyOp54
 70
     1
102
RTVSPropertyOp55
 70
     1
102
RTVSPropertyOp56
 70
     1
102
RTVSPropertyOp57
 70
     1
102
RTVSPropertyOp58
 70
     1
102
RTVSPropertyOp59
 70
     1
102
RTVSPropertyOp60
 70
     1
102
RTVSPropertyOp61
 70
     1
102
RTVSPropertyOp62
 70
     1
  0
XRECORD
  5
84FC
102
{ACAD_REACTORS
330
84FB
102
}
330
84FB
100
AcDbXrecord
280
     1
102
RTVSPost2010Prop28
280
     0
102
RTVSPost2010PropOp28
 70
     1
102
RTVSPost2010Prop29
280
     1
102
RTVSPost2010PropOp29
 70
     1
102
RTVSPost2010Prop30
280
     1
102
RTVSPost2010PropOp30
 70
     1
102
RTVSPost2010Prop31
280
     0
102
RTVSPost2010PropOp31
 70
     1
102
RTVSPost2010Prop32
280
     0
102
RTVSPost2010PropOp32
 70
     1
102
RTVSPost2010Prop33
280
     0
102
RTVSPost2010PropOp33
 70
     1
102
RTVSPost2010Prop34
280
     0
102
RTVSPost2010PropOp34
 70
     1
102
RTVSPost2010Prop35
280
     0
102
RTVSPost2010PropOp35
 70
     1
102
RTVSPost2010Prop36
280
     0
102
RTVSPost2010PropOp36
 70
     1
102
RTVSPost2010Prop37
 90
       50
102
RTVSPost2010PropOp37
 70
     1
102
RTVSPost2010Prop38
140
0.0
102
RTVSPost2010PropOp38
 70
     1
102
RTVSPost2010Prop39
140
1.0
102
RTVSPost2010PropOp39
 70
     1
102
RTVSPost2010Prop40
 90
        0
102
RTVSPost2010PropOp40
 70
     1
102
RTVSPost2010Prop41ColorIndex
 90
       18
102
RTVSPost2010Prop41ColorRGB
 90
        0
102
RTVSPost2010PropOp41
 70
     1
102
RTVSPost2010Prop42
 90
       50
102
RTVSPost2010PropOp42
 70
     1
102
RTVSPost2010Prop43
 90
        3
102
RTVSPost2010PropOp43
 70
     1
102
RTVSPost2010Prop44ColorIndex
 90
        5
102
RTVSPost2010Prop44ColorRGB
 90
      255
102
RTVSPost2010PropOp44
 70
     1
102
RTVSPost2010Prop45
280
     0
102
RTVSPost2010PropOp45
 70
     1
102
RTVSPost2010Prop46
 90
       50
102
RTVSPost2010PropOp46
 70
     1
102
RTVSPost2010Prop47
 90
       50
102
RTVSPost2010PropOp47
 70
     1
102
RTVSPost2010Prop48
 90
       50
102
RTVSPost2010PropOp48
 70
     1
102
RTVSPost2010Prop49
280
     0
102
RTVSPost2010PropOp49
 70
     1
102
RTVSPost2010Prop50
 90
       50
102
RTVSPost2010PropOp50
 70
     1
102
RTVSPost2010Prop51ColorIndex
 90
      256
102
RTVSPost2010Prop51ColorRGB
 90
-16777216
102
RTVSPost2010PropOp51
 70
     0
102
RTVSPost2010Prop52
140
1.0
102
RTVSPost2010PropOp52
 70
     0
102
RTVSPost2010Prop53
 90
        2
102
RTVSPost2010PropOp53
 70
     1
102
RTVSPost2010Prop54
  1
strokes_ogs.tif
102
RTVSPost2010PropOp54
 70
     1
102
RTVSPost2010Prop55
280
     0
102
RTVSPost2010PropOp55
 70
     1
102
RTVSPost2010Prop56
140
1.0
102
RTVSPost2010PropOp56
 70
     1
102
RTVSPost2010Prop57
140
1.0
102
RTVSPost2010PropOp57
 70
     1
102
RTVSPropertyOp0
 70
     1
102
RTVSPropertyOp1
 70
     1
102
RTVSPropertyOp2
 70
     1
102
RTVSPropertyOp3
 70
     1
102
RTVSPropertyOp4
 70
     1
102
RTVSPropertyOp5
 70
     1
102
RTVSPropertyOp6
 70
     1
102
RTVSPropertyOp7
 70
     1
102
RTVSPropertyOp8
 70
     1
102
RTVSPropertyOp9
 70
     1
102
RTVSPropertyOp10
 70
     1
102
RTVSPropertyOp11
 70
     1
102
RTVSPropertyOp12
 70
     1
102
RTVSPropertyOp13
 70
     1
102
RTVSPropertyOp14
 70
     1
102
RTVSPropertyOp15
 70
     1
102
RTVSPropertyOp16
 70
     1
102
RTVSPropertyOp17
 70
     1
102
RTVSPropertyOp18
 70
     1
102
RTVSPropertyOp19
 70
     1
102
RTVSPropertyOp20
 70
     1
102
RTVSPropertyOp21
 70
     1
102
RTVSPropertyOp22
 70
     1
102
RTVSPropertyOp23
 70
     1
102
RTVSPropertyOp24
 70
     1
102
RTVSPropertyOp25
 70
     1
102
RTVSPropertyOp26
 70
     1
102
RTVSPropertyOp27
 70
     1
102
RTVSPropertyOp28
 70
     1
102
RTVSPropertyOp29
 70
     1
102
RTVSPropertyOp30
 70
     1
102
RTVSPropertyOp31
 70
     1
102
RTVSPropertyOp32
 70
     1
102
RTVSPropertyOp33
 70
     1
102
RTVSPropertyOp34
 70
     1
102
RTVSPropertyOp35
 70
     1
102
RTVSPropertyOp36
 70
     1
102
RTVSPropertyOp37
 70
     1
102
RTVSPropertyOp38
 70
     1
102
RTVSPropertyOp39
 70
     1
102
RTVSPropertyOp40
 70
     1
102
RTVSPropertyOp41
 70
     1
102
RTVSPropertyOp42
 70
     1
102
RTVSPropertyOp43
 70
     1
102
RTVSPropertyOp44
 70
     1
102
RTVSPropertyOp45
 70
     1
102
RTVSPropertyOp46
 70
     1
102
RTVSPropertyOp47
 70
     1
102
RTVSPropertyOp48
 70
     1
102
RTVSPropertyOp49
 70
     1
102
RTVSPropertyOp50
 70
     1
102
RTVSPropertyOp51
 70
     0
102
RTVSPropertyOp52
 70
     0
102
RTVSPropertyOp53
 70
     1
102
RTVSPropertyOp54
 70
     1
102
RTVSPropertyOp55
 70
     1
102
RTVSPropertyOp56
 70
     1
102
RTVSPropertyOp57
 70
     1
102
RTVSPropertyOp58
 70
     1
102
RTVSPropertyOp59
 70
     1
102
RTVSPropertyOp60
 70
     1
102
RTVSPropertyOp61
 70
     1
102
RTVSPropertyOp62
 70
     1
  0
XRECORD
  5
8504
102
{ACAD_REACTORS
330
8503
102
}
330
8503
100
AcDbXrecord
280
     1
102
RTVSPost2010Prop28
280
     0
102
RTVSPost2010PropOp28
 70
     1
102
RTVSPost2010Prop29
280
     1
102
RTVSPost2010PropOp29
 70
     1
102
RTVSPost2010Prop30
280
     1
102
RTVSPost2010PropOp30
 70
     1
102
RTVSPost2010Prop31
280
     0
102
RTVSPost2010PropOp31
 70
     1
102
RTVSPost2010Prop32
280
     0
102
RTVSPost2010PropOp32
 70
     1
102
RTVSPost2010Prop33
280
     0
102
RTVSPost2010PropOp33
 70
     1
102
RTVSPost2010Prop34
280
     0
102
RTVSPost2010PropOp34
 70
     1
102
RTVSPost2010Prop35
280
     0
102
RTVSPost2010PropOp35
 70
     1
102
RTVSPost2010Prop36
280
     0
102
RTVSPost2010PropOp36
 70
     1
102
RTVSPost2010Prop37
 90
       50
102
RTVSPost2010PropOp37
 70
     1
102
RTVSPost2010Prop38
140
0.0
102
RTVSPost2010PropOp38
 70
     1
102
RTVSPost2010Prop39
140
1.0
102
RTVSPost2010PropOp39
 70
     1
102
RTVSPost2010Prop40
 90
        0
102
RTVSPost2010PropOp40
 70
     1
102
RTVSPost2010Prop41ColorIndex
 90
       18
102
RTVSPost2010Prop41ColorRGB
 90
        0
102
RTVSPost2010PropOp41
 70
     1
102
RTVSPost2010Prop42
 90
       50
102
RTVSPost2010PropOp42
 70
     1
102
RTVSPost2010Prop43
 90
        3
102
RTVSPost2010PropOp43
 70
     1
102
RTVSPost2010Prop44ColorIndex
 90
        5
102
RTVSPost2010Prop44ColorRGB
 90
      255
102
RTVSPost2010PropOp44
 70
     1
102
RTVSPost2010Prop45
280
     0
102
RTVSPost2010PropOp45
 70
     1
102
RTVSPost2010Prop46
 90
       50
102
RTVSPost2010PropOp46
 70
     1
102
RTVSPost2010Prop47
 90
       50
102
RTVSPost2010PropOp47
 70
     1
102
RTVSPost2010Prop48
 90
       50
102
RTVSPost2010PropOp48
 70
     1
102
RTVSPost2010Prop49
280
     0
102
RTVSPost2010PropOp49
 70
     1
102
RTVSPost2010Prop50
 90
       50
102
RTVSPost2010PropOp50
 70
     1
102
RTVSPost2010Prop51ColorIndex
 90
      256
102
RTVSPost2010Prop51ColorRGB
 90
-16777216
102
RTVSPost2010PropOp51
 70
     0
102
RTVSPost2010Prop52
140
1.0
102
RTVSPost2010PropOp52
 70
     0
102
RTVSPost2010Prop53
 90
        2
102
RTVSPost2010PropOp53
 70
     1
102
RTVSPost2010Prop54
  1
strokes_ogs.tif
102
RTVSPost2010PropOp54
 70
     1
102
RTVSPost2010Prop55
280
     0
102
RTVSPost2010PropOp55
 70
     1
102
RTVSPost2010Prop56
140
1.0
102
RTVSPost2010PropOp56
 70
     1
102
RTVSPost2010Prop57
140
1.0
102
RTVSPost2010PropOp57
 70
     1
102
RTVSPropertyOp0
 70
     1
102
RTVSPropertyOp1
 70
     1
102
RTVSPropertyOp2
 70
     1
102
RTVSPropertyOp3
 70
     1
102
RTVSPropertyOp4
 70
     1
102
RTVSPropertyOp5
 70
     1
102
RTVSPropertyOp6
 70
     1
102
RTVSPropertyOp7
 70
     1
102
RTVSPropertyOp8
 70
     1
102
RTVSPropertyOp9
 70
     1
102
RTVSPropertyOp10
 70
     1
102
RTVSPropertyOp11
 70
     1
102
RTVSPropertyOp12
 70
     1
102
RTVSPropertyOp13
 70
     1
102
RTVSPropertyOp14
 70
     1
102
RTVSPropertyOp15
 70
     1
102
RTVSPropertyOp16
 70
     1
102
RTVSPropertyOp17
 70
     1
102
RTVSPropertyOp18
 70
     1
102
RTVSPropertyOp19
 70
     1
102
RTVSPropertyOp20
 70
     1
102
RTVSPropertyOp21
 70
     1
102
RTVSPropertyOp22
 70
     1
102
RTVSPropertyOp23
 70
     1
102
RTVSPropertyOp24
 70
     1
102
RTVSPropertyOp25
 70
     1
102
RTVSPropertyOp26
 70
     1
102
RTVSPropertyOp27
 70
     1
102
RTVSPropertyOp28
 70
     1
102
RTVSPropertyOp29
 70
     1
102
RTVSPropertyOp30
 70
     1
102
RTVSPropertyOp31
 70
     1
102
RTVSPropertyOp32
 70
     1
102
RTVSPropertyOp33
 70
     1
102
RTVSPropertyOp34
 70
     1
102
RTVSPropertyOp35
 70
     1
102
RTVSPropertyOp36
 70
     1
102
RTVSPropertyOp37
 70
     1
102
RTVSPropertyOp38
 70
     1
102
RTVSPropertyOp39
 70
     1
102
RTVSPropertyOp40
 70
     1
102
RTVSPropertyOp41
 70
     1
102
RTVSPropertyOp42
 70
     1
102
RTVSPropertyOp43
 70
     1
102
RTVSPropertyOp44
 70
     1
102
RTVSPropertyOp45
 70
     1
102
RTVSPropertyOp46
 70
     1
102
RTVSPropertyOp47
 70
     1
102
RTVSPropertyOp48
 70
     1
102
RTVSPropertyOp49
 70
     1
102
RTVSPropertyOp50
 70
     1
102
RTVSPropertyOp51
 70
     0
102
RTVSPropertyOp52
 70
     0
102
RTVSPropertyOp53
 70
     1
102
RTVSPropertyOp54
 70
     1
102
RTVSPropertyOp55
 70
     1
102
RTVSPropertyOp56
 70
     1
102
RTVSPropertyOp57
 70
     1
102
RTVSPropertyOp58
 70
     1
102
RTVSPropertyOp59
 70
     1
102
RTVSPropertyOp60
 70
     1
102
RTVSPropertyOp61
 70
     1
102
RTVSPropertyOp62
 70
     1
  0
XRECORD
  5
8520
102
{ACAD_REACTORS
330
851F
102
}
330
851F
100
AcDbXrecord
280
     1
102
RTVSPost2010Prop28
280
     0
102
RTVSPost2010PropOp28
 70
     1
102
RTVSPost2010Prop29
280
     1
102
RTVSPost2010PropOp29
 70
     1
102
RTVSPost2010Prop30
280
     1
102
RTVSPost2010PropOp30
 70
     1
102
RTVSPost2010Prop31
280
     0
102
RTVSPost2010PropOp31
 70
     1
102
RTVSPost2010Prop32
280
     0
102
RTVSPost2010PropOp32
 70
     1
102
RTVSPost2010Prop33
280
     0
102
RTVSPost2010PropOp33
 70
     1
102
RTVSPost2010Prop34
280
     0
102
RTVSPost2010PropOp34
 70
     1
102
RTVSPost2010Prop35
280
     0
102
RTVSPost2010PropOp35
 70
     1
102
RTVSPost2010Prop36
280
     0
102
RTVSPost2010PropOp36
 70
     1
102
RTVSPost2010Prop37
 90
       50
102
RTVSPost2010PropOp37
 70
     0
102
RTVSPost2010Prop38
140
0.0
102
RTVSPost2010PropOp38
 70
     0
102
RTVSPost2010Prop39
140
1.0
102
RTVSPost2010PropOp39
 70
     0
102
RTVSPost2010Prop40
 90
        0
102
RTVSPost2010PropOp40
 70
     0
102
RTVSPost2010Prop41ColorIndex
 90
       18
102
RTVSPost2010Prop41ColorRGB
 90
        0
102
RTVSPost2010PropOp41
 70
     0
102
RTVSPost2010Prop42
 90
       50
102
RTVSPost2010PropOp42
 70
     0
102
RTVSPost2010Prop43
 90
        3
102
RTVSPost2010PropOp43
 70
     0
102
RTVSPost2010Prop44ColorIndex
 90
        5
102
RTVSPost2010Prop44ColorRGB
 90
      255
102
RTVSPost2010PropOp44
 70
     0
102
RTVSPost2010Prop45
280
     0
102
RTVSPost2010PropOp45
 70
     1
102
RTVSPost2010Prop46
 90
       50
102
RTVSPost2010PropOp46
 70
     0
102
RTVSPost2010Prop47
 90
       50
102
RTVSPost2010PropOp47
 70
     0
102
RTVSPost2010Prop48
 90
       50
102
RTVSPost2010PropOp48
 70
     0
102
RTVSPost2010Prop49
280
     0
102
RTVSPost2010PropOp49
 70
     1
102
RTVSPost2010Prop50
 90
       50
102
RTVSPost2010PropOp50
 70
     0
102
RTVSPost2010Prop51ColorIndex
 90
      256
102
RTVSPost2010Prop51ColorRGB
 90
-16777216
102
RTVSPost2010PropOp51
 70
     0
102
RTVSPost2010Prop52
140
1.0
102
RTVSPost2010PropOp52
 70
     0
102
RTVSPost2010Prop53
 90
        2
102
RTVSPost2010PropOp53
 70
     0
102
RTVSPost2010Prop54
  1
strokes_ogs.tif
102
RTVSPost2010PropOp54
 70
     0
102
RTVSPost2010Prop55
280
     0
102
RTVSPost2010PropOp55
 70
     1
102
RTVSPost2010Prop56
140
1.0
102
RTVSPost2010PropOp56
 70
     0
102
RTVSPost2010Prop57
140
1.0
102
RTVSPost2010PropOp57
 70
     0
102
RTVSPropertyOp0
 70
     0
102
RTVSPropertyOp1
 70
     0
102
RTVSPropertyOp2
 70
     0
102
RTVSPropertyOp3
 70
     0
102
RTVSPropertyOp4
 70
     0
102
RTVSPropertyOp5
 70
     0
102
RTVSPropertyOp6
 70
     0
102
RTVSPropertyOp7
 70
     0
102
RTVSPropertyOp8
 70
     0
102
RTVSPropertyOp9
 70
     0
102
RTVSPropertyOp10
 70
     0
102
RTVSPropertyOp11
 70
     0
102
RTVSPropertyOp12
 70
     0
102
RTVSPropertyOp13
 70
     0
102
RTVSPropertyOp14
 70
     2
102
RTVSPropertyOp15
 70
     0
102
RTVSPropertyOp16
 70
     0
102
RTVSPropertyOp17
 70
     0
102
RTVSPropertyOp18
 70
     0
102
RTVSPropertyOp19
 70
     0
102
RTVSPropertyOp20
 70
     0
102
RTVSPropertyOp21
 70
     0
102
RTVSPropertyOp22
 70
     0
102
RTVSPropertyOp23
 70
     0
102
RTVSPropertyOp24
 70
     0
102
RTVSPropertyOp25
 70
     0
102
RTVSPropertyOp26
 70
     0
102
RTVSPropertyOp27
 70
     0
102
RTVSPropertyOp28
 70
     1
102
RTVSPropertyOp29
 70
     1
102
RTVSPropertyOp30
 70
     1
102
RTVSPropertyOp31
 70
     1
102
RTVSPropertyOp32
 70
     1
102
RTVSPropertyOp33
 70
     1
102
RTVSPropertyOp34
 70
     1
102
RTVSPropertyOp35
 70
     1
102
RTVSPropertyOp36
 70
     1
102
RTVSPropertyOp37
 70
     0
102
RTVSPropertyOp38
 70
     0
102
RTVSPropertyOp39
 70
     0
102
RTVSPropertyOp40
 70
     0
102
RTVSPropertyOp41
 70
     0
102
RTVSPropertyOp42
 70
     0
102
RTVSPropertyOp43
 70
     0
102
RTVSPropertyOp44
 70
     0
102
RTVSPropertyOp45
 70
     1
102
RTVSPropertyOp46
 70
     0
102
RTVSPropertyOp47
 70
     0
102
RTVSPropertyOp48
 70
     0
102
RTVSPropertyOp49
 70
     1
102
RTVSPropertyOp50
 70
     0
102
RTVSPropertyOp51
 70
     0
102
RTVSPropertyOp52
 70
     0
102
RTVSPropertyOp53
 70
     0
102
RTVSPropertyOp54
 70
     0
102
RTVSPropertyOp55
 70
     1
102
RTVSPropertyOp56
 70
     0
102
RTVSPropertyOp57
 70
     0
102
RTVSPropertyOp58
 70
     0
102
RTVSPropertyOp59
 70
     0
102
RTVSPropertyOp60
 70
     0
102
RTVSPropertyOp61
 70
     0
102
RTVSPropertyOp62
 70
     0
  0
XRECORD
  5
8510
102
{ACAD_REACTORS
330
850F
102
}
330
850F
100
AcDbXrecord
280
     1
102
RTVSPost2010Prop28
280
     0
102
RTVSPost2010PropOp28
 70
     1
102
RTVSPost2010Prop29
280
     1
102
RTVSPost2010PropOp29
 70
     1
102
RTVSPost2010Prop30
280
     1
102
RTVSPost2010PropOp30
 70
     1
102
RTVSPost2010Prop31
280
     0
102
RTVSPost2010PropOp31
 70
     1
102
RTVSPost2010Prop32
280
     0
102
RTVSPost2010PropOp32
 70
     1
102
RTVSPost2010Prop33
280
     0
102
RTVSPost2010PropOp33
 70
     1
102
RTVSPost2010Prop34
280
     0
102
RTVSPost2010PropOp34
 70
     1
102
RTVSPost2010Prop35
280
     0
102
RTVSPost2010PropOp35
 70
     1
102
RTVSPost2010Prop36
280
     0
102
RTVSPost2010PropOp36
 70
     1
102
RTVSPost2010Prop37
 90
       50
102
RTVSPost2010PropOp37
 70
     1
102
RTVSPost2010Prop38
140
0.0
102
RTVSPost2010PropOp38
 70
     1
102
RTVSPost2010Prop39
140
1.0
102
RTVSPost2010PropOp39
 70
     1
102
RTVSPost2010Prop40
 90
        0
102
RTVSPost2010PropOp40
 70
     1
102
RTVSPost2010Prop41ColorIndex
 90
       18
102
RTVSPost2010Prop41ColorRGB
 90
        0
102
RTVSPost2010PropOp41
 70
     1
102
RTVSPost2010Prop42
 90
       50
102
RTVSPost2010PropOp42
 70
     1
102
RTVSPost2010Prop43
 90
        3
102
RTVSPost2010PropOp43
 70
     1
102
RTVSPost2010Prop44ColorIndex
 90
        5
102
RTVSPost2010Prop44ColorRGB
 90
      255
102
RTVSPost2010PropOp44
 70
     1
102
RTVSPost2010Prop45
280
     0
102
RTVSPost2010PropOp45
 70
     1
102
RTVSPost2010Prop46
 90
       50
102
RTVSPost2010PropOp46
 70
     1
102
RTVSPost2010Prop47
 90
       50
102
RTVSPost2010PropOp47
 70
     1
102
RTVSPost2010Prop48
 90
       50
102
RTVSPost2010PropOp48
 70
     1
102
RTVSPost2010Prop49
280
     0
102
RTVSPost2010PropOp49
 70
     1
102
RTVSPost2010Prop50
 90
       50
102
RTVSPost2010PropOp50
 70
     1
102
RTVSPost2010Prop51ColorIndex
 90
      256
102
RTVSPost2010Prop51ColorRGB
 90
-16777216
102
RTVSPost2010PropOp51
 70
     0
102
RTVSPost2010Prop52
140
1.0
102
RTVSPost2010PropOp52
 70
     0
102
RTVSPost2010Prop53
 90
        2
102
RTVSPost2010PropOp53
 70
     1
102
RTVSPost2010Prop54
  1
strokes_ogs.tif
102
RTVSPost2010PropOp54
 70
     1
102
RTVSPost2010Prop55
280
     0
102
RTVSPost2010PropOp55
 70
     1
102
RTVSPost2010Prop56
140
1.0
102
RTVSPost2010PropOp56
 70
     1
102
RTVSPost2010Prop57
140
1.0
102
RTVSPost2010PropOp57
 70
     1
102
RTVSPropertyOp0
 70
     1
102
RTVSPropertyOp1
 70
     1
102
RTVSPropertyOp2
 70
     1
102
RTVSPropertyOp3
 70
     1
102
RTVSPropertyOp4
 70
     1
102
RTVSPropertyOp5
 70
     1
102
RTVSPropertyOp6
 70
     1
102
RTVSPropertyOp7
 70
     1
102
RTVSPropertyOp8
 70
     1
102
RTVSPropertyOp9
 70
     1
102
RTVSPropertyOp10
 70
     1
102
RTVSPropertyOp11
 70
     1
102
RTVSPropertyOp12
 70
     1
102
RTVSPropertyOp13
 70
     1
102
RTVSPropertyOp14
 70
     1
102
RTVSPropertyOp15
 70
     1
102
RTVSPropertyOp16
 70
     1
102
RTVSPropertyOp17
 70
     1
102
RTVSPropertyOp18
 70
     1
102
RTVSPropertyOp19
 70
     1
102
RTVSPropertyOp20
 70
     1
102
RTVSPropertyOp21
 70
     1
102
RTVSPropertyOp22
 70
     1
102
RTVSPropertyOp23
 70
     1
102
RTVSPropertyOp24
 70
     1
102
RTVSPropertyOp25
 70
     1
102
RTVSPropertyOp26
 70
     1
102
RTVSPropertyOp27
 70
     1
102
RTVSPropertyOp28
 70
     1
102
RTVSPropertyOp29
 70
     1
102
RTVSPropertyOp30
 70
     1
102
RTVSPropertyOp31
 70
     1
102
RTVSPropertyOp32
 70
     1
102
RTVSPropertyOp33
 70
     1
102
RTVSPropertyOp34
 70
     1
102
RTVSPropertyOp35
 70
     1
102
RTVSPropertyOp36
 70
     1
102
RTVSPropertyOp37
 70
     1
102
RTVSPropertyOp38
 70
     1
102
RTVSPropertyOp39
 70
     1
102
RTVSPropertyOp40
 70
     1
102
RTVSPropertyOp41
 70
     1
102
RTVSPropertyOp42
 70
     1
102
RTVSPropertyOp43
 70
     1
102
RTVSPropertyOp44
 70
     1
102
RTVSPropertyOp45
 70
     1
102
RTVSPropertyOp46
 70
     1
102
RTVSPropertyOp47
 70
     1
102
RTVSPropertyOp48
 70
     1
102
RTVSPropertyOp49
 70
     1
102
RTVSPropertyOp50
 70
     1
102
RTVSPropertyOp51
 70
     0
102
RTVSPropertyOp52
 70
     0
102
RTVSPropertyOp53
 70
     1
102
RTVSPropertyOp54
 70
     1
102
RTVSPropertyOp55
 70
     1
102
RTVSPropertyOp56
 70
     1
102
RTVSPropertyOp57
 70
     1
102
RTVSPropertyOp58
 70
     1
102
RTVSPropertyOp59
 70
     1
102
RTVSPropertyOp60
 70
     1
102
RTVSPropertyOp61
 70
     1
102
RTVSPropertyOp62
 70
     1
  0
XRECORD
  5
8522
102
{ACAD_REACTORS
330
8521
102
}
330
8521
100
AcDbXrecord
280
     1
102
RTVSPost2010Prop28
280
     0
102
RTVSPost2010PropOp28
 70
     1
102
RTVSPost2010Prop29
280
     1
102
RTVSPost2010PropOp29
 70
     1
102
RTVSPost2010Prop30
280
     1
102
RTVSPost2010PropOp30
 70
     1
102
RTVSPost2010Prop31
280
     0
102
RTVSPost2010PropOp31
 70
     1
102
RTVSPost2010Prop32
280
     0
102
RTVSPost2010PropOp32
 70
     1
102
RTVSPost2010Prop33
280
     0
102
RTVSPost2010PropOp33
 70
     1
102
RTVSPost2010Prop34
280
     0
102
RTVSPost2010PropOp34
 70
     1
102
RTVSPost2010Prop35
280
     0
102
RTVSPost2010PropOp35
 70
     1
102
RTVSPost2010Prop36
280
     0
102
RTVSPost2010PropOp36
 70
     1
102
RTVSPost2010Prop37
 90
       50
102
RTVSPost2010PropOp37
 70
     0
102
RTVSPost2010Prop38
140
0.0
102
RTVSPost2010PropOp38
 70
     0
102
RTVSPost2010Prop39
140
1.0
102
RTVSPost2010PropOp39
 70
     0
102
RTVSPost2010Prop40
 90
        0
102
RTVSPost2010PropOp40
 70
     0
102
RTVSPost2010Prop41ColorIndex
 90
       18
102
RTVSPost2010Prop41ColorRGB
 90
        0
102
RTVSPost2010PropOp41
 70
     0
102
RTVSPost2010Prop42
 90
       50
102
RTVSPost2010PropOp42
 70
     0
102
RTVSPost2010Prop43
 90
        3
102
RTVSPost2010PropOp43
 70
     0
102
RTVSPost2010Prop44ColorIndex
 90
        5
102
RTVSPost2010Prop44ColorRGB
 90
      255
102
RTVSPost2010PropOp44
 70
     0
102
RTVSPost2010Prop45
280
     0
102
RTVSPost2010PropOp45
 70
     1
102
RTVSPost2010Prop46
 90
       50
102
RTVSPost2010PropOp46
 70
     0
102
RTVSPost2010Prop47
 90
       50
102
RTVSPost2010PropOp47
 70
     0
102
RTVSPost2010Prop48
 90
       50
102
RTVSPost2010PropOp48
 70
     0
102
RTVSPost2010Prop49
280
     0
102
RTVSPost2010PropOp49
 70
     1
102
RTVSPost2010Prop50
 90
       50
102
RTVSPost2010PropOp50
 70
     0
102
RTVSPost2010Prop51ColorIndex
 90
      256
102
RTVSPost2010Prop51ColorRGB
 90
-16777216
102
RTVSPost2010PropOp51
 70
     0
102
RTVSPost2010Prop52
140
1.0
102
RTVSPost2010PropOp52
 70
     0
102
RTVSPost2010Prop53
 90
        2
102
RTVSPost2010PropOp53
 70
     0
102
RTVSPost2010Prop54
  1
strokes_ogs.tif
102
RTVSPost2010PropOp54
 70
     0
102
RTVSPost2010Prop55
280
     0
102
RTVSPost2010PropOp55
 70
     1
102
RTVSPost2010Prop56
140
1.0
102
RTVSPost2010PropOp56
 70
     0
102
RTVSPost2010Prop57
140
1.0
102
RTVSPost2010PropOp57
 70
     0
102
RTVSPropertyOp0
 70
     0
102
RTVSPropertyOp1
 70
     0
102
RTVSPropertyOp2
 70
     0
102
RTVSPropertyOp3
 70
     0
102
RTVSPropertyOp4
 70
     0
102
RTVSPropertyOp5
 70
     0
102
RTVSPropertyOp6
 70
     0
102
RTVSPropertyOp7
 70
     0
102
RTVSPropertyOp8
 70
     0
102
RTVSPropertyOp9
 70
     0
102
RTVSPropertyOp10
 70
     0
102
RTVSPropertyOp11
 70
     0
102
RTVSPropertyOp12
 70
     0
102
RTVSPropertyOp13
 70
     0
102
RTVSPropertyOp14
 70
     2
102
RTVSPropertyOp15
 70
     0
102
RTVSPropertyOp16
 70
     0
102
RTVSPropertyOp17
 70
     0
102
RTVSPropertyOp18
 70
     0
102
RTVSPropertyOp19
 70
     0
102
RTVSPropertyOp20
 70
     0
102
RTVSPropertyOp21
 70
     0
102
RTVSPropertyOp22
 70
     0
102
RTVSPropertyOp23
 70
     0
102
RTVSPropertyOp24
 70
     0
102
RTVSPropertyOp25
 70
     0
102
RTVSPropertyOp26
 70
     0
102
RTVSPropertyOp27
 70
     0
102
RTVSPropertyOp28
 70
     1
102
RTVSPropertyOp29
 70
     1
102
RTVSPropertyOp30
 70
     1
102
RTVSPropertyOp31
 70
     1
102
RTVSPropertyOp32
 70
     1
102
RTVSPropertyOp33
 70
     1
102
RTVSPropertyOp34
 70
     1
102
RTVSPropertyOp35
 70
     1
102
RTVSPropertyOp36
 70
     1
102
RTVSPropertyOp37
 70
     0
102
RTVSPropertyOp38
 70
     0
102
RTVSPropertyOp39
 70
     0
102
RTVSPropertyOp40
 70
     0
102
RTVSPropertyOp41
 70
     0
102
RTVSPropertyOp42
 70
     0
102
RTVSPropertyOp43
 70
     0
102
RTVSPropertyOp44
 70
     0
102
RTVSPropertyOp45
 70
     1
102
RTVSPropertyOp46
 70
     0
102
RTVSPropertyOp47
 70
     0
102
RTVSPropertyOp48
 70
     0
102
RTVSPropertyOp49
 70
     1
102
RTVSPropertyOp50
 70
     0
102
RTVSPropertyOp51
 70
     0
102
RTVSPropertyOp52
 70
     0
102
RTVSPropertyOp53
 70
     0
102
RTVSPropertyOp54
 70
     0
102
RTVSPropertyOp55
 70
     1
102
RTVSPropertyOp56
 70
     0
102
RTVSPropertyOp57
 70
     0
102
RTVSPropertyOp58
 70
     0
102
RTVSPropertyOp59
 70
     0
102
RTVSPropertyOp60
 70
     0
102
RTVSPropertyOp61
 70
     0
102
RTVSPropertyOp62
 70
     0
  0
XRECORD
  5
8508
102
{ACAD_REACTORS
330
8507
102
}
330
8507
100
AcDbXrecord
280
     1
102
RTVSPost2010Prop28
280
     0
102
RTVSPost2010PropOp28
 70
     1
102
RTVSPost2010Prop29
280
     1
102
RTVSPost2010PropOp29
 70
     1
102
RTVSPost2010Prop30
280
     1
102
RTVSPost2010PropOp30
 70
     1
102
RTVSPost2010Prop31
280
     0
102
RTVSPost2010PropOp31
 70
     1
102
RTVSPost2010Prop32
280
     0
102
RTVSPost2010PropOp32
 70
     1
102
RTVSPost2010Prop33
280
     0
102
RTVSPost2010PropOp33
 70
     1
102
RTVSPost2010Prop34
280
     0
102
RTVSPost2010PropOp34
 70
     1
102
RTVSPost2010Prop35
280
     0
102
RTVSPost2010PropOp35
 70
     1
102
RTVSPost2010Prop36
280
     0
102
RTVSPost2010PropOp36
 70
     1
102
RTVSPost2010Prop37
 90
       50
102
RTVSPost2010PropOp37
 70
     1
102
RTVSPost2010Prop38
140
0.0
102
RTVSPost2010PropOp38
 70
     1
102
RTVSPost2010Prop39
140
1.0
102
RTVSPost2010PropOp39
 70
     1
102
RTVSPost2010Prop40
 90
        0
102
RTVSPost2010PropOp40
 70
     1
102
RTVSPost2010Prop41ColorIndex
 90
       18
102
RTVSPost2010Prop41ColorRGB
 90
        0
102
RTVSPost2010PropOp41
 70
     1
102
RTVSPost2010Prop42
 90
       50
102
RTVSPost2010PropOp42
 70
     1
102
RTVSPost2010Prop43
 90
        3
102
RTVSPost2010PropOp43
 70
     1
102
RTVSPost2010Prop44ColorIndex
 90
        5
102
RTVSPost2010Prop44ColorRGB
 90
      255
102
RTVSPost2010PropOp44
 70
     1
102
RTVSPost2010Prop45
280
     0
102
RTVSPost2010PropOp45
 70
     1
102
RTVSPost2010Prop46
 90
       50
102
RTVSPost2010PropOp46
 70
     1
102
RTVSPost2010Prop47
 90
       50
102
RTVSPost2010PropOp47
 70
     1
102
RTVSPost2010Prop48
 90
       50
102
RTVSPost2010PropOp48
 70
     1
102
RTVSPost2010Prop49
280
     0
102
RTVSPost2010PropOp49
 70
     1
102
RTVSPost2010Prop50
 90
       50
102
RTVSPost2010PropOp50
 70
     1
102
RTVSPost2010Prop51ColorIndex
 90
      256
102
RTVSPost2010Prop51ColorRGB
 90
-16777216
102
RTVSPost2010PropOp51
 70
     0
102
RTVSPost2010Prop52
140
1.0
102
RTVSPost2010PropOp52
 70
     0
102
RTVSPost2010Prop53
 90
        2
102
RTVSPost2010PropOp53
 70
     1
102
RTVSPost2010Prop54
  1
strokes_ogs.tif
102
RTVSPost2010PropOp54
 70
     1
102
RTVSPost2010Prop55
280
     0
102
RTVSPost2010PropOp55
 70
     1
102
RTVSPost2010Prop56
140
1.0
102
RTVSPost2010PropOp56
 70
     1
102
RTVSPost2010Prop57
140
1.0
102
RTVSPost2010PropOp57
 70
     1
102
RTVSPropertyOp0
 70
     1
102
RTVSPropertyOp1
 70
     1
102
RTVSPropertyOp2
 70
     1
102
RTVSPropertyOp3
 70
     1
102
RTVSPropertyOp4
 70
     1
102
RTVSPropertyOp5
 70
     1
102
RTVSPropertyOp6
 70
     1
102
RTVSPropertyOp7
 70
     1
102
RTVSPropertyOp8
 70
     1
102
RTVSPropertyOp9
 70
     1
102
RTVSPropertyOp10
 70
     1
102
RTVSPropertyOp11
 70
     1
102
RTVSPropertyOp12
 70
     1
102
RTVSPropertyOp13
 70
     1
102
RTVSPropertyOp14
 70
     1
102
RTVSPropertyOp15
 70
     1
102
RTVSPropertyOp16
 70
     1
102
RTVSPropertyOp17
 70
     1
102
RTVSPropertyOp18
 70
     1
102
RTVSPropertyOp19
 70
     1
102
RTVSPropertyOp20
 70
     1
102
RTVSPropertyOp21
 70
     1
102
RTVSPropertyOp22
 70
     1
102
RTVSPropertyOp23
 70
     1
102
RTVSPropertyOp24
 70
     1
102
RTVSPropertyOp25
 70
     1
102
RTVSPropertyOp26
 70
     1
102
RTVSPropertyOp27
 70
     1
102
RTVSPropertyOp28
 70
     1
102
RTVSPropertyOp29
 70
     1
102
RTVSPropertyOp30
 70
     1
102
RTVSPropertyOp31
 70
     1
102
RTVSPropertyOp32
 70
     1
102
RTVSPropertyOp33
 70
     1
102
RTVSPropertyOp34
 70
     1
102
RTVSPropertyOp35
 70
     1
102
RTVSPropertyOp36
 70
     1
102
RTVSPropertyOp37
 70
     1
102
RTVSPropertyOp38
 70
     1
102
RTVSPropertyOp39
 70
     1
102
RTVSPropertyOp40
 70
     1
102
RTVSPropertyOp41
 70
     1
102
RTVSPropertyOp42
 70
     1
102
RTVSPropertyOp43
 70
     1
102
RTVSPropertyOp44
 70
     1
102
RTVSPropertyOp45
 70
     1
102
RTVSPropertyOp46
 70
     1
102
RTVSPropertyOp47
 70
     1
102
RTVSPropertyOp48
 70
     1
102
RTVSPropertyOp49
 70
     1
102
RTVSPropertyOp50
 70
     1
102
RTVSPropertyOp51
 70
     0
102
RTVSPropertyOp52
 70
     0
102
RTVSPropertyOp53
 70
     1
102
RTVSPropertyOp54
 70
     1
102
RTVSPropertyOp55
 70
     1
102
RTVSPropertyOp56
 70
     1
102
RTVSPropertyOp57
 70
     1
102
RTVSPropertyOp58
 70
     1
102
RTVSPropertyOp59
 70
     1
102
RTVSPropertyOp60
 70
     1
102
RTVSPropertyOp61
 70
     1
102
RTVSPropertyOp62
 70
     1
  0
XRECORD
  5
851E
102
{ACAD_REACTORS
330
851D
102
}
330
851D
100
AcDbXrecord
280
     1
102
RTVSPost2010Prop28
280
     0
102
RTVSPost2010PropOp28
 70
     1
102
RTVSPost2010Prop29
280
     1
102
RTVSPost2010PropOp29
 70
     1
102
RTVSPost2010Prop30
280
     1
102
RTVSPost2010PropOp30
 70
     1
102
RTVSPost2010Prop31
280
     0
102
RTVSPost2010PropOp31
 70
     1
102
RTVSPost2010Prop32
280
     0
102
RTVSPost2010PropOp32
 70
     1
102
RTVSPost2010Prop33
280
     0
102
RTVSPost2010PropOp33
 70
     1
102
RTVSPost2010Prop34
280
     0
102
RTVSPost2010PropOp34
 70
     1
102
RTVSPost2010Prop35
280
     0
102
RTVSPost2010PropOp35
 70
     1
102
RTVSPost2010Prop36
280
     0
102
RTVSPost2010PropOp36
 70
     1
102
RTVSPost2010Prop37
 90
       50
102
RTVSPost2010PropOp37
 70
     1
102
RTVSPost2010Prop38
140
0.0
102
RTVSPost2010PropOp38
 70
     1
102
RTVSPost2010Prop39
140
1.0
102
RTVSPost2010PropOp39
 70
     1
102
RTVSPost2010Prop40
 90
        0
102
RTVSPost2010PropOp40
 70
     1
102
RTVSPost2010Prop41ColorIndex
 90
       18
102
RTVSPost2010Prop41ColorRGB
 90
        0
102
RTVSPost2010PropOp41
 70
     1
102
RTVSPost2010Prop42
 90
       50
102
RTVSPost2010PropOp42
 70
     1
102
RTVSPost2010Prop43
 90
        3
102
RTVSPost2010PropOp43
 70
     1
102
RTVSPost2010Prop44ColorIndex
 90
        5
102
RTVSPost2010Prop44ColorRGB
 90
      255
102
RTVSPost2010PropOp44
 70
     1
102
RTVSPost2010Prop45
280
     0
102
RTVSPost2010PropOp45
 70
     1
102
RTVSPost2010Prop46
 90
       50
102
RTVSPost2010PropOp46
 70
     1
102
RTVSPost2010Prop47
 90
       50
102
RTVSPost2010PropOp47
 70
     1
102
RTVSPost2010Prop48
 90
       50
102
RTVSPost2010PropOp48
 70
     1
102
RTVSPost2010Prop49
280
     0
102
RTVSPost2010PropOp49
 70
     1
102
RTVSPost2010Prop50
 90
       50
102
RTVSPost2010PropOp50
 70
     1
102
RTVSPost2010Prop51ColorIndex
 90
      256
102
RTVSPost2010Prop51ColorRGB
 90
-16777216
102
RTVSPost2010PropOp51
 70
     0
102
RTVSPost2010Prop52
140
1.0
102
RTVSPost2010PropOp52
 70
     0
102
RTVSPost2010Prop53
 90
        2
102
RTVSPost2010PropOp53
 70
     1
102
RTVSPost2010Prop54
  1
strokes_ogs.tif
102
RTVSPost2010PropOp54
 70
     1
102
RTVSPost2010Prop55
280
     0
102
RTVSPost2010PropOp55
 70
     1
102
RTVSPost2010Prop56
140
1.0
102
RTVSPost2010PropOp56
 70
     1
102
RTVSPost2010Prop57
140
1.0
102
RTVSPost2010PropOp57
 70
     1
102
RTVSPropertyOp0
 70
     1
102
RTVSPropertyOp1
 70
     1
102
RTVSPropertyOp2
 70
     1
102
RTVSPropertyOp3
 70
     1
102
RTVSPropertyOp4
 70
     1
102
RTVSPropertyOp5
 70
     1
102
RTVSPropertyOp6
 70
     1
102
RTVSPropertyOp7
 70
     1
102
RTVSPropertyOp8
 70
     1
102
RTVSPropertyOp9
 70
     1
102
RTVSPropertyOp10
 70
     1
102
RTVSPropertyOp11
 70
     1
102
RTVSPropertyOp12
 70
     1
102
RTVSPropertyOp13
 70
     1
102
RTVSPropertyOp14
 70
     1
102
RTVSPropertyOp15
 70
     1
102
RTVSPropertyOp16
 70
     1
102
RTVSPropertyOp17
 70
     1
102
RTVSPropertyOp18
 70
     1
102
RTVSPropertyOp19
 70
     1
102
RTVSPropertyOp20
 70
     1
102
RTVSPropertyOp21
 70
     1
102
RTVSPropertyOp22
 70
     1
102
RTVSPropertyOp23
 70
     1
102
RTVSPropertyOp24
 70
     1
102
RTVSPropertyOp25
 70
     1
102
RTVSPropertyOp26
 70
     1
102
RTVSPropertyOp27
 70
     1
102
RTVSPropertyOp28
 70
     1
102
RTVSPropertyOp29
 70
     1
102
RTVSPropertyOp30
 70
     1
102
RTVSPropertyOp31
 70
     1
102
RTVSPropertyOp32
 70
     1
102
RTVSPropertyOp33
 70
     1
102
RTVSPropertyOp34
 70
     1
102
RTVSPropertyOp35
 70
     1
102
RTVSPropertyOp36
 70
     1
102
RTVSPropertyOp37
 70
     1
102
RTVSPropertyOp38
 70
     1
102
RTVSPropertyOp39
 70
     1
102
RTVSPropertyOp40
 70
     1
102
RTVSPropertyOp41
 70
     1
102
RTVSPropertyOp42
 70
     1
102
RTVSPropertyOp43
 70
     1
102
RTVSPropertyOp44
 70
     1
102
RTVSPropertyOp45
 70
     1
102
RTVSPropertyOp46
 70
     1
102
RTVSPropertyOp47
 70
     1
102
RTVSPropertyOp48
 70
     1
102
RTVSPropertyOp49
 70
     1
102
RTVSPropertyOp50
 70
     1
102
RTVSPropertyOp51
 70
     0
102
RTVSPropertyOp52
 70
     0
102
RTVSPropertyOp53
 70
     1
102
RTVSPropertyOp54
 70
     1
102
RTVSPropertyOp55
 70
     1
102
RTVSPropertyOp56
 70
     1
102
RTVSPropertyOp57
 70
     1
102
RTVSPropertyOp58
 70
     1
102
RTVSPropertyOp59
 70
     1
102
RTVSPropertyOp60
 70
     1
102
RTVSPropertyOp61
 70
     1
102
RTVSPropertyOp62
 70
     1
  0
XRECORD
  5
851C
102
{ACAD_REACTORS
330
851B
102
}
330
851B
100
AcDbXrecord
280
     1
102
RTVSPost2010Prop28
280
     0
102
RTVSPost2010PropOp28
 70
     1
102
RTVSPost2010Prop29
280
     1
102
RTVSPost2010PropOp29
 70
     1
102
RTVSPost2010Prop30
280
     1
102
RTVSPost2010PropOp30
 70
     1
102
RTVSPost2010Prop31
280
     0
102
RTVSPost2010PropOp31
 70
     1
102
RTVSPost2010Prop32
280
     0
102
RTVSPost2010PropOp32
 70
     1
102
RTVSPost2010Prop33
280
     0
102
RTVSPost2010PropOp33
 70
     1
102
RTVSPost2010Prop34
280
     0
102
RTVSPost2010PropOp34
 70
     1
102
RTVSPost2010Prop35
280
     0
102
RTVSPost2010PropOp35
 70
     1
102
RTVSPost2010Prop36
280
     0
102
RTVSPost2010PropOp36
 70
     1
102
RTVSPost2010Prop37
 90
       50
102
RTVSPost2010PropOp37
 70
     1
102
RTVSPost2010Prop38
140
0.0
102
RTVSPost2010PropOp38
 70
     1
102
RTVSPost2010Prop39
140
1.0
102
RTVSPost2010PropOp39
 70
     1
102
RTVSPost2010Prop40
 90
        0
102
RTVSPost2010PropOp40
 70
     1
102
RTVSPost2010Prop41ColorIndex
 90
       18
102
RTVSPost2010Prop41ColorRGB
 90
        0
102
RTVSPost2010PropOp41
 70
     1
102
RTVSPost2010Prop42
 90
       50
102
RTVSPost2010PropOp42
 70
     1
102
RTVSPost2010Prop43
 90
        3
102
RTVSPost2010PropOp43
 70
     1
102
RTVSPost2010Prop44ColorIndex
 90
        5
102
RTVSPost2010Prop44ColorRGB
 90
      255
102
RTVSPost2010PropOp44
 70
     1
102
RTVSPost2010Prop45
280
     0
102
RTVSPost2010PropOp45
 70
     1
102
RTVSPost2010Prop46
 90
       50
102
RTVSPost2010PropOp46
 70
     1
102
RTVSPost2010Prop47
 90
       50
102
RTVSPost2010PropOp47
 70
     1
102
RTVSPost2010Prop48
 90
       50
102
RTVSPost2010PropOp48
 70
     1
102
RTVSPost2010Prop49
280
     0
102
RTVSPost2010PropOp49
 70
     1
102
RTVSPost2010Prop50
 90
       50
102
RTVSPost2010PropOp50
 70
     1
102
RTVSPost2010Prop51ColorIndex
 90
      256
102
RTVSPost2010Prop51ColorRGB
 90
-16777216
102
RTVSPost2010PropOp51
 70
     0
102
RTVSPost2010Prop52
140
1.0
102
RTVSPost2010PropOp52
 70
     0
102
RTVSPost2010Prop53
 90
        2
102
RTVSPost2010PropOp53
 70
     1
102
RTVSPost2010Prop54
  1
strokes_ogs.tif
102
RTVSPost2010PropOp54
 70
     1
102
RTVSPost2010Prop55
280
     0
102
RTVSPost2010PropOp55
 70
     1
102
RTVSPost2010Prop56
140
1.0
102
RTVSPost2010PropOp56
 70
     1
102
RTVSPost2010Prop57
140
1.0
102
RTVSPost2010PropOp57
 70
     1
102
RTVSPropertyOp0
 70
     1
102
RTVSPropertyOp1
 70
     1
102
RTVSPropertyOp2
 70
     1
102
RTVSPropertyOp3
 70
     1
102
RTVSPropertyOp4
 70
     1
102
RTVSPropertyOp5
 70
     1
102
RTVSPropertyOp6
 70
     1
102
RTVSPropertyOp7
 70
     1
102
RTVSPropertyOp8
 70
     1
102
RTVSPropertyOp9
 70
     1
102
RTVSPropertyOp10
 70
     1
102
RTVSPropertyOp11
 70
     1
102
RTVSPropertyOp12
 70
     1
102
RTVSPropertyOp13
 70
     1
102
RTVSPropertyOp14
 70
     1
102
RTVSPropertyOp15
 70
     1
102
RTVSPropertyOp16
 70
     1
102
RTVSPropertyOp17
 70
     1
102
RTVSPropertyOp18
 70
     1
102
RTVSPropertyOp19
 70
     1
102
RTVSPropertyOp20
 70
     1
102
RTVSPropertyOp21
 70
     1
102
RTVSPropertyOp22
 70
     1
102
RTVSPropertyOp23
 70
     1
102
RTVSPropertyOp24
 70
     1
102
RTVSPropertyOp25
 70
     1
102
RTVSPropertyOp26
 70
     1
102
RTVSPropertyOp27
 70
     1
102
RTVSPropertyOp28
 70
     1
102
RTVSPropertyOp29
 70
     1
102
RTVSPropertyOp30
 70
     1
102
RTVSPropertyOp31
 70
     1
102
RTVSPropertyOp32
 70
     1
102
RTVSPropertyOp33
 70
     1
102
RTVSPropertyOp34
 70
     1
102
RTVSPropertyOp35
 70
     1
102
RTVSPropertyOp36
 70
     1
102
RTVSPropertyOp37
 70
     1
102
RTVSPropertyOp38
 70
     1
102
RTVSPropertyOp39
 70
     1
102
RTVSPropertyOp40
 70
     1
102
RTVSPropertyOp41
 70
     1
102
RTVSPropertyOp42
 70
     1
102
RTVSPropertyOp43
 70
     1
102
RTVSPropertyOp44
 70
     1
102
RTVSPropertyOp45
 70
     1
102
RTVSPropertyOp46
 70
     1
102
RTVSPropertyOp47
 70
     1
102
RTVSPropertyOp48
 70
     1
102
RTVSPropertyOp49
 70
     1
102
RTVSPropertyOp50
 70
     1
102
RTVSPropertyOp51
 70
     0
102
RTVSPropertyOp52
 70
     0
102
RTVSPropertyOp53
 70
     1
102
RTVSPropertyOp54
 70
     1
102
RTVSPropertyOp55
 70
     1
102
RTVSPropertyOp56
 70
     1
102
RTVSPropertyOp57
 70
     1
102
RTVSPropertyOp58
 70
     1
102
RTVSPropertyOp59
 70
     1
102
RTVSPropertyOp60
 70
     1
102
RTVSPropertyOp61
 70
     1
102
RTVSPropertyOp62
 70
     1
  0
XRECORD
  5
8516
102
{ACAD_REACTORS
330
8515
102
}
330
8515
100
AcDbXrecord
280
     1
102
RTVSPost2010Prop28
280
     0
102
RTVSPost2010PropOp28
 70
     1
102
RTVSPost2010Prop29
280
     1
102
RTVSPost2010PropOp29
 70
     1
102
RTVSPost2010Prop30
280
     1
102
RTVSPost2010PropOp30
 70
     1
102
RTVSPost2010Prop31
280
     0
102
RTVSPost2010PropOp31
 70
     1
102
RTVSPost2010Prop32
280
     0
102
RTVSPost2010PropOp32
 70
     1
102
RTVSPost2010Prop33
280
     0
102
RTVSPost2010PropOp33
 70
     1
102
RTVSPost2010Prop34
280
     0
102
RTVSPost2010PropOp34
 70
     1
102
RTVSPost2010Prop35
280
     0
102
RTVSPost2010PropOp35
 70
     1
102
RTVSPost2010Prop36
280
     0
102
RTVSPost2010PropOp36
 70
     1
102
RTVSPost2010Prop37
 90
       50
102
RTVSPost2010PropOp37
 70
     1
102
RTVSPost2010Prop38
140
0.0
102
RTVSPost2010PropOp38
 70
     1
102
RTVSPost2010Prop39
140
1.0
102
RTVSPost2010PropOp39
 70
     1
102
RTVSPost2010Prop40
 90
        0
102
RTVSPost2010PropOp40
 70
     1
102
RTVSPost2010Prop41ColorIndex
 90
       18
102
RTVSPost2010Prop41ColorRGB
 90
        0
102
RTVSPost2010PropOp41
 70
     1
102
RTVSPost2010Prop42
 90
       50
102
RTVSPost2010PropOp42
 70
     1
102
RTVSPost2010Prop43
 90
        3
102
RTVSPost2010PropOp43
 70
     1
102
RTVSPost2010Prop44ColorIndex
 90
        5
102
RTVSPost2010Prop44ColorRGB
 90
      255
102
RTVSPost2010PropOp44
 70
     1
102
RTVSPost2010Prop45
280
     0
102
RTVSPost2010PropOp45
 70
     1
102
RTVSPost2010Prop46
 90
       50
102
RTVSPost2010PropOp46
 70
     1
102
RTVSPost2010Prop47
 90
       50
102
RTVSPost2010PropOp47
 70
     1
102
RTVSPost2010Prop48
 90
       50
102
RTVSPost2010PropOp48
 70
     1
102
RTVSPost2010Prop49
280
     0
102
RTVSPost2010PropOp49
 70
     1
102
RTVSPost2010Prop50
 90
       50
102
RTVSPost2010PropOp50
 70
     1
102
RTVSPost2010Prop51ColorIndex
 90
      256
102
RTVSPost2010Prop51ColorRGB
 90
-16777216
102
RTVSPost2010PropOp51
 70
     0
102
RTVSPost2010Prop52
140
1.0
102
RTVSPost2010PropOp52
 70
     0
102
RTVSPost2010Prop53
 90
        2
102
RTVSPost2010PropOp53
 70
     1
102
RTVSPost2010Prop54
  1
strokes_ogs.tif
102
RTVSPost2010PropOp54
 70
     1
102
RTVSPost2010Prop55
280
     0
102
RTVSPost2010PropOp55
 70
     1
102
RTVSPost2010Prop56
140
1.0
102
RTVSPost2010PropOp56
 70
     1
102
RTVSPost2010Prop57
140
1.0
102
RTVSPost2010PropOp57
 70
     1
102
RTVSPropertyOp0
 70
     1
102
RTVSPropertyOp1
 70
     1
102
RTVSPropertyOp2
 70
     1
102
RTVSPropertyOp3
 70
     1
102
RTVSPropertyOp4
 70
     1
102
RTVSPropertyOp5
 70
     1
102
RTVSPropertyOp6
 70
     1
102
RTVSPropertyOp7
 70
     1
102
RTVSPropertyOp8
 70
     1
102
RTVSPropertyOp9
 70
     1
102
RTVSPropertyOp10
 70
     1
102
RTVSPropertyOp11
 70
     1
102
RTVSPropertyOp12
 70
     1
102
RTVSPropertyOp13
 70
     1
102
RTVSPropertyOp14
 70
     1
102
RTVSPropertyOp15
 70
     1
102
RTVSPropertyOp16
 70
     1
102
RTVSPropertyOp17
 70
     1
102
RTVSPropertyOp18
 70
     1
102
RTVSPropertyOp19
 70
     1
102
RTVSPropertyOp20
 70
     1
102
RTVSPropertyOp21
 70
     1
102
RTVSPropertyOp22
 70
     1
102
RTVSPropertyOp23
 70
     1
102
RTVSPropertyOp24
 70
     1
102
RTVSPropertyOp25
 70
     1
102
RTVSPropertyOp26
 70
     1
102
RTVSPropertyOp27
 70
     1
102
RTVSPropertyOp28
 70
     1
102
RTVSPropertyOp29
 70
     1
102
RTVSPropertyOp30
 70
     1
102
RTVSPropertyOp31
 70
     1
102
RTVSPropertyOp32
 70
     1
102
RTVSPropertyOp33
 70
     1
102
RTVSPropertyOp34
 70
     1
102
RTVSPropertyOp35
 70
     1
102
RTVSPropertyOp36
 70
     1
102
RTVSPropertyOp37
 70
     1
102
RTVSPropertyOp38
 70
     1
102
RTVSPropertyOp39
 70
     1
102
RTVSPropertyOp40
 70
     1
102
RTVSPropertyOp41
 70
     1
102
RTVSPropertyOp42
 70
     1
102
RTVSPropertyOp43
 70
     1
102
RTVSPropertyOp44
 70
     1
102
RTVSPropertyOp45
 70
     1
102
RTVSPropertyOp46
 70
     1
102
RTVSPropertyOp47
 70
     1
102
RTVSPropertyOp48
 70
     1
102
RTVSPropertyOp49
 70
     1
102
RTVSPropertyOp50
 70
     1
102
RTVSPropertyOp51
 70
     0
102
RTVSPropertyOp52
 70
     0
102
RTVSPropertyOp53
 70
     1
102
RTVSPropertyOp54
 70
     1
102
RTVSPropertyOp55
 70
     1
102
RTVSPropertyOp56
 70
     1
102
RTVSPropertyOp57
 70
     1
102
RTVSPropertyOp58
 70
     1
102
RTVSPropertyOp59
 70
     1
102
RTVSPropertyOp60
 70
     1
102
RTVSPropertyOp61
 70
     1
102
RTVSPropertyOp62
 70
     1
  0
XRECORD
  5
8518
102
{ACAD_REACTORS
330
8517
102
}
330
8517
100
AcDbXrecord
280
     1
102
RTVSPost2010Prop28
280
     0
102
RTVSPost2010PropOp28
 70
     1
102
RTVSPost2010Prop29
280
     1
102
RTVSPost2010PropOp29
 70
     1
102
RTVSPost2010Prop30
280
     1
102
RTVSPost2010PropOp30
 70
     1
102
RTVSPost2010Prop31
280
     0
102
RTVSPost2010PropOp31
 70
     1
102
RTVSPost2010Prop32
280
     0
102
RTVSPost2010PropOp32
 70
     1
102
RTVSPost2010Prop33
280
     0
102
RTVSPost2010PropOp33
 70
     1
102
RTVSPost2010Prop34
280
     0
102
RTVSPost2010PropOp34
 70
     1
102
RTVSPost2010Prop35
280
     0
102
RTVSPost2010PropOp35
 70
     1
102
RTVSPost2010Prop36
280
     0
102
RTVSPost2010PropOp36
 70
     1
102
RTVSPost2010Prop37
 90
       50
102
RTVSPost2010PropOp37
 70
     1
102
RTVSPost2010Prop38
140
0.0
102
RTVSPost2010PropOp38
 70
     1
102
RTVSPost2010Prop39
140
1.0
102
RTVSPost2010PropOp39
 70
     1
102
RTVSPost2010Prop40
 90
        0
102
RTVSPost2010PropOp40
 70
     1
102
RTVSPost2010Prop41ColorIndex
 90
       18
102
RTVSPost2010Prop41ColorRGB
 90
        0
102
RTVSPost2010PropOp41
 70
     1
102
RTVSPost2010Prop42
 90
       50
102
RTVSPost2010PropOp42
 70
     1
102
RTVSPost2010Prop43
 90
        3
102
RTVSPost2010PropOp43
 70
     1
102
RTVSPost2010Prop44ColorIndex
 90
        5
102
RTVSPost2010Prop44ColorRGB
 90
      255
102
RTVSPost2010PropOp44
 70
     1
102
RTVSPost2010Prop45
280
     0
102
RTVSPost2010PropOp45
 70
     1
102
RTVSPost2010Prop46
 90
       50
102
RTVSPost2010PropOp46
 70
     1
102
RTVSPost2010Prop47
 90
       50
102
RTVSPost2010PropOp47
 70
     1
102
RTVSPost2010Prop48
 90
       50
102
RTVSPost2010PropOp48
 70
     1
102
RTVSPost2010Prop49
280
     0
102
RTVSPost2010PropOp49
 70
     1
102
RTVSPost2010Prop50
 90
       50
102
RTVSPost2010PropOp50
 70
     1
102
RTVSPost2010Prop51ColorIndex
 90
      256
102
RTVSPost2010Prop51ColorRGB
 90
-16777216
102
RTVSPost2010PropOp51
 70
     0
102
RTVSPost2010Prop52
140
1.0
102
RTVSPost2010PropOp52
 70
     0
102
RTVSPost2010Prop53
 90
        2
102
RTVSPost2010PropOp53
 70
     1
102
RTVSPost2010Prop54
  1
strokes_ogs.tif
102
RTVSPost2010PropOp54
 70
     1
102
RTVSPost2010Prop55
280
     0
102
RTVSPost2010PropOp55
 70
     1
102
RTVSPost2010Prop56
140
1.0
102
RTVSPost2010PropOp56
 70
     1
102
RTVSPost2010Prop57
140
1.0
102
RTVSPost2010PropOp57
 70
     1
102
RTVSPropertyOp0
 70
     1
102
RTVSPropertyOp1
 70
     1
102
RTVSPropertyOp2
 70
     1
102
RTVSPropertyOp3
 70
     1
102
RTVSPropertyOp4
 70
     1
102
RTVSPropertyOp5
 70
     1
102
RTVSPropertyOp6
 70
     1
102
RTVSPropertyOp7
 70
     1
102
RTVSPropertyOp8
 70
     1
102
RTVSPropertyOp9
 70
     1
102
RTVSPropertyOp10
 70
     1
102
RTVSPropertyOp11
 70
     1
102
RTVSPropertyOp12
 70
     1
102
RTVSPropertyOp13
 70
     1
102
RTVSPropertyOp14
 70
     1
102
RTVSPropertyOp15
 70
     1
102
RTVSPropertyOp16
 70
     1
102
RTVSPropertyOp17
 70
     1
102
RTVSPropertyOp18
 70
     1
102
RTVSPropertyOp19
 70
     1
102
RTVSPropertyOp20
 70
     1
102
RTVSPropertyOp21
 70
     1
102
RTVSPropertyOp22
 70
     1
102
RTVSPropertyOp23
 70
     1
102
RTVSPropertyOp24
 70
     1
102
RTVSPropertyOp25
 70
     1
102
RTVSPropertyOp26
 70
     1
102
RTVSPropertyOp27
 70
     1
102
RTVSPropertyOp28
 70
     1
102
RTVSPropertyOp29
 70
     1
102
RTVSPropertyOp30
 70
     1
102
RTVSPropertyOp31
 70
     1
102
RTVSPropertyOp32
 70
     1
102
RTVSPropertyOp33
 70
     1
102
RTVSPropertyOp34
 70
     1
102
RTVSPropertyOp35
 70
     1
102
RTVSPropertyOp36
 70
     1
102
RTVSPropertyOp37
 70
     1
102
RTVSPropertyOp38
 70
     1
102
RTVSPropertyOp39
 70
     1
102
RTVSPropertyOp40
 70
     1
102
RTVSPropertyOp41
 70
     1
102
RTVSPropertyOp42
 70
     1
102
RTVSPropertyOp43
 70
     1
102
RTVSPropertyOp44
 70
     1
102
RTVSPropertyOp45
 70
     1
102
RTVSPropertyOp46
 70
     1
102
RTVSPropertyOp47
 70
     1
102
RTVSPropertyOp48
 70
     1
102
RTVSPropertyOp49
 70
     1
102
RTVSPropertyOp50
 70
     1
102
RTVSPropertyOp51
 70
     0
102
RTVSPropertyOp52
 70
     0
102
RTVSPropertyOp53
 70
     1
102
RTVSPropertyOp54
 70
     1
102
RTVSPropertyOp55
 70
     1
102
RTVSPropertyOp56
 70
     1
102
RTVSPropertyOp57
 70
     1
102
RTVSPropertyOp58
 70
     1
102
RTVSPropertyOp59
 70
     1
102
RTVSPropertyOp60
 70
     1
102
RTVSPropertyOp61
 70
     1
102
RTVSPropertyOp62
 70
     1
  0
XRECORD
  5
850E
102
{ACAD_REACTORS
330
850D
102
}
330
850D
100
AcDbXrecord
280
     1
102
RTVSPost2010Prop28
280
     0
102
RTVSPost2010PropOp28
 70
     1
102
RTVSPost2010Prop29
280
     1
102
RTVSPost2010PropOp29
 70
     1
102
RTVSPost2010Prop30
280
     1
102
RTVSPost2010PropOp30
 70
     1
102
RTVSPost2010Prop31
280
     0
102
RTVSPost2010PropOp31
 70
     1
102
RTVSPost2010Prop32
280
     0
102
RTVSPost2010PropOp32
 70
     1
102
RTVSPost2010Prop33
280
     0
102
RTVSPost2010PropOp33
 70
     1
102
RTVSPost2010Prop34
280
     0
102
RTVSPost2010PropOp34
 70
     1
102
RTVSPost2010Prop35
280
     0
102
RTVSPost2010PropOp35
 70
     1
102
RTVSPost2010Prop36
280
     0
102
RTVSPost2010PropOp36
 70
     1
102
RTVSPost2010Prop37
 90
       50
102
RTVSPost2010PropOp37
 70
     1
102
RTVSPost2010Prop38
140
0.0
102
RTVSPost2010PropOp38
 70
     1
102
RTVSPost2010Prop39
140
1.0
102
RTVSPost2010PropOp39
 70
     1
102
RTVSPost2010Prop40
 90
        0
102
RTVSPost2010PropOp40
 70
     1
102
RTVSPost2010Prop41ColorIndex
 90
       18
102
RTVSPost2010Prop41ColorRGB
 90
        0
102
RTVSPost2010PropOp41
 70
     1
102
RTVSPost2010Prop42
 90
       50
102
RTVSPost2010PropOp42
 70
     1
102
RTVSPost2010Prop43
 90
        3
102
RTVSPost2010PropOp43
 70
     1
102
RTVSPost2010Prop44ColorIndex
 90
        5
102
RTVSPost2010Prop44ColorRGB
 90
      255
102
RTVSPost2010PropOp44
 70
     1
102
RTVSPost2010Prop45
280
     0
102
RTVSPost2010PropOp45
 70
     1
102
RTVSPost2010Prop46
 90
       50
102
RTVSPost2010PropOp46
 70
     1
102
RTVSPost2010Prop47
 90
       50
102
RTVSPost2010PropOp47
 70
     1
102
RTVSPost2010Prop48
 90
       50
102
RTVSPost2010PropOp48
 70
     1
102
RTVSPost2010Prop49
280
     0
102
RTVSPost2010PropOp49
 70
     1
102
RTVSPost2010Prop50
 90
       50
102
RTVSPost2010PropOp50
 70
     1
102
RTVSPost2010Prop51ColorIndex
 90
      256
102
RTVSPost2010Prop51ColorRGB
 90
-16777216
102
RTVSPost2010PropOp51
 70
     0
102
RTVSPost2010Prop52
140
1.0
102
RTVSPost2010PropOp52
 70
     0
102
RTVSPost2010Prop53
 90
        2
102
RTVSPost2010PropOp53
 70
     1
102
RTVSPost2010Prop54
  1
strokes_ogs.tif
102
RTVSPost2010PropOp54
 70
     1
102
RTVSPost2010Prop55
280
     0
102
RTVSPost2010PropOp55
 70
     1
102
RTVSPost2010Prop56
140
1.0
102
RTVSPost2010PropOp56
 70
     1
102
RTVSPost2010Prop57
140
1.0
102
RTVSPost2010PropOp57
 70
     1
102
RTVSPropertyOp0
 70
     1
102
RTVSPropertyOp1
 70
     1
102
RTVSPropertyOp2
 70
     1
102
RTVSPropertyOp3
 70
     1
102
RTVSPropertyOp4
 70
     1
102
RTVSPropertyOp5
 70
     1
102
RTVSPropertyOp6
 70
     1
102
RTVSPropertyOp7
 70
     1
102
RTVSPropertyOp8
 70
     1
102
RTVSPropertyOp9
 70
     1
102
RTVSPropertyOp10
 70
     1
102
RTVSPropertyOp11
 70
     1
102
RTVSPropertyOp12
 70
     1
102
RTVSPropertyOp13
 70
     1
102
RTVSPropertyOp14
 70
     1
102
RTVSPropertyOp15
 70
     1
102
RTVSPropertyOp16
 70
     1
102
RTVSPropertyOp17
 70
     1
102
RTVSPropertyOp18
 70
     1
102
RTVSPropertyOp19
 70
     1
102
RTVSPropertyOp20
 70
     1
102
RTVSPropertyOp21
 70
     1
102
RTVSPropertyOp22
 70
     1
102
RTVSPropertyOp23
 70
     1
102
RTVSPropertyOp24
 70
     1
102
RTVSPropertyOp25
 70
     1
102
RTVSPropertyOp26
 70
     1
102
RTVSPropertyOp27
 70
     1
102
RTVSPropertyOp28
 70
     1
102
RTVSPropertyOp29
 70
     1
102
RTVSPropertyOp30
 70
     1
102
RTVSPropertyOp31
 70
     1
102
RTVSPropertyOp32
 70
     1
102
RTVSPropertyOp33
 70
     1
102
RTVSPropertyOp34
 70
     1
102
RTVSPropertyOp35
 70
     1
102
RTVSPropertyOp36
 70
     1
102
RTVSPropertyOp37
 70
     1
102
RTVSPropertyOp38
 70
     1
102
RTVSPropertyOp39
 70
     1
102
RTVSPropertyOp40
 70
     1
102
RTVSPropertyOp41
 70
     1
102
RTVSPropertyOp42
 70
     1
102
RTVSPropertyOp43
 70
     1
102
RTVSPropertyOp44
 70
     1
102
RTVSPropertyOp45
 70
     1
102
RTVSPropertyOp46
 70
     1
102
RTVSPropertyOp47
 70
     1
102
RTVSPropertyOp48
 70
     1
102
RTVSPropertyOp49
 70
     1
102
RTVSPropertyOp50
 70
     1
102
RTVSPropertyOp51
 70
     0
102
RTVSPropertyOp52
 70
     0
102
RTVSPropertyOp53
 70
     1
102
RTVSPropertyOp54
 70
     1
102
RTVSPropertyOp55
 70
     1
102
RTVSPropertyOp56
 70
     1
102
RTVSPropertyOp57
 70
     1
102
RTVSPropertyOp58
 70
     1
102
RTVSPropertyOp59
 70
     1
102
RTVSPropertyOp60
 70
     1
102
RTVSPropertyOp61
 70
     1
102
RTVSPropertyOp62
 70
     1
  0
XRECORD
  5
8502
102
{ACAD_REACTORS
330
8501
102
}
330
8501
100
AcDbXrecord
280
     1
102
RTVSPost2010Prop28
280
     0
102
RTVSPost2010PropOp28
 70
     1
102
RTVSPost2010Prop29
280
     1
102
RTVSPost2010PropOp29
 70
     1
102
RTVSPost2010Prop30
280
     1
102
RTVSPost2010PropOp30
 70
     1
102
RTVSPost2010Prop31
280
     0
102
RTVSPost2010PropOp31
 70
     1
102
RTVSPost2010Prop32
280
     0
102
RTVSPost2010PropOp32
 70
     1
102
RTVSPost2010Prop33
280
     0
102
RTVSPost2010PropOp33
 70
     1
102
RTVSPost2010Prop34
280
     0
102
RTVSPost2010PropOp34
 70
     1
102
RTVSPost2010Prop35
280
     0
102
RTVSPost2010PropOp35
 70
     1
102
RTVSPost2010Prop36
280
     0
102
RTVSPost2010PropOp36
 70
     1
102
RTVSPost2010Prop37
 90
       50
102
RTVSPost2010PropOp37
 70
     1
102
RTVSPost2010Prop38
140
0.0
102
RTVSPost2010PropOp38
 70
     1
102
RTVSPost2010Prop39
140
1.0
102
RTVSPost2010PropOp39
 70
     1
102
RTVSPost2010Prop40
 90
        0
102
RTVSPost2010PropOp40
 70
     1
102
RTVSPost2010Prop41ColorIndex
 90
       18
102
RTVSPost2010Prop41ColorRGB
 90
        0
102
RTVSPost2010PropOp41
 70
     1
102
RTVSPost2010Prop42
 90
       50
102
RTVSPost2010PropOp42
 70
     1
102
RTVSPost2010Prop43
 90
        3
102
RTVSPost2010PropOp43
 70
     1
102
RTVSPost2010Prop44ColorIndex
 90
        5
102
RTVSPost2010Prop44ColorRGB
 90
      255
102
RTVSPost2010PropOp44
 70
     1
102
RTVSPost2010Prop45
280
     0
102
RTVSPost2010PropOp45
 70
     1
102
RTVSPost2010Prop46
 90
       50
102
RTVSPost2010PropOp46
 70
     1
102
RTVSPost2010Prop47
 90
       50
102
RTVSPost2010PropOp47
 70
     1
102
RTVSPost2010Prop48
 90
       50
102
RTVSPost2010PropOp48
 70
     1
102
RTVSPost2010Prop49
280
     0
102
RTVSPost2010PropOp49
 70
     1
102
RTVSPost2010Prop50
 90
       50
102
RTVSPost2010PropOp50
 70
     1
102
RTVSPost2010Prop51ColorIndex
 90
      256
102
RTVSPost2010Prop51ColorRGB
 90
-16777216
102
RTVSPost2010PropOp51
 70
     0
102
RTVSPost2010Prop52
140
1.0
102
RTVSPost2010PropOp52
 70
     0
102
RTVSPost2010Prop53
 90
        2
102
RTVSPost2010PropOp53
 70
     1
102
RTVSPost2010Prop54
  1
strokes_ogs.tif
102
RTVSPost2010PropOp54
 70
     1
102
RTVSPost2010Prop55
280
     0
102
RTVSPost2010PropOp55
 70
     1
102
RTVSPost2010Prop56
140
1.0
102
RTVSPost2010PropOp56
 70
     1
102
RTVSPost2010Prop57
140
1.0
102
RTVSPost2010PropOp57
 70
     1
102
RTVSPropertyOp0
 70
     1
102
RTVSPropertyOp1
 70
     1
102
RTVSPropertyOp2
 70
     1
102
RTVSPropertyOp3
 70
     1
102
RTVSPropertyOp4
 70
     1
102
RTVSPropertyOp5
 70
     1
102
RTVSPropertyOp6
 70
     1
102
RTVSPropertyOp7
 70
     1
102
RTVSPropertyOp8
 70
     1
102
RTVSPropertyOp9
 70
     1
102
RTVSPropertyOp10
 70
     1
102
RTVSPropertyOp11
 70
     1
102
RTVSPropertyOp12
 70
     1
102
RTVSPropertyOp13
 70
     1
102
RTVSPropertyOp14
 70
     1
102
RTVSPropertyOp15
 70
     1
102
RTVSPropertyOp16
 70
     1
102
RTVSPropertyOp17
 70
     1
102
RTVSPropertyOp18
 70
     1
102
RTVSPropertyOp19
 70
     1
102
RTVSPropertyOp20
 70
     1
102
RTVSPropertyOp21
 70
     1
102
RTVSPropertyOp22
 70
     1
102
RTVSPropertyOp23
 70
     1
102
RTVSPropertyOp24
 70
     1
102
RTVSPropertyOp25
 70
     1
102
RTVSPropertyOp26
 70
     1
102
RTVSPropertyOp27
 70
     1
102
RTVSPropertyOp28
 70
     1
102
RTVSPropertyOp29
 70
     1
102
RTVSPropertyOp30
 70
     1
102
RTVSPropertyOp31
 70
     1
102
RTVSPropertyOp32
 70
     1
102
RTVSPropertyOp33
 70
     1
102
RTVSPropertyOp34
 70
     1
102
RTVSPropertyOp35
 70
     1
102
RTVSPropertyOp36
 70
     1
102
RTVSPropertyOp37
 70
     1
102
RTVSPropertyOp38
 70
     1
102
RTVSPropertyOp39
 70
     1
102
RTVSPropertyOp40
 70
     1
102
RTVSPropertyOp41
 70
     1
102
RTVSPropertyOp42
 70
     1
102
RTVSPropertyOp43
 70
     1
102
RTVSPropertyOp44
 70
     1
102
RTVSPropertyOp45
 70
     1
102
RTVSPropertyOp46
 70
     1
102
RTVSPropertyOp47
 70
     1
102
RTVSPropertyOp48
 70
     1
102
RTVSPropertyOp49
 70
     1
102
RTVSPropertyOp50
 70
     1
102
RTVSPropertyOp51
 70
     0
102
RTVSPropertyOp52
 70
     0
102
RTVSPropertyOp53
 70
     1
102
RTVSPropertyOp54
 70
     1
102
RTVSPropertyOp55
 70
     1
102
RTVSPropertyOp56
 70
     1
102
RTVSPropertyOp57
 70
     1
102
RTVSPropertyOp58
 70
     1
102
RTVSPropertyOp59
 70
     1
102
RTVSPropertyOp60
 70
     1
102
RTVSPropertyOp61
 70
     1
102
RTVSPropertyOp62
 70
     1
  0
XRECORD
  5
851A
102
{ACAD_REACTORS
330
8519
102
}
330
8519
100
AcDbXrecord
280
     1
102
RTVSPost2010Prop28
280
     0
102
RTVSPost2010PropOp28
 70
     1
102
RTVSPost2010Prop29
280
     1
102
RTVSPost2010PropOp29
 70
     1
102
RTVSPost2010Prop30
280
     1
102
RTVSPost2010PropOp30
 70
     1
102
RTVSPost2010Prop31
280
     0
102
RTVSPost2010PropOp31
 70
     1
102
RTVSPost2010Prop32
280
     0
102
RTVSPost2010PropOp32
 70
     1
102
RTVSPost2010Prop33
280
     0
102
RTVSPost2010PropOp33
 70
     1
102
RTVSPost2010Prop34
280
     0
102
RTVSPost2010PropOp34
 70
     1
102
RTVSPost2010Prop35
280
     0
102
RTVSPost2010PropOp35
 70
     1
102
RTVSPost2010Prop36
280
     0
102
RTVSPost2010PropOp36
 70
     1
102
RTVSPost2010Prop37
 90
       50
102
RTVSPost2010PropOp37
 70
     1
102
RTVSPost2010Prop38
140
0.0
102
RTVSPost2010PropOp38
 70
     1
102
RTVSPost2010Prop39
140
1.0
102
RTVSPost2010PropOp39
 70
     1
102
RTVSPost2010Prop40
 90
        0
102
RTVSPost2010PropOp40
 70
     1
102
RTVSPost2010Prop41ColorIndex
 90
       18
102
RTVSPost2010Prop41ColorRGB
 90
        0
102
RTVSPost2010PropOp41
 70
     1
102
RTVSPost2010Prop42
 90
       50
102
RTVSPost2010PropOp42
 70
     1
102
RTVSPost2010Prop43
 90
        3
102
RTVSPost2010PropOp43
 70
     1
102
RTVSPost2010Prop44ColorIndex
 90
        5
102
RTVSPost2010Prop44ColorRGB
 90
      255
102
RTVSPost2010PropOp44
 70
     1
102
RTVSPost2010Prop45
280
     0
102
RTVSPost2010PropOp45
 70
     1
102
RTVSPost2010Prop46
 90
       50
102
RTVSPost2010PropOp46
 70
     1
102
RTVSPost2010Prop47
 90
       50
102
RTVSPost2010PropOp47
 70
     1
102
RTVSPost2010Prop48
 90
       50
102
RTVSPost2010PropOp48
 70
     1
102
RTVSPost2010Prop49
280
     0
102
RTVSPost2010PropOp49
 70
     1
102
RTVSPost2010Prop50
 90
       50
102
RTVSPost2010PropOp50
 70
     1
102
RTVSPost2010Prop51ColorIndex
 90
      256
102
RTVSPost2010Prop51ColorRGB
 90
-16777216
102
RTVSPost2010PropOp51
 70
     0
102
RTVSPost2010Prop52
140
1.0
102
RTVSPost2010PropOp52
 70
     0
102
RTVSPost2010Prop53
 90
        2
102
RTVSPost2010PropOp53
 70
     1
102
RTVSPost2010Prop54
  1
strokes_ogs.tif
102
RTVSPost2010PropOp54
 70
     1
102
RTVSPost2010Prop55
280
     0
102
RTVSPost2010PropOp55
 70
     1
102
RTVSPost2010Prop56
140
1.0
102
RTVSPost2010PropOp56
 70
     1
102
RTVSPost2010Prop57
140
1.0
102
RTVSPost2010PropOp57
 70
     1
102
RTVSPropertyOp0
 70
     1
102
RTVSPropertyOp1
 70
     1
102
RTVSPropertyOp2
 70
     1
102
RTVSPropertyOp3
 70
     1
102
RTVSPropertyOp4
 70
     1
102
RTVSPropertyOp5
 70
     1
102
RTVSPropertyOp6
 70
     1
102
RTVSPropertyOp7
 70
     1
102
RTVSPropertyOp8
 70
     1
102
RTVSPropertyOp9
 70
     1
102
RTVSPropertyOp10
 70
     1
102
RTVSPropertyOp11
 70
     1
102
RTVSPropertyOp12
 70
     1
102
RTVSPropertyOp13
 70
     1
102
RTVSPropertyOp14
 70
     1
102
RTVSPropertyOp15
 70
     1
102
RTVSPropertyOp16
 70
     1
102
RTVSPropertyOp17
 70
     1
102
RTVSPropertyOp18
 70
     1
102
RTVSPropertyOp19
 70
     1
102
RTVSPropertyOp20
 70
     1
102
RTVSPropertyOp21
 70
     1
102
RTVSPropertyOp22
 70
     1
102
RTVSPropertyOp23
 70
     1
102
RTVSPropertyOp24
 70
     1
102
RTVSPropertyOp25
 70
     1
102
RTVSPropertyOp26
 70
     1
102
RTVSPropertyOp27
 70
     1
102
RTVSPropertyOp28
 70
     1
102
RTVSPropertyOp29
 70
     1
102
RTVSPropertyOp30
 70
     1
102
RTVSPropertyOp31
 70
     1
102
RTVSPropertyOp32
 70
     1
102
RTVSPropertyOp33
 70
     1
102
RTVSPropertyOp34
 70
     1
102
RTVSPropertyOp35
 70
     1
102
RTVSPropertyOp36
 70
     1
102
RTVSPropertyOp37
 70
     1
102
RTVSPropertyOp38
 70
     1
102
RTVSPropertyOp39
 70
     1
102
RTVSPropertyOp40
 70
     1
102
RTVSPropertyOp41
 70
     1
102
RTVSPropertyOp42
 70
     1
102
RTVSPropertyOp43
 70
     1
102
RTVSPropertyOp44
 70
     1
102
RTVSPropertyOp45
 70
     1
102
RTVSPropertyOp46
 70
     1
102
RTVSPropertyOp47
 70
     1
102
RTVSPropertyOp48
 70
     1
102
RTVSPropertyOp49
 70
     1
102
RTVSPropertyOp50
 70
     1
102
RTVSPropertyOp51
 70
     0
102
RTVSPropertyOp52
 70
     0
102
RTVSPropertyOp53
 70
     1
102
RTVSPropertyOp54
 70
     1
102
RTVSPropertyOp55
 70
     1
102
RTVSPropertyOp56
 70
     1
102
RTVSPropertyOp57
 70
     1
102
RTVSPropertyOp58
 70
     1
102
RTVSPropertyOp59
 70
     1
102
RTVSPropertyOp60
 70
     1
102
RTVSPropertyOp61
 70
     1
102
RTVSPropertyOp62
 70
     1
  0
ENDSEC
  0
EOF
