  0
SECTION
  2
HEADER
  9
$ACADVER
  1
AC1015
  9
$ACADMAINTVER
 70
    20
  9
$DWGCODEPAGE
  3
ANSI_932
  9
$INSBASE
 10
0.0
 20
0.0
 30
0.0
  9
$EXTMIN
 10
-0.1922460740788665
 20
-0.2700599612071528
 30
-0.0015258207003583
  9
$EXTMAX
 10
6300.192275410744
 20
8850.270101172235
 30
0.0000000349246037
  9
$LIMMIN
 10
0.0
 20
0.0
  9
$LIMMAX
 10
297.0
 20
210.0
  9
$ORTHOMODE
 70
     1
  9
$REGENMODE
 70
     1
  9
$FILLMODE
 70
     0
  9
$QTEXTMODE
 70
     0
  9
$MIRRTEXT
 70
     1
  9
$LTSCALE
 40
100.0
  9
$ATTMODE
 70
     1
  9
$TEXTSIZE
 40
180.0
  9
$TRACEWID
 40
0.05
  9
$TEXTSTYLE
  7
STANDARD
  9
$CLAYER
  8
3
  9
$CELTYPE
  6
ByLayer
  9
$CECOLOR
 62
   256
  9
$CELTSCALE
 40
1.0
  9
$DISPSILH
 70
     0
  9
$DIMSCALE
 40
30.0
  9
$DIMASZ
 40
2.0
  9
$DIMEXO
 40
1.0
  9
$DIMDLI
 40
10.0
  9
$DIMRND
 40
0.0
  9
$DIMDLE
 40
0.0
  9
$DIMEXE
 40
1.0
  9
$DIMTP
 40
1.0
  9
$DIMTM
 40
1.0
  9
$DIMTXT
 40
3.0
  9
$DIMCEN
 40
0.0
  9
$DIMTSZ
 40
0.0
  9
$DIMTOL
 70
     0
  9
$DIMLIM
 70
     0
  9
$DIMTIH
 70
     0
  9
$DIMTOH
 70
     0
  9
$DIMSE1
 70
     0
  9
$DIMSE2
 70
     0
  9
$DIMTAD
 70
     1
  9
$DIMZIN
 70
     8
  9
$DIMBLK
  1

  9
$DIMASO
 70
     1
  9
$DIMSHO
 70
     1
  9
$DIMPOST
  1

  9
$DIMAPOST
  1

  9
$DIMALT
 70
     0
  9
$DIMALTD
 70
     2
  9
$DIMALTF
 40
0.039
  9
$DIMLFAC
 40
1.0
  9
$DIMTOFL
 70
     1
  9
$DIMTVP
 40
0.0
  9
$DIMTIX
 70
     0
  9
$DIMSOXD
 70
     0
  9
$DIMSAH
 70
     1
  9
$DIMBLK1
  1
OPEN
  9
$DIMBLK2
  1
OPEN
  9
$DIMSTYLE
  2
IGA
  9
$DIMCLRD
 70
     0
  9
$DIMCLRE
 70
     0
  9
$DIMCLRT
 70
     0
  9
$DIMTFAC
 40
10.0
  9
$DIMGAP
 40
1.0
  9
$DIMJUST
 70
     0
  9
$DIMSD1
 70
     0
  9
$DIMSD2
 70
     0
  9
$DIMTOLJ
 70
     1
  9
$DIMTZIN
 70
     0
  9
$DIMALTZ
 70
     0
  9
$DIMALTTZ
 70
     0
  9
$DIMUPT
 70
     0
  9
$DIMDEC
 70
     4
  9
$DIMTDEC
 70
     4
  9
$DIMALTU
 70
     2
  9
$DIMALTTD
 70
     2
  9
$DIMTXSTY
  7
STANDARD
  9
$DIMAUNIT
 70
     0
  9
$DIMADEC
 70
     0
  9
$DIMALTRND
 40
0.0
  9
$DIMAZIN
 70
     0
  9
$DIMDSEP
 70
    46
  9
$DIMATFIT
 70
     3
  9
$DIMFRAC
 70
     0
  9
$DIMLDRBLK
  1
OPEN
  9
$DIMLUNIT
 70
     2
  9
$DIMLWD
 70
    -2
  9
$DIMLWE
 70
    -2
  9
$DIMTMOVE
 70
     0
  9
$LUNITS
 70
     2
  9
$LUPREC
 70
     3
  9
$SKETCHINC
 40
0.1
  9
$FILLETRAD
 40
50.0
  9
$AUNITS
 70
     0
  9
$AUPREC
 70
     0
  9
$MENU
  1
acad
  9
$ELEVATION
 40
0.0
  9
$PELEVATION
 40
0.0
  9
$THICKNESS
 40
0.0
  9
$LIMCHECK
 70
     0
  9
$CHAMFERA
 40
0.5
  9
$CHAMFERB
 40
0.5
  9
$CHAMFERC
 40
0.0
  9
$CHAMFERD
 40
0.0
  9
$SKPOLY
 70
     0
  9
$TDCREATE
 40
2451389.487709028
  9
$TDUCREATE
 40
2451389.112709028
  9
$TDUPDATE
 40
2460269.600006123
  9
$TDUUPDATE
 40
2460269.225006123
  9
$TDINDWG
 40
0.0170363079
  9
$TDUSRTIMER
 40
0.0170360417
  9
$USRTIMER
 70
     1
  9
$ANGBASE
 50
0.0
  9
$ANGDIR
 70
     0
  9
$PDMODE
 70
     0
  9
$PDSIZE
 40
0.0
  9
$PLINEWID
 40
0.0
  9
$SPLFRAME
 70
     0
  9
$SPLINETYPE
 70
     6
  9
$SPLINESEGS
 70
     8
  9
$HANDSEED
  5
8656
  9
$SURFTAB1
 70
     6
  9
$SURFTAB2
 70
     6
  9
$SURFTYPE
 70
     6
  9
$SURFU
 70
     6
  9
$SURFV
 70
     6
  9
$UCSBASE
  2

  9
$UCSNAME
  2

  9
$UCSORG
 10
0.0
 20
0.0
 30
0.0
  9
$UCSXDIR
 10
1.0
 20
0.0
 30
0.0
  9
$UCSYDIR
 10
0.0
 20
1.0
 30
0.0
  9
$UCSORTHOREF
  2

  9
$UCSORTHOVIEW
 70
     0
  9
$UCSORGTOP
 10
0.0
 20
0.0
 30
0.0
  9
$UCSORGBOTTOM
 10
0.0
 20
0.0
 30
0.0
  9
$UCSORGLEFT
 10
0.0
 20
0.0
 30
0.0
  9
$UCSORGRIGHT
 10
0.0
 20
0.0
 30
0.0
  9
$UCSORGFRONT
 10
0.0
 20
0.0
 30
0.0
  9
$UCSORGBACK
 10
0.0
 20
0.0
 30
0.0
  9
$PUCSBASE
  2

  9
$PUCSNAME
  2

  9
$PUCSORG
 10
0.0
 20
0.0
 30
0.0
  9
$PUCSXDIR
 10
1.0
 20
0.0
 30
0.0
  9
$PUCSYDIR
 10
0.0
 20
1.0
 30
0.0
  9
$PUCSORTHOREF
  2

  9
$PUCSORTHOVIEW
 70
     0
  9
$PUCSORGTOP
 10
0.0
 20
0.0
 30
0.0
  9
$PUCSORGBOTTOM
 10
0.0
 20
0.0
 30
0.0
  9
$PUCSORGLEFT
 10
0.0
 20
0.0
 30
0.0
  9
$PUCSORGRIGHT
 10
0.0
 20
0.0
 30
0.0
  9
$PUCSORGFRONT
 10
0.0
 20
0.0
 30
0.0
  9
$PUCSORGBACK
 10
0.0
 20
0.0
 30
0.0
  9
$USERI1
 70
     0
  9
$USERI2
 70
     0
  9
$USERI3
 70
     0
  9
$USERI4
 70
     0
  9
$USERI5
 70
     0
  9
$USERR1
 40
0.0
  9
$USERR2
 40
0.0
  9
$USERR3
 40
0.0
  9
$USERR4
 40
0.0
  9
$USERR5
 40
0.0
  9
$WORLDVIEW
 70
     1
  9
$SHADEDGE
 70
     3
  9
$SHADEDIF
 70
    70
  9
$TILEMODE
 70
     1
  9
$MAXACTVP
 70
    16
  9
$PINSBASE
 10
0.0
 20
0.0
 30
0.0
  9
$PLIMCHECK
 70
     0
  9
$PEXTMIN
 10
1.000000000000000E+20
 20
1.000000000000000E+20
 30
1.000000000000000E+20
  9
$PEXTMAX
 10
-1.000000000000000E+20
 20
-1.000000000000000E+20
 30
-1.000000000000000E+20
  9
$PLIMMIN
 10
0.0
 20
0.0
  9
$PLIMMAX
 10
12.0
 20
9.0
  9
$UNITMODE
 70
     0
  9
$VISRETAIN
 70
     0
  9
$PLINEGEN
 70
     0
  9
$PSLTSCALE
 70
     1
  9
$TREEDEPTH
 70
  3020
  9
$CMLSTYLE
  2
Standard
  9
$CMLJUST
 70
     0
  9
$CMLSCALE
 40
1.0
  9
$PROXYGRAPHICS
 70
     1
  9
$MEASUREMENT
 70
     0
  9
$CELWEIGHT
370
    -1
  9
$ENDCAPS
280
     0
  9
$JOINSTYLE
280
     0
  9
$LWDISPLAY
290
     0
  9
$INSUNITS
 70
     0
  9
$HYPERLINKBASE
  1

  9
$STYLESHEET
  1

  9
$XEDIT
290
     1
  9
$CEPSNTYPE
380
     0
  9
$PSTYLEMODE
290
     1
  9
$FINGERPRINTGUID
  2
{4F877CEB-CA7E-4EE7-B8DB-2F77216F133C}
  9
$VERSIONGUID
  2
{2171CC92-D161-4125-BF50-509F3A84768A}
  9
$EXTNAMES
290
     1
  9
$PSVPSCALE
 40
0.0
  9
$OLESTARTUP
290
     0
  0
ENDSEC
  0
SECTION
  2
CLASSES
  0
CLASS
  1
ACDBDICTIONARYWDFLT
  2
AcDbDictionaryWithDefault
  3
ObjectDBX Classes
 90
        0
280
     0
281
     0
  0
CLASS
  1
MATERIAL
  2
AcDbMaterial
  3
ObjectDBX Classes
 90
     1153
280
     0
281
     0
  0
CLASS
  1
VISUALSTYLE
  2
AcDbVisualStyle
  3
ObjectDBX Classes
 90
     4095
280
     0
281
     0
  0
CLASS
  1
SCALE
  2
AcDbScale
  3
ObjectDBX Classes
 90
     1153
280
     0
281
     0
  0
CLASS
  1
TABLESTYLE
  2
AcDbTableStyle
  3
ObjectDBX Classes
 90
     4095
280
     0
281
     0
  0
CLASS
  1
MLEADERSTYLE
  2
AcDbMLeaderStyle
  3
ACDB_MLEADERSTYLE_CLASS
 90
     4095
280
     0
281
     0
  0
CLASS
  1
ACDBSECTIONVIEWSTYLE
  2
AcDbSectionViewStyle
  3
ObjectDBX Classes
 90
     1025
280
     0
281
     0
  0
CLASS
  1
ACDBDETAILVIEWSTYLE
  2
AcDbDetailViewStyle
  3
ObjectDBX Classes
 90
     1025
280
     0
281
     0
  0
CLASS
  1
SORTENTSTABLE
  2
AcDbSortentsTable
  3
ObjectDBX Classes
 90
        0
280
     0
281
     0
  0
CLASS
  1
DICTIONARYVAR
  2
AcDbDictionaryVar
  3
ObjectDBX Classes
 90
        0
280
     0
281
     0
  0
CLASS
  1
CELLSTYLEMAP
  2
AcDbCellStyleMap
  3
ObjectDBX Classes
 90
     1152
280
     0
281
     0
  0
CLASS
  1
ACDBPLACEHOLDER
  2
AcDbPlaceHolder
  3
ObjectDBX Classes
 90
        0
280
     0
281
     0
  0
CLASS
  1
LAYOUT
  2
AcDbLayout
  3
ObjectDBX Classes
 90
        0
280
     0
281
     0
  0
ENDSEC
  0
SECTION
  2
TABLES
  0
TABLE
  2
VPORT
  5
83EF
330
0
100
AcDbSymbolTable
 70
     1
  0
VPORT
  5
845B
330
83EF
100
AcDbSymbolTableRecord
100
AcDbViewportTableRecord
  2
*ACTIVE
 70
     0
 10
0.0
 20
0.0
 11
1.0
 21
1.0
 12
3150.000014668333
 22
4425.000020605514
 13
0.0
 23
0.0
 14
10.0
 24
10.0
 15
10.0
 25
10.0
 16
0.0
 26
0.0
 36
1.0
 17
0.0
 27
0.0
 37
0.0
 40
8907.213844128961
 41
2.050213675213675
 42
50.0
 43
0.0
 44
0.0
 50
0.0
 51
0.0
 71
     0
 72
   100
 73
     1
 74
     0
 75
     0
 76
     0
 77
     0
 78
     0
281
     0
 65
     1
110
0.0
120
0.0
130
0.0
111
1.0
121
0.0
131
0.0
112
0.0
122
1.0
132
0.0
 79
     0
146
0.0
1001
ACAD_NAV_VCDISPLAY
1070
     3
  0
ENDTAB
  0
TABLE
  2
LTYPE
  5
83EC
330
0
100
AcDbSymbolTable
 70
     3
  0
LTYPE
  5
8441
330
83EC
100
AcDbSymbolTableRecord
100
AcDbLinetypeTableRecord
  2
ByBlock
 70
     0
  3

 72
    65
 73
     0
 40
0.0
  0
LTYPE
  5
8442
330
83EC
100
AcDbSymbolTableRecord
100
AcDbLinetypeTableRecord
  2
ByLayer
 70
     0
  3

 72
    65
 73
     0
 40
0.0
  0
LTYPE
  5
8443
330
83EC
100
AcDbSymbolTableRecord
100
AcDbLinetypeTableRecord
  2
CONTINUOUS
 70
     0
  3
Solid line
 72
    65
 73
     0
 40
0.0
  0
LTYPE
  5
845C
330
83EC
100
AcDbSymbolTableRecord
100
AcDbLinetypeTableRecord
  2
CENTER
 70
     0
  3
____ _ ____ _ ____ _ ____ _ ____ _ ____ _ ____ 
 72
    65
 73
     4
 40
2.0
 49
1.25
 74
     0
 49
-0.25
 74
     0
 49
0.25
 74
     0
 49
-0.25
 74
     0
  0
ENDTAB
  0
TABLE
  2
LAYER
  5
83E9
330
0
100
AcDbSymbolTable
 70
     6
  0
LAYER
  5
843B
102
{ACAD_XDICTIONARY
360
8600
102
}
330
83E9
100
AcDbSymbolTableRecord
100
AcDbLayerTableRecord
  2
0
 70
     0
 62
     7
  6
CONTINUOUS
370
    -3
390
83F6
  0
LAYER
  5
845A
102
{ACAD_XDICTIONARY
360
8602
102
}
330
83E9
100
AcDbSymbolTableRecord
100
AcDbLayerTableRecord
  2
3
 70
     0
 62
     2
  6
CONTINUOUS
370
    -3
390
83F6
  0
LAYER
  5
845D
102
{ACAD_XDICTIONARY
360
8604
102
}
330
83E9
100
AcDbSymbolTableRecord
100
AcDbLayerTableRecord
  2
2
 70
     0
 62
     3
  6
CENTER
370
    -3
390
83F6
  0
LAYER
  5
845E
102
{ACAD_XDICTIONARY
360
8606
102
}
330
83E9
100
AcDbSymbolTableRecord
100
AcDbLayerTableRecord
  2
1
 70
     0
 62
     4
  6
CONTINUOUS
370
    -3
390
83F6
  0
LAYER
  5
845F
102
{ACAD_XDICTIONARY
360
8608
102
}
330
83E9
100
AcDbSymbolTableRecord
100
AcDbLayerTableRecord
  2
4
 70
     0
 62
     7
  6
CONTINUOUS
370
    -3
390
83F6
  0
LAYER
  5
8460
330
83E9
100
AcDbSymbolTableRecord
100
AcDbLayerTableRecord
  2
DEFPOINTS
 70
     0
 62
     7
  6
CONTINUOUS
290
     0
370
    -3
390
83F6
  0
ENDTAB
  0
TABLE
  2
STYLE
  5
83EA
330
0
100
AcDbSymbolTable
 70
     2
  0
STYLE
  5
843C
330
83EA
100
AcDbSymbolTableRecord
100
AcDbTextStyleTableRecord
  2
STANDARD
 70
     0
 40
0.0
 41
1.0
 50
0.0
 71
     0
 42
180.0
  3
simplex.shx
  4
extfont.shx
  0
STYLE
  5
8440
330
83EA
100
AcDbSymbolTableRecord
100
AcDbTextStyleTableRecord
  2
Annotative
 70
     0
 40
0.0
 41
1.0
 50
0.0
 71
     0
 42
0.2
  3
txt
  4

1001
AcadAnnotative
1000
AnnotativeData
1002
{
1070
     1
1070
     1
1002
}
  0
ENDTAB
  0
TABLE
  2
VIEW
  5
83ED
330
0
100
AcDbSymbolTable
 70
     0
  0
ENDTAB
  0
TABLE
  2
UCS
  5
83EE
330
0
100
AcDbSymbolTable
 70
     0
  0
ENDTAB
  0
TABLE
  2
APPID
  5
83F0
330
0
100
AcDbSymbolTable
 70
     8
  0
APPID
  5
843D
330
83F0
100
AcDbSymbolTableRecord
100
AcDbRegAppTableRecord
  2
ACAD
 70
     0
  0
APPID
  5
8444
330
83F0
100
AcDbSymbolTableRecord
100
AcDbRegAppTableRecord
  2
AcadAnnotative
 70
     0
  0
APPID
  5
84A1
330
83F0
100
AcDbSymbolTableRecord
100
AcDbRegAppTableRecord
  2
ACAD_DSTYLE_DIMJAG
 70
     0
  0
APPID
  5
84A2
330
83F0
100
AcDbSymbolTableRecord
100
AcDbRegAppTableRecord
  2
ACAD_DSTYLE_DIMTALN
 70
     0
  0
APPID
  5
84DB
330
83F0
100
AcDbSymbolTableRecord
100
AcDbRegAppTableRecord
  2
AcadAnnoMonitorAlertIconDisabled
 70
     0
  0
APPID
  5
84DC
330
83F0
100
AcDbSymbolTableRecord
100
AcDbRegAppTableRecord
  2
ACAD_EXEMPT_FROM_CAD_STANDARDS
 70
     0
  0
APPID
  5
8614
330
83F0
100
AcDbSymbolTableRecord
100
AcDbRegAppTableRecord
  2
ACAD_NAV_VCDISPLAY
 70
     0
  0
APPID
  5
864D
330
83F0
100
AcDbSymbolTableRecord
100
AcDbRegAppTableRecord
  2
ACAD_MLEADERVER
 70
     0
  0
ENDTAB
  0
TABLE
  2
DIMSTYLE
  5
83F1
330
0
100
AcDbSymbolTable
 70
     3
100
AcDbDimStyleTable
 71
     1
340
8461
  0
DIMSTYLE
105
843E
102
{ACAD_REACTORS
330
7D26
330
81F2
330
81FF
330
820C
330
8219
330
8228
330
8235
102
}
330
83F1
100
AcDbSymbolTableRecord
100
AcDbDimStyleTableRecord
  2
Standard
 70
     0
340
843C
  0
DIMSTYLE
105
843F
330
83F1
100
AcDbSymbolTableRecord
100
AcDbDimStyleTableRecord
  2
Annotative
 70
     0
340
843C
1001
AcadAnnotative
1000
AnnotativeData
1002
{
1070
     1
1070
     1
1002
}
  0
DIMSTYLE
105
8461
102
{ACAD_REACTORS
330
84A3
330
84B0
330
84BD
330
84CE
330
8545
330
8552
330
855F
330
8579
330
8586
330
8593
330
85A0
330
85AD
330
85BA
330
85C7
330
85D4
330
85EA
102
}
330
83F1
100
AcDbSymbolTableRecord
100
AcDbDimStyleTableRecord
  2
IGA
 70
     0
 40
2.0
 41
2.0
 42
0.5
 43
10.0
 44
1.0
 47
1.0
 48
1.0
 73
     0
 74
     0
 77
     1
 78
     8
140
3.0
141
0.0
143
0.03937
146
10.0
147
1.0
173
     1
271
     3
272
     3
279
     2
284
     8
285
     8
286
     8
340
843C
  0
ENDTAB
  0
TABLE
  2
BLOCK_RECORD
  5
83E8
330
0
100
AcDbSymbolTable
 70
    47
  0
BLOCK_RECORD
  5
8456
102
{ACAD_XDICTIONARY
360
84CB
102
}
330
83E8
100
AcDbSymbolTableRecord
100
AcDbBlockTableRecord
  2
*Model_Space
340
8459
  0
BLOCK_RECORD
  5
8452
330
83E8
100
AcDbSymbolTableRecord
100
AcDbBlockTableRecord
  2
*Paper_Space
340
8455
  0
BLOCK_RECORD
  5
8465
330
83E8
100
AcDbSymbolTableRecord
100
AcDbBlockTableRecord
  2
$MODEL_SPACE
340
0
  0
BLOCK_RECORD
  5
8467
330
83E8
100
AcDbSymbolTableRecord
100
AcDbBlockTableRecord
  2
$PAPER_SPACE
340
0
  0
BLOCK_RECORD
  5
8469
330
83E8
100
AcDbSymbolTableRecord
100
AcDbBlockTableRecord
  2
_OPEN
340
0
102
{BLKREFS
331
83B0
331
83B1
331
83B9
331
83BA
331
83C2
331
83C3
331
85B4
331
85B5
331
85C1
331
85C2
331
85DB
331
85DC
331
85E4
331
85E5
331
85FA
331
85FB
331
83CE
331
8559
331
855A
331
8566
331
8567
331
8573
331
8574
331
8580
331
8581
331
858D
331
858E
331
859A
331
859B
331
85A7
331
85A8
331
833B
331
833C
331
8344
331
8345
331
834D
331
834E
331
8356
331
8357
331
835F
331
8360
331
8368
331
8369
331
8371
331
8372
331
837A
331
837B
331
8383
331
8384
331
838C
331
838D
331
8395
331
8396
331
839E
331
839F
331
83A7
331
83A8
331
8529
331
852A
331
8532
331
8533
331
854C
331
854D
331
81EB
331
81EC
331
81F8
331
81F9
331
8205
331
8206
331
8212
331
8213
331
822E
331
822F
331
84EA
331
84EB
331
84AA
331
84AB
102
}
  0
BLOCK_RECORD
  5
846B
330
83E8
100
AcDbSymbolTableRecord
100
AcDbBlockTableRecord
  2
YA_N
340
0
102
{BLKREFS
331
7C3E
331
7C5C
331
7C5E
331
7CCB
102
}
  0
BLOCK_RECORD
  5
846D
330
83E8
100
AcDbSymbolTableRecord
100
AcDbBlockTableRecord
  2
*D4
340
0
  0
BLOCK_RECORD
  5
846F
330
83E8
100
AcDbSymbolTableRecord
100
AcDbBlockTableRecord
  2
*D5
340
0
  0
BLOCK_RECORD
  5
8471
330
83E8
100
AcDbSymbolTableRecord
100
AcDbBlockTableRecord
  2
*D6
340
0
  0
BLOCK_RECORD
  5
8473
330
83E8
100
AcDbSymbolTableRecord
100
AcDbBlockTableRecord
  2
*D7
340
0
  0
BLOCK_RECORD
  5
8475
330
83E8
100
AcDbSymbolTableRecord
100
AcDbBlockTableRecord
  2
*D8
340
0
  0
BLOCK_RECORD
  5
8477
330
83E8
100
AcDbSymbolTableRecord
100
AcDbBlockTableRecord
  2
*D9
340
0
  0
BLOCK_RECORD
  5
8479
330
83E8
100
AcDbSymbolTableRecord
100
AcDbBlockTableRecord
  2
*D10
340
0
  0
BLOCK_RECORD
  5
847B
330
83E8
100
AcDbSymbolTableRecord
100
AcDbBlockTableRecord
  2
*D11
340
0
  0
BLOCK_RECORD
  5
847D
330
83E8
100
AcDbSymbolTableRecord
100
AcDbBlockTableRecord
  2
*D12
340
0
  0
BLOCK_RECORD
  5
847F
330
83E8
100
AcDbSymbolTableRecord
100
AcDbBlockTableRecord
  2
*D13
340
0
  0
BLOCK_RECORD
  5
8481
330
83E8
100
AcDbSymbolTableRecord
100
AcDbBlockTableRecord
  2
*D14
340
0
  0
BLOCK_RECORD
  5
8483
330
83E8
100
AcDbSymbolTableRecord
100
AcDbBlockTableRecord
  2
*D15
340
0
  0
BLOCK_RECORD
  5
8485
330
83E8
100
AcDbSymbolTableRecord
100
AcDbBlockTableRecord
  2
*D16
340
0
  0
BLOCK_RECORD
  5
8487
330
83E8
100
AcDbSymbolTableRecord
100
AcDbBlockTableRecord
  2
*D17
340
0
  0
BLOCK_RECORD
  5
8489
330
83E8
100
AcDbSymbolTableRecord
100
AcDbBlockTableRecord
  2
*D18
340
0
  0
BLOCK_RECORD
  5
848B
330
83E8
100
AcDbSymbolTableRecord
100
AcDbBlockTableRecord
  2
*D19
340
0
  0
BLOCK_RECORD
  5
848D
330
83E8
100
AcDbSymbolTableRecord
100
AcDbBlockTableRecord
  2
*D20
340
0
  0
BLOCK_RECORD
  5
848F
330
83E8
100
AcDbSymbolTableRecord
100
AcDbBlockTableRecord
  2
_DOT
340
0
102
{BLKREFS
331
83CD
102
}
  0
BLOCK_RECORD
  5
8491
330
83E8
100
AcDbSymbolTableRecord
100
AcDbBlockTableRecord
  2
*D22
340
0
  0
BLOCK_RECORD
  5
8493
330
83E8
100
AcDbSymbolTableRecord
100
AcDbBlockTableRecord
  2
*D23
340
0
  0
BLOCK_RECORD
  5
8495
330
83E8
100
AcDbSymbolTableRecord
100
AcDbBlockTableRecord
  2
*D24
340
0
  0
BLOCK_RECORD
  5
8497
330
83E8
100
AcDbSymbolTableRecord
100
AcDbBlockTableRecord
  2
*D25
340
0
  0
BLOCK_RECORD
  5
8499
330
83E8
100
AcDbSymbolTableRecord
100
AcDbBlockTableRecord
  2
_NONE
340
0
  0
BLOCK_RECORD
  5
849B
330
83E8
100
AcDbSymbolTableRecord
100
AcDbBlockTableRecord
  2
*D27
340
0
  0
BLOCK_RECORD
  5
849D
330
83E8
100
AcDbSymbolTableRecord
100
AcDbBlockTableRecord
  2
*D28
340
0
  0
BLOCK_RECORD
  5
84A4
330
83E8
100
AcDbSymbolTableRecord
100
AcDbBlockTableRecord
  2
*D29
340
0
  0
BLOCK_RECORD
  5
84B1
330
83E8
100
AcDbSymbolTableRecord
100
AcDbBlockTableRecord
  2
*D30
340
0
  0
BLOCK_RECORD
  5
84BE
330
83E8
100
AcDbSymbolTableRecord
100
AcDbBlockTableRecord
  2
*D31
340
0
  0
BLOCK_RECORD
  5
84CF
330
83E8
100
AcDbSymbolTableRecord
100
AcDbBlockTableRecord
  2
*D32
340
0
  0
BLOCK_RECORD
  5
8538
330
83E8
100
AcDbSymbolTableRecord
100
AcDbBlockTableRecord
  2
*D33
340
0
  0
BLOCK_RECORD
  5
8546
330
83E8
100
AcDbSymbolTableRecord
100
AcDbBlockTableRecord
  2
*D34
340
0
  0
BLOCK_RECORD
  5
8553
330
83E8
100
AcDbSymbolTableRecord
100
AcDbBlockTableRecord
  2
*D35
340
0
  0
BLOCK_RECORD
  5
8560
330
83E8
100
AcDbSymbolTableRecord
100
AcDbBlockTableRecord
  2
*D36
340
0
  0
BLOCK_RECORD
  5
856D
330
83E8
100
AcDbSymbolTableRecord
100
AcDbBlockTableRecord
  2
*D37
340
0
  0
BLOCK_RECORD
  5
857A
330
83E8
100
AcDbSymbolTableRecord
100
AcDbBlockTableRecord
  2
*D38
340
0
  0
BLOCK_RECORD
  5
8587
330
83E8
100
AcDbSymbolTableRecord
100
AcDbBlockTableRecord
  2
*D39
340
0
  0
BLOCK_RECORD
  5
8594
330
83E8
100
AcDbSymbolTableRecord
100
AcDbBlockTableRecord
  2
*D40
340
0
  0
BLOCK_RECORD
  5
85A1
330
83E8
100
AcDbSymbolTableRecord
100
AcDbBlockTableRecord
  2
*D41
340
0
  0
BLOCK_RECORD
  5
85AE
330
83E8
100
AcDbSymbolTableRecord
100
AcDbBlockTableRecord
  2
*D42
340
0
  0
BLOCK_RECORD
  5
85BB
330
83E8
100
AcDbSymbolTableRecord
100
AcDbBlockTableRecord
  2
*D43
340
0
  0
BLOCK_RECORD
  5
85C8
330
83E8
100
AcDbSymbolTableRecord
100
AcDbBlockTableRecord
  2
*D44
340
0
  0
BLOCK_RECORD
  5
85D5
330
83E8
100
AcDbSymbolTableRecord
100
AcDbBlockTableRecord
  2
*D45
340
0
  0
BLOCK_RECORD
  5
85EB
330
83E8
100
AcDbSymbolTableRecord
100
AcDbBlockTableRecord
  2
*D46
340
0
  0
ENDTAB
  0
ENDSEC
  0
SECTION
  2
BLOCKS
  0
BLOCK
  5
8457
330
8456
100
AcDbEntity
  8
0
100
AcDbBlockBegin
  2
*Model_Space
 70
     0
 10
0.0
 20
0.0
 30
0.0
  3
*Model_Space
  1

  0
ENDBLK
  5
8458
330
8456
100
AcDbEntity
  8
0
100
AcDbBlockEnd
  0
BLOCK
  5
8453
330
8452
100
AcDbEntity
 67
     1
  8
0
100
AcDbBlockBegin
  2
*Paper_Space
 70
     0
 10
0.0
 20
0.0
 30
0.0
  3
*Paper_Space
  1

  0
ENDBLK
  5
8454
330
8452
100
AcDbEntity
 67
     1
  8
0
100
AcDbBlockEnd
  0
BLOCK
  5
8466
330
8465
100
AcDbEntity
  8
0
100
AcDbBlockBegin
  2
$MODEL_SPACE
 70
     0
 10
0.0
 20
0.0
 30
0.0
  3
$MODEL_SPACE
  1

  0
ENDBLK
  5
1B
330
8465
100
AcDbEntity
  8
0
100
AcDbBlockEnd
  0
BLOCK
  5
8468
330
8467
100
AcDbEntity
  8
0
100
AcDbBlockBegin
  2
$PAPER_SPACE
 70
     0
 10
0.0
 20
0.0
 30
0.0
  3
$PAPER_SPACE
  1

  0
ENDBLK
  5
18
330
8467
100
AcDbEntity
  8
0
100
AcDbBlockEnd
  0
BLOCK
  5
846A
330
8469
100
AcDbEntity
  8
0
100
AcDbBlockBegin
  2
_OPEN
 70
     0
 10
0.0
 20
0.0
 30
0.0
  3
_OPEN
  1

  0
LINE
  5
79FD
330
8469
100
AcDbEntity
  8
0
  6
ByBlock
 62
     0
100
AcDbLine
 10
-1.0
 20
0.1666666666666666
 30
0.0
 11
0.0
 21
0.0
 31
0.0
  0
LINE
  5
79FE
330
8469
100
AcDbEntity
  8
0
  6
ByBlock
 62
     0
100
AcDbLine
 10
0.0
 20
0.0
 30
0.0
 11
-1.0
 21
-0.1666666666666666
 31
0.0
  0
LINE
  5
79FF
330
8469
100
AcDbEntity
  8
0
  6
ByBlock
 62
     0
100
AcDbLine
 10
0.0
 20
0.0
 30
0.0
 11
-1.0
 21
0.0
 31
0.0
  0
ENDBLK
  5
7A01
330
8469
100
AcDbEntity
  8
0
100
AcDbBlockEnd
  0
BLOCK
  5
846C
330
846B
100
AcDbEntity
  8
0
100
AcDbBlockBegin
  2
YA_N
 70
     0
 10
0.0
 20
0.0
 30
0.0
  3
YA_N
  1

  0
ENDBLK
  5
7A0C
330
846B
100
AcDbEntity
  8
0
100
AcDbBlockEnd
  0
BLOCK
  5
846E
330
846D
100
AcDbEntity
  8
0
100
AcDbBlockBegin
  2
*D4
 70
     1
 10
0.0
 20
0.0
 30
0.0
  3
*D4
  1

  0
LINE
  5
8338
330
846D
100
AcDbEntity
  8
3
 62
     0
100
AcDbLine
 10
1482.933136459589
 20
2334.233310273386
 30
0.0
 11
1318.318028016377
 21
2334.233310273386
 31
0.0
  0
LINE
  5
8339
330
846D
100
AcDbEntity
  8
3
 62
     0
100
AcDbLine
 10
1482.933136459589
 20
3259.233310273387
 30
0.0
 11
1318.318028016377
 21
3259.233310273387
 31
0.0
  0
LINE
  5
833A
330
846D
100
AcDbEntity
  8
3
 62
     0
100
AcDbLine
 10
1348.318028016377
 20
2394.233310273386
 30
0.0
 11
1348.318028016378
 21
3199.233310273387
 31
0.0
  0
INSERT
  5
833B
330
846D
100
AcDbEntity
  8
3
 62
     0
100
AcDbBlockReference
  2
_OPEN
 10
1348.318028016377
 20
2334.233310273386
 30
0.0
 41
60.0
 42
60.0
 43
60.0
 50
270.0
  0
INSERT
  5
833C
330
846D
100
AcDbEntity
  8
3
 62
     0
100
AcDbBlockReference
  2
_OPEN
 10
1348.318028016378
 20
3259.233310273387
 30
0.0
 41
60.0
 42
60.0
 43
60.0
 50
90.0
  0
TEXT
  5
83D6
330
846D
100
AcDbEntity
  8
3
 62
     0
100
AcDbText
 10
1093.32
 20
2637.43
 30
0.0
 40
90.0
  1
925
100
AcDbText
  0
POINT
  5
833E
330
846D
100
AcDbEntity
  8
DEFPOINTS
 62
     0
100
AcDbPoint
 10
1497.933136459589
 20
2334.233310273386
 30
0.0
  0
POINT
  5
833F
330
846D
100
AcDbEntity
  8
DEFPOINTS
 62
     0
100
AcDbPoint
 10
1497.933136459589
 20
3259.233310273387
 30
0.0
  0
POINT
  5
8340
330
846D
100
AcDbEntity
  8
DEFPOINTS
 62
     0
100
AcDbPoint
 10
1348.318028016378
 20
3259.233310273387
 30
0.0
  0
ENDBLK
  5
819C
330
846D
100
AcDbEntity
  8
0
100
AcDbBlockEnd
  0
BLOCK
  5
8470
330
846F
100
AcDbEntity
  8
0
100
AcDbBlockBegin
  2
*D5
 70
     1
 10
0.0
 20
0.0
 30
0.0
  3
*D5
  1

  0
LINE
  5
8341
330
846F
100
AcDbEntity
  8
3
 62
     0
100
AcDbLine
 10
1482.933136459589
 20
2334.233310273386
 30
0.0
 11
1167.974727918515
 21
2334.233310273386
 31
0.0
  0
LINE
  5
8342
330
846F
100
AcDbEntity
  8
3
 62
     0
100
AcDbLine
 10
1446.677797681042
 20
3295.233310273387
 30
0.0
 11
1167.974727918515
 21
3295.233310273387
 31
0.0
  0
LINE
  5
8343
330
846F
100
AcDbEntity
  8
3
 62
     0
100
AcDbLine
 10
1197.974727918515
 20
2394.233310273386
 30
0.0
 11
1197.974727918515
 21
3235.233310273387
 31
0.0
  0
INSERT
  5
8344
330
846F
100
AcDbEntity
  8
3
 62
     0
100
AcDbBlockReference
  2
_OPEN
 10
1197.974727918515
 20
2334.233310273386
 30
0.0
 41
60.0
 42
60.0
 43
60.0
 50
270.0
  0
INSERT
  5
8345
330
846F
100
AcDbEntity
  8
3
 62
     0
100
AcDbBlockReference
  2
_OPEN
 10
1197.974727918515
 20
3295.233310273387
 30
0.0
 41
60.0
 42
60.0
 43
60.0
 50
90.0
  0
TEXT
  5
83D7
330
846F
100
AcDbEntity
  8
3
 62
     0
100
AcDbText
 10
942.975
 20
2655.43
 30
0.0
 40
90.0
  1
961
100
AcDbText
  0
POINT
  5
8347
330
846F
100
AcDbEntity
  8
DEFPOINTS
 62
     0
100
AcDbPoint
 10
1497.933136459589
 20
2334.233310273386
 30
0.0
  0
POINT
  5
8348
330
846F
100
AcDbEntity
  8
DEFPOINTS
 62
     0
100
AcDbPoint
 10
1461.677797681042
 20
3295.233310273387
 30
0.0
  0
POINT
  5
8349
330
846F
100
AcDbEntity
  8
DEFPOINTS
 62
     0
100
AcDbPoint
 10
1197.974727918515
 20
3295.233310273387
 30
0.0
  0
ENDBLK
  5
8191
330
846F
100
AcDbEntity
  8
0
100
AcDbBlockEnd
  0
BLOCK
  5
8472
330
8471
100
AcDbEntity
  8
0
100
AcDbBlockBegin
  2
*D6
 70
     1
 10
0.0
 20
0.0
 30
0.0
  3
*D6
  1

  0
LINE
  5
834A
330
8471
100
AcDbEntity
  8
3
 62
     0
100
AcDbLine
 10
4540.45196027847
 20
3922.691894488695
 30
0.0
 11
4540.45196027847
 21
4161.425263807013
 31
0.0
  0
LINE
  5
834B
330
8471
100
AcDbEntity
  8
3
 62
     0
100
AcDbLine
 10
5660.451960278471
 20
3925.735287826423
 30
0.0
 11
5660.451960278471
 21
4161.425263807013
 31
0.0
  0
LINE
  5
834C
330
8471
100
AcDbEntity
  8
3
 62
     0
100
AcDbLine
 10
4600.451960278469
 20
4131.425263807012
 30
0.0
 11
5600.451960278469
 21
4131.425263807012
 31
0.0
  0
INSERT
  5
834D
330
8471
100
AcDbEntity
  8
3
 62
     0
100
AcDbBlockReference
  2
_OPEN
 10
4540.45196027847
 20
4131.425263807012
 30
0.0
 41
60.0
 42
60.0
 43
60.0
 50
180.0
  0
INSERT
  5
834E
330
8471
100
AcDbEntity
  8
3
 62
     0
100
AcDbBlockReference
  2
_OPEN
 10
5660.451960278471
 20
4131.425263807012
 30
0.0
 41
60.0
 42
60.0
 43
60.0
  0
TEXT
  5
83D8
330
8471
100
AcDbEntity
  8
3
 62
     0
100
AcDbText
 10
4920.449999999999
 20
4047.13
 30
0.0
 40
90.0
  1
1120
100
AcDbText
  0
POINT
  5
8350
330
8471
100
AcDbEntity
  8
DEFPOINTS
 62
     0
100
AcDbPoint
 10
4540.45196027847
 20
3907.691894488694
 30
0.0
  0
POINT
  5
8351
330
8471
100
AcDbEntity
  8
DEFPOINTS
 62
     0
100
AcDbPoint
 10
5660.451960278471
 20
3910.735287826422
 30
0.0
  0
POINT
  5
8352
330
8471
100
AcDbEntity
  8
DEFPOINTS
 62
     0
100
AcDbPoint
 10
5660.451960278471
 20
4131.425263807012
 30
0.0
  0
ENDBLK
  5
815A
330
8471
100
AcDbEntity
  8
0
100
AcDbBlockEnd
  0
BLOCK
  5
8474
330
8473
100
AcDbEntity
  8
0
100
AcDbBlockBegin
  2
*D7
 70
     1
 10
0.0
 20
0.0
 30
0.0
  3
*D7
  1

  0
LINE
  5
8353
330
8473
100
AcDbEntity
  8
3
 62
     0
100
AcDbLine
 10
4202.451960278468
 20
3590.233310273386
 30
0.0
 11
4202.451960278468
 21
4360.687899330344
 31
0.0
  0
LINE
  5
8354
330
8473
100
AcDbEntity
  8
3
 62
     0
100
AcDbLine
 10
5100.451960278469
 20
4328.040459509711
 30
0.0
 11
5100.451960278469
 21
4360.687899330344
 31
0.0
  0
LINE
  5
8355
330
8473
100
AcDbEntity
  8
3
 62
     0
100
AcDbLine
 10
4262.451960278466
 20
4330.687899330344
 30
0.0
 11
5040.45196027847
 21
4330.687899330344
 31
0.0
  0
INSERT
  5
8356
330
8473
100
AcDbEntity
  8
3
 62
     0
100
AcDbBlockReference
  2
_OPEN
 10
4202.451960278468
 20
4330.687899330344
 30
0.0
 41
60.0
 42
60.0
 43
60.0
 50
180.0
  0
INSERT
  5
8357
330
8473
100
AcDbEntity
  8
3
 62
     0
100
AcDbBlockReference
  2
_OPEN
 10
5100.451960278469
 20
4330.687899330344
 30
0.0
 41
60.0
 42
60.0
 43
60.0
  0
TEXT
  5
83D9
330
8473
100
AcDbEntity
  8
3
 62
     0
100
AcDbText
 10
4471.449999999999
 20
4321.39
 30
0.0
 40
90.0
  1
MAX
100
AcDbText
  0
TEXT
  5
83DA
330
8473
100
AcDbEntity
  8
3
 62
     0
100
AcDbText
 10
4471.449999999999
 20
4204.39
 30
0.0
 40
90.0
  1
920
100
AcDbText
  0
POINT
  5
8359
330
8473
100
AcDbEntity
  8
DEFPOINTS
 62
     0
100
AcDbPoint
 10
4202.451960278468
 20
3575.233310273386
 30
0.0
  0
POINT
  5
835A
330
8473
100
AcDbEntity
  8
DEFPOINTS
 62
     0
100
AcDbPoint
 10
5100.451960278469
 20
4313.040459509712
 30
0.0
  0
POINT
  5
835B
330
8473
100
AcDbEntity
  8
DEFPOINTS
 62
     0
100
AcDbPoint
 10
5100.451960278469
 20
4330.687899330344
 30
0.0
  0
ENDBLK
  5
814F
330
8473
100
AcDbEntity
  8
0
100
AcDbBlockEnd
  0
BLOCK
  5
8476
330
8475
100
AcDbEntity
  8
0
100
AcDbBlockBegin
  2
*D8
 70
     1
 10
0.0
 20
0.0
 30
0.0
  3
*D8
  1

  0
LINE
  5
835C
330
8475
100
AcDbEntity
  8
3
 62
     0
100
AcDbLine
 10
5100.451960278469
 20
4262.241863128489
 30
0.0
 11
5100.451960278469
 21
4360.687899330344
 31
0.0
  0
LINE
  5
835D
330
8475
100
AcDbEntity
  8
3
 62
     0
100
AcDbLine
 10
5769.951960278469
 20
3270.733310273386
 30
0.0
 11
5769.951960278469
 21
4360.687899330344
 31
0.0
  0
LINE
  5
835E
330
8475
100
AcDbEntity
  8
3
 62
     0
100
AcDbLine
 10
5160.45196027847
 20
4330.687899330344
 30
0.0
 11
5709.95196027847
 21
4330.687899330344
 31
0.0
  0
INSERT
  5
835F
330
8475
100
AcDbEntity
  8
3
 62
     0
100
AcDbBlockReference
  2
_OPEN
 10
5100.451960278469
 20
4330.687899330344
 30
0.0
 41
60.0
 42
60.0
 43
60.0
 50
180.0
  0
INSERT
  5
8360
330
8475
100
AcDbEntity
  8
3
 62
     0
100
AcDbBlockReference
  2
_OPEN
 10
5769.951960278469
 20
4330.687899330344
 30
0.0
 41
60.0
 42
60.0
 43
60.0
  0
TEXT
  5
83DB
330
8475
100
AcDbEntity
  8
3
 62
     0
100
AcDbText
 10
5255.2
 20
4269.96
 30
0.0
 40
90.0
  1
(680)
100
AcDbText
  0
POINT
  5
8362
330
8475
100
AcDbEntity
  8
DEFPOINTS
 62
     0
100
AcDbPoint
 10
5100.451960278469
 20
4247.241863128489
 30
0.0
  0
POINT
  5
8363
330
8475
100
AcDbEntity
  8
DEFPOINTS
 62
     0
100
AcDbPoint
 10
5769.951960278469
 20
3255.733310273387
 30
0.0
  0
POINT
  5
8364
330
8475
100
AcDbEntity
  8
DEFPOINTS
 62
     0
100
AcDbPoint
 10
5769.951960278469
 20
4330.687899330344
 30
0.0
  0
ENDBLK
  5
8144
330
8475
100
AcDbEntity
  8
0
100
AcDbBlockEnd
  0
BLOCK
  5
8478
330
8477
100
AcDbEntity
  8
0
100
AcDbBlockBegin
  2
*D9
 70
     1
 10
0.0
 20
0.0
 30
0.0
  3
*D9
  1

  0
LINE
  5
8365
330
8477
100
AcDbEntity
  8
3
 62
     0
100
AcDbLine
 10
3427.933136459587
 20
5878.314780538588
 30
0.0
 11
3427.933136459587
 21
6770.329439043807
 31
0.0
  0
LINE
  5
8366
330
8477
100
AcDbEntity
  8
3
 62
     0
100
AcDbLine
 10
2677.933136459587
 20
6453.314780538587
 30
0.0
 11
2677.933136459587
 21
6770.329439043807
 31
0.0
  0
LINE
  5
8367
330
8477
100
AcDbEntity
  8
3
 62
     0
100
AcDbLine
 10
3367.933136459587
 20
6740.329439043809
 30
0.0
 11
2737.933136459587
 21
6740.329439043809
 31
0.0
  0
INSERT
  5
8368
330
8477
100
AcDbEntity
  8
3
 62
     0
100
AcDbBlockReference
  2
_OPEN
 10
3427.933136459587
 20
6740.329439043809
 30
0.0
 41
60.0
 42
60.0
 43
60.0
  0
INSERT
  5
8369
330
8477
100
AcDbEntity
  8
3
 62
     0
100
AcDbBlockReference
  2
_OPEN
 10
2677.933136459587
 20
6740.329439043809
 30
0.0
 41
60.0
 42
60.0
 43
60.0
 50
180.0
  0
TEXT
  5
83DC
330
8477
100
AcDbEntity
  8
3
 62
     0
100
AcDbText
 10
2872.93
 20
6656.03
 30
0.0
 40
90.0
  1
750
100
AcDbText
  0
POINT
  5
836B
330
8477
100
AcDbEntity
  8
DEFPOINTS
 62
     0
100
AcDbPoint
 10
3427.933136459587
 20
5863.314780538586
 30
0.0
  0
POINT
  5
836C
330
8477
100
AcDbEntity
  8
DEFPOINTS
 62
     0
100
AcDbPoint
 10
2677.933136459587
 20
6438.314780538586
 30
0.0
  0
POINT
  5
836D
330
8477
100
AcDbEntity
  8
DEFPOINTS
 62
     0
100
AcDbPoint
 10
2677.933136459587
 20
6740.329439043809
 30
0.0
  0
ENDBLK
  5
8139
330
8477
100
AcDbEntity
  8
0
100
AcDbBlockEnd
  0
BLOCK
  5
847A
330
8479
100
AcDbEntity
  8
0
100
AcDbBlockBegin
  2
*D10
 70
     1
 10
0.0
 20
0.0
 30
0.0
  3
*D10
  1

  0
LINE
  5
836E
330
8479
100
AcDbEntity
  8
3
 62
     0
100
AcDbLine
 10
2677.933136459587
 20
6453.314780538587
 30
0.0
 11
2677.933136459587
 21
6770.329439043807
 31
0.0
  0
LINE
  5
836F
330
8479
100
AcDbEntity
  8
3
 62
     0
100
AcDbLine
 10
1557.933136459588
 20
6453.314780538585
 30
0.0
 11
1557.933136459588
 21
6770.329439043807
 31
0.0
  0
LINE
  5
8370
330
8479
100
AcDbEntity
  8
3
 62
     0
100
AcDbLine
 10
2617.933136459587
 20
6740.329439043809
 30
0.0
 11
1617.933136459589
 21
6740.329439043809
 31
0.0
  0
INSERT
  5
8371
330
8479
100
AcDbEntity
  8
3
 62
     0
100
AcDbBlockReference
  2
_OPEN
 10
2677.933136459587
 20
6740.329439043809
 30
0.0
 41
60.0
 42
60.0
 43
60.0
  0
INSERT
  5
8372
330
8479
100
AcDbEntity
  8
3
 62
     0
100
AcDbBlockReference
  2
_OPEN
 10
1557.933136459588
 20
6740.329439043809
 30
0.0
 41
60.0
 42
60.0
 43
60.0
 50
180.0
  0
TEXT
  5
83DD
330
8479
100
AcDbEntity
  8
3
 62
     0
100
AcDbText
 10
1937.93
 20
6656.03
 30
0.0
 40
90.0
  1
1120
100
AcDbText
  0
POINT
  5
8374
330
8479
100
AcDbEntity
  8
DEFPOINTS
 62
     0
100
AcDbPoint
 10
2677.933136459587
 20
6438.314780538586
 30
0.0
  0
POINT
  5
8375
330
8479
100
AcDbEntity
  8
DEFPOINTS
 62
     0
100
AcDbPoint
 10
1557.933136459588
 20
6438.314780538584
 30
0.0
  0
POINT
  5
8376
330
8479
100
AcDbEntity
  8
DEFPOINTS
 62
     0
100
AcDbPoint
 10
1557.933136459588
 20
6740.329439043809
 30
0.0
  0
ENDBLK
  5
812E
330
8479
100
AcDbEntity
  8
0
100
AcDbBlockEnd
  0
BLOCK
  5
847C
330
847B
100
AcDbEntity
  8
0
100
AcDbBlockBegin
  2
*D11
 70
     1
 10
0.0
 20
0.0
 30
0.0
  3
*D11
  1

  0
LINE
  5
8377
330
847B
100
AcDbEntity
  8
3
 62
     0
100
AcDbLine
 10
1542.933136459589
 20
6438.314780538584
 30
0.0
 11
1227.508914293172
 21
6438.314780538584
 31
0.0
  0
LINE
  5
8378
330
847B
100
AcDbEntity
  8
3
 62
     0
100
AcDbLine
 10
1542.933136459587
 20
5063.314780538585
 30
0.0
 11
1227.508914293172
 21
5063.314780538585
 31
0.0
  0
LINE
  5
8379
330
847B
100
AcDbEntity
  8
3
 62
     0
100
AcDbLine
 10
1257.508914293172
 20
6378.314780538585
 30
0.0
 11
1257.508914293172
 21
5123.314780538585
 31
0.0
  0
INSERT
  5
837A
330
847B
100
AcDbEntity
  8
3
 62
     0
100
AcDbBlockReference
  2
_OPEN
 10
1257.508914293172
 20
6438.314780538584
 30
0.0
 41
60.0
 42
60.0
 43
60.0
 50
90.0
  0
INSERT
  5
837B
330
847B
100
AcDbEntity
  8
3
 62
     0
100
AcDbBlockReference
  2
_OPEN
 10
1257.508914293172
 20
5063.314780538585
 30
0.0
 41
60.0
 42
60.0
 43
60.0
 50
270.0
  0
TEXT
  5
83DE
330
847B
100
AcDbEntity
  8
3
 62
     0
100
AcDbText
 10
1002.51
 20
5591.51
 30
0.0
 40
90.0
  1
1375
100
AcDbText
  0
POINT
  5
837D
330
847B
100
AcDbEntity
  8
DEFPOINTS
 62
     0
100
AcDbPoint
 10
1557.933136459588
 20
6438.314780538584
 30
0.0
  0
POINT
  5
837E
330
847B
100
AcDbEntity
  8
DEFPOINTS
 62
     0
100
AcDbPoint
 10
1557.933136459587
 20
5063.314780538585
 30
0.0
  0
POINT
  5
837F
330
847B
100
AcDbEntity
  8
DEFPOINTS
 62
     0
100
AcDbPoint
 10
1257.508914293172
 20
5063.314780538585
 30
0.0
  0
ENDBLK
  5
8123
330
847B
100
AcDbEntity
  8
0
100
AcDbBlockEnd
  0
BLOCK
  5
847E
330
847D
100
AcDbEntity
  8
0
100
AcDbBlockBegin
  2
*D12
 70
     1
 10
0.0
 20
0.0
 30
0.0
  3
*D12
  1

  0
LINE
  5
8380
330
847D
100
AcDbEntity
  8
3
 62
     0
100
AcDbLine
 10
3427.933136459587
 20
5048.314780538586
 30
0.0
 11
3427.933136459587
 21
4726.167621056513
 31
0.0
  0
LINE
  5
8381
330
847D
100
AcDbEntity
  8
3
 62
     0
100
AcDbLine
 10
1557.933136459587
 20
5048.314780538586
 30
0.0
 11
1557.933136459587
 21
4726.167621056513
 31
0.0
  0
LINE
  5
8382
330
847D
100
AcDbEntity
  8
3
 62
     0
100
AcDbLine
 10
3367.933136459587
 20
4756.167621056513
 30
0.0
 11
1617.933136459587
 21
4756.167621056513
 31
0.0
  0
INSERT
  5
8383
330
847D
100
AcDbEntity
  8
3
 62
     0
100
AcDbBlockReference
  2
_OPEN
 10
3427.933136459587
 20
4756.167621056513
 30
0.0
 41
60.0
 42
60.0
 43
60.0
  0
INSERT
  5
8384
330
847D
100
AcDbEntity
  8
3
 62
     0
100
AcDbBlockReference
  2
_OPEN
 10
1557.933136459587
 20
4756.167621056513
 30
0.0
 41
60.0
 42
60.0
 43
60.0
 50
180.0
  0
TEXT
  5
83DF
330
847D
100
AcDbEntity
  8
3
 62
     0
100
AcDbText
 10
2312.93
 20
4671.87
 30
0.0
 40
90.0
  1
1870
100
AcDbText
  0
POINT
  5
8386
330
847D
100
AcDbEntity
  8
DEFPOINTS
 62
     0
100
AcDbPoint
 10
3427.933136459587
 20
5063.314780538585
 30
0.0
  0
POINT
  5
8387
330
847D
100
AcDbEntity
  8
DEFPOINTS
 62
     0
100
AcDbPoint
 10
1557.933136459587
 20
5063.314780538585
 30
0.0
  0
POINT
  5
8388
330
847D
100
AcDbEntity
  8
DEFPOINTS
 62
     0
100
AcDbPoint
 10
1557.933136459587
 20
4756.167621056513
 30
0.0
  0
ENDBLK
  5
8118
330
847D
100
AcDbEntity
  8
0
100
AcDbBlockEnd
  0
BLOCK
  5
8480
330
847F
100
AcDbEntity
  8
0
100
AcDbBlockBegin
  2
*D13
 70
     1
 10
0.0
 20
0.0
 30
0.0
  3
*D13
  1

  0
LINE
  5
8389
330
847F
100
AcDbEntity
  8
3
 62
     0
100
AcDbLine
 10
3442.933136459587
 20
5863.314780538586
 30
0.0
 11
3758.673842846212
 21
5863.314780538586
 31
0.0
  0
LINE
  5
838A
330
847F
100
AcDbEntity
  8
3
 62
     0
100
AcDbLine
 10
3442.933136459587
 20
5063.314780538585
 30
0.0
 11
3758.673842846212
 21
5063.314780538585
 31
0.0
  0
LINE
  5
838B
330
847F
100
AcDbEntity
  8
3
 62
     0
100
AcDbLine
 10
3728.673842846212
 20
5803.314780538586
 30
0.0
 11
3728.673842846212
 21
5123.314780538585
 31
0.0
  0
INSERT
  5
838C
330
847F
100
AcDbEntity
  8
3
 62
     0
100
AcDbBlockReference
  2
_OPEN
 10
3728.673842846212
 20
5863.314780538586
 30
0.0
 41
60.0
 42
60.0
 43
60.0
 50
90.0
  0
INSERT
  5
838D
330
847F
100
AcDbEntity
  8
3
 62
     0
100
AcDbBlockReference
  2
_OPEN
 10
3728.673842846212
 20
5063.314780538585
 30
0.0
 41
60.0
 42
60.0
 43
60.0
 50
270.0
  0
TEXT
  5
83E0
330
847F
100
AcDbEntity
  8
3
 62
     0
100
AcDbText
 10
3473.67
 20
5304.01
 30
0.0
 40
90.0
  1
800
100
AcDbText
  0
POINT
  5
838F
330
847F
100
AcDbEntity
  8
DEFPOINTS
 62
     0
100
AcDbPoint
 10
3427.933136459587
 20
5863.314780538586
 30
0.0
  0
POINT
  5
8390
330
847F
100
AcDbEntity
  8
DEFPOINTS
 62
     0
100
AcDbPoint
 10
3427.933136459587
 20
5063.314780538585
 30
0.0
  0
POINT
  5
8391
330
847F
100
AcDbEntity
  8
DEFPOINTS
 62
     0
100
AcDbPoint
 10
3728.673842846212
 20
5063.314780538585
 30
0.0
  0
ENDBLK
  5
810D
330
847F
100
AcDbEntity
  8
0
100
AcDbBlockEnd
  0
BLOCK
  5
8482
330
8481
100
AcDbEntity
  8
0
100
AcDbBlockBegin
  2
*D14
 70
     1
 10
0.0
 20
0.0
 30
0.0
  3
*D14
  1

  0
LINE
  5
8392
330
8481
100
AcDbEntity
  8
3
 62
     0
100
AcDbLine
 10
5680.95196027847
 20
2820.233310273387
 30
0.0
 11
6014.342954106604
 21
2820.233310273387
 31
0.0
  0
LINE
  5
8393
330
8481
100
AcDbEntity
  8
3
 62
     0
100
AcDbLine
 10
5680.95196027847
 20
3770.233310273387
 30
0.0
 11
6014.342954106604
 21
3770.233310273387
 31
0.0
  0
LINE
  5
8394
330
8481
100
AcDbEntity
  8
3
 62
     0
100
AcDbLine
 10
5984.342954106605
 20
2880.233310273387
 30
0.0
 11
5984.342954106605
 21
3710.233310273387
 31
0.0
  0
INSERT
  5
8395
330
8481
100
AcDbEntity
  8
3
 62
     0
100
AcDbBlockReference
  2
_OPEN
 10
5984.342954106605
 20
2820.233310273387
 30
0.0
 41
60.0
 42
60.0
 43
60.0
 50
270.0
  0
INSERT
  5
8396
330
8481
100
AcDbEntity
  8
3
 62
     0
100
AcDbBlockReference
  2
_OPEN
 10
5984.342954106605
 20
3770.233310273387
 30
0.0
 41
60.0
 42
60.0
 43
60.0
 50
90.0
  0
TEXT
  5
83E1
330
8481
100
AcDbEntity
  8
3
 62
     0
100
AcDbText
 10
5729.34
 20
3135.93
 30
0.0
 40
90.0
  1
\U+03C6950
100
AcDbText
  0
POINT
  5
8398
330
8481
100
AcDbEntity
  8
DEFPOINTS
 62
     0
100
AcDbPoint
 10
5665.951960278469
 20
2820.233310273387
 30
0.0
  0
POINT
  5
8399
330
8481
100
AcDbEntity
  8
DEFPOINTS
 62
     0
100
AcDbPoint
 10
5665.951960278469
 20
3770.233310273387
 30
0.0
  0
POINT
  5
839A
330
8481
100
AcDbEntity
  8
DEFPOINTS
 62
     0
100
AcDbPoint
 10
5984.342954106605
 20
3770.233310273387
 30
0.0
  0
ENDBLK
  5
8102
330
8481
100
AcDbEntity
  8
0
100
AcDbBlockEnd
  0
BLOCK
  5
8484
330
8483
100
AcDbEntity
  8
0
100
AcDbBlockBegin
  2
*D15
 70
     1
 10
0.0
 20
0.0
 30
0.0
  3
*D15
  1

  0
LINE
  5
839B
330
8483
100
AcDbEntity
  8
3
 62
     0
100
AcDbLine
 10
1497.933136459589
 20
3316.733310273387
 30
0.0
 11
1497.933136459589
 21
4234.126846417152
 31
0.0
  0
LINE
  5
839C
330
8483
100
AcDbEntity
  8
3
 62
     0
100
AcDbLine
 10
2117.933136459589
 20
4000.320184905996
 30
0.0
 11
2117.933136459589
 21
4234.126846417152
 31
0.0
  0
LINE
  5
839D
330
8483
100
AcDbEntity
  8
3
 62
     0
100
AcDbLine
 10
1557.933136459588
 20
4204.126846417151
 30
0.0
 11
2057.933136459589
 21
4204.126846417151
 31
0.0
  0
INSERT
  5
839E
330
8483
100
AcDbEntity
  8
3
 62
     0
100
AcDbBlockReference
  2
_OPEN
 10
1497.933136459589
 20
4204.126846417151
 30
0.0
 41
60.0
 42
60.0
 43
60.0
 50
180.0
  0
INSERT
  5
839F
330
8483
100
AcDbEntity
  8
3
 62
     0
100
AcDbBlockReference
  2
_OPEN
 10
2117.933136459589
 20
4204.126846417151
 30
0.0
 41
60.0
 42
60.0
 43
60.0
  0
TEXT
  5
83E2
330
8483
100
AcDbEntity
  8
3
 62
     0
100
AcDbText
 10
1627.93
 20
4119.83
 30
0.0
 40
90.0
  1
620
100
AcDbText
  0
POINT
  5
83A1
330
8483
100
AcDbEntity
  8
DEFPOINTS
 62
     0
100
AcDbPoint
 10
1497.933136459589
 20
3301.733310273387
 30
0.0
  0
POINT
  5
83A2
330
8483
100
AcDbEntity
  8
DEFPOINTS
 62
     0
100
AcDbPoint
 10
2117.933136459589
 20
3985.320184905996
 30
0.0
  0
POINT
  5
83A3
330
8483
100
AcDbEntity
  8
DEFPOINTS
 62
     0
100
AcDbPoint
 10
2117.933136459589
 20
4204.126846417151
 30
0.0
  0
ENDBLK
  5
80F7
330
8483
100
AcDbEntity
  8
0
100
AcDbBlockEnd
  0
BLOCK
  5
8486
330
8485
100
AcDbEntity
  8
0
100
AcDbBlockBegin
  2
*D16
 70
     1
 10
0.0
 20
0.0
 30
0.0
  3
*D16
  1

  0
LINE
  5
83A4
330
8485
100
AcDbEntity
  8
3
 62
     0
100
AcDbLine
 10
2117.933136459589
 20
4000.320184905996
 30
0.0
 11
2117.933136459589
 21
4234.126846417152
 31
0.0
  0
LINE
  5
83A5
330
8485
100
AcDbEntity
  8
3
 62
     0
100
AcDbLine
 10
2894.933136459589
 20
3243.233310273387
 30
0.0
 11
2894.933136459589
 21
4234.126846417152
 31
0.0
  0
LINE
  5
83A6
330
8485
100
AcDbEntity
  8
3
 62
     0
100
AcDbLine
 10
2177.933136459589
 20
4204.126846417151
 30
0.0
 11
2834.933136459589
 21
4204.126846417151
 31
0.0
  0
INSERT
  5
83A7
330
8485
100
AcDbEntity
  8
3
 62
     0
100
AcDbBlockReference
  2
_OPEN
 10
2117.933136459589
 20
4204.126846417151
 30
0.0
 41
60.0
 42
60.0
 43
60.0
 50
180.0
  0
INSERT
  5
83A8
330
8485
100
AcDbEntity
  8
3
 62
     0
100
AcDbBlockReference
  2
_OPEN
 10
2894.933136459589
 20
4204.126846417151
 30
0.0
 41
60.0
 42
60.0
 43
60.0
  0
TEXT
  5
83E3
330
8485
100
AcDbEntity
  8
3
 62
     0
100
AcDbText
 10
2326.43
 20
4119.83
 30
0.0
 40
90.0
  1
777
100
AcDbText
  0
POINT
  5
83AA
330
8485
100
AcDbEntity
  8
DEFPOINTS
 62
     0
100
AcDbPoint
 10
2117.933136459589
 20
3985.320184905996
 30
0.0
  0
POINT
  5
83AB
330
8485
100
AcDbEntity
  8
DEFPOINTS
 62
     0
100
AcDbPoint
 10
2894.933136459589
 20
3228.233310273387
 30
0.0
  0
POINT
  5
83AC
330
8485
100
AcDbEntity
  8
DEFPOINTS
 62
     0
100
AcDbPoint
 10
2894.933136459589
 20
4204.126846417151
 30
0.0
  0
ENDBLK
  5
80EC
330
8485
100
AcDbEntity
  8
0
100
AcDbBlockEnd
  0
BLOCK
  5
8488
330
8487
100
AcDbEntity
  8
0
100
AcDbBlockBegin
  2
*D17
 70
     1
 10
0.0
 20
0.0
 30
0.0
  3
*D17
  1

  0
LINE
  5
83AD
330
8487
100
AcDbEntity
  8
3
 62
     0
100
AcDbLine
 10
1497.933136459589
 20
3274.233310273387
 30
0.0
 11
1497.933136459589
 21
4430.298336047842
 31
0.0
  0
LINE
  5
83AE
330
8487
100
AcDbEntity
  8
3
 62
     0
100
AcDbLine
 10
3427.933136459587
 20
2310.233310273386
 30
0.0
 11
3427.933136459587
 21
4430.298336047842
 31
0.0
  0
LINE
  5
83AF
330
8487
100
AcDbEntity
  8
3
 62
     0
100
AcDbLine
 10
1557.933136459588
 20
4400.298336047842
 30
0.0
 11
3367.933136459587
 21
4400.298336047842
 31
0.0
  0
INSERT
  5
83B0
330
8487
100
AcDbEntity
  8
3
 62
     0
100
AcDbBlockReference
  2
_OPEN
 10
1497.933136459589
 20
4400.298336047842
 30
0.0
 41
60.0
 42
60.0
 43
60.0
 50
180.0
  0
INSERT
  5
83B1
330
8487
100
AcDbEntity
  8
3
 62
     0
100
AcDbBlockReference
  2
_OPEN
 10
3427.933136459587
 20
4400.298336047842
 30
0.0
 41
60.0
 42
60.0
 43
60.0
  0
TEXT
  5
83E4
330
8487
100
AcDbEntity
  8
3
 62
     0
100
AcDbText
 10
2282.93
 20
4316.0
 30
0.0
 40
90.0
  1
1930
100
AcDbText
  0
POINT
  5
83B3
330
8487
100
AcDbEntity
  8
DEFPOINTS
 62
     0
100
AcDbPoint
 10
1497.933136459589
 20
3259.233310273387
 30
0.0
  0
POINT
  5
83B4
330
8487
100
AcDbEntity
  8
DEFPOINTS
 62
     0
100
AcDbPoint
 10
3427.933136459587
 20
2295.233310273386
 30
0.0
  0
POINT
  5
83B5
330
8487
100
AcDbEntity
  8
DEFPOINTS
 62
     0
100
AcDbPoint
 10
3427.933136459587
 20
4400.298336047842
 30
0.0
  0
ENDBLK
  5
80E1
330
8487
100
AcDbEntity
  8
0
100
AcDbBlockEnd
  0
BLOCK
  5
848A
330
8489
100
AcDbEntity
  8
0
100
AcDbBlockBegin
  2
*D18
 70
     1
 10
0.0
 20
0.0
 30
0.0
  3
*D18
  1

  0
LINE
  5
83B6
330
8489
100
AcDbEntity
  8
3
 62
     0
100
AcDbLine
 10
2169.933136459589
 20
3938.233310273387
 30
0.0
 11
976.2491587345287
 21
3938.233310273387
 31
0.0
  0
LINE
  5
83B7
330
8489
100
AcDbEntity
  8
3
 62
     0
100
AcDbLine
 10
1416.677797681042
 20
3295.233310273387
 30
0.0
 11
976.2491587345284
 21
3295.233310273387
 31
0.0
  0
LINE
  5
83B8
330
8489
100
AcDbEntity
  8
3
 62
     0
100
AcDbLine
 10
1006.249158734528
 20
3878.233310273387
 30
0.0
 11
1006.249158734528
 21
3355.233310273387
 31
0.0
  0
INSERT
  5
83B9
330
8489
100
AcDbEntity
  8
3
 62
     0
100
AcDbBlockReference
  2
_OPEN
 10
1006.249158734528
 20
3938.233310273387
 30
0.0
 41
60.0
 42
60.0
 43
60.0
 50
90.0
  0
INSERT
  5
83BA
330
8489
100
AcDbEntity
  8
3
 62
     0
100
AcDbBlockReference
  2
_OPEN
 10
1006.249158734528
 20
3295.233310273387
 30
0.0
 41
60.0
 42
60.0
 43
60.0
 50
270.0
  0
TEXT
  5
83E5
330
8489
100
AcDbEntity
  8
3
 62
     0
100
AcDbText
 10
751.2489999999999
 20
3457.43
 30
0.0
 40
90.0
  1
643
100
AcDbText
  0
POINT
  5
83BC
330
8489
100
AcDbEntity
  8
DEFPOINTS
 62
     0
100
AcDbPoint
 10
2184.933136459588
 20
3938.233310273387
 30
0.0
  0
POINT
  5
83BD
330
8489
100
AcDbEntity
  8
DEFPOINTS
 62
     0
100
AcDbPoint
 10
1431.677797681042
 20
3295.233310273387
 30
0.0
  0
POINT
  5
83BE
330
8489
100
AcDbEntity
  8
DEFPOINTS
 62
     0
100
AcDbPoint
 10
1006.249158734528
 20
3295.233310273387
 30
0.0
  0
ENDBLK
  5
80D6
330
8489
100
AcDbEntity
  8
0
100
AcDbBlockEnd
  0
BLOCK
  5
848C
330
848B
100
AcDbEntity
  8
0
100
AcDbBlockBegin
  2
*D19
 70
     1
 10
0.0
 20
0.0
 30
0.0
  3
*D19
  1

  0
LINE
  5
83BF
330
848B
100
AcDbEntity
  8
3
 62
     0
100
AcDbLine
 10
1416.677797681042
 20
3295.233310273387
 30
0.0
 11
976.2491587345287
 21
3295.233310273387
 31
0.0
  0
LINE
  5
83C0
330
848B
100
AcDbEntity
  8
3
 62
     0
100
AcDbLine
 10
1542.933136459589
 20
2195.233310273386
 30
0.0
 11
976.2491587345284
 21
2195.233310273386
 31
0.0
  0
LINE
  5
83C1
330
848B
100
AcDbEntity
  8
3
 62
     0
100
AcDbLine
 10
1006.249158734528
 20
3235.233310273387
 30
0.0
 11
1006.249158734528
 21
2255.233310273387
 31
0.0
  0
INSERT
  5
83C2
330
848B
100
AcDbEntity
  8
3
 62
     0
100
AcDbBlockReference
  2
_OPEN
 10
1006.249158734528
 20
3295.233310273387
 30
0.0
 41
60.0
 42
60.0
 43
60.0
 50
90.0
  0
INSERT
  5
83C3
330
848B
100
AcDbEntity
  8
3
 62
     0
100
AcDbBlockReference
  2
_OPEN
 10
1006.249158734528
 20
2195.233310273386
 30
0.0
 41
60.0
 42
60.0
 43
60.0
 50
270.0
  0
TEXT
  5
83E6
330
848B
100
AcDbEntity
  8
3
 62
     0
100
AcDbText
 10
751.2489999999999
 20
2585.93
 30
0.0
 40
90.0
  1
1100
100
AcDbText
  0
POINT
  5
83C5
330
848B
100
AcDbEntity
  8
DEFPOINTS
 62
     0
100
AcDbPoint
 10
1431.677797681042
 20
3295.233310273387
 30
0.0
  0
POINT
  5
83C6
330
848B
100
AcDbEntity
  8
DEFPOINTS
 62
     0
100
AcDbPoint
 10
1557.933136459588
 20
2195.233310273386
 30
0.0
  0
POINT
  5
83C7
330
848B
100
AcDbEntity
  8
DEFPOINTS
 62
     0
100
AcDbPoint
 10
1006.249158734528
 20
2195.233310273386
 30
0.0
  0
ENDBLK
  5
80CB
330
848B
100
AcDbEntity
  8
0
100
AcDbBlockEnd
  0
BLOCK
  5
848E
330
848D
100
AcDbEntity
  8
0
100
AcDbBlockBegin
  2
*D20
 70
     1
 10
0.0
 20
0.0
 30
0.0
  3
*D20
  1

  0
LINE
  5
83C8
330
848D
100
AcDbEntity
  8
3
 62
     0
100
AcDbLine
 10
1542.933136459587
 20
2168.233310273386
 30
0.0
 11
976.2491587345284
 21
2168.233310273387
 31
0.0
  0
LINE
  5
83C9
330
848D
100
AcDbEntity
  8
3
 62
     0
100
AcDbLine
 10
1542.933136459587
 20
2068.233310273386
 30
0.0
 11
976.2491587345284
 21
2068.233310273387
 31
0.0
  0
LINE
  5
83CA
330
848D
100
AcDbEntity
  8
3
 62
     0
100
AcDbLine
 10
1006.249158734528
 20
2228.233310273386
 30
0.0
 11
1006.249158734528
 21
2288.233310273386
 31
0.0
  0
LINE
  5
83CB
330
848D
100
AcDbEntity
  8
3
 62
     0
100
AcDbLine
 10
1006.249158734528
 20
2008.233310273386
 30
0.0
 11
1006.249158734528
 21
1673.947595987672
 31
0.0
  0
LINE
  5
83CC
330
848D
100
AcDbEntity
  8
3
 62
     0
100
AcDbLine
 10
1006.249158734528
 20
2168.233310273387
 30
0.0
 11
1006.249158734528
 21
2068.233310273387
 31
0.0
  0
INSERT
  5
83CD
330
848D
100
AcDbEntity
  8
3
 62
     0
100
AcDbBlockReference
  2
_DOT
 10
1006.249158734528
 20
2168.233310273387
 30
0.0
 41
60.0
 42
60.0
 43
60.0
 50
270.0
  0
INSERT
  5
83CE
330
848D
100
AcDbEntity
  8
3
 62
     0
100
AcDbBlockReference
  2
_OPEN
 10
1006.249158734528
 20
2068.233310273387
 30
0.0
 41
60.0
 42
60.0
 43
60.0
 50
90.0
  0
TEXT
  5
83E7
330
848D
100
AcDbEntity
  8
3
 62
     0
100
AcDbText
 10
751.2489999999999
 20
1651.79
 30
0.0
 40
90.0
  1
100
100
AcDbText
  0
POINT
  5
83D0
330
848D
100
AcDbEntity
  8
DEFPOINTS
 62
     0
100
AcDbPoint
 10
1557.933136459587
 20
2168.233310273386
 30
0.0
  0
POINT
  5
83D1
330
848D
100
AcDbEntity
  8
DEFPOINTS
 62
     0
100
AcDbPoint
 10
1557.933136459587
 20
2068.233310273386
 30
0.0
  0
POINT
  5
83D2
330
848D
100
AcDbEntity
  8
DEFPOINTS
 62
     0
100
AcDbPoint
 10
1006.249158734528
 20
2068.233310273387
 30
0.0
  0
ENDBLK
  5
81C3
330
848D
100
AcDbEntity
  8
0
100
AcDbBlockEnd
  0
BLOCK
  5
8490
330
848F
100
AcDbEntity
  8
0
100
AcDbBlockBegin
  2
_DOT
 70
     0
 10
0.0
 20
0.0
 30
0.0
  3
_DOT
  1

  0
LWPOLYLINE
  5
8024
330
848F
100
AcDbEntity
  8
0
  6
ByBlock
 62
     0
100
AcDbPolyline
 90
        2
 70
     1
 43
0.25
 10
-0.125
 20
0.0
 42
1.0
 10
0.125
 20
0.0
 42
1.0
  0
LINE
  5
8028
330
848F
100
AcDbEntity
  8
0
  6
ByBlock
 62
     0
100
AcDbLine
 10
-0.25
 20
0.0
 30
0.0
 11
-1.0
 21
0.0
 31
0.0
  0
ENDBLK
  5
7FFA
330
848F
100
AcDbEntity
  8
0
100
AcDbBlockEnd
  0
BLOCK
  5
8492
330
8491
100
AcDbEntity
  8
0
100
AcDbBlockBegin
  2
*D22
 70
     1
 10
0.0
 20
0.0
 30
0.0
  3
*D22
  1

  0
LINE
  5
81E8
330
8491
100
AcDbEntity
  8
0
  6
ByBlock
 62
     0
100
AcDbLine
 10
1557.933136459587
 20
2038.233310273386
 30
0.0
 11
1557.933136459587
 21
1834.239520464772
 31
0.0
  0
LINE
  5
81E9
330
8491
100
AcDbEntity
  8
0
  6
ByBlock
 62
     0
100
AcDbLine
 10
2117.933136459589
 20
2038.233310273386
 30
0.0
 11
2117.933136459589
 21
1834.239520464772
 31
0.0
  0
LINE
  5
81EA
330
8491
100
AcDbEntity
  8
0
  6
ByBlock
 62
     0
100
AcDbLine
 10
1617.933136459587
 20
1864.239520464772
 30
0.0
 11
2057.933136459589
 21
1864.239520464772
 31
0.0
  0
INSERT
  5
81EB
330
8491
100
AcDbEntity
  8
0
  6
ByBlock
 62
     0
100
AcDbBlockReference
  2
_OPEN
 10
1557.933136459587
 20
1864.239520464772
 30
0.0
 41
60.0
 42
60.0
 43
60.0
 50
180.0
  0
INSERT
  5
81EC
330
8491
100
AcDbEntity
  8
0
  6
ByBlock
 62
     0
100
AcDbBlockReference
  2
_OPEN
 10
2117.933136459589
 20
1864.239520464772
 30
0.0
 41
60.0
 42
60.0
 43
60.0
  0
TEXT
  5
81ED
330
8491
100
AcDbEntity
  8
3
 62
     0
100
AcDbText
 10
1722.218850745302
 20
1894.239520464772
 30
0.0
 40
90.0
  1
560
100
AcDbText
  0
POINT
  5
81EE
330
8491
100
AcDbEntity
  8
DEFPOINTS
  6
ByBlock
 62
     0
100
AcDbPoint
 10
1557.933136459587
 20
2068.233310273386
 30
0.0
  0
POINT
  5
81EF
330
8491
100
AcDbEntity
  8
DEFPOINTS
  6
ByBlock
 62
     0
100
AcDbPoint
 10
2117.933136459589
 20
2068.233310273386
 30
0.0
  0
POINT
  5
81F0
330
8491
100
AcDbEntity
  8
DEFPOINTS
  6
ByBlock
 62
     0
100
AcDbPoint
 10
2117.933136459589
 20
1864.239520464772
 30
0.0
  0
ENDBLK
  5
81F1
330
8491
100
AcDbEntity
  8
0
100
AcDbBlockEnd
  0
BLOCK
  5
8494
330
8493
100
AcDbEntity
  8
0
100
AcDbBlockBegin
  2
*D23
 70
     1
 10
0.0
 20
0.0
 30
0.0
  3
*D23
  1

  0
LINE
  5
81F5
330
8493
100
AcDbEntity
  8
0
  6
ByBlock
 62
     0
100
AcDbLine
 10
2117.933136459589
 20
2038.233310273386
 30
0.0
 11
2117.933136459589
 21
1834.239520464772
 31
0.0
  0
LINE
  5
81F6
330
8493
100
AcDbEntity
  8
0
  6
ByBlock
 62
     0
100
AcDbLine
 10
3427.933136459589
 20
2038.233310273386
 30
0.0
 11
3427.933136459589
 21
1834.239520464772
 31
0.0
  0
LINE
  5
81F7
330
8493
100
AcDbEntity
  8
0
  6
ByBlock
 62
     0
100
AcDbLine
 10
2177.933136459589
 20
1864.239520464772
 30
0.0
 11
3367.933136459589
 21
1864.239520464772
 31
0.0
  0
INSERT
  5
81F8
330
8493
100
AcDbEntity
  8
0
  6
ByBlock
 62
     0
100
AcDbBlockReference
  2
_OPEN
 10
2117.933136459589
 20
1864.239520464772
 30
0.0
 41
60.0
 42
60.0
 43
60.0
 50
180.0
  0
INSERT
  5
81F9
330
8493
100
AcDbEntity
  8
0
  6
ByBlock
 62
     0
100
AcDbBlockReference
  2
_OPEN
 10
3427.933136459589
 20
1864.239520464772
 30
0.0
 41
60.0
 42
60.0
 43
60.0
  0
TEXT
  5
81FA
330
8493
100
AcDbEntity
  8
3
 62
     0
100
AcDbText
 10
2631.504565031017
 20
1894.239520464772
 30
0.0
 40
90.0
  1
1310
100
AcDbText
  0
POINT
  5
81FB
330
8493
100
AcDbEntity
  8
DEFPOINTS
  6
ByBlock
 62
     0
100
AcDbPoint
 10
2117.933136459589
 20
2068.233310273386
 30
0.0
  0
POINT
  5
81FC
330
8493
100
AcDbEntity
  8
DEFPOINTS
  6
ByBlock
 62
     0
100
AcDbPoint
 10
3427.933136459589
 20
2068.233310273386
 30
0.0
  0
POINT
  5
81FD
330
8493
100
AcDbEntity
  8
DEFPOINTS
  6
ByBlock
 62
     0
100
AcDbPoint
 10
3427.933136459589
 20
1864.239520464772
 30
0.0
  0
ENDBLK
  5
81FE
330
8493
100
AcDbEntity
  8
0
100
AcDbBlockEnd
  0
BLOCK
  5
8496
330
8495
100
AcDbEntity
  8
0
100
AcDbBlockBegin
  2
*D24
 70
     1
 10
0.0
 20
0.0
 30
0.0
  3
*D24
  1

  0
LINE
  5
8202
330
8495
100
AcDbEntity
  8
0
  6
ByBlock
 62
     0
100
AcDbLine
 10
4338.451960278469
 20
2038.233310273386
 30
0.0
 11
4338.451960278469
 21
1834.239520464772
 31
0.0
  0
LINE
  5
8203
330
8495
100
AcDbEntity
  8
0
  6
ByBlock
 62
     0
100
AcDbLine
 10
5100.451960278467
 20
2038.233310273386
 30
0.0
 11
5100.451960278467
 21
1834.239520464772
 31
0.0
  0
LINE
  5
8204
330
8495
100
AcDbEntity
  8
0
  6
ByBlock
 62
     0
100
AcDbLine
 10
4398.451960278469
 20
1864.239520464772
 30
0.0
 11
5040.45196027847
 21
1864.239520464772
 31
0.0
  0
INSERT
  5
8205
330
8495
100
AcDbEntity
  8
0
  6
ByBlock
 62
     0
100
AcDbBlockReference
  2
_OPEN
 10
4338.451960278469
 20
1864.239520464772
 30
0.0
 41
60.0
 42
60.0
 43
60.0
 50
180.0
  0
INSERT
  5
8206
330
8495
100
AcDbEntity
  8
0
  6
ByBlock
 62
     0
100
AcDbBlockReference
  2
_OPEN
 10
5100.451960278467
 20
1864.239520464772
 30
0.0
 41
60.0
 42
60.0
 43
60.0
  0
TEXT
  5
8207
330
8495
100
AcDbEntity
  8
3
 62
     0
100
AcDbText
 10
4603.737674564184
 20
1894.239520464772
 30
0.0
 40
90.0
  1
762
100
AcDbText
  0
POINT
  5
8208
330
8495
100
AcDbEntity
  8
DEFPOINTS
  6
ByBlock
 62
     0
100
AcDbPoint
 10
4338.451960278469
 20
2068.233310273386
 30
0.0
  0
POINT
  5
8209
330
8495
100
AcDbEntity
  8
DEFPOINTS
  6
ByBlock
 62
     0
100
AcDbPoint
 10
5100.451960278467
 20
2068.233310273386
 30
0.0
  0
POINT
  5
820A
330
8495
100
AcDbEntity
  8
DEFPOINTS
  6
ByBlock
 62
     0
100
AcDbPoint
 10
5100.451960278467
 20
1864.239520464772
 30
0.0
  0
ENDBLK
  5
820B
330
8495
100
AcDbEntity
  8
0
100
AcDbBlockEnd
  0
BLOCK
  5
8498
330
8497
100
AcDbEntity
  8
0
100
AcDbBlockBegin
  2
*D25
 70
     1
 10
0.0
 20
0.0
 30
0.0
  3
*D25
  1

  0
LINE
  5
820F
330
8497
100
AcDbEntity
  8
0
  6
ByBlock
 62
     0
100
AcDbLine
 10
5100.451960278467
 20
2038.233310273386
 30
0.0
 11
5100.451960278467
 21
1834.239520464772
 31
0.0
  0
LINE
  5
8210
330
8497
100
AcDbEntity
  8
0
  6
ByBlock
 62
     0
100
AcDbLine
 10
5713.451960278469
 20
2038.233310273386
 30
0.0
 11
5713.451960278469
 21
1834.239520464772
 31
0.0
  0
LINE
  5
8211
330
8497
100
AcDbEntity
  8
0
  6
ByBlock
 62
     0
100
AcDbLine
 10
5160.451960278468
 20
1864.239520464772
 30
0.0
 11
5653.45196027847
 21
1864.239520464772
 31
0.0
  0
INSERT
  5
8212
330
8497
100
AcDbEntity
  8
0
  6
ByBlock
 62
     0
100
AcDbBlockReference
  2
_OPEN
 10
5100.451960278467
 20
1864.239520464772
 30
0.0
 41
60.0
 42
60.0
 43
60.0
 50
180.0
  0
INSERT
  5
8213
330
8497
100
AcDbEntity
  8
0
  6
ByBlock
 62
     0
100
AcDbBlockReference
  2
_OPEN
 10
5713.451960278469
 20
1864.239520464772
 30
0.0
 41
60.0
 42
60.0
 43
60.0
  0
TEXT
  5
8214
330
8497
100
AcDbEntity
  8
3
 62
     0
100
AcDbText
 10
5299.809103135612
 20
1894.239520464772
 30
0.0
 40
90.0
  1
613
100
AcDbText
  0
POINT
  5
8215
330
8497
100
AcDbEntity
  8
DEFPOINTS
  6
ByBlock
 62
     0
100
AcDbPoint
 10
5100.451960278467
 20
2068.233310273386
 30
0.0
  0
POINT
  5
8216
330
8497
100
AcDbEntity
  8
DEFPOINTS
  6
ByBlock
 62
     0
100
AcDbPoint
 10
5713.451960278469
 20
2068.233310273386
 30
0.0
  0
POINT
  5
8217
330
8497
100
AcDbEntity
  8
DEFPOINTS
  6
ByBlock
 62
     0
100
AcDbPoint
 10
5713.451960278469
 20
1864.239520464772
 30
0.0
  0
ENDBLK
  5
8218
330
8497
100
AcDbEntity
  8
0
100
AcDbBlockEnd
  0
BLOCK
  5
849A
330
8499
100
AcDbEntity
  8
0
100
AcDbBlockBegin
  2
_NONE
 70
     0
 10
0.0
 20
0.0
 30
0.0
  3
_NONE
  1

  0
CIRCLE
  5
821C
330
8499
100
AcDbEntity
  8
0
  6
ByBlock
 62
     0
100
AcDbCircle
 10
0.0
 20
0.0
 30
0.0
 40
0.25
  0
ENDBLK
  5
821D
330
8499
100
AcDbEntity
  8
0
100
AcDbBlockEnd
  0
BLOCK
  5
849C
330
849B
100
AcDbEntity
  8
0
100
AcDbBlockBegin
  2
*D27
 70
     1
 10
0.0
 20
0.0
 30
0.0
  3
*D27
  1

  0
LINE
  5
8249
330
849B
100
AcDbEntity
  8
0
  6
ByBlock
 62
     0
100
AcDbLine
 10
1008.115837132478
 20
2195.233310273386
 30
0.0
 11
1008.115837132478
 21
2195.233310273386
 31
0.0
  0
LINE
  5
824A
330
849B
100
AcDbEntity
  8
0
  6
ByBlock
 62
     0
100
AcDbLine
 10
1008.115837132478
 20
2168.233310273386
 30
0.0
 11
1008.115837132478
 21
2048.233310273386
 31
0.0
  0
TEXT
  5
824B
330
849B
100
AcDbEntity
  8
3
 62
     0
100
AcDbText
 10
894.5444085610496
 20
2024.0190245591
 30
0.0
 40
90.0
  1
 (27)
 50
90.0
100
AcDbText
  0
LINE
  5
824C
330
849B
100
AcDbEntity
  8
0
  6
ByBlock
 62
     0
100
AcDbLine
 10
1008.115837132478
 20
2195.233310273386
 30
0.0
 11
1008.115837132478
 21
2168.233310273386
 31
0.0
  0
POINT
  5
824D
330
849B
100
AcDbEntity
  8
DEFPOINTS
  6
ByBlock
 62
     0
100
AcDbPoint
 10
1557.933136459588
 20
2195.233310273386
 30
0.0
  0
POINT
  5
824E
330
849B
100
AcDbEntity
  8
DEFPOINTS
  6
ByBlock
 62
     0
100
AcDbPoint
 10
1557.933136459587
 20
2168.233310273386
 30
0.0
  0
POINT
  5
824F
330
849B
100
AcDbEntity
  8
DEFPOINTS
  6
ByBlock
 62
     0
100
AcDbPoint
 10
1008.115837132478
 20
2168.233310273386
 30
0.0
  0
ENDBLK
  5
8250
330
849B
100
AcDbEntity
  8
0
100
AcDbBlockEnd
  0
BLOCK
  5
849E
330
849D
100
AcDbEntity
  8
0
100
AcDbBlockBegin
  2
*D28
 70
     1
 10
0.0
 20
0.0
 30
0.0
  3
*D28
  1

  0
LINE
  5
822B
330
849D
100
AcDbEntity
  8
0
  6
ByBlock
 62
     0
100
AcDbLine
 10
1527.933136459587
 20
2068.233310273386
 30
0.0
 11
720.1886531633972
 21
2068.233310273386
 31
0.0
  0
LINE
  5
822C
330
849D
100
AcDbEntity
  8
0
  6
ByBlock
 62
     0
100
AcDbLine
 10
2139.933136459589
 20
3938.233310273387
 30
0.0
 11
720.1886531633972
 21
3938.233310273387
 31
0.0
  0
LINE
  5
822D
330
849D
100
AcDbEntity
  8
0
  6
ByBlock
 62
     0
100
AcDbLine
 10
750.188653163397
 20
2128.233310273386
 30
0.0
 11
750.188653163397
 21
3878.233310273387
 31
0.0
  0
INSERT
  5
822E
330
849D
100
AcDbEntity
  8
0
  6
ByBlock
 62
     0
100
AcDbBlockReference
  2
_OPEN
 10
750.188653163397
 20
2068.233310273386
 30
0.0
 41
60.0
 42
60.0
 43
60.0
 50
270.0
  0
INSERT
  5
822F
330
849D
100
AcDbEntity
  8
0
  6
ByBlock
 62
     0
100
AcDbBlockReference
  2
_OPEN
 10
750.188653163397
 20
3938.233310273387
 30
0.0
 41
60.0
 42
60.0
 43
60.0
 50
90.0
  0
TEXT
  5
8230
330
849D
100
AcDbEntity
  8
3
 62
     0
100
AcDbText
 10
681.6172245919688
 20
2795.376167416244
 30
0.0
 40
90.0
  1
(1870)
 50
90.0
100
AcDbText
  0
POINT
  5
8231
330
849D
100
AcDbEntity
  8
DEFPOINTS
  6
ByBlock
 62
     0
100
AcDbPoint
 10
1557.933136459587
 20
2068.233310273386
 30
0.0
  0
POINT
  5
8232
330
849D
100
AcDbEntity
  8
DEFPOINTS
  6
ByBlock
 62
     0
100
AcDbPoint
 10
2169.933136459589
 20
3938.233310273387
 30
0.0
  0
POINT
  5
8233
330
849D
100
AcDbEntity
  8
DEFPOINTS
  6
ByBlock
 62
     0
100
AcDbPoint
 10
750.188653163397
 20
3938.233310273387
 30
0.0
  0
ENDBLK
  5
8234
330
849D
100
AcDbEntity
  8
0
100
AcDbBlockEnd
  0
BLOCK
  5
84A5
330
84A4
100
AcDbEntity
  8
0
100
AcDbBlockBegin
  2
*D29
 70
     1
 10
0.0
 20
0.0
 30
0.0
  3
*D29
  1

  0
LINE
  5
84A7
330
84A4
100
AcDbEntity
  8
3
 62
     0
370
    -2
100
AcDbLine
 10
4540.45196027847
 20
3968.233310273387
 30
0.0
 11
4540.45196027847
 21
4161.425263807013
 31
0.0
  0
LINE
  5
84A8
330
84A4
100
AcDbEntity
  8
3
 62
     0
370
    -2
100
AcDbLine
 10
5660.451960278471
 20
3968.233310273387
 30
0.0
 11
5660.451960278471
 21
4161.425263807013
 31
0.0
  0
LINE
  5
84A9
330
84A4
100
AcDbEntity
  8
3
 62
     0
370
    -2
100
AcDbLine
 10
4600.451960278469
 20
4131.425263807012
 30
0.0
 11
5600.45196027847
 21
4131.425263807012
 31
0.0
  0
INSERT
  5
84AA
330
84A4
100
AcDbEntity
  8
3
 62
     0
370
    -2
100
AcDbBlockReference
  2
_OPEN
 10
4540.45196027847
 20
4131.425263807012
 30
0.0
 41
60.0
 42
60.0
 43
60.0
 50
180.0
  0
INSERT
  5
84AB
330
84A4
100
AcDbEntity
  8
3
 62
     0
370
    -2
100
AcDbBlockReference
  2
_OPEN
 10
5660.451960278471
 20
4131.425263807012
 30
0.0
 41
60.0
 42
60.0
 43
60.0
  0
MTEXT
  5
84AC
330
84A4
100
AcDbEntity
  8
3
 62
     0
100
AcDbMText
 10
5100.451960278469
 20
4206.425263807012
 30
0.0
 40
90.0
 41
0.0
 71
     5
 72
     1
  1
\A1;1120
 73
     1
 44
1.0
1001
ACAD
1000
MTEXTBEGIN
1070
    73
1070
     1
1070
    44
1040
1.0
1070
    74
1070
     0
1000
MTEXTEND
  0
POINT
  5
84AD
330
84A4
100
AcDbEntity
  8
DEFPOINTS
 62
     0
100
AcDbPoint
 10
4540.45196027847
 20
3938.233310273387
 30
0.0
  0
POINT
  5
84AE
330
84A4
100
AcDbEntity
  8
DEFPOINTS
 62
     0
100
AcDbPoint
 10
5660.451960278471
 20
3938.233310273387
 30
0.0
  0
POINT
  5
84AF
330
84A4
100
AcDbEntity
  8
DEFPOINTS
 62
     0
100
AcDbPoint
 10
5660.451960278471
 20
4131.425263807012
 30
0.0
  0
ENDBLK
  5
84A6
330
84A4
100
AcDbEntity
  8
0
100
AcDbBlockEnd
  0
BLOCK
  5
84B2
330
84B1
100
AcDbEntity
  8
0
100
AcDbBlockBegin
  2
*D30
 70
     1
 10
0.0
 20
0.0
 30
0.0
  3
*D30
  1

  0
LINE
  5
8526
330
84B1
100
AcDbEntity
  8
3
 62
     0
370
    -2
100
AcDbLine
 10
4150.451960278467
 20
3605.233310273387
 30
0.0
 11
4150.451960278467
 21
4360.687899330344
 31
0.0
  0
LINE
  5
8527
330
84B1
100
AcDbEntity
  8
3
 62
     0
370
    -2
100
AcDbLine
 10
5100.451960278469
 20
4281.425263807013
 30
0.0
 11
5100.451960278469
 21
4360.687899330344
 31
0.0
  0
LINE
  5
8528
330
84B1
100
AcDbEntity
  8
3
 62
     0
370
    -2
100
AcDbLine
 10
4210.451960278468
 20
4330.687899330344
 30
0.0
 11
5040.45196027847
 21
4330.687899330344
 31
0.0
  0
INSERT
  5
8529
330
84B1
100
AcDbEntity
  8
3
 62
     0
370
    -2
100
AcDbBlockReference
  2
_OPEN
 10
4150.451960278467
 20
4330.687899330344
 30
0.0
 41
60.0
 42
60.0
 43
60.0
 50
180.0
  0
INSERT
  5
852A
330
84B1
100
AcDbEntity
  8
3
 62
     0
370
    -2
100
AcDbBlockReference
  2
_OPEN
 10
5100.451960278469
 20
4330.687899330344
 30
0.0
 41
60.0
 42
60.0
 43
60.0
  0
MTEXT
  5
852B
330
84B1
100
AcDbEntity
  8
3
 62
     0
100
AcDbMText
 10
4625.451960278468
 20
4429.259327901773
 30
0.0
 40
90.0
 41
0.0
 71
     5
 72
     1
  1
\A1;(950)
 73
     1
 44
1.0
1001
ACAD
1000
MTEXTBEGIN
1070
    73
1070
     1
1070
    44
1040
1.0
1070
    74
1070
     0
1000
MTEXTEND
  0
POINT
  5
852C
330
84B1
100
AcDbEntity
  8
DEFPOINTS
 62
     0
100
AcDbPoint
 10
4150.451960278467
 20
3575.233310273386
 30
0.0
  0
POINT
  5
852D
330
84B1
100
AcDbEntity
  8
DEFPOINTS
 62
     0
100
AcDbPoint
 10
5100.451960278469
 20
4251.425263807013
 30
0.0
  0
POINT
  5
852E
330
84B1
100
AcDbEntity
  8
DEFPOINTS
 62
     0
100
AcDbPoint
 10
5100.451960278469
 20
4330.687899330344
 30
0.0
  0
ENDBLK
  5
84B3
330
84B1
100
AcDbEntity
  8
0
100
AcDbBlockEnd
  0
BLOCK
  5
84BF
330
84BE
100
AcDbEntity
  8
0
100
AcDbBlockBegin
  2
*D31
 70
     1
 10
0.0
 20
0.0
 30
0.0
  3
*D31
  1

  0
LINE
  5
852F
330
84BE
100
AcDbEntity
  8
3
 62
     0
370
    -2
100
AcDbLine
 10
5100.451960278469
 20
4281.425263807013
 30
0.0
 11
5100.451960278469
 21
4360.687899330344
 31
0.0
  0
LINE
  5
8530
330
84BE
100
AcDbEntity
  8
3
 62
     0
370
    -2
100
AcDbLine
 10
5780.451960278469
 20
3285.733310273387
 30
0.0
 11
5780.451960278469
 21
4360.687899330344
 31
0.0
  0
LINE
  5
8531
330
84BE
100
AcDbEntity
  8
3
 62
     0
370
    -2
100
AcDbLine
 10
5160.45196027847
 20
4330.687899330344
 30
0.0
 11
5720.451960278469
 21
4330.687899330344
 31
0.0
  0
INSERT
  5
8532
330
84BE
100
AcDbEntity
  8
3
 62
     0
370
    -2
100
AcDbBlockReference
  2
_OPEN
 10
5100.451960278469
 20
4330.687899330344
 30
0.0
 41
60.0
 42
60.0
 43
60.0
 50
180.0
  0
INSERT
  5
8533
330
84BE
100
AcDbEntity
  8
3
 62
     0
370
    -2
100
AcDbBlockReference
  2
_OPEN
 10
5780.451960278469
 20
4330.687899330344
 30
0.0
 41
60.0
 42
60.0
 43
60.0
  0
MTEXT
  5
8534
330
84BE
100
AcDbEntity
  8
3
 62
     0
100
AcDbMText
 10
5440.451960278469
 20
4429.259327901773
 30
0.0
 40
90.0
 41
0.0
 71
     5
 72
     1
  1
\A1;(680)
 73
     1
 44
1.0
1001
ACAD
1000
MTEXTBEGIN
1070
    73
1070
     1
1070
    44
1040
1.0
1070
    74
1070
     0
1000
MTEXTEND
  0
POINT
  5
8535
330
84BE
100
AcDbEntity
  8
DEFPOINTS
 62
     0
100
AcDbPoint
 10
5100.451960278469
 20
4251.425263807013
 30
0.0
  0
POINT
  5
8536
330
84BE
100
AcDbEntity
  8
DEFPOINTS
 62
     0
100
AcDbPoint
 10
5780.451960278469
 20
3255.733310273387
 30
0.0
  0
POINT
  5
8537
330
84BE
100
AcDbEntity
  8
DEFPOINTS
 62
     0
100
AcDbPoint
 10
5780.451960278469
 20
4330.687899330344
 30
0.0
  0
ENDBLK
  5
84C0
330
84BE
100
AcDbEntity
  8
0
100
AcDbBlockEnd
  0
BLOCK
  5
84D0
330
84CF
100
AcDbEntity
  8
0
100
AcDbBlockBegin
  2
*D32
 70
     1
 10
0.0
 20
0.0
 30
0.0
  3
*D32
  1

  0
LINE
  5
84E7
330
84CF
100
AcDbEntity
  8
3
 62
     0
370
    -2
100
AcDbLine
 10
5690.45196027847
 20
2820.233310273387
 30
0.0
 11
6014.342954106606
 21
2820.233310273387
 31
0.0
  0
LINE
  5
84E8
330
84CF
100
AcDbEntity
  8
3
 62
     0
370
    -2
100
AcDbLine
 10
5690.45196027847
 20
3770.233310273387
 30
0.0
 11
6014.342954106606
 21
3770.233310273387
 31
0.0
  0
LINE
  5
84E9
330
84CF
100
AcDbEntity
  8
3
 62
     0
370
    -2
100
AcDbLine
 10
5984.342954106605
 20
2880.233310273387
 30
0.0
 11
5984.342954106605
 21
3710.233310273387
 31
0.0
  0
INSERT
  5
84EA
330
84CF
100
AcDbEntity
  8
3
 62
     0
370
    -2
100
AcDbBlockReference
  2
_OPEN
 10
5984.342954106605
 20
2820.233310273387
 30
0.0
 41
60.0
 42
60.0
 43
60.0
 50
270.0
  0
INSERT
  5
84EB
330
84CF
100
AcDbEntity
  8
3
 62
     0
370
    -2
100
AcDbBlockReference
  2
_OPEN
 10
5984.342954106605
 20
3770.233310273387
 30
0.0
 41
60.0
 42
60.0
 43
60.0
 50
90.0
  0
MTEXT
  5
84EC
330
84CF
100
AcDbEntity
  8
3
 62
     0
100
AcDbMText
 10
5909.342954106604
 20
3295.233310273388
 30
0.0
 40
90.0
 41
0.0
 71
     5
 72
     1
  1
\A1;\U+03C6950
 11
0.0000000000000001
 21
1.0
 31
0.0
 73
     1
 44
1.0
1001
ACAD
1000
MTEXTBEGIN
1070
    73
1070
     1
1070
    44
1040
1.0
1070
    74
1070
     0
1000
MTEXTEND
  0
POINT
  5
84ED
330
84CF
100
AcDbEntity
  8
DEFPOINTS
 62
     0
100
AcDbPoint
 10
5660.451960278471
 20
2820.233310273387
 30
0.0
  0
POINT
  5
84EE
330
84CF
100
AcDbEntity
  8
DEFPOINTS
 62
     0
100
AcDbPoint
 10
5660.451960278471
 20
3770.233310273387
 30
0.0
  0
POINT
  5
84EF
330
84CF
100
AcDbEntity
  8
DEFPOINTS
 62
     0
100
AcDbPoint
 10
5984.342954106605
 20
3770.233310273387
 30
0.0
  0
ENDBLK
  5
84D1
330
84CF
100
AcDbEntity
  8
0
100
AcDbBlockEnd
  0
BLOCK
  5
8539
330
8538
100
AcDbEntity
  8
0
100
AcDbBlockBegin
  2
*D33
 70
     1
 10
0.0
 20
0.0
 30
0.0
  3
*D33
  1

  0
LINE
  5
853B
330
8538
100
AcDbEntity
  8
3
 62
     0
370
    -2
100
AcDbLine
 10
3427.933136459587
 20
5061.439780538585
 30
0.0
 11
3427.933136459587
 21
4660.767621056513
 31
0.0
  0
LINE
  5
853C
330
8538
100
AcDbEntity
  8
3
 62
     0
370
    -2
100
AcDbLine
 10
1557.933136459587
 20
5061.439780538585
 30
0.0
 11
1557.933136459587
 21
4660.767621056513
 31
0.0
  0
LINE
  5
853D
330
8538
100
AcDbEntity
  8
3
 62
     0
370
    -2
100
AcDbLine
 10
3422.533136459587
 20
4666.167621056512
 30
0.0
 11
2504.633136459587
 21
4666.167621056512
 31
0.0
  0
LINE
  5
853E
330
8538
100
AcDbEntity
  8
3
 62
     0
370
    -2
100
AcDbLine
 10
1563.333136459587
 20
4666.167621056512
 30
0.0
 11
2481.233136459587
 21
4666.167621056512
 31
0.0
  0
SOLID
  5
853F
330
8538
100
AcDbEntity
  8
3
 62
     0
100
AcDbTrace
 10
3422.533136459587
 20
4667.067621056513
 30
0.0
 11
3422.533136459587
 21
4665.267621056513
 31
0.0
 12
3427.933136459587
 22
4666.167621056512
 32
0.0
 13
3427.933136459587
 23
4666.167621056512
 33
0.0
  0
SOLID
  5
8540
330
8538
100
AcDbEntity
  8
3
 62
     0
100
AcDbTrace
 10
1563.333136459587
 20
4667.067621056513
 30
0.0
 11
1563.333136459587
 21
4665.267621056513
 31
0.0
 12
1557.933136459587
 22
4666.167621056512
 32
0.0
 13
1557.933136459587
 23
4666.167621056512
 33
0.0
  0
MTEXT
  5
8541
330
8538
100
AcDbEntity
  8
3
 62
     0
100
AcDbMText
 10
2492.933136459587
 20
4666.167621056512
 30
0.0
 40
5.399999999999999
 41
0.0
 71
     5
 72
     1
  1
\A1;1870
 73
     1
 44
1.0
1001
ACAD
1000
MTEXTBEGIN
1070
    73
1070
     1
1070
    44
1040
1.0
1070
    74
1070
     0
1000
MTEXTEND
  0
POINT
  5
8542
330
8538
100
AcDbEntity
  8
DEFPOINTS
 62
     0
100
AcDbPoint
 10
3427.933136459587
 20
5063.314780538585
 30
0.0
  0
POINT
  5
8543
330
8538
100
AcDbEntity
  8
DEFPOINTS
 62
     0
100
AcDbPoint
 10
1557.933136459587
 20
5063.314780538585
 30
0.0
  0
POINT
  5
8544
330
8538
100
AcDbEntity
  8
DEFPOINTS
 62
     0
100
AcDbPoint
 10
1557.933136459587
 20
4666.167621056512
 30
0.0
  0
ENDBLK
  5
853A
330
8538
100
AcDbEntity
  8
0
100
AcDbBlockEnd
  0
BLOCK
  5
8547
330
8546
100
AcDbEntity
  8
0
100
AcDbBlockBegin
  2
*D34
 70
     1
 10
0.0
 20
0.0
 30
0.0
  3
*D34
  1

  0
LINE
  5
8549
330
8546
100
AcDbEntity
  8
3
 62
     0
370
    -2
100
AcDbLine
 10
1557.933136459588
 20
5033.314780538585
 30
0.0
 11
1557.933136459588
 21
4638.500591399454
 31
0.0
  0
LINE
  5
854A
330
8546
100
AcDbEntity
  8
3
 62
     0
370
    -2
100
AcDbLine
 10
3427.933136459587
 20
5033.314780538585
 30
0.0
 11
3427.933136459587
 21
4638.500591399454
 31
0.0
  0
LINE
  5
854B
330
8546
100
AcDbEntity
  8
3
 62
     0
370
    -2
100
AcDbLine
 10
1617.933136459589
 20
4668.500591399453
 30
0.0
 11
3367.933136459587
 21
4668.500591399453
 31
0.0
  0
INSERT
  5
854C
330
8546
100
AcDbEntity
  8
3
 62
     0
370
    -2
100
AcDbBlockReference
  2
_OPEN
 10
1557.933136459588
 20
4668.500591399453
 30
0.0
 41
60.0
 42
60.0
 43
60.0
 50
180.0
  0
INSERT
  5
854D
330
8546
100
AcDbEntity
  8
3
 62
     0
370
    -2
100
AcDbBlockReference
  2
_OPEN
 10
3427.933136459587
 20
4668.500591399453
 30
0.0
 41
60.0
 42
60.0
 43
60.0
  0
MTEXT
  5
854E
330
8546
100
AcDbEntity
  8
3
 62
     0
100
AcDbMText
 10
2492.933136459588
 20
4743.500591399453
 30
0.0
 40
90.0
 41
0.0
 71
     5
 72
     1
  1
\A1;1870
 73
     1
 44
1.0
1001
ACAD
1000
MTEXTBEGIN
1070
    73
1070
     1
1070
    44
1040
1.0
1070
    74
1070
     0
1000
MTEXTEND
  0
POINT
  5
854F
330
8546
100
AcDbEntity
  8
DEFPOINTS
 62
     0
100
AcDbPoint
 10
1557.933136459588
 20
5063.314780538585
 30
0.0
  0
POINT
  5
8550
330
8546
100
AcDbEntity
  8
DEFPOINTS
 62
     0
100
AcDbPoint
 10
3427.933136459587
 20
5063.314780538585
 30
0.0
  0
POINT
  5
8551
330
8546
100
AcDbEntity
  8
DEFPOINTS
 62
     0
100
AcDbPoint
 10
3427.933136459587
 20
4668.500591399453
 30
0.0
  0
ENDBLK
  5
8548
330
8546
100
AcDbEntity
  8
0
100
AcDbBlockEnd
  0
BLOCK
  5
8554
330
8553
100
AcDbEntity
  8
0
100
AcDbBlockBegin
  2
*D35
 70
     1
 10
0.0
 20
0.0
 30
0.0
  3
*D35
  1

  0
LINE
  5
8556
330
8553
100
AcDbEntity
  8
3
 62
     0
370
    -2
100
AcDbLine
 10
1527.933136459587
 20
5063.314780538585
 30
0.0
 11
1227.508914293172
 21
5063.314780538585
 31
0.0
  0
LINE
  5
8557
330
8553
100
AcDbEntity
  8
3
 62
     0
370
    -2
100
AcDbLine
 10
1527.933136459587
 20
6438.314780538584
 30
0.0
 11
1227.508914293172
 21
6438.314780538584
 31
0.0
  0
LINE
  5
8558
330
8553
100
AcDbEntity
  8
3
 62
     0
370
    -2
100
AcDbLine
 10
1257.508914293172
 20
5123.314780538585
 30
0.0
 11
1257.508914293172
 21
6378.314780538584
 31
0.0
  0
INSERT
  5
8559
330
8553
100
AcDbEntity
  8
3
 62
     0
370
    -2
100
AcDbBlockReference
  2
_OPEN
 10
1257.508914293172
 20
5063.314780538585
 30
0.0
 41
60.0
 42
60.0
 43
60.0
 50
270.0
  0
INSERT
  5
855A
330
8553
100
AcDbEntity
  8
3
 62
     0
370
    -2
100
AcDbBlockReference
  2
_OPEN
 10
1257.508914293172
 20
6438.314780538584
 30
0.0
 41
60.0
 42
60.0
 43
60.0
 50
90.0
  0
MTEXT
  5
855B
330
8553
100
AcDbEntity
  8
3
 62
     0
100
AcDbMText
 10
1182.508914293171
 20
5750.814780538585
 30
0.0
 40
90.0
 41
0.0
 71
     5
 72
     1
  1
\A1;1375
 11
0.0000000000000001
 21
1.0
 31
0.0
 73
     1
 44
1.0
1001
ACAD
1000
MTEXTBEGIN
1070
    73
1070
     1
1070
    44
1040
1.0
1070
    74
1070
     0
1000
MTEXTEND
  0
POINT
  5
855C
330
8553
100
AcDbEntity
  8
DEFPOINTS
 62
     0
100
AcDbPoint
 10
1557.933136459587
 20
5063.314780538585
 30
0.0
  0
POINT
  5
855D
330
8553
100
AcDbEntity
  8
DEFPOINTS
 62
     0
100
AcDbPoint
 10
1557.933136459587
 20
6438.314780538584
 30
0.0
  0
POINT
  5
855E
330
8553
100
AcDbEntity
  8
DEFPOINTS
 62
     0
100
AcDbPoint
 10
1257.508914293172
 20
6438.314780538584
 30
0.0
  0
ENDBLK
  5
8555
330
8553
100
AcDbEntity
  8
0
100
AcDbBlockEnd
  0
BLOCK
  5
8561
330
8560
100
AcDbEntity
  8
0
100
AcDbBlockBegin
  2
*D36
 70
     1
 10
0.0
 20
0.0
 30
0.0
  3
*D36
  1

  0
LINE
  5
8563
330
8560
100
AcDbEntity
  8
3
 62
     0
370
    -2
100
AcDbLine
 10
3457.933136459587
 20
5063.314780538586
 30
0.0
 11
3758.673842846212
 21
5063.314780538586
 31
0.0
  0
LINE
  5
8564
330
8560
100
AcDbEntity
  8
3
 62
     0
370
    -2
100
AcDbLine
 10
3457.933136459587
 20
5863.314780538586
 30
0.0
 11
3758.673842846213
 21
5863.314780538586
 31
0.0
  0
LINE
  5
8565
330
8560
100
AcDbEntity
  8
3
 62
     0
370
    -2
100
AcDbLine
 10
3728.673842846213
 20
5123.314780538586
 30
0.0
 11
3728.673842846213
 21
5803.314780538586
 31
0.0
  0
INSERT
  5
8566
330
8560
100
AcDbEntity
  8
3
 62
     0
370
    -2
100
AcDbBlockReference
  2
_OPEN
 10
3728.673842846212
 20
5063.314780538586
 30
0.0
 41
60.0
 42
60.0
 43
60.0
 50
270.0
  0
INSERT
  5
8567
330
8560
100
AcDbEntity
  8
3
 62
     0
370
    -2
100
AcDbBlockReference
  2
_OPEN
 10
3728.673842846213
 20
5863.314780538586
 30
0.0
 41
60.0
 42
60.0
 43
60.0
 50
90.0
  0
MTEXT
  5
8568
330
8560
100
AcDbEntity
  8
3
 62
     0
100
AcDbMText
 10
3653.673842846212
 20
5463.314780538587
 30
0.0
 40
90.0
 41
0.0
 71
     5
 72
     1
  1
\A1;800
 11
0.0000000000000001
 21
1.0
 31
0.0
 73
     1
 44
1.0
1001
ACAD
1000
MTEXTBEGIN
1070
    73
1070
     1
1070
    44
1040
1.0
1070
    74
1070
     0
1000
MTEXTEND
  0
POINT
  5
8569
330
8560
100
AcDbEntity
  8
DEFPOINTS
 62
     0
100
AcDbPoint
 10
3427.933136459587
 20
5063.314780538586
 30
0.0
  0
POINT
  5
856A
330
8560
100
AcDbEntity
  8
DEFPOINTS
 62
     0
100
AcDbPoint
 10
3427.933136459587
 20
5863.314780538586
 30
0.0
  0
POINT
  5
856B
330
8560
100
AcDbEntity
  8
DEFPOINTS
 62
     0
100
AcDbPoint
 10
3728.673842846213
 20
5863.314780538586
 30
0.0
  0
ENDBLK
  5
8562
330
8560
100
AcDbEntity
  8
0
100
AcDbBlockEnd
  0
BLOCK
  5
856E
330
856D
100
AcDbEntity
  8
0
100
AcDbBlockBegin
  2
*D37
 70
     1
 10
0.0
 20
0.0
 30
0.0
  3
*D37
  1

  0
LINE
  5
8570
330
856D
100
AcDbEntity
  8
3
 62
     0
370
    -2
100
AcDbLine
 10
1557.933136459588
 20
6468.314780538584
 30
0.0
 11
1557.933136459588
 21
6800.329439043807
 31
0.0
  0
LINE
  5
8571
330
856D
100
AcDbEntity
  8
3
 62
     0
370
    -2
100
AcDbLine
 10
2677.933136459587
 20
6468.314780538586
 30
0.0
 11
2677.933136459587
 21
6800.329439043807
 31
0.0
  0
LINE
  5
8572
330
856D
100
AcDbEntity
  8
3
 62
     0
370
    -2
100
AcDbLine
 10
1617.933136459589
 20
6770.329439043807
 30
0.0
 11
2617.933136459587
 21
6770.329439043807
 31
0.0
  0
INSERT
  5
8573
330
856D
100
AcDbEntity
  8
3
 62
     0
370
    -2
100
AcDbBlockReference
  2
_OPEN
 10
1557.933136459588
 20
6770.329439043807
 30
0.0
 41
60.0
 42
60.0
 43
60.0
 50
180.0
  0
INSERT
  5
8574
330
856D
100
AcDbEntity
  8
3
 62
     0
370
    -2
100
AcDbBlockReference
  2
_OPEN
 10
2677.933136459587
 20
6770.329439043807
 30
0.0
 41
60.0
 42
60.0
 43
60.0
  0
MTEXT
  5
8575
330
856D
100
AcDbEntity
  8
3
 62
     0
100
AcDbMText
 10
2117.933136459588
 20
6845.329439043807
 30
0.0
 40
90.0
 41
0.0
 71
     5
 72
     1
  1
\A1;1120
 73
     1
 44
1.0
1001
ACAD
1000
MTEXTBEGIN
1070
    73
1070
     1
1070
    44
1040
1.0
1070
    74
1070
     0
1000
MTEXTEND
  0
POINT
  5
8576
330
856D
100
AcDbEntity
  8
DEFPOINTS
 62
     0
100
AcDbPoint
 10
1557.933136459588
 20
6438.314780538584
 30
0.0
  0
POINT
  5
8577
330
856D
100
AcDbEntity
  8
DEFPOINTS
 62
     0
100
AcDbPoint
 10
2677.933136459587
 20
6438.314780538586
 30
0.0
  0
POINT
  5
8578
330
856D
100
AcDbEntity
  8
DEFPOINTS
 62
     0
100
AcDbPoint
 10
2677.933136459587
 20
6770.329439043807
 30
0.0
  0
ENDBLK
  5
856F
330
856D
100
AcDbEntity
  8
0
100
AcDbBlockEnd
  0
BLOCK
  5
857B
330
857A
100
AcDbEntity
  8
0
100
AcDbBlockBegin
  2
*D38
 70
     1
 10
0.0
 20
0.0
 30
0.0
  3
*D38
  1

  0
LINE
  5
857D
330
857A
100
AcDbEntity
  8
3
 62
     0
370
    -2
100
AcDbLine
 10
1557.933136459587
 20
6468.314780538584
 30
0.0
 11
1557.933136459587
 21
6770.329439043809
 31
0.0
  0
LINE
  5
857E
330
857A
100
AcDbEntity
  8
3
 62
     0
370
    -2
100
AcDbLine
 10
2677.933136459587
 20
6468.314780538584
 30
0.0
 11
2677.933136459587
 21
6770.329439043809
 31
0.0
  0
LINE
  5
857F
330
857A
100
AcDbEntity
  8
3
 62
     0
370
    -2
100
AcDbLine
 10
1617.933136459587
 20
6740.329439043809
 30
0.0
 11
2617.933136459587
 21
6740.329439043809
 31
0.0
  0
INSERT
  5
8580
330
857A
100
AcDbEntity
  8
3
 62
     0
370
    -2
100
AcDbBlockReference
  2
_OPEN
 10
1557.933136459587
 20
6740.329439043809
 30
0.0
 41
60.0
 42
60.0
 43
60.0
 50
180.0
  0
INSERT
  5
8581
330
857A
100
AcDbEntity
  8
3
 62
     0
370
    -2
100
AcDbBlockReference
  2
_OPEN
 10
2677.933136459587
 20
6740.329439043809
 30
0.0
 41
60.0
 42
60.0
 43
60.0
  0
MTEXT
  5
8582
330
857A
100
AcDbEntity
  8
3
 62
     0
100
AcDbMText
 10
2117.933136459587
 20
6815.329439043809
 30
0.0
 40
90.0
 41
0.0
 71
     5
 72
     1
  1
\A1;1120
 73
     1
 44
1.0
1001
ACAD
1000
MTEXTBEGIN
1070
    73
1070
     1
1070
    44
1040
1.0
1070
    74
1070
     0
1000
MTEXTEND
  0
POINT
  5
8583
330
857A
100
AcDbEntity
  8
DEFPOINTS
 62
     0
100
AcDbPoint
 10
1557.933136459587
 20
6438.314780538584
 30
0.0
  0
POINT
  5
8584
330
857A
100
AcDbEntity
  8
DEFPOINTS
 62
     0
100
AcDbPoint
 10
2677.933136459587
 20
6438.314780538584
 30
0.0
  0
POINT
  5
8585
330
857A
100
AcDbEntity
  8
DEFPOINTS
 62
     0
100
AcDbPoint
 10
2677.933136459587
 20
6740.329439043809
 30
0.0
  0
ENDBLK
  5
857C
330
857A
100
AcDbEntity
  8
0
100
AcDbBlockEnd
  0
BLOCK
  5
8588
330
8587
100
AcDbEntity
  8
0
100
AcDbBlockBegin
  2
*D39
 70
     1
 10
0.0
 20
0.0
 30
0.0
  3
*D39
  1

  0
LINE
  5
858A
330
8587
100
AcDbEntity
  8
3
 62
     0
370
    -2
100
AcDbLine
 10
2677.933136459587
 20
6468.314780538584
 30
0.0
 11
2677.933136459587
 21
6770.329439043809
 31
0.0
  0
LINE
  5
858B
330
8587
100
AcDbEntity
  8
3
 62
     0
370
    -2
100
AcDbLine
 10
3427.933136459587
 20
5893.314780538585
 30
0.0
 11
3427.933136459587
 21
6770.329439043809
 31
0.0
  0
LINE
  5
858C
330
8587
100
AcDbEntity
  8
3
 62
     0
370
    -2
100
AcDbLine
 10
2737.933136459587
 20
6740.329439043809
 30
0.0
 11
3367.933136459587
 21
6740.329439043809
 31
0.0
  0
INSERT
  5
858D
330
8587
100
AcDbEntity
  8
3
 62
     0
370
    -2
100
AcDbBlockReference
  2
_OPEN
 10
2677.933136459587
 20
6740.329439043809
 30
0.0
 41
60.0
 42
60.0
 43
60.0
 50
180.0
  0
INSERT
  5
858E
330
8587
100
AcDbEntity
  8
3
 62
     0
370
    -2
100
AcDbBlockReference
  2
_OPEN
 10
3427.933136459587
 20
6740.329439043809
 30
0.0
 41
60.0
 42
60.0
 43
60.0
  0
MTEXT
  5
858F
330
8587
100
AcDbEntity
  8
3
 62
     0
100
AcDbMText
 10
3052.933136459587
 20
6815.329439043809
 30
0.0
 40
90.0
 41
0.0
 71
     5
 72
     1
  1
\A1;750
 73
     1
 44
1.0
1001
ACAD
1000
MTEXTBEGIN
1070
    73
1070
     1
1070
    44
1040
1.0
1070
    74
1070
     0
1000
MTEXTEND
  0
POINT
  5
8590
330
8587
100
AcDbEntity
  8
DEFPOINTS
 62
     0
100
AcDbPoint
 10
2677.933136459587
 20
6438.314780538584
 30
0.0
  0
POINT
  5
8591
330
8587
100
AcDbEntity
  8
DEFPOINTS
 62
     0
100
AcDbPoint
 10
3427.933136459587
 20
5863.314780538585
 30
0.0
  0
POINT
  5
8592
330
8587
100
AcDbEntity
  8
DEFPOINTS
 62
     0
100
AcDbPoint
 10
3427.933136459587
 20
6740.329439043809
 30
0.0
  0
ENDBLK
  5
8589
330
8587
100
AcDbEntity
  8
0
100
AcDbBlockEnd
  0
BLOCK
  5
8595
330
8594
100
AcDbEntity
  8
0
100
AcDbBlockBegin
  2
*D40
 70
     1
 10
0.0
 20
0.0
 30
0.0
  3
*D40
  1

  0
LINE
  5
8597
330
8594
100
AcDbEntity
  8
3
 62
     0
370
    -2
100
AcDbLine
 10
1497.933136459589
 20
3331.733310273386
 30
0.0
 11
1497.933136459589
 21
4430.298336047842
 31
0.0
  0
LINE
  5
8598
330
8594
100
AcDbEntity
  8
3
 62
     0
370
    -2
100
AcDbLine
 10
3427.933136459587
 20
2325.233310273386
 30
0.0
 11
3427.933136459587
 21
4430.298336047842
 31
0.0
  0
LINE
  5
8599
330
8594
100
AcDbEntity
  8
3
 62
     0
370
    -2
100
AcDbLine
 10
1557.933136459588
 20
4400.298336047842
 30
0.0
 11
3367.933136459587
 21
4400.298336047842
 31
0.0
  0
INSERT
  5
859A
330
8594
100
AcDbEntity
  8
3
 62
     0
370
    -2
100
AcDbBlockReference
  2
_OPEN
 10
1497.933136459589
 20
4400.298336047842
 30
0.0
 41
60.0
 42
60.0
 43
60.0
 50
180.0
  0
INSERT
  5
859B
330
8594
100
AcDbEntity
  8
3
 62
     0
370
    -2
100
AcDbBlockReference
  2
_OPEN
 10
3427.933136459587
 20
4400.298336047842
 30
0.0
 41
60.0
 42
60.0
 43
60.0
  0
MTEXT
  5
859C
330
8594
100
AcDbEntity
  8
3
 62
     0
100
AcDbMText
 10
2462.933136459588
 20
4475.298336047841
 30
0.0
 40
90.0
 41
0.0
 71
     5
 72
     1
  1
\A1;1930
 73
     1
 44
1.0
1001
ACAD
1000
MTEXTBEGIN
1070
    73
1070
     1
1070
    44
1040
1.0
1070
    74
1070
     0
1000
MTEXTEND
  0
POINT
  5
859D
330
8594
100
AcDbEntity
  8
DEFPOINTS
 62
     0
100
AcDbPoint
 10
1497.933136459589
 20
3301.733310273387
 30
0.0
  0
POINT
  5
859E
330
8594
100
AcDbEntity
  8
DEFPOINTS
 62
     0
100
AcDbPoint
 10
3427.933136459587
 20
2295.233310273386
 30
0.0
  0
POINT
  5
859F
330
8594
100
AcDbEntity
  8
DEFPOINTS
 62
     0
100
AcDbPoint
 10
3427.933136459587
 20
4400.298336047842
 30
0.0
  0
ENDBLK
  5
8596
330
8594
100
AcDbEntity
  8
0
100
AcDbBlockEnd
  0
BLOCK
  5
85A2
330
85A1
100
AcDbEntity
  8
0
100
AcDbBlockBegin
  2
*D41
 70
     1
 10
0.0
 20
0.0
 30
0.0
  3
*D41
  1

  0
LINE
  5
85A4
330
85A1
100
AcDbEntity
  8
3
 62
     0
370
    -2
100
AcDbLine
 10
1497.933136459589
 20
3331.733310273386
 30
0.0
 11
1497.933136459589
 21
4234.12684641715
 31
0.0
  0
LINE
  5
85A5
330
85A1
100
AcDbEntity
  8
3
 62
     0
370
    -2
100
AcDbLine
 10
2117.933136459589
 20
4015.320184905997
 30
0.0
 11
2117.933136459589
 21
4234.12684641715
 31
0.0
  0
LINE
  5
85A6
330
85A1
100
AcDbEntity
  8
3
 62
     0
370
    -2
100
AcDbLine
 10
1557.933136459588
 20
4204.126846417151
 30
0.0
 11
2057.933136459589
 21
4204.126846417151
 31
0.0
  0
INSERT
  5
85A7
330
85A1
100
AcDbEntity
  8
3
 62
     0
370
    -2
100
AcDbBlockReference
  2
_OPEN
 10
1497.933136459589
 20
4204.126846417151
 30
0.0
 41
60.0
 42
60.0
 43
60.0
 50
180.0
  0
INSERT
  5
85A8
330
85A1
100
AcDbEntity
  8
3
 62
     0
370
    -2
100
AcDbBlockReference
  2
_OPEN
 10
2117.933136459589
 20
4204.126846417151
 30
0.0
 41
60.0
 42
60.0
 43
60.0
  0
MTEXT
  5
85A9
330
85A1
100
AcDbEntity
  8
3
 62
     0
100
AcDbMText
 10
1807.933136459588
 20
4279.126846417151
 30
0.0
 40
90.0
 41
0.0
 71
     5
 72
     1
  1
\A1;620
 73
     1
 44
1.0
1001
ACAD
1000
MTEXTBEGIN
1070
    73
1070
     1
1070
    44
1040
1.0
1070
    74
1070
     0
1000
MTEXTEND
  0
POINT
  5
85AA
330
85A1
100
AcDbEntity
  8
DEFPOINTS
 62
     0
100
AcDbPoint
 10
1497.933136459589
 20
3301.733310273387
 30
0.0
  0
POINT
  5
85AB
330
85A1
100
AcDbEntity
  8
DEFPOINTS
 62
     0
100
AcDbPoint
 10
2117.933136459589
 20
3985.320184905996
 30
0.0
  0
POINT
  5
85AC
330
85A1
100
AcDbEntity
  8
DEFPOINTS
 62
     0
100
AcDbPoint
 10
2117.933136459589
 20
4204.126846417151
 30
0.0
  0
ENDBLK
  5
85A3
330
85A1
100
AcDbEntity
  8
0
100
AcDbBlockEnd
  0
BLOCK
  5
85AF
330
85AE
100
AcDbEntity
  8
0
100
AcDbBlockBegin
  2
*D42
 70
     1
 10
0.0
 20
0.0
 30
0.0
  3
*D42
  1

  0
LINE
  5
85B1
330
85AE
100
AcDbEntity
  8
3
 62
     0
370
    -2
100
AcDbLine
 10
2117.933136459589
 20
4015.320184905997
 30
0.0
 11
2117.933136459589
 21
4234.12684641715
 31
0.0
  0
LINE
  5
85B2
330
85AE
100
AcDbEntity
  8
3
 62
     0
370
    -2
100
AcDbLine
 10
2894.933136459589
 20
3258.233310273386
 30
0.0
 11
2894.933136459589
 21
4234.12684641715
 31
0.0
  0
LINE
  5
85B3
330
85AE
100
AcDbEntity
  8
3
 62
     0
370
    -2
100
AcDbLine
 10
2177.933136459589
 20
4204.126846417151
 30
0.0
 11
2834.933136459589
 21
4204.126846417151
 31
0.0
  0
INSERT
  5
85B4
330
85AE
100
AcDbEntity
  8
3
 62
     0
370
    -2
100
AcDbBlockReference
  2
_OPEN
 10
2117.933136459589
 20
4204.126846417151
 30
0.0
 41
60.0
 42
60.0
 43
60.0
 50
180.0
  0
INSERT
  5
85B5
330
85AE
100
AcDbEntity
  8
3
 62
     0
370
    -2
100
AcDbBlockReference
  2
_OPEN
 10
2894.933136459589
 20
4204.126846417151
 30
0.0
 41
60.0
 42
60.0
 43
60.0
  0
MTEXT
  5
85B6
330
85AE
100
AcDbEntity
  8
3
 62
     0
100
AcDbMText
 10
2506.433136459589
 20
4279.126846417151
 30
0.0
 40
90.0
 41
0.0
 71
     5
 72
     1
  1
\A1;777
 73
     1
 44
1.0
1001
ACAD
1000
MTEXTBEGIN
1070
    73
1070
     1
1070
    44
1040
1.0
1070
    74
1070
     0
1000
MTEXTEND
  0
POINT
  5
85B7
330
85AE
100
AcDbEntity
  8
DEFPOINTS
 62
     0
100
AcDbPoint
 10
2117.933136459589
 20
3985.320184905996
 30
0.0
  0
POINT
  5
85B8
330
85AE
100
AcDbEntity
  8
DEFPOINTS
 62
     0
100
AcDbPoint
 10
2894.933136459589
 20
3228.233310273387
 30
0.0
  0
POINT
  5
85B9
330
85AE
100
AcDbEntity
  8
DEFPOINTS
 62
     0
100
AcDbPoint
 10
2894.933136459589
 20
4204.126846417151
 30
0.0
  0
ENDBLK
  5
85B0
330
85AE
100
AcDbEntity
  8
0
100
AcDbBlockEnd
  0
BLOCK
  5
85BC
330
85BB
100
AcDbEntity
  8
0
100
AcDbBlockBegin
  2
*D43
 70
     1
 10
0.0
 20
0.0
 30
0.0
  3
*D43
  1

  0
LINE
  5
85BE
330
85BB
100
AcDbEntity
  8
3
 62
     0
370
    -2
100
AcDbLine
 10
1467.933136459589
 20
3259.233310273387
 30
0.0
 11
1318.318028016377
 21
3259.233310273387
 31
0.0
  0
LINE
  5
85BF
330
85BB
100
AcDbEntity
  8
3
 62
     0
370
    -2
100
AcDbLine
 10
1467.933136459589
 20
2334.233310273386
 30
0.0
 11
1318.318028016377
 21
2334.233310273386
 31
0.0
  0
LINE
  5
85C0
330
85BB
100
AcDbEntity
  8
3
 62
     0
370
    -2
100
AcDbLine
 10
1348.318028016377
 20
3199.233310273387
 30
0.0
 11
1348.318028016377
 21
2394.233310273386
 31
0.0
  0
INSERT
  5
85C1
330
85BB
100
AcDbEntity
  8
3
 62
     0
370
    -2
100
AcDbBlockReference
  2
_OPEN
 10
1348.318028016377
 20
3259.233310273387
 30
0.0
 41
60.0
 42
60.0
 43
60.0
 50
90.0
  0
INSERT
  5
85C2
330
85BB
100
AcDbEntity
  8
3
 62
     0
370
    -2
100
AcDbBlockReference
  2
_OPEN
 10
1348.318028016377
 20
2334.233310273386
 30
0.0
 41
60.0
 42
60.0
 43
60.0
 50
270.0
  0
MTEXT
  5
85C3
330
85BB
100
AcDbEntity
  8
3
 62
     0
100
AcDbMText
 10
1273.318028016376
 20
2796.733310273387
 30
0.0
 40
90.0
 41
0.0
 71
     5
 72
     1
  1
\A1;925
 11
0.0000000000000001
 21
1.0
 31
0.0
 73
     1
 44
1.0
1001
ACAD
1000
MTEXTBEGIN
1070
    73
1070
     1
1070
    44
1040
1.0
1070
    74
1070
     0
1000
MTEXTEND
  0
POINT
  5
85C4
330
85BB
100
AcDbEntity
  8
DEFPOINTS
 62
     0
100
AcDbPoint
 10
1497.933136459589
 20
3259.233310273387
 30
0.0
  0
POINT
  5
85C5
330
85BB
100
AcDbEntity
  8
DEFPOINTS
 62
     0
100
AcDbPoint
 10
1497.933136459589
 20
2334.233310273386
 30
0.0
  0
POINT
  5
85C6
330
85BB
100
AcDbEntity
  8
DEFPOINTS
 62
     0
100
AcDbPoint
 10
1348.318028016377
 20
2334.233310273386
 30
0.0
  0
ENDBLK
  5
85BD
330
85BB
100
AcDbEntity
  8
0
100
AcDbBlockEnd
  0
BLOCK
  5
85C9
330
85C8
100
AcDbEntity
  8
0
100
AcDbBlockBegin
  2
*D44
 70
     1
 10
0.0
 20
0.0
 30
0.0
  3
*D44
  1

  0
LINE
  5
85E1
330
85C8
100
AcDbEntity
  8
3
 62
     0
370
    -2
100
AcDbLine
 10
1527.933136459587
 20
2195.233310273386
 30
0.0
 11
976.2491587345278
 21
2195.233310273386
 31
0.0
  0
LINE
  5
85E2
330
85C8
100
AcDbEntity
  8
3
 62
     0
370
    -2
100
AcDbLine
 10
1431.677797681042
 20
3295.233310273387
 30
0.0
 11
976.249158734528
 21
3295.233310273387
 31
0.0
  0
LINE
  5
85E3
330
85C8
100
AcDbEntity
  8
3
 62
     0
370
    -2
100
AcDbLine
 10
1006.249158734528
 20
2255.233310273387
 30
0.0
 11
1006.249158734528
 21
3235.233310273387
 31
0.0
  0
INSERT
  5
85E4
330
85C8
100
AcDbEntity
  8
3
 62
     0
370
    -2
100
AcDbBlockReference
  2
_OPEN
 10
1006.249158734528
 20
2195.233310273386
 30
0.0
 41
60.0
 42
60.0
 43
60.0
 50
270.0
  0
INSERT
  5
85E5
330
85C8
100
AcDbEntity
  8
3
 62
     0
370
    -2
100
AcDbBlockReference
  2
_OPEN
 10
1006.249158734528
 20
3295.233310273387
 30
0.0
 41
60.0
 42
60.0
 43
60.0
 50
90.0
  0
MTEXT
  5
85E6
330
85C8
100
AcDbEntity
  8
3
 62
     0
100
AcDbMText
 10
931.2491587345274
 20
2745.233310273387
 30
0.0
 40
90.0
 41
0.0
 71
     5
 72
     1
  1
\A1;1100
 11
0.0000000000000001
 21
1.0
 31
0.0
 73
     1
 44
1.0
1001
ACAD
1000
MTEXTBEGIN
1070
    73
1070
     1
1070
    44
1040
1.0
1070
    74
1070
     0
1000
MTEXTEND
  0
POINT
  5
85E7
330
85C8
100
AcDbEntity
  8
DEFPOINTS
 62
     0
100
AcDbPoint
 10
1557.933136459587
 20
2195.233310273386
 30
0.0
  0
POINT
  5
85E8
330
85C8
100
AcDbEntity
  8
DEFPOINTS
 62
     0
100
AcDbPoint
 10
1461.677797681042
 20
3295.233310273387
 30
0.0
  0
POINT
  5
85E9
330
85C8
100
AcDbEntity
  8
DEFPOINTS
 62
     0
100
AcDbPoint
 10
1006.249158734528
 20
3295.233310273387
 30
0.0
  0
ENDBLK
  5
85CA
330
85C8
100
AcDbEntity
  8
0
100
AcDbBlockEnd
  0
BLOCK
  5
85D6
330
85D5
100
AcDbEntity
  8
0
100
AcDbBlockBegin
  2
*D45
 70
     1
 10
0.0
 20
0.0
 30
0.0
  3
*D45
  1

  0
LINE
  5
85D8
330
85D5
100
AcDbEntity
  8
3
 62
     0
370
    -2
100
AcDbLine
 10
1431.677797681042
 20
3295.233310273387
 30
0.0
 11
976.249158734528
 21
3295.233310273387
 31
0.0
  0
LINE
  5
85D9
330
85D5
100
AcDbEntity
  8
3
 62
     0
370
    -2
100
AcDbLine
 10
2154.933136459588
 20
3938.233310273387
 30
0.0
 11
976.2491587345282
 21
3938.233310273387
 31
0.0
  0
LINE
  5
85DA
330
85D5
100
AcDbEntity
  8
3
 62
     0
370
    -2
100
AcDbLine
 10
1006.249158734528
 20
3355.233310273388
 30
0.0
 11
1006.249158734528
 21
3878.233310273387
 31
0.0
  0
INSERT
  5
85DB
330
85D5
100
AcDbEntity
  8
3
 62
     0
370
    -2
100
AcDbBlockReference
  2
_OPEN
 10
1006.249158734528
 20
3295.233310273387
 30
0.0
 41
60.0
 42
60.0
 43
60.0
 50
270.0
  0
INSERT
  5
85DC
330
85D5
100
AcDbEntity
  8
3
 62
     0
370
    -2
100
AcDbBlockReference
  2
_OPEN
 10
1006.249158734528
 20
3938.233310273387
 30
0.0
 41
60.0
 42
60.0
 43
60.0
 50
90.0
  0
MTEXT
  5
85DD
330
85D5
100
AcDbEntity
  8
3
 62
     0
100
AcDbMText
 10
931.2491587345276
 20
3616.733310273388
 30
0.0
 40
90.0
 41
0.0
 71
     5
 72
     1
  1
\A1;643
 11
0.0000000000000001
 21
1.0
 31
0.0
 73
     1
 44
1.0
1001
ACAD
1000
MTEXTBEGIN
1070
    73
1070
     1
1070
    44
1040
1.0
1070
    74
1070
     0
1000
MTEXTEND
  0
POINT
  5
85DE
330
85D5
100
AcDbEntity
  8
DEFPOINTS
 62
     0
100
AcDbPoint
 10
1461.677797681042
 20
3295.233310273387
 30
0.0
  0
POINT
  5
85DF
330
85D5
100
AcDbEntity
  8
DEFPOINTS
 62
     0
100
AcDbPoint
 10
2184.933136459588
 20
3938.233310273387
 30
0.0
  0
POINT
  5
85E0
330
85D5
100
AcDbEntity
  8
DEFPOINTS
 62
     0
100
AcDbPoint
 10
1006.249158734528
 20
3938.233310273387
 30
0.0
  0
ENDBLK
  5
85D7
330
85D5
100
AcDbEntity
  8
0
100
AcDbBlockEnd
  0
BLOCK
  5
85EC
330
85EB
100
AcDbEntity
  8
0
100
AcDbBlockBegin
  2
*D46
 70
     1
 10
0.0
 20
0.0
 30
0.0
  3
*D46
  1

  0
LINE
  5
85F7
330
85EB
100
AcDbEntity
  8
3
 62
     0
370
    -2
100
AcDbLine
 10
1467.933136459589
 20
2334.233310273386
 30
0.0
 11
1152.632538122736
 21
2334.233310273386
 31
0.0
  0
LINE
  5
85F8
330
85EB
100
AcDbEntity
  8
3
 62
     0
370
    -2
100
AcDbLine
 10
1431.677797681042
 20
3295.233310273387
 30
0.0
 11
1152.632538122736
 21
3295.233310273387
 31
0.0
  0
LINE
  5
85F9
330
85EB
100
AcDbEntity
  8
3
 62
     0
370
    -2
100
AcDbLine
 10
1182.632538122736
 20
2394.233310273386
 30
0.0
 11
1182.632538122736
 21
3235.233310273387
 31
0.0
  0
INSERT
  5
85FA
330
85EB
100
AcDbEntity
  8
3
 62
     0
370
    -2
100
AcDbBlockReference
  2
_OPEN
 10
1182.632538122736
 20
2334.233310273386
 30
0.0
 41
60.0
 42
60.0
 43
60.0
 50
270.0
  0
INSERT
  5
85FB
330
85EB
100
AcDbEntity
  8
3
 62
     0
370
    -2
100
AcDbBlockReference
  2
_OPEN
 10
1182.632538122736
 20
3295.233310273387
 30
0.0
 41
60.0
 42
60.0
 43
60.0
 50
90.0
  0
MTEXT
  5
85FC
330
85EB
100
AcDbEntity
  8
3
 62
     0
100
AcDbMText
 10
1107.632538122736
 20
2814.733310273387
 30
0.0
 40
90.0
 41
0.0
 71
     5
 72
     1
  1
\A1;961
 11
0.0000000000000001
 21
1.0
 31
0.0
 73
     1
 44
1.0
1001
ACAD
1000
MTEXTBEGIN
1070
    73
1070
     1
1070
    44
1040
1.0
1070
    74
1070
     0
1000
MTEXTEND
  0
POINT
  5
85FD
330
85EB
100
AcDbEntity
  8
DEFPOINTS
 62
     0
100
AcDbPoint
 10
1497.933136459589
 20
2334.233310273386
 30
0.0
  0
POINT
  5
85FE
330
85EB
100
AcDbEntity
  8
DEFPOINTS
 62
     0
100
AcDbPoint
 10
1461.677797681042
 20
3295.233310273387
 30
0.0
  0
POINT
  5
85FF
330
85EB
100
AcDbEntity
  8
DEFPOINTS
 62
     0
100
AcDbPoint
 10
1182.632538122736
 20
3295.233310273387
 30
0.0
  0
ENDBLK
  5
85ED
330
85EB
100
AcDbEntity
  8
0
100
AcDbBlockEnd
  0
ENDSEC
  0
SECTION
  2
ENTITIES
  0
INSERT
  5
7C3E
330
8456
100
AcDbEntity
  8
0
100
AcDbBlockReference
  2
YA_N
 10
6.0
 20
5.0
 30
0.0
  0
LINE
  5
7C40
330
8456
100
AcDbEntity
  8
2
100
AcDbLine
 10
1461.677797681042
 20
3295.233310273387
 30
0.0
 11
2963.257891098281
 21
3295.233310273387
 31
0.0
  0
LINE
  5
7C41
330
8456
100
AcDbEntity
  8
2
100
AcDbLine
 10
2117.933136459589
 20
3985.320184905996
 30
0.0
 11
2117.933136459589
 21
2068.233310273386
 31
0.0
  0
ARC
  5
7C42
330
8456
100
AcDbEntity
  8
1
100
AcDbCircle
 10
2050.933136459589
 20
3228.233310273387
 30
0.0
 40
844.0
100
AcDbArc
 50
274.5531523872191
 51
4.553152387219013
  0
ARC
  5
7C43
330
8456
100
AcDbEntity
  8
1
100
AcDbCircle
 10
2184.933136459588
 20
3228.233310273387
 30
0.0
 40
710.0
100
AcDbArc
 50
5.41484170612945
 51
95.41484170612944
  0
ARC
  5
7C44
330
8456
100
AcDbEntity
  8
1
100
AcDbCircle
 10
2171.433136459589
 20
3348.733310273387
 30
0.0
 40
589.5
100
AcDbArc
 50
95.20703608834947
 51
185.2070360883495
  0
LINE
  5
7C45
330
8456
100
AcDbEntity
  8
1
100
AcDbLine
 10
1497.933136459589
 20
2291.733310273386
 30
0.0
 11
1497.933136459589
 21
3301.733310273387
 31
0.0
  0
LINE
  5
7C46
330
8456
100
AcDbEntity
  8
1
100
AcDbLine
 10
1497.933136459589
 20
3259.233310273387
 30
0.0
 11
1583.143458174751
 21
3259.233310273387
 31
0.0
  0
LINE
  5
7C47
330
8456
100
AcDbEntity
  8
1
100
AcDbLine
 10
1497.933136459589
 20
2334.233310273386
 30
0.0
 11
2117.933136459589
 21
2386.896873406421
 31
0.0
  0
LINE
  5
7C48
330
8456
100
AcDbEntity
  8
1
100
AcDbLine
 10
1497.933136459589
 20
2291.733310273386
 30
0.0
 11
1500.933136459589
 21
2291.733310273386
 31
0.0
  0
LINE
  5
7C49
330
8456
100
AcDbEntity
  8
1
100
AcDbLine
 10
1497.933136459589
 20
3301.733310273387
 30
0.0
 11
1500.933136459589
 21
3301.733310273387
 31
0.0
  0
LINE
  5
7C4A
330
8456
100
AcDbEntity
  8
1
100
AcDbLine
 10
1537.933136459589
 20
2337.630959507776
 30
0.0
 11
1537.933136459589
 21
3259.233310273387
 31
0.0
  0
LINE
  5
7C4B
330
8456
100
AcDbEntity
  8
1
100
AcDbLine
 10
1500.933136459589
 20
2291.733310273386
 30
0.0
 11
1500.933136459589
 21
3301.733310273387
 31
0.0
  0
LINE
  5
7C4C
330
8456
100
AcDbEntity
  8
1
100
AcDbLine
 10
3427.933136459587
 20
2295.233310273386
 30
0.0
 11
3427.933136459587
 21
2195.233310273386
 31
0.0
  0
LINE
  5
7C4D
330
8456
100
AcDbEntity
  8
1
100
AcDbLine
 10
1557.933136459588
 20
2295.233310273386
 30
0.0
 11
1557.933136459588
 21
2195.233310273386
 31
0.0
  0
LINE
  5
7C4E
330
8456
100
AcDbEntity
  8
1
100
AcDbLine
 10
3427.933136459587
 20
2195.233310273386
 30
0.0
 11
1557.933136459587
 21
2195.233310273386
 31
0.0
1001
ACAD
1000
ASC_BOUNDS
1002
{
1070
    19
1002
}
  0
LINE
  5
7C4F
330
8456
100
AcDbEntity
  8
1
100
AcDbLine
 10
3427.933136459587
 20
2295.233310273386
 30
0.0
 11
1557.933136459587
 21
2295.233310273386
 31
0.0
  0
LINE
  5
7C50
330
8456
100
AcDbEntity
  8
2
100
AcDbLine
 10
3177.93313645959
 20
2863.235801269489
 30
0.0
 11
3177.93313645959
 21
2068.233310273386
 31
0.0
  0
LINE
  5
7C51
330
8456
100
AcDbEntity
  8
2
100
AcDbLine
 10
3475.070023670042
 20
2570.233310273386
 30
0.0
 11
2963.090210005756
 21
2570.233310273386
 31
0.0
  0
LINE
  5
7C52
330
8456
100
AcDbEntity
  8
1
100
AcDbLine
 10
5660.451960278471
 20
3938.233310273387
 30
0.0
 11
5660.451960278471
 21
3331.233310273387
 31
0.0
  0
LINE
  5
7C53
330
8456
100
AcDbEntity
  8
1
100
AcDbLine
 10
4338.451960278461
 20
2195.233310273386
 30
0.0
 11
5713.45196027848
 21
2195.233310273386
 31
0.0
1001
ACAD
1000
ASC_BOUNDS
1002
{
1070
    19
1005
0
1005
0
1005
0
1005
0
1002
}
  0
LINE
  5
7C54
330
8456
100
AcDbEntity
  8
1
100
AcDbLine
 10
4338.451960278469
 20
2295.233310273386
 30
0.0
 11
5713.451960278469
 21
2295.233310273386
 31
0.0
  0
LINE
  5
7C55
330
8456
100
AcDbEntity
  8
1
100
AcDbLine
 10
4338.451960278469
 20
2295.233310273386
 30
0.0
 11
4338.451960278461
 21
2195.233310273386
 31
0.0
  0
LINE
  5
7C56
330
8456
100
AcDbEntity
  8
1
100
AcDbLine
 10
5713.451960278469
 20
2295.233310273386
 30
0.0
 11
5713.45196027848
 21
2195.233310273386
 31
0.0
  0
LINE
  5
7C57
330
8456
100
AcDbEntity
  8
1
100
AcDbLine
 10
5100.451960278469
 20
3938.233310273387
 30
0.0
 11
5660.451960278471
 21
3938.233310273387
 31
0.0
  0
LINE
  5
7C58
330
8456
100
AcDbEntity
  8
2
100
AcDbLine
 10
4157.872861632773
 20
3295.233310273387
 30
0.0
 11
5810.971608036208
 21
3295.233310273387
 31
0.0
  0
LINE
  5
7C59
330
8456
100
AcDbEntity
  8
1
100
AcDbLine
 10
5650.951960278469
 20
2195.233310273386
 30
0.0
 11
5713.45196027848
 21
2195.233310273386
 31
0.0
1001
ACAD
1000
ASC_BOUNDS
1002
{
1070
    19
1005
0
1005
0
1002
}
  0
LINE
  5
7C5A
330
8456
100
AcDbEntity
  8
2
100
AcDbLine
 10
5100.451960278469
 20
4110.45225150941
 30
0.0
 11
5100.451960278467
 21
2068.233310273386
 31
0.0
  0
POINT
  5
7C5B
330
8456
100
AcDbEntity
  8
1
100
AcDbPoint
 10
2891.764799587381
 20
3270.233310273387
 30
0.0
  0
INSERT
  5
7C5C
330
8456
100
AcDbEntity
  8
0
100
AcDbBlockReference
  2
YA_N
 10
-1638.667820090515
 20
-980.7401201518075
 30
0.0
 41
20.0
 42
20.0
 43
20.0
  0
INSERT
  5
7C5E
330
8456
100
AcDbEntity
  8
0
100
AcDbBlockReference
  2
YA_N
 10
-1552.816625123014
 20
-1070.405552057982
 30
0.0
 41
20.0
 42
20.0
 43
20.0
  0
ARC
  5
7C60
330
8456
100
AcDbEntity
  8
1
100
AcDbCircle
 10
3177.93313645959
 20
2570.233310273386
 30
0.0
 40
185.0
100
AcDbArc
 50
287.9452509999999
 51
252.054749
  0
LINE
  5
7C61
330
8456
100
AcDbEntity
  8
1
100
AcDbLine
 10
3120.933136459589
 20
2394.233310273386
 30
0.0
 11
3234.933136459589
 21
2394.233310273386
 31
0.0
  0
LINE
  5
7C62
330
8456
100
AcDbEntity
  8
1
100
AcDbLine
 10
3038.433136459589
 20
2414.374057273386
 30
0.0
 11
3038.433136459589
 21
2386.011264273385
 31
0.0
  0
LINE
  5
7C63
330
8456
100
AcDbEntity
  8
1
100
AcDbLine
 10
3015.933136459589
 20
2465.492343273385
 30
0.0
 11
3015.933136459589
 21
2390.233310273385
 31
0.0
  0
LINE
  5
7C64
330
8456
100
AcDbEntity
  8
1
100
AcDbLine
 10
3075.433136459589
 20
2395.381869273385
 30
0.0
 11
3084.939850459588
 21
2410.304477273386
 31
0.0
  0
LINE
  5
7C65
330
8456
100
AcDbEntity
  8
1
100
AcDbLine
 10
3031.183136459589
 20
2410.233310273386
 30
0.0
 11
3031.183136459589
 21
2390.233310273385
 31
0.0
  0
LINE
  5
7C66
330
8456
100
AcDbEntity
  8
1
100
AcDbLine
 10
3045.683136459589
 20
2410.233310273386
 30
0.0
 11
3045.683136459589
 21
2390.233310273385
 31
0.0
  0
LINE
  5
7C67
330
8456
100
AcDbEntity
  8
1
100
AcDbLine
 10
3075.433136459589
 20
2407.233310273386
 30
0.0
 11
3075.433136459589
 21
2390.233310273385
 31
0.0
  0
ARC
  5
7C68
330
8456
100
AcDbEntity
  8
1
100
AcDbCircle
 10
3177.93313645959
 20
2570.233310273386
 30
0.0
 40
195.000061
100
AcDbArc
 50
225.3736419999999
 51
232.072006
  0
LINE
  5
7C69
330
8456
100
AcDbEntity
  8
1
100
AcDbLine
 10
3072.433136459589
 20
2410.233310273386
 30
0.0
 11
3018.933136459589
 21
2410.233310273386
 31
0.0
  0
ARC
  5
7C6A
330
8456
100
AcDbEntity
  8
1
100
AcDbCircle
 10
3018.933136459589
 20
2407.233310273386
 30
0.0
 40
3.0
100
AcDbArc
 50
90.0
 51
180.0
  0
ARC
  5
7C6B
330
8456
100
AcDbEntity
  8
1
100
AcDbCircle
 10
3047.974213459589
 20
2438.568271273386
 30
0.0
 40
10.000001
100
AcDbArc
 50
133.8248439999999
 51
225.3731539999999
  0
LINE
  5
7C6C
330
8456
100
AcDbEntity
  8
1
100
AcDbLine
 10
3040.832688459589
 20
2446.029147273386
 30
0.0
 11
3038.547898459588
 21
2443.834445273386
 31
0.0
  0
LINE
  5
7C6D
330
8456
100
AcDbEntity
  8
1
100
AcDbLine
 10
3036.706696459589
 20
2450.733920273385
 30
0.0
 11
3034.421906459589
 21
2448.539218273385
 31
0.0
  0
ARC
  5
7C6E
330
8456
100
AcDbEntity
  8
1
100
AcDbCircle
 10
3036.500153459588
 20
2446.375766273385
 30
0.0
 40
2.999938999999999
100
AcDbArc
 50
133.849228
 51
221.211472
  0
ARC
  5
7C6F
330
8456
100
AcDbEntity
  8
1
100
AcDbCircle
 10
3177.933197459589
 20
2570.233310273386
 30
0.0
 40
191.0000149999999
100
AcDbArc
 50
221.209732
 51
221.2901459999999
  0
ARC
  5
7C70
330
8456
100
AcDbEntity
  8
1
100
AcDbCircle
 10
3036.674164459589
 20
2446.177279273385
 30
0.0
 40
2.999964999999999
100
AcDbArc
 50
221.290649
 51
308.651794
  0
LINE
  5
7C71
330
8456
100
AcDbEntity
  8
1
100
AcDbLine
 10
3067.109223459588
 20
2410.233310273386
 30
0.0
 11
3072.28897145959
 21
2418.363925273386
 31
0.0
  0
ARC
  5
7C72
330
8456
100
AcDbEntity
  8
1
100
AcDbCircle
 10
3064.21902545959
 20
2424.308261273385
 30
0.0
 40
9.999959
100
AcDbArc
 50
232.0721129999999
 51
323.7348329999999
  0
ARC
  5
7C73
330
8456
100
AcDbEntity
  8
1
100
AcDbCircle
 10
3072.433136459589
 20
2407.233310273386
 30
0.0
 40
3.0
100
AcDbArc
 50
0.0
 51
90.0
  0
LINE
  5
7C74
330
8456
100
AcDbEntity
  8
1
100
AcDbLine
 10
3015.933136459589
 20
2465.492343273385
 30
0.0
 11
3022.317108459589
 21
2470.190097273386
 31
0.0
  0
ARC
  5
7C75
330
8456
100
AcDbEntity
  8
1
100
AcDbCircle
 10
3021.543488459589
 20
2465.896029273386
 30
0.0
 40
3.000013999999998
100
AcDbArc
 50
126.349533
 51
213.7114109999999
  0
LINE
  5
7C76
330
8456
100
AcDbEntity
  8
1
100
AcDbLine
 10
3025.953400459588
 20
2464.748080273387
 30
0.0
 11
3023.24209645959
 21
2463.109164273385
 31
0.0
  0
ARC
  5
7C77
330
8456
100
AcDbEntity
  8
1
100
AcDbCircle
 10
3177.933197459589
 20
2570.233310273386
 30
0.0
 40
190.999969
100
AcDbArc
 50
213.709717
 51
213.790161
  0
ARC
  5
7C78
330
8456
100
AcDbEntity
  8
1
100
AcDbCircle
 10
3021.69015545959
 20
2465.676547273385
 30
0.0
 40
3.000036999999998
100
AcDbArc
 50
213.7896419999999
 51
301.151276
  0
LINE
  5
7C79
330
8456
100
AcDbEntity
  8
1
100
AcDbLine
 10
3280.433136459588
 20
2395.381869273385
 30
0.0
 11
3270.926422459588
 21
2410.304477273386
 31
0.0
  0
LINE
  5
7C7A
330
8456
100
AcDbEntity
  8
1
100
AcDbLine
 10
3324.683136459589
 20
2410.233310273386
 30
0.0
 11
3324.683136459589
 21
2390.233310273385
 31
0.0
  0
LINE
  5
7C7B
330
8456
100
AcDbEntity
  8
1
100
AcDbLine
 10
3310.18313645959
 20
2410.233310273386
 30
0.0
 11
3310.18313645959
 21
2390.233310273385
 31
0.0
  0
LINE
  5
7C7C
330
8456
100
AcDbEntity
  8
1
100
AcDbLine
 10
3317.43313645959
 20
2414.374057273386
 30
0.0
 11
3317.43313645959
 21
2386.011264273385
 31
0.0
  0
LINE
  5
7C7D
330
8456
100
AcDbEntity
  8
1
100
AcDbLine
 10
3280.433136459588
 20
2407.233310273386
 30
0.0
 11
3280.433136459588
 21
2390.233310273385
 31
0.0
  0
LINE
  5
7C7E
330
8456
100
AcDbEntity
  8
1
100
AcDbLine
 10
3339.93313645959
 20
2465.492343273385
 30
0.0
 11
3339.93313645959
 21
2390.233310273385
 31
0.0
  0
ARC
  5
7C7F
330
8456
100
AcDbEntity
  8
1
100
AcDbCircle
 10
3177.93313645959
 20
2570.233310273386
 30
0.0
 40
195.000046
100
AcDbArc
 50
307.9280089999999
 51
314.626373
  0
LINE
  5
7C80
330
8456
100
AcDbEntity
  8
1
100
AcDbLine
 10
3283.433136459589
 20
2410.233310273386
 30
0.0
 11
3336.933136459589
 21
2410.233310273386
 31
0.0
  0
ARC
  5
7C81
330
8456
100
AcDbEntity
  8
1
100
AcDbCircle
 10
3291.647248459588
 20
2424.308261273385
 30
0.0
 40
10.0
100
AcDbArc
 50
216.3789369999999
 51
307.927887
  0
LINE
  5
7C82
330
8456
100
AcDbEntity
  8
1
100
AcDbLine
 10
3288.757050459588
 20
2410.233310273386
 30
0.0
 11
3283.577301459589
 21
2418.363925273386
 31
0.0
  0
ARC
  5
7C83
330
8456
100
AcDbEntity
  8
1
100
AcDbCircle
 10
3283.433136459589
 20
2407.233310273386
 30
0.0
 40
3.0
100
AcDbArc
 50
90.0
 51
180.0
  0
ARC
  5
7C84
330
8456
100
AcDbEntity
  8
1
100
AcDbCircle
 10
3336.933136459589
 20
2407.233310273386
 30
0.0
 40
3.0
100
AcDbArc
 50
0.0
 51
90.0
  0
ARC
  5
7C85
330
8456
100
AcDbEntity
  8
1
100
AcDbCircle
 10
3307.892060459588
 20
2438.568271273386
 30
0.0
 40
9.999964
100
AcDbArc
 50
314.626862
 51
46.17515899999999
  0
LINE
  5
7C86
330
8456
100
AcDbEntity
  8
1
100
AcDbLine
 10
3315.033539459589
 20
2446.029086273385
 30
0.0
 11
3317.31832945959
 21
2443.834384273385
 31
0.0
  0
LINE
  5
7C87
330
8456
100
AcDbEntity
  8
1
100
AcDbLine
 10
3319.15957745959
 20
2450.733920273385
 30
0.0
 11
3321.444367459589
 21
2448.539218273385
 31
0.0
  0
ARC
  5
7C88
330
8456
100
AcDbEntity
  8
1
100
AcDbCircle
 10
3319.366120459588
 20
2446.375766273385
 30
0.0
 40
3.000064
100
AcDbArc
 50
318.7885129999999
 51
46.150757
  0
ARC
  5
7C89
330
8456
100
AcDbEntity
  8
1
100
AcDbCircle
 10
3177.933075459588
 20
2570.233310273386
 30
0.0
 40
191.0
100
AcDbArc
 50
318.709839
 51
318.790253
  0
ARC
  5
7C8A
330
8456
100
AcDbEntity
  8
1
100
AcDbCircle
 10
3319.192108459589
 20
2446.177279273385
 30
0.0
 40
3.000035
100
AcDbArc
 50
231.348206
 51
318.7093509999999
  0
ARC
  5
7C8B
330
8456
100
AcDbEntity
  8
1
100
AcDbCircle
 10
3334.32278545959
 20
2465.896029273386
 30
0.0
 40
2.999964999999999
100
AcDbArc
 50
326.287933
 51
53.64953599999999
  0
LINE
  5
7C8C
330
8456
100
AcDbEntity
  8
1
100
AcDbLine
 10
3329.91287345959
 20
2464.748080273387
 30
0.0
 11
3332.624176459589
 21
2463.109164273385
 31
0.0
  0
ARC
  5
7C8D
330
8456
100
AcDbEntity
  8
1
100
AcDbCircle
 10
3177.933075459588
 20
2570.233310273386
 30
0.0
 40
190.9999389999999
100
AcDbArc
 50
326.2098689999999
 51
326.2902829999999
  0
ARC
  5
7C8E
330
8456
100
AcDbEntity
  8
1
100
AcDbCircle
 10
3334.17617845959
 20
2465.676547273385
 30
0.0
 40
3.000027
100
AcDbArc
 50
238.846725
 51
326.209045
  0
LINE
  5
7C8F
330
8456
100
AcDbEntity
  8
1
100
AcDbLine
 10
3339.93313645959
 20
2465.492343273385
 30
0.0
 11
3333.549225459588
 21
2470.190097273386
 31
0.0
  0
LINE
  5
7C90
330
8456
100
AcDbEntity
  8
1
100
AcDbLine
 10
3402.933136459589
 20
2335.233310273386
 30
0.0
 11
2952.933136459589
 21
2335.233310273386
 31
0.0
  0
LINE
  5
7C91
330
8456
100
AcDbEntity
  8
1
100
AcDbLine
 10
3377.933136459589
 20
2335.233310273386
 30
0.0
 11
3377.933136459589
 21
2295.233310273386
 31
0.0
  0
LINE
  5
7C92
330
8456
100
AcDbEntity
  8
1
100
AcDbLine
 10
2977.933136459589
 20
2335.233310273386
 30
0.0
 11
2977.933136459589
 21
2295.233310273386
 31
0.0
  0
LINE
  5
7C93
330
8456
100
AcDbEntity
  8
1
100
AcDbLine
 10
3388.034674860711
 20
2390.233310273385
 30
0.0
 11
3247.93313645959
 21
2390.233310273385
 31
0.0
  0
LINE
  5
7C94
330
8456
100
AcDbEntity
  8
1
100
AcDbLine
 10
2952.933136459589
 20
2335.233310273386
 30
0.0
 11
2968.135453094101
 21
2390.233310273385
 31
0.0
  0
LINE
  5
7C95
330
8456
100
AcDbEntity
  8
1
100
AcDbLine
 10
3402.933136459589
 20
2335.233310273386
 30
0.0
 11
3388.034674860711
 21
2390.233310273385
 31
0.0
  0
LINE
  5
7C96
330
8456
100
AcDbEntity
  8
1
100
AcDbLine
 10
3247.93313645959
 20
2345.233310273385
 30
0.0
 11
3107.933136459589
 21
2345.233310273385
 31
0.0
  0
LINE
  5
7C97
330
8456
100
AcDbEntity
  8
1
100
AcDbLine
 10
3247.93313645959
 20
2380.233310273386
 30
0.0
 11
3107.933136459589
 21
2380.233310273386
 31
0.0
  0
LINE
  5
7C98
330
8456
100
AcDbEntity
  8
1
100
AcDbLine
 10
3247.93313645959
 20
2390.233310273385
 30
0.0
 11
3247.93313645959
 21
2380.233310273386
 31
0.0
  0
LINE
  5
7C99
330
8456
100
AcDbEntity
  8
1
100
AcDbLine
 10
3107.933136459589
 20
2390.233310273385
 30
0.0
 11
3107.933136459589
 21
2380.233310273386
 31
0.0
  0
LINE
  5
7C9A
330
8456
100
AcDbEntity
  8
1
100
AcDbLine
 10
3107.933136459589
 20
2390.233310273385
 30
0.0
 11
2968.135453094101
 21
2390.233310273385
 31
0.0
  0
LINE
  5
7C9B
330
8456
100
AcDbEntity
  8
1
100
AcDbLine
 10
3247.93313645959
 20
2345.233310273385
 30
0.0
 11
3247.93313645959
 21
2335.233310273386
 31
0.0
  0
LINE
  5
7C9C
330
8456
100
AcDbEntity
  8
1
100
AcDbLine
 10
3107.933136459589
 20
2345.233310273385
 30
0.0
 11
3107.933136459589
 21
2335.233310273386
 31
0.0
  0
LINE
  5
7C9D
330
8456
100
AcDbEntity
  8
1
100
AcDbLine
 10
3427.933136459589
 20
2168.233310273386
 30
0.0
 11
1557.933136459587
 21
2168.233310273386
 31
0.0
1001
ACAD
1000
ASC_BOUNDS
1002
{
1070
    19
1002
}
  0
LINE
  5
7C9E
330
8456
100
AcDbEntity
  8
1
100
AcDbLine
 10
3427.933136459589
 20
2168.233310273386
 30
0.0
 11
3427.933136459589
 21
2068.233310273386
 31
0.0
  0
LINE
  5
7C9F
330
8456
100
AcDbEntity
  8
1
100
AcDbLine
 10
1557.933136459587
 20
2168.233310273386
 30
0.0
 11
1557.933136459587
 21
2068.233310273386
 31
0.0
  0
LINE
  5
7CA0
330
8456
100
AcDbEntity
  8
1
100
AcDbLine
 10
4338.451960278461
 20
2168.233310273386
 30
0.0
 11
5713.451960278469
 21
2168.233310273386
 31
0.0
1001
ACAD
1000
ASC_BOUNDS
1002
{
1070
    19
1005
0
1005
0
1005
0
1005
0
1005
0
1005
0
1002
}
  0
POINT
  5
7CA3
330
8456
100
AcDbEntity
  8
1
100
AcDbPoint
 10
1557.933136459587
 20
2168.233310273386
 30
0.0
  0
POINT
  5
7CA4
330
8456
100
AcDbEntity
  8
1
100
AcDbPoint
 10
1557.933136459587
 20
2103.233310273386
 30
0.0
  0
POINT
  5
7CA5
330
8456
100
AcDbEntity
  8
1
100
AcDbPoint
 10
1557.933136459587
 20
2168.233310273386
 30
0.0
  0
POINT
  5
7CA6
330
8456
100
AcDbEntity
  8
1
100
AcDbPoint
 10
1557.933136459588
 20
2195.233310273386
 30
0.0
  0
CIRCLE
  5
7CA7
330
8456
100
AcDbEntity
  8
1
100
AcDbCircle
 10
3177.93313645959
 20
2570.233310273386
 30
0.0
 40
119.0
  0
LINE
  5
7CA8
330
8456
100
AcDbEntity
  8
1
100
AcDbLine
 10
5660.451960278471
 20
3331.233310273387
 30
0.0
 11
5660.451960278471
 21
2334.233310273386
 31
0.0
  0
LINE
  5
7CA9
330
8456
100
AcDbEntity
  8
1
100
AcDbLine
 10
4540.45196027847
 20
3938.233310273387
 30
0.0
 11
4540.45196027847
 21
3295.233310273387
 31
0.0
  0
LINE
  5
7CAA
330
8456
100
AcDbEntity
  8
1
100
AcDbLine
 10
5100.451960278467
 20
3938.233310273387
 30
0.0
 11
4540.45196027847
 21
3938.233310273387
 31
0.0
  0
LINE
  5
7CAB
330
8456
100
AcDbEntity
  8
1
100
AcDbLine
 10
4540.45196027847
 20
3295.233310273387
 30
0.0
 11
4540.45196027847
 21
2752.733310273387
 31
0.0
  0
LINE
  5
7CAC
330
8456
100
AcDbEntity
  8
1
100
AcDbLine
 10
4412.451960278469
 20
3269.433310273386
 30
0.0
 11
4488.15196027847
 21
3269.433310273386
 31
0.0
  0
LINE
  5
7CAD
330
8456
100
AcDbEntity
  8
1
100
AcDbLine
 10
4412.451960278469
 20
3119.433310273386
 30
0.0
 11
4488.15196027847
 21
3119.433310273386
 31
0.0
  0
LINE
  5
7CAE
330
8456
100
AcDbEntity
  8
1
100
AcDbLine
 10
4402.451960278469
 20
3259.433310273386
 30
0.0
 11
4402.451960278471
 21
3129.433310273386
 31
0.0
  0
LINE
  5
7CAF
330
8456
100
AcDbEntity
  8
1
100
AcDbLine
 10
4527.451960278468
 20
3269.433310273386
 30
0.0
 11
4527.451960278469
 21
3119.433310273386
 31
0.0
  0
ARC
  5
7CB0
330
8456
100
AcDbEntity
  8
1
100
AcDbCircle
 10
4412.451960278469
 20
3259.433310273386
 30
0.0
 40
10.0
100
AcDbArc
 50
90.0
 51
180.0000000000003
  0
ARC
  5
7CB1
330
8456
100
AcDbEntity
  8
1
100
AcDbCircle
 10
4412.451960278469
 20
3129.433310273386
 30
0.0
 40
10.0
100
AcDbArc
 50
180.0000000000003
 51
270.0
  0
LINE
  5
7CB2
330
8456
100
AcDbEntity
  8
1
100
AcDbLine
 10
4488.15196027847
 20
3119.433310273386
 30
0.0
 11
4527.451960278469
 21
3119.433310273386
 31
0.0
  0
LINE
  5
7CB3
330
8456
100
AcDbEntity
  8
1
100
AcDbLine
 10
4488.15196027847
 20
3269.433310273386
 30
0.0
 11
4527.451960278469
 21
3269.433310273386
 31
0.0
  0
LINE
  5
7CB4
330
8456
100
AcDbEntity
  8
1
100
AcDbLine
 10
5780.451960278468
 20
3255.733310273387
 30
0.0
 11
5780.451960278469
 21
3155.733310273387
 31
0.0
  0
LINE
  5
7CB5
330
8456
100
AcDbEntity
  8
1
100
AcDbLine
 10
5679.95196027847
 20
3265.733310273386
 30
0.0
 11
5679.95196027847
 21
3145.733310273387
 31
0.0
  0
LINE
  5
7CB6
330
8456
100
AcDbEntity
  8
1
100
AcDbLine
 10
5679.95196027847
 20
3265.733310273386
 30
0.0
 11
5712.751960278469
 21
3265.733310273386
 31
0.0
  0
LINE
  5
7CB7
330
8456
100
AcDbEntity
  8
1
100
AcDbLine
 10
5679.95196027847
 20
3145.733310273387
 30
0.0
 11
5712.751960278469
 21
3145.733310273387
 31
0.0
  0
ARC
  5
7CB8
330
8456
100
AcDbEntity
  8
1
100
AcDbCircle
 10
5770.451960278469
 20
3255.733310273387
 30
0.0
 40
10.0
100
AcDbArc
 50
0.0000000000003257
 51
90.0
  0
ARC
  5
7CB9
330
8456
100
AcDbEntity
  8
1
100
AcDbCircle
 10
5770.451960278469
 20
3155.733310273387
 30
0.0
 40
10.0
100
AcDbArc
 50
270.0
 51
0.0000000000003257
  0
LINE
  5
7CBA
330
8456
100
AcDbEntity
  8
1
100
AcDbLine
 10
5712.751960278469
 20
3145.733310273387
 30
0.0
 11
5770.451960278469
 21
3145.733310273387
 31
0.0
  0
LINE
  5
7CBB
330
8456
100
AcDbEntity
  8
1
100
AcDbLine
 10
5712.751960278469
 20
3265.733310273386
 30
0.0
 11
5770.451960278469
 21
3265.733310273386
 31
0.0
  0
LINE
  5
7CBC
330
8456
100
AcDbEntity
  8
1
100
AcDbLine
 10
4387.451960278469
 20
3325.233310273386
 30
0.0
 11
4387.451960278469
 21
3265.233310273386
 31
0.0
  0
LINE
  5
7CBD
330
8456
100
AcDbEntity
  8
1
100
AcDbLine
 10
4382.451960278469
 20
3322.733310273387
 30
0.0
 11
4387.451960278469
 21
3322.733310273387
 31
0.0
  0
LINE
  5
7CBE
330
8456
100
AcDbEntity
  8
1
100
AcDbLine
 10
4382.451960278469
 20
3267.733310273387
 30
0.0
 11
4387.451960278469
 21
3267.733310273387
 31
0.0
  0
LINE
  5
7CBF
330
8456
100
AcDbEntity
  8
1
100
AcDbLine
 10
4272.451960278471
 20
3498.433310273386
 30
0.0
 11
4272.451960278462
 21
2451.233310273386
 31
0.0
  0
LINE
  5
7CC0
330
8456
100
AcDbEntity
  8
1
100
AcDbLine
 10
4382.451960278471
 20
3498.433310273386
 30
0.0
 11
4382.451960278461
 21
2451.233310273386
 31
0.0
  0
LINE
  5
7CC1
330
8456
100
AcDbEntity
  8
2
100
AcDbLine
 10
4239.807867811138
 20
2570.233310273386
 30
0.0
 11
5012.747042523489
 21
2570.233310273386
 31
0.0
  0
LINE
  5
7CC2
330
8456
100
AcDbEntity
  8
1
100
AcDbLine
 10
4272.451960278466
 20
2689.233310273386
 30
0.0
 11
4382.451960278467
 21
2689.233310273386
 31
0.0
  0
LINE
  5
7CC3
330
8456
100
AcDbEntity
  8
1
100
AcDbLine
 10
4272.451960278464
 20
2451.233310273386
 30
0.0
 11
4382.451960278466
 21
2451.233310273386
 31
0.0
  0
LINE
  5
7CC4
330
8456
100
AcDbEntity
  8
1
100
AcDbLine
 10
4150.451960278467
 20
3575.233310273386
 30
0.0
 11
4150.451960278474
 21
2350.233310273386
 31
0.0
  0
LINE
  5
7CC5
330
8456
100
AcDbEntity
  8
1
100
AcDbLine
 10
4150.451960278473
 20
2350.233310273386
 30
0.0
 11
4402.451960278471
 21
2350.233310273386
 31
0.0
  0
LINE
  5
7CC6
330
8456
100
AcDbEntity
  8
1
100
AcDbLine
 10
4402.451960278464
 20
3575.233310273386
 30
0.0
 11
4402.451960278464
 21
3555.233310273387
 31
0.0
  0
LINE
  5
7CC7
330
8456
100
AcDbEntity
  8
1
100
AcDbLine
 10
4402.451960278471
 20
2370.233310273385
 30
0.0
 11
4402.451960278471
 21
2350.233310273386
 31
0.0
  0
POINT
  5
7CC8
330
8456
100
AcDbEntity
  8
1
100
AcDbPoint
 10
5780.451960278469
 20
3255.733310273387
 30
0.0
  0
LINE
  5
7CC9
330
8456
100
AcDbEntity
  8
2
100
AcDbLine
 10
3587.805063824493
 20
5825.314780538587
 30
0.0
 11
1444.571058746591
 21
5825.314780538585
 31
0.0
  0
LINE
  5
7CCA
330
8456
100
AcDbEntity
  8
2
100
AcDbLine
 10
2117.933136459587
 20
4824.056071784298
 30
0.0
 11
2117.933136459587
 21
6359.823163409912
 31
0.0
  0
INSERT
  5
7CCB
330
8456
100
AcDbEntity
  8
0
100
AcDbBlockReference
  2
YA_N
 10
1902.396177633552
 20
-2784.746590060132
 30
0.0
  0
LINE
  5
7CCD
330
8456
100
AcDbEntity
  8
1
100
AcDbLine
 10
5713.451960278469
 20
2200.764815344053
 30
0.0
 11
5713.451960278469
 21
2195.233310273386
 31
0.0
  0
LINE
  5
7CCE
330
8456
100
AcDbEntity
  8
1
100
AcDbLine
 10
4338.451960278469
 20
2068.233310273386
 30
0.0
 11
5713.451960278469
 21
2068.233310273386
 31
0.0
1001
ACAD
1000
ASC_BOUNDS
1002
{
1070
    19
1002
}
  0
LINE
  5
7CCF
330
8456
100
AcDbEntity
  8
1
100
AcDbLine
 10
5713.451960278469
 20
2168.233310273386
 30
0.0
 11
5713.451960278469
 21
2068.233310273386
 31
0.0
  0
LINE
  5
7CD3
330
8456
100
AcDbEntity
  8
1
100
AcDbLine
 10
4387.451960278469
 20
3325.233310273386
 30
0.0
 11
4540.45196027847
 21
3325.233310273386
 31
0.0
  0
LINE
  5
7CD4
330
8456
100
AcDbEntity
  8
1
100
AcDbLine
 10
4387.451960278469
 20
3265.233310273386
 30
0.0
 11
4404.305795536703
 21
3265.233310273386
 31
0.0
  0
LINE
  5
7CD5
330
8456
100
AcDbEntity
  8
1
100
AcDbLine
 10
3427.933136459589
 20
2068.233310273386
 30
0.0
 11
1557.933136459587
 21
2068.233310273386
 31
0.0
1001
ACAD
1000
ASC_BOUNDS
1002
{
1070
    19
1002
}
  0
POINT
  5
7CD9
330
8456
100
AcDbEntity
  8
1
100
AcDbPoint
 10
1557.933136459587
 20
2168.233310273386
 30
0.0
  0
POINT
  5
7CDA
330
8456
100
AcDbEntity
  8
1
100
AcDbPoint
 10
1557.933136459587
 20
2068.233310273386
 30
0.0
  0
POINT
  5
7CDB
330
8456
100
AcDbEntity
  8
1
100
AcDbPoint
 10
1557.933136459587
 20
2168.233310273386
 30
0.0
  0
POINT
  5
7CDC
330
8456
100
AcDbEntity
  8
1
100
AcDbPoint
 10
1557.933136459587
 20
2195.233310273386
 30
0.0
  0
ARC
  5
7CDD
330
8456
100
AcDbEntity
  8
1
100
AcDbCircle
 10
2117.933136459589
 20
3295.233310273387
 30
0.0
 40
536.0
100
AcDbArc
 50
180.0
 51
183.8511231264977
  0
CIRCLE
  5
7CDE
330
8456
100
AcDbEntity
  8
1
100
AcDbCircle
 10
2117.933136459589
 20
3295.233310273387
 30
0.0
 40
203.2
  0
ARC
  5
7CDF
330
8456
100
AcDbEntity
  8
1
100
AcDbCircle
 10
2117.933136459589
 20
3295.233310273387
 30
0.0
 40
280.0
100
AcDbArc
 50
52.10582818780475
 51
238.3072308858714
  0
ARC
  5
7CE0
330
8456
100
AcDbEntity
  8
1
100
AcDbCircle
 10
3177.93313645959
 20
2570.233310273386
 30
0.0
 40
220.0
100
AcDbArc
 50
238.3072308858714
 51
52.95145926358628
  0
LINE
  5
7CE1
330
8456
100
AcDbEntity
  8
1
100
AcDbLine
 10
4272.451960278471
 20
3498.433310273386
 30
0.0
 11
4382.451960278471
 21
3498.433310273386
 31
0.0
  0
LINE
  5
7CE2
330
8456
100
AcDbEntity
  8
1
100
AcDbLine
 10
4272.451960278466
 20
3092.033310273386
 30
0.0
 11
4382.451960278467
 21
3092.033310273386
 31
0.0
  0
LINE
  5
7CE3
330
8456
100
AcDbEntity
  8
1
100
AcDbLine
 10
4150.451960278467
 20
3575.233310273386
 30
0.0
 11
4402.451960278464
 21
3575.233310273386
 31
0.0
  0
LINE
  5
7CE8
330
8456
100
AcDbEntity
  8
1
100
AcDbLine
 10
2677.933136459587
 20
6438.314780538586
 30
0.0
 11
1557.933136459588
 21
6438.314780538584
 31
0.0
  0
LINE
  5
7CE9
330
8456
100
AcDbEntity
  8
1
100
AcDbLine
 10
3427.933136459587
 20
5063.314780538585
 30
0.0
 11
1557.933136459588
 21
5063.314780538585
 31
0.0
  0
LINE
  5
7CEA
330
8456
100
AcDbEntity
  8
1
100
AcDbLine
 10
1557.933136459587
 20
5063.314780538585
 30
0.0
 11
1557.933136459587
 21
5265.314780538585
 31
0.0
  0
LINE
  5
7CEB
330
8456
100
AcDbEntity
  8
1
100
AcDbLine
 10
2677.933136459587
 20
6385.314780538585
 30
0.0
 11
2677.933136459587
 21
6438.314780538584
 31
0.0
  0
LINE
  5
7CEC
330
8456
100
AcDbEntity
  8
1
100
AcDbLine
 10
3427.933136459587
 20
5063.314780538586
 30
0.0
 11
3427.933136459587
 21
5863.314780538586
 31
0.0
  0
LINE
  5
7CED
330
8456
100
AcDbEntity
  8
1
100
AcDbLine
 10
3427.933136459587
 20
5863.314780538585
 30
0.0
 11
2894.933136459587
 21
5863.314780538586
 31
0.0
  0
LINE
  5
7CEE
330
8456
100
AcDbEntity
  8
2
  6
CENTER
100
AcDbLine
 10
3177.933136459587
 20
4750.739240359737
 30
0.0
 11
3177.933136459587
 21
5655.413123104796
 31
0.0
  0
CIRCLE
  5
7CF5
330
8456
100
AcDbEntity
  8
1
100
AcDbCircle
 10
2117.933136459589
 20
3295.233310273387
 30
0.0
 40
475.0
  0
CIRCLE
  5
7CF6
330
8456
100
AcDbEntity
  8
1
100
AcDbCircle
 10
2117.933136459589
 20
3295.233310273387
 30
0.0
 40
515.0
  0
LINE
  5
7CF7
330
8456
100
AcDbEntity
  8
1
100
AcDbLine
 10
4338.451960278461
 20
2168.233310273386
 30
0.0
 11
4338.451960278451
 21
2068.233310273386
 31
0.0
  0
LINE
  5
7CF8
330
8456
100
AcDbEntity
  8
1
100
AcDbLine
 10
3397.933136459589
 20
4875.314780538587
 30
0.0
 11
1837.933136459589
 21
4875.314780538585
 31
0.0
  0
LINE
  5
7CF9
330
8456
100
AcDbEntity
  8
1
100
AcDbLine
 10
3397.933136459589
 20
5165.314780538587
 30
0.0
 11
1837.933136459589
 21
5165.314780538587
 31
0.0
  0
LINE
  5
7CFA
330
8456
100
AcDbEntity
  8
1
100
AcDbLine
 10
3296.933136459589
 20
5035.314780538588
 30
0.0
 11
3058.933136459589
 21
5035.314780538588
 31
0.0
  0
LINE
  5
7CFB
330
8456
100
AcDbEntity
  8
1
100
AcDbLine
 10
3296.933136459589
 20
5145.314780538587
 30
0.0
 11
3058.933136459589
 21
5145.314780538587
 31
0.0
  0
LINE
  5
7CFC
330
8456
100
AcDbEntity
  8
1
100
AcDbLine
 10
1837.933136459589
 20
4875.314780538585
 30
0.0
 11
1837.933136459589
 21
5165.314780538587
 31
0.0
  0
LINE
  5
7CFD
330
8456
100
AcDbEntity
  8
1
100
AcDbLine
 10
3397.933136459589
 20
4875.314780538587
 30
0.0
 11
3397.933136459589
 21
5165.314780538587
 31
0.0
  0
LINE
  5
7CFE
330
8456
100
AcDbEntity
  8
1
100
AcDbLine
 10
1914.733136459588
 20
5035.314780538585
 30
0.0
 11
1914.733136459588
 21
5145.314780538585
 31
0.0
  0
LINE
  5
7CFF
330
8456
100
AcDbEntity
  8
1
100
AcDbLine
 10
2321.133136459589
 20
5035.314780538585
 30
0.0
 11
2321.133136459589
 21
5145.314780538585
 31
0.0
  0
LINE
  5
7D00
330
8456
100
AcDbEntity
  8
1
100
AcDbLine
 10
3058.933136459589
 20
5035.314780538585
 30
0.0
 11
3058.933136459589
 21
5145.314780538587
 31
0.0
  0
LINE
  5
7D01
330
8456
100
AcDbEntity
  8
1
100
AcDbLine
 10
3296.933136459589
 20
5035.314780538588
 30
0.0
 11
3296.933136459589
 21
5145.314780538587
 31
0.0
  0
LINE
  5
7D02
330
8456
100
AcDbEntity
  8
1
100
AcDbLine
 10
2321.133136459589
 20
5145.314780538585
 30
0.0
 11
1914.733136459588
 21
5145.314780538585
 31
0.0
  0
LINE
  5
7D03
330
8456
100
AcDbEntity
  8
1
100
AcDbLine
 10
2321.133136459589
 20
5035.314780538586
 30
0.0
 11
1914.733136459588
 21
5035.314780538585
 31
0.0
  0
LINE
  5
7D04
330
8456
100
AcDbEntity
  8
1
100
AcDbLine
 10
1497.933136459587
 20
5225.314780538585
 30
0.0
 11
1497.933136459587
 21
6425.314780538585
 31
0.0
  0
LINE
  5
7D05
330
8456
100
AcDbEntity
  8
1
100
AcDbLine
 10
2894.933136459587
 20
5265.314780538585
 30
0.0
 11
2894.933136459587
 21
6385.314780538585
 31
0.0
  0
LINE
  5
7D06
330
8456
100
AcDbEntity
  8
1
100
AcDbLine
 10
2894.933136459587
 20
6385.314780538585
 30
0.0
 11
1497.933136459587
 21
6385.314780538585
 31
0.0
  0
LINE
  5
7D07
330
8456
100
AcDbEntity
  8
1
100
AcDbLine
 10
2894.933136459587
 20
5265.314780538585
 30
0.0
 11
1497.933136459587
 21
5265.314780538585
 31
0.0
  0
LINE
  5
7D08
330
8456
100
AcDbEntity
  8
1
100
AcDbLine
 10
3360.433136459587
 20
5711.814780538586
 30
0.0
 11
2995.433136459587
 21
5711.814780538588
 31
0.0
  0
LINE
  5
7D09
330
8456
100
AcDbEntity
  8
1
100
AcDbLine
 10
2995.433136459587
 20
5150.314780538587
 30
0.0
 11
2995.433136459587
 21
5711.814780538586
 31
0.0
  0
LINE
  5
7D0A
330
8456
100
AcDbEntity
  8
1
100
AcDbLine
 10
3360.433136459587
 20
5150.314780538587
 30
0.0
 11
3360.433136459587
 21
5711.814780538586
 31
0.0
  0
LINE
  5
7D0B
330
8456
100
AcDbEntity
  8
1
100
AcDbLine
 10
3360.433136459587
 20
5150.314780538587
 30
0.0
 11
2995.433136459587
 21
5150.314780538588
 31
0.0
  0
LINE
  5
7D0C
330
8456
100
AcDbEntity
  8
1
100
AcDbLine
 10
3153.933136459587
 20
5145.314780538587
 30
0.0
 11
3153.933136459587
 21
5150.314780538587
 31
0.0
  0
LINE
  5
7D0D
330
8456
100
AcDbEntity
  8
1
100
AcDbLine
 10
3201.933136459587
 20
5145.314780538587
 30
0.0
 11
3201.933136459587
 21
5150.314780538587
 31
0.0
  0
LINE
  5
7D0E
330
8456
100
AcDbEntity
  8
1
100
AcDbLine
 10
2087.933136459587
 20
5145.314780538585
 30
0.0
 11
2087.933136459587
 21
5265.314780538585
 31
0.0
  0
LINE
  5
7D0F
330
8456
100
AcDbEntity
  8
1
100
AcDbLine
 10
2147.933136459587
 20
5145.314780538585
 30
0.0
 11
2147.933136459587
 21
5265.314780538585
 31
0.0
  0
LINE
  5
7D10
330
8456
100
AcDbEntity
  8
1
100
AcDbLine
 10
4387.451960278466
 20
2752.733310273387
 30
0.0
 11
4948.951960278466
 21
2752.733310273387
 31
0.0
  0
LINE
  5
7D11
330
8456
100
AcDbEntity
  8
1
100
AcDbLine
 10
4387.451960278466
 20
2387.733310273388
 30
0.0
 11
4948.951960278466
 21
2387.733310273388
 31
0.0
  0
LINE
  5
7D12
330
8456
100
AcDbEntity
  8
1
100
AcDbLine
 10
4387.451960278466
 20
2752.733310273387
 30
0.0
 11
4387.451960278466
 21
2387.733310273388
 31
0.0
  0
LINE
  5
7D13
330
8456
100
AcDbEntity
  8
1
100
AcDbLine
 10
4382.451960278467
 20
2594.233310273386
 30
0.0
 11
4387.451960278466
 21
2594.233310273386
 31
0.0
  0
LINE
  5
7D14
330
8456
100
AcDbEntity
  8
1
100
AcDbLine
 10
4382.451960278467
 20
2546.233310273386
 30
0.0
 11
4387.451960278466
 21
2546.233310273386
 31
0.0
  0
LINE
  5
7D1B
330
8456
100
AcDbEntity
  8
1
100
AcDbLine
 10
1557.933136459587
 20
6385.314780538585
 30
0.0
 11
1557.933136459587
 21
6438.314780538584
 31
0.0
  0
LINE
  5
7D1C
330
8456
100
AcDbEntity
  8
1
100
AcDbLine
 10
2286.6307306002
 20
3518.708413430694
 30
0.0
 11
3310.481246141498
 21
2745.820891325557
 31
0.0
  0
LINE
  5
7D1D
330
8456
100
AcDbEntity
  8
1
100
AcDbLine
 10
1970.831140251339
 20
3056.987633058566
 30
0.0
 11
3062.35299658168
 21
2383.040278176027
 31
0.0
  0
LINE
  5
7D1E
330
8456
100
AcDbEntity
  8
1
100
AcDbLine
 10
2243.398395787174
 20
3455.072944600614
 30
0.0
 11
3251.409346400448
 21
2663.840182738642
 31
0.0
  0
LINE
  5
7D1F
330
8456
100
AcDbEntity
  8
1
100
AcDbLine
 10
2014.461245411044
 20
3120.351041981721
 30
0.0
 11
3117.336901052222
 21
2467.817021263995
 31
0.0
  0
DIMENSION
  5
7D26
330
8456
100
AcDbEntity
  8
3
100
AcDbDimension
  2
*D20
 10
1006.249158734528
 20
2068.233310273387
 30
0.0
 11
931.2491587345279
 21
1811.090453130529
 31
0.0
 71
     5
 42
-1.0
  3
Standard
100
AcDbAlignedDimension
 13
1557.933136459587
 23
2168.233310273386
 33
0.0
 14
1557.933136459587
 24
2068.233310273386
 34
0.0
 50
270.0
100
AcDbRotatedDimension
1001
ACAD
1000
DSTYLE
1002
{
1070
   287
1070
     3
1070
   287
1070
     3
1070
    40
1040
30.0
1070
   143
1040
0.039
1070
   172
1070
     1
1070
   271
1070
     0
1070
   279
1070
     0
1070
   288
1070
     1
1070
     6
1000
DOT
1002
}
  0
LINE
  5
7D2B
330
8456
100
AcDbEntity
  8
1
100
AcDbLine
 10
1500.933136459587
 20
6425.314780538585
 30
0.0
 11
1497.933136459587
 21
6425.314780538585
 31
0.0
  0
LINE
  5
7D2C
330
8456
100
AcDbEntity
  8
1
100
AcDbLine
 10
1500.933136459587
 20
5225.314780538585
 30
0.0
 11
1497.933136459587
 21
5225.314780538585
 31
0.0
  0
LINE
  5
7D2D
330
8456
100
AcDbEntity
  8
1
100
AcDbLine
 10
1500.933136459587
 20
5225.314780538585
 30
0.0
 11
1500.933136459587
 21
6425.314780538585
 31
0.0
  0
LINE
  5
7D2E
330
8456
100
AcDbEntity
  8
1
100
AcDbLine
 10
4948.951960278466
 20
2752.733310273387
 30
0.0
 11
4948.951960278466
 21
2387.733310273388
 31
0.0
  0
LINE
  5
7D2F
330
8456
100
AcDbEntity
  8
1
100
AcDbLine
 10
4892.41021829445
 20
2387.733310273388
 30
0.0
 11
4892.41021829445
 21
2295.233310273386
 31
0.0
  0
LINE
  5
7D30
330
8456
100
AcDbEntity
  8
1
100
AcDbLine
 10
4466.356997918636
 20
2387.733310273388
 30
0.0
 11
4466.356997918636
 21
2295.233310273386
 31
0.0
  0
LINE
  5
7D31
330
8456
100
AcDbEntity
  8
1
100
AcDbLine
 10
4466.356997918636
 20
2335.233310273386
 30
0.0
 11
4892.41021829445
 21
2335.233310273386
 31
0.0
  0
LINE
  5
7F73
330
8456
100
AcDbEntity
  8
4
100
AcDbLine
 10
5550.0
 20
1500.0
 30
0.0
 11
5550.0
 21
900.0
 31
0.0
  0
LINE
  5
7F74
330
8456
100
AcDbEntity
  8
4
100
AcDbLine
 10
3450.0
 20
1500.0
 30
0.0
 11
3450.0
 21
900.0
 31
0.0
  0
LINE
  5
7F75
330
8456
100
AcDbEntity
  8
4
100
AcDbLine
 10
1950.0
 20
1500.0
 30
0.0
 11
1950.0
 21
900.0
 31
0.0
  0
LINE
  5
7F78
330
8456
100
AcDbEntity
  8
4
100
AcDbLine
 10
1950.0
 20
900.0
 30
0.0
 11
5550.0
 21
900.0
 31
0.0
  0
LINE
  5
7F79
330
8456
100
AcDbEntity
  8
4
100
AcDbLine
 10
1950.0
 20
1200.0
 30
0.0
 11
5550.0
 21
1200.0
 31
0.0
  0
TEXT
  5
7F7A
330
8456
100
AcDbEntity
  8
4
100
AcDbText
 10
2065.506242540704
 20
1294.629077599838
 30
0.0
 40
150.0
  1
機器名称
100
AcDbText
  0
TEXT
  5
7F7B
330
8456
100
AcDbEntity
  8
4
100
AcDbText
 10
2058.774318074392
 20
964.9354701960326
 30
0.0
 40
150.0
  1
機器型番
100
AcDbText
  0
TEXT
  5
7F7C
330
8456
100
AcDbEntity
  8
4
100
AcDbText
 10
3533.036236462995
 20
1267.715306872705
 30
0.0
 40
150.0
  1
ミツヤ多翼送風機
100
AcDbText
  0
TEXT
  5
7F7D
330
8456
100
AcDbEntity
  8
4
100
AcDbText
 10
3559.963486756442
 20
951.4787528398301
 30
0.0
 40
150.0
  1
MF#5 1/2-5
100
AcDbText
  0
TEXT
  5
7F7F
330
8456
100
AcDbEntity
  8
4
100
AcDbText
 10
2350.007139395115
 20
7150.286523997547
 30
0.0
 40
161.9999999999998
  1
床置防振ベット
100
AcDbText
  0
TEXT
  5
7F80
330
8456
100
AcDbEntity
  8
4
100
AcDbText
 10
948.5027799883393
 20
7601.642928597894
 30
0.0
 40
216.0
  1
遠心式両吸込両持多翼ファン
100
AcDbText
  0
LINE
  5
7F81
330
8456
100
AcDbEntity
  8
4
100
AcDbLine
 10
750.0
 20
7408.226262794413
 30
0.0
 11
5550.0
 21
7408.226262794413
 31
0.0
  0
LINE
  5
7F82
330
8456
100
AcDbEntity
  8
4
100
AcDbLine
 10
750.0
 20
8008.226262794414
 30
0.0
 11
5550.0
 21
8008.226262794414
 31
0.0
  0
LINE
  5
7F83
330
8456
100
AcDbEntity
  8
4
100
AcDbLine
 10
1950.0
 20
1500.0
 30
0.0
 11
5550.0
 21
1500.0
 31
0.0
  0
LINE
  5
7F84
330
8456
100
AcDbEntity
  8
4
100
AcDbLine
 10
750.0
 20
8008.226262794414
 30
0.0
 11
750.0
 21
7408.226262794413
 31
0.0
  0
TEXT
  5
7F85
330
8456
100
AcDbEntity
  8
4
100
AcDbText
 10
1042.430642667008
 20
7146.958432639029
 30
0.0
 40
161.9999999999998
  1
右回転左横向
100
AcDbText
  0
TEXT
  5
7F86
330
8456
100
AcDbEntity
  8
4
100
AcDbText
 10
4406.908677747869
 20
8118.183244485924
 30
0.0
 40
168.0
  1
No.
100
AcDbText
  0
TEXT
  5
7F87
330
8456
100
AcDbEntity
  8
4
100
AcDbText
 10
3933.888187800039
 20
7150.286523997547
 30
0.0
 40
161.9999999999998
  1
縮尺：1/30
100
AcDbText
  0
LINE
  5
7F88
330
8456
100
AcDbEntity
  8
4
100
AcDbLine
 10
5550.0
 20
8008.226262794414
 30
0.0
 11
5550.0
 21
7408.226262794413
 31
0.0
  0
LINE
  5
7F89
330
8456
100
AcDbEntity
  8
4
100
AcDbLine
 10
6300.0
 20
8850.0
 30
0.0
 11
6300.0
 21
8850.0
 31
0.0
  0
LINE
  5
7F8A
330
8456
100
AcDbEntity
  8
4
100
AcDbLine
 10
4321.852267079594
 20
8043.790749376205
 30
0.0
 11
4321.852267079594
 21
8359.956784649257
 31
0.0
  0
LINE
  5
7F8B
330
8456
100
AcDbEntity
  8
4
100
AcDbLine
 10
4321.852267079594
 20
8359.956784649257
 30
0.0
 11
5550.0
 21
8359.956784649257
 31
0.0
  0
LINE
  5
7F8C
330
8456
100
AcDbEntity
  8
4
100
AcDbLine
 10
5550.0
 20
8359.956784649257
 30
0.0
 11
5550.0
 21
8043.790749376205
 31
0.0
  0
LINE
  5
7F8D
330
8456
100
AcDbEntity
  8
4
100
AcDbLine
 10
5550.0
 20
8043.790749376205
 30
0.0
 11
4321.852267079594
 21
8043.790749376205
 31
0.0
  0
LINE
  5
7F8E
330
8456
100
AcDbEntity
  8
4
100
AcDbLine
 10
0.0
 20
0.0
 30
0.0
 11
0.0
 21
8850.0
 31
0.0
  0
LINE
  5
7F8F
330
8456
100
AcDbEntity
  8
4
100
AcDbLine
 10
0.0
 20
8850.0
 30
0.0
 11
6300.0
 21
8850.0
 31
0.0
  0
LINE
  5
7F90
330
8456
100
AcDbEntity
  8
4
100
AcDbLine
 10
6300.0
 20
8850.0
 30
0.0
 11
6300.0
 21
0.0
 31
0.0
  0
LINE
  5
7F91
330
8456
100
AcDbEntity
  8
4
100
AcDbLine
 10
6300.0
 20
0.0
 30
0.0
 11
0.0
 21
0.0
 31
0.0
  0
DIMENSION
  5
81F2
330
8456
100
AcDbEntity
  8
3
100
AcDbDimension
  2
*D22
 10
2117.933136459589
 20
1864.239520464772
 30
0.0
 11
1837.933136459588
 21
1939.239520464772
 31
0.0
 71
     5
 42
-1.0
  3
Standard
100
AcDbAlignedDimension
 13
1557.933136459587
 23
2068.233310273386
 33
0.0
 14
2117.933136459589
 24
2068.233310273386
 34
0.0
100
AcDbRotatedDimension
1001
ACAD
1000
DSTYLE
1002
{
1070
   172
1070
     1
1070
    40
1040
30.0
1070
    42
1040
1.0
1070
   271
1070
     0
1070
   143
1040
0.039
1002
}
  0
DIMENSION
  5
81FF
330
8456
100
AcDbEntity
  8
3
100
AcDbDimension
  2
*D23
 10
3427.933136459589
 20
1864.239520464772
 30
0.0
 11
2772.933136459589
 21
1939.239520464772
 31
0.0
 71
     5
 42
-1.0
  3
Standard
100
AcDbAlignedDimension
 13
2117.933136459589
 23
2068.233310273386
 33
0.0
 14
3427.933136459589
 24
2068.233310273386
 34
0.0
100
AcDbRotatedDimension
1001
ACAD
1000
DSTYLE
1002
{
1070
   172
1070
     1
1070
    40
1040
30.0
1070
    42
1040
1.0
1070
   271
1070
     0
1070
   143
1040
0.039
1002
}
  0
DIMENSION
  5
820C
330
8456
100
AcDbEntity
  8
3
100
AcDbDimension
  2
*D24
 10
5100.451960278467
 20
1864.239520464772
 30
0.0
 11
4719.451960278469
 21
1939.239520464772
 31
0.0
 71
     5
 42
-1.0
  3
Standard
100
AcDbAlignedDimension
 13
4338.451960278469
 23
2068.233310273386
 33
0.0
 14
5100.451960278467
 24
2068.233310273386
 34
0.0
100
AcDbRotatedDimension
1001
ACAD
1000
DSTYLE
1002
{
1070
   172
1070
     1
1070
    40
1040
30.0
1070
    42
1040
1.0
1070
   271
1070
     0
1070
   143
1040
0.039
1002
}
  0
DIMENSION
  5
8219
330
8456
100
AcDbEntity
  8
3
100
AcDbDimension
  2
*D25
 10
5713.451960278469
 20
1864.239520464772
 30
0.0
 11
5406.951960278469
 21
1939.239520464772
 31
0.0
 71
     5
 42
-1.0
  3
Standard
100
AcDbAlignedDimension
 13
5100.451960278467
 23
2068.233310273386
 33
0.0
 14
5713.451960278469
 24
2068.233310273386
 34
0.0
100
AcDbRotatedDimension
1001
ACAD
1000
DSTYLE
1002
{
1070
   172
1070
     1
1070
    40
1040
30.0
1070
    42
1040
1.0
1070
   271
1070
     0
1070
   143
1040
0.039
1002
}
  0
DIMENSION
  5
8228
330
8456
100
AcDbEntity
  8
3
100
AcDbDimension
  2
*D27
 10
1008.115837132478
 20
2168.233310273386
 30
0.0
 11
864.5444085610495
 21
2181.733310273386
 31
0.0
  1
 <>
 71
     5
 42
-1.0
  3
Standard
100
AcDbAlignedDimension
 13
1557.933136459588
 23
2195.233310273386
 33
0.0
 14
1557.933136459587
 24
2168.233310273386
 34
0.0
 50
90.0
100
AcDbRotatedDimension
1001
ACAD
1000
DSTYLE
1002
{
1070
   172
1070
     1
1070
    76
1070
     1
1070
    75
1070
     1
1070
    40
1040
30.0
1070
     3
1000
(<>)
1070
    42
1040
1.0
1070
   271
1070
     0
1070
     7
1000
_NONE
1070
     6
1000
_NONE
1070
   143
1040
0.039
1002
}
  0
DIMENSION
  5
8235
330
8456
100
AcDbEntity
  8
3
100
AcDbDimension
  2
*D28
 10
750.188653163397
 20
3938.233310273387
 30
0.0
 11
651.6172245919688
 21
3003.233310273387
 31
0.0
 71
     5
 42
-1.0
  3
Standard
100
AcDbAlignedDimension
 13
1557.933136459587
 23
2068.233310273386
 33
0.0
 14
2169.933136459589
 24
3938.233310273387
 34
0.0
 50
90.0
100
AcDbRotatedDimension
1001
ACAD
1000
DSTYLE
1002
{
1070
   172
1070
     1
1070
    40
1040
30.0
1070
     3
1000
(<>)
1070
    42
1040
1.0
1070
   271
1070
     0
1070
   143
1040
0.039
1002
}
  0
LINE
  5
8251
330
8456
100
AcDbEntity
  8
1
100
AcDbLine
 10
5660.451960278471
 20
2334.233310273386
 30
0.0
 11
4892.41021829445
 21
2334.233310273386
 31
0.0
  0
DIMENSION
  5
84A3
330
8456
100
AcDbEntity
  8
3
100
AcDbDimension
  2
*D29
 10
5660.451960278471
 20
4131.425263807012
 30
0.0
 11
5100.451960278469
 21
4206.425263807012
 31
0.0
 70
    32
 71
     5
 42
1120.000000000001
  3
IGA
100
AcDbAlignedDimension
 13
4540.45196027847
 23
3938.233310273387
 33
0.0
 14
5660.451960278471
 24
3938.233310273387
 34
0.0
100
AcDbRotatedDimension
1001
ACAD
1000
DSTYLE
1002
{
1070
    40
1040
30.0
1070
    42
1040
1.0
1070
   143
1040
0.039
1070
   172
1070
     1
1070
   271
1070
     4
1070
   272
1070
     4
1070
   279
1070
     0
1070
   284
1070
     0
1070
   285
1070
     0
1070
   286
1070
     0
1070
   341
1005
8469
1070
   343
1005
8469
1070
   344
1005
8469
1002
}
  0
DIMENSION
  5
84B0
330
8456
100
AcDbEntity
  8
3
100
AcDbDimension
  2
*D30
 10
5100.451960278469
 20
4330.687899330344
 30
0.0
 11
4625.451960278468
 21
4429.259327901773
 31
0.0
 70
    32
  1
(<>)
 71
     5
 42
950.0000000000017
  3
IGA
100
AcDbAlignedDimension
 13
4150.451960278467
 23
3575.233310273386
 33
0.0
 14
5100.451960278469
 24
4251.425263807013
 34
0.0
100
AcDbRotatedDimension
1001
ACAD
1000
DSTYLE
1002
{
1070
    40
1040
30.0
1070
    42
1040
1.0
1070
   143
1040
0.039
1070
   172
1070
     1
1070
   271
1070
     4
1070
   272
1070
     4
1070
   279
1070
     0
1070
   284
1070
     0
1070
   285
1070
     0
1070
   286
1070
     0
1070
   341
1005
8469
1070
   343
1005
8469
1070
   344
1005
8469
1002
}
  0
DIMENSION
  5
84BD
330
8456
100
AcDbEntity
  8
3
100
AcDbDimension
  2
*D31
 10
5780.451960278469
 20
4330.687899330344
 30
0.0
 11
5440.451960278469
 21
4429.259327901773
 31
0.0
 70
    32
  1
(<>)
 71
     5
 42
680.0
  3
IGA
100
AcDbAlignedDimension
 13
5100.451960278469
 23
4251.425263807013
 33
0.0
 14
5780.451960278469
 24
3255.733310273387
 34
0.0
100
AcDbRotatedDimension
1001
ACAD
1000
DSTYLE
1002
{
1070
    40
1040
30.0
1070
    42
1040
1.0
1070
   143
1040
0.039
1070
   172
1070
     1
1070
   271
1070
     4
1070
   272
1070
     4
1070
   279
1070
     1
1070
   284
1070
     0
1070
   285
1070
     0
1070
   286
1070
     0
1070
   341
1005
8469
1070
   343
1005
8469
1070
   344
1005
8469
1002
}
  0
DIMENSION
  5
84CE
330
8456
100
AcDbEntity
  8
3
100
AcDbDimension
  2
*D32
 10
5984.342954106605
 20
3770.233310273387
 30
0.0
 11
5909.342954106604
 21
3295.233310273388
 31
0.0
 70
    32
  1
\U+03C6<>
 71
     5
 42
950.0
  3
IGA
100
AcDbAlignedDimension
 13
5660.451960278471
 23
2820.233310273387
 33
0.0
 14
5660.451960278471
 24
3770.233310273387
 34
0.0
 50
90.0
100
AcDbRotatedDimension
1001
ACAD
1000
DSTYLE
1002
{
1070
    40
1040
30.0
1070
    42
1040
1.0
1070
   143
1040
0.039
1070
   172
1070
     1
1070
   271
1070
     4
1070
   272
1070
     4
1070
   279
1070
     0
1070
   284
1070
     0
1070
   285
1070
     0
1070
   286
1070
     0
1070
   341
1005
8469
1070
   343
1005
8469
1070
   344
1005
8469
1002
}
  0
DIMENSION
  5
8545
330
8456
100
AcDbEntity
  8
3
100
AcDbDimension
  2
*D34
 10
3427.933136459587
 20
4668.500591399453
 30
0.0
 11
2492.933136459588
 21
4743.500591399453
 31
0.0
 70
    32
 71
     5
 42
1869.999999999998
  3
IGA
100
AcDbAlignedDimension
 13
1557.933136459588
 23
5063.314780538585
 33
0.0
 14
3427.933136459587
 24
5063.314780538585
 34
0.0
100
AcDbRotatedDimension
1001
ACAD
1000
DSTYLE
1002
{
1070
    40
1040
30.0
1070
    42
1040
1.0
1070
   143
1040
0.039
1070
   172
1070
     1
1070
   271
1070
     4
1070
   272
1070
     4
1070
   279
1070
     0
1070
   284
1070
     0
1070
   285
1070
     0
1070
   286
1070
     0
1070
   341
1005
8469
1070
   343
1005
8469
1070
   344
1005
8469
1002
}
  0
DIMENSION
  5
8552
330
8456
100
AcDbEntity
  8
3
100
AcDbDimension
  2
*D35
 10
1257.508914293172
 20
6438.314780538584
 30
0.0
 11
1182.508914293171
 21
5750.814780538585
 31
0.0
 70
    32
 71
     5
 42
1374.999999999999
  3
IGA
100
AcDbAlignedDimension
 13
1557.933136459587
 23
5063.314780538585
 33
0.0
 14
1557.933136459587
 24
6438.314780538584
 34
0.0
 50
90.0
100
AcDbRotatedDimension
1001
ACAD
1000
DSTYLE
1002
{
1070
    40
1040
30.0
1070
    42
1040
1.0
1070
   143
1040
0.039
1070
   172
1070
     1
1070
   271
1070
     4
1070
   272
1070
     4
1070
   279
1070
     0
1070
   284
1070
     0
1070
   285
1070
     0
1070
   286
1070
     0
1070
   341
1005
8469
1070
   343
1005
8469
1070
   344
1005
8469
1002
}
  0
DIMENSION
  5
855F
330
8456
100
AcDbEntity
  8
3
100
AcDbDimension
  2
*D36
 10
3728.673842846213
 20
5863.314780538586
 30
0.0
 11
3653.673842846212
 21
5463.314780538587
 31
0.0
 70
    32
 71
     5
 42
800.0
  3
IGA
100
AcDbAlignedDimension
 13
3427.933136459587
 23
5063.314780538586
 33
0.0
 14
3427.933136459587
 24
5863.314780538586
 34
0.0
 50
90.0
100
AcDbRotatedDimension
1001
ACAD
1000
DSTYLE
1002
{
1070
    40
1040
30.0
1070
    42
1040
1.0
1070
   143
1040
0.039
1070
   172
1070
     1
1070
   271
1070
     4
1070
   272
1070
     4
1070
   279
1070
     0
1070
   284
1070
     0
1070
   285
1070
     0
1070
   286
1070
     0
1070
   341
1005
8469
1070
   343
1005
8469
1070
   344
1005
8469
1002
}
  0
DIMENSION
  5
8579
330
8456
100
AcDbEntity
  8
3
100
AcDbDimension
  2
*D38
 10
2677.933136459587
 20
6740.329439043809
 30
0.0
 11
2117.933136459587
 21
6815.329439043809
 31
0.0
 70
    32
 71
     5
 42
1119.999999999999
  3
IGA
100
AcDbAlignedDimension
 13
1557.933136459587
 23
6438.314780538584
 33
0.0
 14
2677.933136459587
 24
6438.314780538584
 34
0.0
100
AcDbRotatedDimension
1001
ACAD
1000
DSTYLE
1002
{
1070
    40
1040
30.0
1070
    42
1040
1.0
1070
   143
1040
0.039
1070
   172
1070
     1
1070
   271
1070
     4
1070
   272
1070
     4
1070
   279
1070
     0
1070
   284
1070
     0
1070
   285
1070
     0
1070
   286
1070
     0
1070
   341
1005
8469
1070
   343
1005
8469
1070
   344
1005
8469
1002
}
  0
DIMENSION
  5
8586
330
8456
100
AcDbEntity
  8
3
100
AcDbDimension
  2
*D39
 10
3427.933136459587
 20
6740.329439043809
 30
0.0
 11
3052.933136459587
 21
6815.329439043809
 31
0.0
 70
    32
 71
     5
 42
750.0
  3
IGA
100
AcDbAlignedDimension
 13
2677.933136459587
 23
6438.314780538584
 33
0.0
 14
3427.933136459587
 24
5863.314780538585
 34
0.0
100
AcDbRotatedDimension
1001
ACAD
1000
DSTYLE
1002
{
1070
    40
1040
30.0
1070
    42
1040
1.0
1070
   143
1040
0.039
1070
   172
1070
     1
1070
   271
1070
     4
1070
   272
1070
     4
1070
   279
1070
     1
1070
   284
1070
     0
1070
   285
1070
     0
1070
   286
1070
     0
1070
   341
1005
8469
1070
   343
1005
8469
1070
   344
1005
8469
1002
}
  0
DIMENSION
  5
8593
330
8456
100
AcDbEntity
  8
3
100
AcDbDimension
  2
*D40
 10
3427.933136459587
 20
4400.298336047842
 30
0.0
 11
2462.933136459588
 21
4475.298336047841
 31
0.0
 70
    32
 71
     5
 42
1929.999999999998
  3
IGA
100
AcDbAlignedDimension
 13
1497.933136459589
 23
3301.733310273387
 33
0.0
 14
3427.933136459587
 24
2295.233310273386
 34
0.0
100
AcDbRotatedDimension
1001
ACAD
1000
DSTYLE
1002
{
1070
    40
1040
30.0
1070
    42
1040
1.0
1070
   143
1040
0.039
1070
   172
1070
     1
1070
   271
1070
     4
1070
   272
1070
     4
1070
   279
1070
     0
1070
   284
1070
     0
1070
   285
1070
     0
1070
   286
1070
     0
1070
   341
1005
8469
1070
   343
1005
8469
1070
   344
1005
8469
1002
}
  0
DIMENSION
  5
85A0
330
8456
100
AcDbEntity
  8
3
100
AcDbDimension
  2
*D41
 10
2117.933136459589
 20
4204.126846417151
 30
0.0
 11
1807.933136459588
 21
4279.126846417151
 31
0.0
 70
    32
 71
     5
 42
620.0
  3
IGA
100
AcDbAlignedDimension
 13
1497.933136459589
 23
3301.733310273387
 33
0.0
 14
2117.933136459589
 24
3985.320184905996
 34
0.0
100
AcDbRotatedDimension
1001
ACAD
1000
DSTYLE
1002
{
1070
    40
1040
30.0
1070
    42
1040
1.0
1070
   143
1040
0.039
1070
   172
1070
     1
1070
   271
1070
     4
1070
   272
1070
     4
1070
   279
1070
     0
1070
   284
1070
     0
1070
   285
1070
     0
1070
   286
1070
     0
1070
   341
1005
8469
1070
   343
1005
8469
1070
   344
1005
8469
1002
}
  0
DIMENSION
  5
85AD
330
8456
100
AcDbEntity
  8
3
100
AcDbDimension
  2
*D42
 10
2894.933136459589
 20
4204.126846417151
 30
0.0
 11
2506.433136459589
 21
4279.126846417151
 31
0.0
 70
    32
 71
     5
 42
777.0
  3
IGA
100
AcDbAlignedDimension
 13
2117.933136459589
 23
3985.320184905996
 33
0.0
 14
2894.933136459589
 24
3228.233310273387
 34
0.0
100
AcDbRotatedDimension
1001
ACAD
1000
DSTYLE
1002
{
1070
    40
1040
30.0
1070
    42
1040
1.0
1070
   143
1040
0.039
1070
   172
1070
     1
1070
   271
1070
     4
1070
   272
1070
     4
1070
   279
1070
     1
1070
   284
1070
     0
1070
   285
1070
     0
1070
   286
1070
     0
1070
   341
1005
8469
1070
   343
1005
8469
1070
   344
1005
8469
1002
}
  0
DIMENSION
  5
85BA
330
8456
100
AcDbEntity
  8
3
100
AcDbDimension
  2
*D43
 10
1348.318028016377
 20
2334.233310273386
 30
0.0
 11
1273.318028016376
 21
2796.733310273387
 31
0.0
 70
    32
 71
     5
 42
925.0000000000008
  3
IGA
100
AcDbAlignedDimension
 13
1497.933136459589
 23
3259.233310273387
 33
0.0
 14
1497.933136459589
 24
2334.233310273386
 34
0.0
 50
90.0
100
AcDbRotatedDimension
1001
ACAD
1000
DSTYLE
1002
{
1070
    40
1040
30.0
1070
    42
1040
1.0
1070
   143
1040
0.039
1070
   172
1070
     1
1070
   271
1070
     4
1070
   272
1070
     4
1070
   279
1070
     0
1070
   284
1070
     0
1070
   285
1070
     0
1070
   286
1070
     0
1070
   341
1005
8469
1070
   343
1005
8469
1070
   344
1005
8469
1002
}
  0
DIMENSION
  5
85C7
330
8456
100
AcDbEntity
  8
3
100
AcDbDimension
  2
*D44
 10
1006.249158734528
 20
3295.233310273387
 30
0.0
 11
931.2491587345274
 21
2745.233310273387
 31
0.0
 70
    32
 71
     5
 42
1100.000000000001
  3
IGA
100
AcDbAlignedDimension
 13
1557.933136459587
 23
2195.233310273386
 33
0.0
 14
1461.677797681042
 24
3295.233310273387
 34
0.0
 50
90.0
100
AcDbRotatedDimension
1001
ACAD
1000
DSTYLE
1002
{
1070
    40
1040
30.0
1070
    42
1040
1.0
1070
   143
1040
0.039
1070
   172
1070
     1
1070
   271
1070
     4
1070
   272
1070
     4
1070
   279
1070
     0
1070
   284
1070
     0
1070
   285
1070
     0
1070
   286
1070
     0
1070
   341
1005
8469
1070
   343
1005
8469
1070
   344
1005
8469
1002
}
  0
DIMENSION
  5
85D4
330
8456
100
AcDbEntity
  8
3
100
AcDbDimension
  2
*D45
 10
1006.249158734528
 20
3938.233310273387
 30
0.0
 11
931.2491587345276
 21
3616.733310273388
 31
0.0
 70
    32
 71
     5
 42
642.9999999999995
  3
IGA
100
AcDbAlignedDimension
 13
1461.677797681042
 23
3295.233310273387
 33
0.0
 14
2184.933136459588
 24
3938.233310273387
 34
0.0
 50
90.0
100
AcDbRotatedDimension
1001
ACAD
1000
DSTYLE
1002
{
1070
    40
1040
30.0
1070
    42
1040
1.0
1070
   143
1040
0.039
1070
   172
1070
     1
1070
   271
1070
     4
1070
   272
1070
     4
1070
   279
1070
     1
1070
   284
1070
     0
1070
   285
1070
     0
1070
   286
1070
     0
1070
   341
1005
8469
1070
   343
1005
8469
1070
   344
1005
8469
1002
}
  0
DIMENSION
  5
85EA
330
8456
100
AcDbEntity
  8
3
100
AcDbDimension
  2
*D46
 10
1182.632538122736
 20
3295.233310273387
 30
0.0
 11
1107.632538122736
 21
2814.733310273387
 31
0.0
 70
    32
 71
     5
 42
961.000000000001
  3
IGA
100
AcDbAlignedDimension
 13
1497.933136459589
 23
2334.233310273386
 33
0.0
 14
1461.677797681042
 24
3295.233310273387
 34
0.0
 50
90.0
100
AcDbRotatedDimension
1001
ACAD
1000
DSTYLE
1002
{
1070
    40
1040
30.0
1070
    42
1040
1.0
1070
   143
1040
0.039
1070
   172
1070
     1
1070
   271
1070
     4
1070
   272
1070
     4
1070
   279
1070
     0
1070
   284
1070
     0
1070
   285
1070
     0
1070
   286
1070
     0
1070
   341
1005
8469
1070
   343
1005
8469
1070
   344
1005
8469
1002
}
  0
ENDSEC
  0
SECTION
  2
OBJECTS
  0
DICTIONARY
  5
83F3
330
0
100
AcDbDictionary
281
     1
  3
ACAD_CIP_PREVIOUS_PRODUCT_INFO
350
849F
  3
ACAD_COLOR
350
8449
  3
ACAD_DETAILVIEWSTYLE
350
8450
  3
ACAD_GROUP
350
83F4
  3
ACAD_LAYOUT
350
8448
  3
ACAD_MATERIAL
350
83F7
  3
ACAD_MLEADERSTYLE
350
844C
  3
ACAD_MLINESTYLE
350
8445
  3
ACAD_PLOTSETTINGS
350
8447
  3
ACAD_PLOTSTYLENAME
350
83F5
  3
ACAD_SCALELIST
350
8429
  3
ACAD_SECTIONVIEWSTYLE
350
844E
  3
ACAD_TABLESTYLE
350
844A
  3
ACAD_VISUALSTYLE
350
8410
  3
ACDB_RECOMPOSE_DATA
350
8617
  3
AcDbVariableDictionary
350
860A
  3
DWGPROPS
350
8618
  0
DICTIONARY
  5
8600
330
843B
100
AcDbDictionary
280
     1
281
     1
  3
ADSK_XREC_LAYER_RECONCILED
360
8601
  0
DICTIONARY
  5
8602
330
845A
100
AcDbDictionary
280
     1
281
     1
  3
ADSK_XREC_LAYER_RECONCILED
360
8603
  0
DICTIONARY
  5
8604
330
845D
100
AcDbDictionary
280
     1
281
     1
  3
ADSK_XREC_LAYER_RECONCILED
360
8605
  0
DICTIONARY
  5
8606
330
845E
100
AcDbDictionary
280
     1
281
     1
  3
ADSK_XREC_LAYER_RECONCILED
360
8607
  0
DICTIONARY
  5
8608
330
845F
100
AcDbDictionary
280
     1
281
     1
  3
ADSK_XREC_LAYER_RECONCILED
360
8609
  0
DICTIONARY
  5
84CB
330
8456
100
AcDbDictionary
280
     1
281
     1
  3
ACAD_SORTENTS
360
84CC
  0
XRECORD
  5
849F
102
{ACAD_REACTORS
330
83F3
102
}
330
83F3
100
AcDbXrecord
280
     1
300
ACDLT
300
2015
300
INVLTS_F_S
  0
DICTIONARY
  5
8449
102
{ACAD_REACTORS
330
83F3
102
}
330
83F3
100
AcDbDictionary
281
     1
  0
DICTIONARY
  5
8450
102
{ACAD_REACTORS
330
83F3
102
}
330
83F3
100
AcDbDictionary
281
     1
  3
Imperial24
350
8451
  0
DICTIONARY
  5
83F4
102
{ACAD_REACTORS
330
83F3
102
}
330
83F3
100
AcDbDictionary
281
     1
  0
DICTIONARY
  5
8448
102
{ACAD_REACTORS
330
83F3
102
}
330
83F3
100
AcDbDictionary
281
     1
  3
Model
350
8459
  3
レイアウト1
350
8455
  0
DICTIONARY
  5
83F7
102
{ACAD_REACTORS
330
83F3
102
}
330
83F3
100
AcDbDictionary
281
     1
  3
ByBlock
350
8400
  3
ByLayer
350
83F8
  3
Global
350
8408
  0
DICTIONARY
  5
844C
102
{ACAD_REACTORS
330
83F3
102
}
330
83F3
100
AcDbDictionary
281
     1
  3
Standard
350
844D
  0
DICTIONARY
  5
8445
102
{ACAD_REACTORS
330
83F3
102
}
330
83F3
100
AcDbDictionary
281
     1
  3
Standard
350
8446
  0
DICTIONARY
  5
8447
102
{ACAD_REACTORS
330
83F3
102
}
330
83F3
100
AcDbDictionary
281
     1
  0
ACDBDICTIONARYWDFLT
  5
83F5
102
{ACAD_REACTORS
330
83F3
102
}
330
83F3
100
AcDbDictionary
281
     1
  3
Normal
350
83F6
100
AcDbDictionaryWithDefault
340
83F6
  0
DICTIONARY
  5
8429
102
{ACAD_REACTORS
330
83F3
102
}
330
83F3
100
AcDbDictionary
281
     1
  3
A0
350
842A
  3
A1
350
842B
  3
A2
350
842C
  3
A3
350
842D
  3
A4
350
842E
  3
A5
350
842F
  3
A6
350
8430
  3
A7
350
8431
  3
A8
350
8432
  3
A9
350
8433
  3
B0
350
8434
  3
B1
350
8435
  3
B2
350
8436
  3
B3
350
8437
  3
B4
350
8438
  3
B5
350
8439
  3
B6
350
843A
  0
DICTIONARY
  5
844E
102
{ACAD_REACTORS
330
83F3
102
}
330
83F3
100
AcDbDictionary
281
     1
  3
Imperial24
350
844F
  0
DICTIONARY
  5
844A
102
{ACAD_REACTORS
330
83F3
102
}
330
83F3
100
AcDbDictionary
281
     1
  3
Standard
350
844B
  0
DICTIONARY
  5
8410
102
{ACAD_REACTORS
330
83F3
102
}
330
83F3
100
AcDbDictionary
281
     1
  3
2dWireframe
350
8416
  3
Basic
350
8415
  3
Brighten
350
841C
  3
ColorChange
350
8420
  3
Conceptual
350
8419
  3
Dim
350
841B
  3
EdgeColorOff
350
8428
  3
Facepattern
350
841F
  3
Flat
350
8411
  3
FlatWithEdges
350
8412
  3
Gouraud
350
8413
  3
GouraudWithEdges
350
8414
  3
Hidden
350
8418
  3
JitterOff
350
8426
  3
Linepattern
350
841E
  3
OverhangOff
350
8427
  3
Realistic
350
841A
  3
Shaded
350
8425
  3
Shaded with edges
350
8424
  3
Shades of Gray
350
8421
  3
Sketchy
350
8422
  3
Thicken
350
841D
  3
Wireframe
350
8417
  3
X-Ray
350
8423
  0
XRECORD
  5
8617
102
{ACAD_REACTORS
330
83F3
102
}
330
83F3
100
AcDbXrecord
280
     1
 90
        1
330
844B
  0
DICTIONARY
  5
860A
102
{ACAD_REACTORS
330
83F3
102
}
330
83F3
100
AcDbDictionary
281
     1
  3
CANNOSCALE
350
860F
  3
CMLEADERSTYLE
350
860C
  3
CTABLESTYLE
350
860B
  3
CVIEWDETAILSTYLE
350
860D
  3
CVIEWSECTIONSTYLE
350
860E
  3
DIMASSOC
350
8612
  3
INDEXCTL
350
8611
  3
SORTENTS
350
8610
  3
XCLIPFRAME
350
8613
  0
XRECORD
  5
8618
102
{ACAD_REACTORS
330
83F3
102
}
330
83F3
100
AcDbXrecord
280
     1
  1
DWGPROPS COOKIE
  2

  3

  4

  6

  7

  8
yasukiyo.ogawa
  9

300
=
301
=
302
=
303
=
304
=
305
=
306
=
307
=
308
=
309
=
 40
0.0170353703703704
 41
2451389.487709028
 42
2460269.600006123
  1

 90
        0
  0
XRECORD
  5
8601
102
{ACAD_REACTORS
330
8600
102
}
330
8600
100
AcDbXrecord
280
     1
290
     1
  0
XRECORD
  5
8603
102
{ACAD_REACTORS
330
8602
102
}
330
8602
100
AcDbXrecord
280
     1
290
     1
  0
XRECORD
  5
8605
102
{ACAD_REACTORS
330
8604
102
}
330
8604
100
AcDbXrecord
280
     1
290
     1
  0
XRECORD
  5
8607
102
{ACAD_REACTORS
330
8606
102
}
330
8606
100
AcDbXrecord
280
     1
290
     1
  0
XRECORD
  5
8609
102
{ACAD_REACTORS
330
8608
102
}
330
8608
100
AcDbXrecord
280
     1
290
     1
  0
SORTENTSTABLE
  5
84CC
102
{ACAD_REACTORS
330
84CB
102
}
330
84CB
100
AcDbSortentsTable
330
8456
331
7F84
  5
7F86
331
7F73
  5
7F75
331
7D12
  5
7D14
331
7D01
  5
7D03
331
7CDF
  5
7CE1
331
7CCE
  5
7CD3
331
7CBD
  5
7CBF
331
7CA3
  5
7CA5
331
7C92
  5
7C94
331
7C81
  5
7C83
331
7C70
  5
7C72
331
7C4E
  5
7C4E
331
7D2B
  5
7D2D
331
7D13
  5
7D1B
331
7D02
  5
7D04
331
7CE0
  5
7CE2
331
7F85
  5
7F87
331
7F74
  5
7F78
331
8228
  5
8251
331
7CCF
  5
7CD4
331
7CBE
  5
7CC0
331
7CA4
  5
7CA6
331
7C93
  5
7C95
331
7C82
  5
7C84
331
7C71
  5
7C73
331
7C60
  5
7C62
331
7C4F
  5
7C4F
331
7C3E
  5
7C3E
331
7F86
  5
7F88
331
7F75
  5
7F79
331
7D2C
  5
7D2E
331
7D14
  5
7D1C
331
7D03
  5
7D05
331
7CE1
  5
7CE3
331
84B0
  5
84CA
331
7CBF
  5
7CC1
331
7CA5
  5
7CA7
331
7C94
  5
7C96
331
7C83
  5
7C85
331
7C72
  5
7C74
331
7C61
  5
7C63
331
7C50
  5
7C50
331
7D2D
  5
7D2F
331
7D04
  5
7D06
331
7CE2
  5
7CE4
331
7CC0
  5
7CC2
331
7F87
  5
7F89
331
7D26
  5
7D2C
331
7CA6
  5
7CA8
331
7C95
  5
7C97
331
7C84
  5
7C86
331
7C73
  5
7C75
331
7C62
  5
7C64
331
7C51
  5
7C51
331
7C40
  5
7C40
331
7F88
  5
7F8A
331
7D2E
  5
7D30
331
7D05
  5
7D07
331
7CE3
  5
7CE6
331
7CC1
  5
7CC3
331
7CB0
  5
7CB2
331
7CA7
  5
7CA9
331
7C96
  5
7C98
331
7C85
  5
7C87
331
7C74
  5
7C76
331
7C63
  5
7C65
331
7C52
  5
7C52
331
7C41
  5
7C41
331
7F89
  5
7F8B
331
7F78
  5
7F7A
331
7D2F
  5
7D31
331
7D06
  5
7D08
331
7CF5
  5
7CF7
331
7CD3
  5
7CD5
331
7CC2
  5
7CC4
331
7CB1
  5
7CB3
331
7CA8
  5
7CAA
331
7C97
  5
7C99
331
7C86
  5
7C88
331
7C75
  5
7C77
331
7C64
  5
7C66
331
7C53
  5
7C53
331
7C42
  5
7C42
331
7F8A
  5
7F8C
331
7F79
  5
7F7B
331
7D30
  5
7F73
331
7D07
  5
7D09
331
7CF6
  5
7CF8
331
7CD4
  5
7CD9
331
7CC3
  5
7CC5
331
7CB2
  5
7CB4
331
7CA9
  5
7CAB
331
7C98
  5
7C9A
331
84A3
  5
84BD
331
7C87
  5
7C89
331
7C76
  5
7C78
331
7C65
  5
7C67
331
7C54
  5
7C54
331
7C43
  5
7C43
331
7F8B
  5
7F8D
331
7F7A
  5
7F7C
331
7D31
  5
7F74
331
7D08
  5
7D0A
331
7CF7
  5
7CF9
331
7CD5
  5
7CDA
331
7CC4
  5
7CC6
331
7CB3
  5
7CB5
331
7CAA
  5
7CAC
331
7C99
  5
7C9B
331
7C88
  5
7C8A
331
7C77
  5
7C79
331
7C66
  5
7C68
331
7C55
  5
7C55
331
7C44
  5
7C44
331
820C
  5
8228
331
7F7B
  5
7F7D
331
7D09
  5
7D0B
331
7CF8
  5
7CFA
331
7CC5
  5
7CC7
331
7CB4
  5
7CB6
331
7CAB
  5
7CAD
331
7C9A
  5
7C9C
331
7C89
  5
7C8B
331
7C78
  5
7C7A
331
7F8C
  5
7F8E
331
7C67
  5
7C69
331
7C56
  5
7C56
331
7C45
  5
7C45
331
7F8D
  5
7F8F
331
7F7C
  5
7F7F
331
7D1B
  5
7D1D
331
7D0A
  5
7D0C
331
7CF9
  5
7CFB
331
7CE8
  5
7CEA
331
7CC6
  5
7CC8
331
7CB5
  5
7CB7
331
7CAC
  5
7CAE
331
7C9B
  5
7C9D
331
7C8A
  5
7C8C
331
7C79
  5
7C7B
331
7C68
  5
7C6A
331
7C57
  5
7C57
331
7C46
  5
7C46
331
7F8E
  5
7F90
331
7F7D
  5
7F80
331
7D1C
  5
7D1E
331
7D0B
  5
7D0D
331
7CFA
  5
7CFC
331
7CE9
  5
7CEB
331
7CC7
  5
7CC9
331
7CB6
  5
7CB8
331
7CAD
  5
7CAF
331
7C9C
  5
7C9E
331
7C8B
  5
7C8D
331
7C7A
  5
7C7C
331
7C69
  5
7C6B
331
7C58
  5
7C58
331
7C47
  5
7C47
331
8251
  5
84B0
331
7C6A
  5
7C6C
331
7C59
  5
7C5B
331
7F8F
  5
7F91
331
7D1D
  5
7D1F
331
7D0C
  5
7D0E
331
7CFB
  5
7CFD
331
7CEA
  5
7CEC
331
7CD9
  5
7CDB
331
7CC8
  5
7CCA
331
7CB7
  5
7CB9
331
7CAE
  5
7CB0
331
7C9D
  5
7C9F
331
7C8C
  5
7C8E
331
7C7B
  5
7C7D
331
7C48
  5
7C48
331
8219
  5
8235
331
7F90
  5
81F2
331
81FF
  5
8219
331
7D1E
  5
7D20
331
7D0D
  5
7D0F
331
7CFC
  5
7CFE
331
7CEB
  5
7CED
331
7CDA
  5
7CDC
331
7CC9
  5
7CCB
331
7CB8
  5
7CBA
331
7CAF
  5
7CB1
331
7C9E
  5
7CA0
331
7C8D
  5
7C8F
331
7C7C
  5
7C7E
331
7C6B
  5
7C6D
331
7C5A
  5
7C5C
331
7F7F
  5
7F81
331
7C49
  5
7C49
331
7F91
  5
81FF
331
7F80
  5
7F82
331
7D1F
  5
7D21
331
7D0E
  5
7D10
331
7CFD
  5
7CFF
331
7CEC
  5
7CEE
331
7CDB
  5
7CDD
331
7CCA
  5
7CCD
331
7CB9
  5
7CBB
331
7C9F
  5
7CA1
331
7C8E
  5
7C90
331
7C7D
  5
7C7F
331
7C6C
  5
7C6E
331
7C5B
  5
7C5E
331
7C4A
  5
7C4A
331
7F81
  5
7F83
331
8235
  5
84A3
331
7C5C
  5
7C60
331
7C6D
  5
7C6F
331
7D0F
  5
7D11
331
7CFE
  5
7D00
331
7CED
  5
7CEF
331
7CDC
  5
7CDE
331
7CCB
  5
7CCE
331
7CBA
  5
7CBC
331
7CA0
  5
7CA2
331
7C8F
  5
7C91
331
7C7E
  5
7C80
331
7C4B
  5
7C4B
331
7F82
  5
7F84
331
7D10
  5
7D12
331
84BD
  5
84CD
331
7CFF
  5
7D01
331
7CEE
  5
7CF0
331
7CDD
  5
7CDF
331
7CBB
  5
7CBD
331
7C90
  5
7C92
331
7C7F
  5
7C81
331
7C6E
  5
7C70
331
7C4C
  5
7C4C
331
81F2
  5
820C
331
7D11
  5
7D13
331
7D00
  5
7D02
331
7F83
  5
7F85
331
7CDE
  5
7CE0
331
7CCD
  5
7CCF
331
7CBC
  5
7CBE
331
7C91
  5
7C93
331
7C80
  5
7C82
331
7C6F
  5
7C71
331
7C5E
  5
7C61
331
7C4D
  5
7C4D
  0
ACDBDETAILVIEWSTYLE
  5
8451
102
{ACAD_XDICTIONARY
360
8650
102
}
102
{ACAD_REACTORS
330
8450
102
}
330
8450
100
AcDbModelDocViewStyle
 70
     0
  3
Imperial24
290
     0
100
AcDbDetailViewStyle
 70
     0
 71
     0
 90
        3
 71
     1
340
843C
 40
0.24
340
0
 40
0.24
300

 40
0.36
280
     3
 71
     2
340
8443
 90
       25
 71
     3
340
843C
 40
0.24
 90
        1
 40
0.75
 90
        1
300
%<\AcVar ViewType \f "%tc1">% %<\AcVar ViewDetailId>%\PSCALE %<\AcVar ViewScale \f "%sn">%
 71
     4
340
8443
 90
       25
340
8443
 90
       25
280
     0
  0
LAYOUT
  5
8459
102
{ACAD_XDICTIONARY
360
8654
102
}
102
{ACAD_REACTORS
330
8448
102
}
330
8448
100
AcDbPlotSettings
  1

  2
RICOH imagio MP W3600 RPCS
  4

  6

 40
0.0
 41
0.0
 42
0.0
 43
0.0
 44
0.0
 45
0.0
 46
0.0
 47
0.0
 48
0.0
 49
0.0
140
0.0
141
0.0
142
1.0
143
1.0
 70
  1712
 72
     0
 73
     0
 74
     0
  7

 75
     0
147
1.0
148
0.0
149
0.0
100
AcDbLayout
  1
Model
 70
     1
 71
     0
 10
0.0
 20
0.0
 11
12.0
 21
9.0
 12
0.0
 22
0.0
 32
0.0
 14
0.0
 24
0.0
 34
0.0
 15
0.0
 25
0.0
 35
0.0
146
0.0
 13
0.0
 23
0.0
 33
0.0
 16
1.0
 26
0.0
 36
0.0
 17
0.0
 27
1.0
 37
0.0
 76
     0
330
8456
331
845B
  0
LAYOUT
  5
8455
102
{ACAD_XDICTIONARY
360
8652
102
}
102
{ACAD_REACTORS
330
8448
102
}
330
8448
100
AcDbPlotSettings
  1

  2
RICOH imagio MP W3600 RPCS
  4

  6

 40
0.0
 41
0.0
 42
0.0
 43
0.0
 44
0.0
 45
0.0
 46
0.0
 47
0.0
 48
0.0
 49
0.0
140
0.0
141
0.0
142
1.0
143
1.0
 70
   688
 72
     0
 73
     0
 74
     5
  7

 75
    16
147
1.0
148
0.0
149
0.0
100
AcDbLayout
  1
レイアウト1
 70
     1
 71
     1
 10
0.0
 20
0.0
 11
12.0
 21
9.0
 12
0.0
 22
0.0
 32
0.0
 14
1.000000000000000E+20
 24
1.000000000000000E+20
 34
1.000000000000000E+20
 15
-1.000000000000000E+20
 25
-1.000000000000000E+20
 35
-1.000000000000000E+20
146
0.0
 13
0.0
 23
0.0
 33
0.0
 16
1.0
 26
0.0
 36
0.0
 17
0.0
 27
1.0
 37
0.0
 76
     0
330
8452
  0
MATERIAL
  5
8400
102
{ACAD_XDICTIONARY
360
8401
102
}
102
{ACAD_REACTORS
330
83F7
102
}
330
83F7
100
AcDbMaterial
  1
ByBlock
 72
     0
 43
0.0208333333333333
 43
0.0
 43
0.0
 43
0.0
 43
0.0
 43
0.0208333333333333
 43
0.0
 43
0.0
 43
0.0
 43
0.0
 43
1.0
 43
0.0
 43
0.0
 43
0.0
 43
0.0
 43
1.0
 77
     0
 47
0.0208333333333333
 47
0.0
 47
0.0
 47
0.0
 47
0.0
 47
0.0208333333333333
 47
0.0
 47
0.0
 47
0.0
 47
0.0
 47
1.0
 47
0.0
 47
0.0
 47
0.0
 47
0.0
 47
1.0
171
     0
 49
0.0208333333333333
 49
0.0
 49
0.0
 49
0.0
 49
0.0
 49
0.0208333333333333
 49
0.0
 49
0.0
 49
0.0
 49
0.0
 49
1.0
 49
0.0
 49
0.0
 49
0.0
 49
0.0
 49
1.0
175
     0
142
0.0208333333333333
142
0.0
142
0.0
142
0.0
142
0.0
142
0.0208333333333333
142
0.0
142
0.0
142
0.0
142
0.0
142
1.0
142
0.0
142
0.0
142
0.0
142
0.0
142
1.0
179
     0
144
0.0208333333333333
144
0.0
144
0.0
144
0.0
144
0.0
144
0.0208333333333333
144
0.0
144
0.0
144
0.0
144
0.0
144
1.0
144
0.0
144
0.0
144
0.0
144
0.0
144
1.0
147
0.0208333333333333
147
0.0
147
0.0
147
0.0
147
0.0
147
0.0208333333333333
147
0.0
147
0.0
147
0.0
147
0.0
147
1.0
147
0.0
147
0.0
147
0.0
147
0.0
147
1.0
  0
MATERIAL
  5
83F8
102
{ACAD_XDICTIONARY
360
83F9
102
}
102
{ACAD_REACTORS
330
83F7
102
}
330
83F7
100
AcDbMaterial
  1
ByLayer
 72
     0
 43
0.0208333333333333
 43
0.0
 43
0.0
 43
0.0
 43
0.0
 43
0.0208333333333333
 43
0.0
 43
0.0
 43
0.0
 43
0.0
 43
1.0
 43
0.0
 43
0.0
 43
0.0
 43
0.0
 43
1.0
 77
     0
 47
0.0208333333333333
 47
0.0
 47
0.0
 47
0.0
 47
0.0
 47
0.0208333333333333
 47
0.0
 47
0.0
 47
0.0
 47
0.0
 47
1.0
 47
0.0
 47
0.0
 47
0.0
 47
0.0
 47
1.0
171
     0
 49
0.0208333333333333
 49
0.0
 49
0.0
 49
0.0
 49
0.0
 49
0.0208333333333333
 49
0.0
 49
0.0
 49
0.0
 49
0.0
 49
1.0
 49
0.0
 49
0.0
 49
0.0
 49
0.0
 49
1.0
175
     0
142
0.0208333333333333
142
0.0
142
0.0
142
0.0
142
0.0
142
0.0208333333333333
142
0.0
142
0.0
142
0.0
142
0.0
142
1.0
142
0.0
142
0.0
142
0.0
142
0.0
142
1.0
179
     0
144
0.0208333333333333
144
0.0
144
0.0
144
0.0
144
0.0
144
0.0208333333333333
144
0.0
144
0.0
144
0.0
144
0.0
144
1.0
144
0.0
144
0.0
144
0.0
144
0.0
144
1.0
147
0.0208333333333333
147
0.0
147
0.0
147
0.0
147
0.0
147
0.0208333333333333
147
0.0
147
0.0
147
0.0
147
0.0
147
1.0
147
0.0
147
0.0
147
0.0
147
0.0
147
1.0
  0
MATERIAL
  5
8408
102
{ACAD_XDICTIONARY
360
8409
102
}
102
{ACAD_REACTORS
330
83F7
102
}
330
83F7
100
AcDbMaterial
  1
Global
 72
     0
 43
0.0208333333333333
 43
0.0
 43
0.0
 43
0.0
 43
0.0
 43
0.0208333333333333
 43
0.0
 43
0.0
 43
0.0
 43
0.0
 43
1.0
 43
0.0
 43
0.0
 43
0.0
 43
0.0
 43
1.0
 77
     0
 47
0.0208333333333333
 47
0.0
 47
0.0
 47
0.0
 47
0.0
 47
0.0208333333333333
 47
0.0
 47
0.0
 47
0.0
 47
0.0
 47
1.0
 47
0.0
 47
0.0
 47
0.0
 47
0.0
 47
1.0
171
     0
 49
0.0208333333333333
 49
0.0
 49
0.0
 49
0.0
 49
0.0
 49
0.0208333333333333
 49
0.0
 49
0.0
 49
0.0
 49
0.0
 49
1.0
 49
0.0
 49
0.0
 49
0.0
 49
0.0
 49
1.0
175
     0
142
0.0208333333333333
142
0.0
142
0.0
142
0.0
142
0.0
142
0.0208333333333333
142
0.0
142
0.0
142
0.0
142
0.0
142
1.0
142
0.0
142
0.0
142
0.0
142
0.0
142
1.0
179
     0
144
0.0208333333333333
144
0.0
144
0.0
144
0.0
144
0.0
144
0.0208333333333333
144
0.0
144
0.0
144
0.0
144
0.0
144
1.0
144
0.0
144
0.0
144
0.0
144
0.0
144
1.0
147
0.0208333333333333
147
0.0
147
0.0
147
0.0
147
0.0
147
0.0208333333333333
147
0.0
147
0.0
147
0.0
147
0.0
147
1.0
147
0.0
147
0.0
147
0.0
147
0.0
147
1.0
  0
MLEADERSTYLE
  5
844D
102
{ACAD_REACTORS
330
844C
102
}
330
844C
100
AcDbMLeaderStyle
170
     2
171
     1
172
     0
 90
        2
 40
0.0
 41
0.0
173
     1
 91
-1056964608
340
8441
 92
       -2
290
     1
 42
0.09
291
     1
 43
0.36
  3
Standard
 44
0.18
300

342
843C
174
     1
178
     6
175
     1
176
     0
 93
-1056964608
 45
0.18
292
     0
297
     0
 46
0.18
 94
-1056964608
 47
1.0
 49
1.0
140
1.0
293
     1
141
0.0
294
     1
177
     0
142
1.0
295
     0
296
     0
143
0.125
1001
ACAD_MLEADERVER
1070
     2
  0
MLINESTYLE
  5
8446
102
{ACAD_REACTORS
330
8445
102
}
330
8445
100
AcDbMlineStyle
  2
STANDARD
 70
     0
  3

 62
   256
 51
90.0
 52
90.0
 71
     2
 49
0.5
 62
   256
  6
BYLAYER
 49
-0.5
 62
   256
  6
BYLAYER
  0
ACDBPLACEHOLDER
  5
83F6
102
{ACAD_REACTORS
330
83F5
102
}
330
83F5
  0
SCALE
  5
842A
102
{ACAD_REACTORS
330
8429
102
}
330
8429
100
AcDbScale
 70
     0
300
1:1
140
1.0
141
1.0
290
     1
  0
SCALE
  5
842B
102
{ACAD_REACTORS
330
8429
102
}
330
8429
100
AcDbScale
 70
     0
300
1/128" = 1'-0"
140
0.0078125
141
12.0
290
     0
  0
SCALE
  5
842C
102
{ACAD_REACTORS
330
8429
102
}
330
8429
100
AcDbScale
 70
     0
300
1/64" = 1'-0"
140
0.015625
141
12.0
290
     0
  0
SCALE
  5
842D
102
{ACAD_REACTORS
330
8429
102
}
330
8429
100
AcDbScale
 70
     0
300
1/32" = 1'-0"
140
0.03125
141
12.0
290
     0
  0
SCALE
  5
842E
102
{ACAD_REACTORS
330
8429
102
}
330
8429
100
AcDbScale
 70
     0
300
1/16" = 1'-0"
140
0.0625
141
12.0
290
     0
  0
SCALE
  5
842F
102
{ACAD_REACTORS
330
8429
102
}
330
8429
100
AcDbScale
 70
     0
300
3/32" = 1'-0"
140
0.09375
141
12.0
290
     0
  0
SCALE
  5
8430
102
{ACAD_REACTORS
330
8429
102
}
330
8429
100
AcDbScale
 70
     0
300
1/8" = 1'-0"
140
0.125
141
12.0
290
     0
  0
SCALE
  5
8431
102
{ACAD_REACTORS
330
8429
102
}
330
8429
100
AcDbScale
 70
     0
300
3/16" = 1'-0"
140
0.1875
141
12.0
290
     0
  0
SCALE
  5
8432
102
{ACAD_REACTORS
330
8429
102
}
330
8429
100
AcDbScale
 70
     0
300
1/4" = 1'-0"
140
0.25
141
12.0
290
     0
  0
SCALE
  5
8433
102
{ACAD_REACTORS
330
8429
102
}
330
8429
100
AcDbScale
 70
     0
300
3/8" = 1'-0"
140
0.375
141
12.0
290
     0
  0
SCALE
  5
8434
102
{ACAD_REACTORS
330
8429
102
}
330
8429
100
AcDbScale
 70
     0
300
1/2" = 1'-0"
140
0.5
141
12.0
290
     0
  0
SCALE
  5
8435
102
{ACAD_REACTORS
330
8429
102
}
330
8429
100
AcDbScale
 70
     0
300
3/4" = 1'-0"
140
0.75
141
12.0
290
     0
  0
SCALE
  5
8436
102
{ACAD_REACTORS
330
8429
102
}
330
8429
100
AcDbScale
 70
     0
300
1" = 1'-0"
140
1.0
141
12.0
290
     0
  0
SCALE
  5
8437
102
{ACAD_REACTORS
330
8429
102
}
330
8429
100
AcDbScale
 70
     0
300
1-1/2" = 1'-0"
140
1.5
141
12.0
290
     0
  0
SCALE
  5
8438
102
{ACAD_REACTORS
330
8429
102
}
330
8429
100
AcDbScale
 70
     0
300
3" = 1'-0"
140
3.0
141
12.0
290
     0
  0
SCALE
  5
8439
102
{ACAD_REACTORS
330
8429
102
}
330
8429
100
AcDbScale
 70
     0
300
6" = 1'-0"
140
6.0
141
12.0
290
     0
  0
SCALE
  5
843A
102
{ACAD_REACTORS
330
8429
102
}
330
8429
100
AcDbScale
 70
     0
300
1'-0" = 1'-0"
140
12.0
141
12.0
290
     0
  0
ACDBSECTIONVIEWSTYLE
  5
844F
102
{ACAD_XDICTIONARY
360
864E
102
}
102
{ACAD_REACTORS
330
844E
102
}
330
844E
100
AcDbModelDocViewStyle
 70
     0
  3
Imperial24
290
     0
100
AcDbSectionViewStyle
 70
     0
 71
     0
 90
       78
 71
     1
340
843C
 40
0.24
340
0
340
0
 40
0.24
300
I, O, Q, S, X, Z
 40
0.48
 90
        3
 40
0.18
 90
        1
 71
     2
340
8443
 90
       25
340
8443
 90
       50
 40
0.24
 40
0.0
 40
0.24
 71
     3
340
843C
 40
0.24
 90
        1
 40
0.75
 90
        1
300
%<\AcVar ViewType \f "%tc1">% %<\AcVar ViewSectionStartId>%-%<\AcVar ViewSectionEndId>%\PSCALE %<\AcVar ViewScale \f "%sn">%
 71
     4
300
ANSI31
 40
1.0
 90
        0
290
     0
290
     0
 90
        6
 40
0.0
 40
1.570796326794896
 40
0.2617993877991494
 40
1.308996938995747
 40
-0.2617993877991494
 40
1.832595714594046
  0
TABLESTYLE
  5
844B
102
{ACAD_XDICTIONARY
360
8615
102
}
102
{ACAD_REACTORS
330
844A
102
}
330
844A
100
AcDbTableStyle
  3
Standard
 70
     0
 71
     0
 40
0.06
 41
0.06
280
     0
281
     0
  7
STANDARD
140
0.18
170
     2
 62
     0
 63
     7
283
     0
274
    -2
284
     1
 64
     0
275
    -2
285
     1
 65
     0
276
    -2
286
     1
 66
     0
277
    -2
287
     1
 67
     0
278
    -2
288
     1
 68
     0
279
    -2
289
     1
 69
     0
  7
STANDARD
140
0.25
170
     5
 62
     0
 63
     7
283
     0
274
    -2
284
     1
 64
     0
275
    -2
285
     1
 65
     0
276
    -2
286
     1
 66
     0
277
    -2
287
     1
 67
     0
278
    -2
288
     1
 68
     0
279
    -2
289
     1
 69
     0
  7
STANDARD
140
0.18
170
     5
 62
     0
 63
     7
283
     0
274
    -2
284
     1
 64
     0
275
    -2
285
     1
 65
     0
276
    -2
286
     1
 66
     0
277
    -2
287
     1
 67
     0
278
    -2
288
     1
 68
     0
279
    -2
289
     1
 69
     0
  0
VISUALSTYLE
  5
8416
102
{ACAD_XDICTIONARY
360
8626
102
}
102
{ACAD_REACTORS
330
8410
102
}
330
8410
100
AcDbVisualStyle
  2
2dWireframe
 70
     4
 71
     0
 72
     2
 73
     0
 90
        0
 40
-0.6
 41
-30.0
 62
     5
 63
     7
 74
     1
 91
        4
 64
     7
 65
   257
 75
     1
175
     1
 42
1.0
 92
        0
 66
   257
 43
1.0
 76
     1
 77
     6
 78
     2
 67
     7
 79
     5
170
     0
171
     0
290
     0
174
     0
 93
        1
 44
0.0
173
     0
291
     0
 45
0.0
1001
ACAD
1000
AcDbSavedByObjectVersion
1070
     0
  0
VISUALSTYLE
  5
8415
102
{ACAD_XDICTIONARY
360
8624
102
}
102
{ACAD_REACTORS
330
8410
102
}
330
8410
100
AcDbVisualStyle
  2
Basic
 70
     7
 71
     1
 72
     0
 73
     1
 90
        0
 40
-0.6
 41
-30.0
 62
     5
 63
     7
 74
     0
 91
        4
 64
     7
 65
   257
 75
     1
175
     1
 42
1.0
 92
        8
 66
     7
 43
1.0
 76
     1
 77
     6
 78
     2
 67
     7
 79
     5
170
     0
171
     0
290
     0
174
     0
 93
        1
 44
0.0
173
     0
291
     1
 45
0.0
1001
ACAD
1000
AcDbSavedByObjectVersion
1070
     0
  0
VISUALSTYLE
  5
841C
102
{ACAD_XDICTIONARY
360
8632
102
}
102
{ACAD_REACTORS
330
8410
102
}
330
8410
100
AcDbVisualStyle
  2
Brighten
 70
    12
 71
     2
 72
     2
 73
     0
 90
        0
 40
-0.6
 41
-30.0
 62
     5
 63
     7
 74
     1
 91
        4
 64
     7
 65
   257
 75
     1
175
     1
 42
1.0
 92
        8
 66
     7
 43
1.0
 76
     1
 77
     6
 78
     2
 67
     7
 79
     5
170
     0
171
     0
290
     0
174
     0
 93
        1
 44
50.0
173
     0
291
     1
 45
0.0
1001
ACAD
1000
AcDbSavedByObjectVersion
1070
     0
  0
VISUALSTYLE
  5
8420
102
{ACAD_XDICTIONARY
360
863A
102
}
102
{ACAD_REACTORS
330
8410
102
}
330
8410
100
AcDbVisualStyle
  2
ColorChange
 70
    16
 71
     2
 72
     2
 73
     3
 90
        0
 40
-0.6
 41
-30.0
 62
     5
 63
     8
 74
     1
 91
        4
 64
     7
 65
   257
 75
     1
175
     1
 42
1.0
 92
        8
 66
     8
 43
1.0
 76
     1
 77
     6
 78
     2
 67
     7
 79
     5
170
     0
171
     0
290
     0
174
     0
 93
        1
 44
0.0
173
     0
291
     1
 45
0.0
1001
ACAD
1000
AcDbSavedByObjectVersion
1070
     0
  0
VISUALSTYLE
  5
8419
102
{ACAD_XDICTIONARY
360
862C
102
}
102
{ACAD_REACTORS
330
8410
102
}
330
8410
100
AcDbVisualStyle
  2
Conceptual
 70
     9
 71
     3
 72
     2
 73
     0
 90
        0
 40
-0.6
 41
-30.0
 62
     5
 63
     7
 74
     2
 91
        2
 64
     7
 65
   257
 75
     1
175
     1
 42
179.0
 92
        8
 66
     7
 43
1.0
 76
     1
 77
     6
 78
     2
 67
     7
 79
     3
170
     0
171
     0
290
     0
174
     0
 93
        1
 44
0.0
173
     0
291
     0
 45
0.0
1001
ACAD
1000
AcDbSavedByObjectVersion
1070
     0
  0
VISUALSTYLE
  5
841B
102
{ACAD_XDICTIONARY
360
8630
102
}
102
{ACAD_REACTORS
330
8410
102
}
330
8410
100
AcDbVisualStyle
  2
Dim
 70
    11
 71
     2
 72
     2
 73
     0
 90
        0
 40
-0.6
 41
-30.0
 62
     5
 63
     7
 74
     1
 91
        4
 64
     7
 65
   257
 75
     1
175
     1
 42
1.0
 92
        8
 66
     7
 43
1.0
 76
     1
 77
     6
 78
     2
 67
     7
 79
     5
170
     0
171
     0
290
     0
174
     0
 93
        1
 44
-50.0
173
     0
291
     1
 45
0.0
1001
ACAD
1000
AcDbSavedByObjectVersion
1070
     0
  0
VISUALSTYLE
  5
8428
102
{ACAD_XDICTIONARY
360
864A
102
}
102
{ACAD_REACTORS
330
8410
102
}
330
8410
100
AcDbVisualStyle
  2
EdgeColorOff
 70
    22
 71
     2
 72
     2
 73
     0
 90
        0
 40
-0.6
 41
-30.0
 62
     5
 63
     7
 74
     1
 91
        4
 64
     7
 65
   257
 75
     1
175
     1
 42
1.0
 92
        8
 66
     7
 43
1.0
 76
     1
 77
     6
 78
     2
 67
     7
 79
     5
170
     0
171
     0
290
     0
174
     0
 93
        1
 44
0.0
173
     0
291
     1
 45
0.0
1001
ACAD
1000
AcDbSavedByObjectVersion
1070
     0
  0
VISUALSTYLE
  5
841F
102
{ACAD_XDICTIONARY
360
8638
102
}
102
{ACAD_REACTORS
330
8410
102
}
330
8410
100
AcDbVisualStyle
  2
Facepattern
 70
    15
 71
     2
 72
     2
 73
     0
 90
        0
 40
-0.6
 41
-30.0
 62
     5
 63
     7
 74
     1
 91
        4
 64
     7
 65
   257
 75
     1
175
     1
 42
1.0
 92
        8
 66
     7
 43
1.0
 76
     1
 77
     6
 78
     2
 67
     7
 79
     5
170
     0
171
     0
290
     0
174
     0
 93
        1
 44
0.0
173
     0
291
     1
 45
0.0
1001
ACAD
1000
AcDbSavedByObjectVersion
1070
     0
  0
VISUALSTYLE
  5
8411
102
{ACAD_XDICTIONARY
360
861C
102
}
102
{ACAD_REACTORS
330
8410
102
}
330
8410
100
AcDbVisualStyle
  2
Flat
 70
     0
 71
     2
 72
     1
 73
     1
 90
        2
 40
-0.6
 41
30.0
 62
     5
 63
     7
 74
     0
 91
        0
 64
     7
 65
   257
 75
     1
175
     1
 42
1.0
 92
        8
 66
     7
 43
1.0
 76
     1
 77
     6
 78
     2
 67
     7
 79
     5
170
     0
171
     0
290
     0
174
     0
 93
       13
 44
0.0
173
     0
291
     1
 45
0.0
1001
ACAD
1000
AcDbSavedByObjectVersion
1070
     0
  0
VISUALSTYLE
  5
8412
102
{ACAD_XDICTIONARY
360
861E
102
}
102
{ACAD_REACTORS
330
8410
102
}
330
8410
100
AcDbVisualStyle
  2
FlatWithEdges
 70
     1
 71
     2
 72
     1
 73
     1
 90
        2
 40
-0.6
 41
30.0
 62
     5
 63
     7
 74
     1
 91
        0
 64
     7
 65
   257
 75
     1
175
     1
 42
1.0
 92
        0
 66
   257
 43
1.0
 76
     1
 77
     6
 78
     2
 67
     7
 79
     5
170
     0
171
     0
290
     0
174
     0
 93
       13
 44
0.0
173
     0
291
     1
 45
0.0
1001
ACAD
1000
AcDbSavedByObjectVersion
1070
     0
  0
VISUALSTYLE
  5
8413
102
{ACAD_XDICTIONARY
360
8620
102
}
102
{ACAD_REACTORS
330
8410
102
}
330
8410
100
AcDbVisualStyle
  2
Gouraud
 70
     2
 71
     2
 72
     2
 73
     1
 90
        2
 40
-0.6
 41
30.0
 62
     5
 63
     7
 74
     0
 91
        0
 64
     7
 65
   257
 75
     1
175
     1
 42
1.0
 92
        0
 66
     7
 43
1.0
 76
     1
 77
     6
 78
     2
 67
     7
 79
     5
170
     0
171
     0
290
     0
174
     0
 93
       13
 44
0.0
173
     0
291
     1
 45
0.0
1001
ACAD
1000
AcDbSavedByObjectVersion
1070
     0
  0
VISUALSTYLE
  5
8414
102
{ACAD_XDICTIONARY
360
8622
102
}
102
{ACAD_REACTORS
330
8410
102
}
330
8410
100
AcDbVisualStyle
  2
GouraudWithEdges
 70
     3
 71
     2
 72
     2
 73
     1
 90
        2
 40
-0.6
 41
30.0
 62
     5
 63
     7
 74
     1
 91
        0
 64
     7
 65
   257
 75
     1
175
     1
 42
1.0
 92
        0
 66
   257
 43
1.0
 76
     1
 77
     6
 78
     2
 67
     7
 79
     5
170
     0
171
     0
290
     0
174
     0
 93
       13
 44
0.0
173
     0
291
     1
 45
0.0
1001
ACAD
1000
AcDbSavedByObjectVersion
1070
     0
  0
VISUALSTYLE
  5
8418
102
{ACAD_XDICTIONARY
360
862A
102
}
102
{ACAD_REACTORS
330
8410
102
}
330
8410
100
AcDbVisualStyle
  2
Hidden
 70
     6
 71
     1
 72
     2
 73
     2
 90
        0
 40
-0.6
 41
-30.0
 62
     5
 63
     7
 74
     2
 91
        2
 64
     7
 65
   257
 75
     2
175
     1
 42
40.0
 92
        0
 66
   257
 43
1.0
 76
     1
 77
     6
 78
     2
 67
     7
 79
     3
170
     0
171
     0
290
     0
174
     0
 93
        1
 44
0.0
173
     0
291
     0
 45
0.0
1001
ACAD
1000
AcDbSavedByObjectVersion
1070
     0
  0
VISUALSTYLE
  5
8426
102
{ACAD_XDICTIONARY
360
8646
102
}
102
{ACAD_REACTORS
330
8410
102
}
330
8410
100
AcDbVisualStyle
  2
JitterOff
 70
    20
 71
     2
 72
     2
 73
     0
 90
        0
 40
-0.6
 41
-30.0
 62
     5
 63
     7
 74
     1
 91
        4
 64
     7
 65
   257
 75
     1
175
     1
 42
1.0
 92
       10
 66
     7
 43
1.0
 76
     1
 77
     6
 78
     2
 67
     7
 79
     5
170
     0
171
     0
290
     0
174
     0
 93
        1
 44
0.0
173
     0
291
     1
 45
0.0
1001
ACAD
1000
AcDbSavedByObjectVersion
1070
     0
  0
VISUALSTYLE
  5
841E
102
{ACAD_XDICTIONARY
360
8636
102
}
102
{ACAD_REACTORS
330
8410
102
}
330
8410
100
AcDbVisualStyle
  2
Linepattern
 70
    14
 71
     2
 72
     2
 73
     0
 90
        0
 40
-0.6
 41
-30.0
 62
     5
 63
     7
 74
     1
 91
        4
 64
     7
 65
   257
 75
     7
175
     7
 42
1.0
 92
        8
 66
     7
 43
1.0
 76
     1
 77
     6
 78
     2
 67
     7
 79
     5
170
     0
171
     0
290
     0
174
     0
 93
        1
 44
0.0
173
     0
291
     1
 45
0.0
1001
ACAD
1000
AcDbSavedByObjectVersion
1070
     0
  0
VISUALSTYLE
  5
8427
102
{ACAD_XDICTIONARY
360
8648
102
}
102
{ACAD_REACTORS
330
8410
102
}
330
8410
100
AcDbVisualStyle
  2
OverhangOff
 70
    21
 71
     2
 72
     2
 73
     0
 90
        0
 40
-0.6
 41
-30.0
 62
     5
 63
     7
 74
     1
 91
        4
 64
     7
 65
   257
 75
     1
175
     1
 42
1.0
 92
        9
 66
     7
 43
1.0
 76
     1
 77
     6
 78
     2
 67
     7
 79
     5
170
     0
171
     0
290
     0
174
     0
 93
        1
 44
0.0
173
     0
291
     1
 45
0.0
1001
ACAD
1000
AcDbSavedByObjectVersion
1070
     0
  0
VISUALSTYLE
  5
841A
102
{ACAD_XDICTIONARY
360
862E
102
}
102
{ACAD_REACTORS
330
8410
102
}
330
8410
100
AcDbVisualStyle
  2
Realistic
 70
     8
 71
     2
 72
     3
 73
     0
 90
        2
 40
-0.6
 41
30.0
 62
     5
 63
     7
 74
     0
 91
        0
 64
     7
 65
   257
 75
     1
175
     1
 42
1.0
 92
        8
 66
   257
 43
1.0
 76
     1
 77
     6
 78
     2
 67
     7
 79
     3
170
     0
171
     0
290
     0
174
     0
 93
       13
 44
0.0
173
     0
291
     0
 45
0.0
1001
ACAD
1000
AcDbSavedByObjectVersion
1070
     0
  0
VISUALSTYLE
  5
8425
102
{ACAD_XDICTIONARY
360
8644
102
}
102
{ACAD_REACTORS
330
8410
102
}
330
8410
100
AcDbVisualStyle
  2
Shaded
 70
    27
 71
     2
 72
     2
 73
     1
 90
        2
 40
-0.6
 41
30.0
 62
     5
 63
     7
 74
     0
 91
        4
 64
     7
 65
   257
 75
     1
175
     1
 42
1.0
 92
        8
 66
   257
 43
1.0
 76
     1
 77
     6
 78
     2
 67
     8
 79
     3
170
     0
171
     0
290
     0
174
     0
 93
        5
 44
0.0
173
     0
291
     0
 45
0.0
1001
ACAD
1000
AcDbSavedByObjectVersion
1070
     0
  0
VISUALSTYLE
  5
8424
102
{ACAD_XDICTIONARY
360
8642
102
}
102
{ACAD_REACTORS
330
8410
102
}
330
8410
100
AcDbVisualStyle
  2
Shaded with edges
 70
    26
 71
     2
 72
     2
 73
     1
 90
        2
 40
-0.6
 41
30.0
 62
     5
 63
     7
 74
     1
 91
       10
 64
     7
 65
   257
 75
     2
175
     1
 42
1.0
 92
        8
 66
   257
 43
1.0
 76
     1
 77
     6
 78
     2
 67
     7
 79
     3
170
     0
171
     0
290
     0
174
     0
 93
        5
 44
0.0
173
     0
291
     0
 45
0.0
1001
ACAD
1000
AcDbSavedByObjectVersion
1070
     0
  0
VISUALSTYLE
  5
8421
102
{ACAD_XDICTIONARY
360
863C
102
}
102
{ACAD_REACTORS
330
8410
102
}
330
8410
100
AcDbVisualStyle
  2
Shades of Gray
 70
    23
 71
     2
 72
     2
 73
     3
 90
        0
 40
-0.6
 41
-30.0
 62
     5
 63
     7
 74
     2
 91
        2
 64
     7
 65
     7
 75
     1
175
     1
 42
40.0
 92
        8
 66
     7
 43
1.0
 76
     1
 77
     6
 78
     2
 67
     7
 79
     3
170
     0
171
     0
290
     0
174
     0
 93
        1
 44
0.0
173
     0
291
     0
 45
0.0
1001
ACAD
1000
AcDbSavedByObjectVersion
1070
     0
  0
VISUALSTYLE
  5
8422
102
{ACAD_XDICTIONARY
360
863E
102
}
102
{ACAD_REACTORS
330
8410
102
}
330
8410
100
AcDbVisualStyle
  2
Sketchy
 70
    24
 71
     1
 72
     2
 73
     2
 90
        0
 40
-0.6
 41
-30.0
 62
     5
 63
     7
 74
     2
 91
        2
 64
     7
 65
     7
 75
     1
175
     1
 42
40.0
 92
       11
 66
     7
 43
1.0
 76
     1
 77
     6
 78
     2
 67
     7
 79
     6
170
     0
171
     0
290
     0
174
     0
 93
        1
 44
0.0
173
     0
291
     0
 45
0.0
1001
ACAD
1000
AcDbSavedByObjectVersion
1070
     0
  0
VISUALSTYLE
  5
841D
102
{ACAD_XDICTIONARY
360
8634
102
}
102
{ACAD_REACTORS
330
8410
102
}
330
8410
100
AcDbVisualStyle
  2
Thicken
 70
    13
 71
     2
 72
     2
 73
     0
 90
        0
 40
-0.6
 41
-30.0
 62
     5
 63
     7
 74
     1
 91
        4
 64
     7
 65
   257
 75
     1
175
     1
 42
1.0
 92
       12
 66
     7
 43
1.0
 76
     1
 77
     6
 78
     2
 67
     7
 79
     5
170
     0
171
     0
290
     0
174
     0
 93
        1
 44
0.0
173
     0
291
     1
 45
0.0
1001
ACAD
1000
AcDbSavedByObjectVersion
1070
     0
  0
VISUALSTYLE
  5
8417
102
{ACAD_XDICTIONARY
360
8628
102
}
102
{ACAD_REACTORS
330
8410
102
}
330
8410
100
AcDbVisualStyle
  2
Wireframe
 70
     5
 71
     0
 72
     2
 73
     0
 90
        0
 40
-0.6
 41
-30.0
 62
     5
 63
     7
 74
     1
 91
        4
 64
     7
 65
   257
 75
     1
175
     1
 42
1.0
 92
        0
 66
   257
 43
1.0
 76
     1
 77
     6
 78
     2
 67
     7
 79
     3
170
     0
171
     0
290
     0
174
     0
 93
        1
 44
0.0
173
     0
291
     0
 45
0.0
1001
ACAD
1000
AcDbSavedByObjectVersion
1070
     0
  0
VISUALSTYLE
  5
8423
102
{ACAD_XDICTIONARY
360
8640
102
}
102
{ACAD_REACTORS
330
8410
102
}
330
8410
100
AcDbVisualStyle
  2
X-Ray
 70
    25
 71
     2
 72
     2
 73
     1
 90
        1
 40
0.5
 41
-30.0
 62
     5
 63
     7
 74
     1
 91
        0
 64
     7
 65
   257
 75
     1
175
     1
 42
1.0
 92
        8
 66
     7
 43
1.0
 76
     1
 77
     6
 78
     2
 67
     7
 79
     3
170
     0
171
     0
290
     0
174
     0
 93
       13
 44
0.0
173
     0
291
     0
 45
0.0
1001
ACAD
1000
AcDbSavedByObjectVersion
1070
     0
  0
DICTIONARYVAR
  5
860F
102
{ACAD_REACTORS
330
860A
102
}
330
860A
100
DictionaryVariables
280
     0
  1
1:1
  0
DICTIONARYVAR
  5
860C
102
{ACAD_REACTORS
330
860A
102
}
330
860A
100
DictionaryVariables
280
     0
  1
STANDARD
  0
DICTIONARYVAR
  5
860B
102
{ACAD_REACTORS
330
860A
102
}
330
860A
100
DictionaryVariables
280
     0
  1
STANDARD
  0
DICTIONARYVAR
  5
860D
102
{ACAD_REACTORS
330
860A
102
}
330
860A
100
DictionaryVariables
280
     0
  1
Imperial24
  0
DICTIONARYVAR
  5
860E
102
{ACAD_REACTORS
330
860A
102
}
330
860A
100
DictionaryVariables
280
     0
  1
Imperial24
  0
DICTIONARYVAR
  5
8612
102
{ACAD_REACTORS
330
860A
102
}
330
860A
100
DictionaryVariables
280
     0
  1
1
  0
DICTIONARYVAR
  5
8611
102
{ACAD_REACTORS
330
860A
102
}
330
860A
100
DictionaryVariables
280
     0
  1
0
  0
DICTIONARYVAR
  5
8610
102
{ACAD_REACTORS
330
860A
102
}
330
860A
100
DictionaryVariables
280
     0
  1
127
  0
DICTIONARYVAR
  5
8613
102
{ACAD_REACTORS
330
860A
102
}
330
860A
100
DictionaryVariables
280
     0
  1
2
  0
DICTIONARY
  5
8650
330
8451
100
AcDbDictionary
280
     1
281
     1
  3
ACAD_XREC_ROUNDTRIP
360
8651
  0
DICTIONARY
  5
8654
330
8459
100
AcDbDictionary
280
     1
281
     1
  3
ACAD_XREC_ROUNDTRIP
360
8655
  0
DICTIONARY
  5
8652
330
8455
100
AcDbDictionary
280
     1
281
     1
  3
ACAD_XREC_ROUNDTRIP
360
8653
  0
DICTIONARY
  5
8401
330
8400
100
AcDbDictionary
280
     1
281
     1
  3
ACAD_XREC_ROUNDTRIP
360
861A
  3
BUMPTILE
360
8403
  3
DIFFUSETILE
360
8402
  3
OPACITYTILE
360
8406
  3
REFLECTIONTILE
360
8405
  3
REFRACTIONTILE
360
8407
  3
SPECULARTILE
360
8404
  0
DICTIONARY
  5
83F9
330
83F8
100
AcDbDictionary
280
     1
281
     1
  3
ACAD_XREC_ROUNDTRIP
360
8619
  3
BUMPTILE
360
83FB
  3
DIFFUSETILE
360
83FA
  3
OPACITYTILE
360
83FE
  3
REFLECTIONTILE
360
83FD
  3
REFRACTIONTILE
360
83FF
  3
SPECULARTILE
360
83FC
  0
DICTIONARY
  5
8409
330
8408
100
AcDbDictionary
280
     1
281
     1
  3
ACAD_XREC_ROUNDTRIP
360
861B
  3
BUMPTILE
360
840B
  3
DIFFUSETILE
360
840A
  3
FBXASSET
360
84A0
  3
OPACITYTILE
360
840E
  3
REFLECTIONTILE
360
840D
  3
REFRACTIONTILE
360
840F
  3
SPECULARTILE
360
840C
  0
DICTIONARY
  5
864E
330
844F
100
AcDbDictionary
280
     1
281
     1
  3
ACAD_XREC_ROUNDTRIP
360
864F
  0
DICTIONARY
  5
8615
330
844B
100
AcDbDictionary
280
     1
281
     1
  3
ACAD_ROUNDTRIP_2008_TABLESTYLE_CELLSTYLEMAP
360
8616
  3
ACAD_XREC_ROUNDTRIP
360
864C
  0
DICTIONARY
  5
8626
330
8416
100
AcDbDictionary
280
     1
281
     1
  3
ACAD_XREC_ROUNDTRIP
360
8627
  0
DICTIONARY
  5
8624
330
8415
100
AcDbDictionary
280
     1
281
     1
  3
ACAD_XREC_ROUNDTRIP
360
8625
  0
DICTIONARY
  5
8632
330
841C
100
AcDbDictionary
280
     1
281
     1
  3
ACAD_XREC_ROUNDTRIP
360
8633
  0
DICTIONARY
  5
863A
330
8420
100
AcDbDictionary
280
     1
281
     1
  3
ACAD_XREC_ROUNDTRIP
360
863B
  0
DICTIONARY
  5
862C
330
8419
100
AcDbDictionary
280
     1
281
     1
  3
ACAD_XREC_ROUNDTRIP
360
862D
  0
DICTIONARY
  5
8630
330
841B
100
AcDbDictionary
280
     1
281
     1
  3
ACAD_XREC_ROUNDTRIP
360
8631
  0
DICTIONARY
  5
864A
330
8428
100
AcDbDictionary
280
     1
281
     1
  3
ACAD_XREC_ROUNDTRIP
360
864B
  0
DICTIONARY
  5
8638
330
841F
100
AcDbDictionary
280
     1
281
     1
  3
ACAD_XREC_ROUNDTRIP
360
8639
  0
DICTIONARY
  5
861C
330
8411
100
AcDbDictionary
280
     1
281
     1
  3
ACAD_XREC_ROUNDTRIP
360
861D
  0
DICTIONARY
  5
861E
330
8412
100
AcDbDictionary
280
     1
281
     1
  3
ACAD_XREC_ROUNDTRIP
360
861F
  0
DICTIONARY
  5
8620
330
8413
100
AcDbDictionary
280
     1
281
     1
  3
ACAD_XREC_ROUNDTRIP
360
8621
  0
DICTIONARY
  5
8622
330
8414
100
AcDbDictionary
280
     1
281
     1
  3
ACAD_XREC_ROUNDTRIP
360
8623
  0
DICTIONARY
  5
862A
330
8418
100
AcDbDictionary
280
     1
281
     1
  3
ACAD_XREC_ROUNDTRIP
360
862B
  0
DICTIONARY
  5
8646
330
8426
100
AcDbDictionary
280
     1
281
     1
  3
ACAD_XREC_ROUNDTRIP
360
8647
  0
DICTIONARY
  5
8636
330
841E
100
AcDbDictionary
280
     1
281
     1
  3
ACAD_XREC_ROUNDTRIP
360
8637
  0
DICTIONARY
  5
8648
330
8427
100
AcDbDictionary
280
     1
281
     1
  3
ACAD_XREC_ROUNDTRIP
360
8649
  0
DICTIONARY
  5
862E
330
841A
100
AcDbDictionary
280
     1
281
     1
  3
ACAD_XREC_ROUNDTRIP
360
862F
  0
DICTIONARY
  5
8644
330
8425
100
AcDbDictionary
280
     1
281
     1
  3
ACAD_XREC_ROUNDTRIP
360
8645
  0
DICTIONARY
  5
8642
330
8424
100
AcDbDictionary
280
     1
281
     1
  3
ACAD_XREC_ROUNDTRIP
360
8643
  0
DICTIONARY
  5
863C
330
8421
100
AcDbDictionary
280
     1
281
     1
  3
ACAD_XREC_ROUNDTRIP
360
863D
  0
DICTIONARY
  5
863E
330
8422
100
AcDbDictionary
280
     1
281
     1
  3
ACAD_XREC_ROUNDTRIP
360
863F
  0
DICTIONARY
  5
8634
330
841D
100
AcDbDictionary
280
     1
281
     1
  3
ACAD_XREC_ROUNDTRIP
360
8635
  0
DICTIONARY
  5
8628
330
8417
100
AcDbDictionary
280
     1
281
     1
  3
ACAD_XREC_ROUNDTRIP
360
8629
  0
DICTIONARY
  5
8640
330
8423
100
AcDbDictionary
280
     1
281
     1
  3
ACAD_XREC_ROUNDTRIP
360
8641
  0
XRECORD
  5
8651
102
{ACAD_REACTORS
330
8650
102
}
330
8650
100
AcDbXrecord
280
     1
102
DISPLAYNAME
  1
Imperial24
102
FLAGS
 90
        0
  0
XRECORD
  5
8655
102
{ACAD_REACTORS
330
8654
102
}
330
8654
100
AcDbXrecord
280
     1
102
SHADEPLOT
 70
     0
102
SHADEPLOTRESLEVEL
 70
     2
102
SHADEPLOTCUSTOMDPI
 70
   300
  0
XRECORD
  5
8653
102
{ACAD_REACTORS
330
8652
102
}
330
8652
100
AcDbXrecord
280
     1
102
SHADEPLOT
 70
     0
102
SHADEPLOTRESLEVEL
 70
     2
102
SHADEPLOTCUSTOMDPI
 70
   300
  0
XRECORD
  5
861A
102
{ACAD_REACTORS
330
8401
102
}
330
8401
100
AcDbXrecord
280
     1
102
MATERIAL
148
0.0
149
0.0
149
0.0
 93
        0
 94
      127
282
     0
 72
     0
 77
     0
171
     0
175
     0
179
     0
273
     0
  0
XRECORD
  5
8403
102
{ACAD_REACTORS
330
8401
102
}
330
8401
100
AcDbXrecord
280
     1
270
     1
271
     1
  0
XRECORD
  5
8402
102
{ACAD_REACTORS
330
8401
102
}
330
8401
100
AcDbXrecord
280
     1
270
     1
271
     1
  0
XRECORD
  5
8406
102
{ACAD_REACTORS
330
8401
102
}
330
8401
100
AcDbXrecord
280
     1
270
     1
271
     1
  0
XRECORD
  5
8405
102
{ACAD_REACTORS
330
8401
102
}
330
8401
100
AcDbXrecord
280
     1
270
     1
271
     1
  0
XRECORD
  5
8407
102
{ACAD_REACTORS
330
8401
102
}
330
8401
100
AcDbXrecord
280
     1
270
     1
271
     1
  0
XRECORD
  5
8404
102
{ACAD_REACTORS
330
8401
102
}
330
8401
100
AcDbXrecord
280
     1
270
     1
271
     1
  0
XRECORD
  5
8619
102
{ACAD_REACTORS
330
83F9
102
}
330
83F9
100
AcDbXrecord
280
     1
102
MATERIAL
148
0.0
149
0.0
149
0.0
 93
        0
 94
      127
282
     0
 72
     0
 77
     0
171
     0
175
     0
179
     0
273
     0
  0
XRECORD
  5
83FB
102
{ACAD_REACTORS
330
83F9
102
}
330
83F9
100
AcDbXrecord
280
     1
270
     1
271
     1
  0
XRECORD
  5
83FA
102
{ACAD_REACTORS
330
83F9
102
}
330
83F9
100
AcDbXrecord
280
     1
270
     1
271
     1
  0
XRECORD
  5
83FE
102
{ACAD_REACTORS
330
83F9
102
}
330
83F9
100
AcDbXrecord
280
     1
270
     1
271
     1
  0
XRECORD
  5
83FD
102
{ACAD_REACTORS
330
83F9
102
}
330
83F9
100
AcDbXrecord
280
     1
270
     1
271
     1
  0
XRECORD
  5
83FF
102
{ACAD_REACTORS
330
83F9
102
}
330
83F9
100
AcDbXrecord
280
     1
270
     1
271
     1
  0
XRECORD
  5
83FC
102
{ACAD_REACTORS
330
83F9
102
}
330
83F9
100
AcDbXrecord
280
     1
270
     1
271
     1
  0
XRECORD
  5
861B
102
{ACAD_REACTORS
330
8409
102
}
330
8409
100
AcDbXrecord
280
     1
102
MATERIAL
148
0.0
149
0.0
149
0.0
 93
        0
 94
      127
282
     0
 72
     0
 77
     0
171
     0
175
     0
179
     0
273
     0
  0
XRECORD
  5
840B
102
{ACAD_REACTORS
330
8409
102
}
330
8409
100
AcDbXrecord
280
     1
270
     1
271
     1
  0
XRECORD
  5
840A
102
{ACAD_REACTORS
330
8409
102
}
330
8409
100
AcDbXrecord
280
     1
270
     1
271
     1
  0
XRECORD
  5
84A0
102
{ACAD_REACTORS
330
8409
102
}
330
8409
100
AcDbXrecord
280
     1
 70
     1
 90
1959938040
 71
     1
  1
7038F5A9-873D-45BA-9482-AD42834656BE
311
504B03041400060808001172745775DA690FDA000000200100004F00000030393035393233392D373534322D344330362D414537322D3538323839463746383437332F4173736574446174612F446566696E6974696F6E4974657261746F7250726F706572746965732E62696E454E3D4FC33010350C200606FE41D5DDD871
311
421B456D116E1226586062A9AECEB54472922A4E244646FE35DCA9453DE9DDBBCF77F72384F83D1985E282F04DFE96F8195BEC6BF7E63EB10171C515DF6DC15F9F7B9714729AE30E463FF0D64B1D1C7A0F2D7663B83B8F4E1A18480EFC3D2FDD10FE0B8115F6C7637CFF95C02F314375C81E21041C966AB7FD5269399FCFE2
311
272375995B99D88742DAA2D0322D6D5CEA74AD6DBE563D866EEC1D066594DE9C943787765F57ABC550373869A1C1E5D4F5483F55D395D1269651248D7E8F922C9A6571F2B1503CF907504B030414000608080011727457953DE63BF0000000300200004500000030393035393233392D373534322D344330362D414537322D
311
3538323839463746383437332F4173736574446174612F496E7374616E636550726F706572746965732E62696EEB606060F80F0540260323103700495E20ED9E9A975A94991C9C9C919A9BA80214303730B6703375B4D4B5303776D135317572D4B534B130D275743131B230363133357372654768046931363471713532B5
311
D435353131D635313332D475727372D13534373670367376B67474B5042A03DBCBA019D37FE8ABC6157B20CD04146B0062181F4C03F940F0C11EA29A8141C08141002C0426541C106CAC2CA046088033B02A030AC2157C6006F21A8018AAF50194E6010A610250382264E08660284CD9E98021862280A91564B406929A0FF6
311
2C401E28B6F88038B83CB1243943D7A928312F25350524131B1BFB9F161800504B03041400060808001172745728BB58AF800100009E0500003D00000030393035393233392D373534322D344330362D414537322D3538323839463746383437332F536368656D61732F436F6D6D6F6E536368656D612E786D6CBD544D4FC2
311
3018BEFB2B96DE15493C78601010A34B880709DEDFB52FD0D8B54BD70DF6EFED3AC0B12E6442E2716BFB3CEFF3D18E26FB440405EA8C2B1992E1C323095052C5B8DC842437EBFB673219DF8DA659866649B798C078B48AE6410122242F2A4994AC7F93815DF85C049C8564CA0A901499DD886B2EB9B1E02448F358701A9235
311
880C49A0119892A20C89D1B9FD768815CAD268CB5E0355B40B1E47F3E37A2020464BED06AA57CE8FCC20C3C3446D46761A2632A8C1283D07031EFF2AE7CCB1BFEEE916E406DFAC8E36FFD99A9D60A6944090EEDC3B670C7DC13DE86B6B2C5C240D6E503BB85ACD579D513F1B9F9A69DC9CC22AFA80C426D40AF0B21EA16855
311
9156B6276F0F726A6BFF04DCD513A87A62CAD41FB24FCB2858B3952E3D852084DA25B9303C15687973CC8E8AAE11DF2836C38C6A9E765E8C1BA1BFB1DC29CDFE518C8B5A7655A4ED7E77291ABEB80DBD82EC866ADE1B8D05AF9E35CF09D7A061F38A986D9EC412B8F0F65E5D81534D9B231D1E5A8FE577A241F3A5FD01504B
311
0304140006080800117274572CCEBD668A040000E01200003E00000030393035393233392D373534322D344330362D414537322D3538323839463746383437332F536368656D61732F47656E65726963536368656D612E786D6CD5586D6FDB380CFE7EBF42F0F7A649B70E1B90744856B4970F450FCD7A5F05459613EDE417
311
4872DADCAF3F522F8ED3B88D2F1D06AC4050DBA2493EE4438AF2F8EB73AEC8466823CB62928C06C384888297A92C5693A4B6D9D9E7E4EBD51FE3A931C22EF85AE4EC6AFC38BF261BA626C9AD288496DC3F4FCEAFC63366845F7A10452AF41DB320C0D44EC26EAB20918735565582695670811A6A49643A49A6E9069FA4604A
311
64B29016DC4B48552F95E4932463CA888468C1D2B250DB4962750DF7CE273069CE8363F1FF4EDB00E0A21999574AE4A2B00C353B93F3BD4777B8A61ED8F604ABFEDD79CE56A2B7BDFBDBC50996E0ADDE16FED26223C5D30956C29BDF4A55EA686E5E58B112DA45CE67F76F4FA27EFA3FB672FD7372FC388FAECDCA5209E693
311
CAD167BADCD272F943701B3812F8A3D852008B1D2E32DB927B2F833C6EA95879925356D254582695095A3CE982924720BE5774A3CB9CDCDB350427D2DF20DA1B5532EBE2D5D6288D75D4F7E4FD9890A0EF8E3D93EBB8F8BA4758158EF6FB90A6F9520281C93DE7AAC6D24607DA296BB96018123F821A7D6A5C5884050C475D
311
A4865442732C8B95684A50165CBB3A32F25F783A4A480ED59AD7F924B968AEA50131F46303223E6A397B0E52976030DC1DCA81D7E7C1EDEEA42C19FF27635C505E2BD5198A599020DF50A2330FCB3AAF28CB0124108429553EF1B228802E2265D8F7CC2401042B155BCC7070F1E5C55F13B4A9577362CCCE46C32174E010C3
311
C378C44841A4BDA00FE3A12006CE11EE6AEC59894D3526DDE1CD59D503ECC324017F8061B7F162162FA62EDD81AE3308617770796DCBDAD2B2625C5AE8A63DE20B2C8AA5E95E76E5730823955956E33E705425A2187C185D36489A1B44D3DCEC2172F6BA2105C3546287A7194B2331768EBBE64F6E70A9930ABE0ADEA89E9E
311
2C38523B810287AD67A54A039C1606EAFE68F8304610BB9093DBDDABC0B2AE4E290DCDA15376D7E39F72B556F0B32EAB5D3D498B4C41ABADEC3A1434C422D87E8025A84BDCB2B1417ED750FAE4DA8976863974C577C7F902D3F156AD354DEA3540DE6BEAE2BEA52F7A2EB4CA43802ECE5BF2CE2EDC9347179FFB023CE412E6
311
0BE16DA0BE29B374988A553F561DC04615DD35F7D2C8979F60E5955CE93DF29DED8AFA1EE6642D53418086C03C47C377910F75F7E8F5EF665F70B60FFB22AEDF897D119E8423C773E819A3C1E55E550599EE6EDCA34D0C86FD72057DF2CD46F16A470682471C164E4346D5306BF12D7D12D82CFF673D41636C347443FEB51B
311
50D72EA171A8E4A58623A4A16E0FA2B8B10A0D23268D87C33896EE8FB73305A74BF224EDBADFA0BD674AB354D63DB7BD5D83426761C077DE767728235446A552754EB93B755891C3C4CC6CADE37CF0E912A7BB38DBA010F9DE1282EDF470CA69A9CDA482E334C4A6EA4107987980B17E72F31730EBF88BBD39E7C629F56797
311
A3C0009C2C5AE7951D9A05A02773440F02EEB4DE396A3B6A570C72CCFBCD823B0B8ED3F1D5CEDDFED772FA70236C83FB7D86C385D570B87107535572A60A96035F8F7C6A7192F13007246BBE0521855E6AC46F3E27689CEE7D186A6FD679D98CDCAD13333E04EBE7ED6F55FF01504B0304140006080800117274576180134D
311
5F0100006B0300004500000030393035393233392D373534322D344330362D414537322D3538323839463746383437332F536368656D61732F52656E6465724D6174657269616C536368656D612E786D6CA5934D6FC2300C86EFFB1551EEE343DBA41D1A103009551ADAD40EAE28A4A68D9426284961FCFBE5A340113B2071
311
746D3F765EBF4DC6BFB5407BD0862B49F0B037C0082453059725C18DDD3EBFE3F1E829991803366715D474942CD30FB4A782E00C64017A412D684E454CE3FE28995203B162A6EA5AC94B66997D225E109CD63B0135484BAD1B3C07E9080CA35DB3119C11BCA5C200461A68A1A438126C75E3E230D40FF81FB3F03C91D1E3A3
311
A0AF79FE28E25BC39EC3E17E4C2A2D94A0833A51AF55BCCA7D88572FCBAC529C4140B020FC3AAFA886621DCED7EAD7664CC86024E806DC297DA1BB393E4156543457A4537DB8817349A70F8ACBF09B3EEE2CB2F33E91B65D60786E4E3B39B77E3FEEEF5650424525DA657FB8B46BE6BF064646F0A0F7327C0BC1BC1B4CBBC1
311
C419FA3CCB23500007872A2580CAAE5461865565294E4EDB4617B62FF579DF9A5B2F54E834076A597573A020912FED777F9B3F504B0304140006080800117274571840871251000000570000004700000030393035393233392D373534322D344330362D414537322D3538323839463746383437332F417373657444617461
311
2F41737365745461626C654F66436F6E74656E74732E62696E53616060303730B6703375B4D4B5303776D135317572D4B534B130D275743131B2303631333573721502AACB4D2C492DCA4CCC492C28484D2C4ACC4B4E050A82012F90744FCD03CA26072767A4E6260200504B030414000608080011727457F8658340580000
311
00680000004500000030393035393233392D373534322D344330362D414537322D3538323839463746383437332F4173736574446174612F53747265616D56657273696F6E5461626C652E696E66558CBD0A80300C06F73E4B117FB66E451741D041DC5BF98480A492E4FDD18EAEC7DD4555D89EF28DF51A0B1BD8340C4DE7
311
DD848B988C0ACF0649566493F2408C508DDEBB99D5129FF8F1AF8CF5B9503E20FAE5A16B5AF702504B030414000608080011727457AAB63CF1350100009A0400003600000030393035393233392D373534322D344330362D414537322D3538323839463746383437332F4173736574446174612F636E782E786D6CCD94314F
311
C3301085FF4AE43D76925608558E2B044B2790A818D8AECEA5B5EAD8917D41F0EFB1DB0CA022A60E5DCFEFCECF9FFC4EAE3F075B7C6088C6BB96D5BC62053AED3BE3F62D9BA82FEF59B15632784F3F64AC703060CB729929B90F7E1AE752873D4C3657AD71C7B9F81023D21676169FFB47EF081D4556680B31B62CEA030EC0
311
6122DF613CF20E0878CD03463F058D69129901E7493A2010764C3555B328EBBA6CAA6DBD5CD577ABC5F25D8AAC5472E7BD9DF5265D16FC58E8F3AD4C5552E46325A760664D7E0B537F79E43BE3A4484A252385C464EEA0AF3175C0385AA381123AE13521954984304871162B2932835F249EB037CEE4964D3206E4C34BB287
311
810CDE1C91FFBC5E9FCCC64502A7F176795C3ABC3E85D7D30F7A3B07F294985BCBC9A5436E5C7F859488D31A49A1C95B457D03504B030414000608080011727457E22A422C090100004F0300003400000030393035393233392D373534322D344330362D414537322D3538323839463746383437332F536368656D61732F63
311
6E782E786D6CCD93BD6EC32014855FC56237D84E5455112643874E5DDA4EDD28DC2428C0B5F8A9DAB72FB80C89D4AD1DB2C1E1133AE770E1FB4F67BB0F08D1A09FC94807D28157A88D3FCE24A7437F4FBABDE001315D60A4F3D2C14CAA4C043F06CC4B93341C64B655B5C69F9BF880CEA17F5127709274CACA186712D72D95
311
39A18678A65A2649471A20620E0ACA0DC9386837A800328126621AA64D3F8EFD34BC8EDBDD78B7DB6CDF38ABA4E0EF88B6F1C62708B8740ACBC2173B0367F558F01C4C636A06222EBDD1D2066785103CA6503A6864FA5A0A2997C51A2553A98AADE00F2338AB51AF023F828760D46D26BE32F76F919FC16B084FE5958291F6
311
3693FFE6F16F05B075F6CB08D4AF20BE01504B030414000608080011727457410A3D5871000000A40000002C00000030393035393233392D373534322D344330362D414537322D3538323839463746383437332F636E782E786D6C55CC4D0E82301086E1AB34B31774E7A22D31F1069E60020334B633A63FC6E34B0909B07D
311
DE2F9FEE7EC1AB2FC5E4840DDC9A2B28E25E06C7938192C7CB1D54677514C9871928C640062A83D55394F2D968A0118BAFEA1DBF377CA444F98919176EAB9FEAAB9F2960DA5BBB1E2ED3FA6FFF504B03041400060808001172745782A63DAE7D000000A300000007000000636E782E786D6C4D8CD10AC22018465F45FE7BCB
311
9CA6823A22DA7B8CE686E4346C468F9FC62EBAFAE0F09DA3FBCF1AD0DBE5974FD1C0E94000B9784F938F8B81B2CD5802EAADCE296D7F3740715C9D8186C1EA25A7F2DCD1E4E6B18446838F8F1D1245B8A29DC282338AD9959CF1E52628E6924A35884132D155E3D8943ABF5EDD96B75F504B03041400060808001172745716
311
E99B5DA600000035010000130000005B436F6E74656E745F54797065735D2E786D6C9590410E82301045AFD2740F4517C6180A0BF5065E60AC53688469D30E066F6F91AD9AB89CF9FFFD3F99BA9DC7413C3026E749CB4D59498164FCCD51A7E5C4B6D84BD136F5E5193089ECA5A465CF1C0E4A25D3E308A9F401292BD6C711
311
388FB15301CC1D3A54DBAADA29E38991B8E0254336F5092D4C038BF39CD76B6FC6A538AEBEA54A4B08617006389FA516557DE4AE8E7E70DE30729138228C5F021CD93F02D4FB0DCD0B504B0304140006080800117274573DEE336E64000000790000001B0000006175746F6465736B2D64657369676E2D7061636B6167652E
311
786D6C35CBC10E83200C00D05F21DCA56CA76D41FC96062B120735B69A7DBE268BB7777961F8D5AF396893C2ADB70FE7ADA196782C2DF776D7A97B5933C430F15651E5469C55D70F80A4992A3ADC954792C525AE70A1E4D6AD9816CC044FEFDF01FE3FDE907802504B030414000608080011727457A19DB3DCF90000009601
311
00003700000030393035393233392D373534322D344330362D414537322D3538323839463746383437332F4173736574446174612F636F72652E786D6C8550CB6E833010FC15B477033684A69171D402F9829E7AB36C875A0936F2A3EAE7D70E546A4F3DED6A76766677E8F96BB9179FCA796D4D0FB8ACA1504658A9CDDC43
311
0C577484E2CCA8B336FCA24161F8A27AC830303A3B1BD71D12D60465326AAC543BC8BD57010A714F4D0F5E7CA885973C86C4F0B772E5E2C66755E272E3311AA396FBAA96494D5FB572C05EBAA93D3CD717341CC70B6A0FCD885E9FC880488BF138756418A789567999D1A0971F77E1140F4A0223356910C688D46FB83DE1EE
311
D4B4EFB4CA4C467D70E9E7DD347F97ECF2D5230F9C56DBF48F6A5CE5FFAA519BD0905D75DBF0C0703AF23160B4CA29A5F28830D59C28FB06504B030414000608080011727457155CF4E6F8000000940100003500000030393035393233392D373534322D344330362D414537322D3538323839463746383437332F53636865
311
6D61732F636F72652E786D6C8550CB6E833010FC15B477033684A69171D402F981F6D49B851D6225D8C88FAA9F5F1BA8D49E7ADAD5ECCCECEED0F3D7FCC83EA575CAE816705E4226F56884D2530BC15FD111B233A3D618FF8B0699E6B36C21C1C0E8644D58766834DA4B9D506D84DC41EE9CF4908D8FD8B4E0C69B9C79CE83
311
8F0C77CF173EDEF924739C6F3C46435062972A11DDD455490BECA519EAC3737941DDB1BFA0FA50F5E8F5897488D418F74343BA7E186891C48C7A35FF6C1FADE45E0A60A42415C21891F21DD727DC9CAAFA831689C9A8F336FEBC2F4DDF017B5BEF74B4D8667F3CC322FEF70C4AFB8AEC9E9BC201C3F1C475C06891328A650D
311
30D69427FB06504B030414000608080011727457401B5B2801010000D70100002D00000030393035393233392D373534322D344330362D414537322D3538323839463746383437332F636F72652E786D6C9591C16E842010865F85CC1D15D45537C8A669BA4FD0536F54665DB22B1881A68F5FAC366D6FED09F2F3FD33FC33
311
E2F43EDDC91B2EDE38DB03CB0A206807A78D1D7B88E1425B20272916E7C20F0C885513F6B0CA20C5B8B838EFD2E06C40BBAAD669DC45E53D0620C33D5D7AF0C3152795A91812E16FD9AC869B1A3163D9C64911CCF4651D16540135485EF092324679F1CCAA233B1CCBEA45E42B29453436947C6F86D32B6AE2E6902281AC45
311
BEBD262A1ABD3346A73F9A8BC10564D11575C7CB8E3675C569F5581CE8C353C369DDF2B63B37E7B66ACA542499A5F0614993D98BAC33F8AB7D33FE4A1667FDCF649BC38364DFA1F275CC52E49F3B48E7BA12F901504B030414000608080011727457FEB68A1808010000B201000008000000636F72652E786D6C8D50C17283
311
2014FC15E6DD514163D30C9269D57C414FBD5121868982039869FFBE90D899F6D6D36376F7BD5D961D3FE709DD94F3DA9A064856005266B0529BB181359CF11ED09133676DF8250364C4AC1A483070363ABB2E1B3458139449A8B1526DA0F05E0540C3141F0DF8E1A2669189354485BF668B18AE625419C91E3ACE829E7F56
311
07A7445012382D688909C1B47823D581D487B27A67795272B6AE5A6E565A46777DD6CA017FA9FB6AF75C9C70BBEF4EB8DA951D7E7DA22DA615215D5FD3B6EB7B96A765CE7C70F1CFDB919833202F6EC997E50F8AB30F6BA74D10434964CDF405BC607922FE845E17F98FD0DA84926E071F1B1E388981EE44344E0DC671AF37
311
CED436FF06504B010214001400060808001172745775DA690FDA000000200100004F000000000000000000000000000000000030393035393233392D373534322D344330362D414537322D3538323839463746383437332F4173736574446174612F446566696E6974696F6E4974657261746F7250726F706572746965732E
311
62696E504B0102140014000608080011727457953DE63BF00000003002000045000000000000000000000000004701000030393035393233392D373534322D344330362D414537322D3538323839463746383437332F4173736574446174612F496E7374616E636550726F706572746965732E62696E504B01021400140006
311
0808001172745728BB58AF800100009E0500003D000000000000000000000000009A02000030393035393233392D373534322D344330362D414537322D3538323839463746383437332F536368656D61732F436F6D6D6F6E536368656D612E786D6C504B01021400140006080800117274572CCEBD668A040000E01200003E
311
000000000000000000000000007504000030393035393233392D373534322D344330362D414537322D3538323839463746383437332F536368656D61732F47656E65726963536368656D612E786D6C504B01021400140006080800117274576180134D5F0100006B03000045000000000000000000000000005B0900003039
311
3035393233392D373534322D344330362D414537322D3538323839463746383437332F536368656D61732F52656E6465724D6174657269616C536368656D612E786D6C504B010214001400060808001172745718408712510000005700000047000000000000000000000000001D0B000030393035393233392D373534322D
311
344330362D414537322D3538323839463746383437332F4173736574446174612F41737365745461626C654F66436F6E74656E74732E62696E504B0102140014000608080011727457F865834058000000680000004500000000000000000000000000D30B000030393035393233392D373534322D344330362D414537322D
311
3538323839463746383437332F4173736574446174612F53747265616D56657273696F6E5461626C652E696E66504B0102140014000608080011727457AAB63CF1350100009A04000036000000000000000000000000008E0C000030393035393233392D373534322D344330362D414537322D353832383946374638343733
311
2F4173736574446174612F636E782E786D6C504B0102140014000608080011727457E22A422C090100004F0300003400000000000000000000000000170E000030393035393233392D373534322D344330362D414537322D3538323839463746383437332F536368656D61732F636E782E786D6C504B010214001400060808
311
0011727457410A3D5871000000A40000002C00000000000000000000000000720F000030393035393233392D373534322D344330362D414537322D3538323839463746383437332F636E782E786D6C504B010214001400060808001172745782A63DAE7D000000A300000007000000000000000000000000002D100000636E
311
782E786D6C504B010214001400060808001172745716E99B5DA6000000350100001300000000000000000000000000CF1000005B436F6E74656E745F54797065735D2E786D6C504B01021400140006080800117274573DEE336E64000000790000001B00000000000000000000000000A61100006175746F6465736B2D6465
311
7369676E2D7061636B6167652E786D6C504B0102140014000608080011727457A19DB3DCF90000009601000037000000000000000000000000004312000030393035393233392D373534322D344330362D414537322D3538323839463746383437332F4173736574446174612F636F72652E786D6C504B0102140014000608
311
080011727457155CF4E6F80000009401000035000000000000000000000000009113000030393035393233392D373534322D344330362D414537322D3538323839463746383437332F536368656D61732F636F72652E786D6C504B0102140014000608080011727457401B5B2801010000D70100002D000000000000000000
311
00000000DC14000030393035393233392D373534322D344330362D414537322D3538323839463746383437332F636F72652E786D6C504B0102140014000608080011727457FEB68A1808010000B2010000080000000000000000000000000028160000636F72652E786D6C504B050600000000110011005A06000056170000
311
0000
310
504B030414000608080011727457000000000000000000000000370000006662782F41354339454137432D374144432D344236422D414444382D4539374539463742363341442F617474726962757465732E62696E504B030414000608080011727457000000000000000000000000350000006662782F4135433945413743
310
2D374144432D344236422D414444382D4539374539463742363341442F76657274696365732E62696E504B030414000608080011727457F270F1330600000004000000360000006662782F41354339454137432D374144432D344236422D414444382D4539374539463742363341442F747269616E676C65732E62696E6366
310
60600000504B03041400060808001172745751464CB48900000043010000360000006662782F41354339454137432D374144432D344236422D414444382D4539374539463742363341442F6469726563746F72792E786D6C9D8F310EC2300C45AF127987122606C71DD918B841D4B851A43646695A717C52A85029031293A5
310
A76FBF6FACEF7DA7264E43906840EF0FA03836E242F406C6DCEE4EA06AC22492573150D1F66C60C640E8938CB705396EEDD86DE9B5042FE27813D640EA63BB001C722AF6E55CB61E4863F58284D5D3F53DD715CE1C3985E63FD7F1B7EBDD617E9F1E504B030414000608080011727457E2D8E7B83F070000201C0000340000
310
006662782F41354339454137432D374144432D344236422D414444382D4539374539463742363341442F6F626A656374732E786D6CDD595B6FE23814FE2B56F665F721370214469411973242A3CE8C06CD6ADF22130CF5363739494BF7D7EFB16387380D90CE455A6D2B15EAD8C7E77CE77E32797F8C42F444584693F8D670
310
2DC740240E921D8D0FB74691EFCD9181DE4FD18425495EDB67A01847E4D6E0CBC67472604991CAA51DD9E3226CAEAEE67FA12C2031315010E22CBB35B2E08144D8C2459EEC48F668ED708EADC3FE68B956B951277B60387D685C956246E21C5885F518A8480E5CFD5F10C99E4E6CBE41DBE675DBD6BBB0CD1682EB8CD238CB
310
711CBCE2AA715DEF0C578DEB3CB7BFBCEB0DC6E6A0DFF7CCFEB0E79AF3D57C69BA379EB3182E16E3D9DDD840D3C93649C24A01298977A0C51763EA4E6CFEA4125FA2D0C67790C43109249A6D1B7644D2A5246B62A201EB0AD16A0A2965AD2D781D853FB3AD13281A4B1ADA4A38F559B7DE64FB37809075B15296116EE559CE
310
40D712FBD21F9C895DAE6A7AA1198A704E18C5210AE99661060A82ADA5823432DC5B3829C431135A54F4EABC82615FF7A5362EF7451872FF35A6C2D37CF04792678233FA0F6127EEEBB7014F206D41E37C2485CD5F5220319ED862B17CE6F5E4C31248B40FF101AC05C4E49BBC5E03AF058F05EBA531FDB8DA1E373C3EB45F
310
9EB224252CE796279C59FA9DD260CDB4C0F83A8052E2AAEBEE84CA5780FE13205FF18226A039468FFD635FC9CE709CED1316817690834C07FE38887F7DF56D625787A70869B1F21CA6E0B63F09534D0CEDEE1AA4D3C913187DC23C29DC26C021D8F43D8DB99F83A1A030812588F7FBEDD198AE2198C2229CC221480FBF139B
310
7F45F051D28178D3D0505BF8EDA028E5304D3F3BE9EA03D80CA341A52A4DC673F80E7E0ABEB3E5E6E3A6607B1C907BE9D84BB2A731CD2199B633A481AEB9FCB7F527E1911FC2648BC3D3696D5300D71C121E375AD4B2916A41422FC0094FC3A566C4CA3D056F0F431C93A4C8E47A5B9C0A923061FEF6C52F5DB8F5AE3F950D
310
94974903688D6590DC0346538E893195DAAA02A15513142C0C3369818752ABFEB688521F474911F350FBDA149B7C409CE1960854053565D8CA6B15D91DDDEF8B0C82572BC98506A4F46745B8B4F03EC4B1367E19D9330C4934897D0A39189CA5F506ED820ABCCB3C6724DCFB340C8BC8DFD310F2881FE1F40CFD8E12D433D7
310
2379794ED8AE95A06E59CA27950D71C025B00A2495ADCA982F75CAC813E565A6C8672A1B683B641D6A4CFB67D205CF142D802A6314667EE378A3D56036364737DED2EC0FE63373DC1FF5CCD9B2DF1B79FDE16038BF6BF2A9A2553DDF812A7999A3F95FFE5044DB18D3101E70B1F12E7DF75E64CF5B1B42A33D5ADDDC0CBD59
310
CF7456CBB9D99F0FEECCF9DD9D638E56736FE58C16CE7CB9B019C992820524B37BB6E32B934CE3C339AE1477AF63289435D7939DD2575398FF710C6DE6044D89FFD5205AC5AE9682B06B10E5479B2114078F3C45F901547DADEED308A24D3EDAE2DC1BE3B263798EF871DD71CF19F746E36165EC1703B5B8E787E35C9B0401
310
F49D45EE27290E68DE9E501BB8748CD36FCA2D96E70E10A053FDAD2EB99C67E4253E8DF081F87BCCBB8496C0784D82D61C7608932CA331C94497F7AAFA6BD0742C28A6F49CDB628434F32392E3EFB13FD136346C1A6273E8433F9AF389C0D5AAA03268D9819CA3C8BB5F48DC42FE173FC3511A969DEE350CDC9E8240F5386D
310
16C799E6573C81BDF938F79D1D11838B6BD42BF6557DD0AAB526F5F177933F038FAA6B7E213CEA8AEEA5933570C7FC670441653870BD1BA5886B58A9AB72DEC78505749EC18BFF4CE8E1A153A1D94D27B592AD2CAA7312411B8BF38275F2D7E1C07975918C0B0D87A8DDF4C6E250F46FAA8303F4440377AEBCAD5D0375288D
310
61CED549905752B49AB0D08598E9F1D1D51BFCFAA2B2EB547F385EFEF28AB9EE7C9118FE5CC701AAE53200CBE8A3D5D4AD55B7560F65CF380F20906EC4A739078FD891DDA931D3C8B595E8AA3EBD563DAF79408D60628B799CBDE75FC2AF18540DDD73667F288B36BB5C5FF3C466C170FAC487C6B44EEBF3874D830AAC743E
310
FD8563449E1B14E4EA8277C317487D5B9F7AFE060529D1B7F585E3FF898E4229B0364683697096841486F264870E2481EC0D63870EDD068B4826B23218AF0C52EA8D4087D34FE54C35C7DB509D0E1E300CA643D98B15010C452163DE1A721DFD0663503E8914C329EB11DA3019C30C54307A6B80C5E614BA2D6B0BE32C313C
310
14D41BE34A706C1C1F78BE2F4F55FF9F8E7174202A9DE4AAF674C1454AA6391314B6A9784F00555FF9603AF97ED1153B08E7F0755BE49530A78593341204F542A0140EA67E8F12DE23141497E5722DB14783A4D364FEA21D9454CD1CB38318AFD7F09E2DBFD87C32BEFE8CD2B03870755EEA7E354A26EFBAC3A29C424DC030
310
A49829E635E4E29DFD8525F08A29422B0A46807E3F8E867FD88B248A92B85CB267F24515DA3CC06BA79DAD467ED0C63BEEC016530039D6F7B7382316DE658FB000AA6594CF464B883503A8A269CD009446B82EE098B67FBD44B236AA4D48EA6197C32366FA081C89BFCBE16E53DF501B40822F0057E2E1E98B5A98D80C86E0
310
D37F01504B0304140006080800117274577C0A21283E01000046050000300000006662782F41354339454137432D374144432D344236422D414444382D4539374539463742363341442F636E782E786D6CCD94C14EC3300C865F25CABD69BB4D084D692671E00938206E69EA95B034AE1217B1B72719DD00A1210E93C62D72
310
7E4BFF67FFB2DCBC0D8EBD4288167DC36B517106DE60677DDFF089B6C52D671B2503227D9171E6F5000DCF65AE641F701AE752075B3DB95C75D6EFE6A2260AB69D082267C6E9181B1ECD330C5AE889B083B8139D262D6A1120E2140CA47EB203CCFD268026E8B85A548B6551D7C5A27AA857EBFA66BD5C3DC9322B956C11DD
310
ACB79E20E0C80CA6874F662A59E66F25A760674D26E0EAD39968AD9765FA573226B7BE9F75B41FB36E1C9D359AD2984A3404542411E841961F6225CBCCFB8DFAFEEEF1E880753680210CFB2B0DA03E378093319192F037FE83F0776C6C5F12EEB5B67D1676B67531D4635A638AEBCFFDA71469DFBBFF17FA93B1CB673E9D12
310
B2E6FF211F7D5D88B83C9CBCB4F47C01D53B504B0304140006080800117274574593DD5C7F000000A30000000B0000006662782F636E782E786D6C4D8CCB0AC32014057F45EEDE3E681B231883AFFE47684C90182D36967E7EB564D1D581E1CCB0FEB37AF4B6E9E562E8E07C3801B2E1114717E60EF236E11650CF598A71FB
310
BB010AC36A3BA818389B53CCCF1D8D761AB2AFD4BBB0EC50DC143582284C8456F82A1B8985D62D3694187A27B2B9085D8C6355CAFC7A656B9E7F01504B030414000608080011727457A6D797065F0000008200000007000000636E782E786D6C4DCB3B0E80201045D1AD90E9FD7516806B51190811670C8A61F982B1B0BAC9
310
C97B72CA7B1037C6D3332918DA1E04D2CAC69353902EDB8C20262D23F3F59B81A079470595414B17391D1F19B4730A5583A7ED43BBE4025D9592775E5ADFFA01504B0304140006080800117274574FEB6A7CA0000000F4000000130000005B436F6E74656E745F54797065735D2E786D6C7D8F4B0EC2300C44AF1279DFA6B0
310
400835ED02B8011730C16D239A8F121795DB93D02D6269CFBC19BBED573B8B17C564BC53B0AB1B10E4B47F18372A5878A88E20FAAEBDBD032591BD2E299898C349CAA427B2986A1FC86565F0D122E7318E32A07EE24872DF3407A9BD63725C71C980AEBDD080CBCCE2BAE6F5D69B7110E7CD57AA146008B3D1C8F92C5954F9
310
93BB1BF787F39A89ABC491D09600F9FDA2FB00504B0304140006080800117274573DEE336E64000000790000001B0000006175746F6465736B2D64657369676E2D7061636B6167652E786D6C35CBC10E83200C00D05F21DCA56CA76D41FC96062B120735B69A7DBE268BB7777961F8D5AF396893C2ADB70FE7ADA196782C2D
310
F776D7A97B5933C430F15651E5469C55D70F80A4992A3ADC954792C525AE70A1E4D6AD9816CC044FEFDF01FE3FDE907802504B0304140006080800117274571150EE3CF7000000960100003B0000006662782F41354339454137432D374144432D344236422D414444382D4539374539463742363341442F7265736F757263
310
65732F636F72652E786D6C8550CB6E833010FC15B47703069A90C838122D7C414FBD596643AC041BF951F5F36B072AB5A79E76353B33BB3BECF2B53CB24FB44E19DD01CD4BC8504B33293D7710FC95B4905D38B3C6F85F34C8B458B083040367B33561DD2169B4479D506D26DC41E11C7AC8E423361D3879C345E422F8C870
310
F77C15F22E66CC69BEF1380B414DBB544DD14D5D155AE03D7D3DF5CD5B4B8EEDD8922675A7C3D89361188FF530D0B16C5E5891C49C79B5FC6C971685C70978555635A19454E53B6DCEF470AE9B0F56242667CEDBF8F3BE347D07DCA233C14A74ACD8A67F5CC33AFDEF1A94F675B5BB6E0A079CC6239F03CE8A94522CCF0863
310
4D89F26F504B0304140006080800117274578E59EBFBF3000000B1010000310000006662782F41354339454137432D374144432D344236422D414444382D4539374539463742363341442F636F72652E786D6C8D504B6EC32014BC8AC51EDBD8AE1D4798C8BF9EA0ABEE10100725068B4FD5E31762576A77593D346F869937
310
F8F2BD3E922F61ACD4AA0328CD412214D35CAAA503DE5DE1092417828DD6EE0F0D248AAEA2031106042F46FBED8098564EA8882ACDC501526B8503097B8447072CBB8995A6D4BBC0B0F774A3EC4E1791A274E711ECE4FA2B654650273820455E94102158E41FA83AA3FA5C569F388B4C82BD97FCB0923CB8CBAB140690FE6D
310
6CE7BE1961D34F23AC867A80FD349DE0DC3673FBDE0C75D94F388B6282AD33E1E6E39378DDABF25DF82FB3DFF80B99A572657118EE0A0B080A799E0B82B3586018CF76C38C65931F504B0304140006080800117274571C39DD5652010000DD0200000C0000006662782F636F72652E786D6C8D52CB6E833010FC15E43B0F03
310
4D68641C292D7C414FBD39C6A156C0467EA07C7E6D1EA21C9A5648B09ADD9DD91981CE8FBE0B46A63497A204304A40C004950D176D09ACB9850508CE182929CD8F311008D2B312781860D42A698705A25218263C2A64C3169068CD0C0868E78A1268FAC57A12116BDC84BE4703A177D2B20846F31C46D6F26659E58D63E337
310
CE14C017F8F67AC9DF8BF058D44598FBEAF5505FC2AAAA8F5955C13AC95F50EC973132BC5FD5A962C4B006E03449B310C2304D3E607E828753967FA2D84F62A48D729E1751EF0EE0DBF581E219DFF1D9A1F99BCF7261B274E19B3734C0D09D3735308A7D3EEE3385B7CFD009BBFC0CB976AB85BB8346468D54B9EB34D26EAD
310
91749639EA24981E14CF5DC73C11FCC6933EE179CEE18222A275A711E3CAAB355E7D7FD3C054389A4720A4EA49B71D379FB8BD37A19DA5759DCA4EAAFF6CAF56D73063FF63E26F504B03041400060808001172745702F1689507010000B201000008000000636F72652E786D6C8D50416E833010FC8AB57703069A90C83812
310
2DBCA0A7DE5CEC502B6023DB44EDEF6B07576A6F3DED6A66766776E9E57399D15D5AA78C6E81640520A94723949E5AD8FC1537802E8C5A63FC2F1920CD17D9428481D1C99A6D4DD068B4973AA2DA089940EE9CF480C639342DB8F1432E3CE39B0F0A77CB563EDEF8243392ED3A46BD5A7E46472BB9970258599415260497C5
310
2BA9CFE470AEEA379A4725A3DBA644B25222B8ABAB921658479E4F5DFDD2E0633334B88EDDE93074B8EF8763D5F76428EA279AC761469DB7E1E6B424E4F4C8F17BF4A5F94E31FA6ECC9C0421944046CF5FC00A9A47E24FE86D15FF08ADB4AFCAB4709F70C04808F4208271FC60288FF7861ABFCDBE01504B01021400140006
310
080800117274570000000000000000000000003700000000000000000000000000000000006662782F41354339454137432D374144432D344236422D414444382D4539374539463742363341442F617474726962757465732E62696E504B010214001400060808001172745700000000000000000000000035000000000000
310
00000000000000550000006662782F41354339454137432D374144432D344236422D414444382D4539374539463742363341442F76657274696365732E62696E504B0102140014000608080011727457F270F13306000000040000003600000000000000000000000000A80000006662782F41354339454137432D37414443
310
2D344236422D414444382D4539374539463742363341442F747269616E676C65732E62696E504B010214001400060808001172745751464CB489000000430100003600000000000000000000000000020100006662782F41354339454137432D374144432D344236422D414444382D4539374539463742363341442F646972
310
6563746F72792E786D6C504B0102140014000608080011727457E2D8E7B83F070000201C00003400000000000000000000000000DF0100006662782F41354339454137432D374144432D344236422D414444382D4539374539463742363341442F6F626A656374732E786D6C504B01021400140006080800117274577C0A21
310
283E010000460500003000000000000000000000000000700900006662782F41354339454137432D374144432D344236422D414444382D4539374539463742363341442F636E782E786D6C504B01021400140006080800117274574593DD5C7F000000A30000000B00000000000000000000000000FC0A00006662782F636E
310
782E786D6C504B0102140014000608080011727457A6D797065F000000820000000700000000000000000000000000A40B0000636E782E786D6C504B01021400140006080800117274574FEB6A7CA0000000F40000001300000000000000000000000000280C00005B436F6E74656E745F54797065735D2E786D6C504B0102
310
1400140006080800117274573DEE336E64000000790000001B00000000000000000000000000F90C00006175746F6465736B2D64657369676E2D7061636B6167652E786D6C504B01021400140006080800117274571150EE3CF7000000960100003B00000000000000000000000000960D00006662782F4135433945413743
310
2D374144432D344236422D414444382D4539374539463742363341442F7265736F75726365732F636F72652E786D6C504B01021400140006080800117274578E59EBFBF3000000B10100003100000000000000000000000000E60E00006662782F41354339454137432D374144432D344236422D414444382D453937453946
310
3742363341442F636F72652E786D6C504B01021400140006080800117274571C39DD5652010000DD0200000C00000000000000000000000000281000006662782F636F72652E786D6C504B010214001400060808001172745702F1689507010000B20100000800000000000000000000000000A4110000636F72652E786D6C
310
504B0506000000000E000E0080040000D11200000000
  0
XRECORD
  5
840E
102
{ACAD_REACTORS
330
8409
102
}
330
8409
100
AcDbXrecord
280
     1
270
     1
271
     1
  0
XRECORD
  5
840D
102
{ACAD_REACTORS
330
8409
102
}
330
8409
100
AcDbXrecord
280
     1
270
     1
271
     1
  0
XRECORD
  5
840F
102
{ACAD_REACTORS
330
8409
102
}
330
8409
100
AcDbXrecord
280
     1
270
     1
271
     1
  0
XRECORD
  5
840C
102
{ACAD_REACTORS
330
8409
102
}
330
8409
100
AcDbXrecord
280
     1
270
     1
271
     1
  0
XRECORD
  5
864F
102
{ACAD_REACTORS
330
864E
102
}
330
864E
100
AcDbXrecord
280
     1
102
DISPLAYNAME
  1
Imperial24
102
FLAGS
 90
        0
  0
CELLSTYLEMAP
  5
8616
102
{ACAD_REACTORS
330
8615
102
}
330
8615
100
AcDbCellStyleMap
 90
        3
300
CELLSTYLE
  1
TABLEFORMAT_BEGIN
 90
        5
170
     1
 91
        0
 92
    32768
 62
   257
 93
        1
300
CONTENTFORMAT
  1
CONTENTFORMAT_BEGIN
 90
        0
 91
        0
 92
      512
 93
        0
300

 40
0.0
140
1.0
 94
        5
 62
     0
340
843C
144
0.25
309
CONTENTFORMAT_END
171
     0
 94
        0
309
TABLEFORMAT_END
  1
CELLSTYLE_BEGIN
 90
        1
 91
        1
300
_TITLE
309
CELLSTYLE_END
300
CELLSTYLE
  1
TABLEFORMAT_BEGIN
 90
        5
170
     1
 91
        0
 92
        0
 62
   257
 93
        1
300
CONTENTFORMAT
  1
CONTENTFORMAT_BEGIN
 90
        0
 91
        0
 92
      512
 93
        0
300

 40
0.0
140
1.0
 94
        5
 62
     0
340
843C
144
0.18
309
CONTENTFORMAT_END
171
     0
 94
        0
309
TABLEFORMAT_END
  1
CELLSTYLE_BEGIN
 90
        2
 91
        1
300
_HEADER
309
CELLSTYLE_END
300
CELLSTYLE
  1
TABLEFORMAT_BEGIN
 90
        5
170
     1
 91
        0
 92
        0
 62
   257
 93
        1
300
CONTENTFORMAT
  1
CONTENTFORMAT_BEGIN
 90
        0
 91
        0
 92
      512
 93
        0
300

 40
0.0
140
1.0
 94
        2
 62
     0
340
843C
144
0.18
309
CONTENTFORMAT_END
171
     0
 94
        0
309
TABLEFORMAT_END
  1
CELLSTYLE_BEGIN
 90
        3
 91
        2
300
_DATA
309
CELLSTYLE_END
  0
XRECORD
  5
864C
102
{ACAD_REACTORS
330
8615
102
}
330
8615
100
AcDbXrecord
280
     1
102
ACAD_ROUNDTRIP_PRE2007_TABLESTYLE
 90
      512
 91
        0
  1

 92
      512
 93
        0
  2

 94
      512
 95
        0
  3

  0
XRECORD
  5
8627
102
{ACAD_REACTORS
330
8626
102
}
330
8626
100
AcDbXrecord
280
     1
102
RTVSPost2010Prop28
280
     1
102
RTVSPost2010PropOp28
 70
     1
102
RTVSPost2010Prop29
280
     1
102
RTVSPost2010PropOp29
 70
     1
102
RTVSPost2010Prop30
280
     0
102
RTVSPost2010PropOp30
 70
     1
102
RTVSPost2010Prop31
280
     0
102
RTVSPost2010PropOp31
 70
     1
102
RTVSPost2010Prop32
280
     0
102
RTVSPost2010PropOp32
 70
     1
102
RTVSPost2010Prop33
280
     0
102
RTVSPost2010PropOp33
 70
     1
102
RTVSPost2010Prop34
280
     0
102
RTVSPost2010PropOp34
 70
     1
102
RTVSPost2010Prop35
280
     0
102
RTVSPost2010PropOp35
 70
     1
102
RTVSPost2010Prop36
280
     0
102
RTVSPost2010PropOp36
 70
     1
102
RTVSPost2010Prop37
 90
       50
102
RTVSPost2010PropOp37
 70
     1
102
RTVSPost2010Prop38
140
0.0
102
RTVSPost2010PropOp38
 70
     1
102
RTVSPost2010Prop39
140
1.0
102
RTVSPost2010PropOp39
 70
     1
102
RTVSPost2010Prop40
 90
        0
102
RTVSPost2010PropOp40
 70
     1
102
RTVSPost2010Prop41ColorIndex
 90
       18
102
RTVSPost2010Prop41ColorRGB
 90
        0
102
RTVSPost2010PropOp41
 70
     1
102
RTVSPost2010Prop42
 90
       50
102
RTVSPost2010PropOp42
 70
     1
102
RTVSPost2010Prop43
 90
        3
102
RTVSPost2010PropOp43
 70
     1
102
RTVSPost2010Prop44ColorIndex
 90
        5
102
RTVSPost2010Prop44ColorRGB
 90
      255
102
RTVSPost2010PropOp44
 70
     1
102
RTVSPost2010Prop45
280
     0
102
RTVSPost2010PropOp45
 70
     1
102
RTVSPost2010Prop46
 90
       50
102
RTVSPost2010PropOp46
 70
     1
102
RTVSPost2010Prop47
 90
       50
102
RTVSPost2010PropOp47
 70
     1
102
RTVSPost2010Prop48
 90
       50
102
RTVSPost2010PropOp48
 70
     1
102
RTVSPost2010Prop49
280
     0
102
RTVSPost2010PropOp49
 70
     1
102
RTVSPost2010Prop50
 90
       50
102
RTVSPost2010PropOp50
 70
     1
102
RTVSPost2010Prop51ColorIndex
 90
      256
102
RTVSPost2010Prop51ColorRGB
 90
-16777216
102
RTVSPost2010PropOp51
 70
     0
102
RTVSPost2010Prop52
140
1.0
102
RTVSPost2010PropOp52
 70
     0
102
RTVSPost2010Prop53
 90
        2
102
RTVSPost2010PropOp53
 70
     1
102
RTVSPost2010Prop54
  1
strokes_ogs.tif
102
RTVSPost2010PropOp54
 70
     1
102
RTVSPost2010Prop55
280
     0
102
RTVSPost2010PropOp55
 70
     1
102
RTVSPost2010Prop56
140
1.0
102
RTVSPost2010PropOp56
 70
     1
102
RTVSPost2010Prop57
140
1.0
102
RTVSPost2010PropOp57
 70
     1
102
RTVSPropertyOp0
 70
     1
102
RTVSPropertyOp1
 70
     1
102
RTVSPropertyOp2
 70
     1
102
RTVSPropertyOp3
 70
     1
102
RTVSPropertyOp4
 70
     1
102
RTVSPropertyOp5
 70
     1
102
RTVSPropertyOp6
 70
     1
102
RTVSPropertyOp7
 70
     1
102
RTVSPropertyOp8
 70
     1
102
RTVSPropertyOp9
 70
     1
102
RTVSPropertyOp10
 70
     1
102
RTVSPropertyOp11
 70
     1
102
RTVSPropertyOp12
 70
     1
102
RTVSPropertyOp13
 70
     1
102
RTVSPropertyOp14
 70
     1
102
RTVSPropertyOp15
 70
     1
102
RTVSPropertyOp16
 70
     1
102
RTVSPropertyOp17
 70
     1
102
RTVSPropertyOp18
 70
     1
102
RTVSPropertyOp19
 70
     1
102
RTVSPropertyOp20
 70
     1
102
RTVSPropertyOp21
 70
     1
102
RTVSPropertyOp22
 70
     1
102
RTVSPropertyOp23
 70
     1
102
RTVSPropertyOp24
 70
     1
102
RTVSPropertyOp25
 70
     1
102
RTVSPropertyOp26
 70
     1
102
RTVSPropertyOp27
 70
     1
102
RTVSPropertyOp28
 70
     1
102
RTVSPropertyOp29
 70
     1
102
RTVSPropertyOp30
 70
     1
102
RTVSPropertyOp31
 70
     1
102
RTVSPropertyOp32
 70
     1
102
RTVSPropertyOp33
 70
     1
102
RTVSPropertyOp34
 70
     1
102
RTVSPropertyOp35
 70
     1
102
RTVSPropertyOp36
 70
     1
102
RTVSPropertyOp37
 70
     1
102
RTVSPropertyOp38
 70
     1
102
RTVSPropertyOp39
 70
     1
102
RTVSPropertyOp40
 70
     1
102
RTVSPropertyOp41
 70
     1
102
RTVSPropertyOp42
 70
     1
102
RTVSPropertyOp43
 70
     1
102
RTVSPropertyOp44
 70
     1
102
RTVSPropertyOp45
 70
     1
102
RTVSPropertyOp46
 70
     1
102
RTVSPropertyOp47
 70
     1
102
RTVSPropertyOp48
 70
     1
102
RTVSPropertyOp49
 70
     1
102
RTVSPropertyOp50
 70
     1
102
RTVSPropertyOp51
 70
     0
102
RTVSPropertyOp52
 70
     0
102
RTVSPropertyOp53
 70
     1
102
RTVSPropertyOp54
 70
     1
102
RTVSPropertyOp55
 70
     1
102
RTVSPropertyOp56
 70
     1
102
RTVSPropertyOp57
 70
     1
102
RTVSPropertyOp58
 70
     1
102
RTVSPropertyOp59
 70
     1
102
RTVSPropertyOp60
 70
     1
102
RTVSPropertyOp61
 70
     1
102
RTVSPropertyOp62
 70
     1
  0
XRECORD
  5
8625
102
{ACAD_REACTORS
330
8624
102
}
330
8624
100
AcDbXrecord
280
     1
102
RTVSPost2010Prop28
280
     0
102
RTVSPost2010PropOp28
 70
     1
102
RTVSPost2010Prop29
280
     1
102
RTVSPost2010PropOp29
 70
     1
102
RTVSPost2010Prop30
280
     1
102
RTVSPost2010PropOp30
 70
     1
102
RTVSPost2010Prop31
280
     0
102
RTVSPost2010PropOp31
 70
     1
102
RTVSPost2010Prop32
280
     0
102
RTVSPost2010PropOp32
 70
     1
102
RTVSPost2010Prop33
280
     0
102
RTVSPost2010PropOp33
 70
     1
102
RTVSPost2010Prop34
280
     0
102
RTVSPost2010PropOp34
 70
     1
102
RTVSPost2010Prop35
280
     0
102
RTVSPost2010PropOp35
 70
     1
102
RTVSPost2010Prop36
280
     0
102
RTVSPost2010PropOp36
 70
     1
102
RTVSPost2010Prop37
 90
       50
102
RTVSPost2010PropOp37
 70
     1
102
RTVSPost2010Prop38
140
0.0
102
RTVSPost2010PropOp38
 70
     1
102
RTVSPost2010Prop39
140
1.0
102
RTVSPost2010PropOp39
 70
     1
102
RTVSPost2010Prop40
 90
        0
102
RTVSPost2010PropOp40
 70
     1
102
RTVSPost2010Prop41ColorIndex
 90
       18
102
RTVSPost2010Prop41ColorRGB
 90
        0
102
RTVSPost2010PropOp41
 70
     1
102
RTVSPost2010Prop42
 90
       50
102
RTVSPost2010PropOp42
 70
     1
102
RTVSPost2010Prop43
 90
        3
102
RTVSPost2010PropOp43
 70
     1
102
RTVSPost2010Prop44ColorIndex
 90
        5
102
RTVSPost2010Prop44ColorRGB
 90
      255
102
RTVSPost2010PropOp44
 70
     1
102
RTVSPost2010Prop45
280
     0
102
RTVSPost2010PropOp45
 70
     1
102
RTVSPost2010Prop46
 90
       50
102
RTVSPost2010PropOp46
 70
     1
102
RTVSPost2010Prop47
 90
       50
102
RTVSPost2010PropOp47
 70
     1
102
RTVSPost2010Prop48
 90
       50
102
RTVSPost2010PropOp48
 70
     1
102
RTVSPost2010Prop49
280
     0
102
RTVSPost2010PropOp49
 70
     1
102
RTVSPost2010Prop50
 90
       50
102
RTVSPost2010PropOp50
 70
     1
102
RTVSPost2010Prop51ColorIndex
 90
      256
102
RTVSPost2010Prop51ColorRGB
 90
-16777216
102
RTVSPost2010PropOp51
 70
     0
102
RTVSPost2010Prop52
140
1.0
102
RTVSPost2010PropOp52
 70
     0
102
RTVSPost2010Prop53
 90
        2
102
RTVSPost2010PropOp53
 70
     1
102
RTVSPost2010Prop54
  1
strokes_ogs.tif
102
RTVSPost2010PropOp54
 70
     1
102
RTVSPost2010Prop55
280
     0
102
RTVSPost2010PropOp55
 70
     1
102
RTVSPost2010Prop56
140
1.0
102
RTVSPost2010PropOp56
 70
     1
102
RTVSPost2010Prop57
140
1.0
102
RTVSPost2010PropOp57
 70
     1
102
RTVSPropertyOp0
 70
     1
102
RTVSPropertyOp1
 70
     1
102
RTVSPropertyOp2
 70
     1
102
RTVSPropertyOp3
 70
     1
102
RTVSPropertyOp4
 70
     1
102
RTVSPropertyOp5
 70
     1
102
RTVSPropertyOp6
 70
     1
102
RTVSPropertyOp7
 70
     1
102
RTVSPropertyOp8
 70
     1
102
RTVSPropertyOp9
 70
     1
102
RTVSPropertyOp10
 70
     1
102
RTVSPropertyOp11
 70
     1
102
RTVSPropertyOp12
 70
     1
102
RTVSPropertyOp13
 70
     1
102
RTVSPropertyOp14
 70
     1
102
RTVSPropertyOp15
 70
     1
102
RTVSPropertyOp16
 70
     1
102
RTVSPropertyOp17
 70
     1
102
RTVSPropertyOp18
 70
     1
102
RTVSPropertyOp19
 70
     1
102
RTVSPropertyOp20
 70
     1
102
RTVSPropertyOp21
 70
     1
102
RTVSPropertyOp22
 70
     1
102
RTVSPropertyOp23
 70
     1
102
RTVSPropertyOp24
 70
     1
102
RTVSPropertyOp25
 70
     1
102
RTVSPropertyOp26
 70
     1
102
RTVSPropertyOp27
 70
     1
102
RTVSPropertyOp28
 70
     1
102
RTVSPropertyOp29
 70
     1
102
RTVSPropertyOp30
 70
     1
102
RTVSPropertyOp31
 70
     1
102
RTVSPropertyOp32
 70
     1
102
RTVSPropertyOp33
 70
     1
102
RTVSPropertyOp34
 70
     1
102
RTVSPropertyOp35
 70
     1
102
RTVSPropertyOp36
 70
     1
102
RTVSPropertyOp37
 70
     1
102
RTVSPropertyOp38
 70
     1
102
RTVSPropertyOp39
 70
     1
102
RTVSPropertyOp40
 70
     1
102
RTVSPropertyOp41
 70
     1
102
RTVSPropertyOp42
 70
     1
102
RTVSPropertyOp43
 70
     1
102
RTVSPropertyOp44
 70
     1
102
RTVSPropertyOp45
 70
     1
102
RTVSPropertyOp46
 70
     1
102
RTVSPropertyOp47
 70
     1
102
RTVSPropertyOp48
 70
     1
102
RTVSPropertyOp49
 70
     1
102
RTVSPropertyOp50
 70
     1
102
RTVSPropertyOp51
 70
     0
102
RTVSPropertyOp52
 70
     0
102
RTVSPropertyOp53
 70
     1
102
RTVSPropertyOp54
 70
     1
102
RTVSPropertyOp55
 70
     1
102
RTVSPropertyOp56
 70
     1
102
RTVSPropertyOp57
 70
     1
102
RTVSPropertyOp58
 70
     1
102
RTVSPropertyOp59
 70
     1
102
RTVSPropertyOp60
 70
     1
102
RTVSPropertyOp61
 70
     1
102
RTVSPropertyOp62
 70
     1
  0
XRECORD
  5
8633
102
{ACAD_REACTORS
330
8632
102
}
330
8632
100
AcDbXrecord
280
     1
102
RTVSPost2010Prop28
280
     0
102
RTVSPost2010PropOp28
 70
     1
102
RTVSPost2010Prop29
280
     1
102
RTVSPost2010PropOp29
 70
     1
102
RTVSPost2010Prop30
280
     1
102
RTVSPost2010PropOp30
 70
     1
102
RTVSPost2010Prop31
280
     0
102
RTVSPost2010PropOp31
 70
     1
102
RTVSPost2010Prop32
280
     0
102
RTVSPost2010PropOp32
 70
     1
102
RTVSPost2010Prop33
280
     0
102
RTVSPost2010PropOp33
 70
     1
102
RTVSPost2010Prop34
280
     0
102
RTVSPost2010PropOp34
 70
     1
102
RTVSPost2010Prop35
280
     0
102
RTVSPost2010PropOp35
 70
     1
102
RTVSPost2010Prop36
280
     0
102
RTVSPost2010PropOp36
 70
     1
102
RTVSPost2010Prop37
 90
       50
102
RTVSPost2010PropOp37
 70
     1
102
RTVSPost2010Prop38
140
0.0
102
RTVSPost2010PropOp38
 70
     1
102
RTVSPost2010Prop39
140
1.0
102
RTVSPost2010PropOp39
 70
     1
102
RTVSPost2010Prop40
 90
        0
102
RTVSPost2010PropOp40
 70
     1
102
RTVSPost2010Prop41ColorIndex
 90
       18
102
RTVSPost2010Prop41ColorRGB
 90
        0
102
RTVSPost2010PropOp41
 70
     1
102
RTVSPost2010Prop42
 90
       50
102
RTVSPost2010PropOp42
 70
     1
102
RTVSPost2010Prop43
 90
        3
102
RTVSPost2010PropOp43
 70
     1
102
RTVSPost2010Prop44ColorIndex
 90
        5
102
RTVSPost2010Prop44ColorRGB
 90
      255
102
RTVSPost2010PropOp44
 70
     1
102
RTVSPost2010Prop45
280
     0
102
RTVSPost2010PropOp45
 70
     1
102
RTVSPost2010Prop46
 90
       50
102
RTVSPost2010PropOp46
 70
     1
102
RTVSPost2010Prop47
 90
       50
102
RTVSPost2010PropOp47
 70
     1
102
RTVSPost2010Prop48
 90
       50
102
RTVSPost2010PropOp48
 70
     1
102
RTVSPost2010Prop49
280
     0
102
RTVSPost2010PropOp49
 70
     1
102
RTVSPost2010Prop50
 90
       50
102
RTVSPost2010PropOp50
 70
     1
102
RTVSPost2010Prop51ColorIndex
 90
      256
102
RTVSPost2010Prop51ColorRGB
 90
-16777216
102
RTVSPost2010PropOp51
 70
     0
102
RTVSPost2010Prop52
140
1.0
102
RTVSPost2010PropOp52
 70
     0
102
RTVSPost2010Prop53
 90
        2
102
RTVSPost2010PropOp53
 70
     1
102
RTVSPost2010Prop54
  1
strokes_ogs.tif
102
RTVSPost2010PropOp54
 70
     1
102
RTVSPost2010Prop55
280
     0
102
RTVSPost2010PropOp55
 70
     1
102
RTVSPost2010Prop56
140
1.0
102
RTVSPost2010PropOp56
 70
     1
102
RTVSPost2010Prop57
140
1.0
102
RTVSPost2010PropOp57
 70
     1
102
RTVSPropertyOp0
 70
     1
102
RTVSPropertyOp1
 70
     1
102
RTVSPropertyOp2
 70
     1
102
RTVSPropertyOp3
 70
     1
102
RTVSPropertyOp4
 70
     1
102
RTVSPropertyOp5
 70
     1
102
RTVSPropertyOp6
 70
     1
102
RTVSPropertyOp7
 70
     1
102
RTVSPropertyOp8
 70
     1
102
RTVSPropertyOp9
 70
     1
102
RTVSPropertyOp10
 70
     1
102
RTVSPropertyOp11
 70
     1
102
RTVSPropertyOp12
 70
     1
102
RTVSPropertyOp13
 70
     1
102
RTVSPropertyOp14
 70
     1
102
RTVSPropertyOp15
 70
     1
102
RTVSPropertyOp16
 70
     1
102
RTVSPropertyOp17
 70
     1
102
RTVSPropertyOp18
 70
     1
102
RTVSPropertyOp19
 70
     1
102
RTVSPropertyOp20
 70
     1
102
RTVSPropertyOp21
 70
     1
102
RTVSPropertyOp22
 70
     1
102
RTVSPropertyOp23
 70
     1
102
RTVSPropertyOp24
 70
     1
102
RTVSPropertyOp25
 70
     1
102
RTVSPropertyOp26
 70
     1
102
RTVSPropertyOp27
 70
     1
102
RTVSPropertyOp28
 70
     1
102
RTVSPropertyOp29
 70
     1
102
RTVSPropertyOp30
 70
     1
102
RTVSPropertyOp31
 70
     1
102
RTVSPropertyOp32
 70
     1
102
RTVSPropertyOp33
 70
     1
102
RTVSPropertyOp34
 70
     1
102
RTVSPropertyOp35
 70
     1
102
RTVSPropertyOp36
 70
     1
102
RTVSPropertyOp37
 70
     1
102
RTVSPropertyOp38
 70
     1
102
RTVSPropertyOp39
 70
     1
102
RTVSPropertyOp40
 70
     1
102
RTVSPropertyOp41
 70
     1
102
RTVSPropertyOp42
 70
     1
102
RTVSPropertyOp43
 70
     1
102
RTVSPropertyOp44
 70
     1
102
RTVSPropertyOp45
 70
     1
102
RTVSPropertyOp46
 70
     1
102
RTVSPropertyOp47
 70
     1
102
RTVSPropertyOp48
 70
     1
102
RTVSPropertyOp49
 70
     1
102
RTVSPropertyOp50
 70
     1
102
RTVSPropertyOp51
 70
     0
102
RTVSPropertyOp52
 70
     0
102
RTVSPropertyOp53
 70
     1
102
RTVSPropertyOp54
 70
     1
102
RTVSPropertyOp55
 70
     1
102
RTVSPropertyOp56
 70
     1
102
RTVSPropertyOp57
 70
     1
102
RTVSPropertyOp58
 70
     1
102
RTVSPropertyOp59
 70
     1
102
RTVSPropertyOp60
 70
     1
102
RTVSPropertyOp61
 70
     1
102
RTVSPropertyOp62
 70
     1
  0
XRECORD
  5
863B
102
{ACAD_REACTORS
330
863A
102
}
330
863A
100
AcDbXrecord
280
     1
102
RTVSPost2010Prop28
280
     0
102
RTVSPost2010PropOp28
 70
     1
102
RTVSPost2010Prop29
280
     1
102
RTVSPost2010PropOp29
 70
     1
102
RTVSPost2010Prop30
280
     1
102
RTVSPost2010PropOp30
 70
     1
102
RTVSPost2010Prop31
280
     0
102
RTVSPost2010PropOp31
 70
     1
102
RTVSPost2010Prop32
280
     0
102
RTVSPost2010PropOp32
 70
     1
102
RTVSPost2010Prop33
280
     0
102
RTVSPost2010PropOp33
 70
     1
102
RTVSPost2010Prop34
280
     0
102
RTVSPost2010PropOp34
 70
     1
102
RTVSPost2010Prop35
280
     0
102
RTVSPost2010PropOp35
 70
     1
102
RTVSPost2010Prop36
280
     0
102
RTVSPost2010PropOp36
 70
     1
102
RTVSPost2010Prop37
 90
       50
102
RTVSPost2010PropOp37
 70
     1
102
RTVSPost2010Prop38
140
0.0
102
RTVSPost2010PropOp38
 70
     1
102
RTVSPost2010Prop39
140
1.0
102
RTVSPost2010PropOp39
 70
     1
102
RTVSPost2010Prop40
 90
        0
102
RTVSPost2010PropOp40
 70
     1
102
RTVSPost2010Prop41ColorIndex
 90
       18
102
RTVSPost2010Prop41ColorRGB
 90
        0
102
RTVSPost2010PropOp41
 70
     1
102
RTVSPost2010Prop42
 90
       50
102
RTVSPost2010PropOp42
 70
     1
102
RTVSPost2010Prop43
 90
        3
102
RTVSPost2010PropOp43
 70
     1
102
RTVSPost2010Prop44ColorIndex
 90
        5
102
RTVSPost2010Prop44ColorRGB
 90
      255
102
RTVSPost2010PropOp44
 70
     1
102
RTVSPost2010Prop45
280
     0
102
RTVSPost2010PropOp45
 70
     1
102
RTVSPost2010Prop46
 90
       50
102
RTVSPost2010PropOp46
 70
     1
102
RTVSPost2010Prop47
 90
       50
102
RTVSPost2010PropOp47
 70
     1
102
RTVSPost2010Prop48
 90
       50
102
RTVSPost2010PropOp48
 70
     1
102
RTVSPost2010Prop49
280
     0
102
RTVSPost2010PropOp49
 70
     1
102
RTVSPost2010Prop50
 90
       50
102
RTVSPost2010PropOp50
 70
     1
102
RTVSPost2010Prop51ColorIndex
 90
      256
102
RTVSPost2010Prop51ColorRGB
 90
-16777216
102
RTVSPost2010PropOp51
 70
     0
102
RTVSPost2010Prop52
140
1.0
102
RTVSPost2010PropOp52
 70
     0
102
RTVSPost2010Prop53
 90
        2
102
RTVSPost2010PropOp53
 70
     1
102
RTVSPost2010Prop54
  1
strokes_ogs.tif
102
RTVSPost2010PropOp54
 70
     1
102
RTVSPost2010Prop55
280
     0
102
RTVSPost2010PropOp55
 70
     1
102
RTVSPost2010Prop56
140
1.0
102
RTVSPost2010PropOp56
 70
     1
102
RTVSPost2010Prop57
140
1.0
102
RTVSPost2010PropOp57
 70
     1
102
RTVSPropertyOp0
 70
     1
102
RTVSPropertyOp1
 70
     1
102
RTVSPropertyOp2
 70
     1
102
RTVSPropertyOp3
 70
     1
102
RTVSPropertyOp4
 70
     1
102
RTVSPropertyOp5
 70
     1
102
RTVSPropertyOp6
 70
     1
102
RTVSPropertyOp7
 70
     1
102
RTVSPropertyOp8
 70
     1
102
RTVSPropertyOp9
 70
     1
102
RTVSPropertyOp10
 70
     1
102
RTVSPropertyOp11
 70
     1
102
RTVSPropertyOp12
 70
     1
102
RTVSPropertyOp13
 70
     1
102
RTVSPropertyOp14
 70
     1
102
RTVSPropertyOp15
 70
     1
102
RTVSPropertyOp16
 70
     1
102
RTVSPropertyOp17
 70
     1
102
RTVSPropertyOp18
 70
     1
102
RTVSPropertyOp19
 70
     1
102
RTVSPropertyOp20
 70
     1
102
RTVSPropertyOp21
 70
     1
102
RTVSPropertyOp22
 70
     1
102
RTVSPropertyOp23
 70
     1
102
RTVSPropertyOp24
 70
     1
102
RTVSPropertyOp25
 70
     1
102
RTVSPropertyOp26
 70
     1
102
RTVSPropertyOp27
 70
     1
102
RTVSPropertyOp28
 70
     1
102
RTVSPropertyOp29
 70
     1
102
RTVSPropertyOp30
 70
     1
102
RTVSPropertyOp31
 70
     1
102
RTVSPropertyOp32
 70
     1
102
RTVSPropertyOp33
 70
     1
102
RTVSPropertyOp34
 70
     1
102
RTVSPropertyOp35
 70
     1
102
RTVSPropertyOp36
 70
     1
102
RTVSPropertyOp37
 70
     1
102
RTVSPropertyOp38
 70
     1
102
RTVSPropertyOp39
 70
     1
102
RTVSPropertyOp40
 70
     1
102
RTVSPropertyOp41
 70
     1
102
RTVSPropertyOp42
 70
     1
102
RTVSPropertyOp43
 70
     1
102
RTVSPropertyOp44
 70
     1
102
RTVSPropertyOp45
 70
     1
102
RTVSPropertyOp46
 70
     1
102
RTVSPropertyOp47
 70
     1
102
RTVSPropertyOp48
 70
     1
102
RTVSPropertyOp49
 70
     1
102
RTVSPropertyOp50
 70
     1
102
RTVSPropertyOp51
 70
     0
102
RTVSPropertyOp52
 70
     0
102
RTVSPropertyOp53
 70
     1
102
RTVSPropertyOp54
 70
     1
102
RTVSPropertyOp55
 70
     1
102
RTVSPropertyOp56
 70
     1
102
RTVSPropertyOp57
 70
     1
102
RTVSPropertyOp58
 70
     1
102
RTVSPropertyOp59
 70
     1
102
RTVSPropertyOp60
 70
     1
102
RTVSPropertyOp61
 70
     1
102
RTVSPropertyOp62
 70
     1
  0
XRECORD
  5
862D
102
{ACAD_REACTORS
330
862C
102
}
330
862C
100
AcDbXrecord
280
     1
102
RTVSPost2010Prop28
280
     0
102
RTVSPost2010PropOp28
 70
     1
102
RTVSPost2010Prop29
280
     1
102
RTVSPost2010PropOp29
 70
     1
102
RTVSPost2010Prop30
280
     1
102
RTVSPost2010PropOp30
 70
     1
102
RTVSPost2010Prop31
280
     0
102
RTVSPost2010PropOp31
 70
     1
102
RTVSPost2010Prop32
280
     0
102
RTVSPost2010PropOp32
 70
     1
102
RTVSPost2010Prop33
280
     0
102
RTVSPost2010PropOp33
 70
     1
102
RTVSPost2010Prop34
280
     0
102
RTVSPost2010PropOp34
 70
     1
102
RTVSPost2010Prop35
280
     0
102
RTVSPost2010PropOp35
 70
     1
102
RTVSPost2010Prop36
280
     0
102
RTVSPost2010PropOp36
 70
     1
102
RTVSPost2010Prop37
 90
       50
102
RTVSPost2010PropOp37
 70
     1
102
RTVSPost2010Prop38
140
0.0
102
RTVSPost2010PropOp38
 70
     1
102
RTVSPost2010Prop39
140
1.0
102
RTVSPost2010PropOp39
 70
     1
102
RTVSPost2010Prop40
 90
        0
102
RTVSPost2010PropOp40
 70
     1
102
RTVSPost2010Prop41ColorIndex
 90
       18
102
RTVSPost2010Prop41ColorRGB
 90
        0
102
RTVSPost2010PropOp41
 70
     1
102
RTVSPost2010Prop42
 90
       50
102
RTVSPost2010PropOp42
 70
     1
102
RTVSPost2010Prop43
 90
        3
102
RTVSPost2010PropOp43
 70
     1
102
RTVSPost2010Prop44ColorIndex
 90
        5
102
RTVSPost2010Prop44ColorRGB
 90
      255
102
RTVSPost2010PropOp44
 70
     1
102
RTVSPost2010Prop45
280
     0
102
RTVSPost2010PropOp45
 70
     1
102
RTVSPost2010Prop46
 90
       50
102
RTVSPost2010PropOp46
 70
     1
102
RTVSPost2010Prop47
 90
       50
102
RTVSPost2010PropOp47
 70
     1
102
RTVSPost2010Prop48
 90
       50
102
RTVSPost2010PropOp48
 70
     1
102
RTVSPost2010Prop49
280
     0
102
RTVSPost2010PropOp49
 70
     1
102
RTVSPost2010Prop50
 90
       50
102
RTVSPost2010PropOp50
 70
     1
102
RTVSPost2010Prop51ColorIndex
 90
      256
102
RTVSPost2010Prop51ColorRGB
 90
-16777216
102
RTVSPost2010PropOp51
 70
     0
102
RTVSPost2010Prop52
140
1.0
102
RTVSPost2010PropOp52
 70
     0
102
RTVSPost2010Prop53
 90
        2
102
RTVSPost2010PropOp53
 70
     1
102
RTVSPost2010Prop54
  1
strokes_ogs.tif
102
RTVSPost2010PropOp54
 70
     1
102
RTVSPost2010Prop55
280
     0
102
RTVSPost2010PropOp55
 70
     1
102
RTVSPost2010Prop56
140
1.0
102
RTVSPost2010PropOp56
 70
     1
102
RTVSPost2010Prop57
140
1.0
102
RTVSPost2010PropOp57
 70
     1
102
RTVSPropertyOp0
 70
     1
102
RTVSPropertyOp1
 70
     1
102
RTVSPropertyOp2
 70
     1
102
RTVSPropertyOp3
 70
     1
102
RTVSPropertyOp4
 70
     1
102
RTVSPropertyOp5
 70
     1
102
RTVSPropertyOp6
 70
     1
102
RTVSPropertyOp7
 70
     1
102
RTVSPropertyOp8
 70
     1
102
RTVSPropertyOp9
 70
     1
102
RTVSPropertyOp10
 70
     1
102
RTVSPropertyOp11
 70
     1
102
RTVSPropertyOp12
 70
     1
102
RTVSPropertyOp13
 70
     1
102
RTVSPropertyOp14
 70
     1
102
RTVSPropertyOp15
 70
     1
102
RTVSPropertyOp16
 70
     1
102
RTVSPropertyOp17
 70
     1
102
RTVSPropertyOp18
 70
     1
102
RTVSPropertyOp19
 70
     1
102
RTVSPropertyOp20
 70
     1
102
RTVSPropertyOp21
 70
     1
102
RTVSPropertyOp22
 70
     1
102
RTVSPropertyOp23
 70
     1
102
RTVSPropertyOp24
 70
     1
102
RTVSPropertyOp25
 70
     1
102
RTVSPropertyOp26
 70
     1
102
RTVSPropertyOp27
 70
     1
102
RTVSPropertyOp28
 70
     1
102
RTVSPropertyOp29
 70
     1
102
RTVSPropertyOp30
 70
     1
102
RTVSPropertyOp31
 70
     1
102
RTVSPropertyOp32
 70
     1
102
RTVSPropertyOp33
 70
     1
102
RTVSPropertyOp34
 70
     1
102
RTVSPropertyOp35
 70
     1
102
RTVSPropertyOp36
 70
     1
102
RTVSPropertyOp37
 70
     1
102
RTVSPropertyOp38
 70
     1
102
RTVSPropertyOp39
 70
     1
102
RTVSPropertyOp40
 70
     1
102
RTVSPropertyOp41
 70
     1
102
RTVSPropertyOp42
 70
     1
102
RTVSPropertyOp43
 70
     1
102
RTVSPropertyOp44
 70
     1
102
RTVSPropertyOp45
 70
     1
102
RTVSPropertyOp46
 70
     1
102
RTVSPropertyOp47
 70
     1
102
RTVSPropertyOp48
 70
     1
102
RTVSPropertyOp49
 70
     1
102
RTVSPropertyOp50
 70
     1
102
RTVSPropertyOp51
 70
     0
102
RTVSPropertyOp52
 70
     0
102
RTVSPropertyOp53
 70
     1
102
RTVSPropertyOp54
 70
     1
102
RTVSPropertyOp55
 70
     1
102
RTVSPropertyOp56
 70
     1
102
RTVSPropertyOp57
 70
     1
102
RTVSPropertyOp58
 70
     1
102
RTVSPropertyOp59
 70
     1
102
RTVSPropertyOp60
 70
     1
102
RTVSPropertyOp61
 70
     1
102
RTVSPropertyOp62
 70
     1
  0
XRECORD
  5
8631
102
{ACAD_REACTORS
330
8630
102
}
330
8630
100
AcDbXrecord
280
     1
102
RTVSPost2010Prop28
280
     0
102
RTVSPost2010PropOp28
 70
     1
102
RTVSPost2010Prop29
280
     1
102
RTVSPost2010PropOp29
 70
     1
102
RTVSPost2010Prop30
280
     1
102
RTVSPost2010PropOp30
 70
     1
102
RTVSPost2010Prop31
280
     0
102
RTVSPost2010PropOp31
 70
     1
102
RTVSPost2010Prop32
280
     0
102
RTVSPost2010PropOp32
 70
     1
102
RTVSPost2010Prop33
280
     0
102
RTVSPost2010PropOp33
 70
     1
102
RTVSPost2010Prop34
280
     0
102
RTVSPost2010PropOp34
 70
     1
102
RTVSPost2010Prop35
280
     0
102
RTVSPost2010PropOp35
 70
     1
102
RTVSPost2010Prop36
280
     0
102
RTVSPost2010PropOp36
 70
     1
102
RTVSPost2010Prop37
 90
       50
102
RTVSPost2010PropOp37
 70
     1
102
RTVSPost2010Prop38
140
0.0
102
RTVSPost2010PropOp38
 70
     1
102
RTVSPost2010Prop39
140
1.0
102
RTVSPost2010PropOp39
 70
     1
102
RTVSPost2010Prop40
 90
        0
102
RTVSPost2010PropOp40
 70
     1
102
RTVSPost2010Prop41ColorIndex
 90
       18
102
RTVSPost2010Prop41ColorRGB
 90
        0
102
RTVSPost2010PropOp41
 70
     1
102
RTVSPost2010Prop42
 90
       50
102
RTVSPost2010PropOp42
 70
     1
102
RTVSPost2010Prop43
 90
        3
102
RTVSPost2010PropOp43
 70
     1
102
RTVSPost2010Prop44ColorIndex
 90
        5
102
RTVSPost2010Prop44ColorRGB
 90
      255
102
RTVSPost2010PropOp44
 70
     1
102
RTVSPost2010Prop45
280
     0
102
RTVSPost2010PropOp45
 70
     1
102
RTVSPost2010Prop46
 90
       50
102
RTVSPost2010PropOp46
 70
     1
102
RTVSPost2010Prop47
 90
       50
102
RTVSPost2010PropOp47
 70
     1
102
RTVSPost2010Prop48
 90
       50
102
RTVSPost2010PropOp48
 70
     1
102
RTVSPost2010Prop49
280
     0
102
RTVSPost2010PropOp49
 70
     1
102
RTVSPost2010Prop50
 90
       50
102
RTVSPost2010PropOp50
 70
     1
102
RTVSPost2010Prop51ColorIndex
 90
      256
102
RTVSPost2010Prop51ColorRGB
 90
-16777216
102
RTVSPost2010PropOp51
 70
     0
102
RTVSPost2010Prop52
140
1.0
102
RTVSPost2010PropOp52
 70
     0
102
RTVSPost2010Prop53
 90
        2
102
RTVSPost2010PropOp53
 70
     1
102
RTVSPost2010Prop54
  1
strokes_ogs.tif
102
RTVSPost2010PropOp54
 70
     1
102
RTVSPost2010Prop55
280
     0
102
RTVSPost2010PropOp55
 70
     1
102
RTVSPost2010Prop56
140
1.0
102
RTVSPost2010PropOp56
 70
     1
102
RTVSPost2010Prop57
140
1.0
102
RTVSPost2010PropOp57
 70
     1
102
RTVSPropertyOp0
 70
     1
102
RTVSPropertyOp1
 70
     1
102
RTVSPropertyOp2
 70
     1
102
RTVSPropertyOp3
 70
     1
102
RTVSPropertyOp4
 70
     1
102
RTVSPropertyOp5
 70
     1
102
RTVSPropertyOp6
 70
     1
102
RTVSPropertyOp7
 70
     1
102
RTVSPropertyOp8
 70
     1
102
RTVSPropertyOp9
 70
     1
102
RTVSPropertyOp10
 70
     1
102
RTVSPropertyOp11
 70
     1
102
RTVSPropertyOp12
 70
     1
102
RTVSPropertyOp13
 70
     1
102
RTVSPropertyOp14
 70
     1
102
RTVSPropertyOp15
 70
     1
102
RTVSPropertyOp16
 70
     1
102
RTVSPropertyOp17
 70
     1
102
RTVSPropertyOp18
 70
     1
102
RTVSPropertyOp19
 70
     1
102
RTVSPropertyOp20
 70
     1
102
RTVSPropertyOp21
 70
     1
102
RTVSPropertyOp22
 70
     1
102
RTVSPropertyOp23
 70
     1
102
RTVSPropertyOp24
 70
     1
102
RTVSPropertyOp25
 70
     1
102
RTVSPropertyOp26
 70
     1
102
RTVSPropertyOp27
 70
     1
102
RTVSPropertyOp28
 70
     1
102
RTVSPropertyOp29
 70
     1
102
RTVSPropertyOp30
 70
     1
102
RTVSPropertyOp31
 70
     1
102
RTVSPropertyOp32
 70
     1
102
RTVSPropertyOp33
 70
     1
102
RTVSPropertyOp34
 70
     1
102
RTVSPropertyOp35
 70
     1
102
RTVSPropertyOp36
 70
     1
102
RTVSPropertyOp37
 70
     1
102
RTVSPropertyOp38
 70
     1
102
RTVSPropertyOp39
 70
     1
102
RTVSPropertyOp40
 70
     1
102
RTVSPropertyOp41
 70
     1
102
RTVSPropertyOp42
 70
     1
102
RTVSPropertyOp43
 70
     1
102
RTVSPropertyOp44
 70
     1
102
RTVSPropertyOp45
 70
     1
102
RTVSPropertyOp46
 70
     1
102
RTVSPropertyOp47
 70
     1
102
RTVSPropertyOp48
 70
     1
102
RTVSPropertyOp49
 70
     1
102
RTVSPropertyOp50
 70
     1
102
RTVSPropertyOp51
 70
     0
102
RTVSPropertyOp52
 70
     0
102
RTVSPropertyOp53
 70
     1
102
RTVSPropertyOp54
 70
     1
102
RTVSPropertyOp55
 70
     1
102
RTVSPropertyOp56
 70
     1
102
RTVSPropertyOp57
 70
     1
102
RTVSPropertyOp58
 70
     1
102
RTVSPropertyOp59
 70
     1
102
RTVSPropertyOp60
 70
     1
102
RTVSPropertyOp61
 70
     1
102
RTVSPropertyOp62
 70
     1
  0
XRECORD
  5
864B
102
{ACAD_REACTORS
330
864A
102
}
330
864A
100
AcDbXrecord
280
     1
102
RTVSPost2010Prop28
280
     0
102
RTVSPost2010PropOp28
 70
     1
102
RTVSPost2010Prop29
280
     1
102
RTVSPost2010PropOp29
 70
     1
102
RTVSPost2010Prop30
280
     1
102
RTVSPost2010PropOp30
 70
     1
102
RTVSPost2010Prop31
280
     0
102
RTVSPost2010PropOp31
 70
     1
102
RTVSPost2010Prop32
280
     0
102
RTVSPost2010PropOp32
 70
     1
102
RTVSPost2010Prop33
280
     0
102
RTVSPost2010PropOp33
 70
     1
102
RTVSPost2010Prop34
280
     0
102
RTVSPost2010PropOp34
 70
     1
102
RTVSPost2010Prop35
280
     0
102
RTVSPost2010PropOp35
 70
     1
102
RTVSPost2010Prop36
280
     0
102
RTVSPost2010PropOp36
 70
     1
102
RTVSPost2010Prop37
 90
       50
102
RTVSPost2010PropOp37
 70
     0
102
RTVSPost2010Prop38
140
0.0
102
RTVSPost2010PropOp38
 70
     0
102
RTVSPost2010Prop39
140
1.0
102
RTVSPost2010PropOp39
 70
     0
102
RTVSPost2010Prop40
 90
        0
102
RTVSPost2010PropOp40
 70
     0
102
RTVSPost2010Prop41ColorIndex
 90
       18
102
RTVSPost2010Prop41ColorRGB
 90
        0
102
RTVSPost2010PropOp41
 70
     0
102
RTVSPost2010Prop42
 90
       50
102
RTVSPost2010PropOp42
 70
     0
102
RTVSPost2010Prop43
 90
        3
102
RTVSPost2010PropOp43
 70
     0
102
RTVSPost2010Prop44ColorIndex
 90
        5
102
RTVSPost2010Prop44ColorRGB
 90
      255
102
RTVSPost2010PropOp44
 70
     0
102
RTVSPost2010Prop45
280
     0
102
RTVSPost2010PropOp45
 70
     1
102
RTVSPost2010Prop46
 90
       50
102
RTVSPost2010PropOp46
 70
     0
102
RTVSPost2010Prop47
 90
       50
102
RTVSPost2010PropOp47
 70
     0
102
RTVSPost2010Prop48
 90
       50
102
RTVSPost2010PropOp48
 70
     0
102
RTVSPost2010Prop49
280
     0
102
RTVSPost2010PropOp49
 70
     1
102
RTVSPost2010Prop50
 90
       50
102
RTVSPost2010PropOp50
 70
     0
102
RTVSPost2010Prop51ColorIndex
 90
      256
102
RTVSPost2010Prop51ColorRGB
 90
-16777216
102
RTVSPost2010PropOp51
 70
     0
102
RTVSPost2010Prop52
140
1.0
102
RTVSPost2010PropOp52
 70
     0
102
RTVSPost2010Prop53
 90
        2
102
RTVSPost2010PropOp53
 70
     0
102
RTVSPost2010Prop54
  1
strokes_ogs.tif
102
RTVSPost2010PropOp54
 70
     0
102
RTVSPost2010Prop55
280
     0
102
RTVSPost2010PropOp55
 70
     1
102
RTVSPost2010Prop56
140
1.0
102
RTVSPost2010PropOp56
 70
     0
102
RTVSPost2010Prop57
140
1.0
102
RTVSPost2010PropOp57
 70
     0
102
RTVSPropertyOp0
 70
     0
102
RTVSPropertyOp1
 70
     0
102
RTVSPropertyOp2
 70
     0
102
RTVSPropertyOp3
 70
     0
102
RTVSPropertyOp4
 70
     0
102
RTVSPropertyOp5
 70
     0
102
RTVSPropertyOp6
 70
     0
102
RTVSPropertyOp7
 70
     0
102
RTVSPropertyOp8
 70
     0
102
RTVSPropertyOp9
 70
     0
102
RTVSPropertyOp10
 70
     0
102
RTVSPropertyOp11
 70
     0
102
RTVSPropertyOp12
 70
     0
102
RTVSPropertyOp13
 70
     0
102
RTVSPropertyOp14
 70
     2
102
RTVSPropertyOp15
 70
     0
102
RTVSPropertyOp16
 70
     0
102
RTVSPropertyOp17
 70
     0
102
RTVSPropertyOp18
 70
     0
102
RTVSPropertyOp19
 70
     0
102
RTVSPropertyOp20
 70
     0
102
RTVSPropertyOp21
 70
     0
102
RTVSPropertyOp22
 70
     0
102
RTVSPropertyOp23
 70
     0
102
RTVSPropertyOp24
 70
     0
102
RTVSPropertyOp25
 70
     0
102
RTVSPropertyOp26
 70
     0
102
RTVSPropertyOp27
 70
     0
102
RTVSPropertyOp28
 70
     1
102
RTVSPropertyOp29
 70
     1
102
RTVSPropertyOp30
 70
     1
102
RTVSPropertyOp31
 70
     1
102
RTVSPropertyOp32
 70
     1
102
RTVSPropertyOp33
 70
     1
102
RTVSPropertyOp34
 70
     1
102
RTVSPropertyOp35
 70
     1
102
RTVSPropertyOp36
 70
     1
102
RTVSPropertyOp37
 70
     0
102
RTVSPropertyOp38
 70
     0
102
RTVSPropertyOp39
 70
     0
102
RTVSPropertyOp40
 70
     0
102
RTVSPropertyOp41
 70
     0
102
RTVSPropertyOp42
 70
     0
102
RTVSPropertyOp43
 70
     0
102
RTVSPropertyOp44
 70
     0
102
RTVSPropertyOp45
 70
     1
102
RTVSPropertyOp46
 70
     0
102
RTVSPropertyOp47
 70
     0
102
RTVSPropertyOp48
 70
     0
102
RTVSPropertyOp49
 70
     1
102
RTVSPropertyOp50
 70
     0
102
RTVSPropertyOp51
 70
     0
102
RTVSPropertyOp52
 70
     0
102
RTVSPropertyOp53
 70
     0
102
RTVSPropertyOp54
 70
     0
102
RTVSPropertyOp55
 70
     1
102
RTVSPropertyOp56
 70
     0
102
RTVSPropertyOp57
 70
     0
102
RTVSPropertyOp58
 70
     0
102
RTVSPropertyOp59
 70
     0
102
RTVSPropertyOp60
 70
     0
102
RTVSPropertyOp61
 70
     0
102
RTVSPropertyOp62
 70
     0
  0
XRECORD
  5
8639
102
{ACAD_REACTORS
330
8638
102
}
330
8638
100
AcDbXrecord
280
     1
102
RTVSPost2010Prop28
280
     0
102
RTVSPost2010PropOp28
 70
     1
102
RTVSPost2010Prop29
280
     1
102
RTVSPost2010PropOp29
 70
     1
102
RTVSPost2010Prop30
280
     1
102
RTVSPost2010PropOp30
 70
     1
102
RTVSPost2010Prop31
280
     0
102
RTVSPost2010PropOp31
 70
     1
102
RTVSPost2010Prop32
280
     0
102
RTVSPost2010PropOp32
 70
     1
102
RTVSPost2010Prop33
280
     0
102
RTVSPost2010PropOp33
 70
     1
102
RTVSPost2010Prop34
280
     0
102
RTVSPost2010PropOp34
 70
     1
102
RTVSPost2010Prop35
280
     0
102
RTVSPost2010PropOp35
 70
     1
102
RTVSPost2010Prop36
280
     0
102
RTVSPost2010PropOp36
 70
     1
102
RTVSPost2010Prop37
 90
       50
102
RTVSPost2010PropOp37
 70
     1
102
RTVSPost2010Prop38
140
0.0
102
RTVSPost2010PropOp38
 70
     1
102
RTVSPost2010Prop39
140
1.0
102
RTVSPost2010PropOp39
 70
     1
102
RTVSPost2010Prop40
 90
        0
102
RTVSPost2010PropOp40
 70
     1
102
RTVSPost2010Prop41ColorIndex
 90
       18
102
RTVSPost2010Prop41ColorRGB
 90
        0
102
RTVSPost2010PropOp41
 70
     1
102
RTVSPost2010Prop42
 90
       50
102
RTVSPost2010PropOp42
 70
     1
102
RTVSPost2010Prop43
 90
        3
102
RTVSPost2010PropOp43
 70
     1
102
RTVSPost2010Prop44ColorIndex
 90
        5
102
RTVSPost2010Prop44ColorRGB
 90
      255
102
RTVSPost2010PropOp44
 70
     1
102
RTVSPost2010Prop45
280
     0
102
RTVSPost2010PropOp45
 70
     1
102
RTVSPost2010Prop46
 90
       50
102
RTVSPost2010PropOp46
 70
     1
102
RTVSPost2010Prop47
 90
       50
102
RTVSPost2010PropOp47
 70
     1
102
RTVSPost2010Prop48
 90
       50
102
RTVSPost2010PropOp48
 70
     1
102
RTVSPost2010Prop49
280
     0
102
RTVSPost2010PropOp49
 70
     1
102
RTVSPost2010Prop50
 90
       50
102
RTVSPost2010PropOp50
 70
     1
102
RTVSPost2010Prop51ColorIndex
 90
      256
102
RTVSPost2010Prop51ColorRGB
 90
-16777216
102
RTVSPost2010PropOp51
 70
     0
102
RTVSPost2010Prop52
140
1.0
102
RTVSPost2010PropOp52
 70
     0
102
RTVSPost2010Prop53
 90
        2
102
RTVSPost2010PropOp53
 70
     1
102
RTVSPost2010Prop54
  1
strokes_ogs.tif
102
RTVSPost2010PropOp54
 70
     1
102
RTVSPost2010Prop55
280
     0
102
RTVSPost2010PropOp55
 70
     1
102
RTVSPost2010Prop56
140
1.0
102
RTVSPost2010PropOp56
 70
     1
102
RTVSPost2010Prop57
140
1.0
102
RTVSPost2010PropOp57
 70
     1
102
RTVSPropertyOp0
 70
     1
102
RTVSPropertyOp1
 70
     1
102
RTVSPropertyOp2
 70
     1
102
RTVSPropertyOp3
 70
     1
102
RTVSPropertyOp4
 70
     1
102
RTVSPropertyOp5
 70
     1
102
RTVSPropertyOp6
 70
     1
102
RTVSPropertyOp7
 70
     1
102
RTVSPropertyOp8
 70
     1
102
RTVSPropertyOp9
 70
     1
102
RTVSPropertyOp10
 70
     1
102
RTVSPropertyOp11
 70
     1
102
RTVSPropertyOp12
 70
     1
102
RTVSPropertyOp13
 70
     1
102
RTVSPropertyOp14
 70
     1
102
RTVSPropertyOp15
 70
     1
102
RTVSPropertyOp16
 70
     1
102
RTVSPropertyOp17
 70
     1
102
RTVSPropertyOp18
 70
     1
102
RTVSPropertyOp19
 70
     1
102
RTVSPropertyOp20
 70
     1
102
RTVSPropertyOp21
 70
     1
102
RTVSPropertyOp22
 70
     1
102
RTVSPropertyOp23
 70
     1
102
RTVSPropertyOp24
 70
     1
102
RTVSPropertyOp25
 70
     1
102
RTVSPropertyOp26
 70
     1
102
RTVSPropertyOp27
 70
     1
102
RTVSPropertyOp28
 70
     1
102
RTVSPropertyOp29
 70
     1
102
RTVSPropertyOp30
 70
     1
102
RTVSPropertyOp31
 70
     1
102
RTVSPropertyOp32
 70
     1
102
RTVSPropertyOp33
 70
     1
102
RTVSPropertyOp34
 70
     1
102
RTVSPropertyOp35
 70
     1
102
RTVSPropertyOp36
 70
     1
102
RTVSPropertyOp37
 70
     1
102
RTVSPropertyOp38
 70
     1
102
RTVSPropertyOp39
 70
     1
102
RTVSPropertyOp40
 70
     1
102
RTVSPropertyOp41
 70
     1
102
RTVSPropertyOp42
 70
     1
102
RTVSPropertyOp43
 70
     1
102
RTVSPropertyOp44
 70
     1
102
RTVSPropertyOp45
 70
     1
102
RTVSPropertyOp46
 70
     1
102
RTVSPropertyOp47
 70
     1
102
RTVSPropertyOp48
 70
     1
102
RTVSPropertyOp49
 70
     1
102
RTVSPropertyOp50
 70
     1
102
RTVSPropertyOp51
 70
     0
102
RTVSPropertyOp52
 70
     0
102
RTVSPropertyOp53
 70
     1
102
RTVSPropertyOp54
 70
     1
102
RTVSPropertyOp55
 70
     1
102
RTVSPropertyOp56
 70
     1
102
RTVSPropertyOp57
 70
     1
102
RTVSPropertyOp58
 70
     1
102
RTVSPropertyOp59
 70
     1
102
RTVSPropertyOp60
 70
     1
102
RTVSPropertyOp61
 70
     1
102
RTVSPropertyOp62
 70
     1
  0
XRECORD
  5
861D
102
{ACAD_REACTORS
330
861C
102
}
330
861C
100
AcDbXrecord
280
     1
102
RTVSPost2010Prop28
280
     0
102
RTVSPost2010PropOp28
 70
     1
102
RTVSPost2010Prop29
280
     1
102
RTVSPost2010PropOp29
 70
     1
102
RTVSPost2010Prop30
280
     1
102
RTVSPost2010PropOp30
 70
     1
102
RTVSPost2010Prop31
280
     0
102
RTVSPost2010PropOp31
 70
     1
102
RTVSPost2010Prop32
280
     0
102
RTVSPost2010PropOp32
 70
     1
102
RTVSPost2010Prop33
280
     0
102
RTVSPost2010PropOp33
 70
     1
102
RTVSPost2010Prop34
280
     0
102
RTVSPost2010PropOp34
 70
     1
102
RTVSPost2010Prop35
280
     0
102
RTVSPost2010PropOp35
 70
     1
102
RTVSPost2010Prop36
280
     0
102
RTVSPost2010PropOp36
 70
     1
102
RTVSPost2010Prop37
 90
       50
102
RTVSPost2010PropOp37
 70
     1
102
RTVSPost2010Prop38
140
0.0
102
RTVSPost2010PropOp38
 70
     1
102
RTVSPost2010Prop39
140
1.0
102
RTVSPost2010PropOp39
 70
     1
102
RTVSPost2010Prop40
 90
        0
102
RTVSPost2010PropOp40
 70
     1
102
RTVSPost2010Prop41ColorIndex
 90
       18
102
RTVSPost2010Prop41ColorRGB
 90
        0
102
RTVSPost2010PropOp41
 70
     1
102
RTVSPost2010Prop42
 90
       50
102
RTVSPost2010PropOp42
 70
     1
102
RTVSPost2010Prop43
 90
        3
102
RTVSPost2010PropOp43
 70
     1
102
RTVSPost2010Prop44ColorIndex
 90
        5
102
RTVSPost2010Prop44ColorRGB
 90
      255
102
RTVSPost2010PropOp44
 70
     1
102
RTVSPost2010Prop45
280
     0
102
RTVSPost2010PropOp45
 70
     1
102
RTVSPost2010Prop46
 90
       50
102
RTVSPost2010PropOp46
 70
     1
102
RTVSPost2010Prop47
 90
       50
102
RTVSPost2010PropOp47
 70
     1
102
RTVSPost2010Prop48
 90
       50
102
RTVSPost2010PropOp48
 70
     1
102
RTVSPost2010Prop49
280
     0
102
RTVSPost2010PropOp49
 70
     1
102
RTVSPost2010Prop50
 90
       50
102
RTVSPost2010PropOp50
 70
     1
102
RTVSPost2010Prop51ColorIndex
 90
      256
102
RTVSPost2010Prop51ColorRGB
 90
-16777216
102
RTVSPost2010PropOp51
 70
     0
102
RTVSPost2010Prop52
140
1.0
102
RTVSPost2010PropOp52
 70
     0
102
RTVSPost2010Prop53
 90
        2
102
RTVSPost2010PropOp53
 70
     1
102
RTVSPost2010Prop54
  1
strokes_ogs.tif
102
RTVSPost2010PropOp54
 70
     1
102
RTVSPost2010Prop55
280
     0
102
RTVSPost2010PropOp55
 70
     1
102
RTVSPost2010Prop56
140
1.0
102
RTVSPost2010PropOp56
 70
     1
102
RTVSPost2010Prop57
140
1.0
102
RTVSPost2010PropOp57
 70
     1
102
RTVSPropertyOp0
 70
     1
102
RTVSPropertyOp1
 70
     1
102
RTVSPropertyOp2
 70
     1
102
RTVSPropertyOp3
 70
     1
102
RTVSPropertyOp4
 70
     1
102
RTVSPropertyOp5
 70
     1
102
RTVSPropertyOp6
 70
     1
102
RTVSPropertyOp7
 70
     1
102
RTVSPropertyOp8
 70
     1
102
RTVSPropertyOp9
 70
     1
102
RTVSPropertyOp10
 70
     1
102
RTVSPropertyOp11
 70
     1
102
RTVSPropertyOp12
 70
     1
102
RTVSPropertyOp13
 70
     1
102
RTVSPropertyOp14
 70
     1
102
RTVSPropertyOp15
 70
     1
102
RTVSPropertyOp16
 70
     1
102
RTVSPropertyOp17
 70
     1
102
RTVSPropertyOp18
 70
     1
102
RTVSPropertyOp19
 70
     1
102
RTVSPropertyOp20
 70
     1
102
RTVSPropertyOp21
 70
     1
102
RTVSPropertyOp22
 70
     1
102
RTVSPropertyOp23
 70
     1
102
RTVSPropertyOp24
 70
     1
102
RTVSPropertyOp25
 70
     1
102
RTVSPropertyOp26
 70
     1
102
RTVSPropertyOp27
 70
     1
102
RTVSPropertyOp28
 70
     1
102
RTVSPropertyOp29
 70
     1
102
RTVSPropertyOp30
 70
     1
102
RTVSPropertyOp31
 70
     1
102
RTVSPropertyOp32
 70
     1
102
RTVSPropertyOp33
 70
     1
102
RTVSPropertyOp34
 70
     1
102
RTVSPropertyOp35
 70
     1
102
RTVSPropertyOp36
 70
     1
102
RTVSPropertyOp37
 70
     1
102
RTVSPropertyOp38
 70
     1
102
RTVSPropertyOp39
 70
     1
102
RTVSPropertyOp40
 70
     1
102
RTVSPropertyOp41
 70
     1
102
RTVSPropertyOp42
 70
     1
102
RTVSPropertyOp43
 70
     1
102
RTVSPropertyOp44
 70
     1
102
RTVSPropertyOp45
 70
     1
102
RTVSPropertyOp46
 70
     1
102
RTVSPropertyOp47
 70
     1
102
RTVSPropertyOp48
 70
     1
102
RTVSPropertyOp49
 70
     1
102
RTVSPropertyOp50
 70
     1
102
RTVSPropertyOp51
 70
     0
102
RTVSPropertyOp52
 70
     0
102
RTVSPropertyOp53
 70
     1
102
RTVSPropertyOp54
 70
     1
102
RTVSPropertyOp55
 70
     1
102
RTVSPropertyOp56
 70
     1
102
RTVSPropertyOp57
 70
     1
102
RTVSPropertyOp58
 70
     1
102
RTVSPropertyOp59
 70
     1
102
RTVSPropertyOp60
 70
     1
102
RTVSPropertyOp61
 70
     1
102
RTVSPropertyOp62
 70
     1
  0
XRECORD
  5
861F
102
{ACAD_REACTORS
330
861E
102
}
330
861E
100
AcDbXrecord
280
     1
102
RTVSPost2010Prop28
280
     0
102
RTVSPost2010PropOp28
 70
     1
102
RTVSPost2010Prop29
280
     1
102
RTVSPost2010PropOp29
 70
     1
102
RTVSPost2010Prop30
280
     1
102
RTVSPost2010PropOp30
 70
     1
102
RTVSPost2010Prop31
280
     0
102
RTVSPost2010PropOp31
 70
     1
102
RTVSPost2010Prop32
280
     0
102
RTVSPost2010PropOp32
 70
     1
102
RTVSPost2010Prop33
280
     0
102
RTVSPost2010PropOp33
 70
     1
102
RTVSPost2010Prop34
280
     0
102
RTVSPost2010PropOp34
 70
     1
102
RTVSPost2010Prop35
280
     0
102
RTVSPost2010PropOp35
 70
     1
102
RTVSPost2010Prop36
280
     0
102
RTVSPost2010PropOp36
 70
     1
102
RTVSPost2010Prop37
 90
       50
102
RTVSPost2010PropOp37
 70
     1
102
RTVSPost2010Prop38
140
0.0
102
RTVSPost2010PropOp38
 70
     1
102
RTVSPost2010Prop39
140
1.0
102
RTVSPost2010PropOp39
 70
     1
102
RTVSPost2010Prop40
 90
        0
102
RTVSPost2010PropOp40
 70
     1
102
RTVSPost2010Prop41ColorIndex
 90
       18
102
RTVSPost2010Prop41ColorRGB
 90
        0
102
RTVSPost2010PropOp41
 70
     1
102
RTVSPost2010Prop42
 90
       50
102
RTVSPost2010PropOp42
 70
     1
102
RTVSPost2010Prop43
 90
        3
102
RTVSPost2010PropOp43
 70
     1
102
RTVSPost2010Prop44ColorIndex
 90
        5
102
RTVSPost2010Prop44ColorRGB
 90
      255
102
RTVSPost2010PropOp44
 70
     1
102
RTVSPost2010Prop45
280
     0
102
RTVSPost2010PropOp45
 70
     1
102
RTVSPost2010Prop46
 90
       50
102
RTVSPost2010PropOp46
 70
     1
102
RTVSPost2010Prop47
 90
       50
102
RTVSPost2010PropOp47
 70
     1
102
RTVSPost2010Prop48
 90
       50
102
RTVSPost2010PropOp48
 70
     1
102
RTVSPost2010Prop49
280
     0
102
RTVSPost2010PropOp49
 70
     1
102
RTVSPost2010Prop50
 90
       50
102
RTVSPost2010PropOp50
 70
     1
102
RTVSPost2010Prop51ColorIndex
 90
      256
102
RTVSPost2010Prop51ColorRGB
 90
-16777216
102
RTVSPost2010PropOp51
 70
     0
102
RTVSPost2010Prop52
140
1.0
102
RTVSPost2010PropOp52
 70
     0
102
RTVSPost2010Prop53
 90
        2
102
RTVSPost2010PropOp53
 70
     1
102
RTVSPost2010Prop54
  1
strokes_ogs.tif
102
RTVSPost2010PropOp54
 70
     1
102
RTVSPost2010Prop55
280
     0
102
RTVSPost2010PropOp55
 70
     1
102
RTVSPost2010Prop56
140
1.0
102
RTVSPost2010PropOp56
 70
     1
102
RTVSPost2010Prop57
140
1.0
102
RTVSPost2010PropOp57
 70
     1
102
RTVSPropertyOp0
 70
     1
102
RTVSPropertyOp1
 70
     1
102
RTVSPropertyOp2
 70
     1
102
RTVSPropertyOp3
 70
     1
102
RTVSPropertyOp4
 70
     1
102
RTVSPropertyOp5
 70
     1
102
RTVSPropertyOp6
 70
     1
102
RTVSPropertyOp7
 70
     1
102
RTVSPropertyOp8
 70
     1
102
RTVSPropertyOp9
 70
     1
102
RTVSPropertyOp10
 70
     1
102
RTVSPropertyOp11
 70
     1
102
RTVSPropertyOp12
 70
     1
102
RTVSPropertyOp13
 70
     1
102
RTVSPropertyOp14
 70
     1
102
RTVSPropertyOp15
 70
     1
102
RTVSPropertyOp16
 70
     1
102
RTVSPropertyOp17
 70
     1
102
RTVSPropertyOp18
 70
     1
102
RTVSPropertyOp19
 70
     1
102
RTVSPropertyOp20
 70
     1
102
RTVSPropertyOp21
 70
     1
102
RTVSPropertyOp22
 70
     1
102
RTVSPropertyOp23
 70
     1
102
RTVSPropertyOp24
 70
     1
102
RTVSPropertyOp25
 70
     1
102
RTVSPropertyOp26
 70
     1
102
RTVSPropertyOp27
 70
     1
102
RTVSPropertyOp28
 70
     1
102
RTVSPropertyOp29
 70
     1
102
RTVSPropertyOp30
 70
     1
102
RTVSPropertyOp31
 70
     1
102
RTVSPropertyOp32
 70
     1
102
RTVSPropertyOp33
 70
     1
102
RTVSPropertyOp34
 70
     1
102
RTVSPropertyOp35
 70
     1
102
RTVSPropertyOp36
 70
     1
102
RTVSPropertyOp37
 70
     1
102
RTVSPropertyOp38
 70
     1
102
RTVSPropertyOp39
 70
     1
102
RTVSPropertyOp40
 70
     1
102
RTVSPropertyOp41
 70
     1
102
RTVSPropertyOp42
 70
     1
102
RTVSPropertyOp43
 70
     1
102
RTVSPropertyOp44
 70
     1
102
RTVSPropertyOp45
 70
     1
102
RTVSPropertyOp46
 70
     1
102
RTVSPropertyOp47
 70
     1
102
RTVSPropertyOp48
 70
     1
102
RTVSPropertyOp49
 70
     1
102
RTVSPropertyOp50
 70
     1
102
RTVSPropertyOp51
 70
     0
102
RTVSPropertyOp52
 70
     0
102
RTVSPropertyOp53
 70
     1
102
RTVSPropertyOp54
 70
     1
102
RTVSPropertyOp55
 70
     1
102
RTVSPropertyOp56
 70
     1
102
RTVSPropertyOp57
 70
     1
102
RTVSPropertyOp58
 70
     1
102
RTVSPropertyOp59
 70
     1
102
RTVSPropertyOp60
 70
     1
102
RTVSPropertyOp61
 70
     1
102
RTVSPropertyOp62
 70
     1
  0
XRECORD
  5
8621
102
{ACAD_REACTORS
330
8620
102
}
330
8620
100
AcDbXrecord
280
     1
102
RTVSPost2010Prop28
280
     0
102
RTVSPost2010PropOp28
 70
     1
102
RTVSPost2010Prop29
280
     1
102
RTVSPost2010PropOp29
 70
     1
102
RTVSPost2010Prop30
280
     1
102
RTVSPost2010PropOp30
 70
     1
102
RTVSPost2010Prop31
280
     0
102
RTVSPost2010PropOp31
 70
     1
102
RTVSPost2010Prop32
280
     0
102
RTVSPost2010PropOp32
 70
     1
102
RTVSPost2010Prop33
280
     0
102
RTVSPost2010PropOp33
 70
     1
102
RTVSPost2010Prop34
280
     0
102
RTVSPost2010PropOp34
 70
     1
102
RTVSPost2010Prop35
280
     0
102
RTVSPost2010PropOp35
 70
     1
102
RTVSPost2010Prop36
280
     0
102
RTVSPost2010PropOp36
 70
     1
102
RTVSPost2010Prop37
 90
       50
102
RTVSPost2010PropOp37
 70
     1
102
RTVSPost2010Prop38
140
0.0
102
RTVSPost2010PropOp38
 70
     1
102
RTVSPost2010Prop39
140
1.0
102
RTVSPost2010PropOp39
 70
     1
102
RTVSPost2010Prop40
 90
        0
102
RTVSPost2010PropOp40
 70
     1
102
RTVSPost2010Prop41ColorIndex
 90
       18
102
RTVSPost2010Prop41ColorRGB
 90
        0
102
RTVSPost2010PropOp41
 70
     1
102
RTVSPost2010Prop42
 90
       50
102
RTVSPost2010PropOp42
 70
     1
102
RTVSPost2010Prop43
 90
        3
102
RTVSPost2010PropOp43
 70
     1
102
RTVSPost2010Prop44ColorIndex
 90
        5
102
RTVSPost2010Prop44ColorRGB
 90
      255
102
RTVSPost2010PropOp44
 70
     1
102
RTVSPost2010Prop45
280
     0
102
RTVSPost2010PropOp45
 70
     1
102
RTVSPost2010Prop46
 90
       50
102
RTVSPost2010PropOp46
 70
     1
102
RTVSPost2010Prop47
 90
       50
102
RTVSPost2010PropOp47
 70
     1
102
RTVSPost2010Prop48
 90
       50
102
RTVSPost2010PropOp48
 70
     1
102
RTVSPost2010Prop49
280
     0
102
RTVSPost2010PropOp49
 70
     1
102
RTVSPost2010Prop50
 90
       50
102
RTVSPost2010PropOp50
 70
     1
102
RTVSPost2010Prop51ColorIndex
 90
      256
102
RTVSPost2010Prop51ColorRGB
 90
-16777216
102
RTVSPost2010PropOp51
 70
     0
102
RTVSPost2010Prop52
140
1.0
102
RTVSPost2010PropOp52
 70
     0
102
RTVSPost2010Prop53
 90
        2
102
RTVSPost2010PropOp53
 70
     1
102
RTVSPost2010Prop54
  1
strokes_ogs.tif
102
RTVSPost2010PropOp54
 70
     1
102
RTVSPost2010Prop55
280
     0
102
RTVSPost2010PropOp55
 70
     1
102
RTVSPost2010Prop56
140
1.0
102
RTVSPost2010PropOp56
 70
     1
102
RTVSPost2010Prop57
140
1.0
102
RTVSPost2010PropOp57
 70
     1
102
RTVSPropertyOp0
 70
     1
102
RTVSPropertyOp1
 70
     1
102
RTVSPropertyOp2
 70
     1
102
RTVSPropertyOp3
 70
     1
102
RTVSPropertyOp4
 70
     1
102
RTVSPropertyOp5
 70
     1
102
RTVSPropertyOp6
 70
     1
102
RTVSPropertyOp7
 70
     1
102
RTVSPropertyOp8
 70
     1
102
RTVSPropertyOp9
 70
     1
102
RTVSPropertyOp10
 70
     1
102
RTVSPropertyOp11
 70
     1
102
RTVSPropertyOp12
 70
     1
102
RTVSPropertyOp13
 70
     1
102
RTVSPropertyOp14
 70
     1
102
RTVSPropertyOp15
 70
     1
102
RTVSPropertyOp16
 70
     1
102
RTVSPropertyOp17
 70
     1
102
RTVSPropertyOp18
 70
     1
102
RTVSPropertyOp19
 70
     1
102
RTVSPropertyOp20
 70
     1
102
RTVSPropertyOp21
 70
     1
102
RTVSPropertyOp22
 70
     1
102
RTVSPropertyOp23
 70
     1
102
RTVSPropertyOp24
 70
     1
102
RTVSPropertyOp25
 70
     1
102
RTVSPropertyOp26
 70
     1
102
RTVSPropertyOp27
 70
     1
102
RTVSPropertyOp28
 70
     1
102
RTVSPropertyOp29
 70
     1
102
RTVSPropertyOp30
 70
     1
102
RTVSPropertyOp31
 70
     1
102
RTVSPropertyOp32
 70
     1
102
RTVSPropertyOp33
 70
     1
102
RTVSPropertyOp34
 70
     1
102
RTVSPropertyOp35
 70
     1
102
RTVSPropertyOp36
 70
     1
102
RTVSPropertyOp37
 70
     1
102
RTVSPropertyOp38
 70
     1
102
RTVSPropertyOp39
 70
     1
102
RTVSPropertyOp40
 70
     1
102
RTVSPropertyOp41
 70
     1
102
RTVSPropertyOp42
 70
     1
102
RTVSPropertyOp43
 70
     1
102
RTVSPropertyOp44
 70
     1
102
RTVSPropertyOp45
 70
     1
102
RTVSPropertyOp46
 70
     1
102
RTVSPropertyOp47
 70
     1
102
RTVSPropertyOp48
 70
     1
102
RTVSPropertyOp49
 70
     1
102
RTVSPropertyOp50
 70
     1
102
RTVSPropertyOp51
 70
     0
102
RTVSPropertyOp52
 70
     0
102
RTVSPropertyOp53
 70
     1
102
RTVSPropertyOp54
 70
     1
102
RTVSPropertyOp55
 70
     1
102
RTVSPropertyOp56
 70
     1
102
RTVSPropertyOp57
 70
     1
102
RTVSPropertyOp58
 70
     1
102
RTVSPropertyOp59
 70
     1
102
RTVSPropertyOp60
 70
     1
102
RTVSPropertyOp61
 70
     1
102
RTVSPropertyOp62
 70
     1
  0
XRECORD
  5
8623
102
{ACAD_REACTORS
330
8622
102
}
330
8622
100
AcDbXrecord
280
     1
102
RTVSPost2010Prop28
280
     0
102
RTVSPost2010PropOp28
 70
     1
102
RTVSPost2010Prop29
280
     1
102
RTVSPost2010PropOp29
 70
     1
102
RTVSPost2010Prop30
280
     1
102
RTVSPost2010PropOp30
 70
     1
102
RTVSPost2010Prop31
280
     0
102
RTVSPost2010PropOp31
 70
     1
102
RTVSPost2010Prop32
280
     0
102
RTVSPost2010PropOp32
 70
     1
102
RTVSPost2010Prop33
280
     0
102
RTVSPost2010PropOp33
 70
     1
102
RTVSPost2010Prop34
280
     0
102
RTVSPost2010PropOp34
 70
     1
102
RTVSPost2010Prop35
280
     0
102
RTVSPost2010PropOp35
 70
     1
102
RTVSPost2010Prop36
280
     0
102
RTVSPost2010PropOp36
 70
     1
102
RTVSPost2010Prop37
 90
       50
102
RTVSPost2010PropOp37
 70
     1
102
RTVSPost2010Prop38
140
0.0
102
RTVSPost2010PropOp38
 70
     1
102
RTVSPost2010Prop39
140
1.0
102
RTVSPost2010PropOp39
 70
     1
102
RTVSPost2010Prop40
 90
        0
102
RTVSPost2010PropOp40
 70
     1
102
RTVSPost2010Prop41ColorIndex
 90
       18
102
RTVSPost2010Prop41ColorRGB
 90
        0
102
RTVSPost2010PropOp41
 70
     1
102
RTVSPost2010Prop42
 90
       50
102
RTVSPost2010PropOp42
 70
     1
102
RTVSPost2010Prop43
 90
        3
102
RTVSPost2010PropOp43
 70
     1
102
RTVSPost2010Prop44ColorIndex
 90
        5
102
RTVSPost2010Prop44ColorRGB
 90
      255
102
RTVSPost2010PropOp44
 70
     1
102
RTVSPost2010Prop45
280
     0
102
RTVSPost2010PropOp45
 70
     1
102
RTVSPost2010Prop46
 90
       50
102
RTVSPost2010PropOp46
 70
     1
102
RTVSPost2010Prop47
 90
       50
102
RTVSPost2010PropOp47
 70
     1
102
RTVSPost2010Prop48
 90
       50
102
RTVSPost2010PropOp48
 70
     1
102
RTVSPost2010Prop49
280
     0
102
RTVSPost2010PropOp49
 70
     1
102
RTVSPost2010Prop50
 90
       50
102
RTVSPost2010PropOp50
 70
     1
102
RTVSPost2010Prop51ColorIndex
 90
      256
102
RTVSPost2010Prop51ColorRGB
 90
-16777216
102
RTVSPost2010PropOp51
 70
     0
102
RTVSPost2010Prop52
140
1.0
102
RTVSPost2010PropOp52
 70
     0
102
RTVSPost2010Prop53
 90
        2
102
RTVSPost2010PropOp53
 70
     1
102
RTVSPost2010Prop54
  1
strokes_ogs.tif
102
RTVSPost2010PropOp54
 70
     1
102
RTVSPost2010Prop55
280
     0
102
RTVSPost2010PropOp55
 70
     1
102
RTVSPost2010Prop56
140
1.0
102
RTVSPost2010PropOp56
 70
     1
102
RTVSPost2010Prop57
140
1.0
102
RTVSPost2010PropOp57
 70
     1
102
RTVSPropertyOp0
 70
     1
102
RTVSPropertyOp1
 70
     1
102
RTVSPropertyOp2
 70
     1
102
RTVSPropertyOp3
 70
     1
102
RTVSPropertyOp4
 70
     1
102
RTVSPropertyOp5
 70
     1
102
RTVSPropertyOp6
 70
     1
102
RTVSPropertyOp7
 70
     1
102
RTVSPropertyOp8
 70
     1
102
RTVSPropertyOp9
 70
     1
102
RTVSPropertyOp10
 70
     1
102
RTVSPropertyOp11
 70
     1
102
RTVSPropertyOp12
 70
     1
102
RTVSPropertyOp13
 70
     1
102
RTVSPropertyOp14
 70
     1
102
RTVSPropertyOp15
 70
     1
102
RTVSPropertyOp16
 70
     1
102
RTVSPropertyOp17
 70
     1
102
RTVSPropertyOp18
 70
     1
102
RTVSPropertyOp19
 70
     1
102
RTVSPropertyOp20
 70
     1
102
RTVSPropertyOp21
 70
     1
102
RTVSPropertyOp22
 70
     1
102
RTVSPropertyOp23
 70
     1
102
RTVSPropertyOp24
 70
     1
102
RTVSPropertyOp25
 70
     1
102
RTVSPropertyOp26
 70
     1
102
RTVSPropertyOp27
 70
     1
102
RTVSPropertyOp28
 70
     1
102
RTVSPropertyOp29
 70
     1
102
RTVSPropertyOp30
 70
     1
102
RTVSPropertyOp31
 70
     1
102
RTVSPropertyOp32
 70
     1
102
RTVSPropertyOp33
 70
     1
102
RTVSPropertyOp34
 70
     1
102
RTVSPropertyOp35
 70
     1
102
RTVSPropertyOp36
 70
     1
102
RTVSPropertyOp37
 70
     1
102
RTVSPropertyOp38
 70
     1
102
RTVSPropertyOp39
 70
     1
102
RTVSPropertyOp40
 70
     1
102
RTVSPropertyOp41
 70
     1
102
RTVSPropertyOp42
 70
     1
102
RTVSPropertyOp43
 70
     1
102
RTVSPropertyOp44
 70
     1
102
RTVSPropertyOp45
 70
     1
102
RTVSPropertyOp46
 70
     1
102
RTVSPropertyOp47
 70
     1
102
RTVSPropertyOp48
 70
     1
102
RTVSPropertyOp49
 70
     1
102
RTVSPropertyOp50
 70
     1
102
RTVSPropertyOp51
 70
     0
102
RTVSPropertyOp52
 70
     0
102
RTVSPropertyOp53
 70
     1
102
RTVSPropertyOp54
 70
     1
102
RTVSPropertyOp55
 70
     1
102
RTVSPropertyOp56
 70
     1
102
RTVSPropertyOp57
 70
     1
102
RTVSPropertyOp58
 70
     1
102
RTVSPropertyOp59
 70
     1
102
RTVSPropertyOp60
 70
     1
102
RTVSPropertyOp61
 70
     1
102
RTVSPropertyOp62
 70
     1
  0
XRECORD
  5
862B
102
{ACAD_REACTORS
330
862A
102
}
330
862A
100
AcDbXrecord
280
     1
102
RTVSPost2010Prop28
280
     0
102
RTVSPost2010PropOp28
 70
     1
102
RTVSPost2010Prop29
280
     1
102
RTVSPost2010PropOp29
 70
     1
102
RTVSPost2010Prop30
280
     1
102
RTVSPost2010PropOp30
 70
     1
102
RTVSPost2010Prop31
280
     0
102
RTVSPost2010PropOp31
 70
     1
102
RTVSPost2010Prop32
280
     0
102
RTVSPost2010PropOp32
 70
     1
102
RTVSPost2010Prop33
280
     0
102
RTVSPost2010PropOp33
 70
     1
102
RTVSPost2010Prop34
280
     0
102
RTVSPost2010PropOp34
 70
     1
102
RTVSPost2010Prop35
280
     0
102
RTVSPost2010PropOp35
 70
     1
102
RTVSPost2010Prop36
280
     0
102
RTVSPost2010PropOp36
 70
     1
102
RTVSPost2010Prop37
 90
       50
102
RTVSPost2010PropOp37
 70
     1
102
RTVSPost2010Prop38
140
0.0
102
RTVSPost2010PropOp38
 70
     1
102
RTVSPost2010Prop39
140
1.0
102
RTVSPost2010PropOp39
 70
     1
102
RTVSPost2010Prop40
 90
        0
102
RTVSPost2010PropOp40
 70
     1
102
RTVSPost2010Prop41ColorIndex
 90
       18
102
RTVSPost2010Prop41ColorRGB
 90
        0
102
RTVSPost2010PropOp41
 70
     1
102
RTVSPost2010Prop42
 90
       50
102
RTVSPost2010PropOp42
 70
     1
102
RTVSPost2010Prop43
 90
        3
102
RTVSPost2010PropOp43
 70
     1
102
RTVSPost2010Prop44ColorIndex
 90
        5
102
RTVSPost2010Prop44ColorRGB
 90
      255
102
RTVSPost2010PropOp44
 70
     1
102
RTVSPost2010Prop45
280
     0
102
RTVSPost2010PropOp45
 70
     1
102
RTVSPost2010Prop46
 90
       50
102
RTVSPost2010PropOp46
 70
     1
102
RTVSPost2010Prop47
 90
       50
102
RTVSPost2010PropOp47
 70
     1
102
RTVSPost2010Prop48
 90
       50
102
RTVSPost2010PropOp48
 70
     1
102
RTVSPost2010Prop49
280
     0
102
RTVSPost2010PropOp49
 70
     1
102
RTVSPost2010Prop50
 90
       50
102
RTVSPost2010PropOp50
 70
     1
102
RTVSPost2010Prop51ColorIndex
 90
      256
102
RTVSPost2010Prop51ColorRGB
 90
-16777216
102
RTVSPost2010PropOp51
 70
     0
102
RTVSPost2010Prop52
140
1.0
102
RTVSPost2010PropOp52
 70
     0
102
RTVSPost2010Prop53
 90
        2
102
RTVSPost2010PropOp53
 70
     1
102
RTVSPost2010Prop54
  1
strokes_ogs.tif
102
RTVSPost2010PropOp54
 70
     1
102
RTVSPost2010Prop55
280
     0
102
RTVSPost2010PropOp55
 70
     1
102
RTVSPost2010Prop56
140
1.0
102
RTVSPost2010PropOp56
 70
     1
102
RTVSPost2010Prop57
140
1.0
102
RTVSPost2010PropOp57
 70
     1
102
RTVSPropertyOp0
 70
     1
102
RTVSPropertyOp1
 70
     1
102
RTVSPropertyOp2
 70
     1
102
RTVSPropertyOp3
 70
     1
102
RTVSPropertyOp4
 70
     1
102
RTVSPropertyOp5
 70
     1
102
RTVSPropertyOp6
 70
     1
102
RTVSPropertyOp7
 70
     1
102
RTVSPropertyOp8
 70
     1
102
RTVSPropertyOp9
 70
     1
102
RTVSPropertyOp10
 70
     1
102
RTVSPropertyOp11
 70
     1
102
RTVSPropertyOp12
 70
     1
102
RTVSPropertyOp13
 70
     1
102
RTVSPropertyOp14
 70
     1
102
RTVSPropertyOp15
 70
     1
102
RTVSPropertyOp16
 70
     1
102
RTVSPropertyOp17
 70
     1
102
RTVSPropertyOp18
 70
     1
102
RTVSPropertyOp19
 70
     1
102
RTVSPropertyOp20
 70
     1
102
RTVSPropertyOp21
 70
     1
102
RTVSPropertyOp22
 70
     1
102
RTVSPropertyOp23
 70
     1
102
RTVSPropertyOp24
 70
     1
102
RTVSPropertyOp25
 70
     1
102
RTVSPropertyOp26
 70
     1
102
RTVSPropertyOp27
 70
     1
102
RTVSPropertyOp28
 70
     1
102
RTVSPropertyOp29
 70
     1
102
RTVSPropertyOp30
 70
     1
102
RTVSPropertyOp31
 70
     1
102
RTVSPropertyOp32
 70
     1
102
RTVSPropertyOp33
 70
     1
102
RTVSPropertyOp34
 70
     1
102
RTVSPropertyOp35
 70
     1
102
RTVSPropertyOp36
 70
     1
102
RTVSPropertyOp37
 70
     1
102
RTVSPropertyOp38
 70
     1
102
RTVSPropertyOp39
 70
     1
102
RTVSPropertyOp40
 70
     1
102
RTVSPropertyOp41
 70
     1
102
RTVSPropertyOp42
 70
     1
102
RTVSPropertyOp43
 70
     1
102
RTVSPropertyOp44
 70
     1
102
RTVSPropertyOp45
 70
     1
102
RTVSPropertyOp46
 70
     1
102
RTVSPropertyOp47
 70
     1
102
RTVSPropertyOp48
 70
     1
102
RTVSPropertyOp49
 70
     1
102
RTVSPropertyOp50
 70
     1
102
RTVSPropertyOp51
 70
     0
102
RTVSPropertyOp52
 70
     0
102
RTVSPropertyOp53
 70
     1
102
RTVSPropertyOp54
 70
     1
102
RTVSPropertyOp55
 70
     1
102
RTVSPropertyOp56
 70
     1
102
RTVSPropertyOp57
 70
     1
102
RTVSPropertyOp58
 70
     1
102
RTVSPropertyOp59
 70
     1
102
RTVSPropertyOp60
 70
     1
102
RTVSPropertyOp61
 70
     1
102
RTVSPropertyOp62
 70
     1
  0
XRECORD
  5
8647
102
{ACAD_REACTORS
330
8646
102
}
330
8646
100
AcDbXrecord
280
     1
102
RTVSPost2010Prop28
280
     0
102
RTVSPost2010PropOp28
 70
     1
102
RTVSPost2010Prop29
280
     1
102
RTVSPost2010PropOp29
 70
     1
102
RTVSPost2010Prop30
280
     1
102
RTVSPost2010PropOp30
 70
     1
102
RTVSPost2010Prop31
280
     0
102
RTVSPost2010PropOp31
 70
     1
102
RTVSPost2010Prop32
280
     0
102
RTVSPost2010PropOp32
 70
     1
102
RTVSPost2010Prop33
280
     0
102
RTVSPost2010PropOp33
 70
     1
102
RTVSPost2010Prop34
280
     0
102
RTVSPost2010PropOp34
 70
     1
102
RTVSPost2010Prop35
280
     0
102
RTVSPost2010PropOp35
 70
     1
102
RTVSPost2010Prop36
280
     0
102
RTVSPost2010PropOp36
 70
     1
102
RTVSPost2010Prop37
 90
       50
102
RTVSPost2010PropOp37
 70
     0
102
RTVSPost2010Prop38
140
0.0
102
RTVSPost2010PropOp38
 70
     0
102
RTVSPost2010Prop39
140
1.0
102
RTVSPost2010PropOp39
 70
     0
102
RTVSPost2010Prop40
 90
        0
102
RTVSPost2010PropOp40
 70
     0
102
RTVSPost2010Prop41ColorIndex
 90
       18
102
RTVSPost2010Prop41ColorRGB
 90
        0
102
RTVSPost2010PropOp41
 70
     0
102
RTVSPost2010Prop42
 90
       50
102
RTVSPost2010PropOp42
 70
     0
102
RTVSPost2010Prop43
 90
        3
102
RTVSPost2010PropOp43
 70
     0
102
RTVSPost2010Prop44ColorIndex
 90
        5
102
RTVSPost2010Prop44ColorRGB
 90
      255
102
RTVSPost2010PropOp44
 70
     0
102
RTVSPost2010Prop45
280
     0
102
RTVSPost2010PropOp45
 70
     1
102
RTVSPost2010Prop46
 90
       50
102
RTVSPost2010PropOp46
 70
     0
102
RTVSPost2010Prop47
 90
       50
102
RTVSPost2010PropOp47
 70
     0
102
RTVSPost2010Prop48
 90
       50
102
RTVSPost2010PropOp48
 70
     0
102
RTVSPost2010Prop49
280
     0
102
RTVSPost2010PropOp49
 70
     1
102
RTVSPost2010Prop50
 90
       50
102
RTVSPost2010PropOp50
 70
     0
102
RTVSPost2010Prop51ColorIndex
 90
      256
102
RTVSPost2010Prop51ColorRGB
 90
-16777216
102
RTVSPost2010PropOp51
 70
     0
102
RTVSPost2010Prop52
140
1.0
102
RTVSPost2010PropOp52
 70
     0
102
RTVSPost2010Prop53
 90
        2
102
RTVSPost2010PropOp53
 70
     0
102
RTVSPost2010Prop54
  1
strokes_ogs.tif
102
RTVSPost2010PropOp54
 70
     0
102
RTVSPost2010Prop55
280
     0
102
RTVSPost2010PropOp55
 70
     1
102
RTVSPost2010Prop56
140
1.0
102
RTVSPost2010PropOp56
 70
     0
102
RTVSPost2010Prop57
140
1.0
102
RTVSPost2010PropOp57
 70
     0
102
RTVSPropertyOp0
 70
     0
102
RTVSPropertyOp1
 70
     0
102
RTVSPropertyOp2
 70
     0
102
RTVSPropertyOp3
 70
     0
102
RTVSPropertyOp4
 70
     0
102
RTVSPropertyOp5
 70
     0
102
RTVSPropertyOp6
 70
     0
102
RTVSPropertyOp7
 70
     0
102
RTVSPropertyOp8
 70
     0
102
RTVSPropertyOp9
 70
     0
102
RTVSPropertyOp10
 70
     0
102
RTVSPropertyOp11
 70
     0
102
RTVSPropertyOp12
 70
     0
102
RTVSPropertyOp13
 70
     0
102
RTVSPropertyOp14
 70
     2
102
RTVSPropertyOp15
 70
     0
102
RTVSPropertyOp16
 70
     0
102
RTVSPropertyOp17
 70
     0
102
RTVSPropertyOp18
 70
     0
102
RTVSPropertyOp19
 70
     0
102
RTVSPropertyOp20
 70
     0
102
RTVSPropertyOp21
 70
     0
102
RTVSPropertyOp22
 70
     0
102
RTVSPropertyOp23
 70
     0
102
RTVSPropertyOp24
 70
     0
102
RTVSPropertyOp25
 70
     0
102
RTVSPropertyOp26
 70
     0
102
RTVSPropertyOp27
 70
     0
102
RTVSPropertyOp28
 70
     1
102
RTVSPropertyOp29
 70
     1
102
RTVSPropertyOp30
 70
     1
102
RTVSPropertyOp31
 70
     1
102
RTVSPropertyOp32
 70
     1
102
RTVSPropertyOp33
 70
     1
102
RTVSPropertyOp34
 70
     1
102
RTVSPropertyOp35
 70
     1
102
RTVSPropertyOp36
 70
     1
102
RTVSPropertyOp37
 70
     0
102
RTVSPropertyOp38
 70
     0
102
RTVSPropertyOp39
 70
     0
102
RTVSPropertyOp40
 70
     0
102
RTVSPropertyOp41
 70
     0
102
RTVSPropertyOp42
 70
     0
102
RTVSPropertyOp43
 70
     0
102
RTVSPropertyOp44
 70
     0
102
RTVSPropertyOp45
 70
     1
102
RTVSPropertyOp46
 70
     0
102
RTVSPropertyOp47
 70
     0
102
RTVSPropertyOp48
 70
     0
102
RTVSPropertyOp49
 70
     1
102
RTVSPropertyOp50
 70
     0
102
RTVSPropertyOp51
 70
     0
102
RTVSPropertyOp52
 70
     0
102
RTVSPropertyOp53
 70
     0
102
RTVSPropertyOp54
 70
     0
102
RTVSPropertyOp55
 70
     1
102
RTVSPropertyOp56
 70
     0
102
RTVSPropertyOp57
 70
     0
102
RTVSPropertyOp58
 70
     0
102
RTVSPropertyOp59
 70
     0
102
RTVSPropertyOp60
 70
     0
102
RTVSPropertyOp61
 70
     0
102
RTVSPropertyOp62
 70
     0
  0
XRECORD
  5
8637
102
{ACAD_REACTORS
330
8636
102
}
330
8636
100
AcDbXrecord
280
     1
102
RTVSPost2010Prop28
280
     0
102
RTVSPost2010PropOp28
 70
     1
102
RTVSPost2010Prop29
280
     1
102
RTVSPost2010PropOp29
 70
     1
102
RTVSPost2010Prop30
280
     1
102
RTVSPost2010PropOp30
 70
     1
102
RTVSPost2010Prop31
280
     0
102
RTVSPost2010PropOp31
 70
     1
102
RTVSPost2010Prop32
280
     0
102
RTVSPost2010PropOp32
 70
     1
102
RTVSPost2010Prop33
280
     0
102
RTVSPost2010PropOp33
 70
     1
102
RTVSPost2010Prop34
280
     0
102
RTVSPost2010PropOp34
 70
     1
102
RTVSPost2010Prop35
280
     0
102
RTVSPost2010PropOp35
 70
     1
102
RTVSPost2010Prop36
280
     0
102
RTVSPost2010PropOp36
 70
     1
102
RTVSPost2010Prop37
 90
       50
102
RTVSPost2010PropOp37
 70
     1
102
RTVSPost2010Prop38
140
0.0
102
RTVSPost2010PropOp38
 70
     1
102
RTVSPost2010Prop39
140
1.0
102
RTVSPost2010PropOp39
 70
     1
102
RTVSPost2010Prop40
 90
        0
102
RTVSPost2010PropOp40
 70
     1
102
RTVSPost2010Prop41ColorIndex
 90
       18
102
RTVSPost2010Prop41ColorRGB
 90
        0
102
RTVSPost2010PropOp41
 70
     1
102
RTVSPost2010Prop42
 90
       50
102
RTVSPost2010PropOp42
 70
     1
102
RTVSPost2010Prop43
 90
        3
102
RTVSPost2010PropOp43
 70
     1
102
RTVSPost2010Prop44ColorIndex
 90
        5
102
RTVSPost2010Prop44ColorRGB
 90
      255
102
RTVSPost2010PropOp44
 70
     1
102
RTVSPost2010Prop45
280
     0
102
RTVSPost2010PropOp45
 70
     1
102
RTVSPost2010Prop46
 90
       50
102
RTVSPost2010PropOp46
 70
     1
102
RTVSPost2010Prop47
 90
       50
102
RTVSPost2010PropOp47
 70
     1
102
RTVSPost2010Prop48
 90
       50
102
RTVSPost2010PropOp48
 70
     1
102
RTVSPost2010Prop49
280
     0
102
RTVSPost2010PropOp49
 70
     1
102
RTVSPost2010Prop50
 90
       50
102
RTVSPost2010PropOp50
 70
     1
102
RTVSPost2010Prop51ColorIndex
 90
      256
102
RTVSPost2010Prop51ColorRGB
 90
-16777216
102
RTVSPost2010PropOp51
 70
     0
102
RTVSPost2010Prop52
140
1.0
102
RTVSPost2010PropOp52
 70
     0
102
RTVSPost2010Prop53
 90
        2
102
RTVSPost2010PropOp53
 70
     1
102
RTVSPost2010Prop54
  1
strokes_ogs.tif
102
RTVSPost2010PropOp54
 70
     1
102
RTVSPost2010Prop55
280
     0
102
RTVSPost2010PropOp55
 70
     1
102
RTVSPost2010Prop56
140
1.0
102
RTVSPost2010PropOp56
 70
     1
102
RTVSPost2010Prop57
140
1.0
102
RTVSPost2010PropOp57
 70
     1
102
RTVSPropertyOp0
 70
     1
102
RTVSPropertyOp1
 70
     1
102
RTVSPropertyOp2
 70
     1
102
RTVSPropertyOp3
 70
     1
102
RTVSPropertyOp4
 70
     1
102
RTVSPropertyOp5
 70
     1
102
RTVSPropertyOp6
 70
     1
102
RTVSPropertyOp7
 70
     1
102
RTVSPropertyOp8
 70
     1
102
RTVSPropertyOp9
 70
     1
102
RTVSPropertyOp10
 70
     1
102
RTVSPropertyOp11
 70
     1
102
RTVSPropertyOp12
 70
     1
102
RTVSPropertyOp13
 70
     1
102
RTVSPropertyOp14
 70
     1
102
RTVSPropertyOp15
 70
     1
102
RTVSPropertyOp16
 70
     1
102
RTVSPropertyOp17
 70
     1
102
RTVSPropertyOp18
 70
     1
102
RTVSPropertyOp19
 70
     1
102
RTVSPropertyOp20
 70
     1
102
RTVSPropertyOp21
 70
     1
102
RTVSPropertyOp22
 70
     1
102
RTVSPropertyOp23
 70
     1
102
RTVSPropertyOp24
 70
     1
102
RTVSPropertyOp25
 70
     1
102
RTVSPropertyOp26
 70
     1
102
RTVSPropertyOp27
 70
     1
102
RTVSPropertyOp28
 70
     1
102
RTVSPropertyOp29
 70
     1
102
RTVSPropertyOp30
 70
     1
102
RTVSPropertyOp31
 70
     1
102
RTVSPropertyOp32
 70
     1
102
RTVSPropertyOp33
 70
     1
102
RTVSPropertyOp34
 70
     1
102
RTVSPropertyOp35
 70
     1
102
RTVSPropertyOp36
 70
     1
102
RTVSPropertyOp37
 70
     1
102
RTVSPropertyOp38
 70
     1
102
RTVSPropertyOp39
 70
     1
102
RTVSPropertyOp40
 70
     1
102
RTVSPropertyOp41
 70
     1
102
RTVSPropertyOp42
 70
     1
102
RTVSPropertyOp43
 70
     1
102
RTVSPropertyOp44
 70
     1
102
RTVSPropertyOp45
 70
     1
102
RTVSPropertyOp46
 70
     1
102
RTVSPropertyOp47
 70
     1
102
RTVSPropertyOp48
 70
     1
102
RTVSPropertyOp49
 70
     1
102
RTVSPropertyOp50
 70
     1
102
RTVSPropertyOp51
 70
     0
102
RTVSPropertyOp52
 70
     0
102
RTVSPropertyOp53
 70
     1
102
RTVSPropertyOp54
 70
     1
102
RTVSPropertyOp55
 70
     1
102
RTVSPropertyOp56
 70
     1
102
RTVSPropertyOp57
 70
     1
102
RTVSPropertyOp58
 70
     1
102
RTVSPropertyOp59
 70
     1
102
RTVSPropertyOp60
 70
     1
102
RTVSPropertyOp61
 70
     1
102
RTVSPropertyOp62
 70
     1
  0
XRECORD
  5
8649
102
{ACAD_REACTORS
330
8648
102
}
330
8648
100
AcDbXrecord
280
     1
102
RTVSPost2010Prop28
280
     0
102
RTVSPost2010PropOp28
 70
     1
102
RTVSPost2010Prop29
280
     1
102
RTVSPost2010PropOp29
 70
     1
102
RTVSPost2010Prop30
280
     1
102
RTVSPost2010PropOp30
 70
     1
102
RTVSPost2010Prop31
280
     0
102
RTVSPost2010PropOp31
 70
     1
102
RTVSPost2010Prop32
280
     0
102
RTVSPost2010PropOp32
 70
     1
102
RTVSPost2010Prop33
280
     0
102
RTVSPost2010PropOp33
 70
     1
102
RTVSPost2010Prop34
280
     0
102
RTVSPost2010PropOp34
 70
     1
102
RTVSPost2010Prop35
280
     0
102
RTVSPost2010PropOp35
 70
     1
102
RTVSPost2010Prop36
280
     0
102
RTVSPost2010PropOp36
 70
     1
102
RTVSPost2010Prop37
 90
       50
102
RTVSPost2010PropOp37
 70
     0
102
RTVSPost2010Prop38
140
0.0
102
RTVSPost2010PropOp38
 70
     0
102
RTVSPost2010Prop39
140
1.0
102
RTVSPost2010PropOp39
 70
     0
102
RTVSPost2010Prop40
 90
        0
102
RTVSPost2010PropOp40
 70
     0
102
RTVSPost2010Prop41ColorIndex
 90
       18
102
RTVSPost2010Prop41ColorRGB
 90
        0
102
RTVSPost2010PropOp41
 70
     0
102
RTVSPost2010Prop42
 90
       50
102
RTVSPost2010PropOp42
 70
     0
102
RTVSPost2010Prop43
 90
        3
102
RTVSPost2010PropOp43
 70
     0
102
RTVSPost2010Prop44ColorIndex
 90
        5
102
RTVSPost2010Prop44ColorRGB
 90
      255
102
RTVSPost2010PropOp44
 70
     0
102
RTVSPost2010Prop45
280
     0
102
RTVSPost2010PropOp45
 70
     1
102
RTVSPost2010Prop46
 90
       50
102
RTVSPost2010PropOp46
 70
     0
102
RTVSPost2010Prop47
 90
       50
102
RTVSPost2010PropOp47
 70
     0
102
RTVSPost2010Prop48
 90
       50
102
RTVSPost2010PropOp48
 70
     0
102
RTVSPost2010Prop49
280
     0
102
RTVSPost2010PropOp49
 70
     1
102
RTVSPost2010Prop50
 90
       50
102
RTVSPost2010PropOp50
 70
     0
102
RTVSPost2010Prop51ColorIndex
 90
      256
102
RTVSPost2010Prop51ColorRGB
 90
-16777216
102
RTVSPost2010PropOp51
 70
     0
102
RTVSPost2010Prop52
140
1.0
102
RTVSPost2010PropOp52
 70
     0
102
RTVSPost2010Prop53
 90
        2
102
RTVSPost2010PropOp53
 70
     0
102
RTVSPost2010Prop54
  1
strokes_ogs.tif
102
RTVSPost2010PropOp54
 70
     0
102
RTVSPost2010Prop55
280
     0
102
RTVSPost2010PropOp55
 70
     1
102
RTVSPost2010Prop56
140
1.0
102
RTVSPost2010PropOp56
 70
     0
102
RTVSPost2010Prop57
140
1.0
102
RTVSPost2010PropOp57
 70
     0
102
RTVSPropertyOp0
 70
     0
102
RTVSPropertyOp1
 70
     0
102
RTVSPropertyOp2
 70
     0
102
RTVSPropertyOp3
 70
     0
102
RTVSPropertyOp4
 70
     0
102
RTVSPropertyOp5
 70
     0
102
RTVSPropertyOp6
 70
     0
102
RTVSPropertyOp7
 70
     0
102
RTVSPropertyOp8
 70
     0
102
RTVSPropertyOp9
 70
     0
102
RTVSPropertyOp10
 70
     0
102
RTVSPropertyOp11
 70
     0
102
RTVSPropertyOp12
 70
     0
102
RTVSPropertyOp13
 70
     0
102
RTVSPropertyOp14
 70
     2
102
RTVSPropertyOp15
 70
     0
102
RTVSPropertyOp16
 70
     0
102
RTVSPropertyOp17
 70
     0
102
RTVSPropertyOp18
 70
     0
102
RTVSPropertyOp19
 70
     0
102
RTVSPropertyOp20
 70
     0
102
RTVSPropertyOp21
 70
     0
102
RTVSPropertyOp22
 70
     0
102
RTVSPropertyOp23
 70
     0
102
RTVSPropertyOp24
 70
     0
102
RTVSPropertyOp25
 70
     0
102
RTVSPropertyOp26
 70
     0
102
RTVSPropertyOp27
 70
     0
102
RTVSPropertyOp28
 70
     1
102
RTVSPropertyOp29
 70
     1
102
RTVSPropertyOp30
 70
     1
102
RTVSPropertyOp31
 70
     1
102
RTVSPropertyOp32
 70
     1
102
RTVSPropertyOp33
 70
     1
102
RTVSPropertyOp34
 70
     1
102
RTVSPropertyOp35
 70
     1
102
RTVSPropertyOp36
 70
     1
102
RTVSPropertyOp37
 70
     0
102
RTVSPropertyOp38
 70
     0
102
RTVSPropertyOp39
 70
     0
102
RTVSPropertyOp40
 70
     0
102
RTVSPropertyOp41
 70
     0
102
RTVSPropertyOp42
 70
     0
102
RTVSPropertyOp43
 70
     0
102
RTVSPropertyOp44
 70
     0
102
RTVSPropertyOp45
 70
     1
102
RTVSPropertyOp46
 70
     0
102
RTVSPropertyOp47
 70
     0
102
RTVSPropertyOp48
 70
     0
102
RTVSPropertyOp49
 70
     1
102
RTVSPropertyOp50
 70
     0
102
RTVSPropertyOp51
 70
     0
102
RTVSPropertyOp52
 70
     0
102
RTVSPropertyOp53
 70
     0
102
RTVSPropertyOp54
 70
     0
102
RTVSPropertyOp55
 70
     1
102
RTVSPropertyOp56
 70
     0
102
RTVSPropertyOp57
 70
     0
102
RTVSPropertyOp58
 70
     0
102
RTVSPropertyOp59
 70
     0
102
RTVSPropertyOp60
 70
     0
102
RTVSPropertyOp61
 70
     0
102
RTVSPropertyOp62
 70
     0
  0
XRECORD
  5
862F
102
{ACAD_REACTORS
330
862E
102
}
330
862E
100
AcDbXrecord
280
     1
102
RTVSPost2010Prop28
280
     0
102
RTVSPost2010PropOp28
 70
     1
102
RTVSPost2010Prop29
280
     1
102
RTVSPost2010PropOp29
 70
     1
102
RTVSPost2010Prop30
280
     1
102
RTVSPost2010PropOp30
 70
     1
102
RTVSPost2010Prop31
280
     0
102
RTVSPost2010PropOp31
 70
     1
102
RTVSPost2010Prop32
280
     0
102
RTVSPost2010PropOp32
 70
     1
102
RTVSPost2010Prop33
280
     0
102
RTVSPost2010PropOp33
 70
     1
102
RTVSPost2010Prop34
280
     0
102
RTVSPost2010PropOp34
 70
     1
102
RTVSPost2010Prop35
280
     0
102
RTVSPost2010PropOp35
 70
     1
102
RTVSPost2010Prop36
280
     0
102
RTVSPost2010PropOp36
 70
     1
102
RTVSPost2010Prop37
 90
       50
102
RTVSPost2010PropOp37
 70
     1
102
RTVSPost2010Prop38
140
0.0
102
RTVSPost2010PropOp38
 70
     1
102
RTVSPost2010Prop39
140
1.0
102
RTVSPost2010PropOp39
 70
     1
102
RTVSPost2010Prop40
 90
        0
102
RTVSPost2010PropOp40
 70
     1
102
RTVSPost2010Prop41ColorIndex
 90
       18
102
RTVSPost2010Prop41ColorRGB
 90
        0
102
RTVSPost2010PropOp41
 70
     1
102
RTVSPost2010Prop42
 90
       50
102
RTVSPost2010PropOp42
 70
     1
102
RTVSPost2010Prop43
 90
        3
102
RTVSPost2010PropOp43
 70
     1
102
RTVSPost2010Prop44ColorIndex
 90
        5
102
RTVSPost2010Prop44ColorRGB
 90
      255
102
RTVSPost2010PropOp44
 70
     1
102
RTVSPost2010Prop45
280
     0
102
RTVSPost2010PropOp45
 70
     1
102
RTVSPost2010Prop46
 90
       50
102
RTVSPost2010PropOp46
 70
     1
102
RTVSPost2010Prop47
 90
       50
102
RTVSPost2010PropOp47
 70
     1
102
RTVSPost2010Prop48
 90
       50
102
RTVSPost2010PropOp48
 70
     1
102
RTVSPost2010Prop49
280
     0
102
RTVSPost2010PropOp49
 70
     1
102
RTVSPost2010Prop50
 90
       50
102
RTVSPost2010PropOp50
 70
     1
102
RTVSPost2010Prop51ColorIndex
 90
      256
102
RTVSPost2010Prop51ColorRGB
 90
-16777216
102
RTVSPost2010PropOp51
 70
     0
102
RTVSPost2010Prop52
140
1.0
102
RTVSPost2010PropOp52
 70
     0
102
RTVSPost2010Prop53
 90
        2
102
RTVSPost2010PropOp53
 70
     1
102
RTVSPost2010Prop54
  1
strokes_ogs.tif
102
RTVSPost2010PropOp54
 70
     1
102
RTVSPost2010Prop55
280
     0
102
RTVSPost2010PropOp55
 70
     1
102
RTVSPost2010Prop56
140
1.0
102
RTVSPost2010PropOp56
 70
     1
102
RTVSPost2010Prop57
140
1.0
102
RTVSPost2010PropOp57
 70
     1
102
RTVSPropertyOp0
 70
     1
102
RTVSPropertyOp1
 70
     1
102
RTVSPropertyOp2
 70
     1
102
RTVSPropertyOp3
 70
     1
102
RTVSPropertyOp4
 70
     1
102
RTVSPropertyOp5
 70
     1
102
RTVSPropertyOp6
 70
     1
102
RTVSPropertyOp7
 70
     1
102
RTVSPropertyOp8
 70
     1
102
RTVSPropertyOp9
 70
     1
102
RTVSPropertyOp10
 70
     1
102
RTVSPropertyOp11
 70
     1
102
RTVSPropertyOp12
 70
     1
102
RTVSPropertyOp13
 70
     1
102
RTVSPropertyOp14
 70
     1
102
RTVSPropertyOp15
 70
     1
102
RTVSPropertyOp16
 70
     1
102
RTVSPropertyOp17
 70
     1
102
RTVSPropertyOp18
 70
     1
102
RTVSPropertyOp19
 70
     1
102
RTVSPropertyOp20
 70
     1
102
RTVSPropertyOp21
 70
     1
102
RTVSPropertyOp22
 70
     1
102
RTVSPropertyOp23
 70
     1
102
RTVSPropertyOp24
 70
     1
102
RTVSPropertyOp25
 70
     1
102
RTVSPropertyOp26
 70
     1
102
RTVSPropertyOp27
 70
     1
102
RTVSPropertyOp28
 70
     1
102
RTVSPropertyOp29
 70
     1
102
RTVSPropertyOp30
 70
     1
102
RTVSPropertyOp31
 70
     1
102
RTVSPropertyOp32
 70
     1
102
RTVSPropertyOp33
 70
     1
102
RTVSPropertyOp34
 70
     1
102
RTVSPropertyOp35
 70
     1
102
RTVSPropertyOp36
 70
     1
102
RTVSPropertyOp37
 70
     1
102
RTVSPropertyOp38
 70
     1
102
RTVSPropertyOp39
 70
     1
102
RTVSPropertyOp40
 70
     1
102
RTVSPropertyOp41
 70
     1
102
RTVSPropertyOp42
 70
     1
102
RTVSPropertyOp43
 70
     1
102
RTVSPropertyOp44
 70
     1
102
RTVSPropertyOp45
 70
     1
102
RTVSPropertyOp46
 70
     1
102
RTVSPropertyOp47
 70
     1
102
RTVSPropertyOp48
 70
     1
102
RTVSPropertyOp49
 70
     1
102
RTVSPropertyOp50
 70
     1
102
RTVSPropertyOp51
 70
     0
102
RTVSPropertyOp52
 70
     0
102
RTVSPropertyOp53
 70
     1
102
RTVSPropertyOp54
 70
     1
102
RTVSPropertyOp55
 70
     1
102
RTVSPropertyOp56
 70
     1
102
RTVSPropertyOp57
 70
     1
102
RTVSPropertyOp58
 70
     1
102
RTVSPropertyOp59
 70
     1
102
RTVSPropertyOp60
 70
     1
102
RTVSPropertyOp61
 70
     1
102
RTVSPropertyOp62
 70
     1
  0
XRECORD
  5
8645
102
{ACAD_REACTORS
330
8644
102
}
330
8644
100
AcDbXrecord
280
     1
102
RTVSPost2010Prop28
280
     0
102
RTVSPost2010PropOp28
 70
     1
102
RTVSPost2010Prop29
280
     1
102
RTVSPost2010PropOp29
 70
     1
102
RTVSPost2010Prop30
280
     1
102
RTVSPost2010PropOp30
 70
     1
102
RTVSPost2010Prop31
280
     0
102
RTVSPost2010PropOp31
 70
     1
102
RTVSPost2010Prop32
280
     0
102
RTVSPost2010PropOp32
 70
     1
102
RTVSPost2010Prop33
280
     0
102
RTVSPost2010PropOp33
 70
     1
102
RTVSPost2010Prop34
280
     0
102
RTVSPost2010PropOp34
 70
     1
102
RTVSPost2010Prop35
280
     0
102
RTVSPost2010PropOp35
 70
     1
102
RTVSPost2010Prop36
280
     0
102
RTVSPost2010PropOp36
 70
     1
102
RTVSPost2010Prop37
 90
       50
102
RTVSPost2010PropOp37
 70
     1
102
RTVSPost2010Prop38
140
0.0
102
RTVSPost2010PropOp38
 70
     1
102
RTVSPost2010Prop39
140
1.0
102
RTVSPost2010PropOp39
 70
     1
102
RTVSPost2010Prop40
 90
        0
102
RTVSPost2010PropOp40
 70
     1
102
RTVSPost2010Prop41ColorIndex
 90
       18
102
RTVSPost2010Prop41ColorRGB
 90
        0
102
RTVSPost2010PropOp41
 70
     1
102
RTVSPost2010Prop42
 90
       50
102
RTVSPost2010PropOp42
 70
     1
102
RTVSPost2010Prop43
 90
        3
102
RTVSPost2010PropOp43
 70
     1
102
RTVSPost2010Prop44ColorIndex
 90
        5
102
RTVSPost2010Prop44ColorRGB
 90
      255
102
RTVSPost2010PropOp44
 70
     1
102
RTVSPost2010Prop45
280
     0
102
RTVSPost2010PropOp45
 70
     1
102
RTVSPost2010Prop46
 90
       50
102
RTVSPost2010PropOp46
 70
     1
102
RTVSPost2010Prop47
 90
       50
102
RTVSPost2010PropOp47
 70
     1
102
RTVSPost2010Prop48
 90
       50
102
RTVSPost2010PropOp48
 70
     1
102
RTVSPost2010Prop49
280
     0
102
RTVSPost2010PropOp49
 70
     1
102
RTVSPost2010Prop50
 90
       50
102
RTVSPost2010PropOp50
 70
     1
102
RTVSPost2010Prop51ColorIndex
 90
      256
102
RTVSPost2010Prop51ColorRGB
 90
-16777216
102
RTVSPost2010PropOp51
 70
     0
102
RTVSPost2010Prop52
140
1.0
102
RTVSPost2010PropOp52
 70
     0
102
RTVSPost2010Prop53
 90
        2
102
RTVSPost2010PropOp53
 70
     1
102
RTVSPost2010Prop54
  1
strokes_ogs.tif
102
RTVSPost2010PropOp54
 70
     1
102
RTVSPost2010Prop55
280
     0
102
RTVSPost2010PropOp55
 70
     1
102
RTVSPost2010Prop56
140
1.0
102
RTVSPost2010PropOp56
 70
     1
102
RTVSPost2010Prop57
140
1.0
102
RTVSPost2010PropOp57
 70
     1
102
RTVSPropertyOp0
 70
     1
102
RTVSPropertyOp1
 70
     1
102
RTVSPropertyOp2
 70
     1
102
RTVSPropertyOp3
 70
     1
102
RTVSPropertyOp4
 70
     1
102
RTVSPropertyOp5
 70
     1
102
RTVSPropertyOp6
 70
     1
102
RTVSPropertyOp7
 70
     1
102
RTVSPropertyOp8
 70
     1
102
RTVSPropertyOp9
 70
     1
102
RTVSPropertyOp10
 70
     1
102
RTVSPropertyOp11
 70
     1
102
RTVSPropertyOp12
 70
     1
102
RTVSPropertyOp13
 70
     1
102
RTVSPropertyOp14
 70
     1
102
RTVSPropertyOp15
 70
     1
102
RTVSPropertyOp16
 70
     1
102
RTVSPropertyOp17
 70
     1
102
RTVSPropertyOp18
 70
     1
102
RTVSPropertyOp19
 70
     1
102
RTVSPropertyOp20
 70
     1
102
RTVSPropertyOp21
 70
     1
102
RTVSPropertyOp22
 70
     1
102
RTVSPropertyOp23
 70
     1
102
RTVSPropertyOp24
 70
     1
102
RTVSPropertyOp25
 70
     1
102
RTVSPropertyOp26
 70
     1
102
RTVSPropertyOp27
 70
     1
102
RTVSPropertyOp28
 70
     1
102
RTVSPropertyOp29
 70
     1
102
RTVSPropertyOp30
 70
     1
102
RTVSPropertyOp31
 70
     1
102
RTVSPropertyOp32
 70
     1
102
RTVSPropertyOp33
 70
     1
102
RTVSPropertyOp34
 70
     1
102
RTVSPropertyOp35
 70
     1
102
RTVSPropertyOp36
 70
     1
102
RTVSPropertyOp37
 70
     1
102
RTVSPropertyOp38
 70
     1
102
RTVSPropertyOp39
 70
     1
102
RTVSPropertyOp40
 70
     1
102
RTVSPropertyOp41
 70
     1
102
RTVSPropertyOp42
 70
     1
102
RTVSPropertyOp43
 70
     1
102
RTVSPropertyOp44
 70
     1
102
RTVSPropertyOp45
 70
     1
102
RTVSPropertyOp46
 70
     1
102
RTVSPropertyOp47
 70
     1
102
RTVSPropertyOp48
 70
     1
102
RTVSPropertyOp49
 70
     1
102
RTVSPropertyOp50
 70
     1
102
RTVSPropertyOp51
 70
     0
102
RTVSPropertyOp52
 70
     0
102
RTVSPropertyOp53
 70
     1
102
RTVSPropertyOp54
 70
     1
102
RTVSPropertyOp55
 70
     1
102
RTVSPropertyOp56
 70
     1
102
RTVSPropertyOp57
 70
     1
102
RTVSPropertyOp58
 70
     1
102
RTVSPropertyOp59
 70
     1
102
RTVSPropertyOp60
 70
     1
102
RTVSPropertyOp61
 70
     1
102
RTVSPropertyOp62
 70
     1
  0
XRECORD
  5
8643
102
{ACAD_REACTORS
330
8642
102
}
330
8642
100
AcDbXrecord
280
     1
102
RTVSPost2010Prop28
280
     0
102
RTVSPost2010PropOp28
 70
     1
102
RTVSPost2010Prop29
280
     1
102
RTVSPost2010PropOp29
 70
     1
102
RTVSPost2010Prop30
280
     1
102
RTVSPost2010PropOp30
 70
     1
102
RTVSPost2010Prop31
280
     0
102
RTVSPost2010PropOp31
 70
     1
102
RTVSPost2010Prop32
280
     0
102
RTVSPost2010PropOp32
 70
     1
102
RTVSPost2010Prop33
280
     0
102
RTVSPost2010PropOp33
 70
     1
102
RTVSPost2010Prop34
280
     0
102
RTVSPost2010PropOp34
 70
     1
102
RTVSPost2010Prop35
280
     0
102
RTVSPost2010PropOp35
 70
     1
102
RTVSPost2010Prop36
280
     0
102
RTVSPost2010PropOp36
 70
     1
102
RTVSPost2010Prop37
 90
       50
102
RTVSPost2010PropOp37
 70
     1
102
RTVSPost2010Prop38
140
0.0
102
RTVSPost2010PropOp38
 70
     1
102
RTVSPost2010Prop39
140
1.0
102
RTVSPost2010PropOp39
 70
     1
102
RTVSPost2010Prop40
 90
        0
102
RTVSPost2010PropOp40
 70
     1
102
RTVSPost2010Prop41ColorIndex
 90
       18
102
RTVSPost2010Prop41ColorRGB
 90
        0
102
RTVSPost2010PropOp41
 70
     1
102
RTVSPost2010Prop42
 90
       50
102
RTVSPost2010PropOp42
 70
     1
102
RTVSPost2010Prop43
 90
        3
102
RTVSPost2010PropOp43
 70
     1
102
RTVSPost2010Prop44ColorIndex
 90
        5
102
RTVSPost2010Prop44ColorRGB
 90
      255
102
RTVSPost2010PropOp44
 70
     1
102
RTVSPost2010Prop45
280
     0
102
RTVSPost2010PropOp45
 70
     1
102
RTVSPost2010Prop46
 90
       50
102
RTVSPost2010PropOp46
 70
     1
102
RTVSPost2010Prop47
 90
       50
102
RTVSPost2010PropOp47
 70
     1
102
RTVSPost2010Prop48
 90
       50
102
RTVSPost2010PropOp48
 70
     1
102
RTVSPost2010Prop49
280
     0
102
RTVSPost2010PropOp49
 70
     1
102
RTVSPost2010Prop50
 90
       50
102
RTVSPost2010PropOp50
 70
     1
102
RTVSPost2010Prop51ColorIndex
 90
      256
102
RTVSPost2010Prop51ColorRGB
 90
-16777216
102
RTVSPost2010PropOp51
 70
     0
102
RTVSPost2010Prop52
140
1.0
102
RTVSPost2010PropOp52
 70
     0
102
RTVSPost2010Prop53
 90
        2
102
RTVSPost2010PropOp53
 70
     1
102
RTVSPost2010Prop54
  1
strokes_ogs.tif
102
RTVSPost2010PropOp54
 70
     1
102
RTVSPost2010Prop55
280
     0
102
RTVSPost2010PropOp55
 70
     1
102
RTVSPost2010Prop56
140
1.0
102
RTVSPost2010PropOp56
 70
     1
102
RTVSPost2010Prop57
140
1.0
102
RTVSPost2010PropOp57
 70
     1
102
RTVSPropertyOp0
 70
     1
102
RTVSPropertyOp1
 70
     1
102
RTVSPropertyOp2
 70
     1
102
RTVSPropertyOp3
 70
     1
102
RTVSPropertyOp4
 70
     1
102
RTVSPropertyOp5
 70
     1
102
RTVSPropertyOp6
 70
     1
102
RTVSPropertyOp7
 70
     1
102
RTVSPropertyOp8
 70
     1
102
RTVSPropertyOp9
 70
     1
102
RTVSPropertyOp10
 70
     1
102
RTVSPropertyOp11
 70
     1
102
RTVSPropertyOp12
 70
     1
102
RTVSPropertyOp13
 70
     1
102
RTVSPropertyOp14
 70
     1
102
RTVSPropertyOp15
 70
     1
102
RTVSPropertyOp16
 70
     1
102
RTVSPropertyOp17
 70
     1
102
RTVSPropertyOp18
 70
     1
102
RTVSPropertyOp19
 70
     1
102
RTVSPropertyOp20
 70
     1
102
RTVSPropertyOp21
 70
     1
102
RTVSPropertyOp22
 70
     1
102
RTVSPropertyOp23
 70
     1
102
RTVSPropertyOp24
 70
     1
102
RTVSPropertyOp25
 70
     1
102
RTVSPropertyOp26
 70
     1
102
RTVSPropertyOp27
 70
     1
102
RTVSPropertyOp28
 70
     1
102
RTVSPropertyOp29
 70
     1
102
RTVSPropertyOp30
 70
     1
102
RTVSPropertyOp31
 70
     1
102
RTVSPropertyOp32
 70
     1
102
RTVSPropertyOp33
 70
     1
102
RTVSPropertyOp34
 70
     1
102
RTVSPropertyOp35
 70
     1
102
RTVSPropertyOp36
 70
     1
102
RTVSPropertyOp37
 70
     1
102
RTVSPropertyOp38
 70
     1
102
RTVSPropertyOp39
 70
     1
102
RTVSPropertyOp40
 70
     1
102
RTVSPropertyOp41
 70
     1
102
RTVSPropertyOp42
 70
     1
102
RTVSPropertyOp43
 70
     1
102
RTVSPropertyOp44
 70
     1
102
RTVSPropertyOp45
 70
     1
102
RTVSPropertyOp46
 70
     1
102
RTVSPropertyOp47
 70
     1
102
RTVSPropertyOp48
 70
     1
102
RTVSPropertyOp49
 70
     1
102
RTVSPropertyOp50
 70
     1
102
RTVSPropertyOp51
 70
     0
102
RTVSPropertyOp52
 70
     0
102
RTVSPropertyOp53
 70
     1
102
RTVSPropertyOp54
 70
     1
102
RTVSPropertyOp55
 70
     1
102
RTVSPropertyOp56
 70
     1
102
RTVSPropertyOp57
 70
     1
102
RTVSPropertyOp58
 70
     1
102
RTVSPropertyOp59
 70
     1
102
RTVSPropertyOp60
 70
     1
102
RTVSPropertyOp61
 70
     1
102
RTVSPropertyOp62
 70
     1
  0
XRECORD
  5
863D
102
{ACAD_REACTORS
330
863C
102
}
330
863C
100
AcDbXrecord
280
     1
102
RTVSPost2010Prop28
280
     0
102
RTVSPost2010PropOp28
 70
     1
102
RTVSPost2010Prop29
280
     1
102
RTVSPost2010PropOp29
 70
     1
102
RTVSPost2010Prop30
280
     1
102
RTVSPost2010PropOp30
 70
     1
102
RTVSPost2010Prop31
280
     0
102
RTVSPost2010PropOp31
 70
     1
102
RTVSPost2010Prop32
280
     0
102
RTVSPost2010PropOp32
 70
     1
102
RTVSPost2010Prop33
280
     0
102
RTVSPost2010PropOp33
 70
     1
102
RTVSPost2010Prop34
280
     0
102
RTVSPost2010PropOp34
 70
     1
102
RTVSPost2010Prop35
280
     0
102
RTVSPost2010PropOp35
 70
     1
102
RTVSPost2010Prop36
280
     0
102
RTVSPost2010PropOp36
 70
     1
102
RTVSPost2010Prop37
 90
       50
102
RTVSPost2010PropOp37
 70
     1
102
RTVSPost2010Prop38
140
0.0
102
RTVSPost2010PropOp38
 70
     1
102
RTVSPost2010Prop39
140
1.0
102
RTVSPost2010PropOp39
 70
     1
102
RTVSPost2010Prop40
 90
        0
102
RTVSPost2010PropOp40
 70
     1
102
RTVSPost2010Prop41ColorIndex
 90
       18
102
RTVSPost2010Prop41ColorRGB
 90
        0
102
RTVSPost2010PropOp41
 70
     1
102
RTVSPost2010Prop42
 90
       50
102
RTVSPost2010PropOp42
 70
     1
102
RTVSPost2010Prop43
 90
        3
102
RTVSPost2010PropOp43
 70
     1
102
RTVSPost2010Prop44ColorIndex
 90
        5
102
RTVSPost2010Prop44ColorRGB
 90
      255
102
RTVSPost2010PropOp44
 70
     1
102
RTVSPost2010Prop45
280
     0
102
RTVSPost2010PropOp45
 70
     1
102
RTVSPost2010Prop46
 90
       50
102
RTVSPost2010PropOp46
 70
     1
102
RTVSPost2010Prop47
 90
       50
102
RTVSPost2010PropOp47
 70
     1
102
RTVSPost2010Prop48
 90
       50
102
RTVSPost2010PropOp48
 70
     1
102
RTVSPost2010Prop49
280
     0
102
RTVSPost2010PropOp49
 70
     1
102
RTVSPost2010Prop50
 90
       50
102
RTVSPost2010PropOp50
 70
     1
102
RTVSPost2010Prop51ColorIndex
 90
      256
102
RTVSPost2010Prop51ColorRGB
 90
-16777216
102
RTVSPost2010PropOp51
 70
     0
102
RTVSPost2010Prop52
140
1.0
102
RTVSPost2010PropOp52
 70
     0
102
RTVSPost2010Prop53
 90
        2
102
RTVSPost2010PropOp53
 70
     1
102
RTVSPost2010Prop54
  1
strokes_ogs.tif
102
RTVSPost2010PropOp54
 70
     1
102
RTVSPost2010Prop55
280
     0
102
RTVSPost2010PropOp55
 70
     1
102
RTVSPost2010Prop56
140
1.0
102
RTVSPost2010PropOp56
 70
     1
102
RTVSPost2010Prop57
140
1.0
102
RTVSPost2010PropOp57
 70
     1
102
RTVSPropertyOp0
 70
     1
102
RTVSPropertyOp1
 70
     1
102
RTVSPropertyOp2
 70
     1
102
RTVSPropertyOp3
 70
     1
102
RTVSPropertyOp4
 70
     1
102
RTVSPropertyOp5
 70
     1
102
RTVSPropertyOp6
 70
     1
102
RTVSPropertyOp7
 70
     1
102
RTVSPropertyOp8
 70
     1
102
RTVSPropertyOp9
 70
     1
102
RTVSPropertyOp10
 70
     1
102
RTVSPropertyOp11
 70
     1
102
RTVSPropertyOp12
 70
     1
102
RTVSPropertyOp13
 70
     1
102
RTVSPropertyOp14
 70
     1
102
RTVSPropertyOp15
 70
     1
102
RTVSPropertyOp16
 70
     1
102
RTVSPropertyOp17
 70
     1
102
RTVSPropertyOp18
 70
     1
102
RTVSPropertyOp19
 70
     1
102
RTVSPropertyOp20
 70
     1
102
RTVSPropertyOp21
 70
     1
102
RTVSPropertyOp22
 70
     1
102
RTVSPropertyOp23
 70
     1
102
RTVSPropertyOp24
 70
     1
102
RTVSPropertyOp25
 70
     1
102
RTVSPropertyOp26
 70
     1
102
RTVSPropertyOp27
 70
     1
102
RTVSPropertyOp28
 70
     1
102
RTVSPropertyOp29
 70
     1
102
RTVSPropertyOp30
 70
     1
102
RTVSPropertyOp31
 70
     1
102
RTVSPropertyOp32
 70
     1
102
RTVSPropertyOp33
 70
     1
102
RTVSPropertyOp34
 70
     1
102
RTVSPropertyOp35
 70
     1
102
RTVSPropertyOp36
 70
     1
102
RTVSPropertyOp37
 70
     1
102
RTVSPropertyOp38
 70
     1
102
RTVSPropertyOp39
 70
     1
102
RTVSPropertyOp40
 70
     1
102
RTVSPropertyOp41
 70
     1
102
RTVSPropertyOp42
 70
     1
102
RTVSPropertyOp43
 70
     1
102
RTVSPropertyOp44
 70
     1
102
RTVSPropertyOp45
 70
     1
102
RTVSPropertyOp46
 70
     1
102
RTVSPropertyOp47
 70
     1
102
RTVSPropertyOp48
 70
     1
102
RTVSPropertyOp49
 70
     1
102
RTVSPropertyOp50
 70
     1
102
RTVSPropertyOp51
 70
     0
102
RTVSPropertyOp52
 70
     0
102
RTVSPropertyOp53
 70
     1
102
RTVSPropertyOp54
 70
     1
102
RTVSPropertyOp55
 70
     1
102
RTVSPropertyOp56
 70
     1
102
RTVSPropertyOp57
 70
     1
102
RTVSPropertyOp58
 70
     1
102
RTVSPropertyOp59
 70
     1
102
RTVSPropertyOp60
 70
     1
102
RTVSPropertyOp61
 70
     1
102
RTVSPropertyOp62
 70
     1
  0
XRECORD
  5
863F
102
{ACAD_REACTORS
330
863E
102
}
330
863E
100
AcDbXrecord
280
     1
102
RTVSPost2010Prop28
280
     0
102
RTVSPost2010PropOp28
 70
     1
102
RTVSPost2010Prop29
280
     1
102
RTVSPost2010PropOp29
 70
     1
102
RTVSPost2010Prop30
280
     1
102
RTVSPost2010PropOp30
 70
     1
102
RTVSPost2010Prop31
280
     0
102
RTVSPost2010PropOp31
 70
     1
102
RTVSPost2010Prop32
280
     0
102
RTVSPost2010PropOp32
 70
     1
102
RTVSPost2010Prop33
280
     0
102
RTVSPost2010PropOp33
 70
     1
102
RTVSPost2010Prop34
280
     0
102
RTVSPost2010PropOp34
 70
     1
102
RTVSPost2010Prop35
280
     0
102
RTVSPost2010PropOp35
 70
     1
102
RTVSPost2010Prop36
280
     0
102
RTVSPost2010PropOp36
 70
     1
102
RTVSPost2010Prop37
 90
       50
102
RTVSPost2010PropOp37
 70
     1
102
RTVSPost2010Prop38
140
0.0
102
RTVSPost2010PropOp38
 70
     1
102
RTVSPost2010Prop39
140
1.0
102
RTVSPost2010PropOp39
 70
     1
102
RTVSPost2010Prop40
 90
        0
102
RTVSPost2010PropOp40
 70
     1
102
RTVSPost2010Prop41ColorIndex
 90
       18
102
RTVSPost2010Prop41ColorRGB
 90
        0
102
RTVSPost2010PropOp41
 70
     1
102
RTVSPost2010Prop42
 90
       50
102
RTVSPost2010PropOp42
 70
     1
102
RTVSPost2010Prop43
 90
        3
102
RTVSPost2010PropOp43
 70
     1
102
RTVSPost2010Prop44ColorIndex
 90
        5
102
RTVSPost2010Prop44ColorRGB
 90
      255
102
RTVSPost2010PropOp44
 70
     1
102
RTVSPost2010Prop45
280
     0
102
RTVSPost2010PropOp45
 70
     1
102
RTVSPost2010Prop46
 90
       50
102
RTVSPost2010PropOp46
 70
     1
102
RTVSPost2010Prop47
 90
       50
102
RTVSPost2010PropOp47
 70
     1
102
RTVSPost2010Prop48
 90
       50
102
RTVSPost2010PropOp48
 70
     1
102
RTVSPost2010Prop49
280
     0
102
RTVSPost2010PropOp49
 70
     1
102
RTVSPost2010Prop50
 90
       50
102
RTVSPost2010PropOp50
 70
     1
102
RTVSPost2010Prop51ColorIndex
 90
      256
102
RTVSPost2010Prop51ColorRGB
 90
-16777216
102
RTVSPost2010PropOp51
 70
     0
102
RTVSPost2010Prop52
140
1.0
102
RTVSPost2010PropOp52
 70
     0
102
RTVSPost2010Prop53
 90
        2
102
RTVSPost2010PropOp53
 70
     1
102
RTVSPost2010Prop54
  1
strokes_ogs.tif
102
RTVSPost2010PropOp54
 70
     1
102
RTVSPost2010Prop55
280
     0
102
RTVSPost2010PropOp55
 70
     1
102
RTVSPost2010Prop56
140
1.0
102
RTVSPost2010PropOp56
 70
     1
102
RTVSPost2010Prop57
140
1.0
102
RTVSPost2010PropOp57
 70
     1
102
RTVSPropertyOp0
 70
     1
102
RTVSPropertyOp1
 70
     1
102
RTVSPropertyOp2
 70
     1
102
RTVSPropertyOp3
 70
     1
102
RTVSPropertyOp4
 70
     1
102
RTVSPropertyOp5
 70
     1
102
RTVSPropertyOp6
 70
     1
102
RTVSPropertyOp7
 70
     1
102
RTVSPropertyOp8
 70
     1
102
RTVSPropertyOp9
 70
     1
102
RTVSPropertyOp10
 70
     1
102
RTVSPropertyOp11
 70
     1
102
RTVSPropertyOp12
 70
     1
102
RTVSPropertyOp13
 70
     1
102
RTVSPropertyOp14
 70
     1
102
RTVSPropertyOp15
 70
     1
102
RTVSPropertyOp16
 70
     1
102
RTVSPropertyOp17
 70
     1
102
RTVSPropertyOp18
 70
     1
102
RTVSPropertyOp19
 70
     1
102
RTVSPropertyOp20
 70
     1
102
RTVSPropertyOp21
 70
     1
102
RTVSPropertyOp22
 70
     1
102
RTVSPropertyOp23
 70
     1
102
RTVSPropertyOp24
 70
     1
102
RTVSPropertyOp25
 70
     1
102
RTVSPropertyOp26
 70
     1
102
RTVSPropertyOp27
 70
     1
102
RTVSPropertyOp28
 70
     1
102
RTVSPropertyOp29
 70
     1
102
RTVSPropertyOp30
 70
     1
102
RTVSPropertyOp31
 70
     1
102
RTVSPropertyOp32
 70
     1
102
RTVSPropertyOp33
 70
     1
102
RTVSPropertyOp34
 70
     1
102
RTVSPropertyOp35
 70
     1
102
RTVSPropertyOp36
 70
     1
102
RTVSPropertyOp37
 70
     1
102
RTVSPropertyOp38
 70
     1
102
RTVSPropertyOp39
 70
     1
102
RTVSPropertyOp40
 70
     1
102
RTVSPropertyOp41
 70
     1
102
RTVSPropertyOp42
 70
     1
102
RTVSPropertyOp43
 70
     1
102
RTVSPropertyOp44
 70
     1
102
RTVSPropertyOp45
 70
     1
102
RTVSPropertyOp46
 70
     1
102
RTVSPropertyOp47
 70
     1
102
RTVSPropertyOp48
 70
     1
102
RTVSPropertyOp49
 70
     1
102
RTVSPropertyOp50
 70
     1
102
RTVSPropertyOp51
 70
     0
102
RTVSPropertyOp52
 70
     0
102
RTVSPropertyOp53
 70
     1
102
RTVSPropertyOp54
 70
     1
102
RTVSPropertyOp55
 70
     1
102
RTVSPropertyOp56
 70
     1
102
RTVSPropertyOp57
 70
     1
102
RTVSPropertyOp58
 70
     1
102
RTVSPropertyOp59
 70
     1
102
RTVSPropertyOp60
 70
     1
102
RTVSPropertyOp61
 70
     1
102
RTVSPropertyOp62
 70
     1
  0
XRECORD
  5
8635
102
{ACAD_REACTORS
330
8634
102
}
330
8634
100
AcDbXrecord
280
     1
102
RTVSPost2010Prop28
280
     0
102
RTVSPost2010PropOp28
 70
     1
102
RTVSPost2010Prop29
280
     1
102
RTVSPost2010PropOp29
 70
     1
102
RTVSPost2010Prop30
280
     1
102
RTVSPost2010PropOp30
 70
     1
102
RTVSPost2010Prop31
280
     0
102
RTVSPost2010PropOp31
 70
     1
102
RTVSPost2010Prop32
280
     0
102
RTVSPost2010PropOp32
 70
     1
102
RTVSPost2010Prop33
280
     0
102
RTVSPost2010PropOp33
 70
     1
102
RTVSPost2010Prop34
280
     0
102
RTVSPost2010PropOp34
 70
     1
102
RTVSPost2010Prop35
280
     0
102
RTVSPost2010PropOp35
 70
     1
102
RTVSPost2010Prop36
280
     0
102
RTVSPost2010PropOp36
 70
     1
102
RTVSPost2010Prop37
 90
       50
102
RTVSPost2010PropOp37
 70
     1
102
RTVSPost2010Prop38
140
0.0
102
RTVSPost2010PropOp38
 70
     1
102
RTVSPost2010Prop39
140
1.0
102
RTVSPost2010PropOp39
 70
     1
102
RTVSPost2010Prop40
 90
        0
102
RTVSPost2010PropOp40
 70
     1
102
RTVSPost2010Prop41ColorIndex
 90
       18
102
RTVSPost2010Prop41ColorRGB
 90
        0
102
RTVSPost2010PropOp41
 70
     1
102
RTVSPost2010Prop42
 90
       50
102
RTVSPost2010PropOp42
 70
     1
102
RTVSPost2010Prop43
 90
        3
102
RTVSPost2010PropOp43
 70
     1
102
RTVSPost2010Prop44ColorIndex
 90
        5
102
RTVSPost2010Prop44ColorRGB
 90
      255
102
RTVSPost2010PropOp44
 70
     1
102
RTVSPost2010Prop45
280
     0
102
RTVSPost2010PropOp45
 70
     1
102
RTVSPost2010Prop46
 90
       50
102
RTVSPost2010PropOp46
 70
     1
102
RTVSPost2010Prop47
 90
       50
102
RTVSPost2010PropOp47
 70
     1
102
RTVSPost2010Prop48
 90
       50
102
RTVSPost2010PropOp48
 70
     1
102
RTVSPost2010Prop49
280
     0
102
RTVSPost2010PropOp49
 70
     1
102
RTVSPost2010Prop50
 90
       50
102
RTVSPost2010PropOp50
 70
     1
102
RTVSPost2010Prop51ColorIndex
 90
      256
102
RTVSPost2010Prop51ColorRGB
 90
-16777216
102
RTVSPost2010PropOp51
 70
     0
102
RTVSPost2010Prop52
140
1.0
102
RTVSPost2010PropOp52
 70
     0
102
RTVSPost2010Prop53
 90
        2
102
RTVSPost2010PropOp53
 70
     1
102
RTVSPost2010Prop54
  1
strokes_ogs.tif
102
RTVSPost2010PropOp54
 70
     1
102
RTVSPost2010Prop55
280
     0
102
RTVSPost2010PropOp55
 70
     1
102
RTVSPost2010Prop56
140
1.0
102
RTVSPost2010PropOp56
 70
     1
102
RTVSPost2010Prop57
140
1.0
102
RTVSPost2010PropOp57
 70
     1
102
RTVSPropertyOp0
 70
     1
102
RTVSPropertyOp1
 70
     1
102
RTVSPropertyOp2
 70
     1
102
RTVSPropertyOp3
 70
     1
102
RTVSPropertyOp4
 70
     1
102
RTVSPropertyOp5
 70
     1
102
RTVSPropertyOp6
 70
     1
102
RTVSPropertyOp7
 70
     1
102
RTVSPropertyOp8
 70
     1
102
RTVSPropertyOp9
 70
     1
102
RTVSPropertyOp10
 70
     1
102
RTVSPropertyOp11
 70
     1
102
RTVSPropertyOp12
 70
     1
102
RTVSPropertyOp13
 70
     1
102
RTVSPropertyOp14
 70
     1
102
RTVSPropertyOp15
 70
     1
102
RTVSPropertyOp16
 70
     1
102
RTVSPropertyOp17
 70
     1
102
RTVSPropertyOp18
 70
     1
102
RTVSPropertyOp19
 70
     1
102
RTVSPropertyOp20
 70
     1
102
RTVSPropertyOp21
 70
     1
102
RTVSPropertyOp22
 70
     1
102
RTVSPropertyOp23
 70
     1
102
RTVSPropertyOp24
 70
     1
102
RTVSPropertyOp25
 70
     1
102
RTVSPropertyOp26
 70
     1
102
RTVSPropertyOp27
 70
     1
102
RTVSPropertyOp28
 70
     1
102
RTVSPropertyOp29
 70
     1
102
RTVSPropertyOp30
 70
     1
102
RTVSPropertyOp31
 70
     1
102
RTVSPropertyOp32
 70
     1
102
RTVSPropertyOp33
 70
     1
102
RTVSPropertyOp34
 70
     1
102
RTVSPropertyOp35
 70
     1
102
RTVSPropertyOp36
 70
     1
102
RTVSPropertyOp37
 70
     1
102
RTVSPropertyOp38
 70
     1
102
RTVSPropertyOp39
 70
     1
102
RTVSPropertyOp40
 70
     1
102
RTVSPropertyOp41
 70
     1
102
RTVSPropertyOp42
 70
     1
102
RTVSPropertyOp43
 70
     1
102
RTVSPropertyOp44
 70
     1
102
RTVSPropertyOp45
 70
     1
102
RTVSPropertyOp46
 70
     1
102
RTVSPropertyOp47
 70
     1
102
RTVSPropertyOp48
 70
     1
102
RTVSPropertyOp49
 70
     1
102
RTVSPropertyOp50
 70
     1
102
RTVSPropertyOp51
 70
     0
102
RTVSPropertyOp52
 70
     0
102
RTVSPropertyOp53
 70
     1
102
RTVSPropertyOp54
 70
     1
102
RTVSPropertyOp55
 70
     1
102
RTVSPropertyOp56
 70
     1
102
RTVSPropertyOp57
 70
     1
102
RTVSPropertyOp58
 70
     1
102
RTVSPropertyOp59
 70
     1
102
RTVSPropertyOp60
 70
     1
102
RTVSPropertyOp61
 70
     1
102
RTVSPropertyOp62
 70
     1
  0
XRECORD
  5
8629
102
{ACAD_REACTORS
330
8628
102
}
330
8628
100
AcDbXrecord
280
     1
102
RTVSPost2010Prop28
280
     0
102
RTVSPost2010PropOp28
 70
     1
102
RTVSPost2010Prop29
280
     1
102
RTVSPost2010PropOp29
 70
     1
102
RTVSPost2010Prop30
280
     1
102
RTVSPost2010PropOp30
 70
     1
102
RTVSPost2010Prop31
280
     0
102
RTVSPost2010PropOp31
 70
     1
102
RTVSPost2010Prop32
280
     0
102
RTVSPost2010PropOp32
 70
     1
102
RTVSPost2010Prop33
280
     0
102
RTVSPost2010PropOp33
 70
     1
102
RTVSPost2010Prop34
280
     0
102
RTVSPost2010PropOp34
 70
     1
102
RTVSPost2010Prop35
280
     0
102
RTVSPost2010PropOp35
 70
     1
102
RTVSPost2010Prop36
280
     0
102
RTVSPost2010PropOp36
 70
     1
102
RTVSPost2010Prop37
 90
       50
102
RTVSPost2010PropOp37
 70
     1
102
RTVSPost2010Prop38
140
0.0
102
RTVSPost2010PropOp38
 70
     1
102
RTVSPost2010Prop39
140
1.0
102
RTVSPost2010PropOp39
 70
     1
102
RTVSPost2010Prop40
 90
        0
102
RTVSPost2010PropOp40
 70
     1
102
RTVSPost2010Prop41ColorIndex
 90
       18
102
RTVSPost2010Prop41ColorRGB
 90
        0
102
RTVSPost2010PropOp41
 70
     1
102
RTVSPost2010Prop42
 90
       50
102
RTVSPost2010PropOp42
 70
     1
102
RTVSPost2010Prop43
 90
        3
102
RTVSPost2010PropOp43
 70
     1
102
RTVSPost2010Prop44ColorIndex
 90
        5
102
RTVSPost2010Prop44ColorRGB
 90
      255
102
RTVSPost2010PropOp44
 70
     1
102
RTVSPost2010Prop45
280
     0
102
RTVSPost2010PropOp45
 70
     1
102
RTVSPost2010Prop46
 90
       50
102
RTVSPost2010PropOp46
 70
     1
102
RTVSPost2010Prop47
 90
       50
102
RTVSPost2010PropOp47
 70
     1
102
RTVSPost2010Prop48
 90
       50
102
RTVSPost2010PropOp48
 70
     1
102
RTVSPost2010Prop49
280
     0
102
RTVSPost2010PropOp49
 70
     1
102
RTVSPost2010Prop50
 90
       50
102
RTVSPost2010PropOp50
 70
     1
102
RTVSPost2010Prop51ColorIndex
 90
      256
102
RTVSPost2010Prop51ColorRGB
 90
-16777216
102
RTVSPost2010PropOp51
 70
     0
102
RTVSPost2010Prop52
140
1.0
102
RTVSPost2010PropOp52
 70
     0
102
RTVSPost2010Prop53
 90
        2
102
RTVSPost2010PropOp53
 70
     1
102
RTVSPost2010Prop54
  1
strokes_ogs.tif
102
RTVSPost2010PropOp54
 70
     1
102
RTVSPost2010Prop55
280
     0
102
RTVSPost2010PropOp55
 70
     1
102
RTVSPost2010Prop56
140
1.0
102
RTVSPost2010PropOp56
 70
     1
102
RTVSPost2010Prop57
140
1.0
102
RTVSPost2010PropOp57
 70
     1
102
RTVSPropertyOp0
 70
     1
102
RTVSPropertyOp1
 70
     1
102
RTVSPropertyOp2
 70
     1
102
RTVSPropertyOp3
 70
     1
102
RTVSPropertyOp4
 70
     1
102
RTVSPropertyOp5
 70
     1
102
RTVSPropertyOp6
 70
     1
102
RTVSPropertyOp7
 70
     1
102
RTVSPropertyOp8
 70
     1
102
RTVSPropertyOp9
 70
     1
102
RTVSPropertyOp10
 70
     1
102
RTVSPropertyOp11
 70
     1
102
RTVSPropertyOp12
 70
     1
102
RTVSPropertyOp13
 70
     1
102
RTVSPropertyOp14
 70
     1
102
RTVSPropertyOp15
 70
     1
102
RTVSPropertyOp16
 70
     1
102
RTVSPropertyOp17
 70
     1
102
RTVSPropertyOp18
 70
     1
102
RTVSPropertyOp19
 70
     1
102
RTVSPropertyOp20
 70
     1
102
RTVSPropertyOp21
 70
     1
102
RTVSPropertyOp22
 70
     1
102
RTVSPropertyOp23
 70
     1
102
RTVSPropertyOp24
 70
     1
102
RTVSPropertyOp25
 70
     1
102
RTVSPropertyOp26
 70
     1
102
RTVSPropertyOp27
 70
     1
102
RTVSPropertyOp28
 70
     1
102
RTVSPropertyOp29
 70
     1
102
RTVSPropertyOp30
 70
     1
102
RTVSPropertyOp31
 70
     1
102
RTVSPropertyOp32
 70
     1
102
RTVSPropertyOp33
 70
     1
102
RTVSPropertyOp34
 70
     1
102
RTVSPropertyOp35
 70
     1
102
RTVSPropertyOp36
 70
     1
102
RTVSPropertyOp37
 70
     1
102
RTVSPropertyOp38
 70
     1
102
RTVSPropertyOp39
 70
     1
102
RTVSPropertyOp40
 70
     1
102
RTVSPropertyOp41
 70
     1
102
RTVSPropertyOp42
 70
     1
102
RTVSPropertyOp43
 70
     1
102
RTVSPropertyOp44
 70
     1
102
RTVSPropertyOp45
 70
     1
102
RTVSPropertyOp46
 70
     1
102
RTVSPropertyOp47
 70
     1
102
RTVSPropertyOp48
 70
     1
102
RTVSPropertyOp49
 70
     1
102
RTVSPropertyOp50
 70
     1
102
RTVSPropertyOp51
 70
     0
102
RTVSPropertyOp52
 70
     0
102
RTVSPropertyOp53
 70
     1
102
RTVSPropertyOp54
 70
     1
102
RTVSPropertyOp55
 70
     1
102
RTVSPropertyOp56
 70
     1
102
RTVSPropertyOp57
 70
     1
102
RTVSPropertyOp58
 70
     1
102
RTVSPropertyOp59
 70
     1
102
RTVSPropertyOp60
 70
     1
102
RTVSPropertyOp61
 70
     1
102
RTVSPropertyOp62
 70
     1
  0
XRECORD
  5
8641
102
{ACAD_REACTORS
330
8640
102
}
330
8640
100
AcDbXrecord
280
     1
102
RTVSPost2010Prop28
280
     0
102
RTVSPost2010PropOp28
 70
     1
102
RTVSPost2010Prop29
280
     1
102
RTVSPost2010PropOp29
 70
     1
102
RTVSPost2010Prop30
280
     1
102
RTVSPost2010PropOp30
 70
     1
102
RTVSPost2010Prop31
280
     0
102
RTVSPost2010PropOp31
 70
     1
102
RTVSPost2010Prop32
280
     0
102
RTVSPost2010PropOp32
 70
     1
102
RTVSPost2010Prop33
280
     0
102
RTVSPost2010PropOp33
 70
     1
102
RTVSPost2010Prop34
280
     0
102
RTVSPost2010PropOp34
 70
     1
102
RTVSPost2010Prop35
280
     0
102
RTVSPost2010PropOp35
 70
     1
102
RTVSPost2010Prop36
280
     0
102
RTVSPost2010PropOp36
 70
     1
102
RTVSPost2010Prop37
 90
       50
102
RTVSPost2010PropOp37
 70
     1
102
RTVSPost2010Prop38
140
0.0
102
RTVSPost2010PropOp38
 70
     1
102
RTVSPost2010Prop39
140
1.0
102
RTVSPost2010PropOp39
 70
     1
102
RTVSPost2010Prop40
 90
        0
102
RTVSPost2010PropOp40
 70
     1
102
RTVSPost2010Prop41ColorIndex
 90
       18
102
RTVSPost2010Prop41ColorRGB
 90
        0
102
RTVSPost2010PropOp41
 70
     1
102
RTVSPost2010Prop42
 90
       50
102
RTVSPost2010PropOp42
 70
     1
102
RTVSPost2010Prop43
 90
        3
102
RTVSPost2010PropOp43
 70
     1
102
RTVSPost2010Prop44ColorIndex
 90
        5
102
RTVSPost2010Prop44ColorRGB
 90
      255
102
RTVSPost2010PropOp44
 70
     1
102
RTVSPost2010Prop45
280
     0
102
RTVSPost2010PropOp45
 70
     1
102
RTVSPost2010Prop46
 90
       50
102
RTVSPost2010PropOp46
 70
     1
102
RTVSPost2010Prop47
 90
       50
102
RTVSPost2010PropOp47
 70
     1
102
RTVSPost2010Prop48
 90
       50
102
RTVSPost2010PropOp48
 70
     1
102
RTVSPost2010Prop49
280
     0
102
RTVSPost2010PropOp49
 70
     1
102
RTVSPost2010Prop50
 90
       50
102
RTVSPost2010PropOp50
 70
     1
102
RTVSPost2010Prop51ColorIndex
 90
      256
102
RTVSPost2010Prop51ColorRGB
 90
-16777216
102
RTVSPost2010PropOp51
 70
     0
102
RTVSPost2010Prop52
140
1.0
102
RTVSPost2010PropOp52
 70
     0
102
RTVSPost2010Prop53
 90
        2
102
RTVSPost2010PropOp53
 70
     1
102
RTVSPost2010Prop54
  1
strokes_ogs.tif
102
RTVSPost2010PropOp54
 70
     1
102
RTVSPost2010Prop55
280
     0
102
RTVSPost2010PropOp55
 70
     1
102
RTVSPost2010Prop56
140
1.0
102
RTVSPost2010PropOp56
 70
     1
102
RTVSPost2010Prop57
140
1.0
102
RTVSPost2010PropOp57
 70
     1
102
RTVSPropertyOp0
 70
     1
102
RTVSPropertyOp1
 70
     1
102
RTVSPropertyOp2
 70
     1
102
RTVSPropertyOp3
 70
     1
102
RTVSPropertyOp4
 70
     1
102
RTVSPropertyOp5
 70
     1
102
RTVSPropertyOp6
 70
     1
102
RTVSPropertyOp7
 70
     1
102
RTVSPropertyOp8
 70
     1
102
RTVSPropertyOp9
 70
     1
102
RTVSPropertyOp10
 70
     1
102
RTVSPropertyOp11
 70
     1
102
RTVSPropertyOp12
 70
     1
102
RTVSPropertyOp13
 70
     1
102
RTVSPropertyOp14
 70
     1
102
RTVSPropertyOp15
 70
     1
102
RTVSPropertyOp16
 70
     1
102
RTVSPropertyOp17
 70
     1
102
RTVSPropertyOp18
 70
     1
102
RTVSPropertyOp19
 70
     1
102
RTVSPropertyOp20
 70
     1
102
RTVSPropertyOp21
 70
     1
102
RTVSPropertyOp22
 70
     1
102
RTVSPropertyOp23
 70
     1
102
RTVSPropertyOp24
 70
     1
102
RTVSPropertyOp25
 70
     1
102
RTVSPropertyOp26
 70
     1
102
RTVSPropertyOp27
 70
     1
102
RTVSPropertyOp28
 70
     1
102
RTVSPropertyOp29
 70
     1
102
RTVSPropertyOp30
 70
     1
102
RTVSPropertyOp31
 70
     1
102
RTVSPropertyOp32
 70
     1
102
RTVSPropertyOp33
 70
     1
102
RTVSPropertyOp34
 70
     1
102
RTVSPropertyOp35
 70
     1
102
RTVSPropertyOp36
 70
     1
102
RTVSPropertyOp37
 70
     1
102
RTVSPropertyOp38
 70
     1
102
RTVSPropertyOp39
 70
     1
102
RTVSPropertyOp40
 70
     1
102
RTVSPropertyOp41
 70
     1
102
RTVSPropertyOp42
 70
     1
102
RTVSPropertyOp43
 70
     1
102
RTVSPropertyOp44
 70
     1
102
RTVSPropertyOp45
 70
     1
102
RTVSPropertyOp46
 70
     1
102
RTVSPropertyOp47
 70
     1
102
RTVSPropertyOp48
 70
     1
102
RTVSPropertyOp49
 70
     1
102
RTVSPropertyOp50
 70
     1
102
RTVSPropertyOp51
 70
     0
102
RTVSPropertyOp52
 70
     0
102
RTVSPropertyOp53
 70
     1
102
RTVSPropertyOp54
 70
     1
102
RTVSPropertyOp55
 70
     1
102
RTVSPropertyOp56
 70
     1
102
RTVSPropertyOp57
 70
     1
102
RTVSPropertyOp58
 70
     1
102
RTVSPropertyOp59
 70
     1
102
RTVSPropertyOp60
 70
     1
102
RTVSPropertyOp61
 70
     1
102
RTVSPropertyOp62
 70
     1
  0
ENDSEC
  0
EOF
