  0
SECTION
  2
HEADER
  9
$ACADVER
  1
AC1015
  9
$ACADMAINTVER
 70
    20
  9
$DWGCODEPAGE
  3
ANSI_932
  9
$INSBASE
 10
0.0
 20
0.0
 30
0.0
  9
$EXTMIN
 10
-0.1922460740788665
 20
-0.2700599612071528
 30
-0.0015258207003583
  9
$EXTMAX
 10
6300.192275410744
 20
8850.270101172235
 30
0.0000000349246037
  9
$LIMMIN
 10
0.0
 20
0.0
  9
$LIMMAX
 10
297.0
 20
210.0
  9
$ORTHOMODE
 70
     1
  9
$REGENMODE
 70
     1
  9
$FILLMODE
 70
     0
  9
$QTEXTMODE
 70
     0
  9
$MIRRTEXT
 70
     1
  9
$LTSCALE
 40
100.0
  9
$ATTMODE
 70
     1
  9
$TEXTSIZE
 40
180.0
  9
$TRACEWID
 40
0.05
  9
$TEXTSTYLE
  7
STANDARD
  9
$CLAYER
  8
3
  9
$CELTYPE
  6
ByLayer
  9
$CECOLOR
 62
   256
  9
$CELTSCALE
 40
1.0
  9
$DISPSILH
 70
     0
  9
$DIMSCALE
 40
30.0
  9
$DIMASZ
 40
2.0
  9
$DIMEXO
 40
1.0
  9
$DIMDLI
 40
10.0
  9
$DIMRND
 40
0.0
  9
$DIMDLE
 40
0.0
  9
$DIMEXE
 40
1.0
  9
$DIMTP
 40
1.0
  9
$DIMTM
 40
1.0
  9
$DIMTXT
 40
3.0
  9
$DIMCEN
 40
0.0
  9
$DIMTSZ
 40
0.0
  9
$DIMTOL
 70
     0
  9
$DIMLIM
 70
     0
  9
$DIMTIH
 70
     0
  9
$DIMTOH
 70
     0
  9
$DIMSE1
 70
     0
  9
$DIMSE2
 70
     0
  9
$DIMTAD
 70
     1
  9
$DIMZIN
 70
     8
  9
$DIMBLK
  1

  9
$DIMASO
 70
     1
  9
$DIMSHO
 70
     1
  9
$DIMPOST
  1

  9
$DIMAPOST
  1

  9
$DIMALT
 70
     0
  9
$DIMALTD
 70
     2
  9
$DIMALTF
 40
0.039
  9
$DIMLFAC
 40
1.0
  9
$DIMTOFL
 70
     1
  9
$DIMTVP
 40
0.0
  9
$DIMTIX
 70
     0
  9
$DIMSOXD
 70
     0
  9
$DIMSAH
 70
     1
  9
$DIMBLK1
  1
OPEN
  9
$DIMBLK2
  1
OPEN
  9
$DIMSTYLE
  2
IGA
  9
$DIMCLRD
 70
     0
  9
$DIMCLRE
 70
     0
  9
$DIMCLRT
 70
     0
  9
$DIMTFAC
 40
10.0
  9
$DIMGAP
 40
1.0
  9
$DIMJUST
 70
     0
  9
$DIMSD1
 70
     0
  9
$DIMSD2
 70
     0
  9
$DIMTOLJ
 70
     1
  9
$DIMTZIN
 70
     0
  9
$DIMALTZ
 70
     0
  9
$DIMALTTZ
 70
     0
  9
$DIMUPT
 70
     0
  9
$DIMDEC
 70
     4
  9
$DIMTDEC
 70
     4
  9
$DIMALTU
 70
     2
  9
$DIMALTTD
 70
     2
  9
$DIMTXSTY
  7
STANDARD
  9
$DIMAUNIT
 70
     0
  9
$DIMADEC
 70
     0
  9
$DIMALTRND
 40
0.0
  9
$DIMAZIN
 70
     0
  9
$DIMDSEP
 70
    46
  9
$DIMATFIT
 70
     3
  9
$DIMFRAC
 70
     0
  9
$DIMLDRBLK
  1
OPEN
  9
$DIMLUNIT
 70
     2
  9
$DIMLWD
 70
    -2
  9
$DIMLWE
 70
    -2
  9
$DIMTMOVE
 70
     0
  9
$LUNITS
 70
     2
  9
$LUPREC
 70
     3
  9
$SKETCHINC
 40
0.1
  9
$FILLETRAD
 40
50.0
  9
$AUNITS
 70
     0
  9
$AUPREC
 70
     0
  9
$MENU
  1
acad
  9
$ELEVATION
 40
0.0
  9
$PELEVATION
 40
0.0
  9
$THICKNESS
 40
0.0
  9
$LIMCHECK
 70
     0
  9
$CHAMFERA
 40
0.5
  9
$CHAMFERB
 40
0.5
  9
$CHAMFERC
 40
0.0
  9
$CHAMFERD
 40
0.0
  9
$SKPOLY
 70
     0
  9
$TDCREATE
 40
2451389.482040394
  9
$TDUCREATE
 40
2451389.107040394
  9
$TDUPDATE
 40
2460269.594472546
  9
$TDUUPDATE
 40
2460269.219472547
  9
$TDINDWG
 40
0.0161358102
  9
$TDUSRTIMER
 40
0.0161355556
  9
$USRTIMER
 70
     1
  9
$ANGBASE
 50
0.0
  9
$ANGDIR
 70
     0
  9
$PDMODE
 70
     0
  9
$PDSIZE
 40
0.0
  9
$PLINEWID
 40
0.0
  9
$SPLFRAME
 70
     0
  9
$SPLINETYPE
 70
     6
  9
$SPLINESEGS
 70
     8
  9
$HANDSEED
  5
858F
  9
$SURFTAB1
 70
     6
  9
$SURFTAB2
 70
     6
  9
$SURFTYPE
 70
     6
  9
$SURFU
 70
     6
  9
$SURFV
 70
     6
  9
$UCSBASE
  2

  9
$UCSNAME
  2

  9
$UCSORG
 10
0.0
 20
0.0
 30
0.0
  9
$UCSXDIR
 10
1.0
 20
0.0
 30
0.0
  9
$UCSYDIR
 10
0.0
 20
1.0
 30
0.0
  9
$UCSORTHOREF
  2

  9
$UCSORTHOVIEW
 70
     0
  9
$UCSORGTOP
 10
0.0
 20
0.0
 30
0.0
  9
$UCSORGBOTTOM
 10
0.0
 20
0.0
 30
0.0
  9
$UCSORGLEFT
 10
0.0
 20
0.0
 30
0.0
  9
$UCSORGRIGHT
 10
0.0
 20
0.0
 30
0.0
  9
$UCSORGFRONT
 10
0.0
 20
0.0
 30
0.0
  9
$UCSORGBACK
 10
0.0
 20
0.0
 30
0.0
  9
$PUCSBASE
  2

  9
$PUCSNAME
  2

  9
$PUCSORG
 10
0.0
 20
0.0
 30
0.0
  9
$PUCSXDIR
 10
1.0
 20
0.0
 30
0.0
  9
$PUCSYDIR
 10
0.0
 20
1.0
 30
0.0
  9
$PUCSORTHOREF
  2

  9
$PUCSORTHOVIEW
 70
     0
  9
$PUCSORGTOP
 10
0.0
 20
0.0
 30
0.0
  9
$PUCSORGBOTTOM
 10
0.0
 20
0.0
 30
0.0
  9
$PUCSORGLEFT
 10
0.0
 20
0.0
 30
0.0
  9
$PUCSORGRIGHT
 10
0.0
 20
0.0
 30
0.0
  9
$PUCSORGFRONT
 10
0.0
 20
0.0
 30
0.0
  9
$PUCSORGBACK
 10
0.0
 20
0.0
 30
0.0
  9
$USERI1
 70
     0
  9
$USERI2
 70
     0
  9
$USERI3
 70
     0
  9
$USERI4
 70
     0
  9
$USERI5
 70
     0
  9
$USERR1
 40
0.0
  9
$USERR2
 40
0.0
  9
$USERR3
 40
0.0
  9
$USERR4
 40
0.0
  9
$USERR5
 40
0.0
  9
$WORLDVIEW
 70
     1
  9
$SHADEDGE
 70
     3
  9
$SHADEDIF
 70
    70
  9
$TILEMODE
 70
     1
  9
$MAXACTVP
 70
    16
  9
$PINSBASE
 10
0.0
 20
0.0
 30
0.0
  9
$PLIMCHECK
 70
     0
  9
$PEXTMIN
 10
1.000000000000000E+20
 20
1.000000000000000E+20
 30
1.000000000000000E+20
  9
$PEXTMAX
 10
-1.000000000000000E+20
 20
-1.000000000000000E+20
 30
-1.000000000000000E+20
  9
$PLIMMIN
 10
0.0
 20
0.0
  9
$PLIMMAX
 10
12.0
 20
9.0
  9
$UNITMODE
 70
     0
  9
$VISRETAIN
 70
     0
  9
$PLINEGEN
 70
     0
  9
$PSLTSCALE
 70
     1
  9
$TREEDEPTH
 70
  3020
  9
$CMLSTYLE
  2
Standard
  9
$CMLJUST
 70
     0
  9
$CMLSCALE
 40
1.0
  9
$PROXYGRAPHICS
 70
     1
  9
$MEASUREMENT
 70
     0
  9
$CELWEIGHT
370
    -1
  9
$ENDCAPS
280
     0
  9
$JOINSTYLE
280
     0
  9
$LWDISPLAY
290
     0
  9
$INSUNITS
 70
     0
  9
$HYPERLINKBASE
  1

  9
$STYLESHEET
  1

  9
$XEDIT
290
     1
  9
$CEPSNTYPE
380
     0
  9
$PSTYLEMODE
290
     1
  9
$FINGERPRINTGUID
  2
{253A3207-640C-4C5B-A574-B4E3B0547194}
  9
$VERSIONGUID
  2
{978CBBAF-8014-4C0E-AEFD-9B7A371D2C4F}
  9
$EXTNAMES
290
     1
  9
$PSVPSCALE
 40
0.0
  9
$OLESTARTUP
290
     0
  0
ENDSEC
  0
SECTION
  2
CLASSES
  0
CLASS
  1
ACDBDICTIONARYWDFLT
  2
AcDbDictionaryWithDefault
  3
ObjectDBX Classes
 90
        0
280
     0
281
     0
  0
CLASS
  1
MATERIAL
  2
AcDbMaterial
  3
ObjectDBX Classes
 90
     1153
280
     0
281
     0
  0
CLASS
  1
VISUALSTYLE
  2
AcDbVisualStyle
  3
ObjectDBX Classes
 90
     4095
280
     0
281
     0
  0
CLASS
  1
SCALE
  2
AcDbScale
  3
ObjectDBX Classes
 90
     1153
280
     0
281
     0
  0
CLASS
  1
TABLESTYLE
  2
AcDbTableStyle
  3
ObjectDBX Classes
 90
     4095
280
     0
281
     0
  0
CLASS
  1
MLEADERSTYLE
  2
AcDbMLeaderStyle
  3
ACDB_MLEADERSTYLE_CLASS
 90
     4095
280
     0
281
     0
  0
CLASS
  1
ACDBSECTIONVIEWSTYLE
  2
AcDbSectionViewStyle
  3
ObjectDBX Classes
 90
     1025
280
     0
281
     0
  0
CLASS
  1
ACDBDETAILVIEWSTYLE
  2
AcDbDetailViewStyle
  3
ObjectDBX Classes
 90
     1025
280
     0
281
     0
  0
CLASS
  1
SORTENTSTABLE
  2
AcDbSortentsTable
  3
ObjectDBX Classes
 90
        0
280
     0
281
     0
  0
CLASS
  1
DICTIONARYVAR
  2
AcDbDictionaryVar
  3
ObjectDBX Classes
 90
        0
280
     0
281
     0
  0
CLASS
  1
CELLSTYLEMAP
  2
AcDbCellStyleMap
  3
ObjectDBX Classes
 90
     1152
280
     0
281
     0
  0
CLASS
  1
ACDBPLACEHOLDER
  2
AcDbPlaceHolder
  3
ObjectDBX Classes
 90
        0
280
     0
281
     0
  0
CLASS
  1
LAYOUT
  2
AcDbLayout
  3
ObjectDBX Classes
 90
        0
280
     0
281
     0
  0
ENDSEC
  0
SECTION
  2
TABLES
  0
TABLE
  2
VPORT
  5
8372
330
0
100
AcDbSymbolTable
 70
     1
  0
VPORT
  5
83DE
330
8372
100
AcDbSymbolTableRecord
100
AcDbViewportTableRecord
  2
*ACTIVE
 70
     0
 10
0.0
 20
0.0
 11
1.0
 21
1.0
 12
3150.000014668333
 22
4425.000020605514
 13
0.0
 23
0.0
 14
10.0
 24
10.0
 15
10.0
 25
10.0
 16
0.0
 26
0.0
 36
1.0
 17
0.0
 27
0.0
 37
0.0
 40
8907.213844128961
 41
2.050213675213675
 42
50.0
 43
0.0
 44
0.0
 50
0.0
 51
0.0
 71
     0
 72
   100
 73
     1
 74
     0
 75
     0
 76
     0
 77
     0
 78
     0
281
     0
 65
     1
110
0.0
120
0.0
130
0.0
111
1.0
121
0.0
131
0.0
112
0.0
122
1.0
132
0.0
 79
     0
146
0.0
1001
ACAD_NAV_VCDISPLAY
1070
     3
  0
ENDTAB
  0
TABLE
  2
LTYPE
  5
836F
330
0
100
AcDbSymbolTable
 70
     3
  0
LTYPE
  5
83C4
330
836F
100
AcDbSymbolTableRecord
100
AcDbLinetypeTableRecord
  2
ByBlock
 70
     0
  3

 72
    65
 73
     0
 40
0.0
  0
LTYPE
  5
83C5
330
836F
100
AcDbSymbolTableRecord
100
AcDbLinetypeTableRecord
  2
ByLayer
 70
     0
  3

 72
    65
 73
     0
 40
0.0
  0
LTYPE
  5
83C6
330
836F
100
AcDbSymbolTableRecord
100
AcDbLinetypeTableRecord
  2
CONTINUOUS
 70
     0
  3
Solid line
 72
    65
 73
     0
 40
0.0
  0
LTYPE
  5
83DF
330
836F
100
AcDbSymbolTableRecord
100
AcDbLinetypeTableRecord
  2
CENTER
 70
     0
  3
____ _ ____ _ ____ _ ____ _ ____ _ ____ _ ____ 
 72
    65
 73
     4
 40
2.0
 49
1.25
 74
     0
 49
-0.25
 74
     0
 49
0.25
 74
     0
 49
-0.25
 74
     0
  0
ENDTAB
  0
TABLE
  2
LAYER
  5
836C
330
0
100
AcDbSymbolTable
 70
     6
  0
LAYER
  5
83BE
102
{ACAD_XDICTIONARY
360
8539
102
}
330
836C
100
AcDbSymbolTableRecord
100
AcDbLayerTableRecord
  2
0
 70
     0
 62
     7
  6
CONTINUOUS
370
    -3
390
8379
  0
LAYER
  5
83DD
102
{ACAD_XDICTIONARY
360
853B
102
}
330
836C
100
AcDbSymbolTableRecord
100
AcDbLayerTableRecord
  2
3
 70
     0
 62
     2
  6
CONTINUOUS
370
    -3
390
8379
  0
LAYER
  5
83E0
102
{ACAD_XDICTIONARY
360
853D
102
}
330
836C
100
AcDbSymbolTableRecord
100
AcDbLayerTableRecord
  2
2
 70
     0
 62
     3
  6
CENTER
370
    -3
390
8379
  0
LAYER
  5
83E1
102
{ACAD_XDICTIONARY
360
853F
102
}
330
836C
100
AcDbSymbolTableRecord
100
AcDbLayerTableRecord
  2
1
 70
     0
 62
     4
  6
CONTINUOUS
370
    -3
390
8379
  0
LAYER
  5
83E2
102
{ACAD_XDICTIONARY
360
8541
102
}
330
836C
100
AcDbSymbolTableRecord
100
AcDbLayerTableRecord
  2
4
 70
     0
 62
     7
  6
CONTINUOUS
370
    -3
390
8379
  0
LAYER
  5
83E3
330
836C
100
AcDbSymbolTableRecord
100
AcDbLayerTableRecord
  2
DEFPOINTS
 70
     0
 62
     7
  6
CONTINUOUS
290
     0
370
    -3
390
8379
  0
ENDTAB
  0
TABLE
  2
STYLE
  5
836D
330
0
100
AcDbSymbolTable
 70
     2
  0
STYLE
  5
83BF
330
836D
100
AcDbSymbolTableRecord
100
AcDbTextStyleTableRecord
  2
STANDARD
 70
     0
 40
0.0
 41
1.0
 50
0.0
 71
     0
 42
180.0
  3
simplex.shx
  4
extfont.shx
  0
STYLE
  5
83C3
330
836D
100
AcDbSymbolTableRecord
100
AcDbTextStyleTableRecord
  2
Annotative
 70
     0
 40
0.0
 41
1.0
 50
0.0
 71
     0
 42
0.2
  3
txt
  4

1001
AcadAnnotative
1000
AnnotativeData
1002
{
1070
     1
1070
     1
1002
}
  0
ENDTAB
  0
TABLE
  2
VIEW
  5
8370
330
0
100
AcDbSymbolTable
 70
     0
  0
ENDTAB
  0
TABLE
  2
UCS
  5
8371
330
0
100
AcDbSymbolTable
 70
     0
  0
ENDTAB
  0
TABLE
  2
APPID
  5
8373
330
0
100
AcDbSymbolTable
 70
     8
  0
APPID
  5
83C0
330
8373
100
AcDbSymbolTableRecord
100
AcDbRegAppTableRecord
  2
ACAD
 70
     0
  0
APPID
  5
83C7
330
8373
100
AcDbSymbolTableRecord
100
AcDbRegAppTableRecord
  2
AcadAnnotative
 70
     0
  0
APPID
  5
8420
330
8373
100
AcDbSymbolTableRecord
100
AcDbRegAppTableRecord
  2
ACAD_DSTYLE_DIMJAG
 70
     0
  0
APPID
  5
8421
330
8373
100
AcDbSymbolTableRecord
100
AcDbRegAppTableRecord
  2
ACAD_DSTYLE_DIMTALN
 70
     0
  0
APPID
  5
845B
330
8373
100
AcDbSymbolTableRecord
100
AcDbRegAppTableRecord
  2
AcadAnnoMonitorAlertIconDisabled
 70
     0
  0
APPID
  5
845C
330
8373
100
AcDbSymbolTableRecord
100
AcDbRegAppTableRecord
  2
ACAD_EXEMPT_FROM_CAD_STANDARDS
 70
     0
  0
APPID
  5
854D
330
8373
100
AcDbSymbolTableRecord
100
AcDbRegAppTableRecord
  2
ACAD_NAV_VCDISPLAY
 70
     0
  0
APPID
  5
8586
330
8373
100
AcDbSymbolTableRecord
100
AcDbRegAppTableRecord
  2
ACAD_MLEADERVER
 70
     0
  0
ENDTAB
  0
TABLE
  2
DIMSTYLE
  5
8374
330
0
100
AcDbSymbolTable
 70
     3
100
AcDbDimStyleTable
 71
     1
340
83E4
  0
DIMSTYLE
105
83C1
102
{ACAD_REACTORS
330
7CD9
330
7D03
330
819C
330
81A9
330
81B6
330
81C3
330
81D2
330
81DF
102
}
330
8374
100
AcDbSymbolTableRecord
100
AcDbDimStyleTableRecord
  2
Standard
 70
     0
340
83BF
  0
DIMSTYLE
105
83C2
330
8374
100
AcDbSymbolTableRecord
100
AcDbDimStyleTableRecord
  2
Annotative
 70
     0
340
83BF
1001
AcadAnnotative
1000
AnnotativeData
1002
{
1070
     1
1070
     1
1002
}
  0
DIMSTYLE
105
83E4
102
{ACAD_REACTORS
330
8422
330
842F
330
843C
330
8486
330
84C4
330
84D1
330
84DE
330
84EB
330
84F8
330
8505
330
8512
330
851F
330
852C
102
}
330
8374
100
AcDbSymbolTableRecord
100
AcDbDimStyleTableRecord
  2
IGA
 70
     0
 40
2.0
 41
2.0
 42
0.5
 43
10.0
 44
1.0
 47
1.0
 48
1.0
 73
     0
 74
     0
 77
     1
 78
     8
140
3.0
141
0.0
143
0.03937
146
10.0
147
1.0
173
     1
271
     3
272
     3
279
     2
284
     8
285
     8
286
     8
340
83BF
  0
ENDTAB
  0
TABLE
  2
BLOCK_RECORD
  5
836B
330
0
100
AcDbSymbolTable
 70
    41
  0
BLOCK_RECORD
  5
83D9
102
{ACAD_XDICTIONARY
360
8483
102
}
330
836B
100
AcDbSymbolTableRecord
100
AcDbBlockTableRecord
  2
*Model_Space
340
83DC
  0
BLOCK_RECORD
  5
83D5
330
836B
100
AcDbSymbolTableRecord
100
AcDbBlockTableRecord
  2
*Paper_Space
340
83D8
  0
BLOCK_RECORD
  5
83E8
330
836B
100
AcDbSymbolTableRecord
100
AcDbBlockTableRecord
  2
$MODEL_SPACE
340
0
  0
BLOCK_RECORD
  5
83EA
330
836B
100
AcDbSymbolTableRecord
100
AcDbBlockTableRecord
  2
$PAPER_SPACE
340
0
  0
BLOCK_RECORD
  5
83EC
330
836B
100
AcDbSymbolTableRecord
100
AcDbBlockTableRecord
  2
_OPEN
340
0
102
{BLKREFS
331
834A
331
8352
331
8353
331
84F2
331
84F3
331
84FF
331
8500
331
850C
331
850D
331
8519
331
851A
331
8526
331
8527
331
8533
331
8534
331
849F
331
84A0
331
84A8
331
84A9
331
84B1
331
84B2
331
84CB
331
84CC
331
84D8
331
84D9
331
84E5
331
84E6
331
82D2
331
82D3
331
82DB
331
82DC
331
82E4
331
82E5
331
82ED
331
82EE
331
82F6
331
82F7
331
82FF
331
8300
331
8308
331
8309
331
8311
331
8312
331
831A
331
831B
331
8323
331
8324
331
832C
331
832D
331
8335
331
8336
331
833E
331
833F
331
8195
331
8196
331
81A2
331
81A3
331
81AF
331
81B0
331
81BC
331
81BD
331
81D8
331
81D9
331
8443
331
8444
102
}
  0
BLOCK_RECORD
  5
83EE
330
836B
100
AcDbSymbolTableRecord
100
AcDbBlockTableRecord
  2
YA_N
340
0
102
{BLKREFS
331
7C21
331
7C3F
331
7C41
331
7CAE
102
}
  0
BLOCK_RECORD
  5
83F0
330
836B
100
AcDbSymbolTableRecord
100
AcDbBlockTableRecord
  2
*D4
340
0
  0
BLOCK_RECORD
  5
83F2
330
836B
100
AcDbSymbolTableRecord
100
AcDbBlockTableRecord
  2
*D5
340
0
  0
BLOCK_RECORD
  5
83F4
330
836B
100
AcDbSymbolTableRecord
100
AcDbBlockTableRecord
  2
*D6
340
0
  0
BLOCK_RECORD
  5
83F6
330
836B
100
AcDbSymbolTableRecord
100
AcDbBlockTableRecord
  2
*D7
340
0
  0
BLOCK_RECORD
  5
83F8
330
836B
100
AcDbSymbolTableRecord
100
AcDbBlockTableRecord
  2
*D8
340
0
  0
BLOCK_RECORD
  5
83FA
330
836B
100
AcDbSymbolTableRecord
100
AcDbBlockTableRecord
  2
*D9
340
0
  0
BLOCK_RECORD
  5
83FC
330
836B
100
AcDbSymbolTableRecord
100
AcDbBlockTableRecord
  2
*D10
340
0
  0
BLOCK_RECORD
  5
83FE
330
836B
100
AcDbSymbolTableRecord
100
AcDbBlockTableRecord
  2
*D11
340
0
  0
BLOCK_RECORD
  5
8400
330
836B
100
AcDbSymbolTableRecord
100
AcDbBlockTableRecord
  2
*D12
340
0
  0
BLOCK_RECORD
  5
8402
330
836B
100
AcDbSymbolTableRecord
100
AcDbBlockTableRecord
  2
*D13
340
0
  0
BLOCK_RECORD
  5
8404
330
836B
100
AcDbSymbolTableRecord
100
AcDbBlockTableRecord
  2
*D14
340
0
  0
BLOCK_RECORD
  5
8406
330
836B
100
AcDbSymbolTableRecord
100
AcDbBlockTableRecord
  2
*D15
340
0
  0
BLOCK_RECORD
  5
8408
330
836B
100
AcDbSymbolTableRecord
100
AcDbBlockTableRecord
  2
*D16
340
0
  0
BLOCK_RECORD
  5
840A
330
836B
100
AcDbSymbolTableRecord
100
AcDbBlockTableRecord
  2
*D17
340
0
  0
BLOCK_RECORD
  5
840C
330
836B
100
AcDbSymbolTableRecord
100
AcDbBlockTableRecord
  2
_DOT
340
0
102
{BLKREFS
331
8349
102
}
  0
BLOCK_RECORD
  5
840D
330
836B
100
AcDbSymbolTableRecord
100
AcDbBlockTableRecord
  2
*D19
340
0
  0
BLOCK_RECORD
  5
8410
330
836B
100
AcDbSymbolTableRecord
100
AcDbBlockTableRecord
  2
*D20
340
0
  0
BLOCK_RECORD
  5
8412
330
836B
100
AcDbSymbolTableRecord
100
AcDbBlockTableRecord
  2
*D21
340
0
  0
BLOCK_RECORD
  5
8414
330
836B
100
AcDbSymbolTableRecord
100
AcDbBlockTableRecord
  2
*D22
340
0
  0
BLOCK_RECORD
  5
8416
330
836B
100
AcDbSymbolTableRecord
100
AcDbBlockTableRecord
  2
*D23
340
0
  0
BLOCK_RECORD
  5
8418
330
836B
100
AcDbSymbolTableRecord
100
AcDbBlockTableRecord
  2
_NONE
340
0
  0
BLOCK_RECORD
  5
841A
330
836B
100
AcDbSymbolTableRecord
100
AcDbBlockTableRecord
  2
*D25
340
0
  0
BLOCK_RECORD
  5
841C
330
836B
100
AcDbSymbolTableRecord
100
AcDbBlockTableRecord
  2
*D26
340
0
  0
BLOCK_RECORD
  5
8423
330
836B
100
AcDbSymbolTableRecord
100
AcDbBlockTableRecord
  2
*D27
340
0
  0
BLOCK_RECORD
  5
8430
330
836B
100
AcDbSymbolTableRecord
100
AcDbBlockTableRecord
  2
*D28
340
0
  0
BLOCK_RECORD
  5
843D
330
836B
100
AcDbSymbolTableRecord
100
AcDbBlockTableRecord
  2
*D29
340
0
  0
BLOCK_RECORD
  5
8487
330
836B
100
AcDbSymbolTableRecord
100
AcDbBlockTableRecord
  2
*D30
340
0
  0
BLOCK_RECORD
  5
84B7
330
836B
100
AcDbSymbolTableRecord
100
AcDbBlockTableRecord
  2
*D31
340
0
  0
BLOCK_RECORD
  5
84C5
330
836B
100
AcDbSymbolTableRecord
100
AcDbBlockTableRecord
  2
*D32
340
0
  0
BLOCK_RECORD
  5
84D2
330
836B
100
AcDbSymbolTableRecord
100
AcDbBlockTableRecord
  2
*D33
340
0
  0
BLOCK_RECORD
  5
84DF
330
836B
100
AcDbSymbolTableRecord
100
AcDbBlockTableRecord
  2
*D34
340
0
  0
BLOCK_RECORD
  5
84EC
330
836B
100
AcDbSymbolTableRecord
100
AcDbBlockTableRecord
  2
*D35
340
0
  0
BLOCK_RECORD
  5
84F9
330
836B
100
AcDbSymbolTableRecord
100
AcDbBlockTableRecord
  2
*D36
340
0
  0
BLOCK_RECORD
  5
8506
330
836B
100
AcDbSymbolTableRecord
100
AcDbBlockTableRecord
  2
*D37
340
0
  0
BLOCK_RECORD
  5
8513
330
836B
100
AcDbSymbolTableRecord
100
AcDbBlockTableRecord
  2
*D38
340
0
  0
BLOCK_RECORD
  5
8520
330
836B
100
AcDbSymbolTableRecord
100
AcDbBlockTableRecord
  2
*D39
340
0
  0
BLOCK_RECORD
  5
852D
330
836B
100
AcDbSymbolTableRecord
100
AcDbBlockTableRecord
  2
*D40
340
0
  0
ENDTAB
  0
ENDSEC
  0
SECTION
  2
BLOCKS
  0
BLOCK
  5
83DA
330
83D9
100
AcDbEntity
  8
0
100
AcDbBlockBegin
  2
*Model_Space
 70
     0
 10
0.0
 20
0.0
 30
0.0
  3
*Model_Space
  1

  0
ENDBLK
  5
83DB
330
83D9
100
AcDbEntity
  8
0
100
AcDbBlockEnd
  0
BLOCK
  5
83D6
330
83D5
100
AcDbEntity
 67
     1
  8
0
100
AcDbBlockBegin
  2
*Paper_Space
 70
     0
 10
0.0
 20
0.0
 30
0.0
  3
*Paper_Space
  1

  0
ENDBLK
  5
83D7
330
83D5
100
AcDbEntity
 67
     1
  8
0
100
AcDbBlockEnd
  0
BLOCK
  5
83E9
330
83E8
100
AcDbEntity
  8
0
100
AcDbBlockBegin
  2
$MODEL_SPACE
 70
     0
 10
0.0
 20
0.0
 30
0.0
  3
$MODEL_SPACE
  1

  0
ENDBLK
  5
1B
330
83E8
100
AcDbEntity
  8
0
100
AcDbBlockEnd
  0
BLOCK
  5
83EB
330
83EA
100
AcDbEntity
  8
0
100
AcDbBlockBegin
  2
$PAPER_SPACE
 70
     0
 10
0.0
 20
0.0
 30
0.0
  3
$PAPER_SPACE
  1

  0
ENDBLK
  5
18
330
83EA
100
AcDbEntity
  8
0
100
AcDbBlockEnd
  0
BLOCK
  5
83ED
330
83EC
100
AcDbEntity
  8
0
100
AcDbBlockBegin
  2
_OPEN
 70
     0
 10
0.0
 20
0.0
 30
0.0
  3
_OPEN
  1

  0
LINE
  5
79FD
330
83EC
100
AcDbEntity
  8
0
  6
ByBlock
 62
     0
100
AcDbLine
 10
-1.0
 20
0.1666666666666666
 30
0.0
 11
0.0
 21
0.0
 31
0.0
  0
LINE
  5
79FE
330
83EC
100
AcDbEntity
  8
0
  6
ByBlock
 62
     0
100
AcDbLine
 10
0.0
 20
0.0
 30
0.0
 11
-1.0
 21
-0.1666666666666666
 31
0.0
  0
LINE
  5
79FF
330
83EC
100
AcDbEntity
  8
0
  6
ByBlock
 62
     0
100
AcDbLine
 10
0.0
 20
0.0
 30
0.0
 11
-1.0
 21
0.0
 31
0.0
  0
ENDBLK
  5
7A01
330
83EC
100
AcDbEntity
  8
0
100
AcDbBlockEnd
  0
BLOCK
  5
83EF
330
83EE
100
AcDbEntity
  8
0
100
AcDbBlockBegin
  2
YA_N
 70
     0
 10
0.0
 20
0.0
 30
0.0
  3
YA_N
  1

  0
ENDBLK
  5
7A0C
330
83EE
100
AcDbEntity
  8
0
100
AcDbBlockEnd
  0
BLOCK
  5
83F1
330
83F0
100
AcDbEntity
  8
0
100
AcDbBlockBegin
  2
*D4
 70
     1
 10
0.0
 20
0.0
 30
0.0
  3
*D4
  1

  0
LINE
  5
82CF
330
83F0
100
AcDbEntity
  8
3
 62
     0
100
AcDbLine
 10
1216.494202334008
 20
3706.978022216087
 30
0.0
 11
1216.494202334008
 21
3871.593130659299
 31
0.0
  0
LINE
  5
82D0
330
83F0
100
AcDbEntity
  8
3
 62
     0
100
AcDbLine
 10
2141.494202334008
 20
3706.978022216087
 30
0.0
 11
2141.494202334008
 21
3871.593130659299
 31
0.0
  0
LINE
  5
82D1
330
83F0
100
AcDbEntity
  8
3
 62
     0
100
AcDbLine
 10
1276.494202334008
 20
3841.593130659299
 30
0.0
 11
2081.494202334007
 21
3841.593130659299
 31
0.0
  0
INSERT
  5
82D2
330
83F0
100
AcDbEntity
  8
3
 62
     0
100
AcDbBlockReference
  2
_OPEN
 10
1216.494202334008
 20
3841.593130659299
 30
0.0
 41
60.0
 42
60.0
 43
60.0
 50
180.0
  0
INSERT
  5
82D3
330
83F0
100
AcDbEntity
  8
3
 62
     0
100
AcDbBlockReference
  2
_OPEN
 10
2141.494202334008
 20
3841.593130659299
 30
0.0
 41
60.0
 42
60.0
 43
60.0
  0
TEXT
  5
835B
330
83F0
100
AcDbEntity
  8
3
 62
     0
100
AcDbText
 10
1498.99
 20
3757.29
 30
0.0
 40
90.0
  1
925
100
AcDbText
  0
POINT
  5
82D5
330
83F0
100
AcDbEntity
  8
DEFPOINTS
 62
     0
100
AcDbPoint
 10
1216.494202334008
 20
3691.978022216089
 30
0.0
  0
POINT
  5
82D6
330
83F0
100
AcDbEntity
  8
DEFPOINTS
 62
     0
100
AcDbPoint
 10
2141.494202334008
 20
3691.978022216089
 30
0.0
  0
POINT
  5
82D7
330
83F0
100
AcDbEntity
  8
DEFPOINTS
 62
     0
100
AcDbPoint
 10
2141.494202334008
 20
3841.593130659299
 30
0.0
  0
ENDBLK
  5
8139
330
83F0
100
AcDbEntity
  8
0
100
AcDbBlockEnd
  0
BLOCK
  5
83F3
330
83F2
100
AcDbEntity
  8
0
100
AcDbBlockBegin
  2
*D5
 70
     1
 10
0.0
 20
0.0
 30
0.0
  3
*D5
  1

  0
LINE
  5
82D8
330
83F2
100
AcDbEntity
  8
3
 62
     0
100
AcDbLine
 10
1216.494202334008
 20
3706.978022216087
 30
0.0
 11
1216.494202334008
 21
4021.936430757161
 31
0.0
  0
LINE
  5
82D9
330
83F2
100
AcDbEntity
  8
3
 62
     0
100
AcDbLine
 10
2177.494202334008
 20
3743.233360994635
 30
0.0
 11
2177.494202334008
 21
4021.936430757161
 31
0.0
  0
LINE
  5
82DA
330
83F2
100
AcDbEntity
  8
3
 62
     0
100
AcDbLine
 10
1276.494202334008
 20
3991.936430757161
 30
0.0
 11
2117.494202334007
 21
3991.936430757161
 31
0.0
  0
INSERT
  5
82DB
330
83F2
100
AcDbEntity
  8
3
 62
     0
100
AcDbBlockReference
  2
_OPEN
 10
1216.494202334008
 20
3991.936430757161
 30
0.0
 41
60.0
 42
60.0
 43
60.0
 50
180.0
  0
INSERT
  5
82DC
330
83F2
100
AcDbEntity
  8
3
 62
     0
100
AcDbBlockReference
  2
_OPEN
 10
2177.494202334008
 20
3991.936430757161
 30
0.0
 41
60.0
 42
60.0
 43
60.0
  0
TEXT
  5
835C
330
83F2
100
AcDbEntity
  8
3
 62
     0
100
AcDbText
 10
1516.99
 20
3907.64
 30
0.0
 40
90.0
  1
961
100
AcDbText
  0
POINT
  5
82DE
330
83F2
100
AcDbEntity
  8
DEFPOINTS
 62
     0
100
AcDbPoint
 10
1216.494202334008
 20
3691.978022216089
 30
0.0
  0
POINT
  5
82DF
330
83F2
100
AcDbEntity
  8
DEFPOINTS
 62
     0
100
AcDbPoint
 10
2177.494202334008
 20
3728.233360994634
 30
0.0
  0
POINT
  5
82E0
330
83F2
100
AcDbEntity
  8
DEFPOINTS
 62
     0
100
AcDbPoint
 10
2177.494202334008
 20
3991.936430757161
 30
0.0
  0
ENDBLK
  5
812E
330
83F2
100
AcDbEntity
  8
0
100
AcDbBlockEnd
  0
BLOCK
  5
83F5
330
83F4
100
AcDbEntity
  8
0
100
AcDbBlockBegin
  2
*D6
 70
     1
 10
0.0
 20
0.0
 30
0.0
  3
*D6
  1

  0
LINE
  5
82E1
330
83F4
100
AcDbEntity
  8
3
 62
     0
100
AcDbLine
 10
4424.653931325547
 20
3676.436606431396
 30
0.0
 11
4424.653931325547
 21
3873.854893949089
 31
0.0
  0
LINE
  5
82E2
330
83F4
100
AcDbEntity
  8
3
 62
     0
100
AcDbLine
 10
5544.653931325547
 20
3679.479999769124
 30
0.0
 11
5544.653931325547
 21
3873.854893949089
 31
0.0
  0
LINE
  5
82E3
330
83F4
100
AcDbEntity
  8
3
 62
     0
100
AcDbLine
 10
4484.653931325547
 20
3843.854893949089
 30
0.0
 11
5484.653931325547
 21
3843.854893949089
 31
0.0
  0
INSERT
  5
82E4
330
83F4
100
AcDbEntity
  8
3
 62
     0
100
AcDbBlockReference
  2
_OPEN
 10
4424.653931325547
 20
3843.854893949089
 30
0.0
 41
60.0
 42
60.0
 43
60.0
 50
180.0
  0
INSERT
  5
82E5
330
83F4
100
AcDbEntity
  8
3
 62
     0
100
AcDbBlockReference
  2
_OPEN
 10
5544.653931325547
 20
3843.854893949089
 30
0.0
 41
60.0
 42
60.0
 43
60.0
  0
TEXT
  5
835D
330
83F4
100
AcDbEntity
  8
3
 62
     0
100
AcDbText
 10
4804.649999999999
 20
3759.55
 30
0.0
 40
90.0
  1
1120
100
AcDbText
  0
POINT
  5
82E7
330
83F4
100
AcDbEntity
  8
DEFPOINTS
 62
     0
100
AcDbPoint
 10
4424.653931325547
 20
3661.436606431396
 30
0.0
  0
POINT
  5
82E8
330
83F4
100
AcDbEntity
  8
DEFPOINTS
 62
     0
100
AcDbPoint
 10
5544.653931325547
 20
3664.479999769124
 30
0.0
  0
POINT
  5
82E9
330
83F4
100
AcDbEntity
  8
DEFPOINTS
 62
     0
100
AcDbPoint
 10
5544.653931325547
 20
3843.854893949089
 30
0.0
  0
ENDBLK
  5
80F7
330
83F4
100
AcDbEntity
  8
0
100
AcDbBlockEnd
  0
BLOCK
  5
83F7
330
83F6
100
AcDbEntity
  8
0
100
AcDbBlockBegin
  2
*D7
 70
     1
 10
0.0
 20
0.0
 30
0.0
  3
*D7
  1

  0
LINE
  5
82EA
330
83F6
100
AcDbEntity
  8
3
 62
     0
100
AcDbLine
 10
4086.653931325545
 20
3366.978022216089
 30
0.0
 11
4086.653931325545
 21
4063.408500703403
 31
0.0
  0
LINE
  5
82EB
330
83F6
100
AcDbEntity
  8
3
 62
     0
100
AcDbLine
 10
4984.653931325547
 20
4003.869590203787
 30
0.0
 11
4984.653931325547
 21
4063.408500703403
 31
0.0
  0
LINE
  5
82EC
330
83F6
100
AcDbEntity
  8
3
 62
     0
100
AcDbLine
 10
4146.653931325545
 20
4033.408500703401
 30
0.0
 11
4924.653931325547
 21
4033.408500703401
 31
0.0
  0
INSERT
  5
82ED
330
83F6
100
AcDbEntity
  8
3
 62
     0
100
AcDbBlockReference
  2
_OPEN
 10
4086.653931325545
 20
4033.408500703401
 30
0.0
 41
60.0
 42
60.0
 43
60.0
 50
180.0
  0
INSERT
  5
82EE
330
83F6
100
AcDbEntity
  8
3
 62
     0
100
AcDbBlockReference
  2
_OPEN
 10
4984.653931325547
 20
4033.408500703401
 30
0.0
 41
60.0
 42
60.0
 43
60.0
  0
TEXT
  5
835E
330
83F6
100
AcDbEntity
  8
3
 62
     0
100
AcDbText
 10
4355.649999999999
 20
4024.11
 30
0.0
 40
90.0
  1
MAX
100
AcDbText
  0
TEXT
  5
835F
330
83F6
100
AcDbEntity
  8
3
 62
     0
100
AcDbText
 10
4355.649999999999
 20
3907.11
 30
0.0
 40
90.0
  1
920
100
AcDbText
  0
POINT
  5
82F0
330
83F6
100
AcDbEntity
  8
DEFPOINTS
 62
     0
100
AcDbPoint
 10
4086.653931325545
 20
3351.978022216088
 30
0.0
  0
POINT
  5
82F1
330
83F6
100
AcDbEntity
  8
DEFPOINTS
 62
     0
100
AcDbPoint
 10
4984.653931325547
 20
3988.869590203789
 30
0.0
  0
POINT
  5
82F2
330
83F6
100
AcDbEntity
  8
DEFPOINTS
 62
     0
100
AcDbPoint
 10
4984.653931325547
 20
4033.408500703401
 30
0.0
  0
ENDBLK
  5
80EC
330
83F6
100
AcDbEntity
  8
0
100
AcDbBlockEnd
  0
BLOCK
  5
83F9
330
83F8
100
AcDbEntity
  8
0
100
AcDbBlockBegin
  2
*D8
 70
     1
 10
0.0
 20
0.0
 30
0.0
  3
*D8
  1

  0
LINE
  5
82F3
330
83F8
100
AcDbEntity
  8
3
 62
     0
100
AcDbLine
 10
4984.653931325547
 20
3978.732107357336
 30
0.0
 11
4984.653931325547
 21
4063.408500703403
 31
0.0
  0
LINE
  5
82F4
330
83F8
100
AcDbEntity
  8
3
 62
     0
100
AcDbLine
 10
5654.153931325545
 20
3047.478022216088
 30
0.0
 11
5654.153931325545
 21
4063.408500703403
 31
0.0
  0
LINE
  5
82F5
330
83F8
100
AcDbEntity
  8
3
 62
     0
100
AcDbLine
 10
5044.653931325547
 20
4033.408500703401
 30
0.0
 11
5594.153931325545
 21
4033.408500703401
 31
0.0
  0
INSERT
  5
82F6
330
83F8
100
AcDbEntity
  8
3
 62
     0
100
AcDbBlockReference
  2
_OPEN
 10
4984.653931325547
 20
4033.408500703401
 30
0.0
 41
60.0
 42
60.0
 43
60.0
 50
180.0
  0
INSERT
  5
82F7
330
83F8
100
AcDbEntity
  8
3
 62
     0
100
AcDbBlockReference
  2
_OPEN
 10
5654.153931325545
 20
4033.408500703401
 30
0.0
 41
60.0
 42
60.0
 43
60.0
  0
TEXT
  5
8360
330
83F8
100
AcDbEntity
  8
3
 62
     0
100
AcDbText
 10
5139.4
 20
3972.68
 30
0.0
 40
90.0
  1
(680)
100
AcDbText
  0
POINT
  5
82F9
330
83F8
100
AcDbEntity
  8
DEFPOINTS
 62
     0
100
AcDbPoint
 10
4984.653931325547
 20
3963.732107357337
 30
0.0
  0
POINT
  5
82FA
330
83F8
100
AcDbEntity
  8
DEFPOINTS
 62
     0
100
AcDbPoint
 10
5654.153931325545
 20
3032.478022216089
 30
0.0
  0
POINT
  5
82FB
330
83F8
100
AcDbEntity
  8
DEFPOINTS
 62
     0
100
AcDbPoint
 10
5654.153931325545
 20
4033.408500703401
 30
0.0
  0
ENDBLK
  5
80E1
330
83F8
100
AcDbEntity
  8
0
100
AcDbBlockEnd
  0
BLOCK
  5
83FB
330
83FA
100
AcDbEntity
  8
0
100
AcDbBlockBegin
  2
*D9
 70
     1
 10
0.0
 20
0.0
 30
0.0
  3
*D9
  1

  0
LINE
  5
82FC
330
83FA
100
AcDbEntity
  8
3
 62
     0
100
AcDbLine
 10
867.4942023340097
 20
5556.676946236008
 30
0.0
 11
867.4942023340097
 21
6448.691604741229
 31
0.0
  0
LINE
  5
82FD
330
83FA
100
AcDbEntity
  8
3
 62
     0
100
AcDbLine
 10
1617.49420233401
 20
6131.676946236007
 30
0.0
 11
1617.49420233401
 21
6448.691604741229
 31
0.0
  0
LINE
  5
82FE
330
83FA
100
AcDbEntity
  8
3
 62
     0
100
AcDbLine
 10
927.4942023340098
 20
6418.691604741228
 30
0.0
 11
1557.49420233401
 21
6418.691604741228
 31
0.0
  0
INSERT
  5
82FF
330
83FA
100
AcDbEntity
  8
3
 62
     0
100
AcDbBlockReference
  2
_OPEN
 10
867.4942023340097
 20
6418.691604741228
 30
0.0
 41
60.0
 42
60.0
 43
60.0
 50
180.0
  0
INSERT
  5
8300
330
83FA
100
AcDbEntity
  8
3
 62
     0
100
AcDbBlockReference
  2
_OPEN
 10
1617.49420233401
 20
6418.691604741228
 30
0.0
 41
60.0
 42
60.0
 43
60.0
  0
TEXT
  5
8361
330
83FA
100
AcDbEntity
  8
3
 62
     0
100
AcDbText
 10
1062.49
 20
6334.39
 30
0.0
 40
90.0
  1
750
100
AcDbText
  0
POINT
  5
8302
330
83FA
100
AcDbEntity
  8
DEFPOINTS
 62
     0
100
AcDbPoint
 10
867.4942023340097
 20
5541.676946236008
 30
0.0
  0
POINT
  5
8303
330
83FA
100
AcDbEntity
  8
DEFPOINTS
 62
     0
100
AcDbPoint
 10
1617.49420233401
 20
6116.676946236007
 30
0.0
  0
POINT
  5
8304
330
83FA
100
AcDbEntity
  8
DEFPOINTS
 62
     0
100
AcDbPoint
 10
1617.49420233401
 20
6418.691604741228
 30
0.0
  0
ENDBLK
  5
80D6
330
83FA
100
AcDbEntity
  8
0
100
AcDbBlockEnd
  0
BLOCK
  5
83FD
330
83FC
100
AcDbEntity
  8
0
100
AcDbBlockBegin
  2
*D10
 70
     1
 10
0.0
 20
0.0
 30
0.0
  3
*D10
  1

  0
LINE
  5
8305
330
83FC
100
AcDbEntity
  8
3
 62
     0
100
AcDbLine
 10
1617.49420233401
 20
6131.676946236007
 30
0.0
 11
1617.49420233401
 21
6448.691604741229
 31
0.0
  0
LINE
  5
8306
330
83FC
100
AcDbEntity
  8
3
 62
     0
100
AcDbLine
 10
2737.494202334008
 20
6131.676946236006
 30
0.0
 11
2737.494202334008
 21
6448.691604741229
 31
0.0
  0
LINE
  5
8307
330
83FC
100
AcDbEntity
  8
3
 62
     0
100
AcDbLine
 10
1677.49420233401
 20
6418.691604741228
 30
0.0
 11
2677.494202334009
 21
6418.691604741228
 31
0.0
  0
INSERT
  5
8308
330
83FC
100
AcDbEntity
  8
3
 62
     0
100
AcDbBlockReference
  2
_OPEN
 10
1617.49420233401
 20
6418.691604741228
 30
0.0
 41
60.0
 42
60.0
 43
60.0
 50
180.0
  0
INSERT
  5
8309
330
83FC
100
AcDbEntity
  8
3
 62
     0
100
AcDbBlockReference
  2
_OPEN
 10
2737.494202334008
 20
6418.691604741228
 30
0.0
 41
60.0
 42
60.0
 43
60.0
  0
TEXT
  5
8362
330
83FC
100
AcDbEntity
  8
3
 62
     0
100
AcDbText
 10
1997.49
 20
6334.39
 30
0.0
 40
90.0
  1
1120
100
AcDbText
  0
POINT
  5
830B
330
83FC
100
AcDbEntity
  8
DEFPOINTS
 62
     0
100
AcDbPoint
 10
1617.49420233401
 20
6116.676946236007
 30
0.0
  0
POINT
  5
830C
330
83FC
100
AcDbEntity
  8
DEFPOINTS
 62
     0
100
AcDbPoint
 10
2737.494202334008
 20
6116.676946236006
 30
0.0
  0
POINT
  5
830D
330
83FC
100
AcDbEntity
  8
DEFPOINTS
 62
     0
100
AcDbPoint
 10
2737.494202334008
 20
6418.691604741228
 30
0.0
  0
ENDBLK
  5
80CB
330
83FC
100
AcDbEntity
  8
0
100
AcDbBlockEnd
  0
BLOCK
  5
83FF
330
83FE
100
AcDbEntity
  8
0
100
AcDbBlockBegin
  2
*D11
 70
     1
 10
0.0
 20
0.0
 30
0.0
  3
*D11
  1

  0
LINE
  5
830E
330
83FE
100
AcDbEntity
  8
3
 62
     0
100
AcDbLine
 10
2752.494202334009
 20
6116.676946236006
 30
0.0
 11
3067.918424500427
 21
6116.676946236006
 31
0.0
  0
LINE
  5
830F
330
83FE
100
AcDbEntity
  8
3
 62
     0
100
AcDbLine
 10
2752.494202334009
 20
4741.676946236006
 30
0.0
 11
3067.918424500425
 21
4741.676946236006
 31
0.0
  0
LINE
  5
8310
330
83FE
100
AcDbEntity
  8
3
 62
     0
100
AcDbLine
 10
3037.918424500425
 20
6056.676946236006
 30
0.0
 11
3037.918424500425
 21
4801.676946236006
 31
0.0
  0
INSERT
  5
8311
330
83FE
100
AcDbEntity
  8
3
 62
     0
100
AcDbBlockReference
  2
_OPEN
 10
3037.918424500425
 20
6116.676946236006
 30
0.0
 41
60.0
 42
60.0
 43
60.0
 50
90.0
  0
INSERT
  5
8312
330
83FE
100
AcDbEntity
  8
3
 62
     0
100
AcDbBlockReference
  2
_OPEN
 10
3037.918424500425
 20
4741.676946236006
 30
0.0
 41
60.0
 42
60.0
 43
60.0
 50
270.0
  0
TEXT
  5
8363
330
83FE
100
AcDbEntity
  8
3
 62
     0
100
AcDbText
 10
2782.92
 20
5269.88
 30
0.0
 40
90.0
  1
1375
100
AcDbText
  0
POINT
  5
8314
330
83FE
100
AcDbEntity
  8
DEFPOINTS
 62
     0
100
AcDbPoint
 10
2737.494202334008
 20
6116.676946236006
 30
0.0
  0
POINT
  5
8315
330
83FE
100
AcDbEntity
  8
DEFPOINTS
 62
     0
100
AcDbPoint
 10
2737.49420233401
 20
4741.676946236006
 30
0.0
  0
POINT
  5
8316
330
83FE
100
AcDbEntity
  8
DEFPOINTS
 62
     0
100
AcDbPoint
 10
3037.918424500425
 20
4741.676946236006
 30
0.0
  0
ENDBLK
  5
80C0
330
83FE
100
AcDbEntity
  8
0
100
AcDbBlockEnd
  0
BLOCK
  5
8401
330
8400
100
AcDbEntity
  8
0
100
AcDbBlockBegin
  2
*D12
 70
     1
 10
0.0
 20
0.0
 30
0.0
  3
*D12
  1

  0
LINE
  5
8317
330
8400
100
AcDbEntity
  8
3
 62
     0
100
AcDbLine
 10
867.4942023340097
 20
4726.676946236006
 30
0.0
 11
867.4942023340097
 21
4404.529786753934
 31
0.0
  0
LINE
  5
8318
330
8400
100
AcDbEntity
  8
3
 62
     0
100
AcDbLine
 10
2737.49420233401
 20
4726.676946236006
 30
0.0
 11
2737.49420233401
 21
4404.529786753934
 31
0.0
  0
LINE
  5
8319
330
8400
100
AcDbEntity
  8
3
 62
     0
100
AcDbLine
 10
927.4942023340098
 20
4434.529786753933
 30
0.0
 11
2677.49420233401
 21
4434.529786753933
 31
0.0
  0
INSERT
  5
831A
330
8400
100
AcDbEntity
  8
3
 62
     0
100
AcDbBlockReference
  2
_OPEN
 10
867.4942023340097
 20
4434.529786753933
 30
0.0
 41
60.0
 42
60.0
 43
60.0
 50
180.0
  0
INSERT
  5
831B
330
8400
100
AcDbEntity
  8
3
 62
     0
100
AcDbBlockReference
  2
_OPEN
 10
2737.49420233401
 20
4434.529786753933
 30
0.0
 41
60.0
 42
60.0
 43
60.0
  0
TEXT
  5
8364
330
8400
100
AcDbEntity
  8
3
 62
     0
100
AcDbText
 10
1622.49
 20
4350.229999999999
 30
0.0
 40
90.0
  1
1870
100
AcDbText
  0
POINT
  5
831D
330
8400
100
AcDbEntity
  8
DEFPOINTS
 62
     0
100
AcDbPoint
 10
867.4942023340097
 20
4741.676946236006
 30
0.0
  0
POINT
  5
831E
330
8400
100
AcDbEntity
  8
DEFPOINTS
 62
     0
100
AcDbPoint
 10
2737.49420233401
 20
4741.676946236006
 30
0.0
  0
POINT
  5
831F
330
8400
100
AcDbEntity
  8
DEFPOINTS
 62
     0
100
AcDbPoint
 10
2737.49420233401
 20
4434.529786753933
 30
0.0
  0
ENDBLK
  5
80B5
330
8400
100
AcDbEntity
  8
0
100
AcDbBlockEnd
  0
BLOCK
  5
8403
330
8402
100
AcDbEntity
  8
0
100
AcDbBlockBegin
  2
*D13
 70
     1
 10
0.0
 20
0.0
 30
0.0
  3
*D13
  1

  0
LINE
  5
8320
330
8402
100
AcDbEntity
  8
3
 62
     0
100
AcDbLine
 10
852.4942023340097
 20
5541.676946236008
 30
0.0
 11
647.6426948674745
 21
5541.676946236008
 31
0.0
  0
LINE
  5
8321
330
8402
100
AcDbEntity
  8
3
 62
     0
100
AcDbLine
 10
852.4942023340097
 20
4741.676946236006
 30
0.0
 11
647.6426948674743
 21
4741.676946236006
 31
0.0
  0
LINE
  5
8322
330
8402
100
AcDbEntity
  8
3
 62
     0
100
AcDbLine
 10
677.6426948674745
 20
5481.676946236007
 30
0.0
 11
677.6426948674743
 21
4801.676946236006
 31
0.0
  0
INSERT
  5
8323
330
8402
100
AcDbEntity
  8
3
 62
     0
100
AcDbBlockReference
  2
_OPEN
 10
677.6426948674745
 20
5541.676946236008
 30
0.0
 41
60.0
 42
60.0
 43
60.0
 50
90.0
  0
INSERT
  5
8324
330
8402
100
AcDbEntity
  8
3
 62
     0
100
AcDbBlockReference
  2
_OPEN
 10
677.6426948674743
 20
4741.676946236006
 30
0.0
 41
60.0
 42
60.0
 43
60.0
 50
270.0
  0
TEXT
  5
8365
330
8402
100
AcDbEntity
  8
3
 62
     0
100
AcDbText
 10
422.643
 20
4982.38
 30
0.0
 40
90.0
  1
800
100
AcDbText
  0
POINT
  5
8326
330
8402
100
AcDbEntity
  8
DEFPOINTS
 62
     0
100
AcDbPoint
 10
867.4942023340097
 20
5541.676946236008
 30
0.0
  0
POINT
  5
8327
330
8402
100
AcDbEntity
  8
DEFPOINTS
 62
     0
100
AcDbPoint
 10
867.4942023340097
 20
4741.676946236006
 30
0.0
  0
POINT
  5
8328
330
8402
100
AcDbEntity
  8
DEFPOINTS
 62
     0
100
AcDbPoint
 10
677.6426948674743
 20
4741.676946236006
 30
0.0
  0
ENDBLK
  5
80AA
330
8402
100
AcDbEntity
  8
0
100
AcDbBlockEnd
  0
BLOCK
  5
8405
330
8404
100
AcDbEntity
  8
0
100
AcDbBlockBegin
  2
*D14
 70
     1
 10
0.0
 20
0.0
 30
0.0
  3
*D14
  1

  0
LINE
  5
8329
330
8404
100
AcDbEntity
  8
3
 62
     0
100
AcDbLine
 10
5565.153931325546
 20
2596.978022216088
 30
0.0
 11
5898.544925153682
 21
2596.978022216088
 31
0.0
  0
LINE
  5
832A
330
8404
100
AcDbEntity
  8
3
 62
     0
100
AcDbLine
 10
5565.153931325546
 20
3546.978022216087
 30
0.0
 11
5898.544925153682
 21
3546.978022216087
 31
0.0
  0
LINE
  5
832B
330
8404
100
AcDbEntity
  8
3
 62
     0
100
AcDbLine
 10
5868.544925153682
 20
2656.978022216088
 30
0.0
 11
5868.544925153682
 21
3486.978022216089
 31
0.0
  0
INSERT
  5
832C
330
8404
100
AcDbEntity
  8
3
 62
     0
100
AcDbBlockReference
  2
_OPEN
 10
5868.544925153682
 20
2596.978022216088
 30
0.0
 41
60.0
 42
60.0
 43
60.0
 50
270.0
  0
INSERT
  5
832D
330
8404
100
AcDbEntity
  8
3
 62
     0
100
AcDbBlockReference
  2
_OPEN
 10
5868.544925153682
 20
3546.978022216087
 30
0.0
 41
60.0
 42
60.0
 43
60.0
 50
90.0
  0
TEXT
  5
8366
330
8404
100
AcDbEntity
  8
3
 62
     0
100
AcDbText
 10
5613.54
 20
2912.68
 30
0.0
 40
90.0
  1
\U+03C6950
100
AcDbText
  0
POINT
  5
832F
330
8404
100
AcDbEntity
  8
DEFPOINTS
 62
     0
100
AcDbPoint
 10
5550.153931325547
 20
2596.978022216088
 30
0.0
  0
POINT
  5
8330
330
8404
100
AcDbEntity
  8
DEFPOINTS
 62
     0
100
AcDbPoint
 10
5550.153931325547
 20
3546.978022216087
 30
0.0
  0
POINT
  5
8331
330
8404
100
AcDbEntity
  8
DEFPOINTS
 62
     0
100
AcDbPoint
 10
5868.544925153682
 20
3546.978022216087
 30
0.0
  0
ENDBLK
  5
809F
330
8404
100
AcDbEntity
  8
0
100
AcDbBlockEnd
  0
BLOCK
  5
8407
330
8406
100
AcDbEntity
  8
0
100
AcDbBlockBegin
  2
*D15
 70
     1
 10
0.0
 20
0.0
 30
0.0
  3
*D15
  1

  0
LINE
  5
8332
330
8406
100
AcDbEntity
  8
3
 62
     0
100
AcDbLine
 10
2198.994202334008
 20
3691.978022216089
 30
0.0
 11
3075.431187629272
 21
3691.978022216087
 31
0.0
  0
LINE
  5
8333
330
8406
100
AcDbEntity
  8
3
 62
     0
100
AcDbLine
 10
2848.749541112555
 20
3071.978022216089
 30
0.0
 11
3075.43118762927
 21
3071.978022216087
 31
0.0
  0
LINE
  5
8334
330
8406
100
AcDbEntity
  8
3
 62
     0
100
AcDbLine
 10
3045.431187629271
 20
3631.978022216089
 30
0.0
 11
3045.431187629271
 21
3131.978022216089
 31
0.0
  0
INSERT
  5
8335
330
8406
100
AcDbEntity
  8
3
 62
     0
100
AcDbBlockReference
  2
_OPEN
 10
3045.431187629271
 20
3691.978022216089
 30
0.0
 41
60.0
 42
60.0
 43
60.0
 50
90.0
  0
INSERT
  5
8336
330
8406
100
AcDbEntity
  8
3
 62
     0
100
AcDbBlockReference
  2
_OPEN
 10
3045.431187629271
 20
3071.978022216089
 30
0.0
 41
60.0
 42
60.0
 43
60.0
 50
270.0
  0
TEXT
  5
8367
330
8406
100
AcDbEntity
  8
3
 62
     0
100
AcDbText
 10
2790.43
 20
3222.68
 30
0.0
 40
90.0
  1
620
100
AcDbText
  0
POINT
  5
8338
330
8406
100
AcDbEntity
  8
DEFPOINTS
 62
     0
100
AcDbPoint
 10
2183.994202334008
 20
3691.978022216089
 30
0.0
  0
POINT
  5
8339
330
8406
100
AcDbEntity
  8
DEFPOINTS
 62
     0
100
AcDbPoint
 10
2833.749541112554
 20
3071.978022216089
 30
0.0
  0
POINT
  5
833A
330
8406
100
AcDbEntity
  8
DEFPOINTS
 62
     0
100
AcDbPoint
 10
3045.431187629271
 20
3071.978022216089
 30
0.0
  0
ENDBLK
  5
8094
330
8406
100
AcDbEntity
  8
0
100
AcDbBlockEnd
  0
BLOCK
  5
8409
330
8408
100
AcDbEntity
  8
0
100
AcDbBlockBegin
  2
*D16
 70
     1
 10
0.0
 20
0.0
 30
0.0
  3
*D16
  1

  0
LINE
  5
833B
330
8408
100
AcDbEntity
  8
3
 62
     0
100
AcDbLine
 10
2848.749541112555
 20
3071.978022216089
 30
0.0
 11
3075.43118762927
 21
3071.978022216087
 31
0.0
  0
LINE
  5
833C
330
8408
100
AcDbEntity
  8
3
 62
     0
100
AcDbLine
 10
2752.494202334008
 20
2251.978022216087
 30
0.0
 11
3075.43118762927
 21
2251.978022216087
 31
0.0
  0
LINE
  5
833D
330
8408
100
AcDbEntity
  8
3
 62
     0
100
AcDbLine
 10
3045.431187629271
 20
3011.978022216089
 30
0.0
 11
3045.431187629271
 21
2311.978022216087
 31
0.0
  0
INSERT
  5
833E
330
8408
100
AcDbEntity
  8
3
 62
     0
100
AcDbBlockReference
  2
_OPEN
 10
3045.431187629271
 20
3071.978022216089
 30
0.0
 41
60.0
 42
60.0
 43
60.0
 50
90.0
  0
INSERT
  5
833F
330
8408
100
AcDbEntity
  8
3
 62
     0
100
AcDbBlockReference
  2
_OPEN
 10
3045.431187629271
 20
2251.978022216087
 30
0.0
 41
60.0
 42
60.0
 43
60.0
 50
270.0
  0
TEXT
  5
8368
330
8408
100
AcDbEntity
  8
3
 62
     0
100
AcDbText
 10
2790.43
 20
2502.68
 30
0.0
 40
90.0
  1
820
100
AcDbText
  0
POINT
  5
8341
330
8408
100
AcDbEntity
  8
DEFPOINTS
 62
     0
100
AcDbPoint
 10
2833.749541112554
 20
3071.978022216089
 30
0.0
  0
POINT
  5
8342
330
8408
100
AcDbEntity
  8
DEFPOINTS
 62
     0
100
AcDbPoint
 10
2737.494202334008
 20
2251.978022216087
 30
0.0
  0
POINT
  5
8343
330
8408
100
AcDbEntity
  8
DEFPOINTS
 62
     0
100
AcDbPoint
 10
3045.431187629271
 20
2251.978022216087
 30
0.0
  0
ENDBLK
  5
8089
330
8408
100
AcDbEntity
  8
0
100
AcDbBlockEnd
  0
BLOCK
  5
840B
330
840A
100
AcDbEntity
  8
0
100
AcDbBlockBegin
  2
*D17
 70
     1
 10
0.0
 20
0.0
 30
0.0
  3
*D17
  1

  0
LINE
  5
8344
330
840A
100
AcDbEntity
  8
3
 62
     0
100
AcDbLine
 10
2752.494202334009
 20
2224.978022216088
 30
0.0
 11
3075.43118762927
 21
2224.978022216088
 31
0.0
  0
LINE
  5
8345
330
840A
100
AcDbEntity
  8
3
 62
     0
100
AcDbLine
 10
2752.494202334009
 20
2124.978022216088
 30
0.0
 11
3075.43118762927
 21
2124.978022216088
 31
0.0
  0
LINE
  5
8346
330
840A
100
AcDbEntity
  8
3
 62
     0
100
AcDbLine
 10
3045.431187629271
 20
2284.978022216088
 30
0.0
 11
3045.431187629271
 21
2344.978022216087
 31
0.0
  0
LINE
  5
8347
330
840A
100
AcDbEntity
  8
3
 62
     0
100
AcDbLine
 10
3045.431187629271
 20
2064.978022216088
 30
0.0
 11
3045.431187629271
 21
1730.692307930373
 31
0.0
  0
LINE
  5
8348
330
840A
100
AcDbEntity
  8
3
 62
     0
100
AcDbLine
 10
3045.431187629271
 20
2224.978022216088
 30
0.0
 11
3045.431187629271
 21
2124.978022216088
 31
0.0
  0
INSERT
  5
8349
330
840A
100
AcDbEntity
  8
3
 62
     0
100
AcDbBlockReference
  2
_DOT
 10
3045.431187629271
 20
2224.978022216088
 30
0.0
 41
60.0
 42
60.0
 43
60.0
 50
270.0
  0
INSERT
  5
834A
330
840A
100
AcDbEntity
  8
3
 62
     0
100
AcDbBlockReference
  2
_OPEN
 10
3045.431187629271
 20
2124.978022216088
 30
0.0
 41
60.0
 42
60.0
 43
60.0
 50
90.0
  0
TEXT
  5
8369
330
840A
100
AcDbEntity
  8
3
 62
     0
100
AcDbText
 10
2790.43
 20
1708.54
 30
0.0
 40
90.0
  1
100
100
AcDbText
  0
POINT
  5
834C
330
840A
100
AcDbEntity
  8
DEFPOINTS
 62
     0
100
AcDbPoint
 10
2737.49420233401
 20
2224.978022216088
 30
0.0
  0
POINT
  5
834D
330
840A
100
AcDbEntity
  8
DEFPOINTS
 62
     0
100
AcDbPoint
 10
2737.49420233401
 20
2124.978022216088
 30
0.0
  0
POINT
  5
834E
330
840A
100
AcDbEntity
  8
DEFPOINTS
 62
     0
100
AcDbPoint
 10
3045.431187629271
 20
2124.978022216088
 30
0.0
  0
ENDBLK
  5
8187
330
840A
100
AcDbEntity
  8
0
100
AcDbBlockEnd
  0
BLOCK
  5
840F
330
840C
100
AcDbEntity
  8
0
100
AcDbBlockBegin
  2
_DOT
 70
     0
 10
0.0
 20
0.0
 30
0.0
  3
_DOT
  1

  0
LWPOLYLINE
  5
7FC1
330
840C
100
AcDbEntity
  8
0
  6
ByBlock
 62
     0
100
AcDbPolyline
 90
        2
 70
     1
 43
0.25
 10
-0.125
 20
0.0
 42
1.0
 10
0.125
 20
0.0
 42
1.0
  0
LINE
  5
7FC5
330
840C
100
AcDbEntity
  8
0
  6
ByBlock
 62
     0
100
AcDbLine
 10
-0.25
 20
0.0
 30
0.0
 11
-1.0
 21
0.0
 31
0.0
  0
ENDBLK
  5
7FA4
330
840C
100
AcDbEntity
  8
0
100
AcDbBlockEnd
  0
BLOCK
  5
840E
330
840D
100
AcDbEntity
  8
0
100
AcDbBlockBegin
  2
*D19
 70
     1
 10
0.0
 20
0.0
 30
0.0
  3
*D19
  1

  0
LINE
  5
834F
330
840D
100
AcDbEntity
  8
3
 62
     0
100
AcDbLine
 10
2177.494202334008
 20
3743.233360994635
 30
0.0
 11
2177.494202334008
 21
4021.936430757161
 31
0.0
  0
LINE
  5
8350
330
840D
100
AcDbEntity
  8
3
 62
     0
100
AcDbLine
 10
2820.494202334008
 20
3019.978022216089
 30
0.0
 11
2820.494202334008
 21
4021.936430757161
 31
0.0
  0
LINE
  5
8351
330
840D
100
AcDbEntity
  8
3
 62
     0
100
AcDbLine
 10
2237.494202334008
 20
3991.936430757161
 30
0.0
 11
2760.494202334009
 21
3991.936430757161
 31
0.0
  0
INSERT
  5
8352
330
840D
100
AcDbEntity
  8
3
 62
     0
100
AcDbBlockReference
  2
_OPEN
 10
2177.494202334008
 20
3991.936430757161
 30
0.0
 41
60.0
 42
60.0
 43
60.0
 50
180.0
  0
INSERT
  5
8353
330
840D
100
AcDbEntity
  8
3
 62
     0
100
AcDbBlockReference
  2
_OPEN
 10
2820.494202334008
 20
3991.936430757161
 30
0.0
 41
60.0
 42
60.0
 43
60.0
  0
TEXT
  5
836A
330
840D
100
AcDbEntity
  8
3
 62
     0
100
AcDbText
 10
2318.99
 20
3907.64
 30
0.0
 40
90.0
  1
643
100
AcDbText
  0
POINT
  5
8355
330
840D
100
AcDbEntity
  8
DEFPOINTS
 62
     0
100
AcDbPoint
 10
2177.494202334008
 20
3728.233360994634
 30
0.0
  0
POINT
  5
8356
330
840D
100
AcDbEntity
  8
DEFPOINTS
 62
     0
100
AcDbPoint
 10
2820.494202334008
 20
3004.978022216088
 30
0.0
  0
POINT
  5
8357
330
840D
100
AcDbEntity
  8
DEFPOINTS
 62
     0
100
AcDbPoint
 10
2820.494202334008
 20
3991.936430757161
 30
0.0
  0
ENDBLK
  5
8059
330
840D
100
AcDbEntity
  8
0
100
AcDbBlockEnd
  0
BLOCK
  5
8411
330
8410
100
AcDbEntity
  8
0
100
AcDbBlockBegin
  2
*D20
 70
     1
 10
0.0
 20
0.0
 30
0.0
  3
*D20
  1

  0
LINE
  5
8192
330
8410
100
AcDbEntity
  8
0
  6
ByBlock
 62
     0
100
AcDbLine
 10
867.4942023340081
 20
2094.978022216087
 30
0.0
 11
867.4942023340081
 21
1906.61370258695
 31
0.0
  0
LINE
  5
8193
330
8410
100
AcDbEntity
  8
0
  6
ByBlock
 62
     0
100
AcDbLine
 10
2177.494202334008
 20
2094.978022216087
 30
0.0
 11
2177.494202334008
 21
1906.61370258695
 31
0.0
  0
LINE
  5
8194
330
8410
100
AcDbEntity
  8
0
  6
ByBlock
 62
     0
100
AcDbLine
 10
927.4942023340081
 20
1936.61370258695
 30
0.0
 11
2117.494202334007
 21
1936.61370258695
 31
0.0
  0
INSERT
  5
8195
330
8410
100
AcDbEntity
  8
0
  6
ByBlock
 62
     0
100
AcDbBlockReference
  2
_OPEN
 10
867.4942023340081
 20
1936.61370258695
 30
0.0
 41
60.0
 42
60.0
 43
60.0
 50
180.0
  0
INSERT
  5
8196
330
8410
100
AcDbEntity
  8
0
  6
ByBlock
 62
     0
100
AcDbBlockReference
  2
_OPEN
 10
2177.494202334008
 20
1936.61370258695
 30
0.0
 41
60.0
 42
60.0
 43
60.0
  0
TEXT
  5
8197
330
8410
100
AcDbEntity
  8
3
 62
     0
100
AcDbText
 10
1381.065630905436
 20
1966.61370258695
 30
0.0
 40
90.0
  1
1310
100
AcDbText
  0
POINT
  5
8198
330
8410
100
AcDbEntity
  8
DEFPOINTS
  6
ByBlock
 62
     0
100
AcDbPoint
 10
867.4942023340081
 20
2124.978022216088
 30
0.0
  0
POINT
  5
8199
330
8410
100
AcDbEntity
  8
DEFPOINTS
  6
ByBlock
 62
     0
100
AcDbPoint
 10
2177.494202334008
 20
2124.978022216088
 30
0.0
  0
POINT
  5
819A
330
8410
100
AcDbEntity
  8
DEFPOINTS
  6
ByBlock
 62
     0
100
AcDbPoint
 10
2177.494202334008
 20
1936.61370258695
 30
0.0
  0
ENDBLK
  5
819B
330
8410
100
AcDbEntity
  8
0
100
AcDbBlockEnd
  0
BLOCK
  5
8413
330
8412
100
AcDbEntity
  8
0
100
AcDbBlockBegin
  2
*D21
 70
     1
 10
0.0
 20
0.0
 30
0.0
  3
*D21
  1

  0
LINE
  5
819F
330
8412
100
AcDbEntity
  8
0
  6
ByBlock
 62
     0
100
AcDbLine
 10
2177.494202334008
 20
2094.978022216087
 30
0.0
 11
2177.494202334008
 21
1906.61370258695
 31
0.0
  0
LINE
  5
81A0
330
8412
100
AcDbEntity
  8
0
  6
ByBlock
 62
     0
100
AcDbLine
 10
2737.49420233401
 20
2094.978022216087
 30
0.0
 11
2737.49420233401
 21
1906.61370258695
 31
0.0
  0
LINE
  5
81A1
330
8412
100
AcDbEntity
  8
0
  6
ByBlock
 62
     0
100
AcDbLine
 10
2237.494202334008
 20
1936.61370258695
 30
0.0
 11
2677.49420233401
 21
1936.61370258695
 31
0.0
  0
INSERT
  5
81A2
330
8412
100
AcDbEntity
  8
0
  6
ByBlock
 62
     0
100
AcDbBlockReference
  2
_OPEN
 10
2177.494202334008
 20
1936.61370258695
 30
0.0
 41
60.0
 42
60.0
 43
60.0
 50
180.0
  0
INSERT
  5
81A3
330
8412
100
AcDbEntity
  8
0
  6
ByBlock
 62
     0
100
AcDbBlockReference
  2
_OPEN
 10
2737.49420233401
 20
1936.61370258695
 30
0.0
 41
60.0
 42
60.0
 43
60.0
  0
TEXT
  5
81A4
330
8412
100
AcDbEntity
  8
3
 62
     0
100
AcDbText
 10
2341.779916619723
 20
1966.61370258695
 30
0.0
 40
90.0
  1
560
100
AcDbText
  0
POINT
  5
81A5
330
8412
100
AcDbEntity
  8
DEFPOINTS
  6
ByBlock
 62
     0
100
AcDbPoint
 10
2177.494202334008
 20
2124.978022216088
 30
0.0
  0
POINT
  5
81A6
330
8412
100
AcDbEntity
  8
DEFPOINTS
  6
ByBlock
 62
     0
100
AcDbPoint
 10
2737.49420233401
 20
2124.978022216088
 30
0.0
  0
POINT
  5
81A7
330
8412
100
AcDbEntity
  8
DEFPOINTS
  6
ByBlock
 62
     0
100
AcDbPoint
 10
2737.49420233401
 20
1936.61370258695
 30
0.0
  0
ENDBLK
  5
81A8
330
8412
100
AcDbEntity
  8
0
100
AcDbBlockEnd
  0
BLOCK
  5
8415
330
8414
100
AcDbEntity
  8
0
100
AcDbBlockBegin
  2
*D22
 70
     1
 10
0.0
 20
0.0
 30
0.0
  3
*D22
  1

  0
LINE
  5
81AC
330
8414
100
AcDbEntity
  8
0
  6
ByBlock
 62
     0
100
AcDbLine
 10
4222.653931325547
 20
2094.978022216087
 30
0.0
 11
4222.653931325547
 21
1906.61370258695
 31
0.0
  0
LINE
  5
81AD
330
8414
100
AcDbEntity
  8
0
  6
ByBlock
 62
     0
100
AcDbLine
 10
4984.653931325546
 20
2094.978022216087
 30
0.0
 11
4984.653931325546
 21
1906.61370258695
 31
0.0
  0
LINE
  5
81AE
330
8414
100
AcDbEntity
  8
0
  6
ByBlock
 62
     0
100
AcDbLine
 10
4282.653931325547
 20
1936.61370258695
 30
0.0
 11
4924.653931325545
 21
1936.61370258695
 31
0.0
  0
INSERT
  5
81AF
330
8414
100
AcDbEntity
  8
0
  6
ByBlock
 62
     0
100
AcDbBlockReference
  2
_OPEN
 10
4222.653931325547
 20
1936.61370258695
 30
0.0
 41
60.0
 42
60.0
 43
60.0
 50
180.0
  0
INSERT
  5
81B0
330
8414
100
AcDbEntity
  8
0
  6
ByBlock
 62
     0
100
AcDbBlockReference
  2
_OPEN
 10
4984.653931325546
 20
1936.61370258695
 30
0.0
 41
60.0
 42
60.0
 43
60.0
  0
TEXT
  5
81B1
330
8414
100
AcDbEntity
  8
3
 62
     0
100
AcDbText
 10
4487.939645611261
 20
1966.61370258695
 30
0.0
 40
90.0
  1
762
100
AcDbText
  0
POINT
  5
81B2
330
8414
100
AcDbEntity
  8
DEFPOINTS
  6
ByBlock
 62
     0
100
AcDbPoint
 10
4222.653931325547
 20
2124.978022216088
 30
0.0
  0
POINT
  5
81B3
330
8414
100
AcDbEntity
  8
DEFPOINTS
  6
ByBlock
 62
     0
100
AcDbPoint
 10
4984.653931325546
 20
2124.978022216088
 30
0.0
  0
POINT
  5
81B4
330
8414
100
AcDbEntity
  8
DEFPOINTS
  6
ByBlock
 62
     0
100
AcDbPoint
 10
4984.653931325546
 20
1936.61370258695
 30
0.0
  0
ENDBLK
  5
81B5
330
8414
100
AcDbEntity
  8
0
100
AcDbBlockEnd
  0
BLOCK
  5
8417
330
8416
100
AcDbEntity
  8
0
100
AcDbBlockBegin
  2
*D23
 70
     1
 10
0.0
 20
0.0
 30
0.0
  3
*D23
  1

  0
LINE
  5
81B9
330
8416
100
AcDbEntity
  8
0
  6
ByBlock
 62
     0
100
AcDbLine
 10
4984.653931325546
 20
2094.978022216087
 30
0.0
 11
4984.653931325546
 21
1906.61370258695
 31
0.0
  0
LINE
  5
81BA
330
8416
100
AcDbEntity
  8
0
  6
ByBlock
 62
     0
100
AcDbLine
 10
5597.653931325547
 20
2094.978022216087
 30
0.0
 11
5597.653931325547
 21
1906.61370258695
 31
0.0
  0
LINE
  5
81BB
330
8416
100
AcDbEntity
  8
0
  6
ByBlock
 62
     0
100
AcDbLine
 10
5044.653931325545
 20
1936.61370258695
 30
0.0
 11
5537.653931325547
 21
1936.61370258695
 31
0.0
  0
INSERT
  5
81BC
330
8416
100
AcDbEntity
  8
0
  6
ByBlock
 62
     0
100
AcDbBlockReference
  2
_OPEN
 10
4984.653931325546
 20
1936.61370258695
 30
0.0
 41
60.0
 42
60.0
 43
60.0
 50
180.0
  0
INSERT
  5
81BD
330
8416
100
AcDbEntity
  8
0
  6
ByBlock
 62
     0
100
AcDbBlockReference
  2
_OPEN
 10
5597.653931325547
 20
1936.61370258695
 30
0.0
 41
60.0
 42
60.0
 43
60.0
  0
TEXT
  5
81BE
330
8416
100
AcDbEntity
  8
3
 62
     0
100
AcDbText
 10
5184.011074182689
 20
1966.61370258695
 30
0.0
 40
90.0
  1
613
100
AcDbText
  0
POINT
  5
81BF
330
8416
100
AcDbEntity
  8
DEFPOINTS
  6
ByBlock
 62
     0
100
AcDbPoint
 10
4984.653931325546
 20
2124.978022216088
 30
0.0
  0
POINT
  5
81C0
330
8416
100
AcDbEntity
  8
DEFPOINTS
  6
ByBlock
 62
     0
100
AcDbPoint
 10
5597.653931325547
 20
2124.978022216088
 30
0.0
  0
POINT
  5
81C1
330
8416
100
AcDbEntity
  8
DEFPOINTS
  6
ByBlock
 62
     0
100
AcDbPoint
 10
5597.653931325547
 20
1936.61370258695
 30
0.0
  0
ENDBLK
  5
81C2
330
8416
100
AcDbEntity
  8
0
100
AcDbBlockEnd
  0
BLOCK
  5
8419
330
8418
100
AcDbEntity
  8
0
100
AcDbBlockBegin
  2
_NONE
 70
     0
 10
0.0
 20
0.0
 30
0.0
  3
_NONE
  1

  0
CIRCLE
  5
81C6
330
8418
100
AcDbEntity
  8
0
  6
ByBlock
 62
     0
100
AcDbCircle
 10
0.0
 20
0.0
 30
0.0
 40
0.25
  0
ENDBLK
  5
81C7
330
8418
100
AcDbEntity
  8
0
100
AcDbBlockEnd
  0
BLOCK
  5
841B
330
841A
100
AcDbEntity
  8
0
100
AcDbBlockBegin
  2
*D25
 70
     1
 10
0.0
 20
0.0
 30
0.0
  3
*D25
  1

  0
LINE
  5
81F3
330
841A
100
AcDbEntity
  8
0
  6
ByBlock
 62
     0
100
AcDbLine
 10
3045.877894927483
 20
2224.978022216088
 30
0.0
 11
3045.877894927483
 21
2224.978022216088
 31
0.0
  0
LINE
  5
81F4
330
841A
100
AcDbEntity
  8
0
  6
ByBlock
 62
     0
100
AcDbLine
 10
3045.877894927483
 20
2251.978022216087
 30
0.0
 11
3045.877894927483
 21
2371.978022216088
 31
0.0
  0
TEXT
  5
81F5
330
841A
100
AcDbEntity
  8
3
 62
     0
100
AcDbText
 10
3219.44932349891
 20
2080.763736501802
 30
0.0
 40
90.0
  1
 (27)
 50
90.0
100
AcDbText
  0
LINE
  5
81F6
330
841A
100
AcDbEntity
  8
0
  6
ByBlock
 62
     0
100
AcDbLine
 10
3045.877894927483
 20
2224.978022216088
 30
0.0
 11
3045.877894927483
 21
2251.978022216087
 31
0.0
  0
POINT
  5
81F7
330
841A
100
AcDbEntity
  8
DEFPOINTS
  6
ByBlock
 62
     0
100
AcDbPoint
 10
2737.49420233401
 20
2224.978022216088
 30
0.0
  0
POINT
  5
81F8
330
841A
100
AcDbEntity
  8
DEFPOINTS
  6
ByBlock
 62
     0
100
AcDbPoint
 10
2737.494202334008
 20
2251.978022216087
 30
0.0
  0
POINT
  5
81F9
330
841A
100
AcDbEntity
  8
DEFPOINTS
  6
ByBlock
 62
     0
100
AcDbPoint
 10
3045.877894927483
 20
2251.978022216087
 30
0.0
  0
ENDBLK
  5
81FA
330
841A
100
AcDbEntity
  8
0
100
AcDbBlockEnd
  0
BLOCK
  5
841D
330
841C
100
AcDbEntity
  8
0
100
AcDbBlockBegin
  2
*D26
 70
     1
 10
0.0
 20
0.0
 30
0.0
  3
*D26
  1

  0
LINE
  5
81D5
330
841C
100
AcDbEntity
  8
0
  6
ByBlock
 62
     0
100
AcDbLine
 10
2767.49420233401
 20
2124.978022216088
 30
0.0
 11
3320.715419772077
 21
2124.978022216088
 31
0.0
  0
LINE
  5
81D6
330
841C
100
AcDbEntity
  8
0
  6
ByBlock
 62
     0
100
AcDbLine
 10
2213.994202334008
 20
3691.978022216089
 30
0.0
 11
3320.715419772077
 21
3691.978022216089
 31
0.0
  0
LINE
  5
81D7
330
841C
100
AcDbEntity
  8
0
  6
ByBlock
 62
     0
100
AcDbLine
 10
3290.715419772077
 20
2184.978022216088
 30
0.0
 11
3290.715419772077
 21
3631.978022216089
 31
0.0
  0
INSERT
  5
81D8
330
841C
100
AcDbEntity
  8
0
  6
ByBlock
 62
     0
100
AcDbBlockReference
  2
_OPEN
 10
3290.715419772077
 20
2124.978022216088
 30
0.0
 41
60.0
 42
60.0
 43
60.0
 50
270.0
  0
INSERT
  5
81D9
330
841C
100
AcDbEntity
  8
0
  6
ByBlock
 62
     0
100
AcDbBlockReference
  2
_OPEN
 10
3290.715419772077
 20
3691.978022216089
 30
0.0
 41
60.0
 42
60.0
 43
60.0
 50
90.0
  0
TEXT
  5
81DA
330
841C
100
AcDbEntity
  8
3
 62
     0
100
AcDbText
 10
3222.143991200649
 20
2700.620879358945
 30
0.0
 40
90.0
  1
(1567)
 50
90.0
100
AcDbText
  0
POINT
  5
81DB
330
841C
100
AcDbEntity
  8
DEFPOINTS
  6
ByBlock
 62
     0
100
AcDbPoint
 10
2737.49420233401
 20
2124.978022216088
 30
0.0
  0
POINT
  5
81DC
330
841C
100
AcDbEntity
  8
DEFPOINTS
  6
ByBlock
 62
     0
100
AcDbPoint
 10
2183.994202334008
 20
3691.978022216089
 30
0.0
  0
POINT
  5
81DD
330
841C
100
AcDbEntity
  8
DEFPOINTS
  6
ByBlock
 62
     0
100
AcDbPoint
 10
3290.715419772077
 20
3691.978022216089
 30
0.0
  0
ENDBLK
  5
81DE
330
841C
100
AcDbEntity
  8
0
100
AcDbBlockEnd
  0
BLOCK
  5
8424
330
8423
100
AcDbEntity
  8
0
100
AcDbBlockBegin
  2
*D27
 70
     1
 10
0.0
 20
0.0
 30
0.0
  3
*D27
  1

  0
LINE
  5
84A5
330
8423
100
AcDbEntity
  8
3
 62
     0
370
    -2
100
AcDbLine
 10
4034.653931325545
 20
3381.978022216089
 30
0.0
 11
4034.653931325545
 21
4124.534864110228
 31
0.0
  0
LINE
  5
84A6
330
8423
100
AcDbEntity
  8
3
 62
     0
370
    -2
100
AcDbLine
 10
4984.653931325548
 20
3993.85489394909
 30
0.0
 11
4984.653931325548
 21
4124.534864110228
 31
0.0
  0
LINE
  5
84A7
330
8423
100
AcDbEntity
  8
3
 62
     0
370
    -2
100
AcDbLine
 10
4094.653931325544
 20
4094.534864110229
 30
0.0
 11
4924.653931325548
 21
4094.534864110229
 31
0.0
  0
INSERT
  5
84A8
330
8423
100
AcDbEntity
  8
3
 62
     0
370
    -2
100
AcDbBlockReference
  2
_OPEN
 10
4034.653931325545
 20
4094.534864110229
 30
0.0
 41
60.0
 42
60.0
 43
60.0
 50
180.0
  0
INSERT
  5
84A9
330
8423
100
AcDbEntity
  8
3
 62
     0
370
    -2
100
AcDbBlockReference
  2
_OPEN
 10
4984.653931325548
 20
4094.534864110229
 30
0.0
 41
60.0
 42
60.0
 43
60.0
  0
MTEXT
  5
84AA
330
8423
100
AcDbEntity
  8
3
 62
     0
100
AcDbMText
 10
4509.653931325546
 20
4193.106292681656
 30
0.0
 40
90.0
 41
0.0
 71
     5
 72
     1
  1
\A1;(950)
 73
     1
 44
1.0
1001
ACAD
1000
MTEXTBEGIN
1070
    73
1070
     1
1070
    44
1040
1.0
1070
    74
1070
     0
1000
MTEXTEND
  0
POINT
  5
84AB
330
8423
100
AcDbEntity
  8
DEFPOINTS
 62
     0
100
AcDbPoint
 10
4034.653931325545
 20
3351.978022216088
 30
0.0
  0
POINT
  5
84AC
330
8423
100
AcDbEntity
  8
DEFPOINTS
 62
     0
100
AcDbPoint
 10
4984.653931325548
 20
3963.85489394909
 30
0.0
  0
POINT
  5
84AD
330
8423
100
AcDbEntity
  8
DEFPOINTS
 62
     0
100
AcDbPoint
 10
4984.653931325548
 20
4094.534864110229
 30
0.0
  0
ENDBLK
  5
8425
330
8423
100
AcDbEntity
  8
0
100
AcDbBlockEnd
  0
BLOCK
  5
8431
330
8430
100
AcDbEntity
  8
0
100
AcDbBlockBegin
  2
*D28
 70
     1
 10
0.0
 20
0.0
 30
0.0
  3
*D28
  1

  0
LINE
  5
84AE
330
8430
100
AcDbEntity
  8
3
 62
     0
370
    -2
100
AcDbLine
 10
4984.653931325548
 20
3993.85489394909
 30
0.0
 11
4984.653931325548
 21
4124.534864110228
 31
0.0
  0
LINE
  5
84AF
330
8430
100
AcDbEntity
  8
3
 62
     0
370
    -2
100
AcDbLine
 10
5664.653931325545
 20
3062.478022216089
 30
0.0
 11
5664.653931325545
 21
4124.534864110228
 31
0.0
  0
LINE
  5
84B0
330
8430
100
AcDbEntity
  8
3
 62
     0
370
    -2
100
AcDbLine
 10
5044.653931325548
 20
4094.534864110229
 30
0.0
 11
5604.653931325545
 21
4094.534864110229
 31
0.0
  0
INSERT
  5
84B1
330
8430
100
AcDbEntity
  8
3
 62
     0
370
    -2
100
AcDbBlockReference
  2
_OPEN
 10
4984.653931325548
 20
4094.534864110229
 30
0.0
 41
60.0
 42
60.0
 43
60.0
 50
180.0
  0
INSERT
  5
84B2
330
8430
100
AcDbEntity
  8
3
 62
     0
370
    -2
100
AcDbBlockReference
  2
_OPEN
 10
5664.653931325545
 20
4094.534864110229
 30
0.0
 41
60.0
 42
60.0
 43
60.0
  0
MTEXT
  5
84B3
330
8430
100
AcDbEntity
  8
3
 62
     0
100
AcDbMText
 10
5324.653931325547
 20
4193.106292681656
 30
0.0
 40
90.0
 41
0.0
 71
     5
 72
     1
  1
\A1;(680)
 73
     1
 44
1.0
1001
ACAD
1000
MTEXTBEGIN
1070
    73
1070
     1
1070
    44
1040
1.0
1070
    74
1070
     0
1000
MTEXTEND
  0
POINT
  5
84B4
330
8430
100
AcDbEntity
  8
DEFPOINTS
 62
     0
100
AcDbPoint
 10
4984.653931325548
 20
3963.85489394909
 30
0.0
  0
POINT
  5
84B5
330
8430
100
AcDbEntity
  8
DEFPOINTS
 62
     0
100
AcDbPoint
 10
5664.653931325545
 20
3032.478022216089
 30
0.0
  0
POINT
  5
84B6
330
8430
100
AcDbEntity
  8
DEFPOINTS
 62
     0
100
AcDbPoint
 10
5664.653931325545
 20
4094.534864110229
 30
0.0
  0
ENDBLK
  5
8432
330
8430
100
AcDbEntity
  8
0
100
AcDbBlockEnd
  0
BLOCK
  5
843E
330
843D
100
AcDbEntity
  8
0
100
AcDbBlockBegin
  2
*D29
 70
     1
 10
0.0
 20
0.0
 30
0.0
  3
*D29
  1

  0
LINE
  5
8440
330
843D
100
AcDbEntity
  8
3
 62
     0
370
    -2
100
AcDbLine
 10
4424.653931325547
 20
3721.978022216088
 30
0.0
 11
4424.653931325547
 21
3873.854893949089
 31
0.0
  0
LINE
  5
8441
330
843D
100
AcDbEntity
  8
3
 62
     0
370
    -2
100
AcDbLine
 10
5544.653931325547
 20
3721.978022216088
 30
0.0
 11
5544.653931325547
 21
3873.854893949089
 31
0.0
  0
LINE
  5
8442
330
843D
100
AcDbEntity
  8
3
 62
     0
370
    -2
100
AcDbLine
 10
4484.653931325547
 20
3843.854893949089
 30
0.0
 11
5484.653931325547
 21
3843.854893949089
 31
0.0
  0
INSERT
  5
8443
330
843D
100
AcDbEntity
  8
3
 62
     0
370
    -2
100
AcDbBlockReference
  2
_OPEN
 10
4424.653931325547
 20
3843.854893949089
 30
0.0
 41
60.0
 42
60.0
 43
60.0
 50
180.0
  0
INSERT
  5
8444
330
843D
100
AcDbEntity
  8
3
 62
     0
370
    -2
100
AcDbBlockReference
  2
_OPEN
 10
5544.653931325547
 20
3843.854893949089
 30
0.0
 41
60.0
 42
60.0
 43
60.0
  0
MTEXT
  5
8445
330
843D
100
AcDbEntity
  8
3
 62
     0
100
AcDbMText
 10
4984.653931325547
 20
3918.85489394909
 30
0.0
 40
90.0
 41
0.0
 71
     5
 72
     1
  1
\A1;1120
 73
     1
 44
1.0
1001
ACAD
1000
MTEXTBEGIN
1070
    73
1070
     1
1070
    44
1040
1.0
1070
    74
1070
     0
1000
MTEXTEND
  0
POINT
  5
8446
330
843D
100
AcDbEntity
  8
DEFPOINTS
 62
     0
100
AcDbPoint
 10
4424.653931325547
 20
3691.978022216089
 30
0.0
  0
POINT
  5
8447
330
843D
100
AcDbEntity
  8
DEFPOINTS
 62
     0
100
AcDbPoint
 10
5544.653931325547
 20
3691.978022216089
 30
0.0
  0
POINT
  5
8448
330
843D
100
AcDbEntity
  8
DEFPOINTS
 62
     0
100
AcDbPoint
 10
5544.653931325547
 20
3843.854893949089
 30
0.0
  0
ENDBLK
  5
843F
330
843D
100
AcDbEntity
  8
0
100
AcDbBlockEnd
  0
BLOCK
  5
8488
330
8487
100
AcDbEntity
  8
0
100
AcDbBlockBegin
  2
*D30
 70
     1
 10
0.0
 20
0.0
 30
0.0
  3
*D30
  1

  0
LINE
  5
849C
330
8487
100
AcDbEntity
  8
3
 62
     0
370
    -2
100
AcDbLine
 10
5574.653931325547
 20
2596.978022216088
 30
0.0
 11
5898.544925153682
 21
2596.978022216088
 31
0.0
  0
LINE
  5
849D
330
8487
100
AcDbEntity
  8
3
 62
     0
370
    -2
100
AcDbLine
 10
5574.653931325547
 20
3546.978022216089
 30
0.0
 11
5898.544925153682
 21
3546.978022216089
 31
0.0
  0
LINE
  5
849E
330
8487
100
AcDbEntity
  8
3
 62
     0
370
    -2
100
AcDbLine
 10
5868.544925153682
 20
2656.978022216089
 30
0.0
 11
5868.544925153682
 21
3486.978022216089
 31
0.0
  0
INSERT
  5
849F
330
8487
100
AcDbEntity
  8
3
 62
     0
370
    -2
100
AcDbBlockReference
  2
_OPEN
 10
5868.544925153682
 20
2596.978022216088
 30
0.0
 41
60.0
 42
60.0
 43
60.0
 50
270.0
  0
INSERT
  5
84A0
330
8487
100
AcDbEntity
  8
3
 62
     0
370
    -2
100
AcDbBlockReference
  2
_OPEN
 10
5868.544925153682
 20
3546.978022216089
 30
0.0
 41
60.0
 42
60.0
 43
60.0
 50
90.0
  0
MTEXT
  5
84A1
330
8487
100
AcDbEntity
  8
3
 62
     0
100
AcDbMText
 10
5793.544925153681
 20
3071.978022216089
 30
0.0
 40
90.0
 41
0.0
 71
     5
 72
     1
  1
\A1;\U+03C6950
 11
0.0000000000000001
 21
1.0
 31
0.0
 73
     1
 44
1.0
1001
ACAD
1000
MTEXTBEGIN
1070
    73
1070
     1
1070
    44
1040
1.0
1070
    74
1070
     0
1000
MTEXTEND
  0
POINT
  5
84A2
330
8487
100
AcDbEntity
  8
DEFPOINTS
 62
     0
100
AcDbPoint
 10
5544.653931325547
 20
2596.978022216088
 30
0.0
  0
POINT
  5
84A3
330
8487
100
AcDbEntity
  8
DEFPOINTS
 62
     0
100
AcDbPoint
 10
5544.653931325547
 20
3546.978022216089
 30
0.0
  0
POINT
  5
84A4
330
8487
100
AcDbEntity
  8
DEFPOINTS
 62
     0
100
AcDbPoint
 10
5868.544925153682
 20
3546.978022216089
 30
0.0
  0
ENDBLK
  5
8489
330
8487
100
AcDbEntity
  8
0
100
AcDbBlockEnd
  0
BLOCK
  5
84B8
330
84B7
100
AcDbEntity
  8
0
100
AcDbBlockBegin
  2
*D31
 70
     1
 10
0.0
 20
0.0
 30
0.0
  3
*D31
  1

  0
LINE
  5
84BA
330
84B7
100
AcDbEntity
  8
3
 62
     0
370
    -2
100
AcDbLine
 10
867.4942023340097
 20
4739.801946236005
 30
0.0
 11
867.4942023340097
 21
4339.129786753933
 31
0.0
  0
LINE
  5
84BB
330
84B7
100
AcDbEntity
  8
3
 62
     0
370
    -2
100
AcDbLine
 10
2737.49420233401
 20
4739.801946236005
 30
0.0
 11
2737.49420233401
 21
4339.129786753933
 31
0.0
  0
LINE
  5
84BC
330
84B7
100
AcDbEntity
  8
3
 62
     0
370
    -2
100
AcDbLine
 10
872.8942023340097
 20
4344.529786753933
 30
0.0
 11
1790.79420233401
 21
4344.529786753933
 31
0.0
  0
LINE
  5
84BD
330
84B7
100
AcDbEntity
  8
3
 62
     0
370
    -2
100
AcDbLine
 10
2732.09420233401
 20
4344.529786753933
 30
0.0
 11
1814.19420233401
 21
4344.529786753933
 31
0.0
  0
SOLID
  5
84BE
330
84B7
100
AcDbEntity
  8
3
 62
     0
100
AcDbTrace
 10
872.8942023340097
 20
4345.429786753932
 30
0.0
 11
872.8942023340097
 21
4343.629786753933
 31
0.0
 12
867.4942023340097
 22
4344.529786753933
 32
0.0
 13
867.4942023340097
 23
4344.529786753933
 33
0.0
  0
SOLID
  5
84BF
330
84B7
100
AcDbEntity
  8
3
 62
     0
100
AcDbTrace
 10
2732.09420233401
 20
4345.429786753932
 30
0.0
 11
2732.09420233401
 21
4343.629786753933
 31
0.0
 12
2737.49420233401
 22
4344.529786753933
 32
0.0
 13
2737.49420233401
 23
4344.529786753933
 33
0.0
  0
MTEXT
  5
84C0
330
84B7
100
AcDbEntity
  8
3
 62
     0
100
AcDbMText
 10
1802.49420233401
 20
4344.529786753933
 30
0.0
 40
5.399999999999999
 41
0.0
 71
     5
 72
     1
  1
\A1;1870
 73
     1
 44
1.0
1001
ACAD
1000
MTEXTBEGIN
1070
    73
1070
     1
1070
    44
1040
1.0
1070
    74
1070
     0
1000
MTEXTEND
  0
POINT
  5
84C1
330
84B7
100
AcDbEntity
  8
DEFPOINTS
 62
     0
100
AcDbPoint
 10
867.4942023340097
 20
4741.676946236006
 30
0.0
  0
POINT
  5
84C2
330
84B7
100
AcDbEntity
  8
DEFPOINTS
 62
     0
100
AcDbPoint
 10
2737.49420233401
 20
4741.676946236006
 30
0.0
  0
POINT
  5
84C3
330
84B7
100
AcDbEntity
  8
DEFPOINTS
 62
     0
100
AcDbPoint
 10
2737.49420233401
 20
4344.529786753933
 30
0.0
  0
ENDBLK
  5
84B9
330
84B7
100
AcDbEntity
  8
0
100
AcDbBlockEnd
  0
BLOCK
  5
84C6
330
84C5
100
AcDbEntity
  8
0
100
AcDbBlockBegin
  2
*D32
 70
     1
 10
0.0
 20
0.0
 30
0.0
  3
*D32
  1

  0
LINE
  5
84C8
330
84C5
100
AcDbEntity
  8
3
 62
     0
370
    -2
100
AcDbLine
 10
867.4942023340097
 20
4711.676946236006
 30
0.0
 11
867.4942023340097
 21
4296.321910159327
 31
0.0
  0
LINE
  5
84C9
330
84C5
100
AcDbEntity
  8
3
 62
     0
370
    -2
100
AcDbLine
 10
2737.494202334008
 20
4711.676946236006
 30
0.0
 11
2737.494202334008
 21
4296.321910159327
 31
0.0
  0
LINE
  5
84CA
330
84C5
100
AcDbEntity
  8
3
 62
     0
370
    -2
100
AcDbLine
 10
927.4942023340097
 20
4326.321910159328
 30
0.0
 11
2677.494202334008
 21
4326.321910159328
 31
0.0
  0
INSERT
  5
84CB
330
84C5
100
AcDbEntity
  8
3
 62
     0
370
    -2
100
AcDbBlockReference
  2
_OPEN
 10
867.4942023340097
 20
4326.321910159328
 30
0.0
 41
60.0
 42
60.0
 43
60.0
 50
180.0
  0
INSERT
  5
84CC
330
84C5
100
AcDbEntity
  8
3
 62
     0
370
    -2
100
AcDbBlockReference
  2
_OPEN
 10
2737.494202334008
 20
4326.321910159328
 30
0.0
 41
60.0
 42
60.0
 43
60.0
  0
MTEXT
  5
84CD
330
84C5
100
AcDbEntity
  8
3
 62
     0
100
AcDbMText
 10
1802.494202334008
 20
4401.321910159327
 30
0.0
 40
90.0
 41
0.0
 71
     5
 72
     1
  1
\A1;1870
 73
     1
 44
1.0
1001
ACAD
1000
MTEXTBEGIN
1070
    73
1070
     1
1070
    44
1040
1.0
1070
    74
1070
     0
1000
MTEXTEND
  0
POINT
  5
84CE
330
84C5
100
AcDbEntity
  8
DEFPOINTS
 62
     0
100
AcDbPoint
 10
867.4942023340097
 20
4741.676946236006
 30
0.0
  0
POINT
  5
84CF
330
84C5
100
AcDbEntity
  8
DEFPOINTS
 62
     0
100
AcDbPoint
 10
2737.494202334008
 20
4741.676946236006
 30
0.0
  0
POINT
  5
84D0
330
84C5
100
AcDbEntity
  8
DEFPOINTS
 62
     0
100
AcDbPoint
 10
2737.494202334008
 20
4326.321910159328
 30
0.0
  0
ENDBLK
  5
84C7
330
84C5
100
AcDbEntity
  8
0
100
AcDbBlockEnd
  0
BLOCK
  5
84D3
330
84D2
100
AcDbEntity
  8
0
100
AcDbBlockBegin
  2
*D33
 70
     1
 10
0.0
 20
0.0
 30
0.0
  3
*D33
  1

  0
LINE
  5
84D5
330
84D2
100
AcDbEntity
  8
3
 62
     0
370
    -2
100
AcDbLine
 10
2767.49420233401
 20
4741.676946236006
 30
0.0
 11
3067.918424500425
 21
4741.676946236006
 31
0.0
  0
LINE
  5
84D6
330
84D2
100
AcDbEntity
  8
3
 62
     0
370
    -2
100
AcDbLine
 10
2767.49420233401
 20
6116.676946236006
 30
0.0
 11
3067.918424500425
 21
6116.676946236006
 31
0.0
  0
LINE
  5
84D7
330
84D2
100
AcDbEntity
  8
3
 62
     0
370
    -2
100
AcDbLine
 10
3037.918424500424
 20
4801.676946236006
 30
0.0
 11
3037.918424500425
 21
6056.676946236006
 31
0.0
  0
INSERT
  5
84D8
330
84D2
100
AcDbEntity
  8
3
 62
     0
370
    -2
100
AcDbBlockReference
  2
_OPEN
 10
3037.918424500424
 20
4741.676946236006
 30
0.0
 41
60.0
 42
60.0
 43
60.0
 50
270.0
  0
INSERT
  5
84D9
330
84D2
100
AcDbEntity
  8
3
 62
     0
370
    -2
100
AcDbBlockReference
  2
_OPEN
 10
3037.918424500425
 20
6116.676946236006
 30
0.0
 41
60.0
 42
60.0
 43
60.0
 50
90.0
  0
MTEXT
  5
84DA
330
84D2
100
AcDbEntity
  8
3
 62
     0
100
AcDbMText
 10
2962.918424500424
 20
5429.176946236007
 30
0.0
 40
90.0
 41
0.0
 71
     5
 72
     1
  1
\A1;1375
 11
0.0000000000000001
 21
1.0
 31
0.0
 73
     1
 44
1.0
1001
ACAD
1000
MTEXTBEGIN
1070
    73
1070
     1
1070
    44
1040
1.0
1070
    74
1070
     0
1000
MTEXTEND
  0
POINT
  5
84DB
330
84D2
100
AcDbEntity
  8
DEFPOINTS
 62
     0
100
AcDbPoint
 10
2737.49420233401
 20
4741.676946236006
 30
0.0
  0
POINT
  5
84DC
330
84D2
100
AcDbEntity
  8
DEFPOINTS
 62
     0
100
AcDbPoint
 10
2737.49420233401
 20
6116.676946236006
 30
0.0
  0
POINT
  5
84DD
330
84D2
100
AcDbEntity
  8
DEFPOINTS
 62
     0
100
AcDbPoint
 10
3037.918424500425
 20
6116.676946236006
 30
0.0
  0
ENDBLK
  5
84D4
330
84D2
100
AcDbEntity
  8
0
100
AcDbBlockEnd
  0
BLOCK
  5
84E0
330
84DF
100
AcDbEntity
  8
0
100
AcDbBlockBegin
  2
*D34
 70
     1
 10
0.0
 20
0.0
 30
0.0
  3
*D34
  1

  0
LINE
  5
84E2
330
84DF
100
AcDbEntity
  8
3
 62
     0
370
    -2
100
AcDbLine
 10
2737.494202334008
 20
6146.676946236006
 30
0.0
 11
2737.494202334008
 21
6448.691604741227
 31
0.0
  0
LINE
  5
84E3
330
84DF
100
AcDbEntity
  8
3
 62
     0
370
    -2
100
AcDbLine
 10
1617.49420233401
 20
6146.676946236007
 30
0.0
 11
1617.49420233401
 21
6448.691604741227
 31
0.0
  0
LINE
  5
84E4
330
84DF
100
AcDbEntity
  8
3
 62
     0
370
    -2
100
AcDbLine
 10
2677.494202334008
 20
6418.691604741228
 30
0.0
 11
1677.49420233401
 21
6418.691604741228
 31
0.0
  0
INSERT
  5
84E5
330
84DF
100
AcDbEntity
  8
3
 62
     0
370
    -2
100
AcDbBlockReference
  2
_OPEN
 10
2737.494202334008
 20
6418.691604741228
 30
0.0
 41
60.0
 42
60.0
 43
60.0
  0
INSERT
  5
84E6
330
84DF
100
AcDbEntity
  8
3
 62
     0
370
    -2
100
AcDbBlockReference
  2
_OPEN
 10
1617.49420233401
 20
6418.691604741228
 30
0.0
 41
60.0
 42
60.0
 43
60.0
 50
180.0
  0
MTEXT
  5
84E7
330
84DF
100
AcDbEntity
  8
3
 62
     0
100
AcDbMText
 10
2177.494202334009
 20
6493.691604741228
 30
0.0
 40
90.0
 41
0.0
 71
     5
 72
     1
  1
\A1;1120
 73
     1
 44
1.0
1001
ACAD
1000
MTEXTBEGIN
1070
    73
1070
     1
1070
    44
1040
1.0
1070
    74
1070
     0
1000
MTEXTEND
  0
POINT
  5
84E8
330
84DF
100
AcDbEntity
  8
DEFPOINTS
 62
     0
100
AcDbPoint
 10
2737.494202334008
 20
6116.676946236006
 30
0.0
  0
POINT
  5
84E9
330
84DF
100
AcDbEntity
  8
DEFPOINTS
 62
     0
100
AcDbPoint
 10
1617.49420233401
 20
6116.676946236007
 30
0.0
  0
POINT
  5
84EA
330
84DF
100
AcDbEntity
  8
DEFPOINTS
 62
     0
100
AcDbPoint
 10
1617.49420233401
 20
6418.691604741228
 30
0.0
  0
ENDBLK
  5
84E1
330
84DF
100
AcDbEntity
  8
0
100
AcDbBlockEnd
  0
BLOCK
  5
84ED
330
84EC
100
AcDbEntity
  8
0
100
AcDbBlockBegin
  2
*D35
 70
     1
 10
0.0
 20
0.0
 30
0.0
  3
*D35
  1

  0
LINE
  5
84EF
330
84EC
100
AcDbEntity
  8
3
 62
     0
370
    -2
100
AcDbLine
 10
1617.49420233401
 20
6146.676946236007
 30
0.0
 11
1617.49420233401
 21
6448.691604741227
 31
0.0
  0
LINE
  5
84F0
330
84EC
100
AcDbEntity
  8
3
 62
     0
370
    -2
100
AcDbLine
 10
867.4942023340097
 20
5571.676946236006
 30
0.0
 11
867.4942023340097
 21
6448.691604741227
 31
0.0
  0
LINE
  5
84F1
330
84EC
100
AcDbEntity
  8
3
 62
     0
370
    -2
100
AcDbLine
 10
1557.49420233401
 20
6418.691604741228
 30
0.0
 11
927.4942023340097
 21
6418.691604741228
 31
0.0
  0
INSERT
  5
84F2
330
84EC
100
AcDbEntity
  8
3
 62
     0
370
    -2
100
AcDbBlockReference
  2
_OPEN
 10
1617.49420233401
 20
6418.691604741228
 30
0.0
 41
60.0
 42
60.0
 43
60.0
  0
INSERT
  5
84F3
330
84EC
100
AcDbEntity
  8
3
 62
     0
370
    -2
100
AcDbBlockReference
  2
_OPEN
 10
867.4942023340097
 20
6418.691604741228
 30
0.0
 41
60.0
 42
60.0
 43
60.0
 50
180.0
  0
MTEXT
  5
84F4
330
84EC
100
AcDbEntity
  8
3
 62
     0
100
AcDbMText
 10
1242.49420233401
 20
6493.691604741228
 30
0.0
 40
90.0
 41
0.0
 71
     5
 72
     1
  1
\A1;750
 73
     1
 44
1.0
1001
ACAD
1000
MTEXTBEGIN
1070
    73
1070
     1
1070
    44
1040
1.0
1070
    74
1070
     0
1000
MTEXTEND
  0
POINT
  5
84F5
330
84EC
100
AcDbEntity
  8
DEFPOINTS
 62
     0
100
AcDbPoint
 10
1617.49420233401
 20
6116.676946236007
 30
0.0
  0
POINT
  5
84F6
330
84EC
100
AcDbEntity
  8
DEFPOINTS
 62
     0
100
AcDbPoint
 10
867.4942023340097
 20
5541.676946236006
 30
0.0
  0
POINT
  5
84F7
330
84EC
100
AcDbEntity
  8
DEFPOINTS
 62
     0
100
AcDbPoint
 10
867.4942023340097
 20
6418.691604741228
 30
0.0
  0
ENDBLK
  5
84EE
330
84EC
100
AcDbEntity
  8
0
100
AcDbBlockEnd
  0
BLOCK
  5
84FA
330
84F9
100
AcDbEntity
  8
0
100
AcDbBlockBegin
  2
*D36
 70
     1
 10
0.0
 20
0.0
 30
0.0
  3
*D36
  1

  0
LINE
  5
84FC
330
84F9
100
AcDbEntity
  8
3
 62
     0
370
    -2
100
AcDbLine
 10
1216.494202334008
 20
3721.978022216088
 30
0.0
 11
1216.494202334008
 21
3871.593130659299
 31
0.0
  0
LINE
  5
84FD
330
84F9
100
AcDbEntity
  8
3
 62
     0
370
    -2
100
AcDbLine
 10
2141.494202334008
 20
3721.978022216088
 30
0.0
 11
2141.494202334008
 21
3871.593130659299
 31
0.0
  0
LINE
  5
84FE
330
84F9
100
AcDbEntity
  8
3
 62
     0
370
    -2
100
AcDbLine
 10
1276.494202334008
 20
3841.593130659299
 30
0.0
 11
2081.494202334008
 21
3841.593130659299
 31
0.0
  0
INSERT
  5
84FF
330
84F9
100
AcDbEntity
  8
3
 62
     0
370
    -2
100
AcDbBlockReference
  2
_OPEN
 10
1216.494202334008
 20
3841.593130659299
 30
0.0
 41
60.0
 42
60.0
 43
60.0
 50
180.0
  0
INSERT
  5
8500
330
84F9
100
AcDbEntity
  8
3
 62
     0
370
    -2
100
AcDbBlockReference
  2
_OPEN
 10
2141.494202334008
 20
3841.593130659299
 30
0.0
 41
60.0
 42
60.0
 43
60.0
  0
MTEXT
  5
8501
330
84F9
100
AcDbEntity
  8
3
 62
     0
100
AcDbMText
 10
1678.994202334008
 20
3916.593130659299
 30
0.0
 40
90.0
 41
0.0
 71
     5
 72
     1
  1
\A1;925
 73
     1
 44
1.0
1001
ACAD
1000
MTEXTBEGIN
1070
    73
1070
     1
1070
    44
1040
1.0
1070
    74
1070
     0
1000
MTEXTEND
  0
POINT
  5
8502
330
84F9
100
AcDbEntity
  8
DEFPOINTS
 62
     0
100
AcDbPoint
 10
1216.494202334008
 20
3691.978022216089
 30
0.0
  0
POINT
  5
8503
330
84F9
100
AcDbEntity
  8
DEFPOINTS
 62
     0
100
AcDbPoint
 10
2141.494202334008
 20
3691.978022216089
 30
0.0
  0
POINT
  5
8504
330
84F9
100
AcDbEntity
  8
DEFPOINTS
 62
     0
100
AcDbPoint
 10
2141.494202334008
 20
3841.593130659299
 30
0.0
  0
ENDBLK
  5
84FB
330
84F9
100
AcDbEntity
  8
0
100
AcDbBlockEnd
  0
BLOCK
  5
8507
330
8506
100
AcDbEntity
  8
0
100
AcDbBlockBegin
  2
*D37
 70
     1
 10
0.0
 20
0.0
 30
0.0
  3
*D37
  1

  0
LINE
  5
8509
330
8506
100
AcDbEntity
  8
3
 62
     0
370
    -2
100
AcDbLine
 10
1216.494202334008
 20
3721.978022216088
 30
0.0
 11
1216.494202334008
 21
4021.936430757161
 31
0.0
  0
LINE
  5
850A
330
8506
100
AcDbEntity
  8
3
 62
     0
370
    -2
100
AcDbLine
 10
2177.494202334008
 20
3744.062890704765
 30
0.0
 11
2177.494202334008
 21
4021.936430757161
 31
0.0
  0
LINE
  5
850B
330
8506
100
AcDbEntity
  8
3
 62
     0
370
    -2
100
AcDbLine
 10
1276.494202334008
 20
3991.936430757161
 30
0.0
 11
2117.494202334007
 21
3991.936430757161
 31
0.0
  0
INSERT
  5
850C
330
8506
100
AcDbEntity
  8
3
 62
     0
370
    -2
100
AcDbBlockReference
  2
_OPEN
 10
1216.494202334008
 20
3991.936430757161
 30
0.0
 41
60.0
 42
60.0
 43
60.0
 50
180.0
  0
INSERT
  5
850D
330
8506
100
AcDbEntity
  8
3
 62
     0
370
    -2
100
AcDbBlockReference
  2
_OPEN
 10
2177.494202334008
 20
3991.936430757161
 30
0.0
 41
60.0
 42
60.0
 43
60.0
  0
MTEXT
  5
850E
330
8506
100
AcDbEntity
  8
3
 62
     0
100
AcDbMText
 10
1696.994202334008
 20
4066.936430757161
 30
0.0
 40
90.0
 41
0.0
 71
     5
 72
     1
  1
\A1;961
 73
     1
 44
1.0
1001
ACAD
1000
MTEXTBEGIN
1070
    73
1070
     1
1070
    44
1040
1.0
1070
    74
1070
     0
1000
MTEXTEND
  0
POINT
  5
850F
330
8506
100
AcDbEntity
  8
DEFPOINTS
 62
     0
100
AcDbPoint
 10
1216.494202334008
 20
3691.978022216089
 30
0.0
  0
POINT
  5
8510
330
8506
100
AcDbEntity
  8
DEFPOINTS
 62
     0
100
AcDbPoint
 10
2177.494202334008
 20
3714.062890704765
 30
0.0
  0
POINT
  5
8511
330
8506
100
AcDbEntity
  8
DEFPOINTS
 62
     0
100
AcDbPoint
 10
2177.494202334008
 20
3991.936430757161
 30
0.0
  0
ENDBLK
  5
8508
330
8506
100
AcDbEntity
  8
0
100
AcDbBlockEnd
  0
BLOCK
  5
8514
330
8513
100
AcDbEntity
  8
0
100
AcDbBlockBegin
  2
*D38
 70
     1
 10
0.0
 20
0.0
 30
0.0
  3
*D38
  1

  0
LINE
  5
8516
330
8513
100
AcDbEntity
  8
3
 62
     0
370
    -2
100
AcDbLine
 10
2177.494202334008
 20
3744.062890704765
 30
0.0
 11
2177.494202334008
 21
4021.936430757161
 31
0.0
  0
LINE
  5
8517
330
8513
100
AcDbEntity
  8
3
 62
     0
370
    -2
100
AcDbLine
 10
2820.494202334008
 20
3034.978022216089
 30
0.0
 11
2820.494202334008
 21
4021.936430757161
 31
0.0
  0
LINE
  5
8518
330
8513
100
AcDbEntity
  8
3
 62
     0
370
    -2
100
AcDbLine
 10
2237.494202334008
 20
3991.936430757161
 30
0.0
 11
2760.494202334008
 21
3991.936430757161
 31
0.0
  0
INSERT
  5
8519
330
8513
100
AcDbEntity
  8
3
 62
     0
370
    -2
100
AcDbBlockReference
  2
_OPEN
 10
2177.494202334008
 20
3991.936430757161
 30
0.0
 41
60.0
 42
60.0
 43
60.0
 50
180.0
  0
INSERT
  5
851A
330
8513
100
AcDbEntity
  8
3
 62
     0
370
    -2
100
AcDbBlockReference
  2
_OPEN
 10
2820.494202334008
 20
3991.936430757161
 30
0.0
 41
60.0
 42
60.0
 43
60.0
  0
MTEXT
  5
851B
330
8513
100
AcDbEntity
  8
3
 62
     0
100
AcDbMText
 10
2498.994202334008
 20
4066.936430757161
 30
0.0
 40
90.0
 41
0.0
 71
     5
 72
     1
  1
\A1;643
 73
     1
 44
1.0
1001
ACAD
1000
MTEXTBEGIN
1070
    73
1070
     1
1070
    44
1040
1.0
1070
    74
1070
     0
1000
MTEXTEND
  0
POINT
  5
851C
330
8513
100
AcDbEntity
  8
DEFPOINTS
 62
     0
100
AcDbPoint
 10
2177.494202334008
 20
3714.062890704765
 30
0.0
  0
POINT
  5
851D
330
8513
100
AcDbEntity
  8
DEFPOINTS
 62
     0
100
AcDbPoint
 10
2820.494202334008
 20
3004.978022216088
 30
0.0
  0
POINT
  5
851E
330
8513
100
AcDbEntity
  8
DEFPOINTS
 62
     0
100
AcDbPoint
 10
2820.494202334008
 20
3991.936430757161
 30
0.0
  0
ENDBLK
  5
8515
330
8513
100
AcDbEntity
  8
0
100
AcDbBlockEnd
  0
BLOCK
  5
8521
330
8520
100
AcDbEntity
  8
0
100
AcDbBlockBegin
  2
*D39
 70
     1
 10
0.0
 20
0.0
 30
0.0
  3
*D39
  1

  0
LINE
  5
8523
330
8520
100
AcDbEntity
  8
3
 62
     0
370
    -2
100
AcDbLine
 10
2213.994202334008
 20
3691.978022216089
 30
0.0
 11
3075.431187629272
 21
3691.978022216088
 31
0.0
  0
LINE
  5
8524
330
8520
100
AcDbEntity
  8
3
 62
     0
370
    -2
100
AcDbLine
 10
2863.749541112554
 20
3071.978022216089
 30
0.0
 11
3075.431187629272
 21
3071.978022216088
 31
0.0
  0
LINE
  5
8525
330
8520
100
AcDbEntity
  8
3
 62
     0
370
    -2
100
AcDbLine
 10
3045.431187629272
 20
3631.978022216089
 30
0.0
 11
3045.431187629272
 21
3131.978022216089
 31
0.0
  0
INSERT
  5
8526
330
8520
100
AcDbEntity
  8
3
 62
     0
370
    -2
100
AcDbBlockReference
  2
_OPEN
 10
3045.431187629272
 20
3691.978022216089
 30
0.0
 41
60.0
 42
60.0
 43
60.0
 50
90.0
  0
INSERT
  5
8527
330
8520
100
AcDbEntity
  8
3
 62
     0
370
    -2
100
AcDbBlockReference
  2
_OPEN
 10
3045.431187629271
 20
3071.978022216089
 30
0.0
 41
60.0
 42
60.0
 43
60.0
 50
270.0
  0
MTEXT
  5
8528
330
8520
100
AcDbEntity
  8
3
 62
     0
100
AcDbMText
 10
2970.431187629271
 20
3381.978022216089
 30
0.0
 40
90.0
 41
0.0
 71
     5
 72
     1
  1
\A1;620
 11
0.0000000000000001
 21
1.0
 31
0.0
 73
     1
 44
1.0
1001
ACAD
1000
MTEXTBEGIN
1070
    73
1070
     1
1070
    44
1040
1.0
1070
    74
1070
     0
1000
MTEXTEND
  0
POINT
  5
8529
330
8520
100
AcDbEntity
  8
DEFPOINTS
 62
     0
100
AcDbPoint
 10
2183.994202334008
 20
3691.978022216089
 30
0.0
  0
POINT
  5
852A
330
8520
100
AcDbEntity
  8
DEFPOINTS
 62
     0
100
AcDbPoint
 10
2833.749541112554
 20
3071.978022216089
 30
0.0
  0
POINT
  5
852B
330
8520
100
AcDbEntity
  8
DEFPOINTS
 62
     0
100
AcDbPoint
 10
3045.431187629271
 20
3071.978022216089
 30
0.0
  0
ENDBLK
  5
8522
330
8520
100
AcDbEntity
  8
0
100
AcDbBlockEnd
  0
BLOCK
  5
852E
330
852D
100
AcDbEntity
  8
0
100
AcDbBlockBegin
  2
*D40
 70
     1
 10
0.0
 20
0.0
 30
0.0
  3
*D40
  1

  0
LINE
  5
8530
330
852D
100
AcDbEntity
  8
3
 62
     0
370
    -2
100
AcDbLine
 10
2863.749541112554
 20
3071.978022216089
 30
0.0
 11
3075.431187629272
 21
3071.978022216088
 31
0.0
  0
LINE
  5
8531
330
852D
100
AcDbEntity
  8
3
 62
     0
370
    -2
100
AcDbLine
 10
2767.49420233401
 20
2251.978022216087
 30
0.0
 11
3075.431187629272
 21
2251.978022216087
 31
0.0
  0
LINE
  5
8532
330
852D
100
AcDbEntity
  8
3
 62
     0
370
    -2
100
AcDbLine
 10
3045.431187629271
 20
3011.978022216089
 30
0.0
 11
3045.431187629271
 21
2311.978022216087
 31
0.0
  0
INSERT
  5
8533
330
852D
100
AcDbEntity
  8
3
 62
     0
370
    -2
100
AcDbBlockReference
  2
_OPEN
 10
3045.431187629271
 20
3071.978022216089
 30
0.0
 41
60.0
 42
60.0
 43
60.0
 50
90.0
  0
INSERT
  5
8534
330
852D
100
AcDbEntity
  8
3
 62
     0
370
    -2
100
AcDbBlockReference
  2
_OPEN
 10
3045.431187629271
 20
2251.978022216087
 30
0.0
 41
60.0
 42
60.0
 43
60.0
 50
270.0
  0
MTEXT
  5
8535
330
852D
100
AcDbEntity
  8
3
 62
     0
100
AcDbMText
 10
2970.431187629271
 20
2661.978022216088
 30
0.0
 40
90.0
 41
0.0
 71
     5
 72
     1
  1
\A1;820
 11
0.0000000000000001
 21
1.0
 31
0.0
 73
     1
 44
1.0
1001
ACAD
1000
MTEXTBEGIN
1070
    73
1070
     1
1070
    44
1040
1.0
1070
    74
1070
     0
1000
MTEXTEND
  0
POINT
  5
8536
330
852D
100
AcDbEntity
  8
DEFPOINTS
 62
     0
100
AcDbPoint
 10
2833.749541112554
 20
3071.978022216089
 30
0.0
  0
POINT
  5
8537
330
852D
100
AcDbEntity
  8
DEFPOINTS
 62
     0
100
AcDbPoint
 10
2737.49420233401
 20
2251.978022216087
 30
0.0
  0
POINT
  5
8538
330
852D
100
AcDbEntity
  8
DEFPOINTS
 62
     0
100
AcDbPoint
 10
3045.431187629271
 20
2251.978022216087
 30
0.0
  0
ENDBLK
  5
852F
330
852D
100
AcDbEntity
  8
0
100
AcDbBlockEnd
  0
ENDSEC
  0
SECTION
  2
ENTITIES
  0
INSERT
  5
7C21
330
83D9
100
AcDbEntity
  8
0
100
AcDbBlockReference
  2
YA_N
 10
6.0
 20
5.0
 30
0.0
  0
LINE
  5
7C23
330
83D9
100
AcDbEntity
  8
2
100
AcDbLine
 10
2833.749541112554
 20
3071.978022216089
 30
0.0
 11
1127.482955132567
 21
3071.978022216089
 31
0.0
  0
LINE
  5
7C24
330
83D9
100
AcDbEntity
  8
2
100
AcDbLine
 10
2177.494202334008
 20
3714.062890704765
 30
0.0
 11
2177.494202334008
 21
2124.978022216088
 31
0.0
  0
ARC
  5
7C25
330
83D9
100
AcDbEntity
  8
1
100
AcDbCircle
 10
2110.494202334008
 20
3138.978022216088
 30
0.0
 40
844.0
100
AcDbArc
 50
184.553152387219
 51
248.8222963603614
  0
ARC
  5
7C26
330
83D9
100
AcDbEntity
  8
1
100
AcDbCircle
 10
2110.494202334008
 20
3004.978022216088
 30
0.0
 40
710.0
100
AcDbArc
 50
293.1150645561642
 51
5.414841706129411
  0
ARC
  5
7C27
330
83D9
100
AcDbEntity
  8
1
100
AcDbCircle
 10
2230.994202334008
 20
3018.478022216088
 30
0.0
 40
589.5
100
AcDbArc
 50
5.207036088349488
 51
95.20703608834947
  0
LINE
  5
7C28
330
83D9
100
AcDbEntity
  8
1
100
AcDbLine
 10
1173.994202334008
 20
3691.978022216089
 30
0.0
 11
2183.994202334008
 21
3691.978022216089
 31
0.0
  0
LINE
  5
7C29
330
83D9
100
AcDbEntity
  8
1
100
AcDbLine
 10
2141.494202334008
 20
3691.978022216089
 30
0.0
 11
2141.494202334008
 21
3606.767700500926
 31
0.0
  0
LINE
  5
7C2A
330
83D9
100
AcDbEntity
  8
1
100
AcDbLine
 10
1216.494202334008
 20
3691.978022216089
 30
0.0
 11
1269.157765467043
 21
3071.978022216089
 31
0.0
  0
LINE
  5
7C2B
330
83D9
100
AcDbEntity
  8
1
100
AcDbLine
 10
1173.994202334008
 20
3691.978022216089
 30
0.0
 11
1173.994202334008
 21
3688.978022216089
 31
0.0
  0
LINE
  5
7C2C
330
83D9
100
AcDbEntity
  8
1
100
AcDbLine
 10
2183.994202334008
 20
3691.978022216089
 30
0.0
 11
2183.994202334008
 21
3688.978022216089
 31
0.0
  0
LINE
  5
7C2D
330
83D9
100
AcDbEntity
  8
1
100
AcDbLine
 10
1219.891851568398
 20
3651.978022216088
 30
0.0
 11
2141.494202334008
 21
3651.978022216088
 31
0.0
  0
LINE
  5
7C2E
330
83D9
100
AcDbEntity
  8
1
100
AcDbLine
 10
1173.994202334008
 20
3688.978022216089
 30
0.0
 11
2183.994202334008
 21
3688.978022216089
 31
0.0
  0
LINE
  5
7C2F
330
83D9
100
AcDbEntity
  8
1
100
AcDbLine
 10
867.4942023340097
 20
2351.978022216087
 30
0.0
 11
867.4942023340097
 21
2251.978022216087
 31
0.0
  0
LINE
  5
7C30
330
83D9
100
AcDbEntity
  8
1
100
AcDbLine
 10
2737.494202334008
 20
2351.978022216087
 30
0.0
 11
2737.494202334008
 21
2251.978022216087
 31
0.0
  0
LINE
  5
7C31
330
83D9
100
AcDbEntity
  8
1
100
AcDbLine
 10
867.4942023340097
 20
2251.978022216087
 30
0.0
 11
2737.49420233401
 21
2251.978022216087
 31
0.0
1001
ACAD
1000
ASC_BOUNDS
1002
{
1070
    19
1002
}
  0
LINE
  5
7C32
330
83D9
100
AcDbEntity
  8
1
100
AcDbLine
 10
867.4942023340097
 20
2351.978022216087
 30
0.0
 11
2737.49420233401
 21
2351.978022216087
 31
0.0
  0
LINE
  5
7C33
330
83D9
100
AcDbEntity
  8
2
100
AcDbLine
 10
1117.494202334008
 20
2919.980513212191
 30
0.0
 11
1117.494202334008
 21
2124.978022216088
 31
0.0
  0
LINE
  5
7C34
330
83D9
100
AcDbEntity
  8
2
100
AcDbLine
 10
756.5582342084135
 20
2626.978022216087
 30
0.0
 11
1332.337128787841
 21
2626.978022216087
 31
0.0
  0
LINE
  5
7C35
330
83D9
100
AcDbEntity
  8
1
100
AcDbLine
 10
5544.653931325547
 20
3691.978022216089
 30
0.0
 11
5544.653931325547
 21
3107.978022216089
 31
0.0
  0
LINE
  5
7C36
330
83D9
100
AcDbEntity
  8
1
100
AcDbLine
 10
4222.653931325537
 20
2251.978022216087
 30
0.0
 11
5597.653931325556
 21
2251.978022216087
 31
0.0
1001
ACAD
1000
ASC_BOUNDS
1002
{
1070
    19
1005
0
1005
0
1005
0
1005
0
1002
}
  0
LINE
  5
7C37
330
83D9
100
AcDbEntity
  8
1
100
AcDbLine
 10
4222.653931325547
 20
2351.978022216087
 30
0.0
 11
5597.653931325547
 21
2351.978022216087
 31
0.0
  0
LINE
  5
7C38
330
83D9
100
AcDbEntity
  8
1
100
AcDbLine
 10
4222.653931325547
 20
2351.978022216087
 30
0.0
 11
4222.653931325537
 21
2251.978022216087
 31
0.0
  0
LINE
  5
7C39
330
83D9
100
AcDbEntity
  8
1
100
AcDbLine
 10
5597.653931325547
 20
2351.978022216087
 30
0.0
 11
5597.653931325556
 21
2251.978022216087
 31
0.0
  0
LINE
  5
7C3A
330
83D9
100
AcDbEntity
  8
1
100
AcDbLine
 10
4984.653931325548
 20
3691.978022216089
 30
0.0
 11
5584.653931325547
 21
3691.978022216089
 31
0.0
  0
LINE
  5
7C3B
330
83D9
100
AcDbEntity
  8
2
100
AcDbLine
 10
4042.074832679849
 20
3071.978022216089
 30
0.0
 11
5695.173579083284
 21
3071.978022216089
 31
0.0
  0
LINE
  5
7C3C
330
83D9
100
AcDbEntity
  8
1
100
AcDbLine
 10
5535.153931325547
 20
2251.978022216087
 30
0.0
 11
5597.653931325556
 21
2251.978022216087
 31
0.0
1001
ACAD
1000
ASC_BOUNDS
1002
{
1070
    19
1005
0
1005
0
1002
}
  0
LINE
  5
7C3D
330
83D9
100
AcDbEntity
  8
2
100
AcDbLine
 10
4984.653931325548
 20
3822.881881651485
 30
0.0
 11
4984.653931325546
 21
2124.978022216088
 31
0.0
  0
INSERT
  5
7C3F
330
83D9
100
AcDbEntity
  8
0
100
AcDbBlockReference
  2
YA_N
 10
-1638.667820090515
 20
-980.7401201518075
 30
0.0
 41
20.0
 42
20.0
 43
20.0
  0
INSERT
  5
7C41
330
83D9
100
AcDbEntity
  8
0
100
AcDbBlockReference
  2
YA_N
 10
-1552.816625123014
 20
-1070.405552057982
 30
0.0
 41
20.0
 42
20.0
 43
20.0
  0
ARC
  5
7C43
330
83D9
100
AcDbEntity
  8
1
100
AcDbCircle
 10
1117.494202334008
 20
2626.978022216087
 30
0.0
 40
185.0
100
AcDbArc
 50
287.9452509999999
 51
252.054749
  0
LINE
  5
7C44
330
83D9
100
AcDbEntity
  8
1
100
AcDbLine
 10
1174.494202334008
 20
2450.978022216087
 30
0.0
 11
1060.494202334008
 21
2450.978022216087
 31
0.0
  0
LINE
  5
7C46
330
83D9
100
AcDbEntity
  8
1
100
AcDbLine
 10
1279.494202334008
 20
2522.237055216087
 30
0.0
 11
1279.494202334008
 21
2446.978022216087
 31
0.0
  0
LINE
  5
7C47
330
83D9
100
AcDbEntity
  8
1
100
AcDbLine
 10
1219.994202334008
 20
2452.126581216087
 30
0.0
 11
1210.487488334009
 21
2467.049189216087
 31
0.0
  0
LINE
  5
7C4A
330
83D9
100
AcDbEntity
  8
1
100
AcDbLine
 10
1219.994202334008
 20
2463.978022216088
 30
0.0
 11
1219.994202334008
 21
2446.978022216087
 31
0.0
  0
LINE
  5
7C4C
330
83D9
100
AcDbEntity
  8
1
100
AcDbLine
 10
1222.994202334008
 20
2466.978022216087
 30
0.0
 11
1276.494202334008
 21
2466.978022216087
 31
0.0
  0
ARC
  5
7C4D
330
83D9
100
AcDbEntity
  8
1
100
AcDbCircle
 10
1276.494202334008
 20
2463.978022216088
 30
0.0
 40
3.0
100
AcDbArc
 50
0.0
 51
90.0
  0
LINE
  5
7C54
330
83D9
100
AcDbEntity
  8
1
100
AcDbLine
 10
1228.318115334008
 20
2466.978022216087
 30
0.0
 11
1223.138367334007
 21
2475.108637216087
 31
0.0
  0
ARC
  5
7C56
330
83D9
100
AcDbEntity
  8
1
100
AcDbCircle
 10
1222.994202334008
 20
2463.978022216088
 30
0.0
 40
3.0
100
AcDbArc
 50
90.0
 51
180.0
  0
LINE
  5
7C57
330
83D9
100
AcDbEntity
  8
1
100
AcDbLine
 10
1279.494202334008
 20
2522.237055216087
 30
0.0
 11
1273.110230334008
 21
2526.934809216087
 31
0.0
  0
LINE
  5
7C5C
330
83D9
100
AcDbEntity
  8
1
100
AcDbLine
 10
1014.994202334008
 20
2452.126581216087
 30
0.0
 11
1024.500916334009
 21
2467.049189216087
 31
0.0
  0
LINE
  5
7C60
330
83D9
100
AcDbEntity
  8
1
100
AcDbLine
 10
1014.994202334008
 20
2463.978022216088
 30
0.0
 11
1014.994202334008
 21
2446.978022216087
 31
0.0
  0
LINE
  5
7C61
330
83D9
100
AcDbEntity
  8
1
100
AcDbLine
 10
955.494202334008
 20
2522.237055216087
 30
0.0
 11
955.494202334008
 21
2446.978022216087
 31
0.0
  0
LINE
  5
7C63
330
83D9
100
AcDbEntity
  8
1
100
AcDbLine
 10
1011.994202334008
 20
2466.978022216087
 30
0.0
 11
958.4942023340079
 21
2466.978022216087
 31
0.0
  0
LINE
  5
7C65
330
83D9
100
AcDbEntity
  8
1
100
AcDbLine
 10
1006.670288334008
 20
2466.978022216087
 30
0.0
 11
1011.850037334008
 21
2475.108637216087
 31
0.0
  0
ARC
  5
7C66
330
83D9
100
AcDbEntity
  8
1
100
AcDbCircle
 10
1011.994202334008
 20
2463.978022216088
 30
0.0
 40
3.0
100
AcDbArc
 50
0.0
 51
90.0
  0
ARC
  5
7C67
330
83D9
100
AcDbEntity
  8
1
100
AcDbCircle
 10
958.4942023340079
 20
2463.978022216088
 30
0.0
 40
3.0
100
AcDbArc
 50
90.0
 51
180.0
  0
LINE
  5
7C72
330
83D9
100
AcDbEntity
  8
1
100
AcDbLine
 10
955.494202334008
 20
2522.237055216087
 30
0.0
 11
961.8781133340089
 21
2526.934809216087
 31
0.0
  0
LINE
  5
7C73
330
83D9
100
AcDbEntity
  8
1
100
AcDbLine
 10
892.4942023340081
 20
2391.978022216088
 30
0.0
 11
1342.494202334008
 21
2391.978022216088
 31
0.0
  0
LINE
  5
7C74
330
83D9
100
AcDbEntity
  8
1
100
AcDbLine
 10
917.4942023340079
 20
2391.978022216088
 30
0.0
 11
917.4942023340079
 21
2351.978022216087
 31
0.0
  0
LINE
  5
7C75
330
83D9
100
AcDbEntity
  8
1
100
AcDbLine
 10
1317.494202334008
 20
2391.978022216088
 30
0.0
 11
1317.494202334008
 21
2351.978022216087
 31
0.0
  0
LINE
  5
7C76
330
83D9
100
AcDbEntity
  8
1
100
AcDbLine
 10
907.3926639328856
 20
2446.978022216087
 30
0.0
 11
1047.494202334008
 21
2446.978022216087
 31
0.0
  0
LINE
  5
7C77
330
83D9
100
AcDbEntity
  8
1
100
AcDbLine
 10
1342.494202334008
 20
2391.978022216088
 30
0.0
 11
1327.291885699496
 21
2446.978022216087
 31
0.0
  0
LINE
  5
7C78
330
83D9
100
AcDbEntity
  8
1
100
AcDbLine
 10
892.4942023340081
 20
2391.978022216088
 30
0.0
 11
907.3926639328856
 21
2446.978022216087
 31
0.0
  0
LINE
  5
7C7A
330
83D9
100
AcDbEntity
  8
1
100
AcDbLine
 10
1047.494202334008
 20
2436.978022216087
 30
0.0
 11
1187.494202334008
 21
2436.978022216087
 31
0.0
  0
LINE
  5
7C7B
330
83D9
100
AcDbEntity
  8
1
100
AcDbLine
 10
1047.494202334008
 20
2446.978022216087
 30
0.0
 11
1047.494202334008
 21
2436.978022216087
 31
0.0
  0
LINE
  5
7C7C
330
83D9
100
AcDbEntity
  8
1
100
AcDbLine
 10
1187.494202334008
 20
2446.978022216087
 30
0.0
 11
1187.494202334008
 21
2436.978022216087
 31
0.0
  0
LINE
  5
7C7D
330
83D9
100
AcDbEntity
  8
1
100
AcDbLine
 10
1187.494202334008
 20
2446.978022216087
 30
0.0
 11
1327.291885699496
 21
2446.978022216087
 31
0.0
  0
LINE
  5
7C80
330
83D9
100
AcDbEntity
  8
1
100
AcDbLine
 10
867.4942023340081
 20
2224.978022216088
 30
0.0
 11
2737.49420233401
 21
2224.978022216088
 31
0.0
1001
ACAD
1000
ASC_BOUNDS
1002
{
1070
    19
1002
}
  0
LINE
  5
7C81
330
83D9
100
AcDbEntity
  8
1
100
AcDbLine
 10
867.4942023340081
 20
2224.978022216088
 30
0.0
 11
867.4942023340081
 21
2124.978022216088
 31
0.0
  0
LINE
  5
7C82
330
83D9
100
AcDbEntity
  8
1
100
AcDbLine
 10
2737.49420233401
 20
2224.978022216088
 30
0.0
 11
2737.49420233401
 21
2124.978022216088
 31
0.0
  0
LINE
  5
7C83
330
83D9
100
AcDbEntity
  8
1
100
AcDbLine
 10
4222.653931325537
 20
2224.978022216088
 30
0.0
 11
5597.653931325547
 21
2224.978022216088
 31
0.0
1001
ACAD
1000
ASC_BOUNDS
1002
{
1070
    19
1005
0
1005
0
1005
0
1005
0
1005
0
1005
0
1002
}
  0
POINT
  5
7C86
330
83D9
100
AcDbEntity
  8
1
100
AcDbPoint
 10
2737.49420233401
 20
2224.978022216088
 30
0.0
  0
POINT
  5
7C87
330
83D9
100
AcDbEntity
  8
1
100
AcDbPoint
 10
2737.49420233401
 20
2159.978022216088
 30
0.0
  0
POINT
  5
7C88
330
83D9
100
AcDbEntity
  8
1
100
AcDbPoint
 10
2737.49420233401
 20
2224.978022216088
 30
0.0
  0
POINT
  5
7C89
330
83D9
100
AcDbEntity
  8
1
100
AcDbPoint
 10
2737.494202334008
 20
2251.978022216087
 30
0.0
  0
CIRCLE
  5
7C8A
330
83D9
100
AcDbEntity
  8
1
100
AcDbCircle
 10
1117.494202334008
 20
2626.978022216087
 30
0.0
 40
119.0
  0
LINE
  5
7C8B
330
83D9
100
AcDbEntity
  8
1
100
AcDbLine
 10
5544.653931325547
 20
3107.978022216087
 30
0.0
 11
5544.653931325547
 21
2351.978022216087
 31
0.0
  0
LINE
  5
7C8C
330
83D9
100
AcDbEntity
  8
1
100
AcDbLine
 10
4424.653931325547
 20
3691.978022216089
 30
0.0
 11
4424.653931325547
 21
3071.978022216089
 31
0.0
  0
LINE
  5
7C8D
330
83D9
100
AcDbEntity
  8
1
100
AcDbLine
 10
4984.653931325546
 20
3691.978022216089
 30
0.0
 11
4384.653931325545
 21
3691.978022216089
 31
0.0
  0
LINE
  5
7C8E
330
83D9
100
AcDbEntity
  8
1
100
AcDbLine
 10
4424.653931325547
 20
3071.978022216089
 30
0.0
 11
4424.653931325547
 21
2351.978022216087
 31
0.0
  0
LINE
  5
7C8F
330
83D9
100
AcDbEntity
  8
1
100
AcDbLine
 10
4296.653931325547
 20
3046.178022216087
 30
0.0
 11
4372.353931325545
 21
3046.178022216087
 31
0.0
  0
LINE
  5
7C90
330
83D9
100
AcDbEntity
  8
1
100
AcDbLine
 10
4296.653931325548
 20
2896.178022216087
 30
0.0
 11
4372.353931325545
 21
2896.178022216087
 31
0.0
  0
LINE
  5
7C91
330
83D9
100
AcDbEntity
  8
1
100
AcDbLine
 10
4286.653931325547
 20
3036.178022216089
 30
0.0
 11
4286.653931325548
 21
2906.178022216087
 31
0.0
  0
LINE
  5
7C92
330
83D9
100
AcDbEntity
  8
1
100
AcDbLine
 10
4411.653931325544
 20
3046.178022216087
 30
0.0
 11
4411.653931325547
 21
2896.178022216087
 31
0.0
  0
ARC
  5
7C93
330
83D9
100
AcDbEntity
  8
1
100
AcDbCircle
 10
4296.653931325547
 20
3036.178022216089
 30
0.0
 40
10.0
100
AcDbArc
 50
90.0
 51
180.0000000000003
  0
ARC
  5
7C94
330
83D9
100
AcDbEntity
  8
1
100
AcDbCircle
 10
4296.653931325548
 20
2906.178022216087
 30
0.0
 40
10.0
100
AcDbArc
 50
180.0000000000003
 51
270.0
  0
LINE
  5
7C95
330
83D9
100
AcDbEntity
  8
1
100
AcDbLine
 10
4372.353931325545
 20
2896.178022216087
 30
0.0
 11
4411.653931325547
 21
2896.178022216087
 31
0.0
  0
LINE
  5
7C96
330
83D9
100
AcDbEntity
  8
1
100
AcDbLine
 10
4372.353931325545
 20
3046.178022216087
 30
0.0
 11
4411.653931325547
 21
3046.178022216087
 31
0.0
  0
LINE
  5
7C97
330
83D9
100
AcDbEntity
  8
1
100
AcDbLine
 10
5664.653931325545
 20
3032.478022216089
 30
0.0
 11
5664.653931325545
 21
2932.478022216089
 31
0.0
  0
LINE
  5
7C98
330
83D9
100
AcDbEntity
  8
1
100
AcDbLine
 10
5564.153931325547
 20
3042.478022216088
 30
0.0
 11
5564.153931325547
 21
2922.478022216088
 31
0.0
  0
LINE
  5
7C99
330
83D9
100
AcDbEntity
  8
1
100
AcDbLine
 10
5564.153931325547
 20
3042.478022216088
 30
0.0
 11
5596.953931325547
 21
3042.478022216088
 31
0.0
  0
LINE
  5
7C9A
330
83D9
100
AcDbEntity
  8
1
100
AcDbLine
 10
5564.153931325547
 20
2922.478022216088
 30
0.0
 11
5596.953931325547
 21
2922.478022216088
 31
0.0
  0
ARC
  5
7C9B
330
83D9
100
AcDbEntity
  8
1
100
AcDbCircle
 10
5654.653931325545
 20
3032.478022216089
 30
0.0
 40
10.0
100
AcDbArc
 50
0.0000000000003257
 51
90.0
  0
ARC
  5
7C9C
330
83D9
100
AcDbEntity
  8
1
100
AcDbCircle
 10
5654.653931325545
 20
2932.478022216089
 30
0.0
 40
10.0
100
AcDbArc
 50
270.0
 51
0.0000000000003257
  0
LINE
  5
7C9D
330
83D9
100
AcDbEntity
  8
1
100
AcDbLine
 10
5596.953931325547
 20
2922.478022216088
 30
0.0
 11
5654.653931325545
 21
2922.478022216088
 31
0.0
  0
LINE
  5
7C9E
330
83D9
100
AcDbEntity
  8
1
100
AcDbLine
 10
5596.953931325547
 20
3042.478022216088
 30
0.0
 11
5654.653931325545
 21
3042.478022216088
 31
0.0
  0
LINE
  5
7C9F
330
83D9
100
AcDbEntity
  8
1
100
AcDbLine
 10
4271.653931325547
 20
3101.978022216087
 30
0.0
 11
4271.653931325547
 21
3041.978022216089
 31
0.0
  0
LINE
  5
7CA0
330
83D9
100
AcDbEntity
  8
1
100
AcDbLine
 10
4266.653931325547
 20
3099.478022216088
 30
0.0
 11
4271.653931325547
 21
3099.478022216088
 31
0.0
  0
LINE
  5
7CA1
330
83D9
100
AcDbEntity
  8
1
100
AcDbLine
 10
4266.653931325547
 20
3044.478022216089
 30
0.0
 11
4271.653931325547
 21
3044.478022216089
 31
0.0
  0
LINE
  5
7CA2
330
83D9
100
AcDbEntity
  8
1
100
AcDbLine
 10
4156.653931325549
 20
3275.178022216088
 30
0.0
 11
4156.653931325542
 21
2507.978022216088
 31
0.0
  0
LINE
  5
7CA3
330
83D9
100
AcDbEntity
  8
1
100
AcDbLine
 10
4266.653931325548
 20
3275.178022216088
 30
0.0
 11
4266.653931325541
 21
2507.978022216088
 31
0.0
  0
LINE
  5
7CA4
330
83D9
100
AcDbEntity
  8
2
100
AcDbLine
 10
4124.009838858214
 20
2626.978022216087
 30
0.0
 11
4627.841449216972
 21
2626.978022216087
 31
0.0
  0
LINE
  5
7CA5
330
83D9
100
AcDbEntity
  8
1
100
AcDbLine
 10
4156.653931325545
 20
2745.978022216088
 30
0.0
 11
4266.653931325545
 21
2745.978022216088
 31
0.0
  0
LINE
  5
7CA6
330
83D9
100
AcDbEntity
  8
1
100
AcDbLine
 10
4156.653931325543
 20
2507.978022216088
 30
0.0
 11
4266.653931325543
 21
2507.978022216088
 31
0.0
  0
LINE
  5
7CA7
330
83D9
100
AcDbEntity
  8
1
100
AcDbLine
 10
4034.653931325545
 20
3351.978022216088
 30
0.0
 11
4034.653931325549
 21
2406.978022216087
 31
0.0
  0
LINE
  5
7CA8
330
83D9
100
AcDbEntity
  8
1
100
AcDbLine
 10
4034.653931325549
 20
2406.978022216087
 30
0.0
 11
4286.653931325551
 21
2406.978022216087
 31
0.0
  0
LINE
  5
7CA9
330
83D9
100
AcDbEntity
  8
1
100
AcDbLine
 10
4286.653931325541
 20
3351.978022216088
 30
0.0
 11
4286.653931325544
 21
3331.978022216087
 31
0.0
  0
LINE
  5
7CAA
330
83D9
100
AcDbEntity
  8
1
100
AcDbLine
 10
4286.653931325548
 20
2426.978022216087
 30
0.0
 11
4286.653931325548
 21
2406.978022216089
 31
0.0
  0
POINT
  5
7CAB
330
83D9
100
AcDbEntity
  8
1
100
AcDbPoint
 10
5664.653931325545
 20
3032.478022216089
 30
0.0
  0
LINE
  5
7CAC
330
83D9
100
AcDbEntity
  8
2
100
AcDbLine
 10
806.2577694881399
 20
5503.676946236007
 30
0.0
 11
2850.856280047006
 21
5503.676946236006
 31
0.0
  0
LINE
  5
7CAD
330
83D9
100
AcDbEntity
  8
2
100
AcDbLine
 10
2177.494202334008
 20
4502.418237481719
 30
0.0
 11
2177.494202334008
 21
6038.185329107333
 31
0.0
  0
INSERT
  5
7CAE
330
83D9
100
AcDbEntity
  8
0
100
AcDbBlockReference
  2
YA_N
 10
1902.396177633552
 20
-2784.746590060132
 30
0.0
  0
LINE
  5
7CB0
330
83D9
100
AcDbEntity
  8
1
100
AcDbLine
 10
5597.653931325547
 20
2257.509527286754
 30
0.0
 11
5597.653931325547
 21
2251.978022216087
 31
0.0
  0
LINE
  5
7CB1
330
83D9
100
AcDbEntity
  8
1
100
AcDbLine
 10
4222.653931325547
 20
2124.978022216088
 30
0.0
 11
5597.653931325547
 21
2124.978022216088
 31
0.0
1001
ACAD
1000
ASC_BOUNDS
1002
{
1070
    19
1002
}
  0
LINE
  5
7CB2
330
83D9
100
AcDbEntity
  8
1
100
AcDbLine
 10
5597.653931325547
 20
2224.978022216088
 30
0.0
 11
5597.653931325547
 21
2124.978022216088
 31
0.0
  0
LINE
  5
7CB6
330
83D9
100
AcDbEntity
  8
1
100
AcDbLine
 10
4271.653931325547
 20
3101.978022216087
 30
0.0
 11
4424.653931325547
 21
3101.978022216087
 31
0.0
  0
LINE
  5
7CB7
330
83D9
100
AcDbEntity
  8
1
100
AcDbLine
 10
4271.653931325547
 20
3041.978022216089
 30
0.0
 11
4288.507766583779
 21
3041.978022216089
 31
0.0
  0
LINE
  5
7CB8
330
83D9
100
AcDbEntity
  8
1
100
AcDbLine
 10
867.4942023340081
 20
2124.978022216088
 30
0.0
 11
2737.49420233401
 21
2124.978022216088
 31
0.0
1001
ACAD
1000
ASC_BOUNDS
1002
{
1070
    19
1002
}
  0
POINT
  5
7CBC
330
83D9
100
AcDbEntity
  8
1
100
AcDbPoint
 10
2737.49420233401
 20
2224.978022216088
 30
0.0
  0
POINT
  5
7CBD
330
83D9
100
AcDbEntity
  8
1
100
AcDbPoint
 10
2737.49420233401
 20
2124.978022216088
 30
0.0
  0
POINT
  5
7CBE
330
83D9
100
AcDbEntity
  8
1
100
AcDbPoint
 10
2737.49420233401
 20
2224.978022216088
 30
0.0
  0
POINT
  5
7CBF
330
83D9
100
AcDbEntity
  8
1
100
AcDbPoint
 10
2737.49420233401
 20
2251.978022216087
 30
0.0
  0
ARC
  5
7CC0
330
83D9
100
AcDbEntity
  8
1
100
AcDbCircle
 10
2177.494202334008
 20
3071.978022216089
 30
0.0
 40
536.0
100
AcDbArc
 50
90.0
 51
93.85112312649772
  0
CIRCLE
  5
7CC1
330
83D9
100
AcDbEntity
  8
1
100
AcDbCircle
 10
2177.494202334008
 20
3071.978022216089
 30
0.0
 40
203.2
  0
ARC
  5
7CC2
330
83D9
100
AcDbEntity
  8
1
100
AcDbCircle
 10
2177.494202334008
 20
3071.978022216089
 30
0.0
 40
280.0
100
AcDbArc
 50
282.9341812137518
 51
109.1706668005613
  0
ARC
  5
7CC3
330
83D9
100
AcDbEntity
  8
1
100
AcDbCircle
 10
1117.494202334008
 20
2626.978022216087
 30
0.0
 40
220.0
100
AcDbArc
 50
109.1706668005613
 51
282.9341812137518
  0
LINE
  5
7CC4
330
83D9
100
AcDbEntity
  8
1
100
AcDbLine
 10
2106.563130054561
 20
3262.396043908593
 30
0.0
 11
1075.954844060119
 21
2738.492513266324
 31
0.0
  0
LINE
  5
7CC5
330
83D9
100
AcDbEntity
  8
1
100
AcDbLine
 10
2218.611640338309
 20
2872.98154915196
 30
0.0
 11
1141.573804314874
 21
2510.439733364556
 31
0.0
  0
LINE
  5
7CC6
330
83D9
100
AcDbEntity
  8
1
100
AcDbLine
 10
2240.167048692558
 20
2799.082228314244
 30
0.0
 11
1166.737153044297
 21
2412.559898436067
 31
0.0
  0
LINE
  5
7CC7
330
83D9
100
AcDbEntity
  8
1
100
AcDbLine
 10
4156.653931325549
 20
3275.178022216088
 30
0.0
 11
4266.653931325548
 21
3275.178022216088
 31
0.0
  0
LINE
  5
7CC8
330
83D9
100
AcDbEntity
  8
1
100
AcDbLine
 10
4156.653931325545
 20
2868.778022216088
 30
0.0
 11
4266.653931325545
 21
2868.778022216088
 31
0.0
  0
LINE
  5
7CC9
330
83D9
100
AcDbEntity
  8
1
100
AcDbLine
 10
4034.653931325545
 20
3351.978022216088
 30
0.0
 11
4286.653931325541
 21
3351.978022216088
 31
0.0
  0
LINE
  5
7CCE
330
83D9
100
AcDbEntity
  8
1
100
AcDbLine
 10
1617.49420233401
 20
6116.676946236007
 30
0.0
 11
2737.494202334008
 21
6116.676946236006
 31
0.0
  0
LINE
  5
7CCF
330
83D9
100
AcDbEntity
  8
1
100
AcDbLine
 10
867.4942023340097
 20
4741.676946236006
 30
0.0
 11
2737.494202334008
 21
4741.676946236006
 31
0.0
  0
LINE
  5
7CD0
330
83D9
100
AcDbEntity
  8
1
100
AcDbLine
 10
2737.49420233401
 20
4741.676946236006
 30
0.0
 11
2737.49420233401
 21
4943.676946236006
 31
0.0
  0
LINE
  5
7CD1
330
83D9
100
AcDbEntity
  8
1
100
AcDbLine
 10
1617.49420233401
 20
6063.676946236006
 30
0.0
 11
1617.49420233401
 21
6116.676946236006
 31
0.0
  0
LINE
  5
7CD2
330
83D9
100
AcDbEntity
  8
1
100
AcDbLine
 10
867.494202334009
 20
4741.676946236007
 30
0.0
 11
867.4942023340097
 21
5541.676946236008
 31
0.0
  0
LINE
  5
7CD3
330
83D9
100
AcDbEntity
  8
1
100
AcDbLine
 10
867.4942023340097
 20
5541.676946236006
 30
0.0
 11
1216.494202334009
 21
5541.676946236007
 31
0.0
  0
LINE
  5
7CD4
330
83D9
100
AcDbEntity
  8
2
100
AcDbLine
 10
1117.494202334009
 20
4429.101406057159
 30
0.0
 11
1117.494202334009
 21
5333.775288802218
 31
0.0
  0
DIMENSION
  5
7CD9
330
83D9
100
AcDbEntity
  8
3
100
AcDbDimension
  2
*D13
 10
677.6426948674743
 20
4741.676946236006
 30
0.0
 11
602.6426948674735
 21
5141.676946236007
 31
0.0
 71
     5
 42
-1.0
  3
Standard
100
AcDbAlignedDimension
 13
867.4942023340097
 23
5541.676946236008
 33
0.0
 14
867.4942023340097
 24
4741.676946236006
 34
0.0
 50
90.0
100
AcDbRotatedDimension
1001
ACAD
1000
DSTYLE
1002
{
1070
   287
1070
     3
1070
   287
1070
     3
1070
    40
1040
30.0
1070
   143
1040
0.039
1070
   172
1070
     1
1070
   271
1070
     0
1070
   279
1070
     0
1070
   288
1070
     1
1002
}
  0
CIRCLE
  5
7CDB
330
83D9
100
AcDbEntity
  8
1
100
AcDbCircle
 10
2177.494202334008
 20
3071.978022216089
 30
0.0
 40
475.0
  0
CIRCLE
  5
7CDC
330
83D9
100
AcDbEntity
  8
1
100
AcDbCircle
 10
2177.494202334008
 20
3071.978022216089
 30
0.0
 40
515.0
  0
LINE
  5
7CDD
330
83D9
100
AcDbEntity
  8
1
100
AcDbLine
 10
2085.546928769047
 20
3336.450513950049
 30
0.0
 11
1045.249915961539
 21
2834.777837149914
 31
0.0
  0
LINE
  5
7CDE
330
83D9
100
AcDbEntity
  8
1
100
AcDbLine
 10
4222.653931325537
 20
2224.978022216088
 30
0.0
 11
4222.653931325528
 21
2124.978022216088
 31
0.0
  0
LINE
  5
7CDF
330
83D9
100
AcDbEntity
  8
1
100
AcDbLine
 10
897.4942023340082
 20
4553.676946236007
 30
0.0
 11
2457.494202334008
 21
4553.676946236006
 31
0.0
  0
LINE
  5
7CE0
330
83D9
100
AcDbEntity
  8
1
100
AcDbLine
 10
897.4942023340082
 20
4843.676946236008
 30
0.0
 11
2457.494202334008
 21
4843.676946236006
 31
0.0
  0
LINE
  5
7CE1
330
83D9
100
AcDbEntity
  8
1
100
AcDbLine
 10
998.494202334008
 20
4713.676946236008
 30
0.0
 11
1236.494202334008
 21
4713.676946236008
 31
0.0
  0
LINE
  5
7CE2
330
83D9
100
AcDbEntity
  8
1
100
AcDbLine
 10
998.494202334008
 20
4823.676946236008
 30
0.0
 11
1236.494202334008
 21
4823.676946236008
 31
0.0
  0
LINE
  5
7CE3
330
83D9
100
AcDbEntity
  8
1
100
AcDbLine
 10
2457.494202334008
 20
4553.676946236006
 30
0.0
 11
2457.494202334008
 21
4843.676946236006
 31
0.0
  0
LINE
  5
7CE4
330
83D9
100
AcDbEntity
  8
1
100
AcDbLine
 10
897.4942023340082
 20
4553.676946236007
 30
0.0
 11
897.4942023340082
 21
4843.676946236008
 31
0.0
  0
LINE
  5
7CE5
330
83D9
100
AcDbEntity
  8
1
100
AcDbLine
 10
2380.694202334008
 20
4713.676946236006
 30
0.0
 11
2380.694202334008
 21
4823.676946236006
 31
0.0
  0
LINE
  5
7CE6
330
83D9
100
AcDbEntity
  8
1
100
AcDbLine
 10
1974.294202334007
 20
4713.676946236006
 30
0.0
 11
1974.294202334007
 21
4823.676946236006
 31
0.0
  0
LINE
  5
7CE7
330
83D9
100
AcDbEntity
  8
1
100
AcDbLine
 10
1236.494202334008
 20
4713.676946236006
 30
0.0
 11
1236.494202334008
 21
4823.676946236008
 31
0.0
  0
LINE
  5
7CE8
330
83D9
100
AcDbEntity
  8
1
100
AcDbLine
 10
998.494202334008
 20
4713.676946236008
 30
0.0
 11
998.494202334008
 21
4823.676946236008
 31
0.0
  0
LINE
  5
7CE9
330
83D9
100
AcDbEntity
  8
1
100
AcDbLine
 10
1974.294202334007
 20
4823.676946236006
 30
0.0
 11
2380.694202334008
 21
4823.676946236006
 31
0.0
  0
LINE
  5
7CEA
330
83D9
100
AcDbEntity
  8
1
100
AcDbLine
 10
1974.294202334007
 20
4713.676946236007
 30
0.0
 11
2380.694202334008
 21
4713.676946236006
 31
0.0
  0
LINE
  5
7CEB
330
83D9
100
AcDbEntity
  8
1
100
AcDbLine
 10
1216.494202334009
 20
6063.676946236006
 30
0.0
 11
2820.494202334009
 21
6063.676946236006
 31
0.0
  0
LINE
  5
7CEC
330
83D9
100
AcDbEntity
  8
1
100
AcDbLine
 10
1216.494202334009
 20
4943.676946236006
 30
0.0
 11
2820.494202334009
 21
4943.676946236006
 31
0.0
  0
LINE
  5
7CED
330
83D9
100
AcDbEntity
  8
1
100
AcDbLine
 10
934.9942023340089
 20
5390.176946236008
 30
0.0
 11
1216.494202334009
 21
5390.176946236008
 31
0.0
  0
LINE
  5
7CEE
330
83D9
100
AcDbEntity
  8
1
100
AcDbLine
 10
1299.99420233401
 20
4828.676946236008
 30
0.0
 11
1299.99420233401
 21
4943.676946236006
 31
0.0
  0
LINE
  5
7CEF
330
83D9
100
AcDbEntity
  8
1
100
AcDbLine
 10
934.9942023340098
 20
4828.676946236008
 30
0.0
 11
934.9942023340098
 21
5390.176946236008
 31
0.0
  0
LINE
  5
7CF0
330
83D9
100
AcDbEntity
  8
1
100
AcDbLine
 10
934.9942023340098
 20
4828.676946236008
 30
0.0
 11
1299.99420233401
 21
4828.676946236009
 31
0.0
  0
LINE
  5
7CF1
330
83D9
100
AcDbEntity
  8
1
100
AcDbLine
 10
1141.494202334009
 20
4823.676946236008
 30
0.0
 11
1141.494202334009
 21
4828.676946236008
 31
0.0
  0
LINE
  5
7CF2
330
83D9
100
AcDbEntity
  8
1
100
AcDbLine
 10
1093.494202334009
 20
4823.676946236008
 30
0.0
 11
1093.494202334009
 21
4828.676946236008
 31
0.0
  0
LINE
  5
7CF3
330
83D9
100
AcDbEntity
  8
1
100
AcDbLine
 10
2207.49420233401
 20
4823.676946236006
 30
0.0
 11
2207.49420233401
 21
4943.676946236006
 31
0.0
  0
LINE
  5
7CF4
330
83D9
100
AcDbEntity
  8
1
100
AcDbLine
 10
2147.49420233401
 20
4823.676946236006
 30
0.0
 11
2147.49420233401
 21
4943.676946236006
 31
0.0
  0
LINE
  5
7CF5
330
83D9
100
AcDbEntity
  8
1
100
AcDbLine
 10
4271.653931325545
 20
2809.478022216089
 30
0.0
 11
4424.653931325547
 21
2809.478022216089
 31
0.0
  0
LINE
  5
7CF6
330
83D9
100
AcDbEntity
  8
1
100
AcDbLine
 10
4271.653931325545
 20
2444.478022216088
 30
0.0
 11
4424.653931325547
 21
2444.478022216089
 31
0.0
  0
LINE
  5
7CF7
330
83D9
100
AcDbEntity
  8
1
100
AcDbLine
 10
4271.653931325545
 20
2809.478022216089
 30
0.0
 11
4271.653931325545
 21
2444.478022216088
 31
0.0
  0
LINE
  5
7CF8
330
83D9
100
AcDbEntity
  8
1
100
AcDbLine
 10
4266.653931325545
 20
2650.978022216088
 30
0.0
 11
4271.653931325545
 21
2650.978022216088
 31
0.0
  0
LINE
  5
7CF9
330
83D9
100
AcDbEntity
  8
1
100
AcDbLine
 10
4266.653931325545
 20
2602.978022216088
 30
0.0
 11
4271.653931325545
 21
2602.978022216088
 31
0.0
  0
DIMENSION
  5
7D03
330
83D9
100
AcDbEntity
  8
3
100
AcDbDimension
  2
*D17
 10
3045.431187629271
 20
2124.978022216088
 30
0.0
 11
2970.431187629269
 21
1867.83516507323
 31
0.0
 71
     5
 42
-1.0
  3
Standard
100
AcDbAlignedDimension
 13
2737.49420233401
 23
2224.978022216088
 33
0.0
 14
2737.49420233401
 24
2124.978022216088
 34
0.0
 50
90.0
100
AcDbRotatedDimension
1001
ACAD
1000
DSTYLE
1002
{
1070
   287
1070
     3
1070
   287
1070
     3
1070
    40
1040
30.0
1070
   143
1040
0.039
1070
   172
1070
     1
1070
   271
1070
     0
1070
   279
1070
     0
1070
   288
1070
     1
1070
     6
1000
DOT
1002
}
  0
LINE
  5
7D05
330
83D9
100
AcDbEntity
  8
1
100
AcDbLine
 10
4384.653931325547
 20
3691.978022216089
 30
0.0
 11
4384.653931325547
 21
3688.978022216089
 31
0.0
  0
LINE
  5
7D06
330
83D9
100
AcDbEntity
  8
1
100
AcDbLine
 10
5584.653931325547
 20
3691.978022216089
 30
0.0
 11
5584.653931325547
 21
3688.978022216089
 31
0.0
  0
LINE
  5
7D07
330
83D9
100
AcDbEntity
  8
1
100
AcDbLine
 10
4984.653931325546
 20
3688.978022216089
 30
0.0
 11
4384.653931325545
 21
3688.978022216089
 31
0.0
  0
LINE
  5
7D08
330
83D9
100
AcDbEntity
  8
1
100
AcDbLine
 10
4984.653931325548
 20
3688.978022216089
 30
0.0
 11
5584.653931325547
 21
3688.978022216089
 31
0.0
  0
LINE
  5
7D09
330
83D9
100
AcDbEntity
  8
1
100
AcDbLine
 10
1216.494202334009
 20
4943.676946236006
 30
0.0
 11
1216.494202334009
 21
6063.676946236006
 31
0.0
  0
LINE
  5
7D0B
330
83D9
100
AcDbEntity
  8
1
100
AcDbLine
 10
2820.494202334009
 20
4943.676946236006
 30
0.0
 11
2820.49420233401
 21
6063.676946236006
 31
0.0
  0
LINE
  5
7D0C
330
83D9
100
AcDbEntity
  8
1
100
AcDbLine
 10
2737.49420233401
 20
6063.676946236006
 30
0.0
 11
2737.49420233401
 21
6116.676946236006
 31
0.0
  0
LINE
  5
7D0D
330
83D9
100
AcDbEntity
  8
1
100
AcDbLine
 10
2141.49420233401
 20
4943.676946236006
 30
0.0
 11
2141.49420233401
 21
6063.676946236006
 31
0.0
  0
LINE
  5
7D0E
330
83D9
100
AcDbEntity
  8
1
100
AcDbLine
 10
2141.49420233401
 20
6063.676946236006
 30
0.0
 11
1216.494202334009
 21
4943.676946236006
 31
0.0
  0
LINE
  5
7D0F
330
83D9
100
AcDbEntity
  8
1
100
AcDbLine
 10
1216.494202334009
 20
6063.676946236006
 30
0.0
 11
2141.49420233401
 21
4943.676946236006
 31
0.0
  0
LINE
  5
7F23
330
83D9
100
AcDbEntity
  8
4
100
AcDbLine
 10
5550.0
 20
1500.0
 30
0.0
 11
5550.0
 21
900.0
 31
0.0
  0
LINE
  5
7F24
330
83D9
100
AcDbEntity
  8
4
100
AcDbLine
 10
3450.0
 20
1500.0
 30
0.0
 11
3450.0
 21
900.0
 31
0.0
  0
LINE
  5
7F25
330
83D9
100
AcDbEntity
  8
4
100
AcDbLine
 10
1950.0
 20
1500.0
 30
0.0
 11
1950.0
 21
900.0
 31
0.0
  0
LINE
  5
7F28
330
83D9
100
AcDbEntity
  8
4
100
AcDbLine
 10
1950.0
 20
900.0
 30
0.0
 11
5550.0
 21
900.0
 31
0.0
  0
LINE
  5
7F29
330
83D9
100
AcDbEntity
  8
4
100
AcDbLine
 10
1950.0
 20
1200.0
 30
0.0
 11
5550.0
 21
1200.0
 31
0.0
  0
TEXT
  5
7F2A
330
83D9
100
AcDbEntity
  8
4
100
AcDbText
 10
2065.506242540704
 20
1294.629077599838
 30
0.0
 40
150.0
  1
機器名称
100
AcDbText
  0
TEXT
  5
7F2B
330
83D9
100
AcDbEntity
  8
4
100
AcDbText
 10
2058.774318074392
 20
964.9354701960326
 30
0.0
 40
150.0
  1
機器型番
100
AcDbText
  0
TEXT
  5
7F2C
330
83D9
100
AcDbEntity
  8
4
100
AcDbText
 10
3533.036236462995
 20
1267.715306872705
 30
0.0
 40
150.0
  1
ミツヤ多翼送風機
100
AcDbText
  0
TEXT
  5
7F2D
330
83D9
100
AcDbEntity
  8
4
100
AcDbText
 10
3559.963486756442
 20
951.4787528398301
 30
0.0
 40
150.0
  1
MF#5 1/2-5
100
AcDbText
  0
TEXT
  5
7F2F
330
83D9
100
AcDbEntity
  8
4
100
AcDbText
 10
2381.689741412352
 20
7150.286523997547
 30
0.0
 40
161.9999999999998
  1
床置防振ベット
100
AcDbText
  0
TEXT
  5
7F30
330
83D9
100
AcDbEntity
  8
4
100
AcDbText
 10
948.5027799883393
 20
7601.642928597894
 30
0.0
 40
216.0
  1
遠心式両吸込両持多翼ファン
100
AcDbText
  0
LINE
  5
7F31
330
83D9
100
AcDbEntity
  8
4
100
AcDbLine
 10
750.0
 20
7408.226262794413
 30
0.0
 11
5550.0
 21
7408.226262794413
 31
0.0
  0
LINE
  5
7F32
330
83D9
100
AcDbEntity
  8
4
100
AcDbLine
 10
750.0
 20
8008.226262794414
 30
0.0
 11
5550.0
 21
8008.226262794414
 31
0.0
  0
LINE
  5
7F33
330
83D9
100
AcDbEntity
  8
4
100
AcDbLine
 10
1950.0
 20
1500.0
 30
0.0
 11
5550.0
 21
1500.0
 31
0.0
  0
LINE
  5
7F34
330
83D9
100
AcDbEntity
  8
4
100
AcDbLine
 10
750.0
 20
8008.226262794414
 30
0.0
 11
750.0
 21
7408.226262794413
 31
0.0
  0
TEXT
  5
7F35
330
83D9
100
AcDbEntity
  8
4
100
AcDbText
 10
1074.113244684245
 20
7146.958432639029
 30
0.0
 40
161.9999999999998
  1
右回転上向
100
AcDbText
  0
TEXT
  5
7F36
330
83D9
100
AcDbEntity
  8
4
100
AcDbText
 10
4406.908677747869
 20
8118.183244485924
 30
0.0
 40
168.0
  1
No.
100
AcDbText
  0
TEXT
  5
7F37
330
83D9
100
AcDbEntity
  8
4
100
AcDbText
 10
3933.888187800039
 20
7150.286523997547
 30
0.0
 40
161.9999999999998
  1
縮尺：1/30
100
AcDbText
  0
LINE
  5
7F38
330
83D9
100
AcDbEntity
  8
4
100
AcDbLine
 10
5550.0
 20
8008.226262794414
 30
0.0
 11
5550.0
 21
7408.226262794413
 31
0.0
  0
LINE
  5
7F39
330
83D9
100
AcDbEntity
  8
4
100
AcDbLine
 10
6300.0
 20
8850.0
 30
0.0
 11
6300.0
 21
8850.0
 31
0.0
  0
LINE
  5
7F3A
330
83D9
100
AcDbEntity
  8
4
100
AcDbLine
 10
4321.852267079594
 20
8043.790749376205
 30
0.0
 11
4321.852267079594
 21
8359.956784649257
 31
0.0
  0
LINE
  5
7F3B
330
83D9
100
AcDbEntity
  8
4
100
AcDbLine
 10
4321.852267079594
 20
8359.956784649257
 30
0.0
 11
5550.0
 21
8359.956784649257
 31
0.0
  0
LINE
  5
7F3C
330
83D9
100
AcDbEntity
  8
4
100
AcDbLine
 10
5550.0
 20
8359.956784649257
 30
0.0
 11
5550.0
 21
8043.790749376205
 31
0.0
  0
LINE
  5
7F3D
330
83D9
100
AcDbEntity
  8
4
100
AcDbLine
 10
5550.0
 20
8043.790749376205
 30
0.0
 11
4321.852267079594
 21
8043.790749376205
 31
0.0
  0
LINE
  5
7F3E
330
83D9
100
AcDbEntity
  8
4
100
AcDbLine
 10
0.0
 20
0.0
 30
0.0
 11
0.0
 21
8850.0
 31
0.0
  0
LINE
  5
7F3F
330
83D9
100
AcDbEntity
  8
4
100
AcDbLine
 10
0.0
 20
8850.0
 30
0.0
 11
6300.0
 21
8850.0
 31
0.0
  0
LINE
  5
7F40
330
83D9
100
AcDbEntity
  8
4
100
AcDbLine
 10
6300.0
 20
8850.0
 30
0.0
 11
6300.0
 21
0.0
 31
0.0
  0
LINE
  5
7F41
330
83D9
100
AcDbEntity
  8
4
100
AcDbLine
 10
6300.0
 20
0.0
 30
0.0
 11
0.0
 21
0.0
 31
0.0
  0
DIMENSION
  5
819C
330
83D9
100
AcDbEntity
  8
3
100
AcDbDimension
  2
*D20
 10
2177.494202334008
 20
1936.61370258695
 30
0.0
 11
1522.494202334008
 21
2011.61370258695
 31
0.0
 71
     5
 42
-1.0
  3
Standard
100
AcDbAlignedDimension
 13
867.4942023340081
 23
2124.978022216088
 33
0.0
 14
2177.494202334008
 24
2124.978022216088
 34
0.0
100
AcDbRotatedDimension
1001
ACAD
1000
DSTYLE
1002
{
1070
   172
1070
     1
1070
    40
1040
30.0
1070
    42
1040
1.0
1070
   271
1070
     0
1070
   143
1040
0.039
1002
}
  0
DIMENSION
  5
81A9
330
83D9
100
AcDbEntity
  8
3
100
AcDbDimension
  2
*D21
 10
2737.49420233401
 20
1936.61370258695
 30
0.0
 11
2457.49420233401
 21
2011.61370258695
 31
0.0
 71
     5
 42
-1.0
  3
Standard
100
AcDbAlignedDimension
 13
2177.494202334008
 23
2124.978022216088
 33
0.0
 14
2737.49420233401
 24
2124.978022216088
 34
0.0
100
AcDbRotatedDimension
1001
ACAD
1000
DSTYLE
1002
{
1070
   172
1070
     1
1070
    40
1040
30.0
1070
    42
1040
1.0
1070
   271
1070
     0
1070
   143
1040
0.039
1002
}
  0
DIMENSION
  5
81B6
330
83D9
100
AcDbEntity
  8
3
100
AcDbDimension
  2
*D22
 10
4984.653931325546
 20
1936.61370258695
 30
0.0
 11
4603.653931325546
 21
2011.61370258695
 31
0.0
 71
     5
 42
-1.0
  3
Standard
100
AcDbAlignedDimension
 13
4222.653931325547
 23
2124.978022216088
 33
0.0
 14
4984.653931325546
 24
2124.978022216088
 34
0.0
100
AcDbRotatedDimension
1001
ACAD
1000
DSTYLE
1002
{
1070
   172
1070
     1
1070
    40
1040
30.0
1070
    42
1040
1.0
1070
   271
1070
     0
1070
   143
1040
0.039
1002
}
  0
DIMENSION
  5
81C3
330
83D9
100
AcDbEntity
  8
3
100
AcDbDimension
  2
*D23
 10
5597.653931325547
 20
1936.61370258695
 30
0.0
 11
5291.153931325546
 21
2011.61370258695
 31
0.0
 71
     5
 42
-1.0
  3
Standard
100
AcDbAlignedDimension
 13
4984.653931325546
 23
2124.978022216088
 33
0.0
 14
5597.653931325547
 24
2124.978022216088
 34
0.0
100
AcDbRotatedDimension
1001
ACAD
1000
DSTYLE
1002
{
1070
   172
1070
     1
1070
    40
1040
30.0
1070
    42
1040
1.0
1070
   271
1070
     0
1070
   143
1040
0.039
1002
}
  0
DIMENSION
  5
81D2
330
83D9
100
AcDbEntity
  8
3
100
AcDbDimension
  2
*D25
 10
3045.877894927483
 20
2251.978022216087
 30
0.0
 11
3189.44932349891
 21
2238.478022216088
 31
0.0
  1
 <>
 71
     5
 42
-1.0
  3
Standard
100
AcDbAlignedDimension
 13
2737.49420233401
 23
2224.978022216088
 33
0.0
 14
2737.494202334008
 24
2251.978022216087
 34
0.0
 50
90.0
100
AcDbRotatedDimension
1001
ACAD
1000
DSTYLE
1002
{
1070
   172
1070
     1
1070
    76
1070
     1
1070
    75
1070
     1
1070
    40
1040
30.0
1070
     3
1000
(<>)
1070
    42
1040
1.0
1070
   271
1070
     0
1070
     7
1000
_NONE
1070
     6
1000
_NONE
1070
   143
1040
0.039
1002
}
  0
DIMENSION
  5
81DF
330
83D9
100
AcDbEntity
  8
3
100
AcDbDimension
  2
*D26
 10
3290.715419772077
 20
3691.978022216089
 30
0.0
 11
3192.143991200649
 21
2908.478022216089
 31
0.0
 71
     5
 42
-1.0
  3
Standard
100
AcDbAlignedDimension
 13
2737.49420233401
 23
2124.978022216088
 33
0.0
 14
2183.994202334008
 24
3691.978022216089
 34
0.0
 50
90.0
100
AcDbRotatedDimension
1001
ACAD
1000
DSTYLE
1002
{
1070
   172
1070
     1
1070
    40
1040
30.0
1070
     3
1000
(<>)
1070
    42
1040
1.0
1070
   271
1070
     0
1070
   143
1040
0.039
1002
}
  0
DIMENSION
  5
8422
330
83D9
100
AcDbEntity
  8
3
100
AcDbDimension
  2
*D27
 10
4984.653931325548
 20
4094.534864110229
 30
0.0
 11
4509.653931325546
 21
4193.106292681656
 31
0.0
 70
    32
  1
(<>)
 71
     5
 42
950.0000000000031
  3
IGA
100
AcDbAlignedDimension
 13
4034.653931325545
 23
3351.978022216088
 33
0.0
 14
4984.653931325548
 24
3963.85489394909
 34
0.0
100
AcDbRotatedDimension
1001
ACAD
1000
DSTYLE
1002
{
1070
    40
1040
30.0
1070
    42
1040
1.0
1070
   143
1040
0.039
1070
   172
1070
     1
1070
   271
1070
     4
1070
   272
1070
     4
1070
   279
1070
     0
1070
   284
1070
     0
1070
   285
1070
     0
1070
   286
1070
     0
1070
   341
1005
83EC
1070
   343
1005
83EC
1070
   344
1005
83EC
1002
}
  0
DIMENSION
  5
842F
330
83D9
100
AcDbEntity
  8
3
100
AcDbDimension
  2
*D28
 10
5664.653931325545
 20
4094.534864110229
 30
0.0
 11
5324.653931325547
 21
4193.106292681656
 31
0.0
 70
    32
  1
(<>)
 71
     5
 42
679.9999999999973
  3
IGA
100
AcDbAlignedDimension
 13
4984.653931325548
 23
3963.85489394909
 33
0.0
 14
5664.653931325545
 24
3032.478022216089
 34
0.0
100
AcDbRotatedDimension
1001
ACAD
1000
DSTYLE
1002
{
1070
    40
1040
30.0
1070
    42
1040
1.0
1070
   143
1040
0.039
1070
   172
1070
     1
1070
   271
1070
     4
1070
   272
1070
     4
1070
   279
1070
     1
1070
   284
1070
     0
1070
   285
1070
     0
1070
   286
1070
     0
1070
   341
1005
83EC
1070
   343
1005
83EC
1070
   344
1005
83EC
1002
}
  0
DIMENSION
  5
843C
330
83D9
100
AcDbEntity
  8
3
100
AcDbDimension
  2
*D29
 10
5544.653931325547
 20
3843.854893949089
 30
0.0
 11
4984.653931325547
 21
3918.85489394909
 31
0.0
 70
    32
 71
     5
 42
1120.0
  3
IGA
100
AcDbAlignedDimension
 13
4424.653931325547
 23
3691.978022216089
 33
0.0
 14
5544.653931325547
 24
3691.978022216089
 34
0.0
100
AcDbRotatedDimension
1001
ACAD
1000
DSTYLE
1002
{
1070
    40
1040
30.0
1070
    42
1040
1.0
1070
   143
1040
0.039
1070
   172
1070
     1
1070
   271
1070
     4
1070
   272
1070
     4
1070
   279
1070
     0
1070
   284
1070
     0
1070
   285
1070
     0
1070
   286
1070
     0
1070
   341
1005
83EC
1070
   343
1005
83EC
1070
   344
1005
83EC
1002
}
  0
DIMENSION
  5
8486
330
83D9
100
AcDbEntity
  8
3
100
AcDbDimension
  2
*D30
 10
5868.544925153682
 20
3546.978022216089
 30
0.0
 11
5793.544925153681
 21
3071.978022216089
 31
0.0
 70
    32
  1
\U+03C6<>
 71
     5
 42
950.0
  3
IGA
100
AcDbAlignedDimension
 13
5544.653931325547
 23
2596.978022216088
 33
0.0
 14
5544.653931325547
 24
3546.978022216089
 34
0.0
 50
90.0
100
AcDbRotatedDimension
1001
ACAD
1000
DSTYLE
1002
{
1070
    40
1040
30.0
1070
    42
1040
1.0
1070
   143
1040
0.039
1070
   172
1070
     1
1070
   271
1070
     4
1070
   272
1070
     4
1070
   279
1070
     0
1070
   284
1070
     0
1070
   285
1070
     0
1070
   286
1070
     0
1070
   341
1005
83EC
1070
   343
1005
83EC
1070
   344
1005
83EC
1002
}
  0
DIMENSION
  5
84C4
330
83D9
100
AcDbEntity
  8
3
100
AcDbDimension
  2
*D32
 10
2737.494202334008
 20
4326.321910159328
 30
0.0
 11
1802.494202334008
 21
4401.321910159327
 31
0.0
 70
    32
 71
     5
 42
1869.999999999998
  3
IGA
100
AcDbAlignedDimension
 13
867.4942023340097
 23
4741.676946236006
 33
0.0
 14
2737.494202334008
 24
4741.676946236006
 34
0.0
100
AcDbRotatedDimension
1001
ACAD
1000
DSTYLE
1002
{
1070
    40
1040
30.0
1070
    42
1040
1.0
1070
   143
1040
0.039
1070
   172
1070
     1
1070
   271
1070
     4
1070
   272
1070
     4
1070
   279
1070
     0
1070
   284
1070
     0
1070
   285
1070
     0
1070
   286
1070
     0
1070
   341
1005
83EC
1070
   343
1005
83EC
1070
   344
1005
83EC
1002
}
  0
DIMENSION
  5
84D1
330
83D9
100
AcDbEntity
  8
3
100
AcDbDimension
  2
*D33
 10
3037.918424500425
 20
6116.676946236006
 30
0.0
 11
2962.918424500424
 21
5429.176946236007
 31
0.0
 70
    32
 71
     5
 42
1375.0
  3
IGA
100
AcDbAlignedDimension
 13
2737.49420233401
 23
4741.676946236006
 33
0.0
 14
2737.49420233401
 24
6116.676946236006
 34
0.0
 50
90.0
100
AcDbRotatedDimension
1001
ACAD
1000
DSTYLE
1002
{
1070
    40
1040
30.0
1070
    42
1040
1.0
1070
   143
1040
0.039
1070
   172
1070
     1
1070
   271
1070
     4
1070
   272
1070
     4
1070
   279
1070
     0
1070
   284
1070
     0
1070
   285
1070
     0
1070
   286
1070
     0
1070
   341
1005
83EC
1070
   343
1005
83EC
1070
   344
1005
83EC
1002
}
  0
DIMENSION
  5
84DE
330
83D9
100
AcDbEntity
  8
3
100
AcDbDimension
  2
*D34
 10
1617.49420233401
 20
6418.691604741228
 30
0.0
 11
2177.494202334009
 21
6493.691604741228
 31
0.0
 70
    32
 71
     5
 42
1119.999999999998
  3
IGA
100
AcDbAlignedDimension
 13
2737.494202334008
 23
6116.676946236006
 33
0.0
 14
1617.49420233401
 24
6116.676946236007
 34
0.0
100
AcDbRotatedDimension
1001
ACAD
1000
DSTYLE
1002
{
1070
    40
1040
30.0
1070
    42
1040
1.0
1070
   143
1040
0.039
1070
   172
1070
     1
1070
   271
1070
     4
1070
   272
1070
     4
1070
   279
1070
     0
1070
   284
1070
     0
1070
   285
1070
     0
1070
   286
1070
     0
1070
   341
1005
83EC
1070
   343
1005
83EC
1070
   344
1005
83EC
1002
}
  0
DIMENSION
  5
84EB
330
83D9
100
AcDbEntity
  8
3
100
AcDbDimension
  2
*D35
 10
867.4942023340097
 20
6418.691604741228
 30
0.0
 11
1242.49420233401
 21
6493.691604741228
 31
0.0
 70
    32
 71
     5
 42
750.0000000000002
  3
IGA
100
AcDbAlignedDimension
 13
1617.49420233401
 23
6116.676946236007
 33
0.0
 14
867.4942023340097
 24
5541.676946236006
 34
0.0
100
AcDbRotatedDimension
1001
ACAD
1000
DSTYLE
1002
{
1070
    40
1040
30.0
1070
    42
1040
1.0
1070
   143
1040
0.039
1070
   172
1070
     1
1070
   271
1070
     4
1070
   272
1070
     4
1070
   279
1070
     1
1070
   284
1070
     0
1070
   285
1070
     0
1070
   286
1070
     0
1070
   341
1005
83EC
1070
   343
1005
83EC
1070
   344
1005
83EC
1002
}
  0
DIMENSION
  5
84F8
330
83D9
100
AcDbEntity
  8
3
100
AcDbDimension
  2
*D36
 10
2141.494202334008
 20
3841.593130659299
 30
0.0
 11
1678.994202334008
 21
3916.593130659299
 31
0.0
 70
    32
 71
     5
 42
924.9999999999998
  3
IGA
100
AcDbAlignedDimension
 13
1216.494202334008
 23
3691.978022216089
 33
0.0
 14
2141.494202334008
 24
3691.978022216089
 34
0.0
100
AcDbRotatedDimension
1001
ACAD
1000
DSTYLE
1002
{
1070
    40
1040
30.0
1070
    42
1040
1.0
1070
   143
1040
0.039
1070
   172
1070
     1
1070
   271
1070
     4
1070
   272
1070
     4
1070
   279
1070
     0
1070
   284
1070
     0
1070
   285
1070
     0
1070
   286
1070
     0
1070
   341
1005
83EC
1070
   343
1005
83EC
1070
   344
1005
83EC
1002
}
  0
DIMENSION
  5
8505
330
83D9
100
AcDbEntity
  8
3
100
AcDbDimension
  2
*D37
 10
2177.494202334008
 20
3991.936430757161
 30
0.0
 11
1696.994202334008
 21
4066.936430757161
 31
0.0
 70
    32
 71
     5
 42
960.9999999999997
  3
IGA
100
AcDbAlignedDimension
 13
1216.494202334008
 23
3691.978022216089
 33
0.0
 14
2177.494202334008
 24
3714.062890704765
 34
0.0
100
AcDbRotatedDimension
1001
ACAD
1000
DSTYLE
1002
{
1070
    40
1040
30.0
1070
    42
1040
1.0
1070
   143
1040
0.039
1070
   172
1070
     1
1070
   271
1070
     4
1070
   272
1070
     4
1070
   279
1070
     0
1070
   284
1070
     0
1070
   285
1070
     0
1070
   286
1070
     0
1070
   341
1005
83EC
1070
   343
1005
83EC
1070
   344
1005
83EC
1002
}
  0
DIMENSION
  5
8512
330
83D9
100
AcDbEntity
  8
3
100
AcDbDimension
  2
*D38
 10
2820.494202334008
 20
3991.936430757161
 30
0.0
 11
2498.994202334008
 21
4066.936430757161
 31
0.0
 70
    32
 71
     5
 42
643.0
  3
IGA
100
AcDbAlignedDimension
 13
2177.494202334008
 23
3714.062890704765
 33
0.0
 14
2820.494202334008
 24
3004.978022216088
 34
0.0
100
AcDbRotatedDimension
1001
ACAD
1000
DSTYLE
1002
{
1070
    40
1040
30.0
1070
    42
1040
1.0
1070
   143
1040
0.039
1070
   172
1070
     1
1070
   271
1070
     4
1070
   272
1070
     4
1070
   279
1070
     1
1070
   284
1070
     0
1070
   285
1070
     0
1070
   286
1070
     0
1070
   341
1005
83EC
1070
   343
1005
83EC
1070
   344
1005
83EC
1002
}
  0
DIMENSION
  5
851F
330
83D9
100
AcDbEntity
  8
3
100
AcDbDimension
  2
*D39
 10
3045.431187629271
 20
3071.978022216089
 30
0.0
 11
2970.431187629271
 21
3381.978022216089
 31
0.0
 70
    32
 71
     5
 42
620.0
  3
IGA
100
AcDbAlignedDimension
 13
2183.994202334008
 23
3691.978022216089
 33
0.0
 14
2833.749541112554
 24
3071.978022216089
 34
0.0
 50
90.0
100
AcDbRotatedDimension
1001
ACAD
1000
DSTYLE
1002
{
1070
    40
1040
30.0
1070
    42
1040
1.0
1070
   143
1040
0.039
1070
   172
1070
     1
1070
   271
1070
     4
1070
   272
1070
     4
1070
   279
1070
     0
1070
   284
1070
     0
1070
   285
1070
     0
1070
   286
1070
     0
1070
   341
1005
83EC
1070
   343
1005
83EC
1070
   344
1005
83EC
1002
}
  0
DIMENSION
  5
852C
330
83D9
100
AcDbEntity
  8
3
100
AcDbDimension
  2
*D40
 10
3045.431187629271
 20
2251.978022216087
 30
0.0
 11
2970.431187629271
 21
2661.978022216088
 31
0.0
 70
    32
 71
     5
 42
820.0000000000013
  3
IGA
100
AcDbAlignedDimension
 13
2833.749541112554
 23
3071.978022216089
 33
0.0
 14
2737.49420233401
 24
2251.978022216087
 34
0.0
 50
90.0
100
AcDbRotatedDimension
1001
ACAD
1000
DSTYLE
1002
{
1070
    40
1040
30.0
1070
    42
1040
1.0
1070
   143
1040
0.039
1070
   172
1070
     1
1070
   271
1070
     4
1070
   272
1070
     4
1070
   279
1070
     1
1070
   284
1070
     0
1070
   285
1070
     0
1070
   286
1070
     0
1070
   341
1005
83EC
1070
   343
1005
83EC
1070
   344
1005
83EC
1002
}
  0
ENDSEC
  0
SECTION
  2
OBJECTS
  0
DICTIONARY
  5
8376
330
0
100
AcDbDictionary
281
     1
  3
ACAD_CIP_PREVIOUS_PRODUCT_INFO
350
841E
  3
ACAD_COLOR
350
83CC
  3
ACAD_DETAILVIEWSTYLE
350
83D3
  3
ACAD_GROUP
350
8377
  3
ACAD_LAYOUT
350
83CB
  3
ACAD_MATERIAL
350
837A
  3
ACAD_MLEADERSTYLE
350
83CF
  3
ACAD_MLINESTYLE
350
83C8
  3
ACAD_PLOTSETTINGS
350
83CA
  3
ACAD_PLOTSTYLENAME
350
8378
  3
ACAD_SCALELIST
350
83AC
  3
ACAD_SECTIONVIEWSTYLE
350
83D1
  3
ACAD_TABLESTYLE
350
83CD
  3
ACAD_VISUALSTYLE
350
8393
  3
ACDB_RECOMPOSE_DATA
350
8550
  3
AcDbVariableDictionary
350
8543
  3
DWGPROPS
350
8551
  0
DICTIONARY
  5
8539
330
83BE
100
AcDbDictionary
280
     1
281
     1
  3
ADSK_XREC_LAYER_RECONCILED
360
853A
  0
DICTIONARY
  5
853B
330
83DD
100
AcDbDictionary
280
     1
281
     1
  3
ADSK_XREC_LAYER_RECONCILED
360
853C
  0
DICTIONARY
  5
853D
330
83E0
100
AcDbDictionary
280
     1
281
     1
  3
ADSK_XREC_LAYER_RECONCILED
360
853E
  0
DICTIONARY
  5
853F
330
83E1
100
AcDbDictionary
280
     1
281
     1
  3
ADSK_XREC_LAYER_RECONCILED
360
8540
  0
DICTIONARY
  5
8541
330
83E2
100
AcDbDictionary
280
     1
281
     1
  3
ADSK_XREC_LAYER_RECONCILED
360
8542
  0
DICTIONARY
  5
8483
330
83D9
100
AcDbDictionary
280
     1
281
     1
  3
ACAD_SORTENTS
360
8484
  0
XRECORD
  5
841E
102
{ACAD_REACTORS
330
8376
102
}
330
8376
100
AcDbXrecord
280
     1
300
ACDLT
300
2015
300
INVLTS_F_S
  0
DICTIONARY
  5
83CC
102
{ACAD_REACTORS
330
8376
102
}
330
8376
100
AcDbDictionary
281
     1
  0
DICTIONARY
  5
83D3
102
{ACAD_REACTORS
330
8376
102
}
330
8376
100
AcDbDictionary
281
     1
  3
Imperial24
350
83D4
  0
DICTIONARY
  5
8377
102
{ACAD_REACTORS
330
8376
102
}
330
8376
100
AcDbDictionary
281
     1
  0
DICTIONARY
  5
83CB
102
{ACAD_REACTORS
330
8376
102
}
330
8376
100
AcDbDictionary
281
     1
  3
Model
350
83DC
  3
レイアウト1
350
83D8
  0
DICTIONARY
  5
837A
102
{ACAD_REACTORS
330
8376
102
}
330
8376
100
AcDbDictionary
281
     1
  3
ByBlock
350
8383
  3
ByLayer
350
837B
  3
Global
350
838B
  0
DICTIONARY
  5
83CF
102
{ACAD_REACTORS
330
8376
102
}
330
8376
100
AcDbDictionary
281
     1
  3
Standard
350
83D0
  0
DICTIONARY
  5
83C8
102
{ACAD_REACTORS
330
8376
102
}
330
8376
100
AcDbDictionary
281
     1
  3
Standard
350
83C9
  0
DICTIONARY
  5
83CA
102
{ACAD_REACTORS
330
8376
102
}
330
8376
100
AcDbDictionary
281
     1
  0
ACDBDICTIONARYWDFLT
  5
8378
102
{ACAD_REACTORS
330
8376
102
}
330
8376
100
AcDbDictionary
281
     1
  3
Normal
350
8379
100
AcDbDictionaryWithDefault
340
8379
  0
DICTIONARY
  5
83AC
102
{ACAD_REACTORS
330
8376
102
}
330
8376
100
AcDbDictionary
281
     1
  3
A0
350
83AD
  3
A1
350
83AE
  3
A2
350
83AF
  3
A3
350
83B0
  3
A4
350
83B1
  3
A5
350
83B2
  3
A6
350
83B3
  3
A7
350
83B4
  3
A8
350
83B5
  3
A9
350
83B6
  3
B0
350
83B7
  3
B1
350
83B8
  3
B2
350
83B9
  3
B3
350
83BA
  3
B4
350
83BB
  3
B5
350
83BC
  3
B6
350
83BD
  0
DICTIONARY
  5
83D1
102
{ACAD_REACTORS
330
8376
102
}
330
8376
100
AcDbDictionary
281
     1
  3
Imperial24
350
83D2
  0
DICTIONARY
  5
83CD
102
{ACAD_REACTORS
330
8376
102
}
330
8376
100
AcDbDictionary
281
     1
  3
Standard
350
83CE
  0
DICTIONARY
  5
8393
102
{ACAD_REACTORS
330
8376
102
}
330
8376
100
AcDbDictionary
281
     1
  3
2dWireframe
350
8399
  3
Basic
350
8398
  3
Brighten
350
839F
  3
ColorChange
350
83A3
  3
Conceptual
350
839C
  3
Dim
350
839E
  3
EdgeColorOff
350
83AB
  3
Facepattern
350
83A2
  3
Flat
350
8394
  3
FlatWithEdges
350
8395
  3
Gouraud
350
8396
  3
GouraudWithEdges
350
8397
  3
Hidden
350
839B
  3
JitterOff
350
83A9
  3
Linepattern
350
83A1
  3
OverhangOff
350
83AA
  3
Realistic
350
839D
  3
Shaded
350
83A8
  3
Shaded with edges
350
83A7
  3
Shades of Gray
350
83A4
  3
Sketchy
350
83A5
  3
Thicken
350
83A0
  3
Wireframe
350
839A
  3
X-Ray
350
83A6
  0
XRECORD
  5
8550
102
{ACAD_REACTORS
330
8376
102
}
330
8376
100
AcDbXrecord
280
     1
 90
        1
330
83CE
  0
DICTIONARY
  5
8543
102
{ACAD_REACTORS
330
8376
102
}
330
8376
100
AcDbDictionary
281
     1
  3
CANNOSCALE
350
8548
  3
CMLEADERSTYLE
350
8545
  3
CTABLESTYLE
350
8544
  3
CVIEWDETAILSTYLE
350
8546
  3
CVIEWSECTIONSTYLE
350
8547
  3
DIMASSOC
350
854B
  3
INDEXCTL
350
854A
  3
SORTENTS
350
8549
  3
XCLIPFRAME
350
854C
  0
XRECORD
  5
8551
102
{ACAD_REACTORS
330
8376
102
}
330
8376
100
AcDbXrecord
280
     1
  1
DWGPROPS COOKIE
  2

  3

  4

  6

  7

  8
yasukiyo.ogawa
  9

300
=
301
=
302
=
303
=
304
=
305
=
306
=
307
=
308
=
309
=
 40
0.0161348958333333
 41
2451389.482040394
 42
2460269.594472546
  1

 90
        0
  0
XRECORD
  5
853A
102
{ACAD_REACTORS
330
8539
102
}
330
8539
100
AcDbXrecord
280
     1
290
     1
  0
XRECORD
  5
853C
102
{ACAD_REACTORS
330
853B
102
}
330
853B
100
AcDbXrecord
280
     1
290
     1
  0
XRECORD
  5
853E
102
{ACAD_REACTORS
330
853D
102
}
330
853D
100
AcDbXrecord
280
     1
290
     1
  0
XRECORD
  5
8540
102
{ACAD_REACTORS
330
853F
102
}
330
853F
100
AcDbXrecord
280
     1
290
     1
  0
XRECORD
  5
8542
102
{ACAD_REACTORS
330
8541
102
}
330
8541
100
AcDbXrecord
280
     1
290
     1
  0
SORTENTSTABLE
  5
8484
102
{ACAD_REACTORS
330
8483
102
}
330
8483
100
AcDbSortentsTable
330
83D9
331
81D2
  5
8422
331
7F38
  5
7F3A
331
7CA8
  5
7CAA
331
7C57
  5
7C60
331
7C46
  5
7C4A
331
7D0E
  5
7F23
331
7CEC
  5
7CEE
331
7CDB
  5
7CDD
331
7C92
  5
7C94
331
7C81
  5
7C83
331
7C35
  5
7C35
331
7C24
  5
7C24
331
8422
  5
843C
331
7F39
  5
7F3B
331
7F28
  5
7F2A
331
7CA9
  5
7CAB
331
7C47
  5
7C4C
331
7D0F
  5
7F24
331
7CED
  5
7CEF
331
7CDC
  5
7CDE
331
7C93
  5
7C95
331
7C82
  5
7C84
331
7C36
  5
7C36
331
7C25
  5
7C25
331
7F3A
  5
7F3C
331
7F29
  5
7F2B
331
7CAA
  5
7CAC
331
7C72
  5
7C74
331
7CEE
  5
7CF0
331
7CDD
  5
7CDF
331
7C94
  5
7C96
331
7C83
  5
7C85
331
7C37
  5
7C37
331
7C26
  5
7C26
331
81C3
  5
81DF
331
7F2A
  5
7F2C
331
7F3B
  5
7F3D
331
7CAB
  5
7CAD
331
7C73
  5
7C75
331
7CBC
  5
7CBE
331
7CEF
  5
7CF1
331
7CDE
  5
7CE0
331
7C95
  5
7C97
331
7C38
  5
7C38
331
7C27
  5
7C27
331
7F3C
  5
7F3E
331
7F2B
  5
7F2D
331
7CF0
  5
7CF2
331
7CAC
  5
7CAE
331
7C74
  5
7C76
331
7C4A
  5
7C4D
331
7CBD
  5
7CBF
331
7CDF
  5
7CE1
331
7CCE
  5
7CD0
331
7C96
  5
7C98
331
7C39
  5
7C39
331
7C28
  5
7C28
331
7F3D
  5
7F3F
331
7F2C
  5
7F2F
331
7F23
  5
7F25
331
7CF1
  5
7CF3
331
7CE0
  5
7CE2
331
7CAD
  5
7CB0
331
7C75
  5
7C77
331
7C5C
  5
7C61
331
7CBE
  5
7CC0
331
7C86
  5
7C88
331
7CCF
  5
7CD1
331
7C97
  5
7C99
331
7C3A
  5
7C3A
331
7C29
  5
7C29
331
7F3E
  5
7F40
331
7F2D
  5
7F30
331
7F24
  5
7F28
331
7D03
  5
7D06
331
7CF2
  5
7CF4
331
7CE1
  5
7CE3
331
7CD0
  5
7CD2
331
7C98
  5
7C9A
331
7CAE
  5
7CB1
331
7C76
  5
7C78
331
7C4C
  5
7C54
331
7CBF
  5
7CC1
331
7C87
  5
7C89
331
7C3B
  5
7C3B
331
7C2A
  5
7C2A
331
7CC0
  5
7CC2
331
7C88
  5
7C8A
331
81B6
  5
81D2
331
7F25
  5
7F29
331
7CF3
  5
7CF5
331
7CE2
  5
7CE4
331
7CD1
  5
7CD3
331
7C99
  5
7C9B
331
7F3F
  5
7F41
331
7C77
  5
7C7A
331
7C4D
  5
7C56
331
7C3C
  5
7C3F
331
7C2B
  5
7C2B
331
7CB0
  5
7CB2
331
7C78
  5
7C7B
331
7CC1
  5
7CC3
331
7C89
  5
7C8B
331
7F40
  5
819C
331
7F2F
  5
7F31
331
7D05
  5
7D07
331
7CF4
  5
7CF6
331
7CE3
  5
7CE5
331
7CD2
  5
7CD4
331
7C9A
  5
7C9C
331
7C3D
  5
7C41
331
7C2C
  5
7C2C
331
7CB1
  5
7CB6
331
7CA0
  5
7CA2
331
7C60
  5
7C63
331
7CC2
  5
7CC4
331
7C8A
  5
7C8C
331
7F41
  5
81A9
331
7F30
  5
7F32
331
7D06
  5
7D08
331
7CF5
  5
7CF7
331
7CE4
  5
7CE6
331
7CD3
  5
7CD5
331
7C9B
  5
7C9D
331
7C2D
  5
7C2D
331
7CA1
  5
7CA3
331
7C61
  5
7C65
331
7CB2
  5
7CB7
331
7C7A
  5
7C7C
331
7CC3
  5
7CC5
331
7C8B
  5
7C8D
331
843C
  5
8485
331
7F31
  5
7F33
331
7D07
  5
7D09
331
7CF6
  5
7CF8
331
7CE5
  5
7CE7
331
7CD4
  5
7CD6
331
7C9C
  5
7C9E
331
7C3F
  5
7C43
331
7C2E
  5
7C2E
331
7CA2
  5
7CA4
331
7CC4
  5
7CC6
331
7C8C
  5
7C8E
331
7C7B
  5
7C7D
331
81A9
  5
81C3
331
7D08
  5
7D0A
331
7CF7
  5
7CF9
331
7CE6
  5
7CE8
331
7C9D
  5
7C9F
331
7F32
  5
7F34
331
7C2F
  5
7C2F
331
7CA3
  5
7CA5
331
7C63
  5
7C66
331
7C41
  5
7C44
331
7CC5
  5
7CC7
331
7C8D
  5
7C8F
331
7C7C
  5
7C80
331
7F33
  5
7F35
331
7D09
  5
7D0B
331
7CF8
  5
7D00
331
7CE7
  5
7CE9
331
7C9E
  5
7CA0
331
7C30
  5
7C30
331
7CA4
  5
7CA6
331
7CC6
  5
7CC8
331
7C8E
  5
7C90
331
7C7D
  5
7C81
331
81DF
  5
842F
331
7F34
  5
7F36
331
7CF9
  5
7D01
331
7CE8
  5
7CEA
331
7C9F
  5
7CA1
331
7C31
  5
7C31
331
7CB6
  5
7CB8
331
7CA5
  5
7CA7
331
7C65
  5
7C67
331
7C54
  5
7C57
331
7C43
  5
7C46
331
842F
  5
8482
331
7F35
  5
7F37
331
7D0B
  5
7D0D
331
7CE9
  5
7CEB
331
7CC7
  5
7CC9
331
7C8F
  5
7C91
331
7C32
  5
7C32
331
7C21
  5
7C21
331
7CB7
  5
7CBC
331
7CA6
  5
7CA8
331
7C66
  5
7C72
331
7C44
  5
7C47
331
819C
  5
81B6
331
7CEA
  5
7CEC
331
7CD9
  5
7CDB
331
7CC8
  5
7CCE
331
7C90
  5
7C92
331
7F36
  5
7F38
331
7D0C
  5
7D0E
331
7C33
  5
7C33
331
7CA7
  5
7CA9
331
7C67
  5
7C73
331
7C56
  5
7C5C
331
7CB8
  5
7CBD
331
7C80
  5
7C82
331
7F37
  5
7F39
331
7D0D
  5
7D0F
331
7CEB
  5
7CED
331
7CC9
  5
7CCF
331
7C91
  5
7C93
331
7C34
  5
7C34
331
7C23
  5
7C23
  0
ACDBDETAILVIEWSTYLE
  5
83D4
102
{ACAD_XDICTIONARY
360
8589
102
}
102
{ACAD_REACTORS
330
83D3
102
}
330
83D3
100
AcDbModelDocViewStyle
 70
     0
  3
Imperial24
290
     0
100
AcDbDetailViewStyle
 70
     0
 71
     0
 90
        3
 71
     1
340
83BF
 40
0.24
340
0
 40
0.24
300

 40
0.36
280
     3
 71
     2
340
83C6
 90
       25
 71
     3
340
83BF
 40
0.24
 90
        1
 40
0.75
 90
        1
300
%<\AcVar ViewType \f "%tc1">% %<\AcVar ViewDetailId>%\PSCALE %<\AcVar ViewScale \f "%sn">%
 71
     4
340
83C6
 90
       25
340
83C6
 90
       25
280
     0
  0
LAYOUT
  5
83DC
102
{ACAD_XDICTIONARY
360
858D
102
}
102
{ACAD_REACTORS
330
83CB
102
}
330
83CB
100
AcDbPlotSettings
  1

  2
RICOH imagio MP W3600 RPCS
  4

  6

 40
0.0
 41
0.0
 42
0.0
 43
0.0
 44
0.0
 45
0.0
 46
0.0
 47
0.0
 48
0.0
 49
0.0
140
0.0
141
0.0
142
1.0
143
1.0
 70
  1712
 72
     0
 73
     0
 74
     0
  7

 75
     0
147
1.0
148
0.0
149
0.0
100
AcDbLayout
  1
Model
 70
     1
 71
     0
 10
0.0
 20
0.0
 11
12.0
 21
9.0
 12
0.0
 22
0.0
 32
0.0
 14
0.0
 24
0.0
 34
0.0
 15
0.0
 25
0.0
 35
0.0
146
0.0
 13
0.0
 23
0.0
 33
0.0
 16
1.0
 26
0.0
 36
0.0
 17
0.0
 27
1.0
 37
0.0
 76
     0
330
83D9
331
83DE
  0
LAYOUT
  5
83D8
102
{ACAD_XDICTIONARY
360
858B
102
}
102
{ACAD_REACTORS
330
83CB
102
}
330
83CB
100
AcDbPlotSettings
  1

  2
RICOH imagio MP W3600 RPCS
  4

  6

 40
0.0
 41
0.0
 42
0.0
 43
0.0
 44
0.0
 45
0.0
 46
0.0
 47
0.0
 48
0.0
 49
0.0
140
0.0
141
0.0
142
1.0
143
1.0
 70
   688
 72
     0
 73
     0
 74
     5
  7

 75
    16
147
1.0
148
0.0
149
0.0
100
AcDbLayout
  1
レイアウト1
 70
     1
 71
     1
 10
0.0
 20
0.0
 11
12.0
 21
9.0
 12
0.0
 22
0.0
 32
0.0
 14
1.000000000000000E+20
 24
1.000000000000000E+20
 34
1.000000000000000E+20
 15
-1.000000000000000E+20
 25
-1.000000000000000E+20
 35
-1.000000000000000E+20
146
0.0
 13
0.0
 23
0.0
 33
0.0
 16
1.0
 26
0.0
 36
0.0
 17
0.0
 27
1.0
 37
0.0
 76
     0
330
83D5
  0
MATERIAL
  5
8383
102
{ACAD_XDICTIONARY
360
8384
102
}
102
{ACAD_REACTORS
330
837A
102
}
330
837A
100
AcDbMaterial
  1
ByBlock
 72
     0
 43
0.0208333333333333
 43
0.0
 43
0.0
 43
0.0
 43
0.0
 43
0.0208333333333333
 43
0.0
 43
0.0
 43
0.0
 43
0.0
 43
1.0
 43
0.0
 43
0.0
 43
0.0
 43
0.0
 43
1.0
 77
     0
 47
0.0208333333333333
 47
0.0
 47
0.0
 47
0.0
 47
0.0
 47
0.0208333333333333
 47
0.0
 47
0.0
 47
0.0
 47
0.0
 47
1.0
 47
0.0
 47
0.0
 47
0.0
 47
0.0
 47
1.0
171
     0
 49
0.0208333333333333
 49
0.0
 49
0.0
 49
0.0
 49
0.0
 49
0.0208333333333333
 49
0.0
 49
0.0
 49
0.0
 49
0.0
 49
1.0
 49
0.0
 49
0.0
 49
0.0
 49
0.0
 49
1.0
175
     0
142
0.0208333333333333
142
0.0
142
0.0
142
0.0
142
0.0
142
0.0208333333333333
142
0.0
142
0.0
142
0.0
142
0.0
142
1.0
142
0.0
142
0.0
142
0.0
142
0.0
142
1.0
179
     0
144
0.0208333333333333
144
0.0
144
0.0
144
0.0
144
0.0
144
0.0208333333333333
144
0.0
144
0.0
144
0.0
144
0.0
144
1.0
144
0.0
144
0.0
144
0.0
144
0.0
144
1.0
147
0.0208333333333333
147
0.0
147
0.0
147
0.0
147
0.0
147
0.0208333333333333
147
0.0
147
0.0
147
0.0
147
0.0
147
1.0
147
0.0
147
0.0
147
0.0
147
0.0
147
1.0
  0
MATERIAL
  5
837B
102
{ACAD_XDICTIONARY
360
837C
102
}
102
{ACAD_REACTORS
330
837A
102
}
330
837A
100
AcDbMaterial
  1
ByLayer
 72
     0
 43
0.0208333333333333
 43
0.0
 43
0.0
 43
0.0
 43
0.0
 43
0.0208333333333333
 43
0.0
 43
0.0
 43
0.0
 43
0.0
 43
1.0
 43
0.0
 43
0.0
 43
0.0
 43
0.0
 43
1.0
 77
     0
 47
0.0208333333333333
 47
0.0
 47
0.0
 47
0.0
 47
0.0
 47
0.0208333333333333
 47
0.0
 47
0.0
 47
0.0
 47
0.0
 47
1.0
 47
0.0
 47
0.0
 47
0.0
 47
0.0
 47
1.0
171
     0
 49
0.0208333333333333
 49
0.0
 49
0.0
 49
0.0
 49
0.0
 49
0.0208333333333333
 49
0.0
 49
0.0
 49
0.0
 49
0.0
 49
1.0
 49
0.0
 49
0.0
 49
0.0
 49
0.0
 49
1.0
175
     0
142
0.0208333333333333
142
0.0
142
0.0
142
0.0
142
0.0
142
0.0208333333333333
142
0.0
142
0.0
142
0.0
142
0.0
142
1.0
142
0.0
142
0.0
142
0.0
142
0.0
142
1.0
179
     0
144
0.0208333333333333
144
0.0
144
0.0
144
0.0
144
0.0
144
0.0208333333333333
144
0.0
144
0.0
144
0.0
144
0.0
144
1.0
144
0.0
144
0.0
144
0.0
144
0.0
144
1.0
147
0.0208333333333333
147
0.0
147
0.0
147
0.0
147
0.0
147
0.0208333333333333
147
0.0
147
0.0
147
0.0
147
0.0
147
1.0
147
0.0
147
0.0
147
0.0
147
0.0
147
1.0
  0
MATERIAL
  5
838B
102
{ACAD_XDICTIONARY
360
838C
102
}
102
{ACAD_REACTORS
330
837A
102
}
330
837A
100
AcDbMaterial
  1
Global
 72
     0
 43
0.0208333333333333
 43
0.0
 43
0.0
 43
0.0
 43
0.0
 43
0.0208333333333333
 43
0.0
 43
0.0
 43
0.0
 43
0.0
 43
1.0
 43
0.0
 43
0.0
 43
0.0
 43
0.0
 43
1.0
 77
     0
 47
0.0208333333333333
 47
0.0
 47
0.0
 47
0.0
 47
0.0
 47
0.0208333333333333
 47
0.0
 47
0.0
 47
0.0
 47
0.0
 47
1.0
 47
0.0
 47
0.0
 47
0.0
 47
0.0
 47
1.0
171
     0
 49
0.0208333333333333
 49
0.0
 49
0.0
 49
0.0
 49
0.0
 49
0.0208333333333333
 49
0.0
 49
0.0
 49
0.0
 49
0.0
 49
1.0
 49
0.0
 49
0.0
 49
0.0
 49
0.0
 49
1.0
175
     0
142
0.0208333333333333
142
0.0
142
0.0
142
0.0
142
0.0
142
0.0208333333333333
142
0.0
142
0.0
142
0.0
142
0.0
142
1.0
142
0.0
142
0.0
142
0.0
142
0.0
142
1.0
179
     0
144
0.0208333333333333
144
0.0
144
0.0
144
0.0
144
0.0
144
0.0208333333333333
144
0.0
144
0.0
144
0.0
144
0.0
144
1.0
144
0.0
144
0.0
144
0.0
144
0.0
144
1.0
147
0.0208333333333333
147
0.0
147
0.0
147
0.0
147
0.0
147
0.0208333333333333
147
0.0
147
0.0
147
0.0
147
0.0
147
1.0
147
0.0
147
0.0
147
0.0
147
0.0
147
1.0
  0
MLEADERSTYLE
  5
83D0
102
{ACAD_REACTORS
330
83CF
102
}
330
83CF
100
AcDbMLeaderStyle
170
     2
171
     1
172
     0
 90
        2
 40
0.0
 41
0.0
173
     1
 91
-1056964608
340
83C4
 92
       -2
290
     1
 42
0.09
291
     1
 43
0.36
  3
Standard
 44
0.18
300

342
83BF
174
     1
178
     6
175
     1
176
     0
 93
-1056964608
 45
0.18
292
     0
297
     0
 46
0.18
 94
-1056964608
 47
1.0
 49
1.0
140
1.0
293
     1
141
0.0
294
     1
177
     0
142
1.0
295
     0
296
     0
143
0.125
1001
ACAD_MLEADERVER
1070
     2
  0
MLINESTYLE
  5
83C9
102
{ACAD_REACTORS
330
83C8
102
}
330
83C8
100
AcDbMlineStyle
  2
STANDARD
 70
     0
  3

 62
   256
 51
90.0
 52
90.0
 71
     2
 49
0.5
 62
   256
  6
BYLAYER
 49
-0.5
 62
   256
  6
BYLAYER
  0
ACDBPLACEHOLDER
  5
8379
102
{ACAD_REACTORS
330
8378
102
}
330
8378
  0
SCALE
  5
83AD
102
{ACAD_REACTORS
330
83AC
102
}
330
83AC
100
AcDbScale
 70
     0
300
1:1
140
1.0
141
1.0
290
     1
  0
SCALE
  5
83AE
102
{ACAD_REACTORS
330
83AC
102
}
330
83AC
100
AcDbScale
 70
     0
300
1/128" = 1'-0"
140
0.0078125
141
12.0
290
     0
  0
SCALE
  5
83AF
102
{ACAD_REACTORS
330
83AC
102
}
330
83AC
100
AcDbScale
 70
     0
300
1/64" = 1'-0"
140
0.015625
141
12.0
290
     0
  0
SCALE
  5
83B0
102
{ACAD_REACTORS
330
83AC
102
}
330
83AC
100
AcDbScale
 70
     0
300
1/32" = 1'-0"
140
0.03125
141
12.0
290
     0
  0
SCALE
  5
83B1
102
{ACAD_REACTORS
330
83AC
102
}
330
83AC
100
AcDbScale
 70
     0
300
1/16" = 1'-0"
140
0.0625
141
12.0
290
     0
  0
SCALE
  5
83B2
102
{ACAD_REACTORS
330
83AC
102
}
330
83AC
100
AcDbScale
 70
     0
300
3/32" = 1'-0"
140
0.09375
141
12.0
290
     0
  0
SCALE
  5
83B3
102
{ACAD_REACTORS
330
83AC
102
}
330
83AC
100
AcDbScale
 70
     0
300
1/8" = 1'-0"
140
0.125
141
12.0
290
     0
  0
SCALE
  5
83B4
102
{ACAD_REACTORS
330
83AC
102
}
330
83AC
100
AcDbScale
 70
     0
300
3/16" = 1'-0"
140
0.1875
141
12.0
290
     0
  0
SCALE
  5
83B5
102
{ACAD_REACTORS
330
83AC
102
}
330
83AC
100
AcDbScale
 70
     0
300
1/4" = 1'-0"
140
0.25
141
12.0
290
     0
  0
SCALE
  5
83B6
102
{ACAD_REACTORS
330
83AC
102
}
330
83AC
100
AcDbScale
 70
     0
300
3/8" = 1'-0"
140
0.375
141
12.0
290
     0
  0
SCALE
  5
83B7
102
{ACAD_REACTORS
330
83AC
102
}
330
83AC
100
AcDbScale
 70
     0
300
1/2" = 1'-0"
140
0.5
141
12.0
290
     0
  0
SCALE
  5
83B8
102
{ACAD_REACTORS
330
83AC
102
}
330
83AC
100
AcDbScale
 70
     0
300
3/4" = 1'-0"
140
0.75
141
12.0
290
     0
  0
SCALE
  5
83B9
102
{ACAD_REACTORS
330
83AC
102
}
330
83AC
100
AcDbScale
 70
     0
300
1" = 1'-0"
140
1.0
141
12.0
290
     0
  0
SCALE
  5
83BA
102
{ACAD_REACTORS
330
83AC
102
}
330
83AC
100
AcDbScale
 70
     0
300
1-1/2" = 1'-0"
140
1.5
141
12.0
290
     0
  0
SCALE
  5
83BB
102
{ACAD_REACTORS
330
83AC
102
}
330
83AC
100
AcDbScale
 70
     0
300
3" = 1'-0"
140
3.0
141
12.0
290
     0
  0
SCALE
  5
83BC
102
{ACAD_REACTORS
330
83AC
102
}
330
83AC
100
AcDbScale
 70
     0
300
6" = 1'-0"
140
6.0
141
12.0
290
     0
  0
SCALE
  5
83BD
102
{ACAD_REACTORS
330
83AC
102
}
330
83AC
100
AcDbScale
 70
     0
300
1'-0" = 1'-0"
140
12.0
141
12.0
290
     0
  0
ACDBSECTIONVIEWSTYLE
  5
83D2
102
{ACAD_XDICTIONARY
360
8587
102
}
102
{ACAD_REACTORS
330
83D1
102
}
330
83D1
100
AcDbModelDocViewStyle
 70
     0
  3
Imperial24
290
     0
100
AcDbSectionViewStyle
 70
     0
 71
     0
 90
       78
 71
     1
340
83BF
 40
0.24
340
0
340
0
 40
0.24
300
I, O, Q, S, X, Z
 40
0.48
 90
        3
 40
0.18
 90
        1
 71
     2
340
83C6
 90
       25
340
83C6
 90
       50
 40
0.24
 40
0.0
 40
0.24
 71
     3
340
83BF
 40
0.24
 90
        1
 40
0.75
 90
        1
300
%<\AcVar ViewType \f "%tc1">% %<\AcVar ViewSectionStartId>%-%<\AcVar ViewSectionEndId>%\PSCALE %<\AcVar ViewScale \f "%sn">%
 71
     4
300
ANSI31
 40
1.0
 90
        0
290
     0
290
     0
 90
        6
 40
0.0
 40
1.570796326794896
 40
0.2617993877991494
 40
1.308996938995747
 40
-0.2617993877991494
 40
1.832595714594046
  0
TABLESTYLE
  5
83CE
102
{ACAD_XDICTIONARY
360
854E
102
}
102
{ACAD_REACTORS
330
83CD
102
}
330
83CD
100
AcDbTableStyle
  3
Standard
 70
     0
 71
     0
 40
0.06
 41
0.06
280
     0
281
     0
  7
STANDARD
140
0.18
170
     2
 62
     0
 63
     7
283
     0
274
    -2
284
     1
 64
     0
275
    -2
285
     1
 65
     0
276
    -2
286
     1
 66
     0
277
    -2
287
     1
 67
     0
278
    -2
288
     1
 68
     0
279
    -2
289
     1
 69
     0
  7
STANDARD
140
0.25
170
     5
 62
     0
 63
     7
283
     0
274
    -2
284
     1
 64
     0
275
    -2
285
     1
 65
     0
276
    -2
286
     1
 66
     0
277
    -2
287
     1
 67
     0
278
    -2
288
     1
 68
     0
279
    -2
289
     1
 69
     0
  7
STANDARD
140
0.18
170
     5
 62
     0
 63
     7
283
     0
274
    -2
284
     1
 64
     0
275
    -2
285
     1
 65
     0
276
    -2
286
     1
 66
     0
277
    -2
287
     1
 67
     0
278
    -2
288
     1
 68
     0
279
    -2
289
     1
 69
     0
  0
VISUALSTYLE
  5
8399
102
{ACAD_XDICTIONARY
360
855F
102
}
102
{ACAD_REACTORS
330
8393
102
}
330
8393
100
AcDbVisualStyle
  2
2dWireframe
 70
     4
 71
     0
 72
     2
 73
     0
 90
        0
 40
-0.6
 41
-30.0
 62
     5
 63
     7
 74
     1
 91
        4
 64
     7
 65
   257
 75
     1
175
     1
 42
1.0
 92
        0
 66
   257
 43
1.0
 76
     1
 77
     6
 78
     2
 67
     7
 79
     5
170
     0
171
     0
290
     0
174
     0
 93
        1
 44
0.0
173
     0
291
     0
 45
0.0
1001
ACAD
1000
AcDbSavedByObjectVersion
1070
     0
  0
VISUALSTYLE
  5
8398
102
{ACAD_XDICTIONARY
360
855D
102
}
102
{ACAD_REACTORS
330
8393
102
}
330
8393
100
AcDbVisualStyle
  2
Basic
 70
     7
 71
     1
 72
     0
 73
     1
 90
        0
 40
-0.6
 41
-30.0
 62
     5
 63
     7
 74
     0
 91
        4
 64
     7
 65
   257
 75
     1
175
     1
 42
1.0
 92
        8
 66
     7
 43
1.0
 76
     1
 77
     6
 78
     2
 67
     7
 79
     5
170
     0
171
     0
290
     0
174
     0
 93
        1
 44
0.0
173
     0
291
     1
 45
0.0
1001
ACAD
1000
AcDbSavedByObjectVersion
1070
     0
  0
VISUALSTYLE
  5
839F
102
{ACAD_XDICTIONARY
360
856B
102
}
102
{ACAD_REACTORS
330
8393
102
}
330
8393
100
AcDbVisualStyle
  2
Brighten
 70
    12
 71
     2
 72
     2
 73
     0
 90
        0
 40
-0.6
 41
-30.0
 62
     5
 63
     7
 74
     1
 91
        4
 64
     7
 65
   257
 75
     1
175
     1
 42
1.0
 92
        8
 66
     7
 43
1.0
 76
     1
 77
     6
 78
     2
 67
     7
 79
     5
170
     0
171
     0
290
     0
174
     0
 93
        1
 44
50.0
173
     0
291
     1
 45
0.0
1001
ACAD
1000
AcDbSavedByObjectVersion
1070
     0
  0
VISUALSTYLE
  5
83A3
102
{ACAD_XDICTIONARY
360
8573
102
}
102
{ACAD_REACTORS
330
8393
102
}
330
8393
100
AcDbVisualStyle
  2
ColorChange
 70
    16
 71
     2
 72
     2
 73
     3
 90
        0
 40
-0.6
 41
-30.0
 62
     5
 63
     8
 74
     1
 91
        4
 64
     7
 65
   257
 75
     1
175
     1
 42
1.0
 92
        8
 66
     8
 43
1.0
 76
     1
 77
     6
 78
     2
 67
     7
 79
     5
170
     0
171
     0
290
     0
174
     0
 93
        1
 44
0.0
173
     0
291
     1
 45
0.0
1001
ACAD
1000
AcDbSavedByObjectVersion
1070
     0
  0
VISUALSTYLE
  5
839C
102
{ACAD_XDICTIONARY
360
8565
102
}
102
{ACAD_REACTORS
330
8393
102
}
330
8393
100
AcDbVisualStyle
  2
Conceptual
 70
     9
 71
     3
 72
     2
 73
     0
 90
        0
 40
-0.6
 41
-30.0
 62
     5
 63
     7
 74
     2
 91
        2
 64
     7
 65
   257
 75
     1
175
     1
 42
179.0
 92
        8
 66
     7
 43
1.0
 76
     1
 77
     6
 78
     2
 67
     7
 79
     3
170
     0
171
     0
290
     0
174
     0
 93
        1
 44
0.0
173
     0
291
     0
 45
0.0
1001
ACAD
1000
AcDbSavedByObjectVersion
1070
     0
  0
VISUALSTYLE
  5
839E
102
{ACAD_XDICTIONARY
360
8569
102
}
102
{ACAD_REACTORS
330
8393
102
}
330
8393
100
AcDbVisualStyle
  2
Dim
 70
    11
 71
     2
 72
     2
 73
     0
 90
        0
 40
-0.6
 41
-30.0
 62
     5
 63
     7
 74
     1
 91
        4
 64
     7
 65
   257
 75
     1
175
     1
 42
1.0
 92
        8
 66
     7
 43
1.0
 76
     1
 77
     6
 78
     2
 67
     7
 79
     5
170
     0
171
     0
290
     0
174
     0
 93
        1
 44
-50.0
173
     0
291
     1
 45
0.0
1001
ACAD
1000
AcDbSavedByObjectVersion
1070
     0
  0
VISUALSTYLE
  5
83AB
102
{ACAD_XDICTIONARY
360
8583
102
}
102
{ACAD_REACTORS
330
8393
102
}
330
8393
100
AcDbVisualStyle
  2
EdgeColorOff
 70
    22
 71
     2
 72
     2
 73
     0
 90
        0
 40
-0.6
 41
-30.0
 62
     5
 63
     7
 74
     1
 91
        4
 64
     7
 65
   257
 75
     1
175
     1
 42
1.0
 92
        8
 66
     7
 43
1.0
 76
     1
 77
     6
 78
     2
 67
     7
 79
     5
170
     0
171
     0
290
     0
174
     0
 93
        1
 44
0.0
173
     0
291
     1
 45
0.0
1001
ACAD
1000
AcDbSavedByObjectVersion
1070
     0
  0
VISUALSTYLE
  5
83A2
102
{ACAD_XDICTIONARY
360
8571
102
}
102
{ACAD_REACTORS
330
8393
102
}
330
8393
100
AcDbVisualStyle
  2
Facepattern
 70
    15
 71
     2
 72
     2
 73
     0
 90
        0
 40
-0.6
 41
-30.0
 62
     5
 63
     7
 74
     1
 91
        4
 64
     7
 65
   257
 75
     1
175
     1
 42
1.0
 92
        8
 66
     7
 43
1.0
 76
     1
 77
     6
 78
     2
 67
     7
 79
     5
170
     0
171
     0
290
     0
174
     0
 93
        1
 44
0.0
173
     0
291
     1
 45
0.0
1001
ACAD
1000
AcDbSavedByObjectVersion
1070
     0
  0
VISUALSTYLE
  5
8394
102
{ACAD_XDICTIONARY
360
8555
102
}
102
{ACAD_REACTORS
330
8393
102
}
330
8393
100
AcDbVisualStyle
  2
Flat
 70
     0
 71
     2
 72
     1
 73
     1
 90
        2
 40
-0.6
 41
30.0
 62
     5
 63
     7
 74
     0
 91
        0
 64
     7
 65
   257
 75
     1
175
     1
 42
1.0
 92
        8
 66
     7
 43
1.0
 76
     1
 77
     6
 78
     2
 67
     7
 79
     5
170
     0
171
     0
290
     0
174
     0
 93
       13
 44
0.0
173
     0
291
     1
 45
0.0
1001
ACAD
1000
AcDbSavedByObjectVersion
1070
     0
  0
VISUALSTYLE
  5
8395
102
{ACAD_XDICTIONARY
360
8557
102
}
102
{ACAD_REACTORS
330
8393
102
}
330
8393
100
AcDbVisualStyle
  2
FlatWithEdges
 70
     1
 71
     2
 72
     1
 73
     1
 90
        2
 40
-0.6
 41
30.0
 62
     5
 63
     7
 74
     1
 91
        0
 64
     7
 65
   257
 75
     1
175
     1
 42
1.0
 92
        0
 66
   257
 43
1.0
 76
     1
 77
     6
 78
     2
 67
     7
 79
     5
170
     0
171
     0
290
     0
174
     0
 93
       13
 44
0.0
173
     0
291
     1
 45
0.0
1001
ACAD
1000
AcDbSavedByObjectVersion
1070
     0
  0
VISUALSTYLE
  5
8396
102
{ACAD_XDICTIONARY
360
8559
102
}
102
{ACAD_REACTORS
330
8393
102
}
330
8393
100
AcDbVisualStyle
  2
Gouraud
 70
     2
 71
     2
 72
     2
 73
     1
 90
        2
 40
-0.6
 41
30.0
 62
     5
 63
     7
 74
     0
 91
        0
 64
     7
 65
   257
 75
     1
175
     1
 42
1.0
 92
        0
 66
     7
 43
1.0
 76
     1
 77
     6
 78
     2
 67
     7
 79
     5
170
     0
171
     0
290
     0
174
     0
 93
       13
 44
0.0
173
     0
291
     1
 45
0.0
1001
ACAD
1000
AcDbSavedByObjectVersion
1070
     0
  0
VISUALSTYLE
  5
8397
102
{ACAD_XDICTIONARY
360
855B
102
}
102
{ACAD_REACTORS
330
8393
102
}
330
8393
100
AcDbVisualStyle
  2
GouraudWithEdges
 70
     3
 71
     2
 72
     2
 73
     1
 90
        2
 40
-0.6
 41
30.0
 62
     5
 63
     7
 74
     1
 91
        0
 64
     7
 65
   257
 75
     1
175
     1
 42
1.0
 92
        0
 66
   257
 43
1.0
 76
     1
 77
     6
 78
     2
 67
     7
 79
     5
170
     0
171
     0
290
     0
174
     0
 93
       13
 44
0.0
173
     0
291
     1
 45
0.0
1001
ACAD
1000
AcDbSavedByObjectVersion
1070
     0
  0
VISUALSTYLE
  5
839B
102
{ACAD_XDICTIONARY
360
8563
102
}
102
{ACAD_REACTORS
330
8393
102
}
330
8393
100
AcDbVisualStyle
  2
Hidden
 70
     6
 71
     1
 72
     2
 73
     2
 90
        0
 40
-0.6
 41
-30.0
 62
     5
 63
     7
 74
     2
 91
        2
 64
     7
 65
   257
 75
     2
175
     1
 42
40.0
 92
        0
 66
   257
 43
1.0
 76
     1
 77
     6
 78
     2
 67
     7
 79
     3
170
     0
171
     0
290
     0
174
     0
 93
        1
 44
0.0
173
     0
291
     0
 45
0.0
1001
ACAD
1000
AcDbSavedByObjectVersion
1070
     0
  0
VISUALSTYLE
  5
83A9
102
{ACAD_XDICTIONARY
360
857F
102
}
102
{ACAD_REACTORS
330
8393
102
}
330
8393
100
AcDbVisualStyle
  2
JitterOff
 70
    20
 71
     2
 72
     2
 73
     0
 90
        0
 40
-0.6
 41
-30.0
 62
     5
 63
     7
 74
     1
 91
        4
 64
     7
 65
   257
 75
     1
175
     1
 42
1.0
 92
       10
 66
     7
 43
1.0
 76
     1
 77
     6
 78
     2
 67
     7
 79
     5
170
     0
171
     0
290
     0
174
     0
 93
        1
 44
0.0
173
     0
291
     1
 45
0.0
1001
ACAD
1000
AcDbSavedByObjectVersion
1070
     0
  0
VISUALSTYLE
  5
83A1
102
{ACAD_XDICTIONARY
360
856F
102
}
102
{ACAD_REACTORS
330
8393
102
}
330
8393
100
AcDbVisualStyle
  2
Linepattern
 70
    14
 71
     2
 72
     2
 73
     0
 90
        0
 40
-0.6
 41
-30.0
 62
     5
 63
     7
 74
     1
 91
        4
 64
     7
 65
   257
 75
     7
175
     7
 42
1.0
 92
        8
 66
     7
 43
1.0
 76
     1
 77
     6
 78
     2
 67
     7
 79
     5
170
     0
171
     0
290
     0
174
     0
 93
        1
 44
0.0
173
     0
291
     1
 45
0.0
1001
ACAD
1000
AcDbSavedByObjectVersion
1070
     0
  0
VISUALSTYLE
  5
83AA
102
{ACAD_XDICTIONARY
360
8581
102
}
102
{ACAD_REACTORS
330
8393
102
}
330
8393
100
AcDbVisualStyle
  2
OverhangOff
 70
    21
 71
     2
 72
     2
 73
     0
 90
        0
 40
-0.6
 41
-30.0
 62
     5
 63
     7
 74
     1
 91
        4
 64
     7
 65
   257
 75
     1
175
     1
 42
1.0
 92
        9
 66
     7
 43
1.0
 76
     1
 77
     6
 78
     2
 67
     7
 79
     5
170
     0
171
     0
290
     0
174
     0
 93
        1
 44
0.0
173
     0
291
     1
 45
0.0
1001
ACAD
1000
AcDbSavedByObjectVersion
1070
     0
  0
VISUALSTYLE
  5
839D
102
{ACAD_XDICTIONARY
360
8567
102
}
102
{ACAD_REACTORS
330
8393
102
}
330
8393
100
AcDbVisualStyle
  2
Realistic
 70
     8
 71
     2
 72
     3
 73
     0
 90
        2
 40
-0.6
 41
30.0
 62
     5
 63
     7
 74
     0
 91
        0
 64
     7
 65
   257
 75
     1
175
     1
 42
1.0
 92
        8
 66
   257
 43
1.0
 76
     1
 77
     6
 78
     2
 67
     7
 79
     3
170
     0
171
     0
290
     0
174
     0
 93
       13
 44
0.0
173
     0
291
     0
 45
0.0
1001
ACAD
1000
AcDbSavedByObjectVersion
1070
     0
  0
VISUALSTYLE
  5
83A8
102
{ACAD_XDICTIONARY
360
857D
102
}
102
{ACAD_REACTORS
330
8393
102
}
330
8393
100
AcDbVisualStyle
  2
Shaded
 70
    27
 71
     2
 72
     2
 73
     1
 90
        2
 40
-0.6
 41
30.0
 62
     5
 63
     7
 74
     0
 91
        4
 64
     7
 65
   257
 75
     1
175
     1
 42
1.0
 92
        8
 66
   257
 43
1.0
 76
     1
 77
     6
 78
     2
 67
     8
 79
     3
170
     0
171
     0
290
     0
174
     0
 93
        5
 44
0.0
173
     0
291
     0
 45
0.0
1001
ACAD
1000
AcDbSavedByObjectVersion
1070
     0
  0
VISUALSTYLE
  5
83A7
102
{ACAD_XDICTIONARY
360
857B
102
}
102
{ACAD_REACTORS
330
8393
102
}
330
8393
100
AcDbVisualStyle
  2
Shaded with edges
 70
    26
 71
     2
 72
     2
 73
     1
 90
        2
 40
-0.6
 41
30.0
 62
     5
 63
     7
 74
     1
 91
       10
 64
     7
 65
   257
 75
     2
175
     1
 42
1.0
 92
        8
 66
   257
 43
1.0
 76
     1
 77
     6
 78
     2
 67
     7
 79
     3
170
     0
171
     0
290
     0
174
     0
 93
        5
 44
0.0
173
     0
291
     0
 45
0.0
1001
ACAD
1000
AcDbSavedByObjectVersion
1070
     0
  0
VISUALSTYLE
  5
83A4
102
{ACAD_XDICTIONARY
360
8575
102
}
102
{ACAD_REACTORS
330
8393
102
}
330
8393
100
AcDbVisualStyle
  2
Shades of Gray
 70
    23
 71
     2
 72
     2
 73
     3
 90
        0
 40
-0.6
 41
-30.0
 62
     5
 63
     7
 74
     2
 91
        2
 64
     7
 65
     7
 75
     1
175
     1
 42
40.0
 92
        8
 66
     7
 43
1.0
 76
     1
 77
     6
 78
     2
 67
     7
 79
     3
170
     0
171
     0
290
     0
174
     0
 93
        1
 44
0.0
173
     0
291
     0
 45
0.0
1001
ACAD
1000
AcDbSavedByObjectVersion
1070
     0
  0
VISUALSTYLE
  5
83A5
102
{ACAD_XDICTIONARY
360
8577
102
}
102
{ACAD_REACTORS
330
8393
102
}
330
8393
100
AcDbVisualStyle
  2
Sketchy
 70
    24
 71
     1
 72
     2
 73
     2
 90
        0
 40
-0.6
 41
-30.0
 62
     5
 63
     7
 74
     2
 91
        2
 64
     7
 65
     7
 75
     1
175
     1
 42
40.0
 92
       11
 66
     7
 43
1.0
 76
     1
 77
     6
 78
     2
 67
     7
 79
     6
170
     0
171
     0
290
     0
174
     0
 93
        1
 44
0.0
173
     0
291
     0
 45
0.0
1001
ACAD
1000
AcDbSavedByObjectVersion
1070
     0
  0
VISUALSTYLE
  5
83A0
102
{ACAD_XDICTIONARY
360
856D
102
}
102
{ACAD_REACTORS
330
8393
102
}
330
8393
100
AcDbVisualStyle
  2
Thicken
 70
    13
 71
     2
 72
     2
 73
     0
 90
        0
 40
-0.6
 41
-30.0
 62
     5
 63
     7
 74
     1
 91
        4
 64
     7
 65
   257
 75
     1
175
     1
 42
1.0
 92
       12
 66
     7
 43
1.0
 76
     1
 77
     6
 78
     2
 67
     7
 79
     5
170
     0
171
     0
290
     0
174
     0
 93
        1
 44
0.0
173
     0
291
     1
 45
0.0
1001
ACAD
1000
AcDbSavedByObjectVersion
1070
     0
  0
VISUALSTYLE
  5
839A
102
{ACAD_XDICTIONARY
360
8561
102
}
102
{ACAD_REACTORS
330
8393
102
}
330
8393
100
AcDbVisualStyle
  2
Wireframe
 70
     5
 71
     0
 72
     2
 73
     0
 90
        0
 40
-0.6
 41
-30.0
 62
     5
 63
     7
 74
     1
 91
        4
 64
     7
 65
   257
 75
     1
175
     1
 42
1.0
 92
        0
 66
   257
 43
1.0
 76
     1
 77
     6
 78
     2
 67
     7
 79
     3
170
     0
171
     0
290
     0
174
     0
 93
        1
 44
0.0
173
     0
291
     0
 45
0.0
1001
ACAD
1000
AcDbSavedByObjectVersion
1070
     0
  0
VISUALSTYLE
  5
83A6
102
{ACAD_XDICTIONARY
360
8579
102
}
102
{ACAD_REACTORS
330
8393
102
}
330
8393
100
AcDbVisualStyle
  2
X-Ray
 70
    25
 71
     2
 72
     2
 73
     1
 90
        1
 40
0.5
 41
-30.0
 62
     5
 63
     7
 74
     1
 91
        0
 64
     7
 65
   257
 75
     1
175
     1
 42
1.0
 92
        8
 66
     7
 43
1.0
 76
     1
 77
     6
 78
     2
 67
     7
 79
     3
170
     0
171
     0
290
     0
174
     0
 93
       13
 44
0.0
173
     0
291
     0
 45
0.0
1001
ACAD
1000
AcDbSavedByObjectVersion
1070
     0
  0
DICTIONARYVAR
  5
8548
102
{ACAD_REACTORS
330
8543
102
}
330
8543
100
DictionaryVariables
280
     0
  1
1:1
  0
DICTIONARYVAR
  5
8545
102
{ACAD_REACTORS
330
8543
102
}
330
8543
100
DictionaryVariables
280
     0
  1
STANDARD
  0
DICTIONARYVAR
  5
8544
102
{ACAD_REACTORS
330
8543
102
}
330
8543
100
DictionaryVariables
280
     0
  1
STANDARD
  0
DICTIONARYVAR
  5
8546
102
{ACAD_REACTORS
330
8543
102
}
330
8543
100
DictionaryVariables
280
     0
  1
Imperial24
  0
DICTIONARYVAR
  5
8547
102
{ACAD_REACTORS
330
8543
102
}
330
8543
100
DictionaryVariables
280
     0
  1
Imperial24
  0
DICTIONARYVAR
  5
854B
102
{ACAD_REACTORS
330
8543
102
}
330
8543
100
DictionaryVariables
280
     0
  1
1
  0
DICTIONARYVAR
  5
854A
102
{ACAD_REACTORS
330
8543
102
}
330
8543
100
DictionaryVariables
280
     0
  1
0
  0
DICTIONARYVAR
  5
8549
102
{ACAD_REACTORS
330
8543
102
}
330
8543
100
DictionaryVariables
280
     0
  1
127
  0
DICTIONARYVAR
  5
854C
102
{ACAD_REACTORS
330
8543
102
}
330
8543
100
DictionaryVariables
280
     0
  1
2
  0
DICTIONARY
  5
8589
330
83D4
100
AcDbDictionary
280
     1
281
     1
  3
ACAD_XREC_ROUNDTRIP
360
858A
  0
DICTIONARY
  5
858D
330
83DC
100
AcDbDictionary
280
     1
281
     1
  3
ACAD_XREC_ROUNDTRIP
360
858E
  0
DICTIONARY
  5
858B
330
83D8
100
AcDbDictionary
280
     1
281
     1
  3
ACAD_XREC_ROUNDTRIP
360
858C
  0
DICTIONARY
  5
8384
330
8383
100
AcDbDictionary
280
     1
281
     1
  3
ACAD_XREC_ROUNDTRIP
360
8553
  3
BUMPTILE
360
8386
  3
DIFFUSETILE
360
8385
  3
OPACITYTILE
360
8389
  3
REFLECTIONTILE
360
8388
  3
REFRACTIONTILE
360
838A
  3
SPECULARTILE
360
8387
  0
DICTIONARY
  5
837C
330
837B
100
AcDbDictionary
280
     1
281
     1
  3
ACAD_XREC_ROUNDTRIP
360
8552
  3
BUMPTILE
360
837E
  3
DIFFUSETILE
360
837D
  3
OPACITYTILE
360
8381
  3
REFLECTIONTILE
360
8380
  3
REFRACTIONTILE
360
8382
  3
SPECULARTILE
360
837F
  0
DICTIONARY
  5
838C
330
838B
100
AcDbDictionary
280
     1
281
     1
  3
ACAD_XREC_ROUNDTRIP
360
8554
  3
BUMPTILE
360
838E
  3
DIFFUSETILE
360
838D
  3
FBXASSET
360
841F
  3
OPACITYTILE
360
8391
  3
REFLECTIONTILE
360
8390
  3
REFRACTIONTILE
360
8392
  3
SPECULARTILE
360
838F
  0
DICTIONARY
  5
8587
330
83D2
100
AcDbDictionary
280
     1
281
     1
  3
ACAD_XREC_ROUNDTRIP
360
8588
  0
DICTIONARY
  5
854E
330
83CE
100
AcDbDictionary
280
     1
281
     1
  3
ACAD_ROUNDTRIP_2008_TABLESTYLE_CELLSTYLEMAP
360
854F
  3
ACAD_XREC_ROUNDTRIP
360
8585
  0
DICTIONARY
  5
855F
330
8399
100
AcDbDictionary
280
     1
281
     1
  3
ACAD_XREC_ROUNDTRIP
360
8560
  0
DICTIONARY
  5
855D
330
8398
100
AcDbDictionary
280
     1
281
     1
  3
ACAD_XREC_ROUNDTRIP
360
855E
  0
DICTIONARY
  5
856B
330
839F
100
AcDbDictionary
280
     1
281
     1
  3
ACAD_XREC_ROUNDTRIP
360
856C
  0
DICTIONARY
  5
8573
330
83A3
100
AcDbDictionary
280
     1
281
     1
  3
ACAD_XREC_ROUNDTRIP
360
8574
  0
DICTIONARY
  5
8565
330
839C
100
AcDbDictionary
280
     1
281
     1
  3
ACAD_XREC_ROUNDTRIP
360
8566
  0
DICTIONARY
  5
8569
330
839E
100
AcDbDictionary
280
     1
281
     1
  3
ACAD_XREC_ROUNDTRIP
360
856A
  0
DICTIONARY
  5
8583
330
83AB
100
AcDbDictionary
280
     1
281
     1
  3
ACAD_XREC_ROUNDTRIP
360
8584
  0
DICTIONARY
  5
8571
330
83A2
100
AcDbDictionary
280
     1
281
     1
  3
ACAD_XREC_ROUNDTRIP
360
8572
  0
DICTIONARY
  5
8555
330
8394
100
AcDbDictionary
280
     1
281
     1
  3
ACAD_XREC_ROUNDTRIP
360
8556
  0
DICTIONARY
  5
8557
330
8395
100
AcDbDictionary
280
     1
281
     1
  3
ACAD_XREC_ROUNDTRIP
360
8558
  0
DICTIONARY
  5
8559
330
8396
100
AcDbDictionary
280
     1
281
     1
  3
ACAD_XREC_ROUNDTRIP
360
855A
  0
DICTIONARY
  5
855B
330
8397
100
AcDbDictionary
280
     1
281
     1
  3
ACAD_XREC_ROUNDTRIP
360
855C
  0
DICTIONARY
  5
8563
330
839B
100
AcDbDictionary
280
     1
281
     1
  3
ACAD_XREC_ROUNDTRIP
360
8564
  0
DICTIONARY
  5
857F
330
83A9
100
AcDbDictionary
280
     1
281
     1
  3
ACAD_XREC_ROUNDTRIP
360
8580
  0
DICTIONARY
  5
856F
330
83A1
100
AcDbDictionary
280
     1
281
     1
  3
ACAD_XREC_ROUNDTRIP
360
8570
  0
DICTIONARY
  5
8581
330
83AA
100
AcDbDictionary
280
     1
281
     1
  3
ACAD_XREC_ROUNDTRIP
360
8582
  0
DICTIONARY
  5
8567
330
839D
100
AcDbDictionary
280
     1
281
     1
  3
ACAD_XREC_ROUNDTRIP
360
8568
  0
DICTIONARY
  5
857D
330
83A8
100
AcDbDictionary
280
     1
281
     1
  3
ACAD_XREC_ROUNDTRIP
360
857E
  0
DICTIONARY
  5
857B
330
83A7
100
AcDbDictionary
280
     1
281
     1
  3
ACAD_XREC_ROUNDTRIP
360
857C
  0
DICTIONARY
  5
8575
330
83A4
100
AcDbDictionary
280
     1
281
     1
  3
ACAD_XREC_ROUNDTRIP
360
8576
  0
DICTIONARY
  5
8577
330
83A5
100
AcDbDictionary
280
     1
281
     1
  3
ACAD_XREC_ROUNDTRIP
360
8578
  0
DICTIONARY
  5
856D
330
83A0
100
AcDbDictionary
280
     1
281
     1
  3
ACAD_XREC_ROUNDTRIP
360
856E
  0
DICTIONARY
  5
8561
330
839A
100
AcDbDictionary
280
     1
281
     1
  3
ACAD_XREC_ROUNDTRIP
360
8562
  0
DICTIONARY
  5
8579
330
83A6
100
AcDbDictionary
280
     1
281
     1
  3
ACAD_XREC_ROUNDTRIP
360
857A
  0
XRECORD
  5
858A
102
{ACAD_REACTORS
330
8589
102
}
330
8589
100
AcDbXrecord
280
     1
102
DISPLAYNAME
  1
Imperial24
102
FLAGS
 90
        0
  0
XRECORD
  5
858E
102
{ACAD_REACTORS
330
858D
102
}
330
858D
100
AcDbXrecord
280
     1
102
SHADEPLOT
 70
     0
102
SHADEPLOTRESLEVEL
 70
     2
102
SHADEPLOTCUSTOMDPI
 70
   300
  0
XRECORD
  5
858C
102
{ACAD_REACTORS
330
858B
102
}
330
858B
100
AcDbXrecord
280
     1
102
SHADEPLOT
 70
     0
102
SHADEPLOTRESLEVEL
 70
     2
102
SHADEPLOTCUSTOMDPI
 70
   300
  0
XRECORD
  5
8553
102
{ACAD_REACTORS
330
8384
102
}
330
8384
100
AcDbXrecord
280
     1
102
MATERIAL
148
0.0
149
0.0
149
0.0
 93
        0
 94
      127
282
     0
 72
     0
 77
     0
171
     0
175
     0
179
     0
273
     0
  0
XRECORD
  5
8386
102
{ACAD_REACTORS
330
8384
102
}
330
8384
100
AcDbXrecord
280
     1
270
     1
271
     1
  0
XRECORD
  5
8385
102
{ACAD_REACTORS
330
8384
102
}
330
8384
100
AcDbXrecord
280
     1
270
     1
271
     1
  0
XRECORD
  5
8389
102
{ACAD_REACTORS
330
8384
102
}
330
8384
100
AcDbXrecord
280
     1
270
     1
271
     1
  0
XRECORD
  5
8388
102
{ACAD_REACTORS
330
8384
102
}
330
8384
100
AcDbXrecord
280
     1
270
     1
271
     1
  0
XRECORD
  5
838A
102
{ACAD_REACTORS
330
8384
102
}
330
8384
100
AcDbXrecord
280
     1
270
     1
271
     1
  0
XRECORD
  5
8387
102
{ACAD_REACTORS
330
8384
102
}
330
8384
100
AcDbXrecord
280
     1
270
     1
271
     1
  0
XRECORD
  5
8552
102
{ACAD_REACTORS
330
837C
102
}
330
837C
100
AcDbXrecord
280
     1
102
MATERIAL
148
0.0
149
0.0
149
0.0
 93
        0
 94
      127
282
     0
 72
     0
 77
     0
171
     0
175
     0
179
     0
273
     0
  0
XRECORD
  5
837E
102
{ACAD_REACTORS
330
837C
102
}
330
837C
100
AcDbXrecord
280
     1
270
     1
271
     1
  0
XRECORD
  5
837D
102
{ACAD_REACTORS
330
837C
102
}
330
837C
100
AcDbXrecord
280
     1
270
     1
271
     1
  0
XRECORD
  5
8381
102
{ACAD_REACTORS
330
837C
102
}
330
837C
100
AcDbXrecord
280
     1
270
     1
271
     1
  0
XRECORD
  5
8380
102
{ACAD_REACTORS
330
837C
102
}
330
837C
100
AcDbXrecord
280
     1
270
     1
271
     1
  0
XRECORD
  5
8382
102
{ACAD_REACTORS
330
837C
102
}
330
837C
100
AcDbXrecord
280
     1
270
     1
271
     1
  0
XRECORD
  5
837F
102
{ACAD_REACTORS
330
837C
102
}
330
837C
100
AcDbXrecord
280
     1
270
     1
271
     1
  0
XRECORD
  5
8554
102
{ACAD_REACTORS
330
838C
102
}
330
838C
100
AcDbXrecord
280
     1
102
MATERIAL
148
0.0
149
0.0
149
0.0
 93
        0
 94
      127
282
     0
 72
     0
 77
     0
171
     0
175
     0
179
     0
273
     0
  0
XRECORD
  5
838E
102
{ACAD_REACTORS
330
838C
102
}
330
838C
100
AcDbXrecord
280
     1
270
     1
271
     1
  0
XRECORD
  5
838D
102
{ACAD_REACTORS
330
838C
102
}
330
838C
100
AcDbXrecord
280
     1
270
     1
271
     1
  0
XRECORD
  5
841F
102
{ACAD_REACTORS
330
838C
102
}
330
838C
100
AcDbXrecord
280
     1
 70
     1
 90
1959938040
 71
     1
  1
12D94993-6581-4738-8C45-6B800ADF590D
311
504B030414000608080073717457B9DAFD71D9000000200100004F00000043464446354333332D354442362D343331462D393532432D4646353339353837333533422F4173736574446174612F446566696E6974696F6E4974657261746F7250726F706572746965732E62696E454E3D4FC3400C3D18400C0CFC83AAFB711F
311
29348ADA22AE4998608189A5722F6E897449AA5C223132F2AFC11645B5F4FCFCF9EC6F21C4CFD1281467842FF2D7C44FD8625FFB57FF810D880BAE846E0BE1F2D43BA790D31C77308681B79EEBE8310468B11BE3CD6974D2C04072106E79E98AF05F88ACB0FF3BC6F75F08FC12335487EC0162C461A976DB4F9596F3F97DF2
311
68A52E732767EEAE90AE28B44C4B97943A5D6B97AF558FB11B7B8F5159A53747E5CDA1DDD7D56A31D40D4E5A687039F53DD24FD57465B54DA431D2EA3733CB8CC992F47DA178F217504B0304140006080800737174570084458EEC000000300200004500000043464446354333332D354442362D343331462D393532432D46
311
46353339353837333533422F4173736574446174612F496E7374616E636550726F706572746965732E62696EEB606060F80F0540260323103700495E20ED9E9A975A94991C9C9C919A9BA80214303472B134B1B434D63533B530D4353137B6D0B5703631D53573B2303070747133B53470614768046931363471713532B5D4
311
35353131D635313332D475727372D13534373670367376B67474B5042A03DBCBA019D37FE8ABC6157B20CD04146B0062181F4C03F940F0C11EA29A8141C08141002C0426541C106CAC2CA046088033B02A030AC2157C6006F21A8018AAF50194E6010A610250382264E08660284CD9E98021862280A91564B406929A0FF62C
311
401E28B6F88038B83CB1243943D7A928312F25350524432B0000504B03041400060808007371745728BB58AF800100009E0500003D00000043464446354333332D354442362D343331462D393532432D4646353339353837333533422F536368656D61732F436F6D6D6F6E536368656D612E786D6CBD544D4FC23018BEFB2B
311
96DE15493C78601010A34B880709DEDFB52FD0D8B54BD70DF6EFED3AC0B12E6442E2716BFB3CEFF3D18E26FB440405EA8C2B1992E1C323095052C5B8DC842437EBFB673219DF8DA659866649B798C078B48AE6410122242F2A4994AC7F93815DF85C049C8564CA0A901499DD886B2EB9B1E02448F358701A9235880C49A011
311
9892A20C89D1B9FD768815CAD268CB5E0355B40B1E47F3E37A2020464BED06AA57CE8FCC20C3C3446D46761A2632A8C1283D07031EFF2AE7CCB1BFEEE916E406DFAC8E36FFD99A9D60A6944090EEDC3B670C7DC13DE86B6B2C5C240D6E503BB85ACD579D513F1B9F9A69DC9CC22AFA80C426D40AF0B21EA168559156B6276F
311
0F726A6BFF04DCD513A87A62CAD41FB24FCB2858B3952E3D852084DA25B9303C15687973CC8E8AAE11DF2836C38C6A9E765E8C1BA1BFB1DC29CDFE518C8B5A7655A4ED7E77291ABEB80DBD82EC866ADE1B8D05AF9E35CF09D7A061F38A986D9EC412B8F0F65E5D81534D9B231D1E5A8FE577A241F3A5FD01504B0304140006
311
080800737174572CCEBD668A040000E01200003E00000043464446354333332D354442362D343331462D393532432D4646353339353837333533422F536368656D61732F47656E65726963536368656D612E786D6CD5586D6FDB380CFE7EBF42F0F7A649B70E1B90744856B4970F450FCD7A5F05459613EDE4174872DADCAF
311
3F522F8ED3B88D2F1D06AC4050DBA2493EE4438AF2F8EB73AEC8466823CB62928C06C384888297A92C5693A4B6D9D9E7E4EBD51FE3A931C22EF85AE4EC6AFC38BF261BA626C9AD288496DC3F4FCEAFC63366845F7A10452AF41DB320C0D44EC26EAB20918735565582695670811A6A49643A49A6E9069FA4604A64B29016DC
311
4B48552F95E4932463CA888468C1D2B250DB4962750DF7CE273069CE8363F1FF4EDB00E0A21999574AE4A2B00C353B93F3BD4777B8A61ED8F604ABFEDD79CE56A2B7BDFBDBC50996E0ADDE16FED26223C5D30956C29BDF4A55EA686E5E58B112DA45CE67F76F4FA27EFA3FB672FD7372FC388FAECDCA5209E693CAD167BADC
311
D272F943701B3812F8A3D852008B1D2E32DB927B2F833C6EA95879925356D254582695095A3CE982924720BE5774A3CB9CDCDB350427D2DF20DA1B5532EBE2D5D6288D75D4F7E4FD9890A0EF8E3D93EBB8F8BA4758158EF6FB90A6F9520281C93DE7AAC6D24607DA296BB96018123F821A7D6A5C5884050C475DA486544273
311
2C8B95684A50165CBB3A32F25F783A4A480ED59AD7F924B968AEA50131F46303223E6A397B0E52976030DC1DCA81D7E7C1EDEEA42C19FF27635C505E2BD5198A599020DF50A2330FCB3AAF28CB0124108429553EF1B228802E2265D8F7CC2401042B155BCC7070F1E5C55F13B4A9577362CCCE46C32174E010C3C378C44841
311
A4BDA00FE3A12006CE11EE6AEC59894D3526DDE1CD59D503ECC324017F8061B7F162162FA62EDD81AE3308617770796DCBDAD2B2625C5AE8A63DE20B2C8AA5E95E76E5730823955956E33E705425A2187C185D36489A1B44D3DCEC2172F6BA2105C3546287A7194B2331768EBBE64F6E70A9930ABE0ADEA89E9E2C38523B81
311
0287AD67A54A039C1606EAFE68F8304610BB9093DBDDABC0B2AE4E290DCDA15376D7E39F72B556F0B32EAB5D3D498B4C41ABADEC3A1434C422D87E8025A84BDCB2B1417ED750FAE4DA8976863974C577C7F902D3F156AD354DEA3540DE6BEAE2BEA52F7A2EB4CA43802ECE5BF2CE2EDC9347179FFB023CE412E60BE16DA0BE
311
29B374988A553F561DC04615DD35F7D2C8979F60E5955CE93DF29DED8AFA1EE6642D53418086C03C47C377910F75F7E8F5EF665F70B60FFB22AEDF897D119E8423C773E819A3C1E55E550599EE6EDCA34D0C86FD72057DF2CD46F16A470682471C164E4346D5306BF12D7D12D82CFF673D41636C347443FEB51B50D72EA171
311
A8E4A58623A4A16E0FA2B8B10A0D23268D87C33896EE8FB73305A74BF224EDBADFA0BD674AB354D63DB7BD5D83426761C077DE767728235446A552754EB93B755891C3C4CC6CADE37CF0E912A7BB38DBA010F9DE1282EDF470CA69A9CDA482E334C4A6EA4107987980B17E72F31730EBF88BBD39E7C629F56797A3C0009C2C
311
5AE7951D9A05A02773440F02EEB4DE396A3B6A570C72CCFBCD823B0B8ED3F1D5CEDDFED772FA70236C83FB7D86C385D570B87107535572A60A96035F8F7C6A7192F13007246BBE0521855E6AC46F3E27689CEE7D186A6FD679D98CDCAD13333E04EBE7ED6F55FF01504B0304140006080800737174576180134D5F0100006B
311
0300004500000043464446354333332D354442362D343331462D393532432D4646353339353837333533422F536368656D61732F52656E6465724D6174657269616C536368656D612E786D6CA5934D6FC2300C86EFFB1551EEE343DBA41D1A103009551ADAD40EAE28A4A68D9426284961FCFBE5A340113B2071746D3F765E
311
BF4DC6BFB5407BD0862B49F0B037C0082453059725C18DDD3EBFE3F1E829991803366715D474942CD30FB4A782E00C64017A412D684E454CE3FE28995203B162A6EA5AC94B66997D225E109CD63B0135484BAD1B3C07E9080CA35DB3119C11BCA5C200461A68A1A438126C75E3E230D40FF81FB3F03C91D1E3A3A0AF79FE28
311
E25BC39EC3E17E4C2A2D94A0833A51AF55BCCA7D88572FCBAC529C4140B020FC3AAFA886621DCED7EAD7664CC86024E806DC297DA1BB393E4156543457A4537DB8817349A70F8ACBF09B3EEE2CB2F33E91B65D60786E4E3B39B77E3FEEEF5650424525DA657FB8B46BE6BF064646F0A0F7327C0BC1BC1B4CBBC1C419FA3CCB
311
23500007872A2580CAAE5461865565294E4EDB4617B62FF579DF9A5B2F54E834076A597573A020912FED777F9B3F504B030414000608080073717457BD702EEC51000000570000004700000043464446354333332D354442362D343331462D393532432D4646353339353837333533422F4173736574446174612F41737365
311
745461626C654F66436F6E74656E74732E62696E53616060303472B134B1B434D63533B530D4353137B6D0B5703631D53573B2303070747133B534701102AACB4D2C492DCA4CCC492C28484D2C4ACC4B4E050A82012F90744FCD03CA26072767A4E6260200504B030414000608080073717457F86583405800000068000000
311
4500000043464446354333332D354442362D343331462D393532432D4646353339353837333533422F4173736574446174612F53747265616D56657273696F6E5461626C652E696E66558CBD0A80300C06F73E4B117FB66E451741D041DC5BF98480A492E4FDD18EAEC7DD4555D89EF28DF51A0B1BD8340C4DE7DD848B988C
311
0ACF0649566493F2408C508DDEBB99D5129FF8F1AF8CF5B9503E20FAE5A16B5AF702504B0304140006080800737174571AE8776E340100009A0400003600000043464446354333332D354442362D343331462D393532432D4646353339353837333533422F4173736574446174612F636E782E786D6CCD94316FC3201085FF
311
8AC56E30498728C24455BB646AA5461DBA5DF03945C160C1B96AFF7D21F1D02A55A70C598F77C7E313EFD4E67370D507C664836F99E40DABD09BD0597F68D9447DBD62D546AB1802FD90B1CAC3802D2B65A6D52186699C4B1DF630B95275D61FE7E27D4A483BD83B7CEA1F8227F49458651CA4D4B264DE71000E13850ED391
311
7740C0258F98C2140DE64964079C27998840D831BD6816CB5ACA7AD1ECE4DD5ACAF572F5A644516AB50FC1CD7A9B2F8B61ACCCF956A61B25CAB15653B4B3A6BC85E9BF3CF2BDF54A64A5568962663277D0D7983B601C9D3540199D088690EA2C421894388BB51285C12F128FD85B6F4BCB361B030AF139DBC348166F8EC87F
311
5EAF4F66EB13813778BB3C2E1D5E9FC2CBE907BD9E03794ACCADE5E4D221B7BEBF424AC4698DE4D094ADA2BF01504B0304140006080800737174577559194C070100004F0300003400000043464446354333332D354442362D343331462D393532432D4646353339353837333533422F536368656D61732F636E782E786D6C
311
CD93BD52032114855F65873EB06C2C321996141656366A65877013990077871F47DF5E582992193B2DD2C1E11BE69CC3451C3EBD1B3E20268B61269C8E6480A0D1D8709A49C9C7CD8E0C07292262BEC0C810948799349948718A58962E1938AAE29AEA6C3877F11EBDC7F0ACDFC12B3268A7529A495AB754958C06D2991A95
311
15E53442C21235D41BB2F5D06FD011540643E4344EDB0DE79B697CE1777BCEF7DBDDAB608D94E20DD175DE860C119741635D846A6714AC1D4B51A2ED4CCB40E4A5375ADB10AC1252A41C6B079DCC5F4B25D5B238AB55AE55B115FC61A4602DEA55E0070810ADBECDC457E6FE2DF2130403F1B1BE52B4CADD66F2DF3CFEAD00
311
B6CE7E1D81F615E437504B030414000608080073717457410A3D5871000000A40000002C00000043464446354333332D354442362D343331462D393532432D4646353339353837333533422F636E782E786D6C55CC4D0E82301086E1AB34B31774E7A22D31F1069E60020334B633A63FC6E34B0909B07DDE2F9FEE7EC1AB2F
311
C5E4840DDC9A2B28E25E06C7938192C7CB1D54677514C9871928C640062A83D55394F2D968A0118BAFEA1DBF377CA444F98919176EAB9FEAAB9F2960DA5BBB1E2ED3FA6FFF504B03041400060808007371745713D6B94B7E000000A300000007000000636E782E786D6C4D8C510BC2201446FF8ADC77AB75BBB5813A98C3FF
311
319A1B23A76133FAF969ECA1A70F0EDF39A2FDAC8EBD6D7C2DC14BA80E2760D6DFC3B8F85942DA265E036B9588216C7F37607E58AD848241893986F4DCD168A721B942DDE21F3BD4A637A41139F5DD955FB032BCA1B3E6C6103654DF90B0CBC6B128797EBDBC25AFBE504B03041400060808007371745716E99B5DA6000000
311
35010000130000005B436F6E74656E745F54797065735D2E786D6C9590410E82301045AFD2740F4517C6180A0BF5065E60AC53688469D30E066F6F91AD9AB89CF9FFFD3F99BA9DC7413C3026E749CB4D59498164FCCD51A7E5C4B6D84BD136F5E5193089ECA5A465CF1C0E4A25D3E308A9F401292BD6C711388FB15301CC1D
311
3A54DBAADA29E38991B8E0254336F5092D4C038BF39CD76B6FC6A538AEBEA54A4B08617006389FA516557DE4AE8E7E70DE30729138228C5F021CD93F02D4FB0DCD0B504B0304140006080800737174573DEE336E64000000790000001B0000006175746F6465736B2D64657369676E2D7061636B6167652E786D6C35CBC10E
311
83200C00D05F21DCA56CA76D41FC96062B120735B69A7DBE268BB7777961F8D5AF396893C2ADB70FE7ADA196782C2DF776D7A97B5933C430F15651E5469C55D70F80A4992A3ADC954792C525AE70A1E4D6AD9816CC044FEFDF01FE3FDE907802504B03041400060808007371745784B34081F9000000960100003700000043
311
464446354333332D354442362D343331462D393532432D4646353339353837333533422F4173736574446174612F636F72652E786D6C8550CB6E833010FC15B477430CB490C8380A8F7E414FBD59B643AC041BF951F5F36B072AB5A79E76353B33BB3BE4FCB53CB24F699D32BA039C1F20939A1BA1F4DC41F057D44276A6C4
311
1AE37FD120D36C911D24182899AD09EB0E71A3BDD409D546C81D64CE490F197FC4A603C76F7261390B3E32DC3D5F19BFB359E638DF789484A0C42E5522BAA9AB9216E8F4521D874BDFA2A1791D515D4F253A56438FF05B3F4ECD50B74D5F93228929F16AF9D9CEAD645E0AA0E5A1AC10C6A83CBCE3FA84F1A96A3F48919894
311
386FE3CFFBD2F41DD04BBA7A649E91629BFE710DABF8DF3528EDAB7277DD140E288E473E07941429A5589E11C69A12A5DF504B0304140006080800737174571249FF61F8000000940100003500000043464446354333332D354442362D343331462D393532432D4646353339353837333533422F536368656D61732F636F72
311
652E786D6C8550CB6E833010FC15B4770306DA90C8382A84FE407BEACDB21D6225D8C88FAA9F5F1BA8D49E7ADAD5ECCCECEE90F3D7FCC83EA575CAE80E705E4226353742E9A983E0AFA885EC4C8935C6FFA241A6D92C3B483050325913961DE2467BA913AA8D903BC89C931E32FE884D078EDFE4CC72167C64B87BBE307E67
311
93CC71BEF1280941895DAA44745357252DD0F1A93E0E2F7D8B86C3F30535CD58A1633DF408BFF697F13034EDA16F4891C4947835FF6CE756322F05D0AAAC6A8431AACA77DC9C303ED5ED0729129312E76DFC795F9ABE03FAB6DEE948B1CDFE788645FCEF1994F675B57B6E0A0714C713D7012545CA289635C058539EF41B50
311
4B0304140006080800737174570A61CC4201010000D70100002D00000043464446354333332D354442362D343331462D393532432D4646353339353837333533422F636F72652E786D6C9591416EC3201045AF62CD1EDB98D0261126521CF9045D7547CDC44589C13250F5F885DA55DB5DBB027DDE9FE1CF88D3FB742FDE70
311
F1C6D916685943817670DAD8B18518AE640FC5498AC5B9F00383C2AA095BC83248312E2ECE9B34381BD066D53A8D9BA8BCC700C5704F9716FCF08A932A550C89F0B77256C34D8D58D272E5A40866FAB20E0BAA801A6453378C504A9AFA89EE8E941ED9FE59549994221A1B58B335C3E90575E1E6902281E4A25A5F13158DDE
311
18A3D31FCDD5E002B2EB2F3DEF1823FC727E203B467B72E04D47FA9EB303DF3F32CECEA948324BE1C39226B315C933F8AB7D35FE4A1667FDCF64ABC383A4DFA1AA3C6629AACF1DA433AF447E00504B030414000608080073717457159FF1CB08010000B201000008000000636F72652E786D6C8D50C16E842014FC15F2EEA8
311
A8ADEE06D954D77E414FBD51615DB20A0670D3FE7D61B5497BEBE99199796F86A1A7CF794277699D32BA01926480A41E8C507A6C60F5175C033A316A8DF1BF6480349F6503110646476BD6658706A3BDD411D546C81DE4CE490F6898C2A301375CE5CC13BEFAA070B764E1C38D8F3221C9A663D4ABF96775B0927B2980E559
311
5E6042709EBD91F248C8B1A8DF691A958CAEAB12BB9512C15D5D94B4C0FAA7E2D0BDB435EEAAE7332ECB3EC787A26B31796DCF7DD59575D596348DCB8C3A6FC39FF72321A7478EDFA32F4D378AD10F63A65D10420964F4F4052CA36924FE845E17F18FD04AFB22DF0F6E1B0E1809811E44308E0D86F1A837CCD836FB06504B
311
0102140014000608080073717457B9DAFD71D9000000200100004F000000000000000000000000000000000043464446354333332D354442362D343331462D393532432D4646353339353837333533422F4173736574446174612F446566696E6974696F6E4974657261746F7250726F706572746965732E62696E504B0102
311
1400140006080800737174570084458EEC0000003002000045000000000000000000000000004601000043464446354333332D354442362D343331462D393532432D4646353339353837333533422F4173736574446174612F496E7374616E636550726F706572746965732E62696E504B0102140014000608080073717457
311
28BB58AF800100009E0500003D000000000000000000000000009502000043464446354333332D354442362D343331462D393532432D4646353339353837333533422F536368656D61732F436F6D6D6F6E536368656D612E786D6C504B01021400140006080800737174572CCEBD668A040000E01200003E00000000000000
311
0000000000007004000043464446354333332D354442362D343331462D393532432D4646353339353837333533422F536368656D61732F47656E65726963536368656D612E786D6C504B01021400140006080800737174576180134D5F0100006B03000045000000000000000000000000005609000043464446354333332D
311
354442362D343331462D393532432D4646353339353837333533422F536368656D61732F52656E6465724D6174657269616C536368656D612E786D6C504B0102140014000608080073717457BD702EEC51000000570000004700000000000000000000000000180B000043464446354333332D354442362D343331462D3935
311
32432D4646353339353837333533422F4173736574446174612F41737365745461626C654F66436F6E74656E74732E62696E504B0102140014000608080073717457F865834058000000680000004500000000000000000000000000CE0B000043464446354333332D354442362D343331462D393532432D46463533393538
311
37333533422F4173736574446174612F53747265616D56657273696F6E5461626C652E696E66504B01021400140006080800737174571AE8776E340100009A0400003600000000000000000000000000890C000043464446354333332D354442362D343331462D393532432D4646353339353837333533422F417373657444
311
6174612F636E782E786D6C504B01021400140006080800737174577559194C070100004F0300003400000000000000000000000000110E000043464446354333332D354442362D343331462D393532432D4646353339353837333533422F536368656D61732F636E782E786D6C504B0102140014000608080073717457410A
311
3D5871000000A40000002C000000000000000000000000006A0F000043464446354333332D354442362D343331462D393532432D4646353339353837333533422F636E782E786D6C504B010214001400060808007371745713D6B94B7E000000A3000000070000000000000000000000000025100000636E782E786D6C504B
311
010214001400060808007371745716E99B5DA6000000350100001300000000000000000000000000C81000005B436F6E74656E745F54797065735D2E786D6C504B01021400140006080800737174573DEE336E64000000790000001B000000000000000000000000009F1100006175746F6465736B2D64657369676E2D7061
311
636B6167652E786D6C504B010214001400060808007371745784B34081F90000009601000037000000000000000000000000003C12000043464446354333332D354442362D343331462D393532432D4646353339353837333533422F4173736574446174612F636F72652E786D6C504B010214001400060808007371745712
311
49FF61F80000009401000035000000000000000000000000008A13000043464446354333332D354442362D343331462D393532432D4646353339353837333533422F536368656D61732F636F72652E786D6C504B01021400140006080800737174570A61CC4201010000D70100002D00000000000000000000000000D51400
311
0043464446354333332D354442362D343331462D393532432D4646353339353837333533422F636F72652E786D6C504B0102140014000608080073717457159FF1CB08010000B2010000080000000000000000000000000021160000636F72652E786D6C504B050600000000110011005A0600004F1700000000
310
504B030414000608080073717457000000000000000000000000370000006662782F32393637323642462D433445352D344345342D383331432D3646333830413845423337342F617474726962757465732E62696E504B030414000608080073717457000000000000000000000000350000006662782F3239363732364246
310
2D433445352D344345342D383331432D3646333830413845423337342F76657274696365732E62696E504B030414000608080073717457F270F1330600000004000000360000006662782F32393637323642462D433445352D344345342D383331432D3646333830413845423337342F747269616E676C65732E62696E6366
310
60600000504B03041400060808007371745751464CB48900000043010000360000006662782F32393637323642462D433445352D344345342D383331432D3646333830413845423337342F6469726563746F72792E786D6C9D8F310EC2300C45AF127987122606C71DD918B841D4B851A43646695A717C52A85029031293A5
310
A76FBF6FACEF7DA7264E43906840EF0FA03836E242F406C6DCEE4EA06AC22492573150D1F66C60C640E8938CB705396EEDD86DE9B5042FE27813D640EA63BB001C722AF6E55CB61E4863F58284D5D3F53DD715CE1C3985E63FD7F1B7EBDD617E9F1E504B030414000608080073717457975DC07E3D070000201C0000340000
310
006662782F32393637323642462D433445352D344345342D383331432D3646333830413845423337342F6F626A656374732E786D6CDD59596FDB3810FE2B84F665F74197AFD885E322B6E3C228D2160DBAD837819669871BEA002525CEFEFA1D52A42C2AB2ADF400169B00B14391C3996FEED1F4FD2162E889F08C26F1B5E5
310
3B9E85481C265B1AEFAFAD22DFD9630BBD9FA1294F92BCB6CF42318EC8B52596ADD974CF9322554B5BB2C3056BAEAEE67FA12C2431B150C870965D5B59F84022ECE0224FB6247B74B638C7CE7E77707CA7DC6892DD739C3E34AE4A3127710EACC27A0C541407BEF92F88E4CEA6AED8606CEB77DBD63BB3CD95829B8CD238CB
310
711CBEE2AA715DEF04578DEBFAFE6079DB1B4EECE160D0B707A39E6FCF57F3A5ED5FF5BDC568B198DCDC4E2C349B6E9284550A4849BC052DBE58337FEA8A2795F80A8536BEC3248E49A8D06CDBB0258A2E2559131303585F8A565348296B6DA1DF51F813DB3A8162B064A0AD85D39F75EB4D367F030859172BE51911569EE5
310
1C74ADB02FFDC19BBAE5AAA1179AA108E78453CC10A31B8E392808B6960A32C8086F11A490C04C6A51D3ABF30A867DD997DAB8DC158C09FFB566D2D302F04792679233FA0FE147EEEBB7014F206D41E37CAC84CD5F52203199BA72B17CD6EFA987259068C7F01EAC05C4149BFABD065E0B110BD64B6BF671B539DC8BF8D07E
310
79CA9394F05C589E7466E5775A8335D302E3EB004A89ABA9BB232A5F01FA4F807CC50B9A82E6383D0C0E032D3BC771B64B7804DA411EB23DF8E321F1F5D5B7A95B1D9E2164C4CA539882DBFE244C0D318CBB6B90CEA64F60F409EF2BE1EE43CCC0A6EF682CFC1C0C05B1049620DEEF36076BB686600A8B700A33901E7EA7AE
310
F88AE0A3A403F1A6A1A1B6F0DB4151DA619A7E76D4D507B0194EC34A55868CA7F01DFE147C6F96F71FEF0BBEC321B9538EBD243B1AD31C92693B4306E886CB7F5B7F921EF981251BCC8EA78D4D215CB34F44DC6851CBBD520B927A014E441A2E352357EE28783B6338264991A9F5B63815262CE1C1E625285DB8F5AE3FB50D
310
94972903688D6590DC434E5381893553DAAA02A15313142C0C736581FB52ABC1A688D2004749118B50FBDA149B7C409C1196085425356DD8DA6B35D92DDDED8A0C82572BC98501A4F2674DB8B4F001C4B1367E39D9710C493489030A39189CA5F506E3820ABCF33C6784ED02CA5811053BCA208F04114E4FD0EF28413D733D
310
9297E7846F5B099A96A57D52DB90005C01AB41D2D9AA8CF94AA79C3C515166CA7CA6B381B143D5A1D66C70225D884CD102A836C63220F59693C164D2B747C3B16F0FAEFA637BBC180CEDD17CEC7937CBD570E22D9B7CEA6855CF77A04A51E618FE973F14D126C694C1032136DEA6EFDECBEC79ED426874C7ABABAB51FFA667
310
7BABE5DC1ECC87B7F6FCF6D6B3C7AB797FE58D17DE7CB97039C992828724737BAE1768934CE3FD29AE3477AF6328943597939DD6575398FF710C6DE6044389FFD5205AC5AE9682B06B1015479B2114878F22450521547DADEED308A24D3EDAE2DC1BE3B2E7F43DF9E3FB939E37E98D27A3CAD8CF066A79CF0FC7B9360942E8
310
3B8B3C48521CD2BC3DA13670E918A7DF945B9CBE3F44804EF5B7BAE47C9E51970434C27B12ECB0E8125A02E325095A73D89E2559466392C92EEF55F5D7A0E939504C9939B7C50869164424C7DF637FB26D68D834C46616403F9A8B89C0C5AAA03268D5819CA228BA5F48DC52FE9720C351CACA4EF712067E4F43A07B9C368B
310
134C8B2B9EC0DE029C07DE96C8C1C525EA15FBBA3E68D55A93FAE4BBC99F8047D735BF101E7D45F7D2C919FA13F13386A0321AFAFD2BAD884B58E9AB72D1C7B1023ACFF025782674FFD0A9D0ECA6935AC95616D53989A08DC579C13BF9EB68E8BDBA48C5858643D46E7A637128FB37DDC1017AB2813B55DED6AE813A94C630
310
E7EA24C82B295A4D58EA42CEF4C4E8EA0D7E7D56D975AA3F1C2F7F79C55C77BE480E7F2EE300D572198055F4316AEAD6AADBA887B2679C871048EFE5A73D078FD892EDB13133C8B595E8BA3EBD543DAF45408D60628B459CBD135FD8570CAA86EE39733F94459B5BAEAF45627360387DE4C360DAA4F5F9C37D830AAC743EFD
310
4560449E1B14D4EA4274C367487D5B1F7BFE060525D1B7F599E3FF898E422BB0364683697096300A4379B2457B9240F686B143876E8347249359198C570529FD46A0C3E9A772A69AE30DD3A7C3070C8369A67AB12284A12864CC6B4BADA3DF600C2A26917238E53C421BA66298850A4EAF2DB0D89C42B7E56C609C25878792
310
7A635C098E8DE3BDC8F7E5A9EAFFE331810E44A5A35CD59E2EB828C90C6782C23695EF09A0EA2B1FCCA6DF2FBA6607E11CBE6E8ABC12E6B870944681A05F0894C2C1D4EF51C17B8082E2BC5CBE23F71890749ACC9FB58392AA9D63BE97E3F51ADE37CB2FAE988CAF3FA394157BA1CE73DDAF41C9165D372BCA29D4140C4389
310
996251432EDEB95F7802AF9822B4A26004E8F7C378F487BB48A22889CB25F746BDA842F70FF0DA69EBEA911FB4F19E3F74E514408DF5830DCE8883B7D9232C806A3915B3D11262C300AA685A3300AD11A10B3866EC5F2F91AA8D6A13927AD815F0C8993E024712EF7284DBD437D40690E00BC0957C78FCA217A62E8721F8EC
310
5F504B030414000608080073717457952129F53D01000046050000300000006662782F32393637323642462D433445352D344345342D383331432D3646333830413845423337342F636E782E786D6CCD94C14E032110865F8570DF65693D340D4B130F3E8107E38D65A72B7617363018FBF642A555636A3C34696F64F827F9
310
BF993F2336EFD348DEC007E36C4B79DD500256BBDED8A1A511B7D58A928D14DE39FC26A3C4AA095A9ACB548AC1BB3897520F5B15C75C1D8DDD95A242F4A68B0881123DAA105A1AF40B4CAA56115D0F6157F70A55CD6B0FC145AF21F5A399A0F46B0F0AA1A772D12C9615E7D5A279E4776BCED7CBD5B360592945E7DC58F4C6
310
22783713EDD2C326338D60F95B8AE84DD164022ABF9CD59DB182A57F2942726B87A2C3FD9C75F33C1AAD308D89398D805512819A04FB144BC132EF0FEA87FBA7A303D21B0F1A9DDF5F6900FCDC004EC6EA9484FFF11F847F63BBEE35E15E6BDB67618BAD8BA11ED31A525C7FEF3FA548D961BCBDD09F8C5D3EF3E994A0D1B7
310
877CF475216276387969E9F902CA0F504B030414000608080073717457921537487F000000A30000000B0000006662782F636E782E786D6C4D8CD10E822018465F85FDF7940A216D824B86EFE1121D0BA191B41E3F685E74F56D67DF395DFFD91C7A9BF8B2C10BA84F1520E3EF61B67E1590F6057340BDEC6208FBDF0D909F
310
3623A06090DD1A437A1E6836CB945CA1CEFAC7019B2B6B1B368C58517DC154698A39A9156623E1D58DEB81B4341BE7A2E4F9F5F296BCFC02504B030414000608080073717457A6D797065F0000008200000007000000636E782E786D6C4DCB3B0E80201045D1AD90E9FD7516806B51190811670C8A61F982B1B0BAC9C97B72
310
CA7B1037C6D3332918DA1E04D2CAC69353902EDB8C20262D23F3F59B81A079470595414B17391D1F19B4730A5583A7ED43BBE4025D9592775E5ADFFA01504B0304140006080800737174574FEB6A7CA0000000F4000000130000005B436F6E74656E745F54797065735D2E786D6C7D8F4B0EC2300C44AF1279DFA6B0400835
310
ED02B8011730C16D239A8F121795DB93D02D6269CFBC19BBED573B8B17C564BC53B0AB1B10E4B47F18372A5878A88E20FAAEBDBD032591BD2E299898C349CAA427B2986A1FC86565F0D122E7318E32A07EE24872DF3407A9BD63725C71C980AEBDD080CBCCE2BAE6F5D69B7110E7CD57AA146008B3D1C8F92C5954F993BB1B
310
F787F39A89ABC491D09600F9FDA2FB00504B0304140006080800737174573DEE336E64000000790000001B0000006175746F6465736B2D64657369676E2D7061636B6167652E786D6C35CBC10E83200C00D05F21DCA56CA76D41FC96062B120735B69A7DBE268BB7777961F8D5AF396893C2ADB70FE7ADA196782C2DF776D7
310
A97B5933C430F15651E5469C55D70F80A4992A3ADC954792C525AE70A1E4D6AD9816CC044FEFDF01FE3FDE907802504B03041400060808007371745731FC1AA8F8000000960100003B0000006662782F32393637323642462D433445352D344345342D383331432D3646333830413845423337342F7265736F75726365732F
310
636F72652E786D6C8550CB6E833010FC15B4770336D092C838828A3FE8A937CB6C122BC1467E54FDFCDA0995DA534FBB9A9D99DD1D7EFA5AEFC5273AAFAD198096351468945DB4B90C10C399F4509C0477D6865F34288C5C71800C83E01767E3B643CA9A8026A3C62EB883D27B0C50A87B6A06F0EA8AAB2C650C89E16FE526
310
D54D5EB0A4E59327788C7AD9A57A496EFAACD18118FBD7C33C1D18796BE799B40D1BC9D47594BC74749C5AD6D28936BCCA62C1835E7FB62B8732E00282D5AC21941256BFD3F648E9B1E93F78959982FBE0D2CFFBD2FC1D0887DE46A7D0F3EA39FDE31AB7E57FD7A84D68D8EEFA547810341DF918085EE594527944986A4E54
310
7C03504B030414000608080073717457CDD8D0B3F2000000B1010000310000006662782F32393637323642462D433445352D344345342D383331432D3646333830413845423337342F636F72652E786D6C8D50CB6EC32010FC158B3BB631AEE34698A8B19C2FE8A937041B1725068B47D5CF2FC4AED4DE725A343BC3CC0E3B
310
7D2FF7E20B9CD7D60C8894352AC048ABB4990714C315F7A83871E6AC0D7F68A830628101651871363B1BD71D92D60430193556C10E0AEF21A042DED363405E7EC2224A114362F85BB90A79133394A4DC789C05BDFC4AA503114021DED40DC584E0A67E27ED919023ED3F5895999CC5A8D56EA55572D7570D2E495EBB43D39D
310
2F786CA717DC8E538B7B4A46DC5D685FBFF5D3991E5A566531673EB874F3FE49BEEE59F926FC9739AEEA89CCDA04DAEC869BC2234E529EC782B32A1798C6A3DD3473D9FC07504B0304140006080800737174577D0E730553010000DD0200000C0000006662782F636F72652E786D6C8D525D6F832014FD2B867754D06E6D83
310
3475E93FD8D3DE28524BAA60104C7FFEC08F381FD62D2648CEBDF79C7B4E20A767DB448330BDD4AA00284E412414D7955475019CBDC13D884E9418ADED8F361029D68A02041850521BEDBA19E25A59A102AA74256690F5BDB020E28DBF14A0E777D1B29839EB3BFA47DC31FE60B588513CF551E29CACE6515979367993C200
310
7ADEBF1F2EE501C38FFC72817986CFB0DCED107CDBA17399E31C9528234918A6C4CA7651E746302B2A40718A338810C4E927CA8F081DB3FD1749422725BD35DEF32C1ADC017ABB3E4932E11B3ED7557FF339A96C8667BE69A20714F9F5C6022549C8C7FFC6F0B6197A619F9F65D766B1F0F0D020B8D526F7954ABBB534B0C6
310
094F9D46E34792A9EA994782DF78F00B9ED71C3E28A66ABF1AB3FE7A7536A86F77EA8481837D464A9B9635EB72D38AEBB90A6D2C2DE35C37DAFC677AB1BA8499848749BF01504B030414000608080073717457D012017206010000B201000008000000636F72652E786D6C8D50C16E842014FC15F2EEA8A0B6EE06D968E31F
310
F4D41B15D6925530029BF6EF0BAB4DDA5B4F8FCCCC7B330CBB7C2E33BAABCD696B5A2059014899D14A6DA61682BFE206D085B3CD5AFF4B06C88845B59060E06CDA6C580F68B4C62B935063A53A40E19CF280C6393E5A70E3875A4426828F0A77CB5631DEC4A43292ED3ACEBC5E7E56C74D09AF24705AD012138269F14AAA33
310
21E7B27963795272168296879596D15D5FB5DA8077CDF369E84F14BF54C380AB9276B8AF6B829F6AD2F515AD484F4A96A765CE9CDFE29F8F2331A7474EDC932FCB778AB3776BE74310434964CDFC05BC607922FE840EABFC47686D7C498F83FB86034E62A007118D5383713CEA8D33B5CDBF01504B01021400140006080800
310
737174570000000000000000000000003700000000000000000000000000000000006662782F32393637323642462D433445352D344345342D383331432D3646333830413845423337342F617474726962757465732E62696E504B010214001400060808007371745700000000000000000000000035000000000000000000
310
00000000550000006662782F32393637323642462D433445352D344345342D383331432D3646333830413845423337342F76657274696365732E62696E504B0102140014000608080073717457F270F13306000000040000003600000000000000000000000000A80000006662782F32393637323642462D433445352D3443
310
45342D383331432D3646333830413845423337342F747269616E676C65732E62696E504B010214001400060808007371745751464CB489000000430100003600000000000000000000000000020100006662782F32393637323642462D433445352D344345342D383331432D3646333830413845423337342F646972656374
310
6F72792E786D6C504B0102140014000608080073717457975DC07E3D070000201C00003400000000000000000000000000DF0100006662782F32393637323642462D433445352D344345342D383331432D3646333830413845423337342F6F626A656374732E786D6C504B0102140014000608080073717457952129F53D01
310
00004605000030000000000000000000000000006E0900006662782F32393637323642462D433445352D344345342D383331432D3646333830413845423337342F636E782E786D6C504B0102140014000608080073717457921537487F000000A30000000B00000000000000000000000000F90A00006662782F636E782E78
310
6D6C504B0102140014000608080073717457A6D797065F000000820000000700000000000000000000000000A10B0000636E782E786D6C504B01021400140006080800737174574FEB6A7CA0000000F40000001300000000000000000000000000250C00005B436F6E74656E745F54797065735D2E786D6C504B0102140014
310
0006080800737174573DEE336E64000000790000001B00000000000000000000000000F60C00006175746F6465736B2D64657369676E2D7061636B6167652E786D6C504B010214001400060808007371745731FC1AA8F8000000960100003B00000000000000000000000000930D00006662782F32393637323642462D4334
310
45352D344345342D383331432D3646333830413845423337342F7265736F75726365732F636F72652E786D6C504B0102140014000608080073717457CDD8D0B3F2000000B10100003100000000000000000000000000E40E00006662782F32393637323642462D433445352D344345342D383331432D364633383041384542
310
3337342F636F72652E786D6C504B01021400140006080800737174577D0E730553010000DD0200000C00000000000000000000000000251000006662782F636F72652E786D6C504B0102140014000608080073717457D012017206010000B20100000800000000000000000000000000A2110000636F72652E786D6C504B05
310
06000000000E000E0080040000CE1200000000
  0
XRECORD
  5
8391
102
{ACAD_REACTORS
330
838C
102
}
330
838C
100
AcDbXrecord
280
     1
270
     1
271
     1
  0
XRECORD
  5
8390
102
{ACAD_REACTORS
330
838C
102
}
330
838C
100
AcDbXrecord
280
     1
270
     1
271
     1
  0
XRECORD
  5
8392
102
{ACAD_REACTORS
330
838C
102
}
330
838C
100
AcDbXrecord
280
     1
270
     1
271
     1
  0
XRECORD
  5
838F
102
{ACAD_REACTORS
330
838C
102
}
330
838C
100
AcDbXrecord
280
     1
270
     1
271
     1
  0
XRECORD
  5
8588
102
{ACAD_REACTORS
330
8587
102
}
330
8587
100
AcDbXrecord
280
     1
102
DISPLAYNAME
  1
Imperial24
102
FLAGS
 90
        0
  0
CELLSTYLEMAP
  5
854F
102
{ACAD_REACTORS
330
854E
102
}
330
854E
100
AcDbCellStyleMap
 90
        3
300
CELLSTYLE
  1
TABLEFORMAT_BEGIN
 90
        5
170
     1
 91
        0
 92
    32768
 62
   257
 93
        1
300
CONTENTFORMAT
  1
CONTENTFORMAT_BEGIN
 90
        0
 91
        0
 92
      512
 93
        0
300

 40
0.0
140
1.0
 94
        5
 62
     0
340
83BF
144
0.25
309
CONTENTFORMAT_END
171
     0
 94
        0
309
TABLEFORMAT_END
  1
CELLSTYLE_BEGIN
 90
        1
 91
        1
300
_TITLE
309
CELLSTYLE_END
300
CELLSTYLE
  1
TABLEFORMAT_BEGIN
 90
        5
170
     1
 91
        0
 92
        0
 62
   257
 93
        1
300
CONTENTFORMAT
  1
CONTENTFORMAT_BEGIN
 90
        0
 91
        0
 92
      512
 93
        0
300

 40
0.0
140
1.0
 94
        5
 62
     0
340
83BF
144
0.18
309
CONTENTFORMAT_END
171
     0
 94
        0
309
TABLEFORMAT_END
  1
CELLSTYLE_BEGIN
 90
        2
 91
        1
300
_HEADER
309
CELLSTYLE_END
300
CELLSTYLE
  1
TABLEFORMAT_BEGIN
 90
        5
170
     1
 91
        0
 92
        0
 62
   257
 93
        1
300
CONTENTFORMAT
  1
CONTENTFORMAT_BEGIN
 90
        0
 91
        0
 92
      512
 93
        0
300

 40
0.0
140
1.0
 94
        2
 62
     0
340
83BF
144
0.18
309
CONTENTFORMAT_END
171
     0
 94
        0
309
TABLEFORMAT_END
  1
CELLSTYLE_BEGIN
 90
        3
 91
        2
300
_DATA
309
CELLSTYLE_END
  0
XRECORD
  5
8585
102
{ACAD_REACTORS
330
854E
102
}
330
854E
100
AcDbXrecord
280
     1
102
ACAD_ROUNDTRIP_PRE2007_TABLESTYLE
 90
      512
 91
        0
  1

 92
      512
 93
        0
  2

 94
      512
 95
        0
  3

  0
XRECORD
  5
8560
102
{ACAD_REACTORS
330
855F
102
}
330
855F
100
AcDbXrecord
280
     1
102
RTVSPost2010Prop28
280
     1
102
RTVSPost2010PropOp28
 70
     1
102
RTVSPost2010Prop29
280
     1
102
RTVSPost2010PropOp29
 70
     1
102
RTVSPost2010Prop30
280
     0
102
RTVSPost2010PropOp30
 70
     1
102
RTVSPost2010Prop31
280
     0
102
RTVSPost2010PropOp31
 70
     1
102
RTVSPost2010Prop32
280
     0
102
RTVSPost2010PropOp32
 70
     1
102
RTVSPost2010Prop33
280
     0
102
RTVSPost2010PropOp33
 70
     1
102
RTVSPost2010Prop34
280
     0
102
RTVSPost2010PropOp34
 70
     1
102
RTVSPost2010Prop35
280
     0
102
RTVSPost2010PropOp35
 70
     1
102
RTVSPost2010Prop36
280
     0
102
RTVSPost2010PropOp36
 70
     1
102
RTVSPost2010Prop37
 90
       50
102
RTVSPost2010PropOp37
 70
     1
102
RTVSPost2010Prop38
140
0.0
102
RTVSPost2010PropOp38
 70
     1
102
RTVSPost2010Prop39
140
1.0
102
RTVSPost2010PropOp39
 70
     1
102
RTVSPost2010Prop40
 90
        0
102
RTVSPost2010PropOp40
 70
     1
102
RTVSPost2010Prop41ColorIndex
 90
       18
102
RTVSPost2010Prop41ColorRGB
 90
        0
102
RTVSPost2010PropOp41
 70
     1
102
RTVSPost2010Prop42
 90
       50
102
RTVSPost2010PropOp42
 70
     1
102
RTVSPost2010Prop43
 90
        3
102
RTVSPost2010PropOp43
 70
     1
102
RTVSPost2010Prop44ColorIndex
 90
        5
102
RTVSPost2010Prop44ColorRGB
 90
      255
102
RTVSPost2010PropOp44
 70
     1
102
RTVSPost2010Prop45
280
     0
102
RTVSPost2010PropOp45
 70
     1
102
RTVSPost2010Prop46
 90
       50
102
RTVSPost2010PropOp46
 70
     1
102
RTVSPost2010Prop47
 90
       50
102
RTVSPost2010PropOp47
 70
     1
102
RTVSPost2010Prop48
 90
       50
102
RTVSPost2010PropOp48
 70
     1
102
RTVSPost2010Prop49
280
     0
102
RTVSPost2010PropOp49
 70
     1
102
RTVSPost2010Prop50
 90
       50
102
RTVSPost2010PropOp50
 70
     1
102
RTVSPost2010Prop51ColorIndex
 90
      256
102
RTVSPost2010Prop51ColorRGB
 90
-16777216
102
RTVSPost2010PropOp51
 70
     0
102
RTVSPost2010Prop52
140
1.0
102
RTVSPost2010PropOp52
 70
     0
102
RTVSPost2010Prop53
 90
        2
102
RTVSPost2010PropOp53
 70
     1
102
RTVSPost2010Prop54
  1
strokes_ogs.tif
102
RTVSPost2010PropOp54
 70
     1
102
RTVSPost2010Prop55
280
     0
102
RTVSPost2010PropOp55
 70
     1
102
RTVSPost2010Prop56
140
1.0
102
RTVSPost2010PropOp56
 70
     1
102
RTVSPost2010Prop57
140
1.0
102
RTVSPost2010PropOp57
 70
     1
102
RTVSPropertyOp0
 70
     1
102
RTVSPropertyOp1
 70
     1
102
RTVSPropertyOp2
 70
     1
102
RTVSPropertyOp3
 70
     1
102
RTVSPropertyOp4
 70
     1
102
RTVSPropertyOp5
 70
     1
102
RTVSPropertyOp6
 70
     1
102
RTVSPropertyOp7
 70
     1
102
RTVSPropertyOp8
 70
     1
102
RTVSPropertyOp9
 70
     1
102
RTVSPropertyOp10
 70
     1
102
RTVSPropertyOp11
 70
     1
102
RTVSPropertyOp12
 70
     1
102
RTVSPropertyOp13
 70
     1
102
RTVSPropertyOp14
 70
     1
102
RTVSPropertyOp15
 70
     1
102
RTVSPropertyOp16
 70
     1
102
RTVSPropertyOp17
 70
     1
102
RTVSPropertyOp18
 70
     1
102
RTVSPropertyOp19
 70
     1
102
RTVSPropertyOp20
 70
     1
102
RTVSPropertyOp21
 70
     1
102
RTVSPropertyOp22
 70
     1
102
RTVSPropertyOp23
 70
     1
102
RTVSPropertyOp24
 70
     1
102
RTVSPropertyOp25
 70
     1
102
RTVSPropertyOp26
 70
     1
102
RTVSPropertyOp27
 70
     1
102
RTVSPropertyOp28
 70
     1
102
RTVSPropertyOp29
 70
     1
102
RTVSPropertyOp30
 70
     1
102
RTVSPropertyOp31
 70
     1
102
RTVSPropertyOp32
 70
     1
102
RTVSPropertyOp33
 70
     1
102
RTVSPropertyOp34
 70
     1
102
RTVSPropertyOp35
 70
     1
102
RTVSPropertyOp36
 70
     1
102
RTVSPropertyOp37
 70
     1
102
RTVSPropertyOp38
 70
     1
102
RTVSPropertyOp39
 70
     1
102
RTVSPropertyOp40
 70
     1
102
RTVSPropertyOp41
 70
     1
102
RTVSPropertyOp42
 70
     1
102
RTVSPropertyOp43
 70
     1
102
RTVSPropertyOp44
 70
     1
102
RTVSPropertyOp45
 70
     1
102
RTVSPropertyOp46
 70
     1
102
RTVSPropertyOp47
 70
     1
102
RTVSPropertyOp48
 70
     1
102
RTVSPropertyOp49
 70
     1
102
RTVSPropertyOp50
 70
     1
102
RTVSPropertyOp51
 70
     0
102
RTVSPropertyOp52
 70
     0
102
RTVSPropertyOp53
 70
     1
102
RTVSPropertyOp54
 70
     1
102
RTVSPropertyOp55
 70
     1
102
RTVSPropertyOp56
 70
     1
102
RTVSPropertyOp57
 70
     1
102
RTVSPropertyOp58
 70
     1
102
RTVSPropertyOp59
 70
     1
102
RTVSPropertyOp60
 70
     1
102
RTVSPropertyOp61
 70
     1
102
RTVSPropertyOp62
 70
     1
  0
XRECORD
  5
855E
102
{ACAD_REACTORS
330
855D
102
}
330
855D
100
AcDbXrecord
280
     1
102
RTVSPost2010Prop28
280
     0
102
RTVSPost2010PropOp28
 70
     1
102
RTVSPost2010Prop29
280
     1
102
RTVSPost2010PropOp29
 70
     1
102
RTVSPost2010Prop30
280
     1
102
RTVSPost2010PropOp30
 70
     1
102
RTVSPost2010Prop31
280
     0
102
RTVSPost2010PropOp31
 70
     1
102
RTVSPost2010Prop32
280
     0
102
RTVSPost2010PropOp32
 70
     1
102
RTVSPost2010Prop33
280
     0
102
RTVSPost2010PropOp33
 70
     1
102
RTVSPost2010Prop34
280
     0
102
RTVSPost2010PropOp34
 70
     1
102
RTVSPost2010Prop35
280
     0
102
RTVSPost2010PropOp35
 70
     1
102
RTVSPost2010Prop36
280
     0
102
RTVSPost2010PropOp36
 70
     1
102
RTVSPost2010Prop37
 90
       50
102
RTVSPost2010PropOp37
 70
     1
102
RTVSPost2010Prop38
140
0.0
102
RTVSPost2010PropOp38
 70
     1
102
RTVSPost2010Prop39
140
1.0
102
RTVSPost2010PropOp39
 70
     1
102
RTVSPost2010Prop40
 90
        0
102
RTVSPost2010PropOp40
 70
     1
102
RTVSPost2010Prop41ColorIndex
 90
       18
102
RTVSPost2010Prop41ColorRGB
 90
        0
102
RTVSPost2010PropOp41
 70
     1
102
RTVSPost2010Prop42
 90
       50
102
RTVSPost2010PropOp42
 70
     1
102
RTVSPost2010Prop43
 90
        3
102
RTVSPost2010PropOp43
 70
     1
102
RTVSPost2010Prop44ColorIndex
 90
        5
102
RTVSPost2010Prop44ColorRGB
 90
      255
102
RTVSPost2010PropOp44
 70
     1
102
RTVSPost2010Prop45
280
     0
102
RTVSPost2010PropOp45
 70
     1
102
RTVSPost2010Prop46
 90
       50
102
RTVSPost2010PropOp46
 70
     1
102
RTVSPost2010Prop47
 90
       50
102
RTVSPost2010PropOp47
 70
     1
102
RTVSPost2010Prop48
 90
       50
102
RTVSPost2010PropOp48
 70
     1
102
RTVSPost2010Prop49
280
     0
102
RTVSPost2010PropOp49
 70
     1
102
RTVSPost2010Prop50
 90
       50
102
RTVSPost2010PropOp50
 70
     1
102
RTVSPost2010Prop51ColorIndex
 90
      256
102
RTVSPost2010Prop51ColorRGB
 90
-16777216
102
RTVSPost2010PropOp51
 70
     0
102
RTVSPost2010Prop52
140
1.0
102
RTVSPost2010PropOp52
 70
     0
102
RTVSPost2010Prop53
 90
        2
102
RTVSPost2010PropOp53
 70
     1
102
RTVSPost2010Prop54
  1
strokes_ogs.tif
102
RTVSPost2010PropOp54
 70
     1
102
RTVSPost2010Prop55
280
     0
102
RTVSPost2010PropOp55
 70
     1
102
RTVSPost2010Prop56
140
1.0
102
RTVSPost2010PropOp56
 70
     1
102
RTVSPost2010Prop57
140
1.0
102
RTVSPost2010PropOp57
 70
     1
102
RTVSPropertyOp0
 70
     1
102
RTVSPropertyOp1
 70
     1
102
RTVSPropertyOp2
 70
     1
102
RTVSPropertyOp3
 70
     1
102
RTVSPropertyOp4
 70
     1
102
RTVSPropertyOp5
 70
     1
102
RTVSPropertyOp6
 70
     1
102
RTVSPropertyOp7
 70
     1
102
RTVSPropertyOp8
 70
     1
102
RTVSPropertyOp9
 70
     1
102
RTVSPropertyOp10
 70
     1
102
RTVSPropertyOp11
 70
     1
102
RTVSPropertyOp12
 70
     1
102
RTVSPropertyOp13
 70
     1
102
RTVSPropertyOp14
 70
     1
102
RTVSPropertyOp15
 70
     1
102
RTVSPropertyOp16
 70
     1
102
RTVSPropertyOp17
 70
     1
102
RTVSPropertyOp18
 70
     1
102
RTVSPropertyOp19
 70
     1
102
RTVSPropertyOp20
 70
     1
102
RTVSPropertyOp21
 70
     1
102
RTVSPropertyOp22
 70
     1
102
RTVSPropertyOp23
 70
     1
102
RTVSPropertyOp24
 70
     1
102
RTVSPropertyOp25
 70
     1
102
RTVSPropertyOp26
 70
     1
102
RTVSPropertyOp27
 70
     1
102
RTVSPropertyOp28
 70
     1
102
RTVSPropertyOp29
 70
     1
102
RTVSPropertyOp30
 70
     1
102
RTVSPropertyOp31
 70
     1
102
RTVSPropertyOp32
 70
     1
102
RTVSPropertyOp33
 70
     1
102
RTVSPropertyOp34
 70
     1
102
RTVSPropertyOp35
 70
     1
102
RTVSPropertyOp36
 70
     1
102
RTVSPropertyOp37
 70
     1
102
RTVSPropertyOp38
 70
     1
102
RTVSPropertyOp39
 70
     1
102
RTVSPropertyOp40
 70
     1
102
RTVSPropertyOp41
 70
     1
102
RTVSPropertyOp42
 70
     1
102
RTVSPropertyOp43
 70
     1
102
RTVSPropertyOp44
 70
     1
102
RTVSPropertyOp45
 70
     1
102
RTVSPropertyOp46
 70
     1
102
RTVSPropertyOp47
 70
     1
102
RTVSPropertyOp48
 70
     1
102
RTVSPropertyOp49
 70
     1
102
RTVSPropertyOp50
 70
     1
102
RTVSPropertyOp51
 70
     0
102
RTVSPropertyOp52
 70
     0
102
RTVSPropertyOp53
 70
     1
102
RTVSPropertyOp54
 70
     1
102
RTVSPropertyOp55
 70
     1
102
RTVSPropertyOp56
 70
     1
102
RTVSPropertyOp57
 70
     1
102
RTVSPropertyOp58
 70
     1
102
RTVSPropertyOp59
 70
     1
102
RTVSPropertyOp60
 70
     1
102
RTVSPropertyOp61
 70
     1
102
RTVSPropertyOp62
 70
     1
  0
XRECORD
  5
856C
102
{ACAD_REACTORS
330
856B
102
}
330
856B
100
AcDbXrecord
280
     1
102
RTVSPost2010Prop28
280
     0
102
RTVSPost2010PropOp28
 70
     1
102
RTVSPost2010Prop29
280
     1
102
RTVSPost2010PropOp29
 70
     1
102
RTVSPost2010Prop30
280
     1
102
RTVSPost2010PropOp30
 70
     1
102
RTVSPost2010Prop31
280
     0
102
RTVSPost2010PropOp31
 70
     1
102
RTVSPost2010Prop32
280
     0
102
RTVSPost2010PropOp32
 70
     1
102
RTVSPost2010Prop33
280
     0
102
RTVSPost2010PropOp33
 70
     1
102
RTVSPost2010Prop34
280
     0
102
RTVSPost2010PropOp34
 70
     1
102
RTVSPost2010Prop35
280
     0
102
RTVSPost2010PropOp35
 70
     1
102
RTVSPost2010Prop36
280
     0
102
RTVSPost2010PropOp36
 70
     1
102
RTVSPost2010Prop37
 90
       50
102
RTVSPost2010PropOp37
 70
     1
102
RTVSPost2010Prop38
140
0.0
102
RTVSPost2010PropOp38
 70
     1
102
RTVSPost2010Prop39
140
1.0
102
RTVSPost2010PropOp39
 70
     1
102
RTVSPost2010Prop40
 90
        0
102
RTVSPost2010PropOp40
 70
     1
102
RTVSPost2010Prop41ColorIndex
 90
       18
102
RTVSPost2010Prop41ColorRGB
 90
        0
102
RTVSPost2010PropOp41
 70
     1
102
RTVSPost2010Prop42
 90
       50
102
RTVSPost2010PropOp42
 70
     1
102
RTVSPost2010Prop43
 90
        3
102
RTVSPost2010PropOp43
 70
     1
102
RTVSPost2010Prop44ColorIndex
 90
        5
102
RTVSPost2010Prop44ColorRGB
 90
      255
102
RTVSPost2010PropOp44
 70
     1
102
RTVSPost2010Prop45
280
     0
102
RTVSPost2010PropOp45
 70
     1
102
RTVSPost2010Prop46
 90
       50
102
RTVSPost2010PropOp46
 70
     1
102
RTVSPost2010Prop47
 90
       50
102
RTVSPost2010PropOp47
 70
     1
102
RTVSPost2010Prop48
 90
       50
102
RTVSPost2010PropOp48
 70
     1
102
RTVSPost2010Prop49
280
     0
102
RTVSPost2010PropOp49
 70
     1
102
RTVSPost2010Prop50
 90
       50
102
RTVSPost2010PropOp50
 70
     1
102
RTVSPost2010Prop51ColorIndex
 90
      256
102
RTVSPost2010Prop51ColorRGB
 90
-16777216
102
RTVSPost2010PropOp51
 70
     0
102
RTVSPost2010Prop52
140
1.0
102
RTVSPost2010PropOp52
 70
     0
102
RTVSPost2010Prop53
 90
        2
102
RTVSPost2010PropOp53
 70
     1
102
RTVSPost2010Prop54
  1
strokes_ogs.tif
102
RTVSPost2010PropOp54
 70
     1
102
RTVSPost2010Prop55
280
     0
102
RTVSPost2010PropOp55
 70
     1
102
RTVSPost2010Prop56
140
1.0
102
RTVSPost2010PropOp56
 70
     1
102
RTVSPost2010Prop57
140
1.0
102
RTVSPost2010PropOp57
 70
     1
102
RTVSPropertyOp0
 70
     1
102
RTVSPropertyOp1
 70
     1
102
RTVSPropertyOp2
 70
     1
102
RTVSPropertyOp3
 70
     1
102
RTVSPropertyOp4
 70
     1
102
RTVSPropertyOp5
 70
     1
102
RTVSPropertyOp6
 70
     1
102
RTVSPropertyOp7
 70
     1
102
RTVSPropertyOp8
 70
     1
102
RTVSPropertyOp9
 70
     1
102
RTVSPropertyOp10
 70
     1
102
RTVSPropertyOp11
 70
     1
102
RTVSPropertyOp12
 70
     1
102
RTVSPropertyOp13
 70
     1
102
RTVSPropertyOp14
 70
     1
102
RTVSPropertyOp15
 70
     1
102
RTVSPropertyOp16
 70
     1
102
RTVSPropertyOp17
 70
     1
102
RTVSPropertyOp18
 70
     1
102
RTVSPropertyOp19
 70
     1
102
RTVSPropertyOp20
 70
     1
102
RTVSPropertyOp21
 70
     1
102
RTVSPropertyOp22
 70
     1
102
RTVSPropertyOp23
 70
     1
102
RTVSPropertyOp24
 70
     1
102
RTVSPropertyOp25
 70
     1
102
RTVSPropertyOp26
 70
     1
102
RTVSPropertyOp27
 70
     1
102
RTVSPropertyOp28
 70
     1
102
RTVSPropertyOp29
 70
     1
102
RTVSPropertyOp30
 70
     1
102
RTVSPropertyOp31
 70
     1
102
RTVSPropertyOp32
 70
     1
102
RTVSPropertyOp33
 70
     1
102
RTVSPropertyOp34
 70
     1
102
RTVSPropertyOp35
 70
     1
102
RTVSPropertyOp36
 70
     1
102
RTVSPropertyOp37
 70
     1
102
RTVSPropertyOp38
 70
     1
102
RTVSPropertyOp39
 70
     1
102
RTVSPropertyOp40
 70
     1
102
RTVSPropertyOp41
 70
     1
102
RTVSPropertyOp42
 70
     1
102
RTVSPropertyOp43
 70
     1
102
RTVSPropertyOp44
 70
     1
102
RTVSPropertyOp45
 70
     1
102
RTVSPropertyOp46
 70
     1
102
RTVSPropertyOp47
 70
     1
102
RTVSPropertyOp48
 70
     1
102
RTVSPropertyOp49
 70
     1
102
RTVSPropertyOp50
 70
     1
102
RTVSPropertyOp51
 70
     0
102
RTVSPropertyOp52
 70
     0
102
RTVSPropertyOp53
 70
     1
102
RTVSPropertyOp54
 70
     1
102
RTVSPropertyOp55
 70
     1
102
RTVSPropertyOp56
 70
     1
102
RTVSPropertyOp57
 70
     1
102
RTVSPropertyOp58
 70
     1
102
RTVSPropertyOp59
 70
     1
102
RTVSPropertyOp60
 70
     1
102
RTVSPropertyOp61
 70
     1
102
RTVSPropertyOp62
 70
     1
  0
XRECORD
  5
8574
102
{ACAD_REACTORS
330
8573
102
}
330
8573
100
AcDbXrecord
280
     1
102
RTVSPost2010Prop28
280
     0
102
RTVSPost2010PropOp28
 70
     1
102
RTVSPost2010Prop29
280
     1
102
RTVSPost2010PropOp29
 70
     1
102
RTVSPost2010Prop30
280
     1
102
RTVSPost2010PropOp30
 70
     1
102
RTVSPost2010Prop31
280
     0
102
RTVSPost2010PropOp31
 70
     1
102
RTVSPost2010Prop32
280
     0
102
RTVSPost2010PropOp32
 70
     1
102
RTVSPost2010Prop33
280
     0
102
RTVSPost2010PropOp33
 70
     1
102
RTVSPost2010Prop34
280
     0
102
RTVSPost2010PropOp34
 70
     1
102
RTVSPost2010Prop35
280
     0
102
RTVSPost2010PropOp35
 70
     1
102
RTVSPost2010Prop36
280
     0
102
RTVSPost2010PropOp36
 70
     1
102
RTVSPost2010Prop37
 90
       50
102
RTVSPost2010PropOp37
 70
     1
102
RTVSPost2010Prop38
140
0.0
102
RTVSPost2010PropOp38
 70
     1
102
RTVSPost2010Prop39
140
1.0
102
RTVSPost2010PropOp39
 70
     1
102
RTVSPost2010Prop40
 90
        0
102
RTVSPost2010PropOp40
 70
     1
102
RTVSPost2010Prop41ColorIndex
 90
       18
102
RTVSPost2010Prop41ColorRGB
 90
        0
102
RTVSPost2010PropOp41
 70
     1
102
RTVSPost2010Prop42
 90
       50
102
RTVSPost2010PropOp42
 70
     1
102
RTVSPost2010Prop43
 90
        3
102
RTVSPost2010PropOp43
 70
     1
102
RTVSPost2010Prop44ColorIndex
 90
        5
102
RTVSPost2010Prop44ColorRGB
 90
      255
102
RTVSPost2010PropOp44
 70
     1
102
RTVSPost2010Prop45
280
     0
102
RTVSPost2010PropOp45
 70
     1
102
RTVSPost2010Prop46
 90
       50
102
RTVSPost2010PropOp46
 70
     1
102
RTVSPost2010Prop47
 90
       50
102
RTVSPost2010PropOp47
 70
     1
102
RTVSPost2010Prop48
 90
       50
102
RTVSPost2010PropOp48
 70
     1
102
RTVSPost2010Prop49
280
     0
102
RTVSPost2010PropOp49
 70
     1
102
RTVSPost2010Prop50
 90
       50
102
RTVSPost2010PropOp50
 70
     1
102
RTVSPost2010Prop51ColorIndex
 90
      256
102
RTVSPost2010Prop51ColorRGB
 90
-16777216
102
RTVSPost2010PropOp51
 70
     0
102
RTVSPost2010Prop52
140
1.0
102
RTVSPost2010PropOp52
 70
     0
102
RTVSPost2010Prop53
 90
        2
102
RTVSPost2010PropOp53
 70
     1
102
RTVSPost2010Prop54
  1
strokes_ogs.tif
102
RTVSPost2010PropOp54
 70
     1
102
RTVSPost2010Prop55
280
     0
102
RTVSPost2010PropOp55
 70
     1
102
RTVSPost2010Prop56
140
1.0
102
RTVSPost2010PropOp56
 70
     1
102
RTVSPost2010Prop57
140
1.0
102
RTVSPost2010PropOp57
 70
     1
102
RTVSPropertyOp0
 70
     1
102
RTVSPropertyOp1
 70
     1
102
RTVSPropertyOp2
 70
     1
102
RTVSPropertyOp3
 70
     1
102
RTVSPropertyOp4
 70
     1
102
RTVSPropertyOp5
 70
     1
102
RTVSPropertyOp6
 70
     1
102
RTVSPropertyOp7
 70
     1
102
RTVSPropertyOp8
 70
     1
102
RTVSPropertyOp9
 70
     1
102
RTVSPropertyOp10
 70
     1
102
RTVSPropertyOp11
 70
     1
102
RTVSPropertyOp12
 70
     1
102
RTVSPropertyOp13
 70
     1
102
RTVSPropertyOp14
 70
     1
102
RTVSPropertyOp15
 70
     1
102
RTVSPropertyOp16
 70
     1
102
RTVSPropertyOp17
 70
     1
102
RTVSPropertyOp18
 70
     1
102
RTVSPropertyOp19
 70
     1
102
RTVSPropertyOp20
 70
     1
102
RTVSPropertyOp21
 70
     1
102
RTVSPropertyOp22
 70
     1
102
RTVSPropertyOp23
 70
     1
102
RTVSPropertyOp24
 70
     1
102
RTVSPropertyOp25
 70
     1
102
RTVSPropertyOp26
 70
     1
102
RTVSPropertyOp27
 70
     1
102
RTVSPropertyOp28
 70
     1
102
RTVSPropertyOp29
 70
     1
102
RTVSPropertyOp30
 70
     1
102
RTVSPropertyOp31
 70
     1
102
RTVSPropertyOp32
 70
     1
102
RTVSPropertyOp33
 70
     1
102
RTVSPropertyOp34
 70
     1
102
RTVSPropertyOp35
 70
     1
102
RTVSPropertyOp36
 70
     1
102
RTVSPropertyOp37
 70
     1
102
RTVSPropertyOp38
 70
     1
102
RTVSPropertyOp39
 70
     1
102
RTVSPropertyOp40
 70
     1
102
RTVSPropertyOp41
 70
     1
102
RTVSPropertyOp42
 70
     1
102
RTVSPropertyOp43
 70
     1
102
RTVSPropertyOp44
 70
     1
102
RTVSPropertyOp45
 70
     1
102
RTVSPropertyOp46
 70
     1
102
RTVSPropertyOp47
 70
     1
102
RTVSPropertyOp48
 70
     1
102
RTVSPropertyOp49
 70
     1
102
RTVSPropertyOp50
 70
     1
102
RTVSPropertyOp51
 70
     0
102
RTVSPropertyOp52
 70
     0
102
RTVSPropertyOp53
 70
     1
102
RTVSPropertyOp54
 70
     1
102
RTVSPropertyOp55
 70
     1
102
RTVSPropertyOp56
 70
     1
102
RTVSPropertyOp57
 70
     1
102
RTVSPropertyOp58
 70
     1
102
RTVSPropertyOp59
 70
     1
102
RTVSPropertyOp60
 70
     1
102
RTVSPropertyOp61
 70
     1
102
RTVSPropertyOp62
 70
     1
  0
XRECORD
  5
8566
102
{ACAD_REACTORS
330
8565
102
}
330
8565
100
AcDbXrecord
280
     1
102
RTVSPost2010Prop28
280
     0
102
RTVSPost2010PropOp28
 70
     1
102
RTVSPost2010Prop29
280
     1
102
RTVSPost2010PropOp29
 70
     1
102
RTVSPost2010Prop30
280
     1
102
RTVSPost2010PropOp30
 70
     1
102
RTVSPost2010Prop31
280
     0
102
RTVSPost2010PropOp31
 70
     1
102
RTVSPost2010Prop32
280
     0
102
RTVSPost2010PropOp32
 70
     1
102
RTVSPost2010Prop33
280
     0
102
RTVSPost2010PropOp33
 70
     1
102
RTVSPost2010Prop34
280
     0
102
RTVSPost2010PropOp34
 70
     1
102
RTVSPost2010Prop35
280
     0
102
RTVSPost2010PropOp35
 70
     1
102
RTVSPost2010Prop36
280
     0
102
RTVSPost2010PropOp36
 70
     1
102
RTVSPost2010Prop37
 90
       50
102
RTVSPost2010PropOp37
 70
     1
102
RTVSPost2010Prop38
140
0.0
102
RTVSPost2010PropOp38
 70
     1
102
RTVSPost2010Prop39
140
1.0
102
RTVSPost2010PropOp39
 70
     1
102
RTVSPost2010Prop40
 90
        0
102
RTVSPost2010PropOp40
 70
     1
102
RTVSPost2010Prop41ColorIndex
 90
       18
102
RTVSPost2010Prop41ColorRGB
 90
        0
102
RTVSPost2010PropOp41
 70
     1
102
RTVSPost2010Prop42
 90
       50
102
RTVSPost2010PropOp42
 70
     1
102
RTVSPost2010Prop43
 90
        3
102
RTVSPost2010PropOp43
 70
     1
102
RTVSPost2010Prop44ColorIndex
 90
        5
102
RTVSPost2010Prop44ColorRGB
 90
      255
102
RTVSPost2010PropOp44
 70
     1
102
RTVSPost2010Prop45
280
     0
102
RTVSPost2010PropOp45
 70
     1
102
RTVSPost2010Prop46
 90
       50
102
RTVSPost2010PropOp46
 70
     1
102
RTVSPost2010Prop47
 90
       50
102
RTVSPost2010PropOp47
 70
     1
102
RTVSPost2010Prop48
 90
       50
102
RTVSPost2010PropOp48
 70
     1
102
RTVSPost2010Prop49
280
     0
102
RTVSPost2010PropOp49
 70
     1
102
RTVSPost2010Prop50
 90
       50
102
RTVSPost2010PropOp50
 70
     1
102
RTVSPost2010Prop51ColorIndex
 90
      256
102
RTVSPost2010Prop51ColorRGB
 90
-16777216
102
RTVSPost2010PropOp51
 70
     0
102
RTVSPost2010Prop52
140
1.0
102
RTVSPost2010PropOp52
 70
     0
102
RTVSPost2010Prop53
 90
        2
102
RTVSPost2010PropOp53
 70
     1
102
RTVSPost2010Prop54
  1
strokes_ogs.tif
102
RTVSPost2010PropOp54
 70
     1
102
RTVSPost2010Prop55
280
     0
102
RTVSPost2010PropOp55
 70
     1
102
RTVSPost2010Prop56
140
1.0
102
RTVSPost2010PropOp56
 70
     1
102
RTVSPost2010Prop57
140
1.0
102
RTVSPost2010PropOp57
 70
     1
102
RTVSPropertyOp0
 70
     1
102
RTVSPropertyOp1
 70
     1
102
RTVSPropertyOp2
 70
     1
102
RTVSPropertyOp3
 70
     1
102
RTVSPropertyOp4
 70
     1
102
RTVSPropertyOp5
 70
     1
102
RTVSPropertyOp6
 70
     1
102
RTVSPropertyOp7
 70
     1
102
RTVSPropertyOp8
 70
     1
102
RTVSPropertyOp9
 70
     1
102
RTVSPropertyOp10
 70
     1
102
RTVSPropertyOp11
 70
     1
102
RTVSPropertyOp12
 70
     1
102
RTVSPropertyOp13
 70
     1
102
RTVSPropertyOp14
 70
     1
102
RTVSPropertyOp15
 70
     1
102
RTVSPropertyOp16
 70
     1
102
RTVSPropertyOp17
 70
     1
102
RTVSPropertyOp18
 70
     1
102
RTVSPropertyOp19
 70
     1
102
RTVSPropertyOp20
 70
     1
102
RTVSPropertyOp21
 70
     1
102
RTVSPropertyOp22
 70
     1
102
RTVSPropertyOp23
 70
     1
102
RTVSPropertyOp24
 70
     1
102
RTVSPropertyOp25
 70
     1
102
RTVSPropertyOp26
 70
     1
102
RTVSPropertyOp27
 70
     1
102
RTVSPropertyOp28
 70
     1
102
RTVSPropertyOp29
 70
     1
102
RTVSPropertyOp30
 70
     1
102
RTVSPropertyOp31
 70
     1
102
RTVSPropertyOp32
 70
     1
102
RTVSPropertyOp33
 70
     1
102
RTVSPropertyOp34
 70
     1
102
RTVSPropertyOp35
 70
     1
102
RTVSPropertyOp36
 70
     1
102
RTVSPropertyOp37
 70
     1
102
RTVSPropertyOp38
 70
     1
102
RTVSPropertyOp39
 70
     1
102
RTVSPropertyOp40
 70
     1
102
RTVSPropertyOp41
 70
     1
102
RTVSPropertyOp42
 70
     1
102
RTVSPropertyOp43
 70
     1
102
RTVSPropertyOp44
 70
     1
102
RTVSPropertyOp45
 70
     1
102
RTVSPropertyOp46
 70
     1
102
RTVSPropertyOp47
 70
     1
102
RTVSPropertyOp48
 70
     1
102
RTVSPropertyOp49
 70
     1
102
RTVSPropertyOp50
 70
     1
102
RTVSPropertyOp51
 70
     0
102
RTVSPropertyOp52
 70
     0
102
RTVSPropertyOp53
 70
     1
102
RTVSPropertyOp54
 70
     1
102
RTVSPropertyOp55
 70
     1
102
RTVSPropertyOp56
 70
     1
102
RTVSPropertyOp57
 70
     1
102
RTVSPropertyOp58
 70
     1
102
RTVSPropertyOp59
 70
     1
102
RTVSPropertyOp60
 70
     1
102
RTVSPropertyOp61
 70
     1
102
RTVSPropertyOp62
 70
     1
  0
XRECORD
  5
856A
102
{ACAD_REACTORS
330
8569
102
}
330
8569
100
AcDbXrecord
280
     1
102
RTVSPost2010Prop28
280
     0
102
RTVSPost2010PropOp28
 70
     1
102
RTVSPost2010Prop29
280
     1
102
RTVSPost2010PropOp29
 70
     1
102
RTVSPost2010Prop30
280
     1
102
RTVSPost2010PropOp30
 70
     1
102
RTVSPost2010Prop31
280
     0
102
RTVSPost2010PropOp31
 70
     1
102
RTVSPost2010Prop32
280
     0
102
RTVSPost2010PropOp32
 70
     1
102
RTVSPost2010Prop33
280
     0
102
RTVSPost2010PropOp33
 70
     1
102
RTVSPost2010Prop34
280
     0
102
RTVSPost2010PropOp34
 70
     1
102
RTVSPost2010Prop35
280
     0
102
RTVSPost2010PropOp35
 70
     1
102
RTVSPost2010Prop36
280
     0
102
RTVSPost2010PropOp36
 70
     1
102
RTVSPost2010Prop37
 90
       50
102
RTVSPost2010PropOp37
 70
     1
102
RTVSPost2010Prop38
140
0.0
102
RTVSPost2010PropOp38
 70
     1
102
RTVSPost2010Prop39
140
1.0
102
RTVSPost2010PropOp39
 70
     1
102
RTVSPost2010Prop40
 90
        0
102
RTVSPost2010PropOp40
 70
     1
102
RTVSPost2010Prop41ColorIndex
 90
       18
102
RTVSPost2010Prop41ColorRGB
 90
        0
102
RTVSPost2010PropOp41
 70
     1
102
RTVSPost2010Prop42
 90
       50
102
RTVSPost2010PropOp42
 70
     1
102
RTVSPost2010Prop43
 90
        3
102
RTVSPost2010PropOp43
 70
     1
102
RTVSPost2010Prop44ColorIndex
 90
        5
102
RTVSPost2010Prop44ColorRGB
 90
      255
102
RTVSPost2010PropOp44
 70
     1
102
RTVSPost2010Prop45
280
     0
102
RTVSPost2010PropOp45
 70
     1
102
RTVSPost2010Prop46
 90
       50
102
RTVSPost2010PropOp46
 70
     1
102
RTVSPost2010Prop47
 90
       50
102
RTVSPost2010PropOp47
 70
     1
102
RTVSPost2010Prop48
 90
       50
102
RTVSPost2010PropOp48
 70
     1
102
RTVSPost2010Prop49
280
     0
102
RTVSPost2010PropOp49
 70
     1
102
RTVSPost2010Prop50
 90
       50
102
RTVSPost2010PropOp50
 70
     1
102
RTVSPost2010Prop51ColorIndex
 90
      256
102
RTVSPost2010Prop51ColorRGB
 90
-16777216
102
RTVSPost2010PropOp51
 70
     0
102
RTVSPost2010Prop52
140
1.0
102
RTVSPost2010PropOp52
 70
     0
102
RTVSPost2010Prop53
 90
        2
102
RTVSPost2010PropOp53
 70
     1
102
RTVSPost2010Prop54
  1
strokes_ogs.tif
102
RTVSPost2010PropOp54
 70
     1
102
RTVSPost2010Prop55
280
     0
102
RTVSPost2010PropOp55
 70
     1
102
RTVSPost2010Prop56
140
1.0
102
RTVSPost2010PropOp56
 70
     1
102
RTVSPost2010Prop57
140
1.0
102
RTVSPost2010PropOp57
 70
     1
102
RTVSPropertyOp0
 70
     1
102
RTVSPropertyOp1
 70
     1
102
RTVSPropertyOp2
 70
     1
102
RTVSPropertyOp3
 70
     1
102
RTVSPropertyOp4
 70
     1
102
RTVSPropertyOp5
 70
     1
102
RTVSPropertyOp6
 70
     1
102
RTVSPropertyOp7
 70
     1
102
RTVSPropertyOp8
 70
     1
102
RTVSPropertyOp9
 70
     1
102
RTVSPropertyOp10
 70
     1
102
RTVSPropertyOp11
 70
     1
102
RTVSPropertyOp12
 70
     1
102
RTVSPropertyOp13
 70
     1
102
RTVSPropertyOp14
 70
     1
102
RTVSPropertyOp15
 70
     1
102
RTVSPropertyOp16
 70
     1
102
RTVSPropertyOp17
 70
     1
102
RTVSPropertyOp18
 70
     1
102
RTVSPropertyOp19
 70
     1
102
RTVSPropertyOp20
 70
     1
102
RTVSPropertyOp21
 70
     1
102
RTVSPropertyOp22
 70
     1
102
RTVSPropertyOp23
 70
     1
102
RTVSPropertyOp24
 70
     1
102
RTVSPropertyOp25
 70
     1
102
RTVSPropertyOp26
 70
     1
102
RTVSPropertyOp27
 70
     1
102
RTVSPropertyOp28
 70
     1
102
RTVSPropertyOp29
 70
     1
102
RTVSPropertyOp30
 70
     1
102
RTVSPropertyOp31
 70
     1
102
RTVSPropertyOp32
 70
     1
102
RTVSPropertyOp33
 70
     1
102
RTVSPropertyOp34
 70
     1
102
RTVSPropertyOp35
 70
     1
102
RTVSPropertyOp36
 70
     1
102
RTVSPropertyOp37
 70
     1
102
RTVSPropertyOp38
 70
     1
102
RTVSPropertyOp39
 70
     1
102
RTVSPropertyOp40
 70
     1
102
RTVSPropertyOp41
 70
     1
102
RTVSPropertyOp42
 70
     1
102
RTVSPropertyOp43
 70
     1
102
RTVSPropertyOp44
 70
     1
102
RTVSPropertyOp45
 70
     1
102
RTVSPropertyOp46
 70
     1
102
RTVSPropertyOp47
 70
     1
102
RTVSPropertyOp48
 70
     1
102
RTVSPropertyOp49
 70
     1
102
RTVSPropertyOp50
 70
     1
102
RTVSPropertyOp51
 70
     0
102
RTVSPropertyOp52
 70
     0
102
RTVSPropertyOp53
 70
     1
102
RTVSPropertyOp54
 70
     1
102
RTVSPropertyOp55
 70
     1
102
RTVSPropertyOp56
 70
     1
102
RTVSPropertyOp57
 70
     1
102
RTVSPropertyOp58
 70
     1
102
RTVSPropertyOp59
 70
     1
102
RTVSPropertyOp60
 70
     1
102
RTVSPropertyOp61
 70
     1
102
RTVSPropertyOp62
 70
     1
  0
XRECORD
  5
8584
102
{ACAD_REACTORS
330
8583
102
}
330
8583
100
AcDbXrecord
280
     1
102
RTVSPost2010Prop28
280
     0
102
RTVSPost2010PropOp28
 70
     1
102
RTVSPost2010Prop29
280
     1
102
RTVSPost2010PropOp29
 70
     1
102
RTVSPost2010Prop30
280
     1
102
RTVSPost2010PropOp30
 70
     1
102
RTVSPost2010Prop31
280
     0
102
RTVSPost2010PropOp31
 70
     1
102
RTVSPost2010Prop32
280
     0
102
RTVSPost2010PropOp32
 70
     1
102
RTVSPost2010Prop33
280
     0
102
RTVSPost2010PropOp33
 70
     1
102
RTVSPost2010Prop34
280
     0
102
RTVSPost2010PropOp34
 70
     1
102
RTVSPost2010Prop35
280
     0
102
RTVSPost2010PropOp35
 70
     1
102
RTVSPost2010Prop36
280
     0
102
RTVSPost2010PropOp36
 70
     1
102
RTVSPost2010Prop37
 90
       50
102
RTVSPost2010PropOp37
 70
     0
102
RTVSPost2010Prop38
140
0.0
102
RTVSPost2010PropOp38
 70
     0
102
RTVSPost2010Prop39
140
1.0
102
RTVSPost2010PropOp39
 70
     0
102
RTVSPost2010Prop40
 90
        0
102
RTVSPost2010PropOp40
 70
     0
102
RTVSPost2010Prop41ColorIndex
 90
       18
102
RTVSPost2010Prop41ColorRGB
 90
        0
102
RTVSPost2010PropOp41
 70
     0
102
RTVSPost2010Prop42
 90
       50
102
RTVSPost2010PropOp42
 70
     0
102
RTVSPost2010Prop43
 90
        3
102
RTVSPost2010PropOp43
 70
     0
102
RTVSPost2010Prop44ColorIndex
 90
        5
102
RTVSPost2010Prop44ColorRGB
 90
      255
102
RTVSPost2010PropOp44
 70
     0
102
RTVSPost2010Prop45
280
     0
102
RTVSPost2010PropOp45
 70
     1
102
RTVSPost2010Prop46
 90
       50
102
RTVSPost2010PropOp46
 70
     0
102
RTVSPost2010Prop47
 90
       50
102
RTVSPost2010PropOp47
 70
     0
102
RTVSPost2010Prop48
 90
       50
102
RTVSPost2010PropOp48
 70
     0
102
RTVSPost2010Prop49
280
     0
102
RTVSPost2010PropOp49
 70
     1
102
RTVSPost2010Prop50
 90
       50
102
RTVSPost2010PropOp50
 70
     0
102
RTVSPost2010Prop51ColorIndex
 90
      256
102
RTVSPost2010Prop51ColorRGB
 90
-16777216
102
RTVSPost2010PropOp51
 70
     0
102
RTVSPost2010Prop52
140
1.0
102
RTVSPost2010PropOp52
 70
     0
102
RTVSPost2010Prop53
 90
        2
102
RTVSPost2010PropOp53
 70
     0
102
RTVSPost2010Prop54
  1
strokes_ogs.tif
102
RTVSPost2010PropOp54
 70
     0
102
RTVSPost2010Prop55
280
     0
102
RTVSPost2010PropOp55
 70
     1
102
RTVSPost2010Prop56
140
1.0
102
RTVSPost2010PropOp56
 70
     0
102
RTVSPost2010Prop57
140
1.0
102
RTVSPost2010PropOp57
 70
     0
102
RTVSPropertyOp0
 70
     0
102
RTVSPropertyOp1
 70
     0
102
RTVSPropertyOp2
 70
     0
102
RTVSPropertyOp3
 70
     0
102
RTVSPropertyOp4
 70
     0
102
RTVSPropertyOp5
 70
     0
102
RTVSPropertyOp6
 70
     0
102
RTVSPropertyOp7
 70
     0
102
RTVSPropertyOp8
 70
     0
102
RTVSPropertyOp9
 70
     0
102
RTVSPropertyOp10
 70
     0
102
RTVSPropertyOp11
 70
     0
102
RTVSPropertyOp12
 70
     0
102
RTVSPropertyOp13
 70
     0
102
RTVSPropertyOp14
 70
     2
102
RTVSPropertyOp15
 70
     0
102
RTVSPropertyOp16
 70
     0
102
RTVSPropertyOp17
 70
     0
102
RTVSPropertyOp18
 70
     0
102
RTVSPropertyOp19
 70
     0
102
RTVSPropertyOp20
 70
     0
102
RTVSPropertyOp21
 70
     0
102
RTVSPropertyOp22
 70
     0
102
RTVSPropertyOp23
 70
     0
102
RTVSPropertyOp24
 70
     0
102
RTVSPropertyOp25
 70
     0
102
RTVSPropertyOp26
 70
     0
102
RTVSPropertyOp27
 70
     0
102
RTVSPropertyOp28
 70
     1
102
RTVSPropertyOp29
 70
     1
102
RTVSPropertyOp30
 70
     1
102
RTVSPropertyOp31
 70
     1
102
RTVSPropertyOp32
 70
     1
102
RTVSPropertyOp33
 70
     1
102
RTVSPropertyOp34
 70
     1
102
RTVSPropertyOp35
 70
     1
102
RTVSPropertyOp36
 70
     1
102
RTVSPropertyOp37
 70
     0
102
RTVSPropertyOp38
 70
     0
102
RTVSPropertyOp39
 70
     0
102
RTVSPropertyOp40
 70
     0
102
RTVSPropertyOp41
 70
     0
102
RTVSPropertyOp42
 70
     0
102
RTVSPropertyOp43
 70
     0
102
RTVSPropertyOp44
 70
     0
102
RTVSPropertyOp45
 70
     1
102
RTVSPropertyOp46
 70
     0
102
RTVSPropertyOp47
 70
     0
102
RTVSPropertyOp48
 70
     0
102
RTVSPropertyOp49
 70
     1
102
RTVSPropertyOp50
 70
     0
102
RTVSPropertyOp51
 70
     0
102
RTVSPropertyOp52
 70
     0
102
RTVSPropertyOp53
 70
     0
102
RTVSPropertyOp54
 70
     0
102
RTVSPropertyOp55
 70
     1
102
RTVSPropertyOp56
 70
     0
102
RTVSPropertyOp57
 70
     0
102
RTVSPropertyOp58
 70
     0
102
RTVSPropertyOp59
 70
     0
102
RTVSPropertyOp60
 70
     0
102
RTVSPropertyOp61
 70
     0
102
RTVSPropertyOp62
 70
     0
  0
XRECORD
  5
8572
102
{ACAD_REACTORS
330
8571
102
}
330
8571
100
AcDbXrecord
280
     1
102
RTVSPost2010Prop28
280
     0
102
RTVSPost2010PropOp28
 70
     1
102
RTVSPost2010Prop29
280
     1
102
RTVSPost2010PropOp29
 70
     1
102
RTVSPost2010Prop30
280
     1
102
RTVSPost2010PropOp30
 70
     1
102
RTVSPost2010Prop31
280
     0
102
RTVSPost2010PropOp31
 70
     1
102
RTVSPost2010Prop32
280
     0
102
RTVSPost2010PropOp32
 70
     1
102
RTVSPost2010Prop33
280
     0
102
RTVSPost2010PropOp33
 70
     1
102
RTVSPost2010Prop34
280
     0
102
RTVSPost2010PropOp34
 70
     1
102
RTVSPost2010Prop35
280
     0
102
RTVSPost2010PropOp35
 70
     1
102
RTVSPost2010Prop36
280
     0
102
RTVSPost2010PropOp36
 70
     1
102
RTVSPost2010Prop37
 90
       50
102
RTVSPost2010PropOp37
 70
     1
102
RTVSPost2010Prop38
140
0.0
102
RTVSPost2010PropOp38
 70
     1
102
RTVSPost2010Prop39
140
1.0
102
RTVSPost2010PropOp39
 70
     1
102
RTVSPost2010Prop40
 90
        0
102
RTVSPost2010PropOp40
 70
     1
102
RTVSPost2010Prop41ColorIndex
 90
       18
102
RTVSPost2010Prop41ColorRGB
 90
        0
102
RTVSPost2010PropOp41
 70
     1
102
RTVSPost2010Prop42
 90
       50
102
RTVSPost2010PropOp42
 70
     1
102
RTVSPost2010Prop43
 90
        3
102
RTVSPost2010PropOp43
 70
     1
102
RTVSPost2010Prop44ColorIndex
 90
        5
102
RTVSPost2010Prop44ColorRGB
 90
      255
102
RTVSPost2010PropOp44
 70
     1
102
RTVSPost2010Prop45
280
     0
102
RTVSPost2010PropOp45
 70
     1
102
RTVSPost2010Prop46
 90
       50
102
RTVSPost2010PropOp46
 70
     1
102
RTVSPost2010Prop47
 90
       50
102
RTVSPost2010PropOp47
 70
     1
102
RTVSPost2010Prop48
 90
       50
102
RTVSPost2010PropOp48
 70
     1
102
RTVSPost2010Prop49
280
     0
102
RTVSPost2010PropOp49
 70
     1
102
RTVSPost2010Prop50
 90
       50
102
RTVSPost2010PropOp50
 70
     1
102
RTVSPost2010Prop51ColorIndex
 90
      256
102
RTVSPost2010Prop51ColorRGB
 90
-16777216
102
RTVSPost2010PropOp51
 70
     0
102
RTVSPost2010Prop52
140
1.0
102
RTVSPost2010PropOp52
 70
     0
102
RTVSPost2010Prop53
 90
        2
102
RTVSPost2010PropOp53
 70
     1
102
RTVSPost2010Prop54
  1
strokes_ogs.tif
102
RTVSPost2010PropOp54
 70
     1
102
RTVSPost2010Prop55
280
     0
102
RTVSPost2010PropOp55
 70
     1
102
RTVSPost2010Prop56
140
1.0
102
RTVSPost2010PropOp56
 70
     1
102
RTVSPost2010Prop57
140
1.0
102
RTVSPost2010PropOp57
 70
     1
102
RTVSPropertyOp0
 70
     1
102
RTVSPropertyOp1
 70
     1
102
RTVSPropertyOp2
 70
     1
102
RTVSPropertyOp3
 70
     1
102
RTVSPropertyOp4
 70
     1
102
RTVSPropertyOp5
 70
     1
102
RTVSPropertyOp6
 70
     1
102
RTVSPropertyOp7
 70
     1
102
RTVSPropertyOp8
 70
     1
102
RTVSPropertyOp9
 70
     1
102
RTVSPropertyOp10
 70
     1
102
RTVSPropertyOp11
 70
     1
102
RTVSPropertyOp12
 70
     1
102
RTVSPropertyOp13
 70
     1
102
RTVSPropertyOp14
 70
     1
102
RTVSPropertyOp15
 70
     1
102
RTVSPropertyOp16
 70
     1
102
RTVSPropertyOp17
 70
     1
102
RTVSPropertyOp18
 70
     1
102
RTVSPropertyOp19
 70
     1
102
RTVSPropertyOp20
 70
     1
102
RTVSPropertyOp21
 70
     1
102
RTVSPropertyOp22
 70
     1
102
RTVSPropertyOp23
 70
     1
102
RTVSPropertyOp24
 70
     1
102
RTVSPropertyOp25
 70
     1
102
RTVSPropertyOp26
 70
     1
102
RTVSPropertyOp27
 70
     1
102
RTVSPropertyOp28
 70
     1
102
RTVSPropertyOp29
 70
     1
102
RTVSPropertyOp30
 70
     1
102
RTVSPropertyOp31
 70
     1
102
RTVSPropertyOp32
 70
     1
102
RTVSPropertyOp33
 70
     1
102
RTVSPropertyOp34
 70
     1
102
RTVSPropertyOp35
 70
     1
102
RTVSPropertyOp36
 70
     1
102
RTVSPropertyOp37
 70
     1
102
RTVSPropertyOp38
 70
     1
102
RTVSPropertyOp39
 70
     1
102
RTVSPropertyOp40
 70
     1
102
RTVSPropertyOp41
 70
     1
102
RTVSPropertyOp42
 70
     1
102
RTVSPropertyOp43
 70
     1
102
RTVSPropertyOp44
 70
     1
102
RTVSPropertyOp45
 70
     1
102
RTVSPropertyOp46
 70
     1
102
RTVSPropertyOp47
 70
     1
102
RTVSPropertyOp48
 70
     1
102
RTVSPropertyOp49
 70
     1
102
RTVSPropertyOp50
 70
     1
102
RTVSPropertyOp51
 70
     0
102
RTVSPropertyOp52
 70
     0
102
RTVSPropertyOp53
 70
     1
102
RTVSPropertyOp54
 70
     1
102
RTVSPropertyOp55
 70
     1
102
RTVSPropertyOp56
 70
     1
102
RTVSPropertyOp57
 70
     1
102
RTVSPropertyOp58
 70
     1
102
RTVSPropertyOp59
 70
     1
102
RTVSPropertyOp60
 70
     1
102
RTVSPropertyOp61
 70
     1
102
RTVSPropertyOp62
 70
     1
  0
XRECORD
  5
8556
102
{ACAD_REACTORS
330
8555
102
}
330
8555
100
AcDbXrecord
280
     1
102
RTVSPost2010Prop28
280
     0
102
RTVSPost2010PropOp28
 70
     1
102
RTVSPost2010Prop29
280
     1
102
RTVSPost2010PropOp29
 70
     1
102
RTVSPost2010Prop30
280
     1
102
RTVSPost2010PropOp30
 70
     1
102
RTVSPost2010Prop31
280
     0
102
RTVSPost2010PropOp31
 70
     1
102
RTVSPost2010Prop32
280
     0
102
RTVSPost2010PropOp32
 70
     1
102
RTVSPost2010Prop33
280
     0
102
RTVSPost2010PropOp33
 70
     1
102
RTVSPost2010Prop34
280
     0
102
RTVSPost2010PropOp34
 70
     1
102
RTVSPost2010Prop35
280
     0
102
RTVSPost2010PropOp35
 70
     1
102
RTVSPost2010Prop36
280
     0
102
RTVSPost2010PropOp36
 70
     1
102
RTVSPost2010Prop37
 90
       50
102
RTVSPost2010PropOp37
 70
     1
102
RTVSPost2010Prop38
140
0.0
102
RTVSPost2010PropOp38
 70
     1
102
RTVSPost2010Prop39
140
1.0
102
RTVSPost2010PropOp39
 70
     1
102
RTVSPost2010Prop40
 90
        0
102
RTVSPost2010PropOp40
 70
     1
102
RTVSPost2010Prop41ColorIndex
 90
       18
102
RTVSPost2010Prop41ColorRGB
 90
        0
102
RTVSPost2010PropOp41
 70
     1
102
RTVSPost2010Prop42
 90
       50
102
RTVSPost2010PropOp42
 70
     1
102
RTVSPost2010Prop43
 90
        3
102
RTVSPost2010PropOp43
 70
     1
102
RTVSPost2010Prop44ColorIndex
 90
        5
102
RTVSPost2010Prop44ColorRGB
 90
      255
102
RTVSPost2010PropOp44
 70
     1
102
RTVSPost2010Prop45
280
     0
102
RTVSPost2010PropOp45
 70
     1
102
RTVSPost2010Prop46
 90
       50
102
RTVSPost2010PropOp46
 70
     1
102
RTVSPost2010Prop47
 90
       50
102
RTVSPost2010PropOp47
 70
     1
102
RTVSPost2010Prop48
 90
       50
102
RTVSPost2010PropOp48
 70
     1
102
RTVSPost2010Prop49
280
     0
102
RTVSPost2010PropOp49
 70
     1
102
RTVSPost2010Prop50
 90
       50
102
RTVSPost2010PropOp50
 70
     1
102
RTVSPost2010Prop51ColorIndex
 90
      256
102
RTVSPost2010Prop51ColorRGB
 90
-16777216
102
RTVSPost2010PropOp51
 70
     0
102
RTVSPost2010Prop52
140
1.0
102
RTVSPost2010PropOp52
 70
     0
102
RTVSPost2010Prop53
 90
        2
102
RTVSPost2010PropOp53
 70
     1
102
RTVSPost2010Prop54
  1
strokes_ogs.tif
102
RTVSPost2010PropOp54
 70
     1
102
RTVSPost2010Prop55
280
     0
102
RTVSPost2010PropOp55
 70
     1
102
RTVSPost2010Prop56
140
1.0
102
RTVSPost2010PropOp56
 70
     1
102
RTVSPost2010Prop57
140
1.0
102
RTVSPost2010PropOp57
 70
     1
102
RTVSPropertyOp0
 70
     1
102
RTVSPropertyOp1
 70
     1
102
RTVSPropertyOp2
 70
     1
102
RTVSPropertyOp3
 70
     1
102
RTVSPropertyOp4
 70
     1
102
RTVSPropertyOp5
 70
     1
102
RTVSPropertyOp6
 70
     1
102
RTVSPropertyOp7
 70
     1
102
RTVSPropertyOp8
 70
     1
102
RTVSPropertyOp9
 70
     1
102
RTVSPropertyOp10
 70
     1
102
RTVSPropertyOp11
 70
     1
102
RTVSPropertyOp12
 70
     1
102
RTVSPropertyOp13
 70
     1
102
RTVSPropertyOp14
 70
     1
102
RTVSPropertyOp15
 70
     1
102
RTVSPropertyOp16
 70
     1
102
RTVSPropertyOp17
 70
     1
102
RTVSPropertyOp18
 70
     1
102
RTVSPropertyOp19
 70
     1
102
RTVSPropertyOp20
 70
     1
102
RTVSPropertyOp21
 70
     1
102
RTVSPropertyOp22
 70
     1
102
RTVSPropertyOp23
 70
     1
102
RTVSPropertyOp24
 70
     1
102
RTVSPropertyOp25
 70
     1
102
RTVSPropertyOp26
 70
     1
102
RTVSPropertyOp27
 70
     1
102
RTVSPropertyOp28
 70
     1
102
RTVSPropertyOp29
 70
     1
102
RTVSPropertyOp30
 70
     1
102
RTVSPropertyOp31
 70
     1
102
RTVSPropertyOp32
 70
     1
102
RTVSPropertyOp33
 70
     1
102
RTVSPropertyOp34
 70
     1
102
RTVSPropertyOp35
 70
     1
102
RTVSPropertyOp36
 70
     1
102
RTVSPropertyOp37
 70
     1
102
RTVSPropertyOp38
 70
     1
102
RTVSPropertyOp39
 70
     1
102
RTVSPropertyOp40
 70
     1
102
RTVSPropertyOp41
 70
     1
102
RTVSPropertyOp42
 70
     1
102
RTVSPropertyOp43
 70
     1
102
RTVSPropertyOp44
 70
     1
102
RTVSPropertyOp45
 70
     1
102
RTVSPropertyOp46
 70
     1
102
RTVSPropertyOp47
 70
     1
102
RTVSPropertyOp48
 70
     1
102
RTVSPropertyOp49
 70
     1
102
RTVSPropertyOp50
 70
     1
102
RTVSPropertyOp51
 70
     0
102
RTVSPropertyOp52
 70
     0
102
RTVSPropertyOp53
 70
     1
102
RTVSPropertyOp54
 70
     1
102
RTVSPropertyOp55
 70
     1
102
RTVSPropertyOp56
 70
     1
102
RTVSPropertyOp57
 70
     1
102
RTVSPropertyOp58
 70
     1
102
RTVSPropertyOp59
 70
     1
102
RTVSPropertyOp60
 70
     1
102
RTVSPropertyOp61
 70
     1
102
RTVSPropertyOp62
 70
     1
  0
XRECORD
  5
8558
102
{ACAD_REACTORS
330
8557
102
}
330
8557
100
AcDbXrecord
280
     1
102
RTVSPost2010Prop28
280
     0
102
RTVSPost2010PropOp28
 70
     1
102
RTVSPost2010Prop29
280
     1
102
RTVSPost2010PropOp29
 70
     1
102
RTVSPost2010Prop30
280
     1
102
RTVSPost2010PropOp30
 70
     1
102
RTVSPost2010Prop31
280
     0
102
RTVSPost2010PropOp31
 70
     1
102
RTVSPost2010Prop32
280
     0
102
RTVSPost2010PropOp32
 70
     1
102
RTVSPost2010Prop33
280
     0
102
RTVSPost2010PropOp33
 70
     1
102
RTVSPost2010Prop34
280
     0
102
RTVSPost2010PropOp34
 70
     1
102
RTVSPost2010Prop35
280
     0
102
RTVSPost2010PropOp35
 70
     1
102
RTVSPost2010Prop36
280
     0
102
RTVSPost2010PropOp36
 70
     1
102
RTVSPost2010Prop37
 90
       50
102
RTVSPost2010PropOp37
 70
     1
102
RTVSPost2010Prop38
140
0.0
102
RTVSPost2010PropOp38
 70
     1
102
RTVSPost2010Prop39
140
1.0
102
RTVSPost2010PropOp39
 70
     1
102
RTVSPost2010Prop40
 90
        0
102
RTVSPost2010PropOp40
 70
     1
102
RTVSPost2010Prop41ColorIndex
 90
       18
102
RTVSPost2010Prop41ColorRGB
 90
        0
102
RTVSPost2010PropOp41
 70
     1
102
RTVSPost2010Prop42
 90
       50
102
RTVSPost2010PropOp42
 70
     1
102
RTVSPost2010Prop43
 90
        3
102
RTVSPost2010PropOp43
 70
     1
102
RTVSPost2010Prop44ColorIndex
 90
        5
102
RTVSPost2010Prop44ColorRGB
 90
      255
102
RTVSPost2010PropOp44
 70
     1
102
RTVSPost2010Prop45
280
     0
102
RTVSPost2010PropOp45
 70
     1
102
RTVSPost2010Prop46
 90
       50
102
RTVSPost2010PropOp46
 70
     1
102
RTVSPost2010Prop47
 90
       50
102
RTVSPost2010PropOp47
 70
     1
102
RTVSPost2010Prop48
 90
       50
102
RTVSPost2010PropOp48
 70
     1
102
RTVSPost2010Prop49
280
     0
102
RTVSPost2010PropOp49
 70
     1
102
RTVSPost2010Prop50
 90
       50
102
RTVSPost2010PropOp50
 70
     1
102
RTVSPost2010Prop51ColorIndex
 90
      256
102
RTVSPost2010Prop51ColorRGB
 90
-16777216
102
RTVSPost2010PropOp51
 70
     0
102
RTVSPost2010Prop52
140
1.0
102
RTVSPost2010PropOp52
 70
     0
102
RTVSPost2010Prop53
 90
        2
102
RTVSPost2010PropOp53
 70
     1
102
RTVSPost2010Prop54
  1
strokes_ogs.tif
102
RTVSPost2010PropOp54
 70
     1
102
RTVSPost2010Prop55
280
     0
102
RTVSPost2010PropOp55
 70
     1
102
RTVSPost2010Prop56
140
1.0
102
RTVSPost2010PropOp56
 70
     1
102
RTVSPost2010Prop57
140
1.0
102
RTVSPost2010PropOp57
 70
     1
102
RTVSPropertyOp0
 70
     1
102
RTVSPropertyOp1
 70
     1
102
RTVSPropertyOp2
 70
     1
102
RTVSPropertyOp3
 70
     1
102
RTVSPropertyOp4
 70
     1
102
RTVSPropertyOp5
 70
     1
102
RTVSPropertyOp6
 70
     1
102
RTVSPropertyOp7
 70
     1
102
RTVSPropertyOp8
 70
     1
102
RTVSPropertyOp9
 70
     1
102
RTVSPropertyOp10
 70
     1
102
RTVSPropertyOp11
 70
     1
102
RTVSPropertyOp12
 70
     1
102
RTVSPropertyOp13
 70
     1
102
RTVSPropertyOp14
 70
     1
102
RTVSPropertyOp15
 70
     1
102
RTVSPropertyOp16
 70
     1
102
RTVSPropertyOp17
 70
     1
102
RTVSPropertyOp18
 70
     1
102
RTVSPropertyOp19
 70
     1
102
RTVSPropertyOp20
 70
     1
102
RTVSPropertyOp21
 70
     1
102
RTVSPropertyOp22
 70
     1
102
RTVSPropertyOp23
 70
     1
102
RTVSPropertyOp24
 70
     1
102
RTVSPropertyOp25
 70
     1
102
RTVSPropertyOp26
 70
     1
102
RTVSPropertyOp27
 70
     1
102
RTVSPropertyOp28
 70
     1
102
RTVSPropertyOp29
 70
     1
102
RTVSPropertyOp30
 70
     1
102
RTVSPropertyOp31
 70
     1
102
RTVSPropertyOp32
 70
     1
102
RTVSPropertyOp33
 70
     1
102
RTVSPropertyOp34
 70
     1
102
RTVSPropertyOp35
 70
     1
102
RTVSPropertyOp36
 70
     1
102
RTVSPropertyOp37
 70
     1
102
RTVSPropertyOp38
 70
     1
102
RTVSPropertyOp39
 70
     1
102
RTVSPropertyOp40
 70
     1
102
RTVSPropertyOp41
 70
     1
102
RTVSPropertyOp42
 70
     1
102
RTVSPropertyOp43
 70
     1
102
RTVSPropertyOp44
 70
     1
102
RTVSPropertyOp45
 70
     1
102
RTVSPropertyOp46
 70
     1
102
RTVSPropertyOp47
 70
     1
102
RTVSPropertyOp48
 70
     1
102
RTVSPropertyOp49
 70
     1
102
RTVSPropertyOp50
 70
     1
102
RTVSPropertyOp51
 70
     0
102
RTVSPropertyOp52
 70
     0
102
RTVSPropertyOp53
 70
     1
102
RTVSPropertyOp54
 70
     1
102
RTVSPropertyOp55
 70
     1
102
RTVSPropertyOp56
 70
     1
102
RTVSPropertyOp57
 70
     1
102
RTVSPropertyOp58
 70
     1
102
RTVSPropertyOp59
 70
     1
102
RTVSPropertyOp60
 70
     1
102
RTVSPropertyOp61
 70
     1
102
RTVSPropertyOp62
 70
     1
  0
XRECORD
  5
855A
102
{ACAD_REACTORS
330
8559
102
}
330
8559
100
AcDbXrecord
280
     1
102
RTVSPost2010Prop28
280
     0
102
RTVSPost2010PropOp28
 70
     1
102
RTVSPost2010Prop29
280
     1
102
RTVSPost2010PropOp29
 70
     1
102
RTVSPost2010Prop30
280
     1
102
RTVSPost2010PropOp30
 70
     1
102
RTVSPost2010Prop31
280
     0
102
RTVSPost2010PropOp31
 70
     1
102
RTVSPost2010Prop32
280
     0
102
RTVSPost2010PropOp32
 70
     1
102
RTVSPost2010Prop33
280
     0
102
RTVSPost2010PropOp33
 70
     1
102
RTVSPost2010Prop34
280
     0
102
RTVSPost2010PropOp34
 70
     1
102
RTVSPost2010Prop35
280
     0
102
RTVSPost2010PropOp35
 70
     1
102
RTVSPost2010Prop36
280
     0
102
RTVSPost2010PropOp36
 70
     1
102
RTVSPost2010Prop37
 90
       50
102
RTVSPost2010PropOp37
 70
     1
102
RTVSPost2010Prop38
140
0.0
102
RTVSPost2010PropOp38
 70
     1
102
RTVSPost2010Prop39
140
1.0
102
RTVSPost2010PropOp39
 70
     1
102
RTVSPost2010Prop40
 90
        0
102
RTVSPost2010PropOp40
 70
     1
102
RTVSPost2010Prop41ColorIndex
 90
       18
102
RTVSPost2010Prop41ColorRGB
 90
        0
102
RTVSPost2010PropOp41
 70
     1
102
RTVSPost2010Prop42
 90
       50
102
RTVSPost2010PropOp42
 70
     1
102
RTVSPost2010Prop43
 90
        3
102
RTVSPost2010PropOp43
 70
     1
102
RTVSPost2010Prop44ColorIndex
 90
        5
102
RTVSPost2010Prop44ColorRGB
 90
      255
102
RTVSPost2010PropOp44
 70
     1
102
RTVSPost2010Prop45
280
     0
102
RTVSPost2010PropOp45
 70
     1
102
RTVSPost2010Prop46
 90
       50
102
RTVSPost2010PropOp46
 70
     1
102
RTVSPost2010Prop47
 90
       50
102
RTVSPost2010PropOp47
 70
     1
102
RTVSPost2010Prop48
 90
       50
102
RTVSPost2010PropOp48
 70
     1
102
RTVSPost2010Prop49
280
     0
102
RTVSPost2010PropOp49
 70
     1
102
RTVSPost2010Prop50
 90
       50
102
RTVSPost2010PropOp50
 70
     1
102
RTVSPost2010Prop51ColorIndex
 90
      256
102
RTVSPost2010Prop51ColorRGB
 90
-16777216
102
RTVSPost2010PropOp51
 70
     0
102
RTVSPost2010Prop52
140
1.0
102
RTVSPost2010PropOp52
 70
     0
102
RTVSPost2010Prop53
 90
        2
102
RTVSPost2010PropOp53
 70
     1
102
RTVSPost2010Prop54
  1
strokes_ogs.tif
102
RTVSPost2010PropOp54
 70
     1
102
RTVSPost2010Prop55
280
     0
102
RTVSPost2010PropOp55
 70
     1
102
RTVSPost2010Prop56
140
1.0
102
RTVSPost2010PropOp56
 70
     1
102
RTVSPost2010Prop57
140
1.0
102
RTVSPost2010PropOp57
 70
     1
102
RTVSPropertyOp0
 70
     1
102
RTVSPropertyOp1
 70
     1
102
RTVSPropertyOp2
 70
     1
102
RTVSPropertyOp3
 70
     1
102
RTVSPropertyOp4
 70
     1
102
RTVSPropertyOp5
 70
     1
102
RTVSPropertyOp6
 70
     1
102
RTVSPropertyOp7
 70
     1
102
RTVSPropertyOp8
 70
     1
102
RTVSPropertyOp9
 70
     1
102
RTVSPropertyOp10
 70
     1
102
RTVSPropertyOp11
 70
     1
102
RTVSPropertyOp12
 70
     1
102
RTVSPropertyOp13
 70
     1
102
RTVSPropertyOp14
 70
     1
102
RTVSPropertyOp15
 70
     1
102
RTVSPropertyOp16
 70
     1
102
RTVSPropertyOp17
 70
     1
102
RTVSPropertyOp18
 70
     1
102
RTVSPropertyOp19
 70
     1
102
RTVSPropertyOp20
 70
     1
102
RTVSPropertyOp21
 70
     1
102
RTVSPropertyOp22
 70
     1
102
RTVSPropertyOp23
 70
     1
102
RTVSPropertyOp24
 70
     1
102
RTVSPropertyOp25
 70
     1
102
RTVSPropertyOp26
 70
     1
102
RTVSPropertyOp27
 70
     1
102
RTVSPropertyOp28
 70
     1
102
RTVSPropertyOp29
 70
     1
102
RTVSPropertyOp30
 70
     1
102
RTVSPropertyOp31
 70
     1
102
RTVSPropertyOp32
 70
     1
102
RTVSPropertyOp33
 70
     1
102
RTVSPropertyOp34
 70
     1
102
RTVSPropertyOp35
 70
     1
102
RTVSPropertyOp36
 70
     1
102
RTVSPropertyOp37
 70
     1
102
RTVSPropertyOp38
 70
     1
102
RTVSPropertyOp39
 70
     1
102
RTVSPropertyOp40
 70
     1
102
RTVSPropertyOp41
 70
     1
102
RTVSPropertyOp42
 70
     1
102
RTVSPropertyOp43
 70
     1
102
RTVSPropertyOp44
 70
     1
102
RTVSPropertyOp45
 70
     1
102
RTVSPropertyOp46
 70
     1
102
RTVSPropertyOp47
 70
     1
102
RTVSPropertyOp48
 70
     1
102
RTVSPropertyOp49
 70
     1
102
RTVSPropertyOp50
 70
     1
102
RTVSPropertyOp51
 70
     0
102
RTVSPropertyOp52
 70
     0
102
RTVSPropertyOp53
 70
     1
102
RTVSPropertyOp54
 70
     1
102
RTVSPropertyOp55
 70
     1
102
RTVSPropertyOp56
 70
     1
102
RTVSPropertyOp57
 70
     1
102
RTVSPropertyOp58
 70
     1
102
RTVSPropertyOp59
 70
     1
102
RTVSPropertyOp60
 70
     1
102
RTVSPropertyOp61
 70
     1
102
RTVSPropertyOp62
 70
     1
  0
XRECORD
  5
855C
102
{ACAD_REACTORS
330
855B
102
}
330
855B
100
AcDbXrecord
280
     1
102
RTVSPost2010Prop28
280
     0
102
RTVSPost2010PropOp28
 70
     1
102
RTVSPost2010Prop29
280
     1
102
RTVSPost2010PropOp29
 70
     1
102
RTVSPost2010Prop30
280
     1
102
RTVSPost2010PropOp30
 70
     1
102
RTVSPost2010Prop31
280
     0
102
RTVSPost2010PropOp31
 70
     1
102
RTVSPost2010Prop32
280
     0
102
RTVSPost2010PropOp32
 70
     1
102
RTVSPost2010Prop33
280
     0
102
RTVSPost2010PropOp33
 70
     1
102
RTVSPost2010Prop34
280
     0
102
RTVSPost2010PropOp34
 70
     1
102
RTVSPost2010Prop35
280
     0
102
RTVSPost2010PropOp35
 70
     1
102
RTVSPost2010Prop36
280
     0
102
RTVSPost2010PropOp36
 70
     1
102
RTVSPost2010Prop37
 90
       50
102
RTVSPost2010PropOp37
 70
     1
102
RTVSPost2010Prop38
140
0.0
102
RTVSPost2010PropOp38
 70
     1
102
RTVSPost2010Prop39
140
1.0
102
RTVSPost2010PropOp39
 70
     1
102
RTVSPost2010Prop40
 90
        0
102
RTVSPost2010PropOp40
 70
     1
102
RTVSPost2010Prop41ColorIndex
 90
       18
102
RTVSPost2010Prop41ColorRGB
 90
        0
102
RTVSPost2010PropOp41
 70
     1
102
RTVSPost2010Prop42
 90
       50
102
RTVSPost2010PropOp42
 70
     1
102
RTVSPost2010Prop43
 90
        3
102
RTVSPost2010PropOp43
 70
     1
102
RTVSPost2010Prop44ColorIndex
 90
        5
102
RTVSPost2010Prop44ColorRGB
 90
      255
102
RTVSPost2010PropOp44
 70
     1
102
RTVSPost2010Prop45
280
     0
102
RTVSPost2010PropOp45
 70
     1
102
RTVSPost2010Prop46
 90
       50
102
RTVSPost2010PropOp46
 70
     1
102
RTVSPost2010Prop47
 90
       50
102
RTVSPost2010PropOp47
 70
     1
102
RTVSPost2010Prop48
 90
       50
102
RTVSPost2010PropOp48
 70
     1
102
RTVSPost2010Prop49
280
     0
102
RTVSPost2010PropOp49
 70
     1
102
RTVSPost2010Prop50
 90
       50
102
RTVSPost2010PropOp50
 70
     1
102
RTVSPost2010Prop51ColorIndex
 90
      256
102
RTVSPost2010Prop51ColorRGB
 90
-16777216
102
RTVSPost2010PropOp51
 70
     0
102
RTVSPost2010Prop52
140
1.0
102
RTVSPost2010PropOp52
 70
     0
102
RTVSPost2010Prop53
 90
        2
102
RTVSPost2010PropOp53
 70
     1
102
RTVSPost2010Prop54
  1
strokes_ogs.tif
102
RTVSPost2010PropOp54
 70
     1
102
RTVSPost2010Prop55
280
     0
102
RTVSPost2010PropOp55
 70
     1
102
RTVSPost2010Prop56
140
1.0
102
RTVSPost2010PropOp56
 70
     1
102
RTVSPost2010Prop57
140
1.0
102
RTVSPost2010PropOp57
 70
     1
102
RTVSPropertyOp0
 70
     1
102
RTVSPropertyOp1
 70
     1
102
RTVSPropertyOp2
 70
     1
102
RTVSPropertyOp3
 70
     1
102
RTVSPropertyOp4
 70
     1
102
RTVSPropertyOp5
 70
     1
102
RTVSPropertyOp6
 70
     1
102
RTVSPropertyOp7
 70
     1
102
RTVSPropertyOp8
 70
     1
102
RTVSPropertyOp9
 70
     1
102
RTVSPropertyOp10
 70
     1
102
RTVSPropertyOp11
 70
     1
102
RTVSPropertyOp12
 70
     1
102
RTVSPropertyOp13
 70
     1
102
RTVSPropertyOp14
 70
     1
102
RTVSPropertyOp15
 70
     1
102
RTVSPropertyOp16
 70
     1
102
RTVSPropertyOp17
 70
     1
102
RTVSPropertyOp18
 70
     1
102
RTVSPropertyOp19
 70
     1
102
RTVSPropertyOp20
 70
     1
102
RTVSPropertyOp21
 70
     1
102
RTVSPropertyOp22
 70
     1
102
RTVSPropertyOp23
 70
     1
102
RTVSPropertyOp24
 70
     1
102
RTVSPropertyOp25
 70
     1
102
RTVSPropertyOp26
 70
     1
102
RTVSPropertyOp27
 70
     1
102
RTVSPropertyOp28
 70
     1
102
RTVSPropertyOp29
 70
     1
102
RTVSPropertyOp30
 70
     1
102
RTVSPropertyOp31
 70
     1
102
RTVSPropertyOp32
 70
     1
102
RTVSPropertyOp33
 70
     1
102
RTVSPropertyOp34
 70
     1
102
RTVSPropertyOp35
 70
     1
102
RTVSPropertyOp36
 70
     1
102
RTVSPropertyOp37
 70
     1
102
RTVSPropertyOp38
 70
     1
102
RTVSPropertyOp39
 70
     1
102
RTVSPropertyOp40
 70
     1
102
RTVSPropertyOp41
 70
     1
102
RTVSPropertyOp42
 70
     1
102
RTVSPropertyOp43
 70
     1
102
RTVSPropertyOp44
 70
     1
102
RTVSPropertyOp45
 70
     1
102
RTVSPropertyOp46
 70
     1
102
RTVSPropertyOp47
 70
     1
102
RTVSPropertyOp48
 70
     1
102
RTVSPropertyOp49
 70
     1
102
RTVSPropertyOp50
 70
     1
102
RTVSPropertyOp51
 70
     0
102
RTVSPropertyOp52
 70
     0
102
RTVSPropertyOp53
 70
     1
102
RTVSPropertyOp54
 70
     1
102
RTVSPropertyOp55
 70
     1
102
RTVSPropertyOp56
 70
     1
102
RTVSPropertyOp57
 70
     1
102
RTVSPropertyOp58
 70
     1
102
RTVSPropertyOp59
 70
     1
102
RTVSPropertyOp60
 70
     1
102
RTVSPropertyOp61
 70
     1
102
RTVSPropertyOp62
 70
     1
  0
XRECORD
  5
8564
102
{ACAD_REACTORS
330
8563
102
}
330
8563
100
AcDbXrecord
280
     1
102
RTVSPost2010Prop28
280
     0
102
RTVSPost2010PropOp28
 70
     1
102
RTVSPost2010Prop29
280
     1
102
RTVSPost2010PropOp29
 70
     1
102
RTVSPost2010Prop30
280
     1
102
RTVSPost2010PropOp30
 70
     1
102
RTVSPost2010Prop31
280
     0
102
RTVSPost2010PropOp31
 70
     1
102
RTVSPost2010Prop32
280
     0
102
RTVSPost2010PropOp32
 70
     1
102
RTVSPost2010Prop33
280
     0
102
RTVSPost2010PropOp33
 70
     1
102
RTVSPost2010Prop34
280
     0
102
RTVSPost2010PropOp34
 70
     1
102
RTVSPost2010Prop35
280
     0
102
RTVSPost2010PropOp35
 70
     1
102
RTVSPost2010Prop36
280
     0
102
RTVSPost2010PropOp36
 70
     1
102
RTVSPost2010Prop37
 90
       50
102
RTVSPost2010PropOp37
 70
     1
102
RTVSPost2010Prop38
140
0.0
102
RTVSPost2010PropOp38
 70
     1
102
RTVSPost2010Prop39
140
1.0
102
RTVSPost2010PropOp39
 70
     1
102
RTVSPost2010Prop40
 90
        0
102
RTVSPost2010PropOp40
 70
     1
102
RTVSPost2010Prop41ColorIndex
 90
       18
102
RTVSPost2010Prop41ColorRGB
 90
        0
102
RTVSPost2010PropOp41
 70
     1
102
RTVSPost2010Prop42
 90
       50
102
RTVSPost2010PropOp42
 70
     1
102
RTVSPost2010Prop43
 90
        3
102
RTVSPost2010PropOp43
 70
     1
102
RTVSPost2010Prop44ColorIndex
 90
        5
102
RTVSPost2010Prop44ColorRGB
 90
      255
102
RTVSPost2010PropOp44
 70
     1
102
RTVSPost2010Prop45
280
     0
102
RTVSPost2010PropOp45
 70
     1
102
RTVSPost2010Prop46
 90
       50
102
RTVSPost2010PropOp46
 70
     1
102
RTVSPost2010Prop47
 90
       50
102
RTVSPost2010PropOp47
 70
     1
102
RTVSPost2010Prop48
 90
       50
102
RTVSPost2010PropOp48
 70
     1
102
RTVSPost2010Prop49
280
     0
102
RTVSPost2010PropOp49
 70
     1
102
RTVSPost2010Prop50
 90
       50
102
RTVSPost2010PropOp50
 70
     1
102
RTVSPost2010Prop51ColorIndex
 90
      256
102
RTVSPost2010Prop51ColorRGB
 90
-16777216
102
RTVSPost2010PropOp51
 70
     0
102
RTVSPost2010Prop52
140
1.0
102
RTVSPost2010PropOp52
 70
     0
102
RTVSPost2010Prop53
 90
        2
102
RTVSPost2010PropOp53
 70
     1
102
RTVSPost2010Prop54
  1
strokes_ogs.tif
102
RTVSPost2010PropOp54
 70
     1
102
RTVSPost2010Prop55
280
     0
102
RTVSPost2010PropOp55
 70
     1
102
RTVSPost2010Prop56
140
1.0
102
RTVSPost2010PropOp56
 70
     1
102
RTVSPost2010Prop57
140
1.0
102
RTVSPost2010PropOp57
 70
     1
102
RTVSPropertyOp0
 70
     1
102
RTVSPropertyOp1
 70
     1
102
RTVSPropertyOp2
 70
     1
102
RTVSPropertyOp3
 70
     1
102
RTVSPropertyOp4
 70
     1
102
RTVSPropertyOp5
 70
     1
102
RTVSPropertyOp6
 70
     1
102
RTVSPropertyOp7
 70
     1
102
RTVSPropertyOp8
 70
     1
102
RTVSPropertyOp9
 70
     1
102
RTVSPropertyOp10
 70
     1
102
RTVSPropertyOp11
 70
     1
102
RTVSPropertyOp12
 70
     1
102
RTVSPropertyOp13
 70
     1
102
RTVSPropertyOp14
 70
     1
102
RTVSPropertyOp15
 70
     1
102
RTVSPropertyOp16
 70
     1
102
RTVSPropertyOp17
 70
     1
102
RTVSPropertyOp18
 70
     1
102
RTVSPropertyOp19
 70
     1
102
RTVSPropertyOp20
 70
     1
102
RTVSPropertyOp21
 70
     1
102
RTVSPropertyOp22
 70
     1
102
RTVSPropertyOp23
 70
     1
102
RTVSPropertyOp24
 70
     1
102
RTVSPropertyOp25
 70
     1
102
RTVSPropertyOp26
 70
     1
102
RTVSPropertyOp27
 70
     1
102
RTVSPropertyOp28
 70
     1
102
RTVSPropertyOp29
 70
     1
102
RTVSPropertyOp30
 70
     1
102
RTVSPropertyOp31
 70
     1
102
RTVSPropertyOp32
 70
     1
102
RTVSPropertyOp33
 70
     1
102
RTVSPropertyOp34
 70
     1
102
RTVSPropertyOp35
 70
     1
102
RTVSPropertyOp36
 70
     1
102
RTVSPropertyOp37
 70
     1
102
RTVSPropertyOp38
 70
     1
102
RTVSPropertyOp39
 70
     1
102
RTVSPropertyOp40
 70
     1
102
RTVSPropertyOp41
 70
     1
102
RTVSPropertyOp42
 70
     1
102
RTVSPropertyOp43
 70
     1
102
RTVSPropertyOp44
 70
     1
102
RTVSPropertyOp45
 70
     1
102
RTVSPropertyOp46
 70
     1
102
RTVSPropertyOp47
 70
     1
102
RTVSPropertyOp48
 70
     1
102
RTVSPropertyOp49
 70
     1
102
RTVSPropertyOp50
 70
     1
102
RTVSPropertyOp51
 70
     0
102
RTVSPropertyOp52
 70
     0
102
RTVSPropertyOp53
 70
     1
102
RTVSPropertyOp54
 70
     1
102
RTVSPropertyOp55
 70
     1
102
RTVSPropertyOp56
 70
     1
102
RTVSPropertyOp57
 70
     1
102
RTVSPropertyOp58
 70
     1
102
RTVSPropertyOp59
 70
     1
102
RTVSPropertyOp60
 70
     1
102
RTVSPropertyOp61
 70
     1
102
RTVSPropertyOp62
 70
     1
  0
XRECORD
  5
8580
102
{ACAD_REACTORS
330
857F
102
}
330
857F
100
AcDbXrecord
280
     1
102
RTVSPost2010Prop28
280
     0
102
RTVSPost2010PropOp28
 70
     1
102
RTVSPost2010Prop29
280
     1
102
RTVSPost2010PropOp29
 70
     1
102
RTVSPost2010Prop30
280
     1
102
RTVSPost2010PropOp30
 70
     1
102
RTVSPost2010Prop31
280
     0
102
RTVSPost2010PropOp31
 70
     1
102
RTVSPost2010Prop32
280
     0
102
RTVSPost2010PropOp32
 70
     1
102
RTVSPost2010Prop33
280
     0
102
RTVSPost2010PropOp33
 70
     1
102
RTVSPost2010Prop34
280
     0
102
RTVSPost2010PropOp34
 70
     1
102
RTVSPost2010Prop35
280
     0
102
RTVSPost2010PropOp35
 70
     1
102
RTVSPost2010Prop36
280
     0
102
RTVSPost2010PropOp36
 70
     1
102
RTVSPost2010Prop37
 90
       50
102
RTVSPost2010PropOp37
 70
     0
102
RTVSPost2010Prop38
140
0.0
102
RTVSPost2010PropOp38
 70
     0
102
RTVSPost2010Prop39
140
1.0
102
RTVSPost2010PropOp39
 70
     0
102
RTVSPost2010Prop40
 90
        0
102
RTVSPost2010PropOp40
 70
     0
102
RTVSPost2010Prop41ColorIndex
 90
       18
102
RTVSPost2010Prop41ColorRGB
 90
        0
102
RTVSPost2010PropOp41
 70
     0
102
RTVSPost2010Prop42
 90
       50
102
RTVSPost2010PropOp42
 70
     0
102
RTVSPost2010Prop43
 90
        3
102
RTVSPost2010PropOp43
 70
     0
102
RTVSPost2010Prop44ColorIndex
 90
        5
102
RTVSPost2010Prop44ColorRGB
 90
      255
102
RTVSPost2010PropOp44
 70
     0
102
RTVSPost2010Prop45
280
     0
102
RTVSPost2010PropOp45
 70
     1
102
RTVSPost2010Prop46
 90
       50
102
RTVSPost2010PropOp46
 70
     0
102
RTVSPost2010Prop47
 90
       50
102
RTVSPost2010PropOp47
 70
     0
102
RTVSPost2010Prop48
 90
       50
102
RTVSPost2010PropOp48
 70
     0
102
RTVSPost2010Prop49
280
     0
102
RTVSPost2010PropOp49
 70
     1
102
RTVSPost2010Prop50
 90
       50
102
RTVSPost2010PropOp50
 70
     0
102
RTVSPost2010Prop51ColorIndex
 90
      256
102
RTVSPost2010Prop51ColorRGB
 90
-16777216
102
RTVSPost2010PropOp51
 70
     0
102
RTVSPost2010Prop52
140
1.0
102
RTVSPost2010PropOp52
 70
     0
102
RTVSPost2010Prop53
 90
        2
102
RTVSPost2010PropOp53
 70
     0
102
RTVSPost2010Prop54
  1
strokes_ogs.tif
102
RTVSPost2010PropOp54
 70
     0
102
RTVSPost2010Prop55
280
     0
102
RTVSPost2010PropOp55
 70
     1
102
RTVSPost2010Prop56
140
1.0
102
RTVSPost2010PropOp56
 70
     0
102
RTVSPost2010Prop57
140
1.0
102
RTVSPost2010PropOp57
 70
     0
102
RTVSPropertyOp0
 70
     0
102
RTVSPropertyOp1
 70
     0
102
RTVSPropertyOp2
 70
     0
102
RTVSPropertyOp3
 70
     0
102
RTVSPropertyOp4
 70
     0
102
RTVSPropertyOp5
 70
     0
102
RTVSPropertyOp6
 70
     0
102
RTVSPropertyOp7
 70
     0
102
RTVSPropertyOp8
 70
     0
102
RTVSPropertyOp9
 70
     0
102
RTVSPropertyOp10
 70
     0
102
RTVSPropertyOp11
 70
     0
102
RTVSPropertyOp12
 70
     0
102
RTVSPropertyOp13
 70
     0
102
RTVSPropertyOp14
 70
     2
102
RTVSPropertyOp15
 70
     0
102
RTVSPropertyOp16
 70
     0
102
RTVSPropertyOp17
 70
     0
102
RTVSPropertyOp18
 70
     0
102
RTVSPropertyOp19
 70
     0
102
RTVSPropertyOp20
 70
     0
102
RTVSPropertyOp21
 70
     0
102
RTVSPropertyOp22
 70
     0
102
RTVSPropertyOp23
 70
     0
102
RTVSPropertyOp24
 70
     0
102
RTVSPropertyOp25
 70
     0
102
RTVSPropertyOp26
 70
     0
102
RTVSPropertyOp27
 70
     0
102
RTVSPropertyOp28
 70
     1
102
RTVSPropertyOp29
 70
     1
102
RTVSPropertyOp30
 70
     1
102
RTVSPropertyOp31
 70
     1
102
RTVSPropertyOp32
 70
     1
102
RTVSPropertyOp33
 70
     1
102
RTVSPropertyOp34
 70
     1
102
RTVSPropertyOp35
 70
     1
102
RTVSPropertyOp36
 70
     1
102
RTVSPropertyOp37
 70
     0
102
RTVSPropertyOp38
 70
     0
102
RTVSPropertyOp39
 70
     0
102
RTVSPropertyOp40
 70
     0
102
RTVSPropertyOp41
 70
     0
102
RTVSPropertyOp42
 70
     0
102
RTVSPropertyOp43
 70
     0
102
RTVSPropertyOp44
 70
     0
102
RTVSPropertyOp45
 70
     1
102
RTVSPropertyOp46
 70
     0
102
RTVSPropertyOp47
 70
     0
102
RTVSPropertyOp48
 70
     0
102
RTVSPropertyOp49
 70
     1
102
RTVSPropertyOp50
 70
     0
102
RTVSPropertyOp51
 70
     0
102
RTVSPropertyOp52
 70
     0
102
RTVSPropertyOp53
 70
     0
102
RTVSPropertyOp54
 70
     0
102
RTVSPropertyOp55
 70
     1
102
RTVSPropertyOp56
 70
     0
102
RTVSPropertyOp57
 70
     0
102
RTVSPropertyOp58
 70
     0
102
RTVSPropertyOp59
 70
     0
102
RTVSPropertyOp60
 70
     0
102
RTVSPropertyOp61
 70
     0
102
RTVSPropertyOp62
 70
     0
  0
XRECORD
  5
8570
102
{ACAD_REACTORS
330
856F
102
}
330
856F
100
AcDbXrecord
280
     1
102
RTVSPost2010Prop28
280
     0
102
RTVSPost2010PropOp28
 70
     1
102
RTVSPost2010Prop29
280
     1
102
RTVSPost2010PropOp29
 70
     1
102
RTVSPost2010Prop30
280
     1
102
RTVSPost2010PropOp30
 70
     1
102
RTVSPost2010Prop31
280
     0
102
RTVSPost2010PropOp31
 70
     1
102
RTVSPost2010Prop32
280
     0
102
RTVSPost2010PropOp32
 70
     1
102
RTVSPost2010Prop33
280
     0
102
RTVSPost2010PropOp33
 70
     1
102
RTVSPost2010Prop34
280
     0
102
RTVSPost2010PropOp34
 70
     1
102
RTVSPost2010Prop35
280
     0
102
RTVSPost2010PropOp35
 70
     1
102
RTVSPost2010Prop36
280
     0
102
RTVSPost2010PropOp36
 70
     1
102
RTVSPost2010Prop37
 90
       50
102
RTVSPost2010PropOp37
 70
     1
102
RTVSPost2010Prop38
140
0.0
102
RTVSPost2010PropOp38
 70
     1
102
RTVSPost2010Prop39
140
1.0
102
RTVSPost2010PropOp39
 70
     1
102
RTVSPost2010Prop40
 90
        0
102
RTVSPost2010PropOp40
 70
     1
102
RTVSPost2010Prop41ColorIndex
 90
       18
102
RTVSPost2010Prop41ColorRGB
 90
        0
102
RTVSPost2010PropOp41
 70
     1
102
RTVSPost2010Prop42
 90
       50
102
RTVSPost2010PropOp42
 70
     1
102
RTVSPost2010Prop43
 90
        3
102
RTVSPost2010PropOp43
 70
     1
102
RTVSPost2010Prop44ColorIndex
 90
        5
102
RTVSPost2010Prop44ColorRGB
 90
      255
102
RTVSPost2010PropOp44
 70
     1
102
RTVSPost2010Prop45
280
     0
102
RTVSPost2010PropOp45
 70
     1
102
RTVSPost2010Prop46
 90
       50
102
RTVSPost2010PropOp46
 70
     1
102
RTVSPost2010Prop47
 90
       50
102
RTVSPost2010PropOp47
 70
     1
102
RTVSPost2010Prop48
 90
       50
102
RTVSPost2010PropOp48
 70
     1
102
RTVSPost2010Prop49
280
     0
102
RTVSPost2010PropOp49
 70
     1
102
RTVSPost2010Prop50
 90
       50
102
RTVSPost2010PropOp50
 70
     1
102
RTVSPost2010Prop51ColorIndex
 90
      256
102
RTVSPost2010Prop51ColorRGB
 90
-16777216
102
RTVSPost2010PropOp51
 70
     0
102
RTVSPost2010Prop52
140
1.0
102
RTVSPost2010PropOp52
 70
     0
102
RTVSPost2010Prop53
 90
        2
102
RTVSPost2010PropOp53
 70
     1
102
RTVSPost2010Prop54
  1
strokes_ogs.tif
102
RTVSPost2010PropOp54
 70
     1
102
RTVSPost2010Prop55
280
     0
102
RTVSPost2010PropOp55
 70
     1
102
RTVSPost2010Prop56
140
1.0
102
RTVSPost2010PropOp56
 70
     1
102
RTVSPost2010Prop57
140
1.0
102
RTVSPost2010PropOp57
 70
     1
102
RTVSPropertyOp0
 70
     1
102
RTVSPropertyOp1
 70
     1
102
RTVSPropertyOp2
 70
     1
102
RTVSPropertyOp3
 70
     1
102
RTVSPropertyOp4
 70
     1
102
RTVSPropertyOp5
 70
     1
102
RTVSPropertyOp6
 70
     1
102
RTVSPropertyOp7
 70
     1
102
RTVSPropertyOp8
 70
     1
102
RTVSPropertyOp9
 70
     1
102
RTVSPropertyOp10
 70
     1
102
RTVSPropertyOp11
 70
     1
102
RTVSPropertyOp12
 70
     1
102
RTVSPropertyOp13
 70
     1
102
RTVSPropertyOp14
 70
     1
102
RTVSPropertyOp15
 70
     1
102
RTVSPropertyOp16
 70
     1
102
RTVSPropertyOp17
 70
     1
102
RTVSPropertyOp18
 70
     1
102
RTVSPropertyOp19
 70
     1
102
RTVSPropertyOp20
 70
     1
102
RTVSPropertyOp21
 70
     1
102
RTVSPropertyOp22
 70
     1
102
RTVSPropertyOp23
 70
     1
102
RTVSPropertyOp24
 70
     1
102
RTVSPropertyOp25
 70
     1
102
RTVSPropertyOp26
 70
     1
102
RTVSPropertyOp27
 70
     1
102
RTVSPropertyOp28
 70
     1
102
RTVSPropertyOp29
 70
     1
102
RTVSPropertyOp30
 70
     1
102
RTVSPropertyOp31
 70
     1
102
RTVSPropertyOp32
 70
     1
102
RTVSPropertyOp33
 70
     1
102
RTVSPropertyOp34
 70
     1
102
RTVSPropertyOp35
 70
     1
102
RTVSPropertyOp36
 70
     1
102
RTVSPropertyOp37
 70
     1
102
RTVSPropertyOp38
 70
     1
102
RTVSPropertyOp39
 70
     1
102
RTVSPropertyOp40
 70
     1
102
RTVSPropertyOp41
 70
     1
102
RTVSPropertyOp42
 70
     1
102
RTVSPropertyOp43
 70
     1
102
RTVSPropertyOp44
 70
     1
102
RTVSPropertyOp45
 70
     1
102
RTVSPropertyOp46
 70
     1
102
RTVSPropertyOp47
 70
     1
102
RTVSPropertyOp48
 70
     1
102
RTVSPropertyOp49
 70
     1
102
RTVSPropertyOp50
 70
     1
102
RTVSPropertyOp51
 70
     0
102
RTVSPropertyOp52
 70
     0
102
RTVSPropertyOp53
 70
     1
102
RTVSPropertyOp54
 70
     1
102
RTVSPropertyOp55
 70
     1
102
RTVSPropertyOp56
 70
     1
102
RTVSPropertyOp57
 70
     1
102
RTVSPropertyOp58
 70
     1
102
RTVSPropertyOp59
 70
     1
102
RTVSPropertyOp60
 70
     1
102
RTVSPropertyOp61
 70
     1
102
RTVSPropertyOp62
 70
     1
  0
XRECORD
  5
8582
102
{ACAD_REACTORS
330
8581
102
}
330
8581
100
AcDbXrecord
280
     1
102
RTVSPost2010Prop28
280
     0
102
RTVSPost2010PropOp28
 70
     1
102
RTVSPost2010Prop29
280
     1
102
RTVSPost2010PropOp29
 70
     1
102
RTVSPost2010Prop30
280
     1
102
RTVSPost2010PropOp30
 70
     1
102
RTVSPost2010Prop31
280
     0
102
RTVSPost2010PropOp31
 70
     1
102
RTVSPost2010Prop32
280
     0
102
RTVSPost2010PropOp32
 70
     1
102
RTVSPost2010Prop33
280
     0
102
RTVSPost2010PropOp33
 70
     1
102
RTVSPost2010Prop34
280
     0
102
RTVSPost2010PropOp34
 70
     1
102
RTVSPost2010Prop35
280
     0
102
RTVSPost2010PropOp35
 70
     1
102
RTVSPost2010Prop36
280
     0
102
RTVSPost2010PropOp36
 70
     1
102
RTVSPost2010Prop37
 90
       50
102
RTVSPost2010PropOp37
 70
     0
102
RTVSPost2010Prop38
140
0.0
102
RTVSPost2010PropOp38
 70
     0
102
RTVSPost2010Prop39
140
1.0
102
RTVSPost2010PropOp39
 70
     0
102
RTVSPost2010Prop40
 90
        0
102
RTVSPost2010PropOp40
 70
     0
102
RTVSPost2010Prop41ColorIndex
 90
       18
102
RTVSPost2010Prop41ColorRGB
 90
        0
102
RTVSPost2010PropOp41
 70
     0
102
RTVSPost2010Prop42
 90
       50
102
RTVSPost2010PropOp42
 70
     0
102
RTVSPost2010Prop43
 90
        3
102
RTVSPost2010PropOp43
 70
     0
102
RTVSPost2010Prop44ColorIndex
 90
        5
102
RTVSPost2010Prop44ColorRGB
 90
      255
102
RTVSPost2010PropOp44
 70
     0
102
RTVSPost2010Prop45
280
     0
102
RTVSPost2010PropOp45
 70
     1
102
RTVSPost2010Prop46
 90
       50
102
RTVSPost2010PropOp46
 70
     0
102
RTVSPost2010Prop47
 90
       50
102
RTVSPost2010PropOp47
 70
     0
102
RTVSPost2010Prop48
 90
       50
102
RTVSPost2010PropOp48
 70
     0
102
RTVSPost2010Prop49
280
     0
102
RTVSPost2010PropOp49
 70
     1
102
RTVSPost2010Prop50
 90
       50
102
RTVSPost2010PropOp50
 70
     0
102
RTVSPost2010Prop51ColorIndex
 90
      256
102
RTVSPost2010Prop51ColorRGB
 90
-16777216
102
RTVSPost2010PropOp51
 70
     0
102
RTVSPost2010Prop52
140
1.0
102
RTVSPost2010PropOp52
 70
     0
102
RTVSPost2010Prop53
 90
        2
102
RTVSPost2010PropOp53
 70
     0
102
RTVSPost2010Prop54
  1
strokes_ogs.tif
102
RTVSPost2010PropOp54
 70
     0
102
RTVSPost2010Prop55
280
     0
102
RTVSPost2010PropOp55
 70
     1
102
RTVSPost2010Prop56
140
1.0
102
RTVSPost2010PropOp56
 70
     0
102
RTVSPost2010Prop57
140
1.0
102
RTVSPost2010PropOp57
 70
     0
102
RTVSPropertyOp0
 70
     0
102
RTVSPropertyOp1
 70
     0
102
RTVSPropertyOp2
 70
     0
102
RTVSPropertyOp3
 70
     0
102
RTVSPropertyOp4
 70
     0
102
RTVSPropertyOp5
 70
     0
102
RTVSPropertyOp6
 70
     0
102
RTVSPropertyOp7
 70
     0
102
RTVSPropertyOp8
 70
     0
102
RTVSPropertyOp9
 70
     0
102
RTVSPropertyOp10
 70
     0
102
RTVSPropertyOp11
 70
     0
102
RTVSPropertyOp12
 70
     0
102
RTVSPropertyOp13
 70
     0
102
RTVSPropertyOp14
 70
     2
102
RTVSPropertyOp15
 70
     0
102
RTVSPropertyOp16
 70
     0
102
RTVSPropertyOp17
 70
     0
102
RTVSPropertyOp18
 70
     0
102
RTVSPropertyOp19
 70
     0
102
RTVSPropertyOp20
 70
     0
102
RTVSPropertyOp21
 70
     0
102
RTVSPropertyOp22
 70
     0
102
RTVSPropertyOp23
 70
     0
102
RTVSPropertyOp24
 70
     0
102
RTVSPropertyOp25
 70
     0
102
RTVSPropertyOp26
 70
     0
102
RTVSPropertyOp27
 70
     0
102
RTVSPropertyOp28
 70
     1
102
RTVSPropertyOp29
 70
     1
102
RTVSPropertyOp30
 70
     1
102
RTVSPropertyOp31
 70
     1
102
RTVSPropertyOp32
 70
     1
102
RTVSPropertyOp33
 70
     1
102
RTVSPropertyOp34
 70
     1
102
RTVSPropertyOp35
 70
     1
102
RTVSPropertyOp36
 70
     1
102
RTVSPropertyOp37
 70
     0
102
RTVSPropertyOp38
 70
     0
102
RTVSPropertyOp39
 70
     0
102
RTVSPropertyOp40
 70
     0
102
RTVSPropertyOp41
 70
     0
102
RTVSPropertyOp42
 70
     0
102
RTVSPropertyOp43
 70
     0
102
RTVSPropertyOp44
 70
     0
102
RTVSPropertyOp45
 70
     1
102
RTVSPropertyOp46
 70
     0
102
RTVSPropertyOp47
 70
     0
102
RTVSPropertyOp48
 70
     0
102
RTVSPropertyOp49
 70
     1
102
RTVSPropertyOp50
 70
     0
102
RTVSPropertyOp51
 70
     0
102
RTVSPropertyOp52
 70
     0
102
RTVSPropertyOp53
 70
     0
102
RTVSPropertyOp54
 70
     0
102
RTVSPropertyOp55
 70
     1
102
RTVSPropertyOp56
 70
     0
102
RTVSPropertyOp57
 70
     0
102
RTVSPropertyOp58
 70
     0
102
RTVSPropertyOp59
 70
     0
102
RTVSPropertyOp60
 70
     0
102
RTVSPropertyOp61
 70
     0
102
RTVSPropertyOp62
 70
     0
  0
XRECORD
  5
8568
102
{ACAD_REACTORS
330
8567
102
}
330
8567
100
AcDbXrecord
280
     1
102
RTVSPost2010Prop28
280
     0
102
RTVSPost2010PropOp28
 70
     1
102
RTVSPost2010Prop29
280
     1
102
RTVSPost2010PropOp29
 70
     1
102
RTVSPost2010Prop30
280
     1
102
RTVSPost2010PropOp30
 70
     1
102
RTVSPost2010Prop31
280
     0
102
RTVSPost2010PropOp31
 70
     1
102
RTVSPost2010Prop32
280
     0
102
RTVSPost2010PropOp32
 70
     1
102
RTVSPost2010Prop33
280
     0
102
RTVSPost2010PropOp33
 70
     1
102
RTVSPost2010Prop34
280
     0
102
RTVSPost2010PropOp34
 70
     1
102
RTVSPost2010Prop35
280
     0
102
RTVSPost2010PropOp35
 70
     1
102
RTVSPost2010Prop36
280
     0
102
RTVSPost2010PropOp36
 70
     1
102
RTVSPost2010Prop37
 90
       50
102
RTVSPost2010PropOp37
 70
     1
102
RTVSPost2010Prop38
140
0.0
102
RTVSPost2010PropOp38
 70
     1
102
RTVSPost2010Prop39
140
1.0
102
RTVSPost2010PropOp39
 70
     1
102
RTVSPost2010Prop40
 90
        0
102
RTVSPost2010PropOp40
 70
     1
102
RTVSPost2010Prop41ColorIndex
 90
       18
102
RTVSPost2010Prop41ColorRGB
 90
        0
102
RTVSPost2010PropOp41
 70
     1
102
RTVSPost2010Prop42
 90
       50
102
RTVSPost2010PropOp42
 70
     1
102
RTVSPost2010Prop43
 90
        3
102
RTVSPost2010PropOp43
 70
     1
102
RTVSPost2010Prop44ColorIndex
 90
        5
102
RTVSPost2010Prop44ColorRGB
 90
      255
102
RTVSPost2010PropOp44
 70
     1
102
RTVSPost2010Prop45
280
     0
102
RTVSPost2010PropOp45
 70
     1
102
RTVSPost2010Prop46
 90
       50
102
RTVSPost2010PropOp46
 70
     1
102
RTVSPost2010Prop47
 90
       50
102
RTVSPost2010PropOp47
 70
     1
102
RTVSPost2010Prop48
 90
       50
102
RTVSPost2010PropOp48
 70
     1
102
RTVSPost2010Prop49
280
     0
102
RTVSPost2010PropOp49
 70
     1
102
RTVSPost2010Prop50
 90
       50
102
RTVSPost2010PropOp50
 70
     1
102
RTVSPost2010Prop51ColorIndex
 90
      256
102
RTVSPost2010Prop51ColorRGB
 90
-16777216
102
RTVSPost2010PropOp51
 70
     0
102
RTVSPost2010Prop52
140
1.0
102
RTVSPost2010PropOp52
 70
     0
102
RTVSPost2010Prop53
 90
        2
102
RTVSPost2010PropOp53
 70
     1
102
RTVSPost2010Prop54
  1
strokes_ogs.tif
102
RTVSPost2010PropOp54
 70
     1
102
RTVSPost2010Prop55
280
     0
102
RTVSPost2010PropOp55
 70
     1
102
RTVSPost2010Prop56
140
1.0
102
RTVSPost2010PropOp56
 70
     1
102
RTVSPost2010Prop57
140
1.0
102
RTVSPost2010PropOp57
 70
     1
102
RTVSPropertyOp0
 70
     1
102
RTVSPropertyOp1
 70
     1
102
RTVSPropertyOp2
 70
     1
102
RTVSPropertyOp3
 70
     1
102
RTVSPropertyOp4
 70
     1
102
RTVSPropertyOp5
 70
     1
102
RTVSPropertyOp6
 70
     1
102
RTVSPropertyOp7
 70
     1
102
RTVSPropertyOp8
 70
     1
102
RTVSPropertyOp9
 70
     1
102
RTVSPropertyOp10
 70
     1
102
RTVSPropertyOp11
 70
     1
102
RTVSPropertyOp12
 70
     1
102
RTVSPropertyOp13
 70
     1
102
RTVSPropertyOp14
 70
     1
102
RTVSPropertyOp15
 70
     1
102
RTVSPropertyOp16
 70
     1
102
RTVSPropertyOp17
 70
     1
102
RTVSPropertyOp18
 70
     1
102
RTVSPropertyOp19
 70
     1
102
RTVSPropertyOp20
 70
     1
102
RTVSPropertyOp21
 70
     1
102
RTVSPropertyOp22
 70
     1
102
RTVSPropertyOp23
 70
     1
102
RTVSPropertyOp24
 70
     1
102
RTVSPropertyOp25
 70
     1
102
RTVSPropertyOp26
 70
     1
102
RTVSPropertyOp27
 70
     1
102
RTVSPropertyOp28
 70
     1
102
RTVSPropertyOp29
 70
     1
102
RTVSPropertyOp30
 70
     1
102
RTVSPropertyOp31
 70
     1
102
RTVSPropertyOp32
 70
     1
102
RTVSPropertyOp33
 70
     1
102
RTVSPropertyOp34
 70
     1
102
RTVSPropertyOp35
 70
     1
102
RTVSPropertyOp36
 70
     1
102
RTVSPropertyOp37
 70
     1
102
RTVSPropertyOp38
 70
     1
102
RTVSPropertyOp39
 70
     1
102
RTVSPropertyOp40
 70
     1
102
RTVSPropertyOp41
 70
     1
102
RTVSPropertyOp42
 70
     1
102
RTVSPropertyOp43
 70
     1
102
RTVSPropertyOp44
 70
     1
102
RTVSPropertyOp45
 70
     1
102
RTVSPropertyOp46
 70
     1
102
RTVSPropertyOp47
 70
     1
102
RTVSPropertyOp48
 70
     1
102
RTVSPropertyOp49
 70
     1
102
RTVSPropertyOp50
 70
     1
102
RTVSPropertyOp51
 70
     0
102
RTVSPropertyOp52
 70
     0
102
RTVSPropertyOp53
 70
     1
102
RTVSPropertyOp54
 70
     1
102
RTVSPropertyOp55
 70
     1
102
RTVSPropertyOp56
 70
     1
102
RTVSPropertyOp57
 70
     1
102
RTVSPropertyOp58
 70
     1
102
RTVSPropertyOp59
 70
     1
102
RTVSPropertyOp60
 70
     1
102
RTVSPropertyOp61
 70
     1
102
RTVSPropertyOp62
 70
     1
  0
XRECORD
  5
857E
102
{ACAD_REACTORS
330
857D
102
}
330
857D
100
AcDbXrecord
280
     1
102
RTVSPost2010Prop28
280
     0
102
RTVSPost2010PropOp28
 70
     1
102
RTVSPost2010Prop29
280
     1
102
RTVSPost2010PropOp29
 70
     1
102
RTVSPost2010Prop30
280
     1
102
RTVSPost2010PropOp30
 70
     1
102
RTVSPost2010Prop31
280
     0
102
RTVSPost2010PropOp31
 70
     1
102
RTVSPost2010Prop32
280
     0
102
RTVSPost2010PropOp32
 70
     1
102
RTVSPost2010Prop33
280
     0
102
RTVSPost2010PropOp33
 70
     1
102
RTVSPost2010Prop34
280
     0
102
RTVSPost2010PropOp34
 70
     1
102
RTVSPost2010Prop35
280
     0
102
RTVSPost2010PropOp35
 70
     1
102
RTVSPost2010Prop36
280
     0
102
RTVSPost2010PropOp36
 70
     1
102
RTVSPost2010Prop37
 90
       50
102
RTVSPost2010PropOp37
 70
     1
102
RTVSPost2010Prop38
140
0.0
102
RTVSPost2010PropOp38
 70
     1
102
RTVSPost2010Prop39
140
1.0
102
RTVSPost2010PropOp39
 70
     1
102
RTVSPost2010Prop40
 90
        0
102
RTVSPost2010PropOp40
 70
     1
102
RTVSPost2010Prop41ColorIndex
 90
       18
102
RTVSPost2010Prop41ColorRGB
 90
        0
102
RTVSPost2010PropOp41
 70
     1
102
RTVSPost2010Prop42
 90
       50
102
RTVSPost2010PropOp42
 70
     1
102
RTVSPost2010Prop43
 90
        3
102
RTVSPost2010PropOp43
 70
     1
102
RTVSPost2010Prop44ColorIndex
 90
        5
102
RTVSPost2010Prop44ColorRGB
 90
      255
102
RTVSPost2010PropOp44
 70
     1
102
RTVSPost2010Prop45
280
     0
102
RTVSPost2010PropOp45
 70
     1
102
RTVSPost2010Prop46
 90
       50
102
RTVSPost2010PropOp46
 70
     1
102
RTVSPost2010Prop47
 90
       50
102
RTVSPost2010PropOp47
 70
     1
102
RTVSPost2010Prop48
 90
       50
102
RTVSPost2010PropOp48
 70
     1
102
RTVSPost2010Prop49
280
     0
102
RTVSPost2010PropOp49
 70
     1
102
RTVSPost2010Prop50
 90
       50
102
RTVSPost2010PropOp50
 70
     1
102
RTVSPost2010Prop51ColorIndex
 90
      256
102
RTVSPost2010Prop51ColorRGB
 90
-16777216
102
RTVSPost2010PropOp51
 70
     0
102
RTVSPost2010Prop52
140
1.0
102
RTVSPost2010PropOp52
 70
     0
102
RTVSPost2010Prop53
 90
        2
102
RTVSPost2010PropOp53
 70
     1
102
RTVSPost2010Prop54
  1
strokes_ogs.tif
102
RTVSPost2010PropOp54
 70
     1
102
RTVSPost2010Prop55
280
     0
102
RTVSPost2010PropOp55
 70
     1
102
RTVSPost2010Prop56
140
1.0
102
RTVSPost2010PropOp56
 70
     1
102
RTVSPost2010Prop57
140
1.0
102
RTVSPost2010PropOp57
 70
     1
102
RTVSPropertyOp0
 70
     1
102
RTVSPropertyOp1
 70
     1
102
RTVSPropertyOp2
 70
     1
102
RTVSPropertyOp3
 70
     1
102
RTVSPropertyOp4
 70
     1
102
RTVSPropertyOp5
 70
     1
102
RTVSPropertyOp6
 70
     1
102
RTVSPropertyOp7
 70
     1
102
RTVSPropertyOp8
 70
     1
102
RTVSPropertyOp9
 70
     1
102
RTVSPropertyOp10
 70
     1
102
RTVSPropertyOp11
 70
     1
102
RTVSPropertyOp12
 70
     1
102
RTVSPropertyOp13
 70
     1
102
RTVSPropertyOp14
 70
     1
102
RTVSPropertyOp15
 70
     1
102
RTVSPropertyOp16
 70
     1
102
RTVSPropertyOp17
 70
     1
102
RTVSPropertyOp18
 70
     1
102
RTVSPropertyOp19
 70
     1
102
RTVSPropertyOp20
 70
     1
102
RTVSPropertyOp21
 70
     1
102
RTVSPropertyOp22
 70
     1
102
RTVSPropertyOp23
 70
     1
102
RTVSPropertyOp24
 70
     1
102
RTVSPropertyOp25
 70
     1
102
RTVSPropertyOp26
 70
     1
102
RTVSPropertyOp27
 70
     1
102
RTVSPropertyOp28
 70
     1
102
RTVSPropertyOp29
 70
     1
102
RTVSPropertyOp30
 70
     1
102
RTVSPropertyOp31
 70
     1
102
RTVSPropertyOp32
 70
     1
102
RTVSPropertyOp33
 70
     1
102
RTVSPropertyOp34
 70
     1
102
RTVSPropertyOp35
 70
     1
102
RTVSPropertyOp36
 70
     1
102
RTVSPropertyOp37
 70
     1
102
RTVSPropertyOp38
 70
     1
102
RTVSPropertyOp39
 70
     1
102
RTVSPropertyOp40
 70
     1
102
RTVSPropertyOp41
 70
     1
102
RTVSPropertyOp42
 70
     1
102
RTVSPropertyOp43
 70
     1
102
RTVSPropertyOp44
 70
     1
102
RTVSPropertyOp45
 70
     1
102
RTVSPropertyOp46
 70
     1
102
RTVSPropertyOp47
 70
     1
102
RTVSPropertyOp48
 70
     1
102
RTVSPropertyOp49
 70
     1
102
RTVSPropertyOp50
 70
     1
102
RTVSPropertyOp51
 70
     0
102
RTVSPropertyOp52
 70
     0
102
RTVSPropertyOp53
 70
     1
102
RTVSPropertyOp54
 70
     1
102
RTVSPropertyOp55
 70
     1
102
RTVSPropertyOp56
 70
     1
102
RTVSPropertyOp57
 70
     1
102
RTVSPropertyOp58
 70
     1
102
RTVSPropertyOp59
 70
     1
102
RTVSPropertyOp60
 70
     1
102
RTVSPropertyOp61
 70
     1
102
RTVSPropertyOp62
 70
     1
  0
XRECORD
  5
857C
102
{ACAD_REACTORS
330
857B
102
}
330
857B
100
AcDbXrecord
280
     1
102
RTVSPost2010Prop28
280
     0
102
RTVSPost2010PropOp28
 70
     1
102
RTVSPost2010Prop29
280
     1
102
RTVSPost2010PropOp29
 70
     1
102
RTVSPost2010Prop30
280
     1
102
RTVSPost2010PropOp30
 70
     1
102
RTVSPost2010Prop31
280
     0
102
RTVSPost2010PropOp31
 70
     1
102
RTVSPost2010Prop32
280
     0
102
RTVSPost2010PropOp32
 70
     1
102
RTVSPost2010Prop33
280
     0
102
RTVSPost2010PropOp33
 70
     1
102
RTVSPost2010Prop34
280
     0
102
RTVSPost2010PropOp34
 70
     1
102
RTVSPost2010Prop35
280
     0
102
RTVSPost2010PropOp35
 70
     1
102
RTVSPost2010Prop36
280
     0
102
RTVSPost2010PropOp36
 70
     1
102
RTVSPost2010Prop37
 90
       50
102
RTVSPost2010PropOp37
 70
     1
102
RTVSPost2010Prop38
140
0.0
102
RTVSPost2010PropOp38
 70
     1
102
RTVSPost2010Prop39
140
1.0
102
RTVSPost2010PropOp39
 70
     1
102
RTVSPost2010Prop40
 90
        0
102
RTVSPost2010PropOp40
 70
     1
102
RTVSPost2010Prop41ColorIndex
 90
       18
102
RTVSPost2010Prop41ColorRGB
 90
        0
102
RTVSPost2010PropOp41
 70
     1
102
RTVSPost2010Prop42
 90
       50
102
RTVSPost2010PropOp42
 70
     1
102
RTVSPost2010Prop43
 90
        3
102
RTVSPost2010PropOp43
 70
     1
102
RTVSPost2010Prop44ColorIndex
 90
        5
102
RTVSPost2010Prop44ColorRGB
 90
      255
102
RTVSPost2010PropOp44
 70
     1
102
RTVSPost2010Prop45
280
     0
102
RTVSPost2010PropOp45
 70
     1
102
RTVSPost2010Prop46
 90
       50
102
RTVSPost2010PropOp46
 70
     1
102
RTVSPost2010Prop47
 90
       50
102
RTVSPost2010PropOp47
 70
     1
102
RTVSPost2010Prop48
 90
       50
102
RTVSPost2010PropOp48
 70
     1
102
RTVSPost2010Prop49
280
     0
102
RTVSPost2010PropOp49
 70
     1
102
RTVSPost2010Prop50
 90
       50
102
RTVSPost2010PropOp50
 70
     1
102
RTVSPost2010Prop51ColorIndex
 90
      256
102
RTVSPost2010Prop51ColorRGB
 90
-16777216
102
RTVSPost2010PropOp51
 70
     0
102
RTVSPost2010Prop52
140
1.0
102
RTVSPost2010PropOp52
 70
     0
102
RTVSPost2010Prop53
 90
        2
102
RTVSPost2010PropOp53
 70
     1
102
RTVSPost2010Prop54
  1
strokes_ogs.tif
102
RTVSPost2010PropOp54
 70
     1
102
RTVSPost2010Prop55
280
     0
102
RTVSPost2010PropOp55
 70
     1
102
RTVSPost2010Prop56
140
1.0
102
RTVSPost2010PropOp56
 70
     1
102
RTVSPost2010Prop57
140
1.0
102
RTVSPost2010PropOp57
 70
     1
102
RTVSPropertyOp0
 70
     1
102
RTVSPropertyOp1
 70
     1
102
RTVSPropertyOp2
 70
     1
102
RTVSPropertyOp3
 70
     1
102
RTVSPropertyOp4
 70
     1
102
RTVSPropertyOp5
 70
     1
102
RTVSPropertyOp6
 70
     1
102
RTVSPropertyOp7
 70
     1
102
RTVSPropertyOp8
 70
     1
102
RTVSPropertyOp9
 70
     1
102
RTVSPropertyOp10
 70
     1
102
RTVSPropertyOp11
 70
     1
102
RTVSPropertyOp12
 70
     1
102
RTVSPropertyOp13
 70
     1
102
RTVSPropertyOp14
 70
     1
102
RTVSPropertyOp15
 70
     1
102
RTVSPropertyOp16
 70
     1
102
RTVSPropertyOp17
 70
     1
102
RTVSPropertyOp18
 70
     1
102
RTVSPropertyOp19
 70
     1
102
RTVSPropertyOp20
 70
     1
102
RTVSPropertyOp21
 70
     1
102
RTVSPropertyOp22
 70
     1
102
RTVSPropertyOp23
 70
     1
102
RTVSPropertyOp24
 70
     1
102
RTVSPropertyOp25
 70
     1
102
RTVSPropertyOp26
 70
     1
102
RTVSPropertyOp27
 70
     1
102
RTVSPropertyOp28
 70
     1
102
RTVSPropertyOp29
 70
     1
102
RTVSPropertyOp30
 70
     1
102
RTVSPropertyOp31
 70
     1
102
RTVSPropertyOp32
 70
     1
102
RTVSPropertyOp33
 70
     1
102
RTVSPropertyOp34
 70
     1
102
RTVSPropertyOp35
 70
     1
102
RTVSPropertyOp36
 70
     1
102
RTVSPropertyOp37
 70
     1
102
RTVSPropertyOp38
 70
     1
102
RTVSPropertyOp39
 70
     1
102
RTVSPropertyOp40
 70
     1
102
RTVSPropertyOp41
 70
     1
102
RTVSPropertyOp42
 70
     1
102
RTVSPropertyOp43
 70
     1
102
RTVSPropertyOp44
 70
     1
102
RTVSPropertyOp45
 70
     1
102
RTVSPropertyOp46
 70
     1
102
RTVSPropertyOp47
 70
     1
102
RTVSPropertyOp48
 70
     1
102
RTVSPropertyOp49
 70
     1
102
RTVSPropertyOp50
 70
     1
102
RTVSPropertyOp51
 70
     0
102
RTVSPropertyOp52
 70
     0
102
RTVSPropertyOp53
 70
     1
102
RTVSPropertyOp54
 70
     1
102
RTVSPropertyOp55
 70
     1
102
RTVSPropertyOp56
 70
     1
102
RTVSPropertyOp57
 70
     1
102
RTVSPropertyOp58
 70
     1
102
RTVSPropertyOp59
 70
     1
102
RTVSPropertyOp60
 70
     1
102
RTVSPropertyOp61
 70
     1
102
RTVSPropertyOp62
 70
     1
  0
XRECORD
  5
8576
102
{ACAD_REACTORS
330
8575
102
}
330
8575
100
AcDbXrecord
280
     1
102
RTVSPost2010Prop28
280
     0
102
RTVSPost2010PropOp28
 70
     1
102
RTVSPost2010Prop29
280
     1
102
RTVSPost2010PropOp29
 70
     1
102
RTVSPost2010Prop30
280
     1
102
RTVSPost2010PropOp30
 70
     1
102
RTVSPost2010Prop31
280
     0
102
RTVSPost2010PropOp31
 70
     1
102
RTVSPost2010Prop32
280
     0
102
RTVSPost2010PropOp32
 70
     1
102
RTVSPost2010Prop33
280
     0
102
RTVSPost2010PropOp33
 70
     1
102
RTVSPost2010Prop34
280
     0
102
RTVSPost2010PropOp34
 70
     1
102
RTVSPost2010Prop35
280
     0
102
RTVSPost2010PropOp35
 70
     1
102
RTVSPost2010Prop36
280
     0
102
RTVSPost2010PropOp36
 70
     1
102
RTVSPost2010Prop37
 90
       50
102
RTVSPost2010PropOp37
 70
     1
102
RTVSPost2010Prop38
140
0.0
102
RTVSPost2010PropOp38
 70
     1
102
RTVSPost2010Prop39
140
1.0
102
RTVSPost2010PropOp39
 70
     1
102
RTVSPost2010Prop40
 90
        0
102
RTVSPost2010PropOp40
 70
     1
102
RTVSPost2010Prop41ColorIndex
 90
       18
102
RTVSPost2010Prop41ColorRGB
 90
        0
102
RTVSPost2010PropOp41
 70
     1
102
RTVSPost2010Prop42
 90
       50
102
RTVSPost2010PropOp42
 70
     1
102
RTVSPost2010Prop43
 90
        3
102
RTVSPost2010PropOp43
 70
     1
102
RTVSPost2010Prop44ColorIndex
 90
        5
102
RTVSPost2010Prop44ColorRGB
 90
      255
102
RTVSPost2010PropOp44
 70
     1
102
RTVSPost2010Prop45
280
     0
102
RTVSPost2010PropOp45
 70
     1
102
RTVSPost2010Prop46
 90
       50
102
RTVSPost2010PropOp46
 70
     1
102
RTVSPost2010Prop47
 90
       50
102
RTVSPost2010PropOp47
 70
     1
102
RTVSPost2010Prop48
 90
       50
102
RTVSPost2010PropOp48
 70
     1
102
RTVSPost2010Prop49
280
     0
102
RTVSPost2010PropOp49
 70
     1
102
RTVSPost2010Prop50
 90
       50
102
RTVSPost2010PropOp50
 70
     1
102
RTVSPost2010Prop51ColorIndex
 90
      256
102
RTVSPost2010Prop51ColorRGB
 90
-16777216
102
RTVSPost2010PropOp51
 70
     0
102
RTVSPost2010Prop52
140
1.0
102
RTVSPost2010PropOp52
 70
     0
102
RTVSPost2010Prop53
 90
        2
102
RTVSPost2010PropOp53
 70
     1
102
RTVSPost2010Prop54
  1
strokes_ogs.tif
102
RTVSPost2010PropOp54
 70
     1
102
RTVSPost2010Prop55
280
     0
102
RTVSPost2010PropOp55
 70
     1
102
RTVSPost2010Prop56
140
1.0
102
RTVSPost2010PropOp56
 70
     1
102
RTVSPost2010Prop57
140
1.0
102
RTVSPost2010PropOp57
 70
     1
102
RTVSPropertyOp0
 70
     1
102
RTVSPropertyOp1
 70
     1
102
RTVSPropertyOp2
 70
     1
102
RTVSPropertyOp3
 70
     1
102
RTVSPropertyOp4
 70
     1
102
RTVSPropertyOp5
 70
     1
102
RTVSPropertyOp6
 70
     1
102
RTVSPropertyOp7
 70
     1
102
RTVSPropertyOp8
 70
     1
102
RTVSPropertyOp9
 70
     1
102
RTVSPropertyOp10
 70
     1
102
RTVSPropertyOp11
 70
     1
102
RTVSPropertyOp12
 70
     1
102
RTVSPropertyOp13
 70
     1
102
RTVSPropertyOp14
 70
     1
102
RTVSPropertyOp15
 70
     1
102
RTVSPropertyOp16
 70
     1
102
RTVSPropertyOp17
 70
     1
102
RTVSPropertyOp18
 70
     1
102
RTVSPropertyOp19
 70
     1
102
RTVSPropertyOp20
 70
     1
102
RTVSPropertyOp21
 70
     1
102
RTVSPropertyOp22
 70
     1
102
RTVSPropertyOp23
 70
     1
102
RTVSPropertyOp24
 70
     1
102
RTVSPropertyOp25
 70
     1
102
RTVSPropertyOp26
 70
     1
102
RTVSPropertyOp27
 70
     1
102
RTVSPropertyOp28
 70
     1
102
RTVSPropertyOp29
 70
     1
102
RTVSPropertyOp30
 70
     1
102
RTVSPropertyOp31
 70
     1
102
RTVSPropertyOp32
 70
     1
102
RTVSPropertyOp33
 70
     1
102
RTVSPropertyOp34
 70
     1
102
RTVSPropertyOp35
 70
     1
102
RTVSPropertyOp36
 70
     1
102
RTVSPropertyOp37
 70
     1
102
RTVSPropertyOp38
 70
     1
102
RTVSPropertyOp39
 70
     1
102
RTVSPropertyOp40
 70
     1
102
RTVSPropertyOp41
 70
     1
102
RTVSPropertyOp42
 70
     1
102
RTVSPropertyOp43
 70
     1
102
RTVSPropertyOp44
 70
     1
102
RTVSPropertyOp45
 70
     1
102
RTVSPropertyOp46
 70
     1
102
RTVSPropertyOp47
 70
     1
102
RTVSPropertyOp48
 70
     1
102
RTVSPropertyOp49
 70
     1
102
RTVSPropertyOp50
 70
     1
102
RTVSPropertyOp51
 70
     0
102
RTVSPropertyOp52
 70
     0
102
RTVSPropertyOp53
 70
     1
102
RTVSPropertyOp54
 70
     1
102
RTVSPropertyOp55
 70
     1
102
RTVSPropertyOp56
 70
     1
102
RTVSPropertyOp57
 70
     1
102
RTVSPropertyOp58
 70
     1
102
RTVSPropertyOp59
 70
     1
102
RTVSPropertyOp60
 70
     1
102
RTVSPropertyOp61
 70
     1
102
RTVSPropertyOp62
 70
     1
  0
XRECORD
  5
8578
102
{ACAD_REACTORS
330
8577
102
}
330
8577
100
AcDbXrecord
280
     1
102
RTVSPost2010Prop28
280
     0
102
RTVSPost2010PropOp28
 70
     1
102
RTVSPost2010Prop29
280
     1
102
RTVSPost2010PropOp29
 70
     1
102
RTVSPost2010Prop30
280
     1
102
RTVSPost2010PropOp30
 70
     1
102
RTVSPost2010Prop31
280
     0
102
RTVSPost2010PropOp31
 70
     1
102
RTVSPost2010Prop32
280
     0
102
RTVSPost2010PropOp32
 70
     1
102
RTVSPost2010Prop33
280
     0
102
RTVSPost2010PropOp33
 70
     1
102
RTVSPost2010Prop34
280
     0
102
RTVSPost2010PropOp34
 70
     1
102
RTVSPost2010Prop35
280
     0
102
RTVSPost2010PropOp35
 70
     1
102
RTVSPost2010Prop36
280
     0
102
RTVSPost2010PropOp36
 70
     1
102
RTVSPost2010Prop37
 90
       50
102
RTVSPost2010PropOp37
 70
     1
102
RTVSPost2010Prop38
140
0.0
102
RTVSPost2010PropOp38
 70
     1
102
RTVSPost2010Prop39
140
1.0
102
RTVSPost2010PropOp39
 70
     1
102
RTVSPost2010Prop40
 90
        0
102
RTVSPost2010PropOp40
 70
     1
102
RTVSPost2010Prop41ColorIndex
 90
       18
102
RTVSPost2010Prop41ColorRGB
 90
        0
102
RTVSPost2010PropOp41
 70
     1
102
RTVSPost2010Prop42
 90
       50
102
RTVSPost2010PropOp42
 70
     1
102
RTVSPost2010Prop43
 90
        3
102
RTVSPost2010PropOp43
 70
     1
102
RTVSPost2010Prop44ColorIndex
 90
        5
102
RTVSPost2010Prop44ColorRGB
 90
      255
102
RTVSPost2010PropOp44
 70
     1
102
RTVSPost2010Prop45
280
     0
102
RTVSPost2010PropOp45
 70
     1
102
RTVSPost2010Prop46
 90
       50
102
RTVSPost2010PropOp46
 70
     1
102
RTVSPost2010Prop47
 90
       50
102
RTVSPost2010PropOp47
 70
     1
102
RTVSPost2010Prop48
 90
       50
102
RTVSPost2010PropOp48
 70
     1
102
RTVSPost2010Prop49
280
     0
102
RTVSPost2010PropOp49
 70
     1
102
RTVSPost2010Prop50
 90
       50
102
RTVSPost2010PropOp50
 70
     1
102
RTVSPost2010Prop51ColorIndex
 90
      256
102
RTVSPost2010Prop51ColorRGB
 90
-16777216
102
RTVSPost2010PropOp51
 70
     0
102
RTVSPost2010Prop52
140
1.0
102
RTVSPost2010PropOp52
 70
     0
102
RTVSPost2010Prop53
 90
        2
102
RTVSPost2010PropOp53
 70
     1
102
RTVSPost2010Prop54
  1
strokes_ogs.tif
102
RTVSPost2010PropOp54
 70
     1
102
RTVSPost2010Prop55
280
     0
102
RTVSPost2010PropOp55
 70
     1
102
RTVSPost2010Prop56
140
1.0
102
RTVSPost2010PropOp56
 70
     1
102
RTVSPost2010Prop57
140
1.0
102
RTVSPost2010PropOp57
 70
     1
102
RTVSPropertyOp0
 70
     1
102
RTVSPropertyOp1
 70
     1
102
RTVSPropertyOp2
 70
     1
102
RTVSPropertyOp3
 70
     1
102
RTVSPropertyOp4
 70
     1
102
RTVSPropertyOp5
 70
     1
102
RTVSPropertyOp6
 70
     1
102
RTVSPropertyOp7
 70
     1
102
RTVSPropertyOp8
 70
     1
102
RTVSPropertyOp9
 70
     1
102
RTVSPropertyOp10
 70
     1
102
RTVSPropertyOp11
 70
     1
102
RTVSPropertyOp12
 70
     1
102
RTVSPropertyOp13
 70
     1
102
RTVSPropertyOp14
 70
     1
102
RTVSPropertyOp15
 70
     1
102
RTVSPropertyOp16
 70
     1
102
RTVSPropertyOp17
 70
     1
102
RTVSPropertyOp18
 70
     1
102
RTVSPropertyOp19
 70
     1
102
RTVSPropertyOp20
 70
     1
102
RTVSPropertyOp21
 70
     1
102
RTVSPropertyOp22
 70
     1
102
RTVSPropertyOp23
 70
     1
102
RTVSPropertyOp24
 70
     1
102
RTVSPropertyOp25
 70
     1
102
RTVSPropertyOp26
 70
     1
102
RTVSPropertyOp27
 70
     1
102
RTVSPropertyOp28
 70
     1
102
RTVSPropertyOp29
 70
     1
102
RTVSPropertyOp30
 70
     1
102
RTVSPropertyOp31
 70
     1
102
RTVSPropertyOp32
 70
     1
102
RTVSPropertyOp33
 70
     1
102
RTVSPropertyOp34
 70
     1
102
RTVSPropertyOp35
 70
     1
102
RTVSPropertyOp36
 70
     1
102
RTVSPropertyOp37
 70
     1
102
RTVSPropertyOp38
 70
     1
102
RTVSPropertyOp39
 70
     1
102
RTVSPropertyOp40
 70
     1
102
RTVSPropertyOp41
 70
     1
102
RTVSPropertyOp42
 70
     1
102
RTVSPropertyOp43
 70
     1
102
RTVSPropertyOp44
 70
     1
102
RTVSPropertyOp45
 70
     1
102
RTVSPropertyOp46
 70
     1
102
RTVSPropertyOp47
 70
     1
102
RTVSPropertyOp48
 70
     1
102
RTVSPropertyOp49
 70
     1
102
RTVSPropertyOp50
 70
     1
102
RTVSPropertyOp51
 70
     0
102
RTVSPropertyOp52
 70
     0
102
RTVSPropertyOp53
 70
     1
102
RTVSPropertyOp54
 70
     1
102
RTVSPropertyOp55
 70
     1
102
RTVSPropertyOp56
 70
     1
102
RTVSPropertyOp57
 70
     1
102
RTVSPropertyOp58
 70
     1
102
RTVSPropertyOp59
 70
     1
102
RTVSPropertyOp60
 70
     1
102
RTVSPropertyOp61
 70
     1
102
RTVSPropertyOp62
 70
     1
  0
XRECORD
  5
856E
102
{ACAD_REACTORS
330
856D
102
}
330
856D
100
AcDbXrecord
280
     1
102
RTVSPost2010Prop28
280
     0
102
RTVSPost2010PropOp28
 70
     1
102
RTVSPost2010Prop29
280
     1
102
RTVSPost2010PropOp29
 70
     1
102
RTVSPost2010Prop30
280
     1
102
RTVSPost2010PropOp30
 70
     1
102
RTVSPost2010Prop31
280
     0
102
RTVSPost2010PropOp31
 70
     1
102
RTVSPost2010Prop32
280
     0
102
RTVSPost2010PropOp32
 70
     1
102
RTVSPost2010Prop33
280
     0
102
RTVSPost2010PropOp33
 70
     1
102
RTVSPost2010Prop34
280
     0
102
RTVSPost2010PropOp34
 70
     1
102
RTVSPost2010Prop35
280
     0
102
RTVSPost2010PropOp35
 70
     1
102
RTVSPost2010Prop36
280
     0
102
RTVSPost2010PropOp36
 70
     1
102
RTVSPost2010Prop37
 90
       50
102
RTVSPost2010PropOp37
 70
     1
102
RTVSPost2010Prop38
140
0.0
102
RTVSPost2010PropOp38
 70
     1
102
RTVSPost2010Prop39
140
1.0
102
RTVSPost2010PropOp39
 70
     1
102
RTVSPost2010Prop40
 90
        0
102
RTVSPost2010PropOp40
 70
     1
102
RTVSPost2010Prop41ColorIndex
 90
       18
102
RTVSPost2010Prop41ColorRGB
 90
        0
102
RTVSPost2010PropOp41
 70
     1
102
RTVSPost2010Prop42
 90
       50
102
RTVSPost2010PropOp42
 70
     1
102
RTVSPost2010Prop43
 90
        3
102
RTVSPost2010PropOp43
 70
     1
102
RTVSPost2010Prop44ColorIndex
 90
        5
102
RTVSPost2010Prop44ColorRGB
 90
      255
102
RTVSPost2010PropOp44
 70
     1
102
RTVSPost2010Prop45
280
     0
102
RTVSPost2010PropOp45
 70
     1
102
RTVSPost2010Prop46
 90
       50
102
RTVSPost2010PropOp46
 70
     1
102
RTVSPost2010Prop47
 90
       50
102
RTVSPost2010PropOp47
 70
     1
102
RTVSPost2010Prop48
 90
       50
102
RTVSPost2010PropOp48
 70
     1
102
RTVSPost2010Prop49
280
     0
102
RTVSPost2010PropOp49
 70
     1
102
RTVSPost2010Prop50
 90
       50
102
RTVSPost2010PropOp50
 70
     1
102
RTVSPost2010Prop51ColorIndex
 90
      256
102
RTVSPost2010Prop51ColorRGB
 90
-16777216
102
RTVSPost2010PropOp51
 70
     0
102
RTVSPost2010Prop52
140
1.0
102
RTVSPost2010PropOp52
 70
     0
102
RTVSPost2010Prop53
 90
        2
102
RTVSPost2010PropOp53
 70
     1
102
RTVSPost2010Prop54
  1
strokes_ogs.tif
102
RTVSPost2010PropOp54
 70
     1
102
RTVSPost2010Prop55
280
     0
102
RTVSPost2010PropOp55
 70
     1
102
RTVSPost2010Prop56
140
1.0
102
RTVSPost2010PropOp56
 70
     1
102
RTVSPost2010Prop57
140
1.0
102
RTVSPost2010PropOp57
 70
     1
102
RTVSPropertyOp0
 70
     1
102
RTVSPropertyOp1
 70
     1
102
RTVSPropertyOp2
 70
     1
102
RTVSPropertyOp3
 70
     1
102
RTVSPropertyOp4
 70
     1
102
RTVSPropertyOp5
 70
     1
102
RTVSPropertyOp6
 70
     1
102
RTVSPropertyOp7
 70
     1
102
RTVSPropertyOp8
 70
     1
102
RTVSPropertyOp9
 70
     1
102
RTVSPropertyOp10
 70
     1
102
RTVSPropertyOp11
 70
     1
102
RTVSPropertyOp12
 70
     1
102
RTVSPropertyOp13
 70
     1
102
RTVSPropertyOp14
 70
     1
102
RTVSPropertyOp15
 70
     1
102
RTVSPropertyOp16
 70
     1
102
RTVSPropertyOp17
 70
     1
102
RTVSPropertyOp18
 70
     1
102
RTVSPropertyOp19
 70
     1
102
RTVSPropertyOp20
 70
     1
102
RTVSPropertyOp21
 70
     1
102
RTVSPropertyOp22
 70
     1
102
RTVSPropertyOp23
 70
     1
102
RTVSPropertyOp24
 70
     1
102
RTVSPropertyOp25
 70
     1
102
RTVSPropertyOp26
 70
     1
102
RTVSPropertyOp27
 70
     1
102
RTVSPropertyOp28
 70
     1
102
RTVSPropertyOp29
 70
     1
102
RTVSPropertyOp30
 70
     1
102
RTVSPropertyOp31
 70
     1
102
RTVSPropertyOp32
 70
     1
102
RTVSPropertyOp33
 70
     1
102
RTVSPropertyOp34
 70
     1
102
RTVSPropertyOp35
 70
     1
102
RTVSPropertyOp36
 70
     1
102
RTVSPropertyOp37
 70
     1
102
RTVSPropertyOp38
 70
     1
102
RTVSPropertyOp39
 70
     1
102
RTVSPropertyOp40
 70
     1
102
RTVSPropertyOp41
 70
     1
102
RTVSPropertyOp42
 70
     1
102
RTVSPropertyOp43
 70
     1
102
RTVSPropertyOp44
 70
     1
102
RTVSPropertyOp45
 70
     1
102
RTVSPropertyOp46
 70
     1
102
RTVSPropertyOp47
 70
     1
102
RTVSPropertyOp48
 70
     1
102
RTVSPropertyOp49
 70
     1
102
RTVSPropertyOp50
 70
     1
102
RTVSPropertyOp51
 70
     0
102
RTVSPropertyOp52
 70
     0
102
RTVSPropertyOp53
 70
     1
102
RTVSPropertyOp54
 70
     1
102
RTVSPropertyOp55
 70
     1
102
RTVSPropertyOp56
 70
     1
102
RTVSPropertyOp57
 70
     1
102
RTVSPropertyOp58
 70
     1
102
RTVSPropertyOp59
 70
     1
102
RTVSPropertyOp60
 70
     1
102
RTVSPropertyOp61
 70
     1
102
RTVSPropertyOp62
 70
     1
  0
XRECORD
  5
8562
102
{ACAD_REACTORS
330
8561
102
}
330
8561
100
AcDbXrecord
280
     1
102
RTVSPost2010Prop28
280
     0
102
RTVSPost2010PropOp28
 70
     1
102
RTVSPost2010Prop29
280
     1
102
RTVSPost2010PropOp29
 70
     1
102
RTVSPost2010Prop30
280
     1
102
RTVSPost2010PropOp30
 70
     1
102
RTVSPost2010Prop31
280
     0
102
RTVSPost2010PropOp31
 70
     1
102
RTVSPost2010Prop32
280
     0
102
RTVSPost2010PropOp32
 70
     1
102
RTVSPost2010Prop33
280
     0
102
RTVSPost2010PropOp33
 70
     1
102
RTVSPost2010Prop34
280
     0
102
RTVSPost2010PropOp34
 70
     1
102
RTVSPost2010Prop35
280
     0
102
RTVSPost2010PropOp35
 70
     1
102
RTVSPost2010Prop36
280
     0
102
RTVSPost2010PropOp36
 70
     1
102
RTVSPost2010Prop37
 90
       50
102
RTVSPost2010PropOp37
 70
     1
102
RTVSPost2010Prop38
140
0.0
102
RTVSPost2010PropOp38
 70
     1
102
RTVSPost2010Prop39
140
1.0
102
RTVSPost2010PropOp39
 70
     1
102
RTVSPost2010Prop40
 90
        0
102
RTVSPost2010PropOp40
 70
     1
102
RTVSPost2010Prop41ColorIndex
 90
       18
102
RTVSPost2010Prop41ColorRGB
 90
        0
102
RTVSPost2010PropOp41
 70
     1
102
RTVSPost2010Prop42
 90
       50
102
RTVSPost2010PropOp42
 70
     1
102
RTVSPost2010Prop43
 90
        3
102
RTVSPost2010PropOp43
 70
     1
102
RTVSPost2010Prop44ColorIndex
 90
        5
102
RTVSPost2010Prop44ColorRGB
 90
      255
102
RTVSPost2010PropOp44
 70
     1
102
RTVSPost2010Prop45
280
     0
102
RTVSPost2010PropOp45
 70
     1
102
RTVSPost2010Prop46
 90
       50
102
RTVSPost2010PropOp46
 70
     1
102
RTVSPost2010Prop47
 90
       50
102
RTVSPost2010PropOp47
 70
     1
102
RTVSPost2010Prop48
 90
       50
102
RTVSPost2010PropOp48
 70
     1
102
RTVSPost2010Prop49
280
     0
102
RTVSPost2010PropOp49
 70
     1
102
RTVSPost2010Prop50
 90
       50
102
RTVSPost2010PropOp50
 70
     1
102
RTVSPost2010Prop51ColorIndex
 90
      256
102
RTVSPost2010Prop51ColorRGB
 90
-16777216
102
RTVSPost2010PropOp51
 70
     0
102
RTVSPost2010Prop52
140
1.0
102
RTVSPost2010PropOp52
 70
     0
102
RTVSPost2010Prop53
 90
        2
102
RTVSPost2010PropOp53
 70
     1
102
RTVSPost2010Prop54
  1
strokes_ogs.tif
102
RTVSPost2010PropOp54
 70
     1
102
RTVSPost2010Prop55
280
     0
102
RTVSPost2010PropOp55
 70
     1
102
RTVSPost2010Prop56
140
1.0
102
RTVSPost2010PropOp56
 70
     1
102
RTVSPost2010Prop57
140
1.0
102
RTVSPost2010PropOp57
 70
     1
102
RTVSPropertyOp0
 70
     1
102
RTVSPropertyOp1
 70
     1
102
RTVSPropertyOp2
 70
     1
102
RTVSPropertyOp3
 70
     1
102
RTVSPropertyOp4
 70
     1
102
RTVSPropertyOp5
 70
     1
102
RTVSPropertyOp6
 70
     1
102
RTVSPropertyOp7
 70
     1
102
RTVSPropertyOp8
 70
     1
102
RTVSPropertyOp9
 70
     1
102
RTVSPropertyOp10
 70
     1
102
RTVSPropertyOp11
 70
     1
102
RTVSPropertyOp12
 70
     1
102
RTVSPropertyOp13
 70
     1
102
RTVSPropertyOp14
 70
     1
102
RTVSPropertyOp15
 70
     1
102
RTVSPropertyOp16
 70
     1
102
RTVSPropertyOp17
 70
     1
102
RTVSPropertyOp18
 70
     1
102
RTVSPropertyOp19
 70
     1
102
RTVSPropertyOp20
 70
     1
102
RTVSPropertyOp21
 70
     1
102
RTVSPropertyOp22
 70
     1
102
RTVSPropertyOp23
 70
     1
102
RTVSPropertyOp24
 70
     1
102
RTVSPropertyOp25
 70
     1
102
RTVSPropertyOp26
 70
     1
102
RTVSPropertyOp27
 70
     1
102
RTVSPropertyOp28
 70
     1
102
RTVSPropertyOp29
 70
     1
102
RTVSPropertyOp30
 70
     1
102
RTVSPropertyOp31
 70
     1
102
RTVSPropertyOp32
 70
     1
102
RTVSPropertyOp33
 70
     1
102
RTVSPropertyOp34
 70
     1
102
RTVSPropertyOp35
 70
     1
102
RTVSPropertyOp36
 70
     1
102
RTVSPropertyOp37
 70
     1
102
RTVSPropertyOp38
 70
     1
102
RTVSPropertyOp39
 70
     1
102
RTVSPropertyOp40
 70
     1
102
RTVSPropertyOp41
 70
     1
102
RTVSPropertyOp42
 70
     1
102
RTVSPropertyOp43
 70
     1
102
RTVSPropertyOp44
 70
     1
102
RTVSPropertyOp45
 70
     1
102
RTVSPropertyOp46
 70
     1
102
RTVSPropertyOp47
 70
     1
102
RTVSPropertyOp48
 70
     1
102
RTVSPropertyOp49
 70
     1
102
RTVSPropertyOp50
 70
     1
102
RTVSPropertyOp51
 70
     0
102
RTVSPropertyOp52
 70
     0
102
RTVSPropertyOp53
 70
     1
102
RTVSPropertyOp54
 70
     1
102
RTVSPropertyOp55
 70
     1
102
RTVSPropertyOp56
 70
     1
102
RTVSPropertyOp57
 70
     1
102
RTVSPropertyOp58
 70
     1
102
RTVSPropertyOp59
 70
     1
102
RTVSPropertyOp60
 70
     1
102
RTVSPropertyOp61
 70
     1
102
RTVSPropertyOp62
 70
     1
  0
XRECORD
  5
857A
102
{ACAD_REACTORS
330
8579
102
}
330
8579
100
AcDbXrecord
280
     1
102
RTVSPost2010Prop28
280
     0
102
RTVSPost2010PropOp28
 70
     1
102
RTVSPost2010Prop29
280
     1
102
RTVSPost2010PropOp29
 70
     1
102
RTVSPost2010Prop30
280
     1
102
RTVSPost2010PropOp30
 70
     1
102
RTVSPost2010Prop31
280
     0
102
RTVSPost2010PropOp31
 70
     1
102
RTVSPost2010Prop32
280
     0
102
RTVSPost2010PropOp32
 70
     1
102
RTVSPost2010Prop33
280
     0
102
RTVSPost2010PropOp33
 70
     1
102
RTVSPost2010Prop34
280
     0
102
RTVSPost2010PropOp34
 70
     1
102
RTVSPost2010Prop35
280
     0
102
RTVSPost2010PropOp35
 70
     1
102
RTVSPost2010Prop36
280
     0
102
RTVSPost2010PropOp36
 70
     1
102
RTVSPost2010Prop37
 90
       50
102
RTVSPost2010PropOp37
 70
     1
102
RTVSPost2010Prop38
140
0.0
102
RTVSPost2010PropOp38
 70
     1
102
RTVSPost2010Prop39
140
1.0
102
RTVSPost2010PropOp39
 70
     1
102
RTVSPost2010Prop40
 90
        0
102
RTVSPost2010PropOp40
 70
     1
102
RTVSPost2010Prop41ColorIndex
 90
       18
102
RTVSPost2010Prop41ColorRGB
 90
        0
102
RTVSPost2010PropOp41
 70
     1
102
RTVSPost2010Prop42
 90
       50
102
RTVSPost2010PropOp42
 70
     1
102
RTVSPost2010Prop43
 90
        3
102
RTVSPost2010PropOp43
 70
     1
102
RTVSPost2010Prop44ColorIndex
 90
        5
102
RTVSPost2010Prop44ColorRGB
 90
      255
102
RTVSPost2010PropOp44
 70
     1
102
RTVSPost2010Prop45
280
     0
102
RTVSPost2010PropOp45
 70
     1
102
RTVSPost2010Prop46
 90
       50
102
RTVSPost2010PropOp46
 70
     1
102
RTVSPost2010Prop47
 90
       50
102
RTVSPost2010PropOp47
 70
     1
102
RTVSPost2010Prop48
 90
       50
102
RTVSPost2010PropOp48
 70
     1
102
RTVSPost2010Prop49
280
     0
102
RTVSPost2010PropOp49
 70
     1
102
RTVSPost2010Prop50
 90
       50
102
RTVSPost2010PropOp50
 70
     1
102
RTVSPost2010Prop51ColorIndex
 90
      256
102
RTVSPost2010Prop51ColorRGB
 90
-16777216
102
RTVSPost2010PropOp51
 70
     0
102
RTVSPost2010Prop52
140
1.0
102
RTVSPost2010PropOp52
 70
     0
102
RTVSPost2010Prop53
 90
        2
102
RTVSPost2010PropOp53
 70
     1
102
RTVSPost2010Prop54
  1
strokes_ogs.tif
102
RTVSPost2010PropOp54
 70
     1
102
RTVSPost2010Prop55
280
     0
102
RTVSPost2010PropOp55
 70
     1
102
RTVSPost2010Prop56
140
1.0
102
RTVSPost2010PropOp56
 70
     1
102
RTVSPost2010Prop57
140
1.0
102
RTVSPost2010PropOp57
 70
     1
102
RTVSPropertyOp0
 70
     1
102
RTVSPropertyOp1
 70
     1
102
RTVSPropertyOp2
 70
     1
102
RTVSPropertyOp3
 70
     1
102
RTVSPropertyOp4
 70
     1
102
RTVSPropertyOp5
 70
     1
102
RTVSPropertyOp6
 70
     1
102
RTVSPropertyOp7
 70
     1
102
RTVSPropertyOp8
 70
     1
102
RTVSPropertyOp9
 70
     1
102
RTVSPropertyOp10
 70
     1
102
RTVSPropertyOp11
 70
     1
102
RTVSPropertyOp12
 70
     1
102
RTVSPropertyOp13
 70
     1
102
RTVSPropertyOp14
 70
     1
102
RTVSPropertyOp15
 70
     1
102
RTVSPropertyOp16
 70
     1
102
RTVSPropertyOp17
 70
     1
102
RTVSPropertyOp18
 70
     1
102
RTVSPropertyOp19
 70
     1
102
RTVSPropertyOp20
 70
     1
102
RTVSPropertyOp21
 70
     1
102
RTVSPropertyOp22
 70
     1
102
RTVSPropertyOp23
 70
     1
102
RTVSPropertyOp24
 70
     1
102
RTVSPropertyOp25
 70
     1
102
RTVSPropertyOp26
 70
     1
102
RTVSPropertyOp27
 70
     1
102
RTVSPropertyOp28
 70
     1
102
RTVSPropertyOp29
 70
     1
102
RTVSPropertyOp30
 70
     1
102
RTVSPropertyOp31
 70
     1
102
RTVSPropertyOp32
 70
     1
102
RTVSPropertyOp33
 70
     1
102
RTVSPropertyOp34
 70
     1
102
RTVSPropertyOp35
 70
     1
102
RTVSPropertyOp36
 70
     1
102
RTVSPropertyOp37
 70
     1
102
RTVSPropertyOp38
 70
     1
102
RTVSPropertyOp39
 70
     1
102
RTVSPropertyOp40
 70
     1
102
RTVSPropertyOp41
 70
     1
102
RTVSPropertyOp42
 70
     1
102
RTVSPropertyOp43
 70
     1
102
RTVSPropertyOp44
 70
     1
102
RTVSPropertyOp45
 70
     1
102
RTVSPropertyOp46
 70
     1
102
RTVSPropertyOp47
 70
     1
102
RTVSPropertyOp48
 70
     1
102
RTVSPropertyOp49
 70
     1
102
RTVSPropertyOp50
 70
     1
102
RTVSPropertyOp51
 70
     0
102
RTVSPropertyOp52
 70
     0
102
RTVSPropertyOp53
 70
     1
102
RTVSPropertyOp54
 70
     1
102
RTVSPropertyOp55
 70
     1
102
RTVSPropertyOp56
 70
     1
102
RTVSPropertyOp57
 70
     1
102
RTVSPropertyOp58
 70
     1
102
RTVSPropertyOp59
 70
     1
102
RTVSPropertyOp60
 70
     1
102
RTVSPropertyOp61
 70
     1
102
RTVSPropertyOp62
 70
     1
  0
ENDSEC
  0
EOF
