  0
SECTION
  2
HEADER
  9
$ACADVER
  1
AC1015
  9
$ACADMAINTVER
 70
    20
  9
$DWGCODEPAGE
  3
ANSI_932
  9
$INSBASE
 10
0.0
 20
0.0
 30
0.0
  9
$EXTMIN
 10
-0.1922460740788665
 20
-0.2700599612071528
 30
-0.0015258207003583
  9
$EXTMAX
 10
6300.192275410744
 20
8850.270101172235
 30
0.0000000349246037
  9
$LIMMIN
 10
0.0
 20
0.0
  9
$LIMMAX
 10
297.0
 20
210.0
  9
$ORTHOMODE
 70
     1
  9
$REGENMODE
 70
     1
  9
$FILLMODE
 70
     0
  9
$QTEXTMODE
 70
     0
  9
$MIRRTEXT
 70
     1
  9
$LTSCALE
 40
100.0
  9
$ATTMODE
 70
     1
  9
$TEXTSIZE
 40
180.0
  9
$TRACEWID
 40
0.05
  9
$TEXTSTYLE
  7
STANDARD
  9
$CLAYER
  8
3
  9
$CELTYPE
  6
ByLayer
  9
$CECOLOR
 62
   256
  9
$CELTSCALE
 40
1.0
  9
$DISPSILH
 70
     0
  9
$DIMSCALE
 40
30.0
  9
$DIMASZ
 40
2.0
  9
$DIMEXO
 40
1.0
  9
$DIMDLI
 40
10.0
  9
$DIMRND
 40
0.0
  9
$DIMDLE
 40
0.0
  9
$DIMEXE
 40
1.0
  9
$DIMTP
 40
1.0
  9
$DIMTM
 40
1.0
  9
$DIMTXT
 40
3.0
  9
$DIMCEN
 40
0.0
  9
$DIMTSZ
 40
0.0
  9
$DIMTOL
 70
     0
  9
$DIMLIM
 70
     0
  9
$DIMTIH
 70
     0
  9
$DIMTOH
 70
     0
  9
$DIMSE1
 70
     0
  9
$DIMSE2
 70
     0
  9
$DIMTAD
 70
     1
  9
$DIMZIN
 70
     8
  9
$DIMBLK
  1

  9
$DIMASO
 70
     1
  9
$DIMSHO
 70
     1
  9
$DIMPOST
  1

  9
$DIMAPOST
  1

  9
$DIMALT
 70
     0
  9
$DIMALTD
 70
     2
  9
$DIMALTF
 40
0.039
  9
$DIMLFAC
 40
1.0
  9
$DIMTOFL
 70
     1
  9
$DIMTVP
 40
0.0
  9
$DIMTIX
 70
     0
  9
$DIMSOXD
 70
     0
  9
$DIMSAH
 70
     1
  9
$DIMBLK1
  1
OPEN
  9
$DIMBLK2
  1
OPEN
  9
$DIMSTYLE
  2
IGA
  9
$DIMCLRD
 70
     0
  9
$DIMCLRE
 70
     0
  9
$DIMCLRT
 70
     0
  9
$DIMTFAC
 40
10.0
  9
$DIMGAP
 40
1.0
  9
$DIMJUST
 70
     0
  9
$DIMSD1
 70
     0
  9
$DIMSD2
 70
     0
  9
$DIMTOLJ
 70
     1
  9
$DIMTZIN
 70
     0
  9
$DIMALTZ
 70
     0
  9
$DIMALTTZ
 70
     0
  9
$DIMUPT
 70
     0
  9
$DIMDEC
 70
     4
  9
$DIMTDEC
 70
     4
  9
$DIMALTU
 70
     2
  9
$DIMALTTD
 70
     2
  9
$DIMTXSTY
  7
STANDARD
  9
$DIMAUNIT
 70
     0
  9
$DIMADEC
 70
     0
  9
$DIMALTRND
 40
0.0
  9
$DIMAZIN
 70
     0
  9
$DIMDSEP
 70
    46
  9
$DIMATFIT
 70
     3
  9
$DIMFRAC
 70
     0
  9
$DIMLDRBLK
  1
OPEN
  9
$DIMLUNIT
 70
     2
  9
$DIMLWD
 70
    -2
  9
$DIMLWE
 70
    -2
  9
$DIMTMOVE
 70
     0
  9
$LUNITS
 70
     2
  9
$LUPREC
 70
     3
  9
$SKETCHINC
 40
0.1
  9
$FILLETRAD
 40
50.0
  9
$AUNITS
 70
     0
  9
$AUPREC
 70
     0
  9
$MENU
  1
acad
  9
$ELEVATION
 40
0.0
  9
$PELEVATION
 40
0.0
  9
$THICKNESS
 40
0.0
  9
$LIMCHECK
 70
     0
  9
$CHAMFERA
 40
0.5
  9
$CHAMFERB
 40
0.5
  9
$CHAMFERC
 40
0.0
  9
$CHAMFERD
 40
0.0
  9
$SKPOLY
 70
     0
  9
$TDCREATE
 40
2451389.471649768
  9
$TDUCREATE
 40
2451389.096649768
  9
$TDUPDATE
 40
2460269.591149815
  9
$TDUUPDATE
 40
2460269.216149815
  9
$TDINDWG
 40
0.0227265509
  9
$TDUSRTIMER
 40
0.0227262963
  9
$USRTIMER
 70
     1
  9
$ANGBASE
 50
0.0
  9
$ANGDIR
 70
     0
  9
$PDMODE
 70
     0
  9
$PDSIZE
 40
0.0
  9
$PLINEWID
 40
0.0
  9
$SPLFRAME
 70
     0
  9
$SPLINETYPE
 70
     6
  9
$SPLINESEGS
 70
     8
  9
$HANDSEED
  5
8656
  9
$SURFTAB1
 70
     6
  9
$SURFTAB2
 70
     6
  9
$SURFTYPE
 70
     6
  9
$SURFU
 70
     6
  9
$SURFV
 70
     6
  9
$UCSBASE
  2

  9
$UCSNAME
  2

  9
$UCSORG
 10
0.0
 20
0.0
 30
0.0
  9
$UCSXDIR
 10
1.0
 20
0.0
 30
0.0
  9
$UCSYDIR
 10
0.0
 20
1.0
 30
0.0
  9
$UCSORTHOREF
  2

  9
$UCSORTHOVIEW
 70
     0
  9
$UCSORGTOP
 10
0.0
 20
0.0
 30
0.0
  9
$UCSORGBOTTOM
 10
0.0
 20
0.0
 30
0.0
  9
$UCSORGLEFT
 10
0.0
 20
0.0
 30
0.0
  9
$UCSORGRIGHT
 10
0.0
 20
0.0
 30
0.0
  9
$UCSORGFRONT
 10
0.0
 20
0.0
 30
0.0
  9
$UCSORGBACK
 10
0.0
 20
0.0
 30
0.0
  9
$PUCSBASE
  2

  9
$PUCSNAME
  2

  9
$PUCSORG
 10
0.0
 20
0.0
 30
0.0
  9
$PUCSXDIR
 10
1.0
 20
0.0
 30
0.0
  9
$PUCSYDIR
 10
0.0
 20
1.0
 30
0.0
  9
$PUCSORTHOREF
  2

  9
$PUCSORTHOVIEW
 70
     0
  9
$PUCSORGTOP
 10
0.0
 20
0.0
 30
0.0
  9
$PUCSORGBOTTOM
 10
0.0
 20
0.0
 30
0.0
  9
$PUCSORGLEFT
 10
0.0
 20
0.0
 30
0.0
  9
$PUCSORGRIGHT
 10
0.0
 20
0.0
 30
0.0
  9
$PUCSORGFRONT
 10
0.0
 20
0.0
 30
0.0
  9
$PUCSORGBACK
 10
0.0
 20
0.0
 30
0.0
  9
$USERI1
 70
     0
  9
$USERI2
 70
     0
  9
$USERI3
 70
     0
  9
$USERI4
 70
     0
  9
$USERI5
 70
     0
  9
$USERR1
 40
0.0
  9
$USERR2
 40
0.0
  9
$USERR3
 40
0.0
  9
$USERR4
 40
0.0
  9
$USERR5
 40
0.0
  9
$WORLDVIEW
 70
     1
  9
$SHADEDGE
 70
     3
  9
$SHADEDIF
 70
    70
  9
$TILEMODE
 70
     1
  9
$MAXACTVP
 70
    16
  9
$PINSBASE
 10
0.0
 20
0.0
 30
0.0
  9
$PLIMCHECK
 70
     0
  9
$PEXTMIN
 10
1.000000000000000E+20
 20
1.000000000000000E+20
 30
1.000000000000000E+20
  9
$PEXTMAX
 10
-1.000000000000000E+20
 20
-1.000000000000000E+20
 30
-1.000000000000000E+20
  9
$PLIMMIN
 10
0.0
 20
0.0
  9
$PLIMMAX
 10
12.0
 20
9.0
  9
$UNITMODE
 70
     0
  9
$VISRETAIN
 70
     0
  9
$PLINEGEN
 70
     0
  9
$PSLTSCALE
 70
     1
  9
$TREEDEPTH
 70
  3020
  9
$CMLSTYLE
  2
Standard
  9
$CMLJUST
 70
     0
  9
$CMLSCALE
 40
1.0
  9
$PROXYGRAPHICS
 70
     1
  9
$MEASUREMENT
 70
     0
  9
$CELWEIGHT
370
    -1
  9
$ENDCAPS
280
     0
  9
$JOINSTYLE
280
     0
  9
$LWDISPLAY
290
     0
  9
$INSUNITS
 70
     0
  9
$HYPERLINKBASE
  1

  9
$STYLESHEET
  1

  9
$XEDIT
290
     1
  9
$CEPSNTYPE
380
     0
  9
$PSTYLEMODE
290
     1
  9
$FINGERPRINTGUID
  2
{2FD14F3A-89B2-4CB8-9AF4-AD2C3B97E869}
  9
$VERSIONGUID
  2
{84E26A73-B4E6-4D81-A3C4-8735D75D83AF}
  9
$EXTNAMES
290
     1
  9
$PSVPSCALE
 40
0.0
  9
$OLESTARTUP
290
     0
  0
ENDSEC
  0
SECTION
  2
CLASSES
  0
CLASS
  1
ACDBDICTIONARYWDFLT
  2
AcDbDictionaryWithDefault
  3
ObjectDBX Classes
 90
        0
280
     0
281
     0
  0
CLASS
  1
MATERIAL
  2
AcDbMaterial
  3
ObjectDBX Classes
 90
     1153
280
     0
281
     0
  0
CLASS
  1
VISUALSTYLE
  2
AcDbVisualStyle
  3
ObjectDBX Classes
 90
     4095
280
     0
281
     0
  0
CLASS
  1
SCALE
  2
AcDbScale
  3
ObjectDBX Classes
 90
     1153
280
     0
281
     0
  0
CLASS
  1
TABLESTYLE
  2
AcDbTableStyle
  3
ObjectDBX Classes
 90
     4095
280
     0
281
     0
  0
CLASS
  1
MLEADERSTYLE
  2
AcDbMLeaderStyle
  3
ACDB_MLEADERSTYLE_CLASS
 90
     4095
280
     0
281
     0
  0
CLASS
  1
ACDBSECTIONVIEWSTYLE
  2
AcDbSectionViewStyle
  3
ObjectDBX Classes
 90
     1025
280
     0
281
     0
  0
CLASS
  1
ACDBDETAILVIEWSTYLE
  2
AcDbDetailViewStyle
  3
ObjectDBX Classes
 90
     1025
280
     0
281
     0
  0
CLASS
  1
SORTENTSTABLE
  2
AcDbSortentsTable
  3
ObjectDBX Classes
 90
        0
280
     0
281
     0
  0
CLASS
  1
DICTIONARYVAR
  2
AcDbDictionaryVar
  3
ObjectDBX Classes
 90
        0
280
     0
281
     0
  0
CLASS
  1
CELLSTYLEMAP
  2
AcDbCellStyleMap
  3
ObjectDBX Classes
 90
     1152
280
     0
281
     0
  0
CLASS
  1
ACDBPLACEHOLDER
  2
AcDbPlaceHolder
  3
ObjectDBX Classes
 90
        0
280
     0
281
     0
  0
CLASS
  1
LAYOUT
  2
AcDbLayout
  3
ObjectDBX Classes
 90
        0
280
     0
281
     0
  0
ENDSEC
  0
SECTION
  2
TABLES
  0
TABLE
  2
VPORT
  5
841D
330
0
100
AcDbSymbolTable
 70
     1
  0
VPORT
  5
8489
330
841D
100
AcDbSymbolTableRecord
100
AcDbViewportTableRecord
  2
*ACTIVE
 70
     0
 10
0.0
 20
0.0
 11
1.0
 21
1.0
 12
3150.000014668333
 22
4425.000020605514
 13
0.0
 23
0.0
 14
10.0
 24
10.0
 15
10.0
 25
10.0
 16
0.0
 26
0.0
 36
1.0
 17
0.0
 27
0.0
 37
0.0
 40
8907.213844128961
 41
2.050213675213675
 42
50.0
 43
0.0
 44
0.0
 50
0.0
 51
0.0
 71
     0
 72
   100
 73
     1
 74
     0
 75
     0
 76
     0
 77
     0
 78
     0
281
     0
 65
     1
110
0.0
120
0.0
130
0.0
111
1.0
121
0.0
131
0.0
112
0.0
122
1.0
132
0.0
 79
     0
146
0.0
1001
ACAD_NAV_VCDISPLAY
1070
     3
  0
ENDTAB
  0
TABLE
  2
LTYPE
  5
841A
330
0
100
AcDbSymbolTable
 70
     3
  0
LTYPE
  5
846F
330
841A
100
AcDbSymbolTableRecord
100
AcDbLinetypeTableRecord
  2
ByBlock
 70
     0
  3

 72
    65
 73
     0
 40
0.0
  0
LTYPE
  5
8470
330
841A
100
AcDbSymbolTableRecord
100
AcDbLinetypeTableRecord
  2
ByLayer
 70
     0
  3

 72
    65
 73
     0
 40
0.0
  0
LTYPE
  5
8471
330
841A
100
AcDbSymbolTableRecord
100
AcDbLinetypeTableRecord
  2
CONTINUOUS
 70
     0
  3
Solid line
 72
    65
 73
     0
 40
0.0
  0
LTYPE
  5
848A
330
841A
100
AcDbSymbolTableRecord
100
AcDbLinetypeTableRecord
  2
CENTER
 70
     0
  3
____ _ ____ _ ____ _ ____ _ ____ _ ____ _ ____ 
 72
    65
 73
     4
 40
2.0
 49
1.25
 74
     0
 49
-0.25
 74
     0
 49
0.25
 74
     0
 49
-0.25
 74
     0
  0
ENDTAB
  0
TABLE
  2
LAYER
  5
8417
330
0
100
AcDbSymbolTable
 70
     6
  0
LAYER
  5
8469
102
{ACAD_XDICTIONARY
360
8600
102
}
330
8417
100
AcDbSymbolTableRecord
100
AcDbLayerTableRecord
  2
0
 70
     0
 62
     7
  6
CONTINUOUS
370
    -3
390
8424
  0
LAYER
  5
8488
102
{ACAD_XDICTIONARY
360
8602
102
}
330
8417
100
AcDbSymbolTableRecord
100
AcDbLayerTableRecord
  2
3
 70
     0
 62
     2
  6
CONTINUOUS
370
    -3
390
8424
  0
LAYER
  5
848B
102
{ACAD_XDICTIONARY
360
8604
102
}
330
8417
100
AcDbSymbolTableRecord
100
AcDbLayerTableRecord
  2
2
 70
     0
 62
     3
  6
CENTER
370
    -3
390
8424
  0
LAYER
  5
848C
102
{ACAD_XDICTIONARY
360
8606
102
}
330
8417
100
AcDbSymbolTableRecord
100
AcDbLayerTableRecord
  2
1
 70
     0
 62
     4
  6
CONTINUOUS
370
    -3
390
8424
  0
LAYER
  5
848D
102
{ACAD_XDICTIONARY
360
8608
102
}
330
8417
100
AcDbSymbolTableRecord
100
AcDbLayerTableRecord
  2
4
 70
     0
 62
     7
  6
CONTINUOUS
370
    -3
390
8424
  0
LAYER
  5
848E
330
8417
100
AcDbSymbolTableRecord
100
AcDbLayerTableRecord
  2
DEFPOINTS
 70
     0
 62
     7
  6
CONTINUOUS
290
     0
370
    -3
390
8424
  0
ENDTAB
  0
TABLE
  2
STYLE
  5
8418
330
0
100
AcDbSymbolTable
 70
     2
  0
STYLE
  5
846A
330
8418
100
AcDbSymbolTableRecord
100
AcDbTextStyleTableRecord
  2
STANDARD
 70
     0
 40
0.0
 41
1.0
 50
0.0
 71
     0
 42
180.0
  3
simplex.shx
  4
extfont.shx
  0
STYLE
  5
846E
330
8418
100
AcDbSymbolTableRecord
100
AcDbTextStyleTableRecord
  2
Annotative
 70
     0
 40
0.0
 41
1.0
 50
0.0
 71
     0
 42
0.2
  3
txt
  4

1001
AcadAnnotative
1000
AnnotativeData
1002
{
1070
     1
1070
     1
1002
}
  0
ENDTAB
  0
TABLE
  2
VIEW
  5
841B
330
0
100
AcDbSymbolTable
 70
     0
  0
ENDTAB
  0
TABLE
  2
UCS
  5
841C
330
0
100
AcDbSymbolTable
 70
     0
  0
ENDTAB
  0
TABLE
  2
APPID
  5
841E
330
0
100
AcDbSymbolTable
 70
     8
  0
APPID
  5
846B
330
841E
100
AcDbSymbolTableRecord
100
AcDbRegAppTableRecord
  2
ACAD
 70
     0
  0
APPID
  5
8472
330
841E
100
AcDbSymbolTableRecord
100
AcDbRegAppTableRecord
  2
AcadAnnotative
 70
     0
  0
APPID
  5
84CD
330
841E
100
AcDbSymbolTableRecord
100
AcDbRegAppTableRecord
  2
ACAD_DSTYLE_DIMJAG
 70
     0
  0
APPID
  5
84CE
330
841E
100
AcDbSymbolTableRecord
100
AcDbRegAppTableRecord
  2
ACAD_DSTYLE_DIMTALN
 70
     0
  0
APPID
  5
8519
330
841E
100
AcDbSymbolTableRecord
100
AcDbRegAppTableRecord
  2
AcadAnnoMonitorAlertIconDisabled
 70
     0
  0
APPID
  5
851A
330
841E
100
AcDbSymbolTableRecord
100
AcDbRegAppTableRecord
  2
ACAD_EXEMPT_FROM_CAD_STANDARDS
 70
     0
  0
APPID
  5
8614
330
841E
100
AcDbSymbolTableRecord
100
AcDbRegAppTableRecord
  2
ACAD_NAV_VCDISPLAY
 70
     0
  0
APPID
  5
864D
330
841E
100
AcDbSymbolTableRecord
100
AcDbRegAppTableRecord
  2
ACAD_MLEADERVER
 70
     0
  0
ENDTAB
  0
TABLE
  2
DIMSTYLE
  5
841F
330
0
100
AcDbSymbolTable
 70
     3
100
AcDbDimStyleTable
 71
     1
340
848F
  0
DIMSTYLE
105
846C
102
{ACAD_REACTORS
330
7CF2
330
8218
330
8225
330
8232
330
823F
330
824E
330
825B
102
}
330
841F
100
AcDbSymbolTableRecord
100
AcDbDimStyleTableRecord
  2
Standard
 70
     0
340
846A
  0
DIMSTYLE
105
846D
330
841F
100
AcDbSymbolTableRecord
100
AcDbDimStyleTableRecord
  2
Annotative
 70
     0
340
846A
1001
AcadAnnotative
1000
AnnotativeData
1002
{
1070
     1
1070
     1
1002
}
  0
DIMSTYLE
105
848F
102
{ACAD_REACTORS
330
84CF
330
84DC
330
84E9
330
850C
330
8571
330
857E
330
858B
330
8598
330
85A5
330
85B2
330
85BF
330
85CC
330
85D9
330
85E6
330
85F3
102
}
330
841F
100
AcDbSymbolTableRecord
100
AcDbDimStyleTableRecord
  2
IGA
 70
     0
 40
2.0
 41
2.0
 42
0.5
 43
10.0
 44
1.0
 47
1.0
 48
1.0
 73
     0
 74
     0
 77
     1
 78
     8
140
3.0
141
0.0
143
0.03937
146
10.0
147
1.0
173
     1
271
     3
272
     3
279
     2
284
     8
285
     8
286
     8
340
846A
  0
ENDTAB
  0
TABLE
  2
BLOCK_RECORD
  5
8416
330
0
100
AcDbSymbolTable
 70
    44
  0
BLOCK_RECORD
  5
8484
102
{ACAD_XDICTIONARY
360
8509
102
}
330
8416
100
AcDbSymbolTableRecord
100
AcDbBlockTableRecord
  2
*Model_Space
340
8487
  0
BLOCK_RECORD
  5
8480
330
8416
100
AcDbSymbolTableRecord
100
AcDbBlockTableRecord
  2
*Paper_Space
340
8483
  0
BLOCK_RECORD
  5
8493
330
8416
100
AcDbSymbolTableRecord
100
AcDbBlockTableRecord
  2
$MODEL_SPACE
340
0
  0
BLOCK_RECORD
  5
8495
330
8416
100
AcDbSymbolTableRecord
100
AcDbBlockTableRecord
  2
$PAPER_SPACE
340
0
  0
BLOCK_RECORD
  5
8497
330
8416
100
AcDbSymbolTableRecord
100
AcDbBlockTableRecord
  2
_OPEN
340
0
102
{BLKREFS
331
84F0
331
84F1
331
8592
331
8593
331
859F
331
85A0
331
85AC
331
85AD
331
85B9
331
85BA
331
85C6
331
85C7
331
85D3
331
85D4
331
85E0
331
85E1
331
85ED
331
85EE
331
8528
331
8529
331
8555
331
8556
331
855E
331
855F
331
8578
331
8579
331
8585
331
8586
331
8211
331
8212
331
821E
331
821F
331
822B
331
822C
331
8238
331
8239
331
8254
331
8255
331
8373
331
8374
331
837C
331
837D
331
8385
331
8386
331
838E
331
838F
331
8397
331
8398
331
83A0
331
83A1
331
83A9
331
83AA
331
83B2
331
83B3
331
83BB
331
83BC
331
83C4
331
83C5
331
85FA
331
85FB
331
83CD
331
83CE
331
83D6
331
83D7
331
83DF
331
83E0
331
83E8
331
83E9
331
83F4
331
83FC
331
83FD
102
}
  0
BLOCK_RECORD
  5
8499
330
8416
100
AcDbSymbolTableRecord
100
AcDbBlockTableRecord
  2
YA_N
340
0
102
{BLKREFS
331
7CC1
331
7C31
331
7C4F
331
7C51
102
}
  0
BLOCK_RECORD
  5
849B
330
8416
100
AcDbSymbolTableRecord
100
AcDbBlockTableRecord
  2
*D4
340
0
  0
BLOCK_RECORD
  5
849D
330
8416
100
AcDbSymbolTableRecord
100
AcDbBlockTableRecord
  2
*D5
340
0
  0
BLOCK_RECORD
  5
849F
330
8416
100
AcDbSymbolTableRecord
100
AcDbBlockTableRecord
  2
*D6
340
0
  0
BLOCK_RECORD
  5
84A1
330
8416
100
AcDbSymbolTableRecord
100
AcDbBlockTableRecord
  2
*D7
340
0
  0
BLOCK_RECORD
  5
84A3
330
8416
100
AcDbSymbolTableRecord
100
AcDbBlockTableRecord
  2
*D8
340
0
  0
BLOCK_RECORD
  5
84A5
330
8416
100
AcDbSymbolTableRecord
100
AcDbBlockTableRecord
  2
*D9
340
0
  0
BLOCK_RECORD
  5
84A7
330
8416
100
AcDbSymbolTableRecord
100
AcDbBlockTableRecord
  2
*D10
340
0
  0
BLOCK_RECORD
  5
84A9
330
8416
100
AcDbSymbolTableRecord
100
AcDbBlockTableRecord
  2
*D11
340
0
  0
BLOCK_RECORD
  5
84AB
330
8416
100
AcDbSymbolTableRecord
100
AcDbBlockTableRecord
  2
*D12
340
0
  0
BLOCK_RECORD
  5
84AD
330
8416
100
AcDbSymbolTableRecord
100
AcDbBlockTableRecord
  2
*D13
340
0
  0
BLOCK_RECORD
  5
84AF
330
8416
100
AcDbSymbolTableRecord
100
AcDbBlockTableRecord
  2
*D14
340
0
  0
BLOCK_RECORD
  5
84B1
330
8416
100
AcDbSymbolTableRecord
100
AcDbBlockTableRecord
  2
*D15
340
0
  0
BLOCK_RECORD
  5
84B3
330
8416
100
AcDbSymbolTableRecord
100
AcDbBlockTableRecord
  2
*D16
340
0
  0
BLOCK_RECORD
  5
84B5
330
8416
100
AcDbSymbolTableRecord
100
AcDbBlockTableRecord
  2
*D17
340
0
  0
BLOCK_RECORD
  5
84B7
330
8416
100
AcDbSymbolTableRecord
100
AcDbBlockTableRecord
  2
*D18
340
0
  0
BLOCK_RECORD
  5
84B9
330
8416
100
AcDbSymbolTableRecord
100
AcDbBlockTableRecord
  2
_DOT
340
0
102
{BLKREFS
331
83F3
102
}
  0
BLOCK_RECORD
  5
84BA
330
8416
100
AcDbSymbolTableRecord
100
AcDbBlockTableRecord
  2
*D20
340
0
  0
BLOCK_RECORD
  5
84BD
330
8416
100
AcDbSymbolTableRecord
100
AcDbBlockTableRecord
  2
*D21
340
0
  0
BLOCK_RECORD
  5
84BF
330
8416
100
AcDbSymbolTableRecord
100
AcDbBlockTableRecord
  2
*D22
340
0
  0
BLOCK_RECORD
  5
84C1
330
8416
100
AcDbSymbolTableRecord
100
AcDbBlockTableRecord
  2
*D23
340
0
  0
BLOCK_RECORD
  5
84C3
330
8416
100
AcDbSymbolTableRecord
100
AcDbBlockTableRecord
  2
*D24
340
0
  0
BLOCK_RECORD
  5
84C5
330
8416
100
AcDbSymbolTableRecord
100
AcDbBlockTableRecord
  2
_NONE
340
0
  0
BLOCK_RECORD
  5
84C7
330
8416
100
AcDbSymbolTableRecord
100
AcDbBlockTableRecord
  2
*D26
340
0
  0
BLOCK_RECORD
  5
84C9
330
8416
100
AcDbSymbolTableRecord
100
AcDbBlockTableRecord
  2
*D27
340
0
  0
BLOCK_RECORD
  5
84D0
330
8416
100
AcDbSymbolTableRecord
100
AcDbBlockTableRecord
  2
*D28
340
0
  0
BLOCK_RECORD
  5
84DD
330
8416
100
AcDbSymbolTableRecord
100
AcDbBlockTableRecord
  2
*D29
340
0
  0
BLOCK_RECORD
  5
84EA
330
8416
100
AcDbSymbolTableRecord
100
AcDbBlockTableRecord
  2
*D30
340
0
  0
BLOCK_RECORD
  5
850D
330
8416
100
AcDbSymbolTableRecord
100
AcDbBlockTableRecord
  2
*D31
340
0
  0
BLOCK_RECORD
  5
8564
330
8416
100
AcDbSymbolTableRecord
100
AcDbBlockTableRecord
  2
*D32
340
0
  0
BLOCK_RECORD
  5
8572
330
8416
100
AcDbSymbolTableRecord
100
AcDbBlockTableRecord
  2
*D33
340
0
  0
BLOCK_RECORD
  5
857F
330
8416
100
AcDbSymbolTableRecord
100
AcDbBlockTableRecord
  2
*D34
340
0
  0
BLOCK_RECORD
  5
858C
330
8416
100
AcDbSymbolTableRecord
100
AcDbBlockTableRecord
  2
*D35
340
0
  0
BLOCK_RECORD
  5
8599
330
8416
100
AcDbSymbolTableRecord
100
AcDbBlockTableRecord
  2
*D36
340
0
  0
BLOCK_RECORD
  5
85A6
330
8416
100
AcDbSymbolTableRecord
100
AcDbBlockTableRecord
  2
*D37
340
0
  0
BLOCK_RECORD
  5
85B3
330
8416
100
AcDbSymbolTableRecord
100
AcDbBlockTableRecord
  2
*D38
340
0
  0
BLOCK_RECORD
  5
85C0
330
8416
100
AcDbSymbolTableRecord
100
AcDbBlockTableRecord
  2
*D39
340
0
  0
BLOCK_RECORD
  5
85CD
330
8416
100
AcDbSymbolTableRecord
100
AcDbBlockTableRecord
  2
*D40
340
0
  0
BLOCK_RECORD
  5
85DA
330
8416
100
AcDbSymbolTableRecord
100
AcDbBlockTableRecord
  2
*D41
340
0
  0
BLOCK_RECORD
  5
85E7
330
8416
100
AcDbSymbolTableRecord
100
AcDbBlockTableRecord
  2
*D42
340
0
  0
BLOCK_RECORD
  5
85F4
330
8416
100
AcDbSymbolTableRecord
100
AcDbBlockTableRecord
  2
*D43
340
0
  0
ENDTAB
  0
ENDSEC
  0
SECTION
  2
BLOCKS
  0
BLOCK
  5
8485
330
8484
100
AcDbEntity
  8
0
100
AcDbBlockBegin
  2
*Model_Space
 70
     0
 10
0.0
 20
0.0
 30
0.0
  3
*Model_Space
  1

  0
ENDBLK
  5
8486
330
8484
100
AcDbEntity
  8
0
100
AcDbBlockEnd
  0
BLOCK
  5
8481
330
8480
100
AcDbEntity
 67
     1
  8
0
100
AcDbBlockBegin
  2
*Paper_Space
 70
     0
 10
0.0
 20
0.0
 30
0.0
  3
*Paper_Space
  1

  0
ENDBLK
  5
8482
330
8480
100
AcDbEntity
 67
     1
  8
0
100
AcDbBlockEnd
  0
BLOCK
  5
8494
330
8493
100
AcDbEntity
  8
0
100
AcDbBlockBegin
  2
$MODEL_SPACE
 70
     0
 10
0.0
 20
0.0
 30
0.0
  3
$MODEL_SPACE
  1

  0
ENDBLK
  5
1B
330
8493
100
AcDbEntity
  8
0
100
AcDbBlockEnd
  0
BLOCK
  5
8496
330
8495
100
AcDbEntity
  8
0
100
AcDbBlockBegin
  2
$PAPER_SPACE
 70
     0
 10
0.0
 20
0.0
 30
0.0
  3
$PAPER_SPACE
  1

  0
ENDBLK
  5
18
330
8495
100
AcDbEntity
  8
0
100
AcDbBlockEnd
  0
BLOCK
  5
8498
330
8497
100
AcDbEntity
  8
0
100
AcDbBlockBegin
  2
_OPEN
 70
     0
 10
0.0
 20
0.0
 30
0.0
  3
_OPEN
  1

  0
LINE
  5
79FD
330
8497
100
AcDbEntity
  8
0
  6
ByBlock
 62
     0
100
AcDbLine
 10
-1.0
 20
0.1666666666666666
 30
0.0
 11
0.0
 21
0.0
 31
0.0
  0
LINE
  5
79FE
330
8497
100
AcDbEntity
  8
0
  6
ByBlock
 62
     0
100
AcDbLine
 10
0.0
 20
0.0
 30
0.0
 11
-1.0
 21
-0.1666666666666666
 31
0.0
  0
LINE
  5
79FF
330
8497
100
AcDbEntity
  8
0
  6
ByBlock
 62
     0
100
AcDbLine
 10
0.0
 20
0.0
 30
0.0
 11
-1.0
 21
0.0
 31
0.0
  0
ENDBLK
  5
7A01
330
8497
100
AcDbEntity
  8
0
100
AcDbBlockEnd
  0
BLOCK
  5
849A
330
8499
100
AcDbEntity
  8
0
100
AcDbBlockBegin
  2
YA_N
 70
     0
 10
0.0
 20
0.0
 30
0.0
  3
YA_N
  1

  0
ENDBLK
  5
7A0C
330
8499
100
AcDbEntity
  8
0
100
AcDbBlockEnd
  0
BLOCK
  5
849C
330
849B
100
AcDbEntity
  8
0
100
AcDbBlockBegin
  2
*D4
 70
     1
 10
0.0
 20
0.0
 30
0.0
  3
*D4
  1

  0
LINE
  5
8370
330
849B
100
AcDbEntity
  8
3
 62
     0
100
AcDbLine
 10
2790.942858765823
 20
3748.454481859345
 30
0.0
 11
2955.557967209033
 21
3748.454481859345
 31
0.0
  0
LINE
  5
8371
330
849B
100
AcDbEntity
  8
3
 62
     0
100
AcDbLine
 10
2790.942858765823
 20
2823.454481859346
 30
0.0
 11
2955.557967209033
 21
2823.454481859346
 31
0.0
  0
LINE
  5
8372
330
849B
100
AcDbEntity
  8
3
 62
     0
100
AcDbLine
 10
2925.557967209033
 20
3688.454481859346
 30
0.0
 11
2925.557967209033
 21
2883.454481859345
 31
0.0
  0
INSERT
  5
8373
330
849B
100
AcDbEntity
  8
3
 62
     0
100
AcDbBlockReference
  2
_OPEN
 10
2925.557967209033
 20
3748.454481859345
 30
0.0
 41
60.0
 42
60.0
 43
60.0
 50
90.0
  0
INSERT
  5
8374
330
849B
100
AcDbEntity
  8
3
 62
     0
100
AcDbBlockReference
  2
_OPEN
 10
2925.557967209033
 20
2823.454481859346
 30
0.0
 41
60.0
 42
60.0
 43
60.0
 50
270.0
  0
TEXT
  5
8405
330
849B
100
AcDbEntity
  8
3
 62
     0
100
AcDbText
 10
2670.56
 20
3126.65
 30
0.0
 40
90.0
  1
925
100
AcDbText
  0
POINT
  5
8376
330
849B
100
AcDbEntity
  8
DEFPOINTS
 62
     0
100
AcDbPoint
 10
2775.942858765823
 20
3748.454481859345
 30
0.0
  0
POINT
  5
8377
330
849B
100
AcDbEntity
  8
DEFPOINTS
 62
     0
100
AcDbPoint
 10
2775.942858765823
 20
2823.454481859346
 30
0.0
  0
POINT
  5
8378
330
849B
100
AcDbEntity
  8
DEFPOINTS
 62
     0
100
AcDbPoint
 10
2925.557967209033
 20
2823.454481859346
 30
0.0
  0
ENDBLK
  5
81A0
330
849B
100
AcDbEntity
  8
0
100
AcDbBlockEnd
  0
BLOCK
  5
849E
330
849D
100
AcDbEntity
  8
0
100
AcDbBlockBegin
  2
*D5
 70
     1
 10
0.0
 20
0.0
 30
0.0
  3
*D5
  1

  0
LINE
  5
8379
330
849D
100
AcDbEntity
  8
3
 62
     0
100
AcDbLine
 10
2790.942858765823
 20
3748.454481859345
 30
0.0
 11
3105.901267306895
 21
3748.454481859345
 31
0.0
  0
LINE
  5
837A
330
849D
100
AcDbEntity
  8
3
 62
     0
100
AcDbLine
 10
2827.198197544369
 20
2787.454481859346
 30
0.0
 11
3105.901267306895
 21
2787.454481859345
 31
0.0
  0
LINE
  5
837B
330
849D
100
AcDbEntity
  8
3
 62
     0
100
AcDbLine
 10
3075.901267306896
 20
3688.454481859345
 30
0.0
 11
3075.901267306895
 21
2847.454481859345
 31
0.0
  0
INSERT
  5
837C
330
849D
100
AcDbEntity
  8
3
 62
     0
100
AcDbBlockReference
  2
_OPEN
 10
3075.901267306896
 20
3748.454481859345
 30
0.0
 41
60.0
 42
60.0
 43
60.0
 50
90.0
  0
INSERT
  5
837D
330
849D
100
AcDbEntity
  8
3
 62
     0
100
AcDbBlockReference
  2
_OPEN
 10
3075.901267306895
 20
2787.454481859345
 30
0.0
 41
60.0
 42
60.0
 43
60.0
 50
270.0
  0
TEXT
  5
8406
330
849D
100
AcDbEntity
  8
3
 62
     0
100
AcDbText
 10
2820.9
 20
3108.65
 30
0.0
 40
90.0
  1
961
100
AcDbText
  0
POINT
  5
837F
330
849D
100
AcDbEntity
  8
DEFPOINTS
 62
     0
100
AcDbPoint
 10
2775.942858765823
 20
3748.454481859345
 30
0.0
  0
POINT
  5
8380
330
849D
100
AcDbEntity
  8
DEFPOINTS
 62
     0
100
AcDbPoint
 10
2812.198197544368
 20
2787.454481859346
 30
0.0
  0
POINT
  5
8381
330
849D
100
AcDbEntity
  8
DEFPOINTS
 62
     0
100
AcDbPoint
 10
3075.901267306895
 20
2787.454481859345
 30
0.0
  0
ENDBLK
  5
81AB
330
849D
100
AcDbEntity
  8
0
100
AcDbBlockEnd
  0
BLOCK
  5
84A0
330
849F
100
AcDbEntity
  8
0
100
AcDbBlockBegin
  2
*D6
 70
     1
 10
0.0
 20
0.0
 30
0.0
  3
*D6
  1

  0
LINE
  5
8382
330
849F
100
AcDbEntity
  8
3
 62
     0
100
AcDbLine
 10
2827.198197544369
 20
2787.454481859346
 30
0.0
 11
3105.901267306895
 21
2787.454481859345
 31
0.0
  0
LINE
  5
8383
330
849F
100
AcDbEntity
  8
3
 62
     0
100
AcDbLine
 10
2730.942858765823
 20
2107.454481859345
 30
0.0
 11
3105.901267306895
 21
2107.454481859345
 31
0.0
  0
LINE
  5
8384
330
849F
100
AcDbEntity
  8
3
 62
     0
100
AcDbLine
 10
3075.901267306895
 20
2727.454481859345
 30
0.0
 11
3075.901267306895
 21
2167.454481859345
 31
0.0
  0
INSERT
  5
8385
330
849F
100
AcDbEntity
  8
3
 62
     0
100
AcDbBlockReference
  2
_OPEN
 10
3075.901267306895
 20
2787.454481859345
 30
0.0
 41
60.0
 42
60.0
 43
60.0
 50
90.0
  0
INSERT
  5
8386
330
849F
100
AcDbEntity
  8
3
 62
     0
100
AcDbBlockReference
  2
_OPEN
 10
3075.901267306895
 20
2107.454481859345
 30
0.0
 41
60.0
 42
60.0
 43
60.0
 50
270.0
  0
TEXT
  5
8407
330
849F
100
AcDbEntity
  8
3
 62
     0
100
AcDbText
 10
2820.9
 20
2288.15
 30
0.0
 40
90.0
  1
680
100
AcDbText
  0
POINT
  5
8388
330
849F
100
AcDbEntity
  8
DEFPOINTS
 62
     0
100
AcDbPoint
 10
2812.198197544368
 20
2787.454481859346
 30
0.0
  0
POINT
  5
8389
330
849F
100
AcDbEntity
  8
DEFPOINTS
 62
     0
100
AcDbPoint
 10
2715.942858765824
 20
2107.454481859345
 30
0.0
  0
POINT
  5
838A
330
849F
100
AcDbEntity
  8
DEFPOINTS
 62
     0
100
AcDbPoint
 10
3075.901267306895
 20
2107.454481859345
 30
0.0
  0
ENDBLK
  5
81B6
330
849F
100
AcDbEntity
  8
0
100
AcDbBlockEnd
  0
BLOCK
  5
84A2
330
84A1
100
AcDbEntity
  8
0
100
AcDbBlockBegin
  2
*D7
 70
     1
 10
0.0
 20
0.0
 30
0.0
  3
*D7
  1

  0
LINE
  5
838B
330
84A1
100
AcDbEntity
  8
3
 62
     0
100
AcDbLine
 10
2775.942858765823
 20
3805.954481859346
 30
0.0
 11
2775.942858765823
 21
3971.848891574977
 31
0.0
  0
LINE
  5
838C
330
84A1
100
AcDbEntity
  8
3
 62
     0
100
AcDbLine
 10
2155.942858765823
 20
3804.416924202904
 30
0.0
 11
2155.942858765823
 21
3971.848891574977
 31
0.0
  0
LINE
  5
838D
330
84A1
100
AcDbEntity
  8
3
 62
     0
100
AcDbLine
 10
2715.942858765823
 20
3941.848891574977
 30
0.0
 11
2215.942858765822
 21
3941.848891574977
 31
0.0
  0
INSERT
  5
838E
330
84A1
100
AcDbEntity
  8
3
 62
     0
100
AcDbBlockReference
  2
_OPEN
 10
2775.942858765823
 20
3941.848891574977
 30
0.0
 41
60.0
 42
60.0
 43
60.0
  0
INSERT
  5
838F
330
84A1
100
AcDbEntity
  8
3
 62
     0
100
AcDbBlockReference
  2
_OPEN
 10
2155.942858765823
 20
3941.848891574977
 30
0.0
 41
60.0
 42
60.0
 43
60.0
 50
180.0
  0
TEXT
  5
8408
330
84A1
100
AcDbEntity
  8
3
 62
     0
100
AcDbText
 10
2285.94
 20
3857.550000000001
 30
0.0
 40
90.0
  1
620
100
AcDbText
  0
POINT
  5
8391
330
84A1
100
AcDbEntity
  8
DEFPOINTS
 62
     0
100
AcDbPoint
 10
2775.942858765823
 20
3790.954481859346
 30
0.0
  0
POINT
  5
8392
330
84A1
100
AcDbEntity
  8
DEFPOINTS
 62
     0
100
AcDbPoint
 10
2155.942858765823
 20
3789.416924202903
 30
0.0
  0
POINT
  5
8393
330
84A1
100
AcDbEntity
  8
DEFPOINTS
 62
     0
100
AcDbPoint
 10
2155.942858765823
 20
3941.848891574977
 30
0.0
  0
ENDBLK
  5
818A
330
84A1
100
AcDbEntity
  8
0
100
AcDbBlockEnd
  0
BLOCK
  5
84A4
330
84A3
100
AcDbEntity
  8
0
100
AcDbBlockBegin
  2
*D8
 70
     1
 10
0.0
 20
0.0
 30
0.0
  3
*D8
  1

  0
LINE
  5
8394
330
84A3
100
AcDbEntity
  8
3
 62
     0
100
AcDbLine
 10
2155.942858765823
 20
3804.416924202904
 30
0.0
 11
2155.942858765823
 21
3972.092091564402
 31
0.0
  0
LINE
  5
8395
330
84A3
100
AcDbEntity
  8
3
 62
     0
100
AcDbLine
 10
1382.11119563803
 20
2802.454481859346
 30
0.0
 11
1382.11119563803
 21
3972.092091564402
 31
0.0
  0
LINE
  5
8396
330
84A3
100
AcDbEntity
  8
3
 62
     0
100
AcDbLine
 10
2095.942858765823
 20
3942.092091564402
 30
0.0
 11
1442.11119563803
 21
3942.092091564402
 31
0.0
  0
INSERT
  5
8397
330
84A3
100
AcDbEntity
  8
3
 62
     0
100
AcDbBlockReference
  2
_OPEN
 10
2155.942858765823
 20
3942.092091564402
 30
0.0
 41
60.0
 42
60.0
 43
60.0
  0
INSERT
  5
8398
330
84A3
100
AcDbEntity
  8
3
 62
     0
100
AcDbBlockReference
  2
_OPEN
 10
1382.11119563803
 20
3942.092091564402
 30
0.0
 41
60.0
 42
60.0
 43
60.0
 50
180.0
  0
TEXT
  5
8409
330
84A3
100
AcDbEntity
  8
3
 62
     0
100
AcDbText
 10
1589.03
 20
3857.79
 30
0.0
 40
90.0
  1
777
100
AcDbText
  0
POINT
  5
839A
330
84A3
100
AcDbEntity
  8
DEFPOINTS
 62
     0
100
AcDbPoint
 10
2155.942858765823
 20
3789.416924202903
 30
0.0
  0
POINT
  5
839B
330
84A3
100
AcDbEntity
  8
DEFPOINTS
 62
     0
100
AcDbPoint
 10
1382.11119563803
 20
2787.454481859346
 30
0.0
  0
POINT
  5
839C
330
84A3
100
AcDbEntity
  8
DEFPOINTS
 62
     0
100
AcDbPoint
 10
1382.11119563803
 20
3942.092091564402
 30
0.0
  0
ENDBLK
  5
817F
330
84A3
100
AcDbEntity
  8
0
100
AcDbBlockEnd
  0
BLOCK
  5
84A6
330
84A5
100
AcDbEntity
  8
0
100
AcDbBlockBegin
  2
*D9
 70
     1
 10
0.0
 20
0.0
 30
0.0
  3
*D9
  1

  0
LINE
  5
839D
330
84A5
100
AcDbEntity
  8
3
 62
     0
100
AcDbLine
 10
4106.111918802633
 20
3732.913066074655
 30
0.0
 11
4106.111918802633
 21
3971.646435392973
 31
0.0
  0
LINE
  5
839E
330
84A5
100
AcDbEntity
  8
3
 62
     0
100
AcDbLine
 10
5226.111918802633
 20
3735.956459412383
 30
0.0
 11
5226.111918802633
 21
3971.646435392973
 31
0.0
  0
LINE
  5
839F
330
84A5
100
AcDbEntity
  8
3
 62
     0
100
AcDbLine
 10
4166.111918802633
 20
3941.646435392974
 30
0.0
 11
5166.111918802633
 21
3941.646435392974
 31
0.0
  0
INSERT
  5
83A0
330
84A5
100
AcDbEntity
  8
3
 62
     0
100
AcDbBlockReference
  2
_OPEN
 10
4106.111918802633
 20
3941.646435392974
 30
0.0
 41
60.0
 42
60.0
 43
60.0
 50
180.0
  0
INSERT
  5
83A1
330
84A5
100
AcDbEntity
  8
3
 62
     0
100
AcDbBlockReference
  2
_OPEN
 10
5226.111918802633
 20
3941.646435392974
 30
0.0
 41
60.0
 42
60.0
 43
60.0
  0
TEXT
  5
840A
330
84A5
100
AcDbEntity
  8
3
 62
     0
100
AcDbText
 10
4486.11
 20
3857.35
 30
0.0
 40
90.0
  1
1120
100
AcDbText
  0
POINT
  5
83A3
330
84A5
100
AcDbEntity
  8
DEFPOINTS
 62
     0
100
AcDbPoint
 10
4106.111918802633
 20
3717.913066074654
 30
0.0
  0
POINT
  5
83A4
330
84A5
100
AcDbEntity
  8
DEFPOINTS
 62
     0
100
AcDbPoint
 10
5226.111918802633
 20
3720.956459412383
 30
0.0
  0
POINT
  5
83A5
330
84A5
100
AcDbEntity
  8
DEFPOINTS
 62
     0
100
AcDbPoint
 10
5226.111918802633
 20
3941.646435392974
 30
0.0
  0
ENDBLK
  5
81E2
330
84A5
100
AcDbEntity
  8
0
100
AcDbBlockEnd
  0
BLOCK
  5
84A8
330
84A7
100
AcDbEntity
  8
0
100
AcDbBlockBegin
  2
*D10
 70
     1
 10
0.0
 20
0.0
 30
0.0
  3
*D10
  1

  0
LINE
  5
83A6
330
84A7
100
AcDbEntity
  8
3
 62
     0
100
AcDbLine
 10
3768.111918802631
 20
3082.454481859346
 30
0.0
 11
3768.111918802631
 21
4179.366356043397
 31
0.0
  0
LINE
  5
83A7
330
84A7
100
AcDbEntity
  8
3
 62
     0
100
AcDbLine
 10
4666.111918802633
 20
4087.237520526025
 30
0.0
 11
4666.111918802633
 21
4179.366356043397
 31
0.0
  0
LINE
  5
83A8
330
84A7
100
AcDbEntity
  8
3
 62
     0
100
AcDbLine
 10
3828.111918802632
 20
4149.366356043397
 30
0.0
 11
4606.111918802633
 21
4149.366356043397
 31
0.0
  0
INSERT
  5
83A9
330
84A7
100
AcDbEntity
  8
3
 62
     0
100
AcDbBlockReference
  2
_OPEN
 10
3768.111918802631
 20
4149.366356043397
 30
0.0
 41
60.0
 42
60.0
 43
60.0
 50
180.0
  0
INSERT
  5
83AA
330
84A7
100
AcDbEntity
  8
3
 62
     0
100
AcDbBlockReference
  2
_OPEN
 10
4666.111918802633
 20
4149.366356043397
 30
0.0
 41
60.0
 42
60.0
 43
60.0
  0
TEXT
  5
840B
330
84A7
100
AcDbEntity
  8
3
 62
     0
100
AcDbText
 10
4037.110000000001
 20
4140.07
 30
0.0
 40
90.0
  1
MAX
100
AcDbText
  0
TEXT
  5
840C
330
84A7
100
AcDbEntity
  8
3
 62
     0
100
AcDbText
 10
4037.110000000001
 20
4023.07
 30
0.0
 40
90.0
  1
920
100
AcDbText
  0
POINT
  5
83AC
330
84A7
100
AcDbEntity
  8
DEFPOINTS
 62
     0
100
AcDbPoint
 10
3768.111918802631
 20
3067.454481859346
 30
0.0
  0
POINT
  5
83AD
330
84A7
100
AcDbEntity
  8
DEFPOINTS
 62
     0
100
AcDbPoint
 10
4666.111918802633
 20
4072.237520526026
 30
0.0
  0
POINT
  5
83AE
330
84A7
100
AcDbEntity
  8
DEFPOINTS
 62
     0
100
AcDbPoint
 10
4666.111918802633
 20
4149.366356043397
 30
0.0
  0
ENDBLK
  5
81ED
330
84A7
100
AcDbEntity
  8
0
100
AcDbBlockEnd
  0
BLOCK
  5
84AA
330
84A9
100
AcDbEntity
  8
0
100
AcDbBlockBegin
  2
*D11
 70
     1
 10
0.0
 20
0.0
 30
0.0
  3
*D11
  1

  0
LINE
  5
83AF
330
84A9
100
AcDbEntity
  8
3
 62
     0
100
AcDbLine
 10
4666.111918802633
 20
4087.237520526025
 30
0.0
 11
4666.111918802633
 21
4179.366356043397
 31
0.0
  0
LINE
  5
83B0
330
84A9
100
AcDbEntity
  8
3
 62
     0
100
AcDbLine
 10
5335.611918802634
 20
2762.954481859345
 30
0.0
 11
5335.611918802634
 21
4179.366356043397
 31
0.0
  0
LINE
  5
83B1
330
84A9
100
AcDbEntity
  8
3
 62
     0
100
AcDbLine
 10
4726.111918802633
 20
4149.366356043397
 30
0.0
 11
5275.611918802631
 21
4149.366356043397
 31
0.0
  0
INSERT
  5
83B2
330
84A9
100
AcDbEntity
  8
3
 62
     0
100
AcDbBlockReference
  2
_OPEN
 10
4666.111918802633
 20
4149.366356043397
 30
0.0
 41
60.0
 42
60.0
 43
60.0
 50
180.0
  0
INSERT
  5
83B3
330
84A9
100
AcDbEntity
  8
3
 62
     0
100
AcDbBlockReference
  2
_OPEN
 10
5335.611918802634
 20
4149.366356043397
 30
0.0
 41
60.0
 42
60.0
 43
60.0
  0
TEXT
  5
840D
330
84A9
100
AcDbEntity
  8
3
 62
     0
100
AcDbText
 10
4820.859999999999
 20
4088.64
 30
0.0
 40
90.0
  1
(680)
100
AcDbText
  0
POINT
  5
83B5
330
84A9
100
AcDbEntity
  8
DEFPOINTS
 62
     0
100
AcDbPoint
 10
4666.111918802633
 20
4072.237520526026
 30
0.0
  0
POINT
  5
83B6
330
84A9
100
AcDbEntity
  8
DEFPOINTS
 62
     0
100
AcDbPoint
 10
5335.611918802634
 20
2747.954481859345
 30
0.0
  0
POINT
  5
83B7
330
84A9
100
AcDbEntity
  8
DEFPOINTS
 62
     0
100
AcDbPoint
 10
5335.611918802634
 20
4149.366356043397
 30
0.0
  0
ENDBLK
  5
81F8
330
84A9
100
AcDbEntity
  8
0
100
AcDbBlockEnd
  0
BLOCK
  5
84AC
330
84AB
100
AcDbEntity
  8
0
100
AcDbBlockBegin
  2
*D12
 70
     1
 10
0.0
 20
0.0
 30
0.0
  3
*D12
  1

  0
LINE
  5
83B8
330
84AB
100
AcDbEntity
  8
3
 62
     0
100
AcDbLine
 10
845.9428587658239
 20
5620.453943093273
 30
0.0
 11
845.9428587658239
 21
6512.468601598492
 31
0.0
  0
LINE
  5
83B9
330
84AB
100
AcDbEntity
  8
3
 62
     0
100
AcDbLine
 10
1595.942858765823
 20
6195.453943093272
 30
0.0
 11
1595.942858765823
 21
6512.468601598492
 31
0.0
  0
LINE
  5
83BA
330
84AB
100
AcDbEntity
  8
3
 62
     0
100
AcDbLine
 10
905.942858765824
 20
6482.468601598494
 30
0.0
 11
1535.942858765823
 21
6482.468601598494
 31
0.0
  0
INSERT
  5
83BB
330
84AB
100
AcDbEntity
  8
3
 62
     0
100
AcDbBlockReference
  2
_OPEN
 10
845.9428587658239
 20
6482.468601598494
 30
0.0
 41
60.0
 42
60.0
 43
60.0
 50
180.0
  0
INSERT
  5
83BC
330
84AB
100
AcDbEntity
  8
3
 62
     0
100
AcDbBlockReference
  2
_OPEN
 10
1595.942858765823
 20
6482.468601598494
 30
0.0
 41
60.0
 42
60.0
 43
60.0
  0
TEXT
  5
840E
330
84AB
100
AcDbEntity
  8
3
 62
     0
100
AcDbText
 10
1040.94
 20
6398.17
 30
0.0
 40
90.0
  1
750
100
AcDbText
  0
POINT
  5
83BE
330
84AB
100
AcDbEntity
  8
DEFPOINTS
 62
     0
100
AcDbPoint
 10
845.9428587658239
 20
5605.453943093273
 30
0.0
  0
POINT
  5
83BF
330
84AB
100
AcDbEntity
  8
DEFPOINTS
 62
     0
100
AcDbPoint
 10
1595.942858765823
 20
6180.453943093272
 30
0.0
  0
POINT
  5
83C0
330
84AB
100
AcDbEntity
  8
DEFPOINTS
 62
     0
100
AcDbPoint
 10
1595.942858765823
 20
6482.468601598494
 30
0.0
  0
ENDBLK
  5
8132
330
84AB
100
AcDbEntity
  8
0
100
AcDbBlockEnd
  0
BLOCK
  5
84AE
330
84AD
100
AcDbEntity
  8
0
100
AcDbBlockBegin
  2
*D13
 70
     1
 10
0.0
 20
0.0
 30
0.0
  3
*D13
  1

  0
LINE
  5
83C1
330
84AD
100
AcDbEntity
  8
3
 62
     0
100
AcDbLine
 10
1595.942858765823
 20
6195.453943093272
 30
0.0
 11
1595.942858765823
 21
6512.468601598492
 31
0.0
  0
LINE
  5
83C2
330
84AD
100
AcDbEntity
  8
3
 62
     0
100
AcDbLine
 10
2715.942858765823
 20
6195.453943093272
 30
0.0
 11
2715.942858765823
 21
6512.468601598492
 31
0.0
  0
LINE
  5
83C3
330
84AD
100
AcDbEntity
  8
3
 62
     0
100
AcDbLine
 10
1655.942858765823
 20
6482.468601598494
 30
0.0
 11
2655.942858765823
 21
6482.468601598494
 31
0.0
  0
INSERT
  5
83C4
330
84AD
100
AcDbEntity
  8
3
 62
     0
100
AcDbBlockReference
  2
_OPEN
 10
1595.942858765823
 20
6482.468601598494
 30
0.0
 41
60.0
 42
60.0
 43
60.0
 50
180.0
  0
INSERT
  5
83C5
330
84AD
100
AcDbEntity
  8
3
 62
     0
100
AcDbBlockReference
  2
_OPEN
 10
2715.942858765823
 20
6482.468601598494
 30
0.0
 41
60.0
 42
60.0
 43
60.0
  0
TEXT
  5
840F
330
84AD
100
AcDbEntity
  8
3
 62
     0
100
AcDbText
 10
1975.94
 20
6398.17
 30
0.0
 40
90.0
  1
1120
100
AcDbText
  0
POINT
  5
83C7
330
84AD
100
AcDbEntity
  8
DEFPOINTS
 62
     0
100
AcDbPoint
 10
1595.942858765823
 20
6180.453943093272
 30
0.0
  0
POINT
  5
83C8
330
84AD
100
AcDbEntity
  8
DEFPOINTS
 62
     0
100
AcDbPoint
 10
2715.942858765823
 20
6180.453943093272
 30
0.0
  0
POINT
  5
83C9
330
84AD
100
AcDbEntity
  8
DEFPOINTS
 62
     0
100
AcDbPoint
 10
2715.942858765823
 20
6482.468601598494
 30
0.0
  0
ENDBLK
  5
813D
330
84AD
100
AcDbEntity
  8
0
100
AcDbBlockEnd
  0
BLOCK
  5
84B0
330
84AF
100
AcDbEntity
  8
0
100
AcDbBlockBegin
  2
*D14
 70
     1
 10
0.0
 20
0.0
 30
0.0
  3
*D14
  1

  0
LINE
  5
83CA
330
84AF
100
AcDbEntity
  8
3
 62
     0
100
AcDbLine
 10
2730.942858765823
 20
6180.453943093272
 30
0.0
 11
3046.36708093224
 21
6180.453943093272
 31
0.0
  0
LINE
  5
83CB
330
84AF
100
AcDbEntity
  8
3
 62
     0
100
AcDbLine
 10
2730.942858765823
 20
4805.453943093271
 30
0.0
 11
3046.367080932239
 21
4805.453943093271
 31
0.0
  0
LINE
  5
83CC
330
84AF
100
AcDbEntity
  8
3
 62
     0
100
AcDbLine
 10
3016.367080932239
 20
6120.453943093272
 30
0.0
 11
3016.367080932239
 21
4865.453943093271
 31
0.0
  0
INSERT
  5
83CD
330
84AF
100
AcDbEntity
  8
3
 62
     0
100
AcDbBlockReference
  2
_OPEN
 10
3016.367080932239
 20
6180.453943093272
 30
0.0
 41
60.0
 42
60.0
 43
60.0
 50
90.0
  0
INSERT
  5
83CE
330
84AF
100
AcDbEntity
  8
3
 62
     0
100
AcDbBlockReference
  2
_OPEN
 10
3016.367080932239
 20
4805.453943093271
 30
0.0
 41
60.0
 42
60.0
 43
60.0
 50
270.0
  0
TEXT
  5
8410
330
84AF
100
AcDbEntity
  8
3
 62
     0
100
AcDbText
 10
2761.37
 20
5333.65
 30
0.0
 40
90.0
  1
1375
100
AcDbText
  0
POINT
  5
83D0
330
84AF
100
AcDbEntity
  8
DEFPOINTS
 62
     0
100
AcDbPoint
 10
2715.942858765823
 20
6180.453943093272
 30
0.0
  0
POINT
  5
83D1
330
84AF
100
AcDbEntity
  8
DEFPOINTS
 62
     0
100
AcDbPoint
 10
2715.942858765823
 20
4805.453943093271
 30
0.0
  0
POINT
  5
83D2
330
84AF
100
AcDbEntity
  8
DEFPOINTS
 62
     0
100
AcDbPoint
 10
3016.367080932239
 20
4805.453943093271
 30
0.0
  0
ENDBLK
  5
815E
330
84AF
100
AcDbEntity
  8
0
100
AcDbBlockEnd
  0
BLOCK
  5
84B2
330
84B1
100
AcDbEntity
  8
0
100
AcDbBlockBegin
  2
*D15
 70
     1
 10
0.0
 20
0.0
 30
0.0
  3
*D15
  1

  0
LINE
  5
83D3
330
84B1
100
AcDbEntity
  8
3
 62
     0
100
AcDbLine
 10
845.9428587658239
 20
4790.453943093271
 30
0.0
 11
845.9428587658239
 21
4468.306783611199
 31
0.0
  0
LINE
  5
83D4
330
84B1
100
AcDbEntity
  8
3
 62
     0
100
AcDbLine
 10
2715.942858765823
 20
4790.453943093271
 30
0.0
 11
2715.942858765823
 21
4468.306783611199
 31
0.0
  0
LINE
  5
83D5
330
84B1
100
AcDbEntity
  8
3
 62
     0
100
AcDbLine
 10
905.942858765824
 20
4498.306783611197
 30
0.0
 11
2655.942858765823
 21
4498.306783611197
 31
0.0
  0
INSERT
  5
83D6
330
84B1
100
AcDbEntity
  8
3
 62
     0
100
AcDbBlockReference
  2
_OPEN
 10
845.9428587658239
 20
4498.306783611197
 30
0.0
 41
60.0
 42
60.0
 43
60.0
 50
180.0
  0
INSERT
  5
83D7
330
84B1
100
AcDbEntity
  8
3
 62
     0
100
AcDbBlockReference
  2
_OPEN
 10
2715.942858765823
 20
4498.306783611197
 30
0.0
 41
60.0
 42
60.0
 43
60.0
  0
TEXT
  5
8411
330
84B1
100
AcDbEntity
  8
3
 62
     0
100
AcDbText
 10
1600.94
 20
4414.01
 30
0.0
 40
90.0
  1
1870
100
AcDbText
  0
POINT
  5
83D9
330
84B1
100
AcDbEntity
  8
DEFPOINTS
 62
     0
100
AcDbPoint
 10
845.9428587658239
 20
4805.453943093271
 30
0.0
  0
POINT
  5
83DA
330
84B1
100
AcDbEntity
  8
DEFPOINTS
 62
     0
100
AcDbPoint
 10
2715.942858765823
 20
4805.453943093271
 30
0.0
  0
POINT
  5
83DB
330
84B1
100
AcDbEntity
  8
DEFPOINTS
 62
     0
100
AcDbPoint
 10
2715.942858765823
 20
4498.306783611197
 30
0.0
  0
ENDBLK
  5
8153
330
84B1
100
AcDbEntity
  8
0
100
AcDbBlockEnd
  0
BLOCK
  5
84B4
330
84B3
100
AcDbEntity
  8
0
100
AcDbBlockBegin
  2
*D16
 70
     1
 10
0.0
 20
0.0
 30
0.0
  3
*D16
  1

  0
LINE
  5
83DC
330
84B3
100
AcDbEntity
  8
3
 62
     0
100
AcDbLine
 10
830.942858765824
 20
5605.453943093273
 30
0.0
 11
626.0913512992849
 21
5605.453943093273
 31
0.0
  0
LINE
  5
83DD
330
84B3
100
AcDbEntity
  8
3
 62
     0
100
AcDbLine
 10
830.942858765824
 20
4805.453943093271
 30
0.0
 11
626.0913512992847
 21
4805.453943093271
 31
0.0
  0
LINE
  5
83DE
330
84B3
100
AcDbEntity
  8
3
 62
     0
100
AcDbLine
 10
656.0913512992849
 20
5545.453943093272
 30
0.0
 11
656.0913512992847
 21
4865.453943093271
 31
0.0
  0
INSERT
  5
83DF
330
84B3
100
AcDbEntity
  8
3
 62
     0
100
AcDbBlockReference
  2
_OPEN
 10
656.0913512992849
 20
5605.453943093273
 30
0.0
 41
60.0
 42
60.0
 43
60.0
 50
90.0
  0
INSERT
  5
83E0
330
84B3
100
AcDbEntity
  8
3
 62
     0
100
AcDbBlockReference
  2
_OPEN
 10
656.0913512992847
 20
4805.453943093271
 30
0.0
 41
60.0
 42
60.0
 43
60.0
 50
270.0
  0
TEXT
  5
8412
330
84B3
100
AcDbEntity
  8
3
 62
     0
100
AcDbText
 10
401.0909999999999
 20
5046.15
 30
0.0
 40
90.0
  1
800
100
AcDbText
  0
POINT
  5
83E2
330
84B3
100
AcDbEntity
  8
DEFPOINTS
 62
     0
100
AcDbPoint
 10
845.9428587658239
 20
5605.453943093273
 30
0.0
  0
POINT
  5
83E3
330
84B3
100
AcDbEntity
  8
DEFPOINTS
 62
     0
100
AcDbPoint
 10
845.9428587658239
 20
4805.453943093271
 30
0.0
  0
POINT
  5
83E4
330
84B3
100
AcDbEntity
  8
DEFPOINTS
 62
     0
100
AcDbPoint
 10
656.0913512992847
 20
4805.453943093271
 30
0.0
  0
ENDBLK
  5
8148
330
84B3
100
AcDbEntity
  8
0
100
AcDbBlockEnd
  0
BLOCK
  5
84B6
330
84B5
100
AcDbEntity
  8
0
100
AcDbBlockBegin
  2
*D17
 70
     1
 10
0.0
 20
0.0
 30
0.0
  3
*D17
  1

  0
LINE
  5
83E5
330
84B5
100
AcDbEntity
  8
3
 62
     0
100
AcDbLine
 10
5246.611918802633
 20
2312.454481859345
 30
0.0
 11
5580.002912630768
 21
2312.454481859345
 31
0.0
  0
LINE
  5
83E6
330
84B5
100
AcDbEntity
  8
3
 62
     0
100
AcDbLine
 10
5246.611918802633
 20
3262.454481859345
 30
0.0
 11
5580.002912630768
 21
3262.454481859345
 31
0.0
  0
LINE
  5
83E7
330
84B5
100
AcDbEntity
  8
3
 62
     0
100
AcDbLine
 10
5550.002912630768
 20
2372.454481859346
 30
0.0
 11
5550.002912630768
 21
3202.454481859347
 31
0.0
  0
INSERT
  5
83E8
330
84B5
100
AcDbEntity
  8
3
 62
     0
100
AcDbBlockReference
  2
_OPEN
 10
5550.002912630768
 20
2312.454481859345
 30
0.0
 41
60.0
 42
60.0
 43
60.0
 50
270.0
  0
INSERT
  5
83E9
330
84B5
100
AcDbEntity
  8
3
 62
     0
100
AcDbBlockReference
  2
_OPEN
 10
5550.002912630768
 20
3262.454481859345
 30
0.0
 41
60.0
 42
60.0
 43
60.0
 50
90.0
  0
TEXT
  5
8413
330
84B5
100
AcDbEntity
  8
3
 62
     0
100
AcDbText
 10
5295.0
 20
2628.15
 30
0.0
 40
90.0
  1
\U+03C6950
100
AcDbText
  0
POINT
  5
83EB
330
84B5
100
AcDbEntity
  8
DEFPOINTS
 62
     0
100
AcDbPoint
 10
5231.611918802633
 20
2312.454481859345
 30
0.0
  0
POINT
  5
83EC
330
84B5
100
AcDbEntity
  8
DEFPOINTS
 62
     0
100
AcDbPoint
 10
5231.611918802633
 20
3262.454481859345
 30
0.0
  0
POINT
  5
83ED
330
84B5
100
AcDbEntity
  8
DEFPOINTS
 62
     0
100
AcDbPoint
 10
5550.002912630768
 20
3262.454481859345
 30
0.0
  0
ENDBLK
  5
8203
330
84B5
100
AcDbEntity
  8
0
100
AcDbBlockEnd
  0
BLOCK
  5
84B8
330
84B7
100
AcDbEntity
  8
0
100
AcDbBlockBegin
  2
*D18
 70
     1
 10
0.0
 20
0.0
 30
0.0
  3
*D18
  1

  0
LINE
  5
83EE
330
84B7
100
AcDbEntity
  8
3
 62
     0
100
AcDbLine
 10
2730.942858765823
 20
2080.454481859345
 30
0.0
 11
3105.901267306895
 21
2080.454481859345
 31
0.0
  0
LINE
  5
83EF
330
84B7
100
AcDbEntity
  8
3
 62
     0
100
AcDbLine
 10
2730.942858765823
 20
1980.454481859346
 30
0.0
 11
3105.901267306895
 21
1980.454481859346
 31
0.0
  0
LINE
  5
83F0
330
84B7
100
AcDbEntity
  8
3
 62
     0
100
AcDbLine
 10
3075.901267306895
 20
2140.454481859345
 30
0.0
 11
3075.901267306895
 21
2200.454481859345
 31
0.0
  0
LINE
  5
83F1
330
84B7
100
AcDbEntity
  8
3
 62
     0
100
AcDbLine
 10
3075.901267306895
 20
1920.454481859344
 30
0.0
 11
3075.901267306895
 21
1586.168767573631
 31
0.0
  0
LINE
  5
83F2
330
84B7
100
AcDbEntity
  8
3
 62
     0
100
AcDbLine
 10
3075.901267306895
 20
2080.454481859345
 30
0.0
 11
3075.901267306895
 21
1980.454481859346
 31
0.0
  0
INSERT
  5
83F3
330
84B7
100
AcDbEntity
  8
3
 62
     0
100
AcDbBlockReference
  2
_DOT
 10
3075.901267306895
 20
2080.454481859345
 30
0.0
 41
60.0
 42
60.0
 43
60.0
 50
270.0
  0
INSERT
  5
83F4
330
84B7
100
AcDbEntity
  8
3
 62
     0
100
AcDbBlockReference
  2
_OPEN
 10
3075.901267306895
 20
1980.454481859346
 30
0.0
 41
60.0
 42
60.0
 43
60.0
 50
90.0
  0
TEXT
  5
8414
330
84B7
100
AcDbEntity
  8
3
 62
     0
100
AcDbText
 10
2820.9
 20
1564.01
 30
0.0
 40
90.0
  1
100
100
AcDbText
  0
POINT
  5
83F6
330
84B7
100
AcDbEntity
  8
DEFPOINTS
 62
     0
100
AcDbPoint
 10
2715.942858765824
 20
2080.454481859345
 30
0.0
  0
POINT
  5
83F7
330
84B7
100
AcDbEntity
  8
DEFPOINTS
 62
     0
100
AcDbPoint
 10
2715.942858765824
 20
1980.454481859346
 30
0.0
  0
POINT
  5
83F8
330
84B7
100
AcDbEntity
  8
DEFPOINTS
 62
     0
100
AcDbPoint
 10
3075.901267306895
 20
1980.454481859346
 30
0.0
  0
ENDBLK
  5
8127
330
84B7
100
AcDbEntity
  8
0
100
AcDbBlockEnd
  0
BLOCK
  5
84BC
330
84B9
100
AcDbEntity
  8
0
100
AcDbBlockBegin
  2
_DOT
 70
     0
 10
0.0
 20
0.0
 30
0.0
  3
_DOT
  1

  0
LWPOLYLINE
  5
8019
330
84B9
100
AcDbEntity
  8
0
  6
ByBlock
 62
     0
100
AcDbPolyline
 90
        2
 70
     1
 43
0.25
 10
-0.125
 20
0.0
 42
1.0
 10
0.125
 20
0.0
 42
1.0
  0
LINE
  5
801D
330
84B9
100
AcDbEntity
  8
0
  6
ByBlock
 62
     0
100
AcDbLine
 10
-0.25
 20
0.0
 30
0.0
 11
-1.0
 21
0.0
 31
0.0
  0
ENDBLK
  5
7FEF
330
84B9
100
AcDbEntity
  8
0
100
AcDbBlockEnd
  0
BLOCK
  5
84BB
330
84BA
100
AcDbEntity
  8
0
100
AcDbBlockBegin
  2
*D20
 70
     1
 10
0.0
 20
0.0
 30
0.0
  3
*D20
  1

  0
LINE
  5
83F9
330
84BA
100
AcDbEntity
  8
3
 62
     0
100
AcDbLine
 10
2775.942858765823
 20
3805.954481859346
 30
0.0
 11
2775.942858765823
 21
4167.110429238729
 31
0.0
  0
LINE
  5
83FA
330
84BA
100
AcDbEntity
  8
3
 62
     0
100
AcDbLine
 10
845.9428587658239
 20
2222.454481859345
 30
0.0
 11
845.9428587658241
 21
4167.110429238729
 31
0.0
  0
LINE
  5
83FB
330
84BA
100
AcDbEntity
  8
3
 62
     0
100
AcDbLine
 10
2715.942858765823
 20
4137.110429238729
 30
0.0
 11
905.942858765824
 21
4137.110429238729
 31
0.0
  0
INSERT
  5
83FC
330
84BA
100
AcDbEntity
  8
3
 62
     0
100
AcDbBlockReference
  2
_OPEN
 10
2775.942858765823
 20
4137.110429238729
 30
0.0
 41
60.0
 42
60.0
 43
60.0
  0
INSERT
  5
83FD
330
84BA
100
AcDbEntity
  8
3
 62
     0
100
AcDbBlockReference
  2
_OPEN
 10
845.9428587658241
 20
4137.110429238729
 30
0.0
 41
60.0
 42
60.0
 43
60.0
 50
180.0
  0
TEXT
  5
8415
330
84BA
100
AcDbEntity
  8
3
 62
     0
100
AcDbText
 10
1630.94
 20
4052.81
 30
0.0
 40
90.0
  1
1930
100
AcDbText
  0
POINT
  5
83FF
330
84BA
100
AcDbEntity
  8
DEFPOINTS
 62
     0
100
AcDbPoint
 10
2775.942858765823
 20
3790.954481859346
 30
0.0
  0
POINT
  5
8400
330
84BA
100
AcDbEntity
  8
DEFPOINTS
 62
     0
100
AcDbPoint
 10
845.9428587658239
 20
2207.454481859345
 30
0.0
  0
POINT
  5
8401
330
84BA
100
AcDbEntity
  8
DEFPOINTS
 62
     0
100
AcDbPoint
 10
845.9428587658241
 20
4137.110429238729
 30
0.0
  0
ENDBLK
  5
8195
330
84BA
100
AcDbEntity
  8
0
100
AcDbBlockEnd
  0
BLOCK
  5
84BE
330
84BD
100
AcDbEntity
  8
0
100
AcDbBlockBegin
  2
*D21
 70
     1
 10
0.0
 20
0.0
 30
0.0
  3
*D21
  1

  0
LINE
  5
820E
330
84BD
100
AcDbEntity
  8
0
  6
ByBlock
 62
     0
100
AcDbLine
 10
845.9428587658221
 20
1950.454481859345
 30
0.0
 11
845.9428587658221
 21
1752.166200219333
 31
0.0
  0
LINE
  5
820F
330
84BD
100
AcDbEntity
  8
0
  6
ByBlock
 62
     0
100
AcDbLine
 10
2155.942858765823
 20
1950.454481859345
 30
0.0
 11
2155.942858765823
 21
1752.166200219333
 31
0.0
  0
LINE
  5
8210
330
84BD
100
AcDbEntity
  8
0
  6
ByBlock
 62
     0
100
AcDbLine
 10
905.9428587658221
 20
1782.166200219333
 30
0.0
 11
2095.942858765823
 21
1782.166200219333
 31
0.0
  0
INSERT
  5
8211
330
84BD
100
AcDbEntity
  8
0
  6
ByBlock
 62
     0
100
AcDbBlockReference
  2
_OPEN
 10
845.9428587658221
 20
1782.166200219333
 30
0.0
 41
60.0
 42
60.0
 43
60.0
 50
180.0
  0
INSERT
  5
8212
330
84BD
100
AcDbEntity
  8
0
  6
ByBlock
 62
     0
100
AcDbBlockReference
  2
_OPEN
 10
2155.942858765823
 20
1782.166200219333
 30
0.0
 41
60.0
 42
60.0
 43
60.0
  0
TEXT
  5
8213
330
84BD
100
AcDbEntity
  8
3
 62
     0
100
AcDbText
 10
1359.51428733725
 20
1812.166200219333
 30
0.0
 40
90.0
  1
1310
100
AcDbText
  0
POINT
  5
8214
330
84BD
100
AcDbEntity
  8
DEFPOINTS
  6
ByBlock
 62
     0
100
AcDbPoint
 10
845.9428587658221
 20
1980.454481859346
 30
0.0
  0
POINT
  5
8215
330
84BD
100
AcDbEntity
  8
DEFPOINTS
  6
ByBlock
 62
     0
100
AcDbPoint
 10
2155.942858765823
 20
1980.454481859346
 30
0.0
  0
POINT
  5
8216
330
84BD
100
AcDbEntity
  8
DEFPOINTS
  6
ByBlock
 62
     0
100
AcDbPoint
 10
2155.942858765823
 20
1782.166200219333
 30
0.0
  0
ENDBLK
  5
8217
330
84BD
100
AcDbEntity
  8
0
100
AcDbBlockEnd
  0
BLOCK
  5
84C0
330
84BF
100
AcDbEntity
  8
0
100
AcDbBlockBegin
  2
*D22
 70
     1
 10
0.0
 20
0.0
 30
0.0
  3
*D22
  1

  0
LINE
  5
821B
330
84BF
100
AcDbEntity
  8
0
  6
ByBlock
 62
     0
100
AcDbLine
 10
2155.942858765823
 20
1950.454481859345
 30
0.0
 11
2155.942858765823
 21
1752.166200219333
 31
0.0
  0
LINE
  5
821C
330
84BF
100
AcDbEntity
  8
0
  6
ByBlock
 62
     0
100
AcDbLine
 10
2715.942858765824
 20
1950.454481859345
 30
0.0
 11
2715.942858765824
 21
1752.166200219333
 31
0.0
  0
LINE
  5
821D
330
84BF
100
AcDbEntity
  8
0
  6
ByBlock
 62
     0
100
AcDbLine
 10
2215.942858765822
 20
1782.166200219333
 30
0.0
 11
2655.942858765824
 21
1782.166200219333
 31
0.0
  0
INSERT
  5
821E
330
84BF
100
AcDbEntity
  8
0
  6
ByBlock
 62
     0
100
AcDbBlockReference
  2
_OPEN
 10
2155.942858765823
 20
1782.166200219333
 30
0.0
 41
60.0
 42
60.0
 43
60.0
 50
180.0
  0
INSERT
  5
821F
330
84BF
100
AcDbEntity
  8
0
  6
ByBlock
 62
     0
100
AcDbBlockReference
  2
_OPEN
 10
2715.942858765824
 20
1782.166200219333
 30
0.0
 41
60.0
 42
60.0
 43
60.0
  0
TEXT
  5
8220
330
84BF
100
AcDbEntity
  8
3
 62
     0
100
AcDbText
 10
2320.228573051537
 20
1812.166200219333
 30
0.0
 40
90.0
  1
560
100
AcDbText
  0
POINT
  5
8221
330
84BF
100
AcDbEntity
  8
DEFPOINTS
  6
ByBlock
 62
     0
100
AcDbPoint
 10
2155.942858765823
 20
1980.454481859346
 30
0.0
  0
POINT
  5
8222
330
84BF
100
AcDbEntity
  8
DEFPOINTS
  6
ByBlock
 62
     0
100
AcDbPoint
 10
2715.942858765824
 20
1980.454481859346
 30
0.0
  0
POINT
  5
8223
330
84BF
100
AcDbEntity
  8
DEFPOINTS
  6
ByBlock
 62
     0
100
AcDbPoint
 10
2715.942858765824
 20
1782.166200219333
 30
0.0
  0
ENDBLK
  5
8224
330
84BF
100
AcDbEntity
  8
0
100
AcDbBlockEnd
  0
BLOCK
  5
84C2
330
84C1
100
AcDbEntity
  8
0
100
AcDbBlockBegin
  2
*D23
 70
     1
 10
0.0
 20
0.0
 30
0.0
  3
*D23
  1

  0
LINE
  5
8228
330
84C1
100
AcDbEntity
  8
0
  6
ByBlock
 62
     0
100
AcDbLine
 10
3904.111918802615
 20
1950.454481859345
 30
0.0
 11
3904.111918802615
 21
1752.166200219333
 31
0.0
  0
LINE
  5
8229
330
84C1
100
AcDbEntity
  8
0
  6
ByBlock
 62
     0
100
AcDbLine
 10
4666.111918802631
 20
1950.454481859345
 30
0.0
 11
4666.111918802631
 21
1752.166200219333
 31
0.0
  0
LINE
  5
822A
330
84C1
100
AcDbEntity
  8
0
  6
ByBlock
 62
     0
100
AcDbLine
 10
3964.111918802615
 20
1782.166200219333
 30
0.0
 11
4606.111918802631
 21
1782.166200219333
 31
0.0
  0
INSERT
  5
822B
330
84C1
100
AcDbEntity
  8
0
  6
ByBlock
 62
     0
100
AcDbBlockReference
  2
_OPEN
 10
3904.111918802615
 20
1782.166200219333
 30
0.0
 41
60.0
 42
60.0
 43
60.0
 50
180.0
  0
INSERT
  5
822C
330
84C1
100
AcDbEntity
  8
0
  6
ByBlock
 62
     0
100
AcDbBlockReference
  2
_OPEN
 10
4666.111918802631
 20
1782.166200219333
 30
0.0
 41
60.0
 42
60.0
 43
60.0
  0
TEXT
  5
822D
330
84C1
100
AcDbEntity
  8
3
 62
     0
100
AcDbText
 10
4169.397633088339
 20
1812.166200219333
 30
0.0
 40
90.0
  1
762
100
AcDbText
  0
POINT
  5
822E
330
84C1
100
AcDbEntity
  8
DEFPOINTS
  6
ByBlock
 62
     0
100
AcDbPoint
 10
3904.111918802615
 20
1980.454481859346
 30
0.0
  0
POINT
  5
822F
330
84C1
100
AcDbEntity
  8
DEFPOINTS
  6
ByBlock
 62
     0
100
AcDbPoint
 10
4666.111918802631
 20
1980.454481859346
 30
0.0
  0
POINT
  5
8230
330
84C1
100
AcDbEntity
  8
DEFPOINTS
  6
ByBlock
 62
     0
100
AcDbPoint
 10
4666.111918802631
 20
1782.166200219333
 30
0.0
  0
ENDBLK
  5
8231
330
84C1
100
AcDbEntity
  8
0
100
AcDbBlockEnd
  0
BLOCK
  5
84C4
330
84C3
100
AcDbEntity
  8
0
100
AcDbBlockBegin
  2
*D24
 70
     1
 10
0.0
 20
0.0
 30
0.0
  3
*D24
  1

  0
LINE
  5
8235
330
84C3
100
AcDbEntity
  8
0
  6
ByBlock
 62
     0
100
AcDbLine
 10
4666.111918802631
 20
1950.454481859345
 30
0.0
 11
4666.111918802631
 21
1752.166200219333
 31
0.0
  0
LINE
  5
8236
330
84C3
100
AcDbEntity
  8
0
  6
ByBlock
 62
     0
100
AcDbLine
 10
5279.111918802634
 20
1950.454481859345
 30
0.0
 11
5279.111918802634
 21
1752.166200219333
 31
0.0
  0
LINE
  5
8237
330
84C3
100
AcDbEntity
  8
0
  6
ByBlock
 62
     0
100
AcDbLine
 10
4726.111918802631
 20
1782.166200219333
 30
0.0
 11
5219.111918802633
 21
1782.166200219333
 31
0.0
  0
INSERT
  5
8238
330
84C3
100
AcDbEntity
  8
0
  6
ByBlock
 62
     0
100
AcDbBlockReference
  2
_OPEN
 10
4666.111918802631
 20
1782.166200219333
 30
0.0
 41
60.0
 42
60.0
 43
60.0
 50
180.0
  0
INSERT
  5
8239
330
84C3
100
AcDbEntity
  8
0
  6
ByBlock
 62
     0
100
AcDbBlockReference
  2
_OPEN
 10
5279.111918802634
 20
1782.166200219333
 30
0.0
 41
60.0
 42
60.0
 43
60.0
  0
TEXT
  5
823A
330
84C3
100
AcDbEntity
  8
3
 62
     0
100
AcDbText
 10
4865.469061659776
 20
1812.166200219333
 30
0.0
 40
90.0
  1
613
100
AcDbText
  0
POINT
  5
823B
330
84C3
100
AcDbEntity
  8
DEFPOINTS
  6
ByBlock
 62
     0
100
AcDbPoint
 10
4666.111918802631
 20
1980.454481859346
 30
0.0
  0
POINT
  5
823C
330
84C3
100
AcDbEntity
  8
DEFPOINTS
  6
ByBlock
 62
     0
100
AcDbPoint
 10
5279.111918802634
 20
1980.454481859346
 30
0.0
  0
POINT
  5
823D
330
84C3
100
AcDbEntity
  8
DEFPOINTS
  6
ByBlock
 62
     0
100
AcDbPoint
 10
5279.111918802634
 20
1782.166200219333
 30
0.0
  0
ENDBLK
  5
823E
330
84C3
100
AcDbEntity
  8
0
100
AcDbBlockEnd
  0
BLOCK
  5
84C6
330
84C5
100
AcDbEntity
  8
0
100
AcDbBlockBegin
  2
_NONE
 70
     0
 10
0.0
 20
0.0
 30
0.0
  3
_NONE
  1

  0
CIRCLE
  5
8242
330
84C5
100
AcDbEntity
  8
0
  6
ByBlock
 62
     0
100
AcDbCircle
 10
0.0
 20
0.0
 30
0.0
 40
0.25
  0
ENDBLK
  5
8243
330
84C5
100
AcDbEntity
  8
0
100
AcDbBlockEnd
  0
BLOCK
  5
84C8
330
84C7
100
AcDbEntity
  8
0
100
AcDbBlockBegin
  2
*D26
 70
     1
 10
0.0
 20
0.0
 30
0.0
  3
*D26
  1

  0
LINE
  5
828A
330
84C7
100
AcDbEntity
  8
0
  6
ByBlock
 62
     0
100
AcDbLine
 10
3078.274695699099
 20
2080.454481859345
 30
0.0
 11
3078.274695699099
 21
2080.454481859345
 31
0.0
  0
LINE
  5
828B
330
84C7
100
AcDbEntity
  8
0
  6
ByBlock
 62
     0
100
AcDbLine
 10
3078.274695699099
 20
2107.454481859345
 30
0.0
 11
3078.274695699099
 21
2227.454481859346
 31
0.0
  0
TEXT
  5
828C
330
84C7
100
AcDbEntity
  8
3
 62
     0
100
AcDbText
 10
3251.846124270528
 20
1936.24019614506
 30
0.0
 40
90.0
  1
 (27)
 50
90.0
100
AcDbText
  0
LINE
  5
828D
330
84C7
100
AcDbEntity
  8
0
  6
ByBlock
 62
     0
100
AcDbLine
 10
3078.274695699099
 20
2080.454481859345
 30
0.0
 11
3078.274695699099
 21
2107.454481859345
 31
0.0
  0
POINT
  5
828E
330
84C7
100
AcDbEntity
  8
DEFPOINTS
  6
ByBlock
 62
     0
100
AcDbPoint
 10
2715.942858765824
 20
2080.454481859345
 30
0.0
  0
POINT
  5
828F
330
84C7
100
AcDbEntity
  8
DEFPOINTS
  6
ByBlock
 62
     0
100
AcDbPoint
 10
2715.942858765824
 20
2107.454481859345
 30
0.0
  0
POINT
  5
8290
330
84C7
100
AcDbEntity
  8
DEFPOINTS
  6
ByBlock
 62
     0
100
AcDbPoint
 10
3078.274695699099
 20
2107.454481859345
 30
0.0
  0
ENDBLK
  5
8291
330
84C7
100
AcDbEntity
  8
0
100
AcDbBlockEnd
  0
BLOCK
  5
84CA
330
84C9
100
AcDbEntity
  8
0
100
AcDbBlockBegin
  2
*D27
 70
     1
 10
0.0
 20
0.0
 30
0.0
  3
*D27
  1

  0
LINE
  5
8251
330
84C9
100
AcDbEntity
  8
0
  6
ByBlock
 62
     0
100
AcDbLine
 10
2745.942858765824
 20
1980.454481859346
 30
0.0
 11
3346.566060374545
 21
1980.454481859346
 31
0.0
  0
LINE
  5
8252
330
84C9
100
AcDbEntity
  8
0
  6
ByBlock
 62
     0
100
AcDbLine
 10
2820.942858765823
 20
3748.454481859345
 30
0.0
 11
3346.566060374545
 21
3748.454481859345
 31
0.0
  0
LINE
  5
8253
330
84C9
100
AcDbEntity
  8
0
  6
ByBlock
 62
     0
100
AcDbLine
 10
3316.566060374546
 20
2040.454481859345
 30
0.0
 11
3316.566060374546
 21
3688.454481859346
 31
0.0
  0
INSERT
  5
8254
330
84C9
100
AcDbEntity
  8
0
  6
ByBlock
 62
     0
100
AcDbBlockReference
  2
_OPEN
 10
3316.566060374546
 20
1980.454481859346
 30
0.0
 41
60.0
 42
60.0
 43
60.0
 50
270.0
  0
INSERT
  5
8255
330
84C9
100
AcDbEntity
  8
0
  6
ByBlock
 62
     0
100
AcDbBlockReference
  2
_OPEN
 10
3316.566060374546
 20
3748.454481859345
 30
0.0
 41
60.0
 42
60.0
 43
60.0
 50
90.0
  0
TEXT
  5
8256
330
84C9
100
AcDbEntity
  8
3
 62
     0
100
AcDbText
 10
3247.994631803116
 20
2656.597339002201
 30
0.0
 40
90.0
  1
(1768)
 50
90.0
100
AcDbText
  0
POINT
  5
8257
330
84C9
100
AcDbEntity
  8
DEFPOINTS
  6
ByBlock
 62
     0
100
AcDbPoint
 10
2715.942858765824
 20
1980.454481859346
 30
0.0
  0
POINT
  5
8258
330
84C9
100
AcDbEntity
  8
DEFPOINTS
  6
ByBlock
 62
     0
100
AcDbPoint
 10
2790.942858765823
 20
3748.454481859345
 30
0.0
  0
POINT
  5
8259
330
84C9
100
AcDbEntity
  8
DEFPOINTS
  6
ByBlock
 62
     0
100
AcDbPoint
 10
3316.566060374546
 20
3748.454481859345
 30
0.0
  0
ENDBLK
  5
825A
330
84C9
100
AcDbEntity
  8
0
100
AcDbBlockEnd
  0
BLOCK
  5
84D1
330
84D0
100
AcDbEntity
  8
0
100
AcDbBlockBegin
  2
*D28
 70
     1
 10
0.0
 20
0.0
 30
0.0
  3
*D28
  1

  0
LINE
  5
8552
330
84D0
100
AcDbEntity
  8
3
 62
     0
370
    -2
100
AcDbLine
 10
3716.111918802631
 20
3097.454481859346
 30
0.0
 11
3716.111918802631
 21
4192.618405907796
 31
0.0
  0
LINE
  5
8553
330
84D0
100
AcDbEntity
  8
3
 62
     0
370
    -2
100
AcDbLine
 10
4666.111918802633
 20
4120.268701174605
 30
0.0
 11
4666.111918802633
 21
4192.618405907796
 31
0.0
  0
LINE
  5
8554
330
84D0
100
AcDbEntity
  8
3
 62
     0
370
    -2
100
AcDbLine
 10
3776.111918802631
 20
4162.618405907797
 30
0.0
 11
4606.111918802633
 21
4162.618405907797
 31
0.0
  0
INSERT
  5
8555
330
84D0
100
AcDbEntity
  8
3
 62
     0
370
    -2
100
AcDbBlockReference
  2
_OPEN
 10
3716.111918802631
 20
4162.618405907797
 30
0.0
 41
60.0
 42
60.0
 43
60.0
 50
180.0
  0
INSERT
  5
8556
330
84D0
100
AcDbEntity
  8
3
 62
     0
370
    -2
100
AcDbBlockReference
  2
_OPEN
 10
4666.111918802633
 20
4162.618405907797
 30
0.0
 41
60.0
 42
60.0
 43
60.0
  0
MTEXT
  5
8557
330
84D0
100
AcDbEntity
  8
3
 62
     0
100
AcDbMText
 10
4191.111918802632
 20
4261.189834479225
 30
0.0
 40
90.0
 41
0.0
 71
     5
 72
     1
  1
\A1;(950)
 73
     1
 44
1.0
1001
ACAD
1000
MTEXTBEGIN
1070
    73
1070
     1
1070
    44
1040
1.0
1070
    74
1070
     0
1000
MTEXTEND
  0
POINT
  5
8558
330
84D0
100
AcDbEntity
  8
DEFPOINTS
 62
     0
100
AcDbPoint
 10
3716.111918802631
 20
3067.454481859346
 30
0.0
  0
POINT
  5
8559
330
84D0
100
AcDbEntity
  8
DEFPOINTS
 62
     0
100
AcDbPoint
 10
4666.111918802633
 20
4090.268701174606
 30
0.0
  0
POINT
  5
855A
330
84D0
100
AcDbEntity
  8
DEFPOINTS
 62
     0
100
AcDbPoint
 10
4666.111918802633
 20
4162.618405907797
 30
0.0
  0
ENDBLK
  5
84D2
330
84D0
100
AcDbEntity
  8
0
100
AcDbBlockEnd
  0
BLOCK
  5
84DE
330
84DD
100
AcDbEntity
  8
0
100
AcDbBlockBegin
  2
*D29
 70
     1
 10
0.0
 20
0.0
 30
0.0
  3
*D29
  1

  0
LINE
  5
855B
330
84DD
100
AcDbEntity
  8
3
 62
     0
370
    -2
100
AcDbLine
 10
4666.111918802633
 20
4120.268701174605
 30
0.0
 11
4666.111918802633
 21
4192.618405907796
 31
0.0
  0
LINE
  5
855C
330
84DD
100
AcDbEntity
  8
3
 62
     0
370
    -2
100
AcDbLine
 10
5346.111918802631
 20
2777.954481859346
 30
0.0
 11
5346.111918802631
 21
4192.618405907796
 31
0.0
  0
LINE
  5
855D
330
84DD
100
AcDbEntity
  8
3
 62
     0
370
    -2
100
AcDbLine
 10
4726.111918802633
 20
4162.618405907797
 30
0.0
 11
5286.111918802632
 21
4162.618405907797
 31
0.0
  0
INSERT
  5
855E
330
84DD
100
AcDbEntity
  8
3
 62
     0
370
    -2
100
AcDbBlockReference
  2
_OPEN
 10
4666.111918802633
 20
4162.618405907797
 30
0.0
 41
60.0
 42
60.0
 43
60.0
 50
180.0
  0
INSERT
  5
855F
330
84DD
100
AcDbEntity
  8
3
 62
     0
370
    -2
100
AcDbBlockReference
  2
_OPEN
 10
5346.111918802631
 20
4162.618405907797
 30
0.0
 41
60.0
 42
60.0
 43
60.0
  0
MTEXT
  5
8560
330
84DD
100
AcDbEntity
  8
3
 62
     0
100
AcDbMText
 10
5006.111918802632
 20
4261.189834479225
 30
0.0
 40
90.0
 41
0.0
 71
     5
 72
     1
  1
\A1;(680)
 73
     1
 44
1.0
1001
ACAD
1000
MTEXTBEGIN
1070
    73
1070
     1
1070
    44
1040
1.0
1070
    74
1070
     0
1000
MTEXTEND
  0
POINT
  5
8561
330
84DD
100
AcDbEntity
  8
DEFPOINTS
 62
     0
100
AcDbPoint
 10
4666.111918802633
 20
4090.268701174606
 30
0.0
  0
POINT
  5
8562
330
84DD
100
AcDbEntity
  8
DEFPOINTS
 62
     0
100
AcDbPoint
 10
5346.111918802631
 20
2747.954481859345
 30
0.0
  0
POINT
  5
8563
330
84DD
100
AcDbEntity
  8
DEFPOINTS
 62
     0
100
AcDbPoint
 10
5346.111918802631
 20
4162.618405907797
 30
0.0
  0
ENDBLK
  5
84DF
330
84DD
100
AcDbEntity
  8
0
100
AcDbBlockEnd
  0
BLOCK
  5
84EB
330
84EA
100
AcDbEntity
  8
0
100
AcDbBlockBegin
  2
*D30
 70
     1
 10
0.0
 20
0.0
 30
0.0
  3
*D30
  1

  0
LINE
  5
84ED
330
84EA
100
AcDbEntity
  8
3
 62
     0
370
    -2
100
AcDbLine
 10
4106.111918802633
 20
3778.454481859345
 30
0.0
 11
4106.111918802633
 21
4000.268701174605
 31
0.0
  0
LINE
  5
84EE
330
84EA
100
AcDbEntity
  8
3
 62
     0
370
    -2
100
AcDbLine
 10
5226.111918802633
 20
3778.454481859345
 30
0.0
 11
5226.111918802633
 21
4000.268701174605
 31
0.0
  0
LINE
  5
84EF
330
84EA
100
AcDbEntity
  8
3
 62
     0
370
    -2
100
AcDbLine
 10
4166.111918802633
 20
3970.268701174606
 30
0.0
 11
5166.111918802633
 21
3970.268701174606
 31
0.0
  0
INSERT
  5
84F0
330
84EA
100
AcDbEntity
  8
3
 62
     0
370
    -2
100
AcDbBlockReference
  2
_OPEN
 10
4106.111918802633
 20
3970.268701174606
 30
0.0
 41
60.0
 42
60.0
 43
60.0
 50
180.0
  0
INSERT
  5
84F1
330
84EA
100
AcDbEntity
  8
3
 62
     0
370
    -2
100
AcDbBlockReference
  2
_OPEN
 10
5226.111918802633
 20
3970.268701174606
 30
0.0
 41
60.0
 42
60.0
 43
60.0
  0
MTEXT
  5
84F2
330
84EA
100
AcDbEntity
  8
3
 62
     0
100
AcDbMText
 10
4666.111918802633
 20
4045.268701174605
 30
0.0
 40
90.0
 41
0.0
 71
     5
 72
     1
  1
\A1;1120
 73
     1
 44
1.0
1001
ACAD
1000
MTEXTBEGIN
1070
    73
1070
     1
1070
    44
1040
1.0
1070
    74
1070
     0
1000
MTEXTEND
  0
POINT
  5
84F3
330
84EA
100
AcDbEntity
  8
DEFPOINTS
 62
     0
100
AcDbPoint
 10
4106.111918802633
 20
3748.454481859345
 30
0.0
  0
POINT
  5
84F4
330
84EA
100
AcDbEntity
  8
DEFPOINTS
 62
     0
100
AcDbPoint
 10
5226.111918802633
 20
3748.454481859345
 30
0.0
  0
POINT
  5
84F5
330
84EA
100
AcDbEntity
  8
DEFPOINTS
 62
     0
100
AcDbPoint
 10
5226.111918802633
 20
3970.268701174606
 30
0.0
  0
ENDBLK
  5
84EC
330
84EA
100
AcDbEntity
  8
0
100
AcDbBlockEnd
  0
BLOCK
  5
850E
330
850D
100
AcDbEntity
  8
0
100
AcDbBlockBegin
  2
*D31
 70
     1
 10
0.0
 20
0.0
 30
0.0
  3
*D31
  1

  0
LINE
  5
8525
330
850D
100
AcDbEntity
  8
3
 62
     0
370
    -2
100
AcDbLine
 10
5256.111918802633
 20
3262.454481859346
 30
0.0
 11
5574.340283251957
 21
3262.454481859346
 31
0.0
  0
LINE
  5
8526
330
850D
100
AcDbEntity
  8
3
 62
     0
370
    -2
100
AcDbLine
 10
5256.111918802633
 20
2312.454481859346
 30
0.0
 11
5574.340283251957
 21
2312.454481859346
 31
0.0
  0
LINE
  5
8527
330
850D
100
AcDbEntity
  8
3
 62
     0
370
    -2
100
AcDbLine
 10
5544.340283251957
 20
3202.454481859347
 30
0.0
 11
5544.340283251957
 21
2372.454481859346
 31
0.0
  0
INSERT
  5
8528
330
850D
100
AcDbEntity
  8
3
 62
     0
370
    -2
100
AcDbBlockReference
  2
_OPEN
 10
5544.340283251957
 20
3262.454481859346
 30
0.0
 41
60.0
 42
60.0
 43
60.0
 50
90.0
  0
INSERT
  5
8529
330
850D
100
AcDbEntity
  8
3
 62
     0
370
    -2
100
AcDbBlockReference
  2
_OPEN
 10
5544.340283251957
 20
2312.454481859346
 30
0.0
 41
60.0
 42
60.0
 43
60.0
 50
270.0
  0
MTEXT
  5
852A
330
850D
100
AcDbEntity
  8
3
 62
     0
100
AcDbMText
 10
5469.340283251955
 20
2787.454481859347
 30
0.0
 40
90.0
 41
0.0
 71
     5
 72
     1
  1
\A1;\U+03C6950
 11
0.0000000000000001
 21
1.0
 31
0.0
 73
     1
 44
1.0
1001
ACAD
1000
MTEXTBEGIN
1070
    73
1070
     1
1070
    44
1040
1.0
1070
    74
1070
     0
1000
MTEXTEND
  0
POINT
  5
852B
330
850D
100
AcDbEntity
  8
DEFPOINTS
 62
     0
100
AcDbPoint
 10
5226.111918802633
 20
3262.454481859346
 30
0.0
  0
POINT
  5
852C
330
850D
100
AcDbEntity
  8
DEFPOINTS
 62
     0
100
AcDbPoint
 10
5226.111918802633
 20
2312.454481859346
 30
0.0
  0
POINT
  5
852D
330
850D
100
AcDbEntity
  8
DEFPOINTS
 62
     0
100
AcDbPoint
 10
5544.340283251957
 20
2312.454481859346
 30
0.0
  0
ENDBLK
  5
850F
330
850D
100
AcDbEntity
  8
0
100
AcDbBlockEnd
  0
BLOCK
  5
8565
330
8564
100
AcDbEntity
  8
0
100
AcDbBlockBegin
  2
*D32
 70
     1
 10
0.0
 20
0.0
 30
0.0
  3
*D32
  1

  0
LINE
  5
8567
330
8564
100
AcDbEntity
  8
3
 62
     0
370
    -2
100
AcDbLine
 10
845.9428587658239
 20
4803.57894309327
 30
0.0
 11
845.9428587658239
 21
4402.906783611198
 31
0.0
  0
LINE
  5
8568
330
8564
100
AcDbEntity
  8
3
 62
     0
370
    -2
100
AcDbLine
 10
2715.942858765823
 20
4803.57894309327
 30
0.0
 11
2715.942858765823
 21
4402.906783611198
 31
0.0
  0
LINE
  5
8569
330
8564
100
AcDbEntity
  8
3
 62
     0
370
    -2
100
AcDbLine
 10
851.3428587658237
 20
4408.306783611197
 30
0.0
 11
1769.242858765823
 21
4408.306783611197
 31
0.0
  0
LINE
  5
856A
330
8564
100
AcDbEntity
  8
3
 62
     0
370
    -2
100
AcDbLine
 10
2710.542858765823
 20
4408.306783611197
 30
0.0
 11
1792.642858765823
 21
4408.306783611197
 31
0.0
  0
SOLID
  5
856B
330
8564
100
AcDbEntity
  8
3
 62
     0
100
AcDbTrace
 10
851.3428587658237
 20
4409.206783611197
 30
0.0
 11
851.3428587658237
 21
4407.406783611198
 31
0.0
 12
845.9428587658239
 22
4408.306783611197
 32
0.0
 13
845.9428587658239
 23
4408.306783611197
 33
0.0
  0
SOLID
  5
856C
330
8564
100
AcDbEntity
  8
3
 62
     0
100
AcDbTrace
 10
2710.542858765823
 20
4409.206783611197
 30
0.0
 11
2710.542858765823
 21
4407.406783611198
 31
0.0
 12
2715.942858765823
 22
4408.306783611197
 32
0.0
 13
2715.942858765823
 23
4408.306783611197
 33
0.0
  0
MTEXT
  5
856D
330
8564
100
AcDbEntity
  8
3
 62
     0
100
AcDbMText
 10
1780.942858765823
 20
4408.306783611197
 30
0.0
 40
5.399999999999999
 41
0.0
 71
     5
 72
     1
  1
\A1;1870
 73
     1
 44
1.0
1001
ACAD
1000
MTEXTBEGIN
1070
    73
1070
     1
1070
    44
1040
1.0
1070
    74
1070
     0
1000
MTEXTEND
  0
POINT
  5
856E
330
8564
100
AcDbEntity
  8
DEFPOINTS
 62
     0
100
AcDbPoint
 10
845.9428587658239
 20
4805.453943093271
 30
0.0
  0
POINT
  5
856F
330
8564
100
AcDbEntity
  8
DEFPOINTS
 62
     0
100
AcDbPoint
 10
2715.942858765823
 20
4805.453943093271
 30
0.0
  0
POINT
  5
8570
330
8564
100
AcDbEntity
  8
DEFPOINTS
 62
     0
100
AcDbPoint
 10
2715.942858765823
 20
4408.306783611197
 30
0.0
  0
ENDBLK
  5
8566
330
8564
100
AcDbEntity
  8
0
100
AcDbBlockEnd
  0
BLOCK
  5
8573
330
8572
100
AcDbEntity
  8
0
100
AcDbBlockBegin
  2
*D33
 70
     1
 10
0.0
 20
0.0
 30
0.0
  3
*D33
  1

  0
LINE
  5
8575
330
8572
100
AcDbEntity
  8
3
 62
     0
370
    -2
100
AcDbLine
 10
845.9428587658239
 20
4775.45394309327
 30
0.0
 11
845.9428587658239
 21
4368.757234598564
 31
0.0
  0
LINE
  5
8576
330
8572
100
AcDbEntity
  8
3
 62
     0
370
    -2
100
AcDbLine
 10
2715.942858765823
 20
4775.45394309327
 30
0.0
 11
2715.942858765823
 21
4368.757234598564
 31
0.0
  0
LINE
  5
8577
330
8572
100
AcDbEntity
  8
3
 62
     0
370
    -2
100
AcDbLine
 10
905.9428587658238
 20
4398.757234598565
 30
0.0
 11
2655.942858765823
 21
4398.757234598565
 31
0.0
  0
INSERT
  5
8578
330
8572
100
AcDbEntity
  8
3
 62
     0
370
    -2
100
AcDbBlockReference
  2
_OPEN
 10
845.9428587658239
 20
4398.757234598565
 30
0.0
 41
60.0
 42
60.0
 43
60.0
 50
180.0
  0
INSERT
  5
8579
330
8572
100
AcDbEntity
  8
3
 62
     0
370
    -2
100
AcDbBlockReference
  2
_OPEN
 10
2715.942858765823
 20
4398.757234598565
 30
0.0
 41
60.0
 42
60.0
 43
60.0
  0
MTEXT
  5
857A
330
8572
100
AcDbEntity
  8
3
 62
     0
100
AcDbMText
 10
1780.942858765823
 20
4473.757234598564
 30
0.0
 40
90.0
 41
0.0
 71
     5
 72
     1
  1
\A1;1870
 73
     1
 44
1.0
1001
ACAD
1000
MTEXTBEGIN
1070
    73
1070
     1
1070
    44
1040
1.0
1070
    74
1070
     0
1000
MTEXTEND
  0
POINT
  5
857B
330
8572
100
AcDbEntity
  8
DEFPOINTS
 62
     0
100
AcDbPoint
 10
845.9428587658239
 20
4805.453943093271
 30
0.0
  0
POINT
  5
857C
330
8572
100
AcDbEntity
  8
DEFPOINTS
 62
     0
100
AcDbPoint
 10
2715.942858765823
 20
4805.453943093271
 30
0.0
  0
POINT
  5
857D
330
8572
100
AcDbEntity
  8
DEFPOINTS
 62
     0
100
AcDbPoint
 10
2715.942858765823
 20
4398.757234598565
 30
0.0
  0
ENDBLK
  5
8574
330
8572
100
AcDbEntity
  8
0
100
AcDbBlockEnd
  0
BLOCK
  5
8580
330
857F
100
AcDbEntity
  8
0
100
AcDbBlockBegin
  2
*D34
 70
     1
 10
0.0
 20
0.0
 30
0.0
  3
*D34
  1

  0
LINE
  5
8582
330
857F
100
AcDbEntity
  8
3
 62
     0
370
    -2
100
AcDbLine
 10
2745.942858765823
 20
4805.453943093271
 30
0.0
 11
3046.367080932239
 21
4805.453943093271
 31
0.0
  0
LINE
  5
8583
330
857F
100
AcDbEntity
  8
3
 62
     0
370
    -2
100
AcDbLine
 10
2745.942858765823
 20
6180.453943093272
 30
0.0
 11
3046.367080932239
 21
6180.453943093272
 31
0.0
  0
LINE
  5
8584
330
857F
100
AcDbEntity
  8
3
 62
     0
370
    -2
100
AcDbLine
 10
3016.367080932238
 20
4865.453943093271
 30
0.0
 11
3016.367080932239
 21
6120.453943093272
 31
0.0
  0
INSERT
  5
8585
330
857F
100
AcDbEntity
  8
3
 62
     0
370
    -2
100
AcDbBlockReference
  2
_OPEN
 10
3016.367080932238
 20
4805.453943093271
 30
0.0
 41
60.0
 42
60.0
 43
60.0
 50
270.0
  0
INSERT
  5
8586
330
857F
100
AcDbEntity
  8
3
 62
     0
370
    -2
100
AcDbBlockReference
  2
_OPEN
 10
3016.367080932239
 20
6180.453943093272
 30
0.0
 41
60.0
 42
60.0
 43
60.0
 50
90.0
  0
MTEXT
  5
8587
330
857F
100
AcDbEntity
  8
3
 62
     0
100
AcDbMText
 10
2941.367080932238
 20
5492.953943093272
 30
0.0
 40
90.0
 41
0.0
 71
     5
 72
     1
  1
\A1;1375
 11
0.0000000000000001
 21
1.0
 31
0.0
 73
     1
 44
1.0
1001
ACAD
1000
MTEXTBEGIN
1070
    73
1070
     1
1070
    44
1040
1.0
1070
    74
1070
     0
1000
MTEXTEND
  0
POINT
  5
8588
330
857F
100
AcDbEntity
  8
DEFPOINTS
 62
     0
100
AcDbPoint
 10
2715.942858765823
 20
4805.453943093271
 30
0.0
  0
POINT
  5
8589
330
857F
100
AcDbEntity
  8
DEFPOINTS
 62
     0
100
AcDbPoint
 10
2715.942858765823
 20
6180.453943093272
 30
0.0
  0
POINT
  5
858A
330
857F
100
AcDbEntity
  8
DEFPOINTS
 62
     0
100
AcDbPoint
 10
3016.367080932239
 20
6180.453943093272
 30
0.0
  0
ENDBLK
  5
8581
330
857F
100
AcDbEntity
  8
0
100
AcDbBlockEnd
  0
BLOCK
  5
858D
330
858C
100
AcDbEntity
  8
0
100
AcDbBlockBegin
  2
*D35
 70
     1
 10
0.0
 20
0.0
 30
0.0
  3
*D35
  1

  0
LINE
  5
858F
330
858C
100
AcDbEntity
  8
3
 62
     0
370
    -2
100
AcDbLine
 10
2715.942858765823
 20
6210.453943093272
 30
0.0
 11
2715.942858765823
 21
6512.468601598493
 31
0.0
  0
LINE
  5
8590
330
858C
100
AcDbEntity
  8
3
 62
     0
370
    -2
100
AcDbLine
 10
1595.942858765823
 20
6210.453943093272
 30
0.0
 11
1595.942858765823
 21
6512.468601598493
 31
0.0
  0
LINE
  5
8591
330
858C
100
AcDbEntity
  8
3
 62
     0
370
    -2
100
AcDbLine
 10
2655.942858765823
 20
6482.468601598494
 30
0.0
 11
1655.942858765823
 21
6482.468601598494
 31
0.0
  0
INSERT
  5
8592
330
858C
100
AcDbEntity
  8
3
 62
     0
370
    -2
100
AcDbBlockReference
  2
_OPEN
 10
2715.942858765823
 20
6482.468601598494
 30
0.0
 41
60.0
 42
60.0
 43
60.0
  0
INSERT
  5
8593
330
858C
100
AcDbEntity
  8
3
 62
     0
370
    -2
100
AcDbBlockReference
  2
_OPEN
 10
1595.942858765823
 20
6482.468601598494
 30
0.0
 41
60.0
 42
60.0
 43
60.0
 50
180.0
  0
MTEXT
  5
8594
330
858C
100
AcDbEntity
  8
3
 62
     0
100
AcDbMText
 10
2155.942858765823
 20
6557.468601598493
 30
0.0
 40
90.0
 41
0.0
 71
     5
 72
     1
  1
\A1;1120
 73
     1
 44
1.0
1001
ACAD
1000
MTEXTBEGIN
1070
    73
1070
     1
1070
    44
1040
1.0
1070
    74
1070
     0
1000
MTEXTEND
  0
POINT
  5
8595
330
858C
100
AcDbEntity
  8
DEFPOINTS
 62
     0
100
AcDbPoint
 10
2715.942858765823
 20
6180.453943093272
 30
0.0
  0
POINT
  5
8596
330
858C
100
AcDbEntity
  8
DEFPOINTS
 62
     0
100
AcDbPoint
 10
1595.942858765823
 20
6180.453943093272
 30
0.0
  0
POINT
  5
8597
330
858C
100
AcDbEntity
  8
DEFPOINTS
 62
     0
100
AcDbPoint
 10
1595.942858765823
 20
6482.468601598494
 30
0.0
  0
ENDBLK
  5
858E
330
858C
100
AcDbEntity
  8
0
100
AcDbBlockEnd
  0
BLOCK
  5
859A
330
8599
100
AcDbEntity
  8
0
100
AcDbBlockBegin
  2
*D36
 70
     1
 10
0.0
 20
0.0
 30
0.0
  3
*D36
  1

  0
LINE
  5
859C
330
8599
100
AcDbEntity
  8
3
 62
     0
370
    -2
100
AcDbLine
 10
1595.942858765823
 20
6210.453943093272
 30
0.0
 11
1595.942858765823
 21
6512.468601598493
 31
0.0
  0
LINE
  5
859D
330
8599
100
AcDbEntity
  8
3
 62
     0
370
    -2
100
AcDbLine
 10
845.9428587658239
 20
5635.453943093271
 30
0.0
 11
845.9428587658239
 21
6512.468601598493
 31
0.0
  0
LINE
  5
859E
330
8599
100
AcDbEntity
  8
3
 62
     0
370
    -2
100
AcDbLine
 10
1535.942858765823
 20
6482.468601598494
 30
0.0
 11
905.9428587658238
 21
6482.468601598494
 31
0.0
  0
INSERT
  5
859F
330
8599
100
AcDbEntity
  8
3
 62
     0
370
    -2
100
AcDbBlockReference
  2
_OPEN
 10
1595.942858765823
 20
6482.468601598494
 30
0.0
 41
60.0
 42
60.0
 43
60.0
  0
INSERT
  5
85A0
330
8599
100
AcDbEntity
  8
3
 62
     0
370
    -2
100
AcDbBlockReference
  2
_OPEN
 10
845.9428587658239
 20
6482.468601598494
 30
0.0
 41
60.0
 42
60.0
 43
60.0
 50
180.0
  0
MTEXT
  5
85A1
330
8599
100
AcDbEntity
  8
3
 62
     0
100
AcDbMText
 10
1220.942858765823
 20
6557.468601598493
 30
0.0
 40
90.0
 41
0.0
 71
     5
 72
     1
  1
\A1;750
 73
     1
 44
1.0
1001
ACAD
1000
MTEXTBEGIN
1070
    73
1070
     1
1070
    44
1040
1.0
1070
    74
1070
     0
1000
MTEXTEND
  0
POINT
  5
85A2
330
8599
100
AcDbEntity
  8
DEFPOINTS
 62
     0
100
AcDbPoint
 10
1595.942858765823
 20
6180.453943093272
 30
0.0
  0
POINT
  5
85A3
330
8599
100
AcDbEntity
  8
DEFPOINTS
 62
     0
100
AcDbPoint
 10
845.9428587658239
 20
5605.453943093272
 30
0.0
  0
POINT
  5
85A4
330
8599
100
AcDbEntity
  8
DEFPOINTS
 62
     0
100
AcDbPoint
 10
845.9428587658239
 20
6482.468601598494
 30
0.0
  0
ENDBLK
  5
859B
330
8599
100
AcDbEntity
  8
0
100
AcDbBlockEnd
  0
BLOCK
  5
85A7
330
85A6
100
AcDbEntity
  8
0
100
AcDbBlockBegin
  2
*D37
 70
     1
 10
0.0
 20
0.0
 30
0.0
  3
*D37
  1

  0
LINE
  5
85A9
330
85A6
100
AcDbEntity
  8
3
 62
     0
370
    -2
100
AcDbLine
 10
815.9428587658229
 20
4805.453943093272
 30
0.0
 11
626.0913512992848
 21
4805.453943093272
 31
0.0
  0
LINE
  5
85AA
330
85A6
100
AcDbEntity
  8
3
 62
     0
370
    -2
100
AcDbLine
 10
815.9428587658238
 20
5605.453943093273
 30
0.0
 11
626.091351299285
 21
5605.453943093273
 31
0.0
  0
LINE
  5
85AB
330
85A6
100
AcDbEntity
  8
3
 62
     0
370
    -2
100
AcDbLine
 10
656.0913512992849
 20
4865.453943093272
 30
0.0
 11
656.0913512992851
 21
5545.453943093272
 31
0.0
  0
INSERT
  5
85AC
330
85A6
100
AcDbEntity
  8
3
 62
     0
370
    -2
100
AcDbBlockReference
  2
_OPEN
 10
656.0913512992848
 20
4805.453943093272
 30
0.0
 41
60.0
 42
60.0
 43
60.0
 50
270.0
  0
INSERT
  5
85AD
330
85A6
100
AcDbEntity
  8
3
 62
     0
370
    -2
100
AcDbBlockReference
  2
_OPEN
 10
656.0913512992851
 20
5605.453943093273
 30
0.0
 41
60.0
 42
60.0
 43
60.0
 50
90.0
  0
MTEXT
  5
85AE
330
85A6
100
AcDbEntity
  8
3
 62
     0
100
AcDbMText
 10
581.0913512992841
 20
5205.453943093273
 30
0.0
 40
90.0
 41
0.0
 71
     5
 72
     1
  1
\A1;800
 11
0.0000000000000001
 21
1.0
 31
0.0
 73
     1
 44
1.0
1001
ACAD
1000
MTEXTBEGIN
1070
    73
1070
     1
1070
    44
1040
1.0
1070
    74
1070
     0
1000
MTEXTEND
  0
POINT
  5
85AF
330
85A6
100
AcDbEntity
  8
DEFPOINTS
 62
     0
100
AcDbPoint
 10
845.942858765823
 20
4805.453943093272
 30
0.0
  0
POINT
  5
85B0
330
85A6
100
AcDbEntity
  8
DEFPOINTS
 62
     0
100
AcDbPoint
 10
845.9428587658239
 20
5605.453943093273
 30
0.0
  0
POINT
  5
85B1
330
85A6
100
AcDbEntity
  8
DEFPOINTS
 62
     0
100
AcDbPoint
 10
656.0913512992851
 20
5605.453943093273
 30
0.0
  0
ENDBLK
  5
85A8
330
85A6
100
AcDbEntity
  8
0
100
AcDbBlockEnd
  0
BLOCK
  5
85B4
330
85B3
100
AcDbEntity
  8
0
100
AcDbBlockBegin
  2
*D38
 70
     1
 10
0.0
 20
0.0
 30
0.0
  3
*D38
  1

  0
LINE
  5
85B6
330
85B3
100
AcDbEntity
  8
3
 62
     0
370
    -2
100
AcDbLine
 10
2775.942858765823
 20
3820.954481859346
 30
0.0
 11
2775.942858765823
 21
4167.110429238729
 31
0.0
  0
LINE
  5
85B7
330
85B3
100
AcDbEntity
  8
3
 62
     0
370
    -2
100
AcDbLine
 10
845.9428587658239
 20
2237.454481859345
 30
0.0
 11
845.9428587658239
 21
4167.110429238729
 31
0.0
  0
LINE
  5
85B8
330
85B3
100
AcDbEntity
  8
3
 62
     0
370
    -2
100
AcDbLine
 10
2715.942858765823
 20
4137.110429238729
 30
0.0
 11
905.942858765824
 21
4137.110429238729
 31
0.0
  0
INSERT
  5
85B9
330
85B3
100
AcDbEntity
  8
3
 62
     0
370
    -2
100
AcDbBlockReference
  2
_OPEN
 10
2775.942858765823
 20
4137.110429238729
 30
0.0
 41
60.0
 42
60.0
 43
60.0
  0
INSERT
  5
85BA
330
85B3
100
AcDbEntity
  8
3
 62
     0
370
    -2
100
AcDbBlockReference
  2
_OPEN
 10
845.9428587658239
 20
4137.110429238729
 30
0.0
 41
60.0
 42
60.0
 43
60.0
 50
180.0
  0
MTEXT
  5
85BB
330
85B3
100
AcDbEntity
  8
3
 62
     0
100
AcDbMText
 10
1810.942858765823
 20
4212.110429238729
 30
0.0
 40
90.0
 41
0.0
 71
     5
 72
     1
  1
\A1;1930
 73
     1
 44
1.0
1001
ACAD
1000
MTEXTBEGIN
1070
    73
1070
     1
1070
    44
1040
1.0
1070
    74
1070
     0
1000
MTEXTEND
  0
POINT
  5
85BC
330
85B3
100
AcDbEntity
  8
DEFPOINTS
 62
     0
100
AcDbPoint
 10
2775.942858765823
 20
3790.954481859346
 30
0.0
  0
POINT
  5
85BD
330
85B3
100
AcDbEntity
  8
DEFPOINTS
 62
     0
100
AcDbPoint
 10
845.9428587658239
 20
2207.454481859345
 30
0.0
  0
POINT
  5
85BE
330
85B3
100
AcDbEntity
  8
DEFPOINTS
 62
     0
100
AcDbPoint
 10
845.9428587658239
 20
4137.110429238729
 30
0.0
  0
ENDBLK
  5
85B5
330
85B3
100
AcDbEntity
  8
0
100
AcDbBlockEnd
  0
BLOCK
  5
85C1
330
85C0
100
AcDbEntity
  8
0
100
AcDbBlockBegin
  2
*D39
 70
     1
 10
0.0
 20
0.0
 30
0.0
  3
*D39
  1

  0
LINE
  5
85C3
330
85C0
100
AcDbEntity
  8
3
 62
     0
370
    -2
100
AcDbLine
 10
2775.942858765823
 20
3820.954481859346
 30
0.0
 11
2775.942858765823
 21
3971.848891574977
 31
0.0
  0
LINE
  5
85C4
330
85C0
100
AcDbEntity
  8
3
 62
     0
370
    -2
100
AcDbLine
 10
2155.942858765823
 20
3819.416924202903
 30
0.0
 11
2155.942858765823
 21
3971.848891574977
 31
0.0
  0
LINE
  5
85C5
330
85C0
100
AcDbEntity
  8
3
 62
     0
370
    -2
100
AcDbLine
 10
2715.942858765823
 20
3941.848891574977
 30
0.0
 11
2215.942858765822
 21
3941.848891574977
 31
0.0
  0
INSERT
  5
85C6
330
85C0
100
AcDbEntity
  8
3
 62
     0
370
    -2
100
AcDbBlockReference
  2
_OPEN
 10
2775.942858765823
 20
3941.848891574977
 30
0.0
 41
60.0
 42
60.0
 43
60.0
  0
INSERT
  5
85C7
330
85C0
100
AcDbEntity
  8
3
 62
     0
370
    -2
100
AcDbBlockReference
  2
_OPEN
 10
2155.942858765823
 20
3941.848891574977
 30
0.0
 41
60.0
 42
60.0
 43
60.0
 50
180.0
  0
MTEXT
  5
85C8
330
85C0
100
AcDbEntity
  8
3
 62
     0
100
AcDbMText
 10
2465.942858765823
 20
4016.848891574976
 30
0.0
 40
90.0
 41
0.0
 71
     5
 72
     1
  1
\A1;620
 73
     1
 44
1.0
1001
ACAD
1000
MTEXTBEGIN
1070
    73
1070
     1
1070
    44
1040
1.0
1070
    74
1070
     0
1000
MTEXTEND
  0
POINT
  5
85C9
330
85C0
100
AcDbEntity
  8
DEFPOINTS
 62
     0
100
AcDbPoint
 10
2775.942858765823
 20
3790.954481859346
 30
0.0
  0
POINT
  5
85CA
330
85C0
100
AcDbEntity
  8
DEFPOINTS
 62
     0
100
AcDbPoint
 10
2155.942858765823
 20
3789.416924202903
 30
0.0
  0
POINT
  5
85CB
330
85C0
100
AcDbEntity
  8
DEFPOINTS
 62
     0
100
AcDbPoint
 10
2155.942858765823
 20
3941.848891574977
 30
0.0
  0
ENDBLK
  5
85C2
330
85C0
100
AcDbEntity
  8
0
100
AcDbBlockEnd
  0
BLOCK
  5
85CE
330
85CD
100
AcDbEntity
  8
0
100
AcDbBlockBegin
  2
*D40
 70
     1
 10
0.0
 20
0.0
 30
0.0
  3
*D40
  1

  0
LINE
  5
85D0
330
85CD
100
AcDbEntity
  8
3
 62
     0
370
    -2
100
AcDbLine
 10
2155.942858765823
 20
3819.416924202903
 30
0.0
 11
2155.942858765823
 21
3971.848891574977
 31
0.0
  0
LINE
  5
85D1
330
85CD
100
AcDbEntity
  8
3
 62
     0
370
    -2
100
AcDbLine
 10
1378.942858765823
 20
2884.454481859345
 30
0.0
 11
1378.942858765823
 21
3971.848891574977
 31
0.0
  0
LINE
  5
85D2
330
85CD
100
AcDbEntity
  8
3
 62
     0
370
    -2
100
AcDbLine
 10
2095.942858765823
 20
3941.848891574977
 30
0.0
 11
1438.942858765823
 21
3941.848891574977
 31
0.0
  0
INSERT
  5
85D3
330
85CD
100
AcDbEntity
  8
3
 62
     0
370
    -2
100
AcDbBlockReference
  2
_OPEN
 10
2155.942858765823
 20
3941.848891574977
 30
0.0
 41
60.0
 42
60.0
 43
60.0
  0
INSERT
  5
85D4
330
85CD
100
AcDbEntity
  8
3
 62
     0
370
    -2
100
AcDbBlockReference
  2
_OPEN
 10
1378.942858765823
 20
3941.848891574977
 30
0.0
 41
60.0
 42
60.0
 43
60.0
 50
180.0
  0
MTEXT
  5
85D5
330
85CD
100
AcDbEntity
  8
3
 62
     0
100
AcDbMText
 10
1767.442858765823
 20
4016.848891574976
 30
0.0
 40
90.0
 41
0.0
 71
     5
 72
     1
  1
\A1;777
 73
     1
 44
1.0
1001
ACAD
1000
MTEXTBEGIN
1070
    73
1070
     1
1070
    44
1040
1.0
1070
    74
1070
     0
1000
MTEXTEND
  0
POINT
  5
85D6
330
85CD
100
AcDbEntity
  8
DEFPOINTS
 62
     0
100
AcDbPoint
 10
2155.942858765823
 20
3789.416924202903
 30
0.0
  0
POINT
  5
85D7
330
85CD
100
AcDbEntity
  8
DEFPOINTS
 62
     0
100
AcDbPoint
 10
1378.942858765823
 20
2854.454481859345
 30
0.0
  0
POINT
  5
85D8
330
85CD
100
AcDbEntity
  8
DEFPOINTS
 62
     0
100
AcDbPoint
 10
1378.942858765823
 20
3941.848891574977
 30
0.0
  0
ENDBLK
  5
85CF
330
85CD
100
AcDbEntity
  8
0
100
AcDbBlockEnd
  0
BLOCK
  5
85DB
330
85DA
100
AcDbEntity
  8
0
100
AcDbBlockBegin
  2
*D41
 70
     1
 10
0.0
 20
0.0
 30
0.0
  3
*D41
  1

  0
LINE
  5
85DD
330
85DA
100
AcDbEntity
  8
3
 62
     0
370
    -2
100
AcDbLine
 10
2805.942858765823
 20
3748.454481859345
 30
0.0
 11
2955.557967209033
 21
3748.454481859345
 31
0.0
  0
LINE
  5
85DE
330
85DA
100
AcDbEntity
  8
3
 62
     0
370
    -2
100
AcDbLine
 10
2805.942858765823
 20
2823.454481859346
 30
0.0
 11
2955.557967209033
 21
2823.454481859346
 31
0.0
  0
LINE
  5
85DF
330
85DA
100
AcDbEntity
  8
3
 62
     0
370
    -2
100
AcDbLine
 10
2925.557967209034
 20
3688.454481859345
 30
0.0
 11
2925.557967209033
 21
2883.454481859346
 31
0.0
  0
INSERT
  5
85E0
330
85DA
100
AcDbEntity
  8
3
 62
     0
370
    -2
100
AcDbBlockReference
  2
_OPEN
 10
2925.557967209034
 20
3748.454481859345
 30
0.0
 41
60.0
 42
60.0
 43
60.0
 50
90.0
  0
INSERT
  5
85E1
330
85DA
100
AcDbEntity
  8
3
 62
     0
370
    -2
100
AcDbBlockReference
  2
_OPEN
 10
2925.557967209033
 20
2823.454481859346
 30
0.0
 41
60.0
 42
60.0
 43
60.0
 50
270.0
  0
MTEXT
  5
85E2
330
85DA
100
AcDbEntity
  8
3
 62
     0
100
AcDbMText
 10
2850.557967209033
 20
3285.954481859346
 30
0.0
 40
90.0
 41
0.0
 71
     5
 72
     1
  1
\A1;925
 11
0.0000000000000001
 21
1.0
 31
0.0
 73
     1
 44
1.0
1001
ACAD
1000
MTEXTBEGIN
1070
    73
1070
     1
1070
    44
1040
1.0
1070
    74
1070
     0
1000
MTEXTEND
  0
POINT
  5
85E3
330
85DA
100
AcDbEntity
  8
DEFPOINTS
 62
     0
100
AcDbPoint
 10
2775.942858765823
 20
3748.454481859345
 30
0.0
  0
POINT
  5
85E4
330
85DA
100
AcDbEntity
  8
DEFPOINTS
 62
     0
100
AcDbPoint
 10
2775.942858765823
 20
2823.454481859346
 30
0.0
  0
POINT
  5
85E5
330
85DA
100
AcDbEntity
  8
DEFPOINTS
 62
     0
100
AcDbPoint
 10
2925.557967209033
 20
2823.454481859346
 30
0.0
  0
ENDBLK
  5
85DC
330
85DA
100
AcDbEntity
  8
0
100
AcDbBlockEnd
  0
BLOCK
  5
85E8
330
85E7
100
AcDbEntity
  8
0
100
AcDbBlockBegin
  2
*D42
 70
     1
 10
0.0
 20
0.0
 30
0.0
  3
*D42
  1

  0
LINE
  5
85EA
330
85E7
100
AcDbEntity
  8
3
 62
     0
370
    -2
100
AcDbLine
 10
2805.942858765823
 20
3748.454481859345
 30
0.0
 11
3105.901267306896
 21
3748.454481859345
 31
0.0
  0
LINE
  5
85EB
330
85E7
100
AcDbEntity
  8
3
 62
     0
370
    -2
100
AcDbLine
 10
2842.198197544368
 20
2787.454481859346
 30
0.0
 11
3105.901267306895
 21
2787.454481859346
 31
0.0
  0
LINE
  5
85EC
330
85E7
100
AcDbEntity
  8
3
 62
     0
370
    -2
100
AcDbLine
 10
3075.901267306896
 20
3688.454481859345
 30
0.0
 11
3075.901267306895
 21
2847.454481859346
 31
0.0
  0
INSERT
  5
85ED
330
85E7
100
AcDbEntity
  8
3
 62
     0
370
    -2
100
AcDbBlockReference
  2
_OPEN
 10
3075.901267306896
 20
3748.454481859345
 30
0.0
 41
60.0
 42
60.0
 43
60.0
 50
90.0
  0
INSERT
  5
85EE
330
85E7
100
AcDbEntity
  8
3
 62
     0
370
    -2
100
AcDbBlockReference
  2
_OPEN
 10
3075.901267306895
 20
2787.454481859346
 30
0.0
 41
60.0
 42
60.0
 43
60.0
 50
270.0
  0
MTEXT
  5
85EF
330
85E7
100
AcDbEntity
  8
3
 62
     0
100
AcDbMText
 10
3000.901267306895
 20
3267.954481859346
 30
0.0
 40
90.0
 41
0.0
 71
     5
 72
     1
  1
\A1;961
 11
0.0000000000000001
 21
1.0
 31
0.0
 73
     1
 44
1.0
1001
ACAD
1000
MTEXTBEGIN
1070
    73
1070
     1
1070
    44
1040
1.0
1070
    74
1070
     0
1000
MTEXTEND
  0
POINT
  5
85F0
330
85E7
100
AcDbEntity
  8
DEFPOINTS
 62
     0
100
AcDbPoint
 10
2775.942858765823
 20
3748.454481859345
 30
0.0
  0
POINT
  5
85F1
330
85E7
100
AcDbEntity
  8
DEFPOINTS
 62
     0
100
AcDbPoint
 10
2812.198197544368
 20
2787.454481859346
 30
0.0
  0
POINT
  5
85F2
330
85E7
100
AcDbEntity
  8
DEFPOINTS
 62
     0
100
AcDbPoint
 10
3075.901267306895
 20
2787.454481859346
 30
0.0
  0
ENDBLK
  5
85E9
330
85E7
100
AcDbEntity
  8
0
100
AcDbBlockEnd
  0
BLOCK
  5
85F5
330
85F4
100
AcDbEntity
  8
0
100
AcDbBlockBegin
  2
*D43
 70
     1
 10
0.0
 20
0.0
 30
0.0
  3
*D43
  1

  0
LINE
  5
85F7
330
85F4
100
AcDbEntity
  8
3
 62
     0
370
    -2
100
AcDbLine
 10
2842.198197544368
 20
2787.454481859346
 30
0.0
 11
3105.901267306895
 21
2787.454481859346
 31
0.0
  0
LINE
  5
85F8
330
85F4
100
AcDbEntity
  8
3
 62
     0
370
    -2
100
AcDbLine
 10
2745.942858765824
 20
2107.454481859345
 30
0.0
 11
3105.901267306895
 21
2107.454481859345
 31
0.0
  0
LINE
  5
85F9
330
85F4
100
AcDbEntity
  8
3
 62
     0
370
    -2
100
AcDbLine
 10
3075.901267306895
 20
2727.454481859346
 30
0.0
 11
3075.901267306895
 21
2167.454481859345
 31
0.0
  0
INSERT
  5
85FA
330
85F4
100
AcDbEntity
  8
3
 62
     0
370
    -2
100
AcDbBlockReference
  2
_OPEN
 10
3075.901267306895
 20
2787.454481859346
 30
0.0
 41
60.0
 42
60.0
 43
60.0
 50
90.0
  0
INSERT
  5
85FB
330
85F4
100
AcDbEntity
  8
3
 62
     0
370
    -2
100
AcDbBlockReference
  2
_OPEN
 10
3075.901267306895
 20
2107.454481859345
 30
0.0
 41
60.0
 42
60.0
 43
60.0
 50
270.0
  0
MTEXT
  5
85FC
330
85F4
100
AcDbEntity
  8
3
 62
     0
100
AcDbMText
 10
3000.901267306895
 20
2447.454481859346
 30
0.0
 40
90.0
 41
0.0
 71
     5
 72
     1
  1
\A1;680
 11
0.0000000000000001
 21
1.0
 31
0.0
 73
     1
 44
1.0
1001
ACAD
1000
MTEXTBEGIN
1070
    73
1070
     1
1070
    44
1040
1.0
1070
    74
1070
     0
1000
MTEXTEND
  0
POINT
  5
85FD
330
85F4
100
AcDbEntity
  8
DEFPOINTS
 62
     0
100
AcDbPoint
 10
2812.198197544368
 20
2787.454481859346
 30
0.0
  0
POINT
  5
85FE
330
85F4
100
AcDbEntity
  8
DEFPOINTS
 62
     0
100
AcDbPoint
 10
2715.942858765824
 20
2107.454481859345
 30
0.0
  0
POINT
  5
85FF
330
85F4
100
AcDbEntity
  8
DEFPOINTS
 62
     0
100
AcDbPoint
 10
3075.901267306895
 20
2107.454481859345
 30
0.0
  0
ENDBLK
  5
85F6
330
85F4
100
AcDbEntity
  8
0
100
AcDbBlockEnd
  0
ENDSEC
  0
SECTION
  2
ENTITIES
  0
INSERT
  5
7C31
330
8484
100
AcDbEntity
  8
0
100
AcDbBlockReference
  2
YA_N
 10
6.0
 20
5.0
 30
0.0
  0
LINE
  5
7C33
330
8484
100
AcDbEntity
  8
2
100
AcDbLine
 10
2812.198197544368
 20
2787.454481859346
 30
0.0
 11
1310.61810412713
 21
2787.454481859346
 31
0.0
  0
LINE
  5
7C34
330
8484
100
AcDbEntity
  8
2
100
AcDbLine
 10
2155.942858765823
 20
3789.416924202903
 30
0.0
 11
2155.942858765823
 21
1980.454481859346
 31
0.0
  0
ARC
  5
7C35
330
8484
100
AcDbEntity
  8
1
100
AcDbCircle
 10
2222.942858765823
 20
2854.454481859345
 30
0.0
 40
844.0
100
AcDbArc
 50
94.55315238721905
 51
184.553152387219
  0
ARC
  5
7C36
330
8484
100
AcDbEntity
  8
1
100
AcDbCircle
 10
2088.942858765823
 20
2854.454481859345
 30
0.0
 40
710.0
100
AcDbArc
 50
185.4148417061294
 51
245.6811172079949
  0
ARC
  5
7C37
330
8484
100
AcDbEntity
  8
1
100
AcDbCircle
 10
2102.442858765823
 20
2733.954481859345
 30
0.0
 40
589.5
100
AcDbArc
 50
296.730793849171
 51
5.207036088349489
  0
LINE
  5
7C38
330
8484
100
AcDbEntity
  8
1
100
AcDbLine
 10
2775.942858765823
 20
3790.954481859346
 30
0.0
 11
2775.942858765823
 21
2780.954481859346
 31
0.0
  0
LINE
  5
7C39
330
8484
100
AcDbEntity
  8
1
100
AcDbLine
 10
2775.942858765823
 20
2823.454481859346
 30
0.0
 11
2690.73253705066
 21
2823.454481859346
 31
0.0
  0
LINE
  5
7C3A
330
8484
100
AcDbEntity
  8
1
100
AcDbLine
 10
2775.942858765823
 20
3748.454481859345
 30
0.0
 11
2155.942858765823
 21
3695.79091872631
 31
0.0
  0
LINE
  5
7C3B
330
8484
100
AcDbEntity
  8
1
100
AcDbLine
 10
2775.942858765823
 20
3790.954481859346
 30
0.0
 11
2772.942858765823
 21
3790.954481859346
 31
0.0
  0
LINE
  5
7C3C
330
8484
100
AcDbEntity
  8
1
100
AcDbLine
 10
2775.942858765823
 20
2780.954481859346
 30
0.0
 11
2772.942858765823
 21
2780.954481859346
 31
0.0
  0
LINE
  5
7C3D
330
8484
100
AcDbEntity
  8
1
100
AcDbLine
 10
2735.942858765822
 20
3745.056832624956
 30
0.0
 11
2735.942858765822
 21
2823.454481859346
 31
0.0
  0
LINE
  5
7C3E
330
8484
100
AcDbEntity
  8
1
100
AcDbLine
 10
2772.942858765823
 20
3790.954481859346
 30
0.0
 11
2772.942858765823
 21
2780.954481859346
 31
0.0
  0
LINE
  5
7C3F
330
8484
100
AcDbEntity
  8
1
100
AcDbLine
 10
845.9428587658239
 20
2207.454481859345
 30
0.0
 11
845.9428587658239
 21
2107.454481859345
 31
0.0
  0
LINE
  5
7C40
330
8484
100
AcDbEntity
  8
1
100
AcDbLine
 10
2715.942858765823
 20
2207.454481859346
 30
0.0
 11
2715.942858765823
 21
2107.454481859345
 31
0.0
  0
LINE
  5
7C41
330
8484
100
AcDbEntity
  8
1
100
AcDbLine
 10
845.9428587658239
 20
2107.454481859345
 30
0.0
 11
2715.942858765824
 21
2107.454481859345
 31
0.0
1001
ACAD
1000
ASC_BOUNDS
1002
{
1070
    19
1002
}
  0
LINE
  5
7C42
330
8484
100
AcDbEntity
  8
1
100
AcDbLine
 10
845.9428587658239
 20
2207.454481859345
 30
0.0
 11
2715.942858765824
 21
2207.454481859346
 31
0.0
  0
LINE
  5
7C43
330
8484
100
AcDbEntity
  8
2
100
AcDbLine
 10
1095.942858765822
 20
2775.45697285545
 30
0.0
 11
1095.942858765822
 21
1980.454481859346
 31
0.0
  0
LINE
  5
7C44
330
8484
100
AcDbEntity
  8
2
100
AcDbLine
 10
735.0068906402275
 20
2482.454481859345
 30
0.0
 11
1310.785785219655
 21
2482.454481859345
 31
0.0
  0
LINE
  5
7C45
330
8484
100
AcDbEntity
  8
1
100
AcDbLine
 10
5226.111918802633
 20
3748.454481859345
 30
0.0
 11
5226.111918802633
 21
2823.454481859346
 31
0.0
  0
LINE
  5
7C46
330
8484
100
AcDbEntity
  8
1
100
AcDbLine
 10
3904.111918802625
 20
2107.454481859345
 30
0.0
 11
5279.111918802642
 21
2107.454481859345
 31
0.0
1001
ACAD
1000
ASC_BOUNDS
1002
{
1070
    19
1005
0
1005
0
1005
0
1005
0
1002
}
  0
LINE
  5
7C47
330
8484
100
AcDbEntity
  8
1
100
AcDbLine
 10
3904.111918802634
 20
2207.454481859346
 30
0.0
 11
5279.111918802634
 21
2207.454481859346
 31
0.0
  0
LINE
  5
7C48
330
8484
100
AcDbEntity
  8
1
100
AcDbLine
 10
3904.111918802634
 20
2207.454481859346
 30
0.0
 11
3904.111918802625
 21
2107.454481859345
 31
0.0
  0
LINE
  5
7C49
330
8484
100
AcDbEntity
  8
1
100
AcDbLine
 10
5279.111918802634
 20
2207.454481859346
 30
0.0
 11
5279.111918802642
 21
2107.454481859345
 31
0.0
  0
LINE
  5
7C4A
330
8484
100
AcDbEntity
  8
1
100
AcDbLine
 10
4666.111918802633
 20
3748.454481859345
 30
0.0
 11
5226.111918802633
 21
3748.454481859345
 31
0.0
  0
LINE
  5
7C4B
330
8484
100
AcDbEntity
  8
2
100
AcDbLine
 10
3723.532820156935
 20
2787.454481859346
 30
0.0
 11
5376.631566560369
 21
2787.454481859346
 31
0.0
  0
LINE
  5
7C4C
330
8484
100
AcDbEntity
  8
1
100
AcDbLine
 10
5216.611918802634
 20
2107.454481859345
 30
0.0
 11
5279.111918802642
 21
2107.454481859345
 31
0.0
1001
ACAD
1000
ASC_BOUNDS
1002
{
1070
    19
1005
0
1005
0
1002
}
  0
LINE
  5
7C4D
330
8484
100
AcDbEntity
  8
2
100
AcDbLine
 10
4666.111918802633
 20
3920.673423095367
 30
0.0
 11
4666.111918802631
 21
1980.454481859346
 31
0.0
  0
POINT
  5
7C4E
330
8484
100
AcDbEntity
  8
1
100
AcDbPoint
 10
1382.11119563803
 20
2762.454481859346
 30
0.0
  0
INSERT
  5
7C4F
330
8484
100
AcDbEntity
  8
0
100
AcDbBlockReference
  2
YA_N
 10
-1638.667820090515
 20
-980.7401201518075
 30
0.0
 41
20.0
 42
20.0
 43
20.0
  0
INSERT
  5
7C51
330
8484
100
AcDbEntity
  8
0
100
AcDbBlockReference
  2
YA_N
 10
-1552.816625123014
 20
-1070.405552057982
 30
0.0
 41
20.0
 42
20.0
 43
20.0
  0
ARC
  5
7C53
330
8484
100
AcDbEntity
  8
1
100
AcDbCircle
 10
1095.942858765822
 20
2482.454481859345
 30
0.0
 40
185.0
100
AcDbArc
 50
287.9452509999999
 51
252.054749
  0
LINE
  5
7C54
330
8484
100
AcDbEntity
  8
1
100
AcDbLine
 10
1152.942858765822
 20
2306.454481859345
 30
0.0
 11
1038.942858765822
 21
2306.454481859345
 31
0.0
  0
LINE
  5
7C56
330
8484
100
AcDbEntity
  8
1
100
AcDbLine
 10
1257.942858765822
 20
2377.713514859345
 30
0.0
 11
1257.942858765822
 21
2302.454481859345
 31
0.0
  0
LINE
  5
7C57
330
8484
100
AcDbEntity
  8
1
100
AcDbLine
 10
1198.442858765822
 20
2307.603040859345
 30
0.0
 11
1188.936144765823
 21
2322.525648859345
 31
0.0
  0
LINE
  5
7C5A
330
8484
100
AcDbEntity
  8
1
100
AcDbLine
 10
1198.442858765822
 20
2319.454481859345
 30
0.0
 11
1198.442858765822
 21
2302.454481859345
 31
0.0
  0
LINE
  5
7C5C
330
8484
100
AcDbEntity
  8
1
100
AcDbLine
 10
1201.442858765822
 20
2322.454481859345
 30
0.0
 11
1254.942858765822
 21
2322.454481859345
 31
0.0
  0
ARC
  5
7C5D
330
8484
100
AcDbEntity
  8
1
100
AcDbCircle
 10
1254.942858765822
 20
2319.454481859345
 30
0.0
 40
3.0
100
AcDbArc
 50
0.0
 51
90.0
  0
LINE
  5
7C64
330
8484
100
AcDbEntity
  8
1
100
AcDbLine
 10
1206.766771765822
 20
2322.454481859345
 30
0.0
 11
1201.587023765822
 21
2330.585096859346
 31
0.0
  0
ARC
  5
7C66
330
8484
100
AcDbEntity
  8
1
100
AcDbCircle
 10
1201.442858765822
 20
2319.454481859345
 30
0.0
 40
3.0
100
AcDbArc
 50
90.0
 51
180.0
  0
LINE
  5
7C67
330
8484
100
AcDbEntity
  8
1
100
AcDbLine
 10
1257.942858765822
 20
2377.713514859345
 30
0.0
 11
1251.558886765822
 21
2382.411268859346
 31
0.0
  0
LINE
  5
7C6C
330
8484
100
AcDbEntity
  8
1
100
AcDbLine
 10
993.4428587658221
 20
2307.603040859345
 30
0.0
 11
1002.949572765823
 21
2322.525648859345
 31
0.0
  0
LINE
  5
7C70
330
8484
100
AcDbEntity
  8
1
100
AcDbLine
 10
993.4428587658221
 20
2319.454481859345
 30
0.0
 11
993.4428587658221
 21
2302.454481859345
 31
0.0
  0
LINE
  5
7C71
330
8484
100
AcDbEntity
  8
1
100
AcDbLine
 10
933.9428587658222
 20
2377.713514859345
 30
0.0
 11
933.9428587658222
 21
2302.454481859345
 31
0.0
  0
LINE
  5
7C73
330
8484
100
AcDbEntity
  8
1
100
AcDbLine
 10
990.4428587658221
 20
2322.454481859345
 30
0.0
 11
936.9428587658221
 21
2322.454481859345
 31
0.0
  0
LINE
  5
7C75
330
8484
100
AcDbEntity
  8
1
100
AcDbLine
 10
985.1189447658224
 20
2322.454481859345
 30
0.0
 11
990.2986937658225
 21
2330.585096859346
 31
0.0
  0
ARC
  5
7C76
330
8484
100
AcDbEntity
  8
1
100
AcDbCircle
 10
990.4428587658221
 20
2319.454481859345
 30
0.0
 40
3.0
100
AcDbArc
 50
0.0
 51
90.0
  0
ARC
  5
7C77
330
8484
100
AcDbEntity
  8
1
100
AcDbCircle
 10
936.9428587658221
 20
2319.454481859345
 30
0.0
 40
3.0
100
AcDbArc
 50
90.0
 51
180.0
  0
LINE
  5
7C82
330
8484
100
AcDbEntity
  8
1
100
AcDbLine
 10
933.9428587658222
 20
2377.713514859345
 30
0.0
 11
940.3267697658227
 21
2382.411268859346
 31
0.0
  0
LINE
  5
7C83
330
8484
100
AcDbEntity
  8
1
100
AcDbLine
 10
870.9428587658221
 20
2247.454481859346
 30
0.0
 11
1320.942858765822
 21
2247.454481859346
 31
0.0
  0
LINE
  5
7C84
330
8484
100
AcDbEntity
  8
1
100
AcDbLine
 10
895.9428587658221
 20
2247.454481859346
 30
0.0
 11
895.9428587658221
 21
2207.454481859346
 31
0.0
  0
LINE
  5
7C85
330
8484
100
AcDbEntity
  8
1
100
AcDbLine
 10
1295.942858765822
 20
2247.454481859346
 30
0.0
 11
1295.942858765822
 21
2207.454481859346
 31
0.0
  0
LINE
  5
7C86
330
8484
100
AcDbEntity
  8
1
100
AcDbLine
 10
885.8413203646994
 20
2302.454481859345
 30
0.0
 11
1025.942858765822
 21
2302.454481859345
 31
0.0
  0
LINE
  5
7C87
330
8484
100
AcDbEntity
  8
1
100
AcDbLine
 10
1320.942858765822
 20
2247.454481859346
 30
0.0
 11
1305.74054213131
 21
2302.454481859345
 31
0.0
  0
LINE
  5
7C88
330
8484
100
AcDbEntity
  8
1
100
AcDbLine
 10
870.9428587658221
 20
2247.454481859346
 30
0.0
 11
885.8413203646994
 21
2302.454481859345
 31
0.0
  0
LINE
  5
7C8A
330
8484
100
AcDbEntity
  8
1
100
AcDbLine
 10
1025.942858765822
 20
2292.454481859345
 30
0.0
 11
1165.942858765822
 21
2292.454481859345
 31
0.0
  0
LINE
  5
7C8B
330
8484
100
AcDbEntity
  8
1
100
AcDbLine
 10
1025.942858765822
 20
2302.454481859345
 30
0.0
 11
1025.942858765822
 21
2292.454481859345
 31
0.0
  0
LINE
  5
7C8C
330
8484
100
AcDbEntity
  8
1
100
AcDbLine
 10
1165.942858765822
 20
2302.454481859345
 30
0.0
 11
1165.942858765822
 21
2292.454481859345
 31
0.0
  0
LINE
  5
7C8D
330
8484
100
AcDbEntity
  8
1
100
AcDbLine
 10
1165.942858765822
 20
2302.454481859345
 30
0.0
 11
1305.74054213131
 21
2302.454481859345
 31
0.0
  0
LINE
  5
7C90
330
8484
100
AcDbEntity
  8
1
100
AcDbLine
 10
845.9428587658221
 20
2080.454481859345
 30
0.0
 11
2715.942858765824
 21
2080.454481859345
 31
0.0
1001
ACAD
1000
ASC_BOUNDS
1002
{
1070
    19
1002
}
  0
LINE
  5
7C91
330
8484
100
AcDbEntity
  8
1
100
AcDbLine
 10
845.9428587658221
 20
2080.454481859345
 30
0.0
 11
845.9428587658221
 21
1980.454481859346
 31
0.0
  0
LINE
  5
7C92
330
8484
100
AcDbEntity
  8
1
100
AcDbLine
 10
2715.942858765824
 20
2080.454481859345
 30
0.0
 11
2715.942858765824
 21
1980.454481859346
 31
0.0
  0
LINE
  5
7C93
330
8484
100
AcDbEntity
  8
1
100
AcDbLine
 10
3904.111918802624
 20
2080.454481859345
 30
0.0
 11
5279.111918802634
 21
2080.454481859345
 31
0.0
1001
ACAD
1000
ASC_BOUNDS
1002
{
1070
    19
1005
0
1005
0
1005
0
1005
0
1005
0
1005
0
1002
}
  0
POINT
  5
7C97
330
8484
100
AcDbEntity
  8
1
100
AcDbPoint
 10
2715.942858765824
 20
2080.454481859345
 30
0.0
  0
POINT
  5
7C98
330
8484
100
AcDbEntity
  8
1
100
AcDbPoint
 10
2715.942858765824
 20
2015.454481859345
 30
0.0
  0
POINT
  5
7C99
330
8484
100
AcDbEntity
  8
1
100
AcDbPoint
 10
2715.942858765824
 20
2080.454481859345
 30
0.0
  0
POINT
  5
7C9A
330
8484
100
AcDbEntity
  8
1
100
AcDbPoint
 10
2715.942858765823
 20
2107.454481859345
 30
0.0
  0
CIRCLE
  5
7C9D
330
8484
100
AcDbEntity
  8
1
100
AcDbCircle
 10
1095.942858765822
 20
2482.454481859345
 30
0.0
 40
119.0
  0
LINE
  5
7C9E
330
8484
100
AcDbEntity
  8
1
100
AcDbLine
 10
5226.111918802633
 20
2823.454481859345
 30
0.0
 11
5226.111918802633
 21
2207.454481859346
 31
0.0
  0
LINE
  5
7C9F
330
8484
100
AcDbEntity
  8
1
100
AcDbLine
 10
4106.111918802633
 20
3748.454481859345
 30
0.0
 11
4106.111918802633
 21
2787.454481859346
 31
0.0
  0
LINE
  5
7CA0
330
8484
100
AcDbEntity
  8
1
100
AcDbLine
 10
4666.111918802631
 20
3748.454481859345
 30
0.0
 11
4106.111918802633
 21
3748.454481859345
 31
0.0
  0
LINE
  5
7CA1
330
8484
100
AcDbEntity
  8
1
100
AcDbLine
 10
4106.111918802633
 20
2787.454481859346
 30
0.0
 11
4106.111918802633
 21
2207.454481859346
 31
0.0
  0
LINE
  5
7CA2
330
8484
100
AcDbEntity
  8
1
100
AcDbLine
 10
3978.111918802633
 20
2761.654481859345
 30
0.0
 11
4053.811918802634
 21
2761.654481859345
 31
0.0
  0
LINE
  5
7CA3
330
8484
100
AcDbEntity
  8
1
100
AcDbLine
 10
3978.111918802634
 20
2611.654481859345
 30
0.0
 11
4053.811918802634
 21
2611.654481859345
 31
0.0
  0
LINE
  5
7CA4
330
8484
100
AcDbEntity
  8
1
100
AcDbLine
 10
3968.111918802634
 20
2751.654481859346
 30
0.0
 11
3968.111918802634
 21
2621.654481859347
 31
0.0
  0
LINE
  5
7CA5
330
8484
100
AcDbEntity
  8
1
100
AcDbLine
 10
4093.111918802632
 20
2761.654481859345
 30
0.0
 11
4093.111918802633
 21
2611.654481859345
 31
0.0
  0
ARC
  5
7CA6
330
8484
100
AcDbEntity
  8
1
100
AcDbCircle
 10
3978.111918802633
 20
2751.654481859346
 30
0.0
 40
10.0
100
AcDbArc
 50
90.0
 51
180.0000000000003
  0
ARC
  5
7CA7
330
8484
100
AcDbEntity
  8
1
100
AcDbCircle
 10
3978.111918802634
 20
2621.654481859347
 30
0.0
 40
10.0
100
AcDbArc
 50
180.0000000000003
 51
270.0
  0
LINE
  5
7CA8
330
8484
100
AcDbEntity
  8
1
100
AcDbLine
 10
4053.811918802634
 20
2611.654481859345
 30
0.0
 11
4093.111918802633
 21
2611.654481859345
 31
0.0
  0
LINE
  5
7CA9
330
8484
100
AcDbEntity
  8
1
100
AcDbLine
 10
4053.811918802634
 20
2761.654481859345
 30
0.0
 11
4093.111918802633
 21
2761.654481859345
 31
0.0
  0
LINE
  5
7CAA
330
8484
100
AcDbEntity
  8
1
100
AcDbLine
 10
5346.111918802631
 20
2747.954481859345
 30
0.0
 11
5346.111918802633
 21
2647.954481859346
 31
0.0
  0
LINE
  5
7CAB
330
8484
100
AcDbEntity
  8
1
100
AcDbLine
 10
5245.611918802634
 20
2757.954481859345
 30
0.0
 11
5245.611918802634
 21
2637.954481859345
 31
0.0
  0
LINE
  5
7CAC
330
8484
100
AcDbEntity
  8
1
100
AcDbLine
 10
5245.611918802634
 20
2757.954481859345
 30
0.0
 11
5278.411918802632
 21
2757.954481859345
 31
0.0
  0
LINE
  5
7CAD
330
8484
100
AcDbEntity
  8
1
100
AcDbLine
 10
5245.611918802634
 20
2637.954481859345
 30
0.0
 11
5278.411918802632
 21
2637.954481859345
 31
0.0
  0
ARC
  5
7CAE
330
8484
100
AcDbEntity
  8
1
100
AcDbCircle
 10
5336.111918802632
 20
2747.954481859345
 30
0.0
 40
10.0
100
AcDbArc
 50
0.0000000000003257
 51
90.0
  0
ARC
  5
7CAF
330
8484
100
AcDbEntity
  8
1
100
AcDbCircle
 10
5336.111918802632
 20
2647.954481859346
 30
0.0
 40
10.0
100
AcDbArc
 50
270.0
 51
0.0000000000003257
  0
LINE
  5
7CB0
330
8484
100
AcDbEntity
  8
1
100
AcDbLine
 10
5278.411918802632
 20
2637.954481859345
 30
0.0
 11
5336.111918802632
 21
2637.954481859345
 31
0.0
  0
LINE
  5
7CB1
330
8484
100
AcDbEntity
  8
1
100
AcDbLine
 10
5278.411918802632
 20
2757.954481859345
 30
0.0
 11
5336.111918802632
 21
2757.954481859345
 31
0.0
  0
LINE
  5
7CB2
330
8484
100
AcDbEntity
  8
1
100
AcDbLine
 10
3953.111918802633
 20
2817.454481859346
 30
0.0
 11
3953.111918802633
 21
2757.454481859346
 31
0.0
  0
LINE
  5
7CB3
330
8484
100
AcDbEntity
  8
1
100
AcDbLine
 10
3948.111918802633
 20
2814.954481859345
 30
0.0
 11
3953.111918802633
 21
2814.954481859345
 31
0.0
  0
LINE
  5
7CB4
330
8484
100
AcDbEntity
  8
1
100
AcDbLine
 10
3948.111918802633
 20
2759.954481859345
 30
0.0
 11
3953.111918802633
 21
2759.954481859345
 31
0.0
  0
LINE
  5
7CB5
330
8484
100
AcDbEntity
  8
1
100
AcDbLine
 10
3838.111918802635
 20
2990.654481859345
 30
0.0
 11
3838.11191880263
 21
2363.454481859345
 31
0.0
  0
LINE
  5
7CB6
330
8484
100
AcDbEntity
  8
1
100
AcDbLine
 10
3948.111918802634
 20
2990.654481859345
 30
0.0
 11
3948.111918802629
 21
2363.454481859345
 31
0.0
  0
LINE
  5
7CB7
330
8484
100
AcDbEntity
  8
2
100
AcDbLine
 10
3805.467826335302
 20
2482.454481859345
 30
0.0
 11
4309.299436694057
 21
2482.454481859345
 31
0.0
  0
LINE
  5
7CB8
330
8484
100
AcDbEntity
  8
1
100
AcDbLine
 10
3838.111918802632
 20
2601.454481859346
 30
0.0
 11
3948.111918802631
 21
2601.454481859346
 31
0.0
  0
LINE
  5
7CB9
330
8484
100
AcDbEntity
  8
1
100
AcDbLine
 10
3838.11191880263
 20
2363.454481859345
 30
0.0
 11
3948.111918802629
 21
2363.454481859345
 31
0.0
  0
LINE
  5
7CBA
330
8484
100
AcDbEntity
  8
1
100
AcDbLine
 10
3716.111918802631
 20
3067.454481859346
 30
0.0
 11
3716.111918802636
 21
2262.454481859345
 31
0.0
  0
LINE
  5
7CBB
330
8484
100
AcDbEntity
  8
1
100
AcDbLine
 10
3716.111918802635
 20
2262.454481859345
 30
0.0
 11
3968.111918802637
 21
2262.454481859345
 31
0.0
  0
LINE
  5
7CBC
330
8484
100
AcDbEntity
  8
1
100
AcDbLine
 10
3968.111918802629
 20
3067.454481859346
 30
0.0
 11
3968.111918802629
 21
3047.454481859345
 31
0.0
  0
LINE
  5
7CBD
330
8484
100
AcDbEntity
  8
1
100
AcDbLine
 10
3968.111918802635
 20
2282.454481859346
 30
0.0
 11
3968.111918802635
 21
2262.454481859345
 31
0.0
  0
POINT
  5
7CBE
330
8484
100
AcDbEntity
  8
1
100
AcDbPoint
 10
5346.111918802633
 20
2747.954481859345
 30
0.0
  0
LINE
  5
7CBF
330
8484
100
AcDbEntity
  8
2
100
AcDbLine
 10
796.9601303210039
 20
5567.453943093272
 30
0.0
 11
2829.30493647882
 21
5567.453943093272
 31
0.0
  0
LINE
  5
7CC0
330
8484
100
AcDbEntity
  8
2
100
AcDbLine
 10
2155.942858765824
 20
4566.195234338984
 30
0.0
 11
2155.942858765824
 21
6101.962325964599
 31
0.0
  0
INSERT
  5
7CC1
330
8484
100
AcDbEntity
  8
0
100
AcDbBlockReference
  2
YA_N
 10
1902.396177633552
 20
-2784.746590060132
 30
0.0
  0
LINE
  5
7CC3
330
8484
100
AcDbEntity
  8
1
100
AcDbLine
 10
5279.111918802634
 20
2112.985986930012
 30
0.0
 11
5279.111918802634
 21
2107.454481859345
 31
0.0
  0
LINE
  5
7CC4
330
8484
100
AcDbEntity
  8
1
100
AcDbLine
 10
3904.111918802634
 20
1980.454481859346
 30
0.0
 11
5279.111918802634
 21
1980.454481859346
 31
0.0
1001
ACAD
1000
ASC_BOUNDS
1002
{
1070
    19
1002
}
  0
LINE
  5
7CC5
330
8484
100
AcDbEntity
  8
1
100
AcDbLine
 10
5279.111918802634
 20
2080.454481859345
 30
0.0
 11
5279.111918802634
 21
1980.454481859346
 31
0.0
  0
LINE
  5
7CC9
330
8484
100
AcDbEntity
  8
1
100
AcDbLine
 10
3953.111918802633
 20
2817.454481859346
 30
0.0
 11
4106.111918802633
 21
2817.454481859346
 31
0.0
  0
LINE
  5
7CCA
330
8484
100
AcDbEntity
  8
1
100
AcDbLine
 10
3953.111918802633
 20
2757.454481859346
 30
0.0
 11
3969.965754060867
 21
2757.454481859346
 31
0.0
  0
LINE
  5
7CCB
330
8484
100
AcDbEntity
  8
1
100
AcDbLine
 10
845.9428587658221
 20
1980.454481859346
 30
0.0
 11
2715.942858765824
 21
1980.454481859346
 31
0.0
1001
ACAD
1000
ASC_BOUNDS
1002
{
1070
    19
1002
}
  0
POINT
  5
7CCF
330
8484
100
AcDbEntity
  8
1
100
AcDbPoint
 10
2715.942858765824
 20
2080.454481859345
 30
0.0
  0
POINT
  5
7CD0
330
8484
100
AcDbEntity
  8
1
100
AcDbPoint
 10
2715.942858765824
 20
1980.454481859346
 30
0.0
  0
POINT
  5
7CD1
330
8484
100
AcDbEntity
  8
1
100
AcDbPoint
 10
2715.942858765824
 20
2080.454481859345
 30
0.0
  0
POINT
  5
7CD2
330
8484
100
AcDbEntity
  8
1
100
AcDbPoint
 10
2715.942858765824
 20
2107.454481859345
 30
0.0
  0
ARC
  5
7CD3
330
8484
100
AcDbEntity
  8
1
100
AcDbCircle
 10
2155.942858765823
 20
2787.454481859346
 30
0.0
 40
536.0
100
AcDbArc
 50
0.0
 51
3.851123126497708
  0
CIRCLE
  5
7CD4
330
8484
100
AcDbEntity
  8
1
100
AcDbCircle
 10
2155.942858765823
 20
2787.454481859346
 30
0.0
 40
203.2
  0
ARC
  5
7CD5
330
8484
100
AcDbEntity
  8
1
100
AcDbCircle
 10
2155.942858765823
 20
2787.454481859346
 30
0.0
 40
280.0
100
AcDbArc
 50
282.9341812137518
 51
109.1706668005613
  0
ARC
  5
7CD6
330
8484
100
AcDbEntity
  8
1
100
AcDbCircle
 10
1095.942858765822
 20
2482.454481859345
 30
0.0
 40
220.0
100
AcDbArc
 50
109.1706668005613
 51
282.9341812137518
  0
LINE
  5
7CD7
330
8484
100
AcDbEntity
  8
1
100
AcDbLine
 10
2085.011786486374
 20
2977.872503551852
 30
0.0
 11
1054.403500491933
 21
2593.968972909583
 31
0.0
  0
LINE
  5
7CD8
330
8484
100
AcDbEntity
  8
1
100
AcDbLine
 10
2197.060296770123
 20
2588.458008795217
 30
0.0
 11
1120.022460746687
 21
2365.916193007814
 31
0.0
  0
LINE
  5
7CD9
330
8484
100
AcDbEntity
  8
1
100
AcDbLine
 10
2218.615705124372
 20
2514.558687957502
 30
0.0
 11
1145.185809476111
 21
2268.036358079325
 31
0.0
  0
LINE
  5
7CDA
330
8484
100
AcDbEntity
  8
1
100
AcDbLine
 10
3838.111918802635
 20
2990.654481859345
 30
0.0
 11
3948.111918802634
 21
2990.654481859345
 31
0.0
  0
LINE
  5
7CDB
330
8484
100
AcDbEntity
  8
1
100
AcDbLine
 10
3838.111918802632
 20
2584.254481859346
 30
0.0
 11
3948.111918802631
 21
2584.254481859346
 31
0.0
  0
LINE
  5
7CDC
330
8484
100
AcDbEntity
  8
1
100
AcDbLine
 10
3716.111918802631
 20
3067.454481859346
 30
0.0
 11
3968.111918802629
 21
3067.454481859346
 31
0.0
  0
LINE
  5
7CE1
330
8484
100
AcDbEntity
  8
1
100
AcDbLine
 10
1595.942858765823
 20
6180.453943093272
 30
0.0
 11
2715.942858765823
 21
6180.453943093272
 31
0.0
  0
LINE
  5
7CE2
330
8484
100
AcDbEntity
  8
1
100
AcDbLine
 10
845.9428587658239
 20
4805.453943093271
 30
0.0
 11
2715.942858765823
 21
4805.453943093271
 31
0.0
  0
LINE
  5
7CE3
330
8484
100
AcDbEntity
  8
1
100
AcDbLine
 10
2715.942858765823
 20
4805.453943093271
 30
0.0
 11
2715.942858765823
 21
5007.45394309327
 31
0.0
  0
LINE
  5
7CE4
330
8484
100
AcDbEntity
  8
1
100
AcDbLine
 10
1595.942858765823
 20
6127.453943093271
 30
0.0
 11
1595.942858765823
 21
6180.453943093272
 31
0.0
  0
LINE
  5
7CE5
330
8484
100
AcDbEntity
  8
1
100
AcDbLine
 10
845.942858765823
 20
4805.453943093272
 30
0.0
 11
845.9428587658239
 21
5605.453943093273
 31
0.0
  0
LINE
  5
7CE6
330
8484
100
AcDbEntity
  8
1
100
AcDbLine
 10
845.9428587658239
 20
5605.453943093272
 30
0.0
 11
1378.942858765823
 21
5605.453943093272
 31
0.0
  0
LINE
  5
7CE7
330
8484
100
AcDbEntity
  8
2
100
AcDbLine
 10
1095.942858765823
 20
4492.878402914423
 30
0.0
 11
1095.942858765823
 21
5397.552285659481
 31
0.0
  0
CIRCLE
  5
7CEE
330
8484
100
AcDbEntity
  8
1
100
AcDbCircle
 10
2155.942858765823
 20
2787.454481859346
 30
0.0
 40
475.0
  0
CIRCLE
  5
7CEF
330
8484
100
AcDbEntity
  8
1
100
AcDbCircle
 10
2155.942858765823
 20
2787.454481859346
 30
0.0
 40
515.0
  0
LINE
  5
7CF0
330
8484
100
AcDbEntity
  8
1
100
AcDbLine
 10
2063.995585200861
 20
3051.926973593307
 30
0.0
 11
1023.698572393353
 21
2690.254296793173
 31
0.0
  0
DIMENSION
  5
7CF2
330
8484
100
AcDbEntity
  8
3
100
AcDbDimension
  2
*D18
 10
3075.901267306895
 20
1980.454481859346
 30
0.0
 11
3000.901267306895
 21
1723.311624716489
 31
0.0
 71
     5
 42
-1.0
  3
Standard
100
AcDbAlignedDimension
 13
2715.942858765824
 23
2080.454481859345
 33
0.0
 14
2715.942858765824
 24
1980.454481859346
 34
0.0
 50
90.0
100
AcDbRotatedDimension
1001
ACAD
1000
DSTYLE
1002
{
1070
   287
1070
     3
1070
   287
1070
     3
1070
    40
1040
30.0
1070
   143
1040
0.039
1070
   172
1070
     1
1070
   271
1070
     0
1070
   279
1070
     0
1070
   288
1070
     1
1070
     6
1000
DOT
1002
}
  0
LINE
  5
7CF5
330
8484
100
AcDbEntity
  8
1
100
AcDbLine
 10
3904.111918802624
 20
2080.454481859345
 30
0.0
 11
3904.111918802615
 21
1980.454481859346
 31
0.0
  0
LINE
  5
7CF6
330
8484
100
AcDbEntity
  8
1
100
AcDbLine
 10
875.9428587658222
 20
4617.453943093272
 30
0.0
 11
2435.942858765823
 21
4617.453943093271
 31
0.0
  0
LINE
  5
7CF7
330
8484
100
AcDbEntity
  8
1
100
AcDbLine
 10
875.9428587658222
 20
4907.453943093273
 30
0.0
 11
2435.942858765823
 21
4907.453943093271
 31
0.0
  0
LINE
  5
7CF8
330
8484
100
AcDbEntity
  8
1
100
AcDbLine
 10
976.9428587658222
 20
4777.453943093273
 30
0.0
 11
1214.942858765822
 21
4777.453943093273
 31
0.0
  0
LINE
  5
7CF9
330
8484
100
AcDbEntity
  8
1
100
AcDbLine
 10
976.9428587658222
 20
4887.453943093273
 30
0.0
 11
1214.942858765822
 21
4887.453943093273
 31
0.0
  0
LINE
  5
7CFA
330
8484
100
AcDbEntity
  8
1
100
AcDbLine
 10
2435.942858765823
 20
4617.453943093271
 30
0.0
 11
2435.942858765823
 21
4907.453943093271
 31
0.0
  0
LINE
  5
7CFB
330
8484
100
AcDbEntity
  8
1
100
AcDbLine
 10
875.9428587658222
 20
4617.453943093272
 30
0.0
 11
875.9428587658222
 21
4907.453943093273
 31
0.0
  0
LINE
  5
7CFC
330
8484
100
AcDbEntity
  8
1
100
AcDbLine
 10
2359.142858765822
 20
4777.453943093271
 30
0.0
 11
2359.142858765822
 21
4887.453943093271
 31
0.0
  0
LINE
  5
7CFD
330
8484
100
AcDbEntity
  8
1
100
AcDbLine
 10
1952.742858765821
 20
4777.453943093271
 30
0.0
 11
1952.742858765821
 21
4887.453943093271
 31
0.0
  0
LINE
  5
7CFE
330
8484
100
AcDbEntity
  8
1
100
AcDbLine
 10
1214.942858765822
 20
4777.453943093271
 30
0.0
 11
1214.942858765822
 21
4887.453943093273
 31
0.0
  0
LINE
  5
7CFF
330
8484
100
AcDbEntity
  8
1
100
AcDbLine
 10
976.9428587658222
 20
4777.453943093273
 30
0.0
 11
976.9428587658222
 21
4887.453943093273
 31
0.0
  0
LINE
  5
7D00
330
8484
100
AcDbEntity
  8
1
100
AcDbLine
 10
1952.742858765821
 20
4887.453943093271
 30
0.0
 11
2359.142858765822
 21
4887.453943093271
 31
0.0
  0
LINE
  5
7D01
330
8484
100
AcDbEntity
  8
1
100
AcDbLine
 10
1952.742858765821
 20
4777.453943093272
 30
0.0
 11
2359.142858765822
 21
4777.453943093271
 31
0.0
  0
LINE
  5
7D02
330
8484
100
AcDbEntity
  8
1
100
AcDbLine
 10
2775.942858765823
 20
4967.453943093271
 30
0.0
 11
2775.942858765823
 21
6167.453943093271
 31
0.0
  0
LINE
  5
7D03
330
8484
100
AcDbEntity
  8
1
100
AcDbLine
 10
1378.942858765823
 20
5007.45394309327
 30
0.0
 11
1378.942858765823
 21
6127.453943093271
 31
0.0
  0
LINE
  5
7D04
330
8484
100
AcDbEntity
  8
1
100
AcDbLine
 10
1378.942858765823
 20
6127.453943093271
 30
0.0
 11
2775.942858765823
 21
6127.453943093271
 31
0.0
  0
LINE
  5
7D05
330
8484
100
AcDbEntity
  8
1
100
AcDbLine
 10
1378.942858765823
 20
5007.45394309327
 30
0.0
 11
2775.942858765823
 21
5007.45394309327
 31
0.0
  0
LINE
  5
7D06
330
8484
100
AcDbEntity
  8
1
100
AcDbLine
 10
913.4428587658231
 20
5453.953943093273
 30
0.0
 11
1278.442858765823
 21
5453.953943093273
 31
0.0
  0
LINE
  5
7D07
330
8484
100
AcDbEntity
  8
1
100
AcDbLine
 10
1278.442858765823
 20
4892.453943093272
 30
0.0
 11
1278.442858765823
 21
5453.953943093273
 31
0.0
  0
LINE
  5
7D08
330
8484
100
AcDbEntity
  8
1
100
AcDbLine
 10
913.442858765824
 20
4892.453943093272
 30
0.0
 11
913.442858765824
 21
5453.953943093273
 31
0.0
  0
LINE
  5
7D09
330
8484
100
AcDbEntity
  8
1
100
AcDbLine
 10
913.442858765824
 20
4892.453943093272
 30
0.0
 11
1278.442858765824
 21
4892.453943093274
 31
0.0
  0
LINE
  5
7D0A
330
8484
100
AcDbEntity
  8
1
100
AcDbLine
 10
1119.942858765823
 20
4887.453943093273
 30
0.0
 11
1119.942858765823
 21
4892.453943093272
 31
0.0
  0
LINE
  5
7D0B
330
8484
100
AcDbEntity
  8
1
100
AcDbLine
 10
1071.942858765823
 20
4887.453943093273
 30
0.0
 11
1071.942858765823
 21
4892.453943093272
 31
0.0
  0
LINE
  5
7D0C
330
8484
100
AcDbEntity
  8
1
100
AcDbLine
 10
2185.942858765824
 20
4887.453943093271
 30
0.0
 11
2185.942858765824
 21
5007.45394309327
 31
0.0
  0
LINE
  5
7D0D
330
8484
100
AcDbEntity
  8
1
100
AcDbLine
 10
2125.942858765824
 20
4887.453943093271
 30
0.0
 11
2125.942858765824
 21
5007.45394309327
 31
0.0
  0
LINE
  5
7D0E
330
8484
100
AcDbEntity
  8
1
100
AcDbLine
 10
3953.111918802632
 20
2664.954481859347
 30
0.0
 11
3968.111918802634
 21
2664.954481859347
 31
0.0
  0
LINE
  5
7D0F
330
8484
100
AcDbEntity
  8
1
100
AcDbLine
 10
3953.111918802632
 20
2299.954481859345
 30
0.0
 11
4106.111918802633
 21
2299.954481859347
 31
0.0
  0
LINE
  5
7D10
330
8484
100
AcDbEntity
  8
1
100
AcDbLine
 10
3953.111918802632
 20
2664.954481859346
 30
0.0
 11
3953.111918802632
 21
2299.954481859345
 31
0.0
  0
LINE
  5
7D11
330
8484
100
AcDbEntity
  8
1
100
AcDbLine
 10
3948.111918802631
 20
2531.454481859347
 30
0.0
 11
3953.111918802632
 21
2531.454481859347
 31
0.0
  0
LINE
  5
7D12
330
8484
100
AcDbEntity
  8
1
100
AcDbLine
 10
3948.111918802631
 20
2483.454481859347
 30
0.0
 11
3953.111918802632
 21
2483.454481859347
 31
0.0
  0
LINE
  5
7D13
330
8484
100
AcDbEntity
  8
1
100
AcDbLine
 10
4093.111918802632
 20
2664.954481859347
 30
0.0
 11
4106.111918802631
 21
2664.954481859347
 31
0.0
  0
LINE
  5
7D14
330
8484
100
AcDbEntity
  8
1
100
AcDbLine
 10
5226.111918802633
 20
2823.454481859346
 30
0.0
 11
4106.111918802633
 21
2823.454481859346
 31
0.0
  0
LINE
  5
7D15
330
8484
100
AcDbEntity
  8
1
100
AcDbLine
 10
5226.111918802633
 20
3748.454481859345
 30
0.0
 11
4106.111918802633
 21
2823.454481859346
 31
0.0
  0
LINE
  5
7D16
330
8484
100
AcDbEntity
  8
1
100
AcDbLine
 10
4106.111918802633
 20
3748.454481859345
 30
0.0
 11
5226.111918802633
 21
2823.454481859346
 31
0.0
  0
LINE
  5
7D1D
330
8484
100
AcDbEntity
  8
1
100
AcDbLine
 10
2715.942858765823
 20
6127.453943093271
 30
0.0
 11
2715.942858765823
 21
6180.453943093272
 31
0.0
  0
LINE
  5
7D1E
330
8484
100
AcDbEntity
  8
1
100
AcDbLine
 10
2772.942858765823
 20
6167.453943093271
 30
0.0
 11
2775.942858765823
 21
6167.453943093271
 31
0.0
  0
LINE
  5
7D1F
330
8484
100
AcDbEntity
  8
1
100
AcDbLine
 10
2772.942858765823
 20
4967.453943093271
 30
0.0
 11
2775.942858765823
 21
4967.453943093271
 31
0.0
  0
LINE
  5
7D20
330
8484
100
AcDbEntity
  8
1
100
AcDbLine
 10
2772.942858765823
 20
4967.453943093271
 30
0.0
 11
2772.942858765823
 21
6167.453943093271
 31
0.0
  0
LINE
  5
7F51
330
8484
100
AcDbEntity
  8
4
100
AcDbLine
 10
5550.0
 20
1210.115599408855
 30
0.0
 11
5550.0
 21
610.115599408855
 31
0.0
  0
LINE
  5
7F52
330
8484
100
AcDbEntity
  8
4
100
AcDbLine
 10
3450.0
 20
1210.115599408855
 30
0.0
 11
3450.0
 21
610.115599408855
 31
0.0
  0
LINE
  5
7F53
330
8484
100
AcDbEntity
  8
4
100
AcDbLine
 10
1950.0
 20
1210.115599408855
 30
0.0
 11
1950.0
 21
610.115599408855
 31
0.0
  0
LINE
  5
7F56
330
8484
100
AcDbEntity
  8
4
100
AcDbLine
 10
1950.0
 20
610.1155994088549
 30
0.0
 11
5550.0
 21
610.1155994088549
 31
0.0
  0
LINE
  5
7F57
330
8484
100
AcDbEntity
  8
4
100
AcDbLine
 10
1950.0
 20
910.1155994088548
 30
0.0
 11
5550.0
 21
910.1155994088548
 31
0.0
  0
TEXT
  5
7F58
330
8484
100
AcDbEntity
  8
4
100
AcDbText
 10
2065.506242540704
 20
1004.744677008693
 30
0.0
 40
150.0
  1
機器名称
100
AcDbText
  0
TEXT
  5
7F59
330
8484
100
AcDbEntity
  8
4
100
AcDbText
 10
2058.774318074392
 20
675.0510696048876
 30
0.0
 40
150.0
  1
機器型番
100
AcDbText
  0
TEXT
  5
7F5A
330
8484
100
AcDbEntity
  8
4
100
AcDbText
 10
3533.036236462995
 20
977.8309062815608
 30
0.0
 40
150.0
  1
ミツヤ多翼送風機
100
AcDbText
  0
TEXT
  5
7F5B
330
8484
100
AcDbEntity
  8
4
100
AcDbText
 10
3559.963486756442
 20
661.594352248685
 30
0.0
 40
150.0
  1
MF#5 1/2-5
100
AcDbText
  0
TEXT
  5
7F5D
330
8484
100
AcDbEntity
  8
4
100
AcDbText
 10
2397.531071377358
 20
7150.286523997547
 30
0.0
 40
161.9999999999998
  1
床置防振ベット
100
AcDbText
  0
TEXT
  5
7F5E
330
8484
100
AcDbEntity
  8
4
100
AcDbText
 10
948.5027799883393
 20
7601.642928597894
 30
0.0
 40
216.0
  1
遠心式両吸込両持多翼ファン
100
AcDbText
  0
LINE
  5
7F5F
330
8484
100
AcDbEntity
  8
4
100
AcDbLine
 10
750.0
 20
7408.226262794413
 30
0.0
 11
5550.0
 21
7408.226262794413
 31
0.0
  0
LINE
  5
7F60
330
8484
100
AcDbEntity
  8
4
100
AcDbLine
 10
750.0
 20
8008.226262794414
 30
0.0
 11
5550.0
 21
8008.226262794414
 31
0.0
  0
LINE
  5
7F61
330
8484
100
AcDbEntity
  8
4
100
AcDbLine
 10
1950.0
 20
1210.115599408855
 30
0.0
 11
5550.0
 21
1210.115599408855
 31
0.0
  0
LINE
  5
7F62
330
8484
100
AcDbEntity
  8
4
100
AcDbLine
 10
750.0
 20
8008.226262794414
 30
0.0
 11
750.0
 21
7408.226262794413
 31
0.0
  0
TEXT
  5
7F63
330
8484
100
AcDbEntity
  8
4
100
AcDbText
 10
1089.954574649251
 20
7146.958432639029
 30
0.0
 40
161.9999999999998
  1
右回転右横向
100
AcDbText
  0
TEXT
  5
7F64
330
8484
100
AcDbEntity
  8
4
100
AcDbText
 10
4406.908677747869
 20
8118.183244485924
 30
0.0
 40
168.0
  1
No.
100
AcDbText
  0
TEXT
  5
7F65
330
8484
100
AcDbEntity
  8
4
100
AcDbText
 10
3933.888187800039
 20
7150.286523997547
 30
0.0
 40
161.9999999999998
  1
縮尺：1/30
100
AcDbText
  0
LINE
  5
7F66
330
8484
100
AcDbEntity
  8
4
100
AcDbLine
 10
5550.0
 20
8008.226262794414
 30
0.0
 11
5550.0
 21
7408.226262794413
 31
0.0
  0
LINE
  5
7F67
330
8484
100
AcDbEntity
  8
4
100
AcDbLine
 10
6300.0
 20
8850.0
 30
0.0
 11
6300.0
 21
8850.0
 31
0.0
  0
LINE
  5
7F68
330
8484
100
AcDbEntity
  8
4
100
AcDbLine
 10
4321.852267079594
 20
8043.790749376205
 30
0.0
 11
4321.852267079594
 21
8359.956784649257
 31
0.0
  0
LINE
  5
7F69
330
8484
100
AcDbEntity
  8
4
100
AcDbLine
 10
4321.852267079594
 20
8359.956784649257
 30
0.0
 11
5550.0
 21
8359.956784649257
 31
0.0
  0
LINE
  5
7F6A
330
8484
100
AcDbEntity
  8
4
100
AcDbLine
 10
5550.0
 20
8359.956784649257
 30
0.0
 11
5550.0
 21
8043.790749376205
 31
0.0
  0
LINE
  5
7F6B
330
8484
100
AcDbEntity
  8
4
100
AcDbLine
 10
5550.0
 20
8043.790749376205
 30
0.0
 11
4321.852267079594
 21
8043.790749376205
 31
0.0
  0
LINE
  5
7F6C
330
8484
100
AcDbEntity
  8
4
100
AcDbLine
 10
0.0
 20
0.0
 30
0.0
 11
0.0
 21
8850.0
 31
0.0
  0
LINE
  5
7F6D
330
8484
100
AcDbEntity
  8
4
100
AcDbLine
 10
0.0
 20
8850.0
 30
0.0
 11
6300.0
 21
8850.0
 31
0.0
  0
LINE
  5
7F6E
330
8484
100
AcDbEntity
  8
4
100
AcDbLine
 10
6300.0
 20
8850.0
 30
0.0
 11
6300.0
 21
0.0
 31
0.0
  0
LINE
  5
7F6F
330
8484
100
AcDbEntity
  8
4
100
AcDbLine
 10
6300.0
 20
0.0
 30
0.0
 11
0.0
 21
0.0
 31
0.0
  0
DIMENSION
  5
8218
330
8484
100
AcDbEntity
  8
3
100
AcDbDimension
  2
*D21
 10
2155.942858765823
 20
1782.166200219333
 30
0.0
 11
1500.942858765822
 21
1857.166200219333
 31
0.0
 71
     5
 42
-1.0
  3
Standard
100
AcDbAlignedDimension
 13
845.9428587658221
 23
1980.454481859346
 33
0.0
 14
2155.942858765823
 24
1980.454481859346
 34
0.0
100
AcDbRotatedDimension
1001
ACAD
1000
DSTYLE
1002
{
1070
   172
1070
     1
1070
    40
1040
30.0
1070
    42
1040
1.0
1070
   271
1070
     0
1070
   143
1040
0.039
1002
}
  0
DIMENSION
  5
8225
330
8484
100
AcDbEntity
  8
3
100
AcDbDimension
  2
*D22
 10
2715.942858765824
 20
1782.166200219333
 30
0.0
 11
2435.942858765824
 21
1857.166200219333
 31
0.0
 71
     5
 42
-1.0
  3
Standard
100
AcDbAlignedDimension
 13
2155.942858765823
 23
1980.454481859346
 33
0.0
 14
2715.942858765824
 24
1980.454481859346
 34
0.0
100
AcDbRotatedDimension
1001
ACAD
1000
DSTYLE
1002
{
1070
   172
1070
     1
1070
    40
1040
30.0
1070
    42
1040
1.0
1070
   271
1070
     0
1070
   143
1040
0.039
1002
}
  0
DIMENSION
  5
8232
330
8484
100
AcDbEntity
  8
3
100
AcDbDimension
  2
*D23
 10
4666.111918802631
 20
1782.166200219333
 30
0.0
 11
4285.111918802622
 21
1857.166200219333
 31
0.0
 71
     5
 42
-1.0
  3
Standard
100
AcDbAlignedDimension
 13
3904.111918802615
 23
1980.454481859346
 33
0.0
 14
4666.111918802631
 24
1980.454481859346
 34
0.0
100
AcDbRotatedDimension
1001
ACAD
1000
DSTYLE
1002
{
1070
   172
1070
     1
1070
    40
1040
30.0
1070
    42
1040
1.0
1070
   271
1070
     0
1070
   143
1040
0.039
1002
}
  0
DIMENSION
  5
823F
330
8484
100
AcDbEntity
  8
3
100
AcDbDimension
  2
*D24
 10
5279.111918802634
 20
1782.166200219333
 30
0.0
 11
4972.611918802633
 21
1857.166200219333
 31
0.0
 71
     5
 42
-1.0
  3
Standard
100
AcDbAlignedDimension
 13
4666.111918802631
 23
1980.454481859346
 33
0.0
 14
5279.111918802634
 24
1980.454481859346
 34
0.0
100
AcDbRotatedDimension
1001
ACAD
1000
DSTYLE
1002
{
1070
   172
1070
     1
1070
    40
1040
30.0
1070
    42
1040
1.0
1070
   271
1070
     0
1070
   143
1040
0.039
1002
}
  0
DIMENSION
  5
824E
330
8484
100
AcDbEntity
  8
3
100
AcDbDimension
  2
*D26
 10
3078.274695699099
 20
2107.454481859345
 30
0.0
 11
3221.846124270528
 21
2093.954481859345
 31
0.0
  1
 <>
 71
     5
 42
-1.0
  3
Standard
100
AcDbAlignedDimension
 13
2715.942858765824
 23
2080.454481859345
 33
0.0
 14
2715.942858765824
 24
2107.454481859345
 34
0.0
 50
90.0
100
AcDbRotatedDimension
1001
ACAD
1000
DSTYLE
1002
{
1070
   172
1070
     1
1070
    76
1070
     1
1070
    75
1070
     1
1070
    40
1040
30.0
1070
     3
1000
(<>)
1070
    42
1040
1.0
1070
   271
1070
     0
1070
     7
1000
_NONE
1070
     6
1000
_NONE
1070
   143
1040
0.039
1002
}
  0
DIMENSION
  5
825B
330
8484
100
AcDbEntity
  8
3
100
AcDbDimension
  2
*D27
 10
3316.566060374546
 20
3748.454481859345
 30
0.0
 11
3217.994631803117
 21
2864.454481859345
 31
0.0
 71
     5
 42
-1.0
  3
Standard
100
AcDbAlignedDimension
 13
2715.942858765824
 23
1980.454481859346
 33
0.0
 14
2790.942858765823
 24
3748.454481859345
 34
0.0
 50
90.0
100
AcDbRotatedDimension
1001
ACAD
1000
DSTYLE
1002
{
1070
   172
1070
     1
1070
    40
1040
30.0
1070
     3
1000
(<>)
1070
    42
1040
1.0
1070
   271
1070
     0
1070
   143
1040
0.039
1002
}
  0
DIMENSION
  5
84CF
330
8484
100
AcDbEntity
  8
3
100
AcDbDimension
  2
*D28
 10
4666.111918802633
 20
4162.618405907797
 30
0.0
 11
4191.111918802632
 21
4261.189834479225
 31
0.0
 70
    32
  1
(<>)
 71
     5
 42
950.0000000000017
  3
IGA
100
AcDbAlignedDimension
 13
3716.111918802631
 23
3067.454481859346
 33
0.0
 14
4666.111918802633
 24
4090.268701174606
 34
0.0
100
AcDbRotatedDimension
1001
ACAD
1000
DSTYLE
1002
{
1070
    40
1040
30.0
1070
    42
1040
1.0
1070
   143
1040
0.039
1070
   172
1070
     1
1070
   271
1070
     4
1070
   272
1070
     4
1070
   279
1070
     0
1070
   284
1070
     0
1070
   285
1070
     0
1070
   286
1070
     0
1070
   341
1005
8497
1070
   343
1005
8497
1070
   344
1005
8497
1002
}
  0
DIMENSION
  5
84DC
330
8484
100
AcDbEntity
  8
3
100
AcDbDimension
  2
*D29
 10
5346.111918802631
 20
4162.618405907797
 30
0.0
 11
5006.111918802632
 21
4261.189834479225
 31
0.0
 70
    32
  1
(<>)
 71
     5
 42
679.9999999999982
  3
IGA
100
AcDbAlignedDimension
 13
4666.111918802633
 23
4090.268701174606
 33
0.0
 14
5346.111918802631
 24
2747.954481859345
 34
0.0
100
AcDbRotatedDimension
1001
ACAD
1000
DSTYLE
1002
{
1070
    40
1040
30.0
1070
    42
1040
1.0
1070
   143
1040
0.039
1070
   172
1070
     1
1070
   271
1070
     4
1070
   272
1070
     4
1070
   279
1070
     1
1070
   284
1070
     0
1070
   285
1070
     0
1070
   286
1070
     0
1070
   341
1005
8497
1070
   343
1005
8497
1070
   344
1005
8497
1002
}
  0
DIMENSION
  5
84E9
330
8484
100
AcDbEntity
  8
3
100
AcDbDimension
  2
*D30
 10
5226.111918802633
 20
3970.268701174606
 30
0.0
 11
4666.111918802633
 21
4045.268701174605
 31
0.0
 70
    32
 71
     5
 42
1120.0
  3
IGA
100
AcDbAlignedDimension
 13
4106.111918802633
 23
3748.454481859345
 33
0.0
 14
5226.111918802633
 24
3748.454481859345
 34
0.0
100
AcDbRotatedDimension
1001
ACAD
1000
DSTYLE
1002
{
1070
    40
1040
30.0
1070
    42
1040
1.0
1070
   143
1040
0.039
1070
   172
1070
     1
1070
   271
1070
     4
1070
   272
1070
     4
1070
   279
1070
     0
1070
   284
1070
     0
1070
   285
1070
     0
1070
   286
1070
     0
1070
   341
1005
8497
1070
   343
1005
8497
1070
   344
1005
8497
1002
}
  0
DIMENSION
  5
850C
330
8484
100
AcDbEntity
  8
3
100
AcDbDimension
  2
*D31
 10
5544.340283251957
 20
2312.454481859346
 30
0.0
 11
5469.340283251955
 21
2787.454481859347
 31
0.0
 70
    32
  1
\U+03C6<>
 71
     5
 42
950.0
  3
IGA
100
AcDbAlignedDimension
 13
5226.111918802633
 23
3262.454481859346
 33
0.0
 14
5226.111918802633
 24
2312.454481859346
 34
0.0
 50
90.0
100
AcDbRotatedDimension
1001
ACAD
1000
DSTYLE
1002
{
1070
    40
1040
30.0
1070
    42
1040
1.0
1070
   143
1040
0.039
1070
   172
1070
     1
1070
   271
1070
     4
1070
   272
1070
     4
1070
   279
1070
     0
1070
   284
1070
     0
1070
   285
1070
     0
1070
   286
1070
     0
1070
   341
1005
8497
1070
   343
1005
8497
1070
   344
1005
8497
1002
}
  0
DIMENSION
  5
8571
330
8484
100
AcDbEntity
  8
3
100
AcDbDimension
  2
*D33
 10
2715.942858765823
 20
4398.757234598565
 30
0.0
 11
1780.942858765823
 21
4473.757234598564
 31
0.0
 70
    32
 71
     5
 42
1869.999999999998
  3
IGA
100
AcDbAlignedDimension
 13
845.9428587658239
 23
4805.453943093271
 33
0.0
 14
2715.942858765823
 24
4805.453943093271
 34
0.0
100
AcDbRotatedDimension
1001
ACAD
1000
DSTYLE
1002
{
1070
    40
1040
30.0
1070
    42
1040
1.0
1070
   143
1040
0.039
1070
   172
1070
     1
1070
   271
1070
     4
1070
   272
1070
     4
1070
   279
1070
     0
1070
   284
1070
     0
1070
   285
1070
     0
1070
   286
1070
     0
1070
   341
1005
8497
1070
   343
1005
8497
1070
   344
1005
8497
1002
}
  0
DIMENSION
  5
857E
330
8484
100
AcDbEntity
  8
3
100
AcDbDimension
  2
*D34
 10
3016.367080932239
 20
6180.453943093272
 30
0.0
 11
2941.367080932238
 21
5492.953943093272
 31
0.0
 70
    32
 71
     5
 42
1375.000000000001
  3
IGA
100
AcDbAlignedDimension
 13
2715.942858765823
 23
4805.453943093271
 33
0.0
 14
2715.942858765823
 24
6180.453943093272
 34
0.0
 50
90.0
100
AcDbRotatedDimension
1001
ACAD
1000
DSTYLE
1002
{
1070
    40
1040
30.0
1070
    42
1040
1.0
1070
   143
1040
0.039
1070
   172
1070
     1
1070
   271
1070
     4
1070
   272
1070
     4
1070
   279
1070
     0
1070
   284
1070
     0
1070
   285
1070
     0
1070
   286
1070
     0
1070
   341
1005
8497
1070
   343
1005
8497
1070
   344
1005
8497
1002
}
  0
DIMENSION
  5
858B
330
8484
100
AcDbEntity
  8
3
100
AcDbDimension
  2
*D35
 10
1595.942858765823
 20
6482.468601598494
 30
0.0
 11
2155.942858765823
 21
6557.468601598493
 31
0.0
 70
    32
 71
     5
 42
1120.0
  3
IGA
100
AcDbAlignedDimension
 13
2715.942858765823
 23
6180.453943093272
 33
0.0
 14
1595.942858765823
 24
6180.453943093272
 34
0.0
100
AcDbRotatedDimension
1001
ACAD
1000
DSTYLE
1002
{
1070
    40
1040
30.0
1070
    42
1040
1.0
1070
   143
1040
0.039
1070
   172
1070
     1
1070
   271
1070
     4
1070
   272
1070
     4
1070
   279
1070
     0
1070
   284
1070
     0
1070
   285
1070
     0
1070
   286
1070
     0
1070
   341
1005
8497
1070
   343
1005
8497
1070
   344
1005
8497
1002
}
  0
DIMENSION
  5
8598
330
8484
100
AcDbEntity
  8
3
100
AcDbDimension
  2
*D36
 10
845.9428587658239
 20
6482.468601598494
 30
0.0
 11
1220.942858765823
 21
6557.468601598493
 31
0.0
 70
    32
 71
     5
 42
749.9999999999994
  3
IGA
100
AcDbAlignedDimension
 13
1595.942858765823
 23
6180.453943093272
 33
0.0
 14
845.9428587658239
 24
5605.453943093272
 34
0.0
100
AcDbRotatedDimension
1001
ACAD
1000
DSTYLE
1002
{
1070
    40
1040
30.0
1070
    42
1040
1.0
1070
   143
1040
0.039
1070
   172
1070
     1
1070
   271
1070
     4
1070
   272
1070
     4
1070
   279
1070
     1
1070
   284
1070
     0
1070
   285
1070
     0
1070
   286
1070
     0
1070
   341
1005
8497
1070
   343
1005
8497
1070
   344
1005
8497
1002
}
  0
DIMENSION
  5
85A5
330
8484
100
AcDbEntity
  8
3
100
AcDbDimension
  2
*D37
 10
656.0913512992851
 20
5605.453943093273
 30
0.0
 11
581.0913512992841
 21
5205.453943093273
 31
0.0
 70
    32
 71
     5
 42
800.0000000000008
  3
IGA
100
AcDbAlignedDimension
 13
845.942858765823
 23
4805.453943093272
 33
0.0
 14
845.9428587658239
 24
5605.453943093273
 34
0.0
 50
90.0
100
AcDbRotatedDimension
1001
ACAD
1000
DSTYLE
1002
{
1070
    40
1040
30.0
1070
    42
1040
1.0
1070
   143
1040
0.039
1070
   172
1070
     1
1070
   271
1070
     4
1070
   272
1070
     4
1070
   279
1070
     0
1070
   284
1070
     0
1070
   285
1070
     0
1070
   286
1070
     0
1070
   341
1005
8497
1070
   343
1005
8497
1070
   344
1005
8497
1002
}
  0
DIMENSION
  5
85B2
330
8484
100
AcDbEntity
  8
3
100
AcDbDimension
  2
*D38
 10
845.9428587658239
 20
4137.110429238729
 30
0.0
 11
1810.942858765823
 21
4212.110429238729
 31
0.0
 70
    32
 71
     5
 42
1929.999999999999
  3
IGA
100
AcDbAlignedDimension
 13
2775.942858765823
 23
3790.954481859346
 33
0.0
 14
845.9428587658239
 24
2207.454481859345
 34
0.0
100
AcDbRotatedDimension
1001
ACAD
1000
DSTYLE
1002
{
1070
    40
1040
30.0
1070
    42
1040
1.0
1070
   143
1040
0.039
1070
   172
1070
     1
1070
   271
1070
     4
1070
   272
1070
     4
1070
   279
1070
     0
1070
   284
1070
     0
1070
   285
1070
     0
1070
   286
1070
     0
1070
   341
1005
8497
1070
   343
1005
8497
1070
   344
1005
8497
1002
}
  0
DIMENSION
  5
85BF
330
8484
100
AcDbEntity
  8
3
100
AcDbDimension
  2
*D39
 10
2155.942858765823
 20
3941.848891574977
 30
0.0
 11
2465.942858765823
 21
4016.848891574976
 31
0.0
 70
    32
 71
     5
 42
620.0
  3
IGA
100
AcDbAlignedDimension
 13
2775.942858765823
 23
3790.954481859346
 33
0.0
 14
2155.942858765823
 24
3789.416924202903
 34
0.0
100
AcDbRotatedDimension
1001
ACAD
1000
DSTYLE
1002
{
1070
    40
1040
30.0
1070
    42
1040
1.0
1070
   143
1040
0.039
1070
   172
1070
     1
1070
   271
1070
     4
1070
   272
1070
     4
1070
   279
1070
     0
1070
   284
1070
     0
1070
   285
1070
     0
1070
   286
1070
     0
1070
   341
1005
8497
1070
   343
1005
8497
1070
   344
1005
8497
1002
}
  0
DIMENSION
  5
85CC
330
8484
100
AcDbEntity
  8
3
100
AcDbDimension
  2
*D40
 10
1378.942858765823
 20
3941.848891574977
 30
0.0
 11
1767.442858765823
 21
4016.848891574976
 31
0.0
 70
    32
 71
     5
 42
777.0
  3
IGA
100
AcDbAlignedDimension
 13
2155.942858765823
 23
3789.416924202903
 33
0.0
 14
1378.942858765823
 24
2854.454481859345
 34
0.0
100
AcDbRotatedDimension
1001
ACAD
1000
DSTYLE
1002
{
1070
    40
1040
30.0
1070
    42
1040
1.0
1070
   143
1040
0.039
1070
   172
1070
     1
1070
   271
1070
     4
1070
   272
1070
     4
1070
   279
1070
     1
1070
   284
1070
     0
1070
   285
1070
     0
1070
   286
1070
     0
1070
   341
1005
8497
1070
   343
1005
8497
1070
   344
1005
8497
1002
}
  0
DIMENSION
  5
85D9
330
8484
100
AcDbEntity
  8
3
100
AcDbDimension
  2
*D41
 10
2925.557967209033
 20
2823.454481859346
 30
0.0
 11
2850.557967209033
 21
3285.954481859346
 31
0.0
 70
    32
 71
     5
 42
924.9999999999991
  3
IGA
100
AcDbAlignedDimension
 13
2775.942858765823
 23
3748.454481859345
 33
0.0
 14
2775.942858765823
 24
2823.454481859346
 34
0.0
 50
90.0
100
AcDbRotatedDimension
1001
ACAD
1000
DSTYLE
1002
{
1070
    40
1040
30.0
1070
    42
1040
1.0
1070
   143
1040
0.039
1070
   172
1070
     1
1070
   271
1070
     4
1070
   272
1070
     4
1070
   279
1070
     0
1070
   284
1070
     0
1070
   285
1070
     0
1070
   286
1070
     0
1070
   341
1005
8497
1070
   343
1005
8497
1070
   344
1005
8497
1002
}
  0
DIMENSION
  5
85E6
330
8484
100
AcDbEntity
  8
3
100
AcDbDimension
  2
*D42
 10
3075.901267306895
 20
2787.454481859346
 30
0.0
 11
3000.901267306895
 21
3267.954481859346
 31
0.0
 70
    32
 71
     5
 42
960.999999999999
  3
IGA
100
AcDbAlignedDimension
 13
2775.942858765823
 23
3748.454481859345
 33
0.0
 14
2812.198197544368
 24
2787.454481859346
 34
0.0
 50
90.0
100
AcDbRotatedDimension
1001
ACAD
1000
DSTYLE
1002
{
1070
    40
1040
30.0
1070
    42
1040
1.0
1070
   143
1040
0.039
1070
   172
1070
     1
1070
   271
1070
     4
1070
   272
1070
     4
1070
   279
1070
     0
1070
   284
1070
     0
1070
   285
1070
     0
1070
   286
1070
     0
1070
   341
1005
8497
1070
   343
1005
8497
1070
   344
1005
8497
1002
}
  0
DIMENSION
  5
85F3
330
8484
100
AcDbEntity
  8
3
100
AcDbDimension
  2
*D43
 10
3075.901267306895
 20
2107.454481859345
 30
0.0
 11
3000.901267306895
 21
2447.454481859346
 31
0.0
 70
    32
 71
     5
 42
680.0000000000009
  3
IGA
100
AcDbAlignedDimension
 13
2812.198197544368
 23
2787.454481859346
 33
0.0
 14
2715.942858765824
 24
2107.454481859345
 34
0.0
 50
90.0
100
AcDbRotatedDimension
1001
ACAD
1000
DSTYLE
1002
{
1070
    40
1040
30.0
1070
    42
1040
1.0
1070
   143
1040
0.039
1070
   172
1070
     1
1070
   271
1070
     4
1070
   272
1070
     4
1070
   279
1070
     1
1070
   284
1070
     0
1070
   285
1070
     0
1070
   286
1070
     0
1070
   341
1005
8497
1070
   343
1005
8497
1070
   344
1005
8497
1002
}
  0
ENDSEC
  0
SECTION
  2
OBJECTS
  0
DICTIONARY
  5
8421
330
0
100
AcDbDictionary
281
     1
  3
ACAD_CIP_PREVIOUS_PRODUCT_INFO
350
84CB
  3
ACAD_COLOR
350
8477
  3
ACAD_DETAILVIEWSTYLE
350
847E
  3
ACAD_GROUP
350
8422
  3
ACAD_LAYOUT
350
8476
  3
ACAD_MATERIAL
350
8425
  3
ACAD_MLEADERSTYLE
350
847A
  3
ACAD_MLINESTYLE
350
8473
  3
ACAD_PLOTSETTINGS
350
8475
  3
ACAD_PLOTSTYLENAME
350
8423
  3
ACAD_SCALELIST
350
8457
  3
ACAD_SECTIONVIEWSTYLE
350
847C
  3
ACAD_TABLESTYLE
350
8478
  3
ACAD_VISUALSTYLE
350
843E
  3
ACDB_RECOMPOSE_DATA
350
8617
  3
AcDbVariableDictionary
350
860A
  3
DWGPROPS
350
8618
  0
DICTIONARY
  5
8600
330
8469
100
AcDbDictionary
280
     1
281
     1
  3
ADSK_XREC_LAYER_RECONCILED
360
8601
  0
DICTIONARY
  5
8602
330
8488
100
AcDbDictionary
280
     1
281
     1
  3
ADSK_XREC_LAYER_RECONCILED
360
8603
  0
DICTIONARY
  5
8604
330
848B
100
AcDbDictionary
280
     1
281
     1
  3
ADSK_XREC_LAYER_RECONCILED
360
8605
  0
DICTIONARY
  5
8606
330
848C
100
AcDbDictionary
280
     1
281
     1
  3
ADSK_XREC_LAYER_RECONCILED
360
8607
  0
DICTIONARY
  5
8608
330
848D
100
AcDbDictionary
280
     1
281
     1
  3
ADSK_XREC_LAYER_RECONCILED
360
8609
  0
DICTIONARY
  5
8509
330
8484
100
AcDbDictionary
280
     1
281
     1
  3
ACAD_SORTENTS
360
850A
  0
XRECORD
  5
84CB
102
{ACAD_REACTORS
330
8421
102
}
330
8421
100
AcDbXrecord
280
     1
300
ACDLT
300
2015
300
INVLTS_F_S
  0
DICTIONARY
  5
8477
102
{ACAD_REACTORS
330
8421
102
}
330
8421
100
AcDbDictionary
281
     1
  0
DICTIONARY
  5
847E
102
{ACAD_REACTORS
330
8421
102
}
330
8421
100
AcDbDictionary
281
     1
  3
Imperial24
350
847F
  0
DICTIONARY
  5
8422
102
{ACAD_REACTORS
330
8421
102
}
330
8421
100
AcDbDictionary
281
     1
  0
DICTIONARY
  5
8476
102
{ACAD_REACTORS
330
8421
102
}
330
8421
100
AcDbDictionary
281
     1
  3
Model
350
8487
  3
レイアウト1
350
8483
  0
DICTIONARY
  5
8425
102
{ACAD_REACTORS
330
8421
102
}
330
8421
100
AcDbDictionary
281
     1
  3
ByBlock
350
842E
  3
ByLayer
350
8426
  3
Global
350
8436
  0
DICTIONARY
  5
847A
102
{ACAD_REACTORS
330
8421
102
}
330
8421
100
AcDbDictionary
281
     1
  3
Standard
350
847B
  0
DICTIONARY
  5
8473
102
{ACAD_REACTORS
330
8421
102
}
330
8421
100
AcDbDictionary
281
     1
  3
Standard
350
8474
  0
DICTIONARY
  5
8475
102
{ACAD_REACTORS
330
8421
102
}
330
8421
100
AcDbDictionary
281
     1
  0
ACDBDICTIONARYWDFLT
  5
8423
102
{ACAD_REACTORS
330
8421
102
}
330
8421
100
AcDbDictionary
281
     1
  3
Normal
350
8424
100
AcDbDictionaryWithDefault
340
8424
  0
DICTIONARY
  5
8457
102
{ACAD_REACTORS
330
8421
102
}
330
8421
100
AcDbDictionary
281
     1
  3
A0
350
8458
  3
A1
350
8459
  3
A2
350
845A
  3
A3
350
845B
  3
A4
350
845C
  3
A5
350
845D
  3
A6
350
845E
  3
A7
350
845F
  3
A8
350
8460
  3
A9
350
8461
  3
B0
350
8462
  3
B1
350
8463
  3
B2
350
8464
  3
B3
350
8465
  3
B4
350
8466
  3
B5
350
8467
  3
B6
350
8468
  0
DICTIONARY
  5
847C
102
{ACAD_REACTORS
330
8421
102
}
330
8421
100
AcDbDictionary
281
     1
  3
Imperial24
350
847D
  0
DICTIONARY
  5
8478
102
{ACAD_REACTORS
330
8421
102
}
330
8421
100
AcDbDictionary
281
     1
  3
Standard
350
8479
  0
DICTIONARY
  5
843E
102
{ACAD_REACTORS
330
8421
102
}
330
8421
100
AcDbDictionary
281
     1
  3
2dWireframe
350
8444
  3
Basic
350
8443
  3
Brighten
350
844A
  3
ColorChange
350
844E
  3
Conceptual
350
8447
  3
Dim
350
8449
  3
EdgeColorOff
350
8456
  3
Facepattern
350
844D
  3
Flat
350
843F
  3
FlatWithEdges
350
8440
  3
Gouraud
350
8441
  3
GouraudWithEdges
350
8442
  3
Hidden
350
8446
  3
JitterOff
350
8454
  3
Linepattern
350
844C
  3
OverhangOff
350
8455
  3
Realistic
350
8448
  3
Shaded
350
8453
  3
Shaded with edges
350
8452
  3
Shades of Gray
350
844F
  3
Sketchy
350
8450
  3
Thicken
350
844B
  3
Wireframe
350
8445
  3
X-Ray
350
8451
  0
XRECORD
  5
8617
102
{ACAD_REACTORS
330
8421
102
}
330
8421
100
AcDbXrecord
280
     1
 90
        1
330
8479
  0
DICTIONARY
  5
860A
102
{ACAD_REACTORS
330
8421
102
}
330
8421
100
AcDbDictionary
281
     1
  3
CANNOSCALE
350
860F
  3
CMLEADERSTYLE
350
860C
  3
CTABLESTYLE
350
860B
  3
CVIEWDETAILSTYLE
350
860D
  3
CVIEWSECTIONSTYLE
350
860E
  3
DIMASSOC
350
8612
  3
INDEXCTL
350
8611
  3
SORTENTS
350
8610
  3
XCLIPFRAME
350
8613
  0
XRECORD
  5
8618
102
{ACAD_REACTORS
330
8421
102
}
330
8421
100
AcDbXrecord
280
     1
  1
DWGPROPS COOKIE
  2

  3

  4

  6

  7

  8
yasukiyo.ogawa
  9

300
=
301
=
302
=
303
=
304
=
305
=
306
=
307
=
308
=
309
=
 40
0.0227256597222222
 41
2451389.471649768
 42
2460269.591149815
  1

 90
        0
  0
XRECORD
  5
8601
102
{ACAD_REACTORS
330
8600
102
}
330
8600
100
AcDbXrecord
280
     1
290
     1
  0
XRECORD
  5
8603
102
{ACAD_REACTORS
330
8602
102
}
330
8602
100
AcDbXrecord
280
     1
290
     1
  0
XRECORD
  5
8605
102
{ACAD_REACTORS
330
8604
102
}
330
8604
100
AcDbXrecord
280
     1
290
     1
  0
XRECORD
  5
8607
102
{ACAD_REACTORS
330
8606
102
}
330
8606
100
AcDbXrecord
280
     1
290
     1
  0
XRECORD
  5
8609
102
{ACAD_REACTORS
330
8608
102
}
330
8608
100
AcDbXrecord
280
     1
290
     1
  0
SORTENTSTABLE
  5
850A
102
{ACAD_REACTORS
330
8509
102
}
330
8509
100
AcDbSortentsTable
330
8484
331
7D20
  5
7F52
331
7F51
  5
7F53
331
7C88
  5
7C8B
331
7F62
  5
7F64
331
7C99
  5
7C9B
331
84DC
  5
8508
331
7CDC
  5
7CE2
331
7CCB
  5
7CD0
331
7CBA
  5
7CBC
331
7CAA
  5
7CAC
331
7D0F
  5
7D11
331
7CFE
  5
7D00
331
7C4D
  5
7C4F
331
7C3C
  5
7C3C
331
7D10
  5
7D12
331
7F52
  5
7F56
331
7C70
  5
7C73
331
7F63
  5
7F65
331
7C9A
  5
7C9C
331
7CBB
  5
7CBD
331
7CAB
  5
7CAD
331
7CEE
  5
7CF0
331
7CFF
  5
7D01
331
7C4E
  5
7C51
331
7C3D
  5
7C3D
331
7D11
  5
7D13
331
7D00
  5
7D02
331
7F53
  5
7F57
331
7C8A
  5
7C8C
331
7C71
  5
7C75
331
7F64
  5
7F66
331
7CBC
  5
7CBE
331
7CAC
  5
7CAE
331
7CEF
  5
7CF2
331
7C4F
  5
7C53
331
7C3E
  5
7C3E
331
7D12
  5
7D14
331
7D01
  5
7D03
331
7CF0
  5
7CF4
331
7F65
  5
7F67
331
7C8B
  5
7C8D
331
824E
  5
84CF
331
7CAD
  5
7CAF
331
7CBD
  5
7CBF
331
8232
  5
824E
331
7C3F
  5
7C3F
331
7D13
  5
7D15
331
7D02
  5
7D04
331
7C51
  5
7C54
331
7F66
  5
7F68
331
7C9D
  5
7C9F
331
7C8C
  5
7C90
331
7C73
  5
7C76
331
7CCF
  5
7CD1
331
7CBE
  5
7CC0
331
7CAE
  5
7CB0
331
7C40
  5
7C40
331
7CE1
  5
7CE3
331
7CD0
  5
7CD2
331
7D14
  5
7D16
331
7D03
  5
7D05
331
7CF2
  5
7CF5
331
7F56
  5
7F58
331
7C8D
  5
7C91
331
7F67
  5
7F69
331
7C9E
  5
7CA0
331
7CBF
  5
7CC1
331
7CAF
  5
7CB1
331
7C41
  5
7C41
331
7CD1
  5
7CD3
331
7CC0
  5
7CC3
331
7CE2
  5
7CE4
331
7D04
  5
7D06
331
7C53
  5
7C56
331
7D15
  5
7D1D
331
7C64
  5
7C67
331
7F57
  5
7F59
331
7C75
  5
7C77
331
7F68
  5
7F6A
331
7C9F
  5
7CA1
331
7C42
  5
7C42
331
7C31
  5
7C31
331
7CE3
  5
7CE5
331
7CD2
  5
7CD4
331
7CC1
  5
7CC4
331
7CB0
  5
7CB2
331
7D16
  5
7D1E
331
7D05
  5
7D07
331
7C54
  5
7C57
331
7F58
  5
7F5A
331
7C76
  5
7C82
331
8225
  5
823F
331
7F69
  5
7F6B
331
7CA0
  5
7CA2
331
7C43
  5
7C43
331
7CD3
  5
7CD5
331
7CB1
  5
7CB3
331
7CE4
  5
7CE6
331
7D06
  5
7D08
331
7CF5
  5
7CF7
331
7F59
  5
7F5B
331
7C90
  5
7C92
331
7C77
  5
7C83
331
7C66
  5
7C6C
331
7F6A
  5
7F6C
331
7CA1
  5
7CA3
331
7C44
  5
7C44
331
7C33
  5
7C33
331
825B
  5
84DC
331
7CC3
  5
7CC5
331
7CB2
  5
7CB4
331
7CD4
  5
7CD6
331
7CE5
  5
7CE7
331
7CF6
  5
7CF8
331
7D07
  5
7D09
331
7C56
  5
7C5A
331
7F5A
  5
7F5D
331
7C91
  5
7C93
331
7C67
  5
7C70
331
7F6B
  5
7F6D
331
7CA2
  5
7CA4
331
7C45
  5
7C45
331
7C34
  5
7C34
331
7CD5
  5
7CD7
331
7CC4
  5
7CC9
331
7CB3
  5
7CB5
331
7CE6
  5
7CE8
331
7CF7
  5
7CF9
331
7D08
  5
7D0A
331
7C57
  5
7C5C
331
7F5B
  5
7F5E
331
7C92
  5
7C94
331
7F6C
  5
7F6E
331
7CA3
  5
7CA5
331
7C46
  5
7C46
331
7C35
  5
7C35
331
8218
  5
8232
331
7CD6
  5
7CD8
331
7CC5
  5
7CCA
331
7CB4
  5
7CB6
331
7CE7
  5
7CE9
331
7D09
  5
7D0B
331
7CF8
  5
7CFA
331
7F6D
  5
7F6F
331
7CA4
  5
7CA6
331
7C93
  5
7C95
331
7C82
  5
7C84
331
7C47
  5
7C47
331
7C36
  5
7C36
331
7CD7
  5
7CD9
331
7CB5
  5
7CB7
331
7D0A
  5
7D0C
331
7CF9
  5
7CFB
331
7F5D
  5
7F5F
331
7C83
  5
7C85
331
7F6E
  5
8218
331
7CA5
  5
7CA7
331
7C48
  5
7C48
331
7C37
  5
7C37
331
84E9
  5
850B
331
7CD8
  5
7CDA
331
7CB6
  5
7CB8
331
7CFA
  5
7CFC
331
7D0B
  5
7D0D
331
7C5A
  5
7C5D
331
7F5E
  5
7F60
331
7C84
  5
7C86
331
7F6F
  5
8225
331
7CA6
  5
7CA8
331
7C49
  5
7C49
331
7C38
  5
7C38
331
7CD9
  5
7CDB
331
7CB7
  5
7CB9
331
7D0C
  5
7D0E
331
7CFB
  5
7CFD
331
7D1D
  5
7D1F
331
7C6C
  5
7C71
331
7F5F
  5
7F61
331
7C85
  5
7C87
331
7CA7
  5
7CA9
331
7C4A
  5
7C4A
331
7C39
  5
7C39
331
7F60
  5
7F62
331
84CF
  5
84E9
331
7CA8
  5
7CAA
331
7CDA
  5
7CDC
331
7CC9
  5
7CCB
331
7CB8
  5
7CBA
331
7CFC
  5
7CFE
331
7D1E
  5
7D20
331
7D0D
  5
7D0F
331
7C5C
  5
7C64
331
7C97
  5
7C99
331
7C86
  5
7C88
331
7C4B
  5
7C4B
331
7C3A
  5
7C3A
331
7F61
  5
7F63
331
7C98
  5
7C9A
331
823F
  5
825B
331
7CA9
  5
7CAB
331
7CDB
  5
7CE1
331
7CCA
  5
7CCF
331
7CB9
  5
7CBB
331
7CFD
  5
7CFF
331
7C4C
  5
7C4E
331
7D1F
  5
7F51
331
7D0E
  5
7D10
331
7C5D
  5
7C66
331
7C87
  5
7C8A
331
7C3B
  5
7C3B
  0
ACDBDETAILVIEWSTYLE
  5
847F
102
{ACAD_XDICTIONARY
360
8650
102
}
102
{ACAD_REACTORS
330
847E
102
}
330
847E
100
AcDbModelDocViewStyle
 70
     0
  3
Imperial24
290
     0
100
AcDbDetailViewStyle
 70
     0
 71
     0
 90
        3
 71
     1
340
846A
 40
0.24
340
0
 40
0.24
300

 40
0.36
280
     3
 71
     2
340
8471
 90
       25
 71
     3
340
846A
 40
0.24
 90
        1
 40
0.75
 90
        1
300
%<\AcVar ViewType \f "%tc1">% %<\AcVar ViewDetailId>%\PSCALE %<\AcVar ViewScale \f "%sn">%
 71
     4
340
8471
 90
       25
340
8471
 90
       25
280
     0
  0
LAYOUT
  5
8487
102
{ACAD_XDICTIONARY
360
8654
102
}
102
{ACAD_REACTORS
330
8476
102
}
330
8476
100
AcDbPlotSettings
  1

  2
RICOH imagio MP W3600 RPCS
  4

  6

 40
0.0
 41
0.0
 42
0.0
 43
0.0
 44
0.0
 45
0.0
 46
0.0
 47
0.0
 48
0.0
 49
0.0
140
0.0
141
0.0
142
1.0
143
1.0
 70
  1712
 72
     0
 73
     0
 74
     0
  7

 75
     0
147
1.0
148
0.0
149
0.0
100
AcDbLayout
  1
Model
 70
     1
 71
     0
 10
0.0
 20
0.0
 11
12.0
 21
9.0
 12
0.0
 22
0.0
 32
0.0
 14
0.0
 24
0.0
 34
0.0
 15
0.0
 25
0.0
 35
0.0
146
0.0
 13
0.0
 23
0.0
 33
0.0
 16
1.0
 26
0.0
 36
0.0
 17
0.0
 27
1.0
 37
0.0
 76
     0
330
8484
331
8489
  0
LAYOUT
  5
8483
102
{ACAD_XDICTIONARY
360
8652
102
}
102
{ACAD_REACTORS
330
8476
102
}
330
8476
100
AcDbPlotSettings
  1

  2
RICOH imagio MP W3600 RPCS
  4

  6

 40
0.0
 41
0.0
 42
0.0
 43
0.0
 44
0.0
 45
0.0
 46
0.0
 47
0.0
 48
0.0
 49
0.0
140
0.0
141
0.0
142
1.0
143
1.0
 70
   688
 72
     0
 73
     0
 74
     5
  7

 75
    16
147
1.0
148
0.0
149
0.0
100
AcDbLayout
  1
レイアウト1
 70
     1
 71
     1
 10
0.0
 20
0.0
 11
12.0
 21
9.0
 12
0.0
 22
0.0
 32
0.0
 14
1.000000000000000E+20
 24
1.000000000000000E+20
 34
1.000000000000000E+20
 15
-1.000000000000000E+20
 25
-1.000000000000000E+20
 35
-1.000000000000000E+20
146
0.0
 13
0.0
 23
0.0
 33
0.0
 16
1.0
 26
0.0
 36
0.0
 17
0.0
 27
1.0
 37
0.0
 76
     0
330
8480
  0
MATERIAL
  5
842E
102
{ACAD_XDICTIONARY
360
842F
102
}
102
{ACAD_REACTORS
330
8425
102
}
330
8425
100
AcDbMaterial
  1
ByBlock
 72
     0
 43
0.0208333333333333
 43
0.0
 43
0.0
 43
0.0
 43
0.0
 43
0.0208333333333333
 43
0.0
 43
0.0
 43
0.0
 43
0.0
 43
1.0
 43
0.0
 43
0.0
 43
0.0
 43
0.0
 43
1.0
 77
     0
 47
0.0208333333333333
 47
0.0
 47
0.0
 47
0.0
 47
0.0
 47
0.0208333333333333
 47
0.0
 47
0.0
 47
0.0
 47
0.0
 47
1.0
 47
0.0
 47
0.0
 47
0.0
 47
0.0
 47
1.0
171
     0
 49
0.0208333333333333
 49
0.0
 49
0.0
 49
0.0
 49
0.0
 49
0.0208333333333333
 49
0.0
 49
0.0
 49
0.0
 49
0.0
 49
1.0
 49
0.0
 49
0.0
 49
0.0
 49
0.0
 49
1.0
175
     0
142
0.0208333333333333
142
0.0
142
0.0
142
0.0
142
0.0
142
0.0208333333333333
142
0.0
142
0.0
142
0.0
142
0.0
142
1.0
142
0.0
142
0.0
142
0.0
142
0.0
142
1.0
179
     0
144
0.0208333333333333
144
0.0
144
0.0
144
0.0
144
0.0
144
0.0208333333333333
144
0.0
144
0.0
144
0.0
144
0.0
144
1.0
144
0.0
144
0.0
144
0.0
144
0.0
144
1.0
147
0.0208333333333333
147
0.0
147
0.0
147
0.0
147
0.0
147
0.0208333333333333
147
0.0
147
0.0
147
0.0
147
0.0
147
1.0
147
0.0
147
0.0
147
0.0
147
0.0
147
1.0
  0
MATERIAL
  5
8426
102
{ACAD_XDICTIONARY
360
8427
102
}
102
{ACAD_REACTORS
330
8425
102
}
330
8425
100
AcDbMaterial
  1
ByLayer
 72
     0
 43
0.0208333333333333
 43
0.0
 43
0.0
 43
0.0
 43
0.0
 43
0.0208333333333333
 43
0.0
 43
0.0
 43
0.0
 43
0.0
 43
1.0
 43
0.0
 43
0.0
 43
0.0
 43
0.0
 43
1.0
 77
     0
 47
0.0208333333333333
 47
0.0
 47
0.0
 47
0.0
 47
0.0
 47
0.0208333333333333
 47
0.0
 47
0.0
 47
0.0
 47
0.0
 47
1.0
 47
0.0
 47
0.0
 47
0.0
 47
0.0
 47
1.0
171
     0
 49
0.0208333333333333
 49
0.0
 49
0.0
 49
0.0
 49
0.0
 49
0.0208333333333333
 49
0.0
 49
0.0
 49
0.0
 49
0.0
 49
1.0
 49
0.0
 49
0.0
 49
0.0
 49
0.0
 49
1.0
175
     0
142
0.0208333333333333
142
0.0
142
0.0
142
0.0
142
0.0
142
0.0208333333333333
142
0.0
142
0.0
142
0.0
142
0.0
142
1.0
142
0.0
142
0.0
142
0.0
142
0.0
142
1.0
179
     0
144
0.0208333333333333
144
0.0
144
0.0
144
0.0
144
0.0
144
0.0208333333333333
144
0.0
144
0.0
144
0.0
144
0.0
144
1.0
144
0.0
144
0.0
144
0.0
144
0.0
144
1.0
147
0.0208333333333333
147
0.0
147
0.0
147
0.0
147
0.0
147
0.0208333333333333
147
0.0
147
0.0
147
0.0
147
0.0
147
1.0
147
0.0
147
0.0
147
0.0
147
0.0
147
1.0
  0
MATERIAL
  5
8436
102
{ACAD_XDICTIONARY
360
8437
102
}
102
{ACAD_REACTORS
330
8425
102
}
330
8425
100
AcDbMaterial
  1
Global
 72
     0
 43
0.0208333333333333
 43
0.0
 43
0.0
 43
0.0
 43
0.0
 43
0.0208333333333333
 43
0.0
 43
0.0
 43
0.0
 43
0.0
 43
1.0
 43
0.0
 43
0.0
 43
0.0
 43
0.0
 43
1.0
 77
     0
 47
0.0208333333333333
 47
0.0
 47
0.0
 47
0.0
 47
0.0
 47
0.0208333333333333
 47
0.0
 47
0.0
 47
0.0
 47
0.0
 47
1.0
 47
0.0
 47
0.0
 47
0.0
 47
0.0
 47
1.0
171
     0
 49
0.0208333333333333
 49
0.0
 49
0.0
 49
0.0
 49
0.0
 49
0.0208333333333333
 49
0.0
 49
0.0
 49
0.0
 49
0.0
 49
1.0
 49
0.0
 49
0.0
 49
0.0
 49
0.0
 49
1.0
175
     0
142
0.0208333333333333
142
0.0
142
0.0
142
0.0
142
0.0
142
0.0208333333333333
142
0.0
142
0.0
142
0.0
142
0.0
142
1.0
142
0.0
142
0.0
142
0.0
142
0.0
142
1.0
179
     0
144
0.0208333333333333
144
0.0
144
0.0
144
0.0
144
0.0
144
0.0208333333333333
144
0.0
144
0.0
144
0.0
144
0.0
144
1.0
144
0.0
144
0.0
144
0.0
144
0.0
144
1.0
147
0.0208333333333333
147
0.0
147
0.0
147
0.0
147
0.0
147
0.0208333333333333
147
0.0
147
0.0
147
0.0
147
0.0
147
1.0
147
0.0
147
0.0
147
0.0
147
0.0
147
1.0
  0
MLEADERSTYLE
  5
847B
102
{ACAD_REACTORS
330
847A
102
}
330
847A
100
AcDbMLeaderStyle
170
     2
171
     1
172
     0
 90
        2
 40
0.0
 41
0.0
173
     1
 91
-1056964608
340
846F
 92
       -2
290
     1
 42
0.09
291
     1
 43
0.36
  3
Standard
 44
0.18
300

342
846A
174
     1
178
     6
175
     1
176
     0
 93
-1056964608
 45
0.18
292
     0
297
     0
 46
0.18
 94
-1056964608
 47
1.0
 49
1.0
140
1.0
293
     1
141
0.0
294
     1
177
     0
142
1.0
295
     0
296
     0
143
0.125
1001
ACAD_MLEADERVER
1070
     2
  0
MLINESTYLE
  5
8474
102
{ACAD_REACTORS
330
8473
102
}
330
8473
100
AcDbMlineStyle
  2
STANDARD
 70
     0
  3

 62
   256
 51
90.0
 52
90.0
 71
     2
 49
0.5
 62
   256
  6
BYLAYER
 49
-0.5
 62
   256
  6
BYLAYER
  0
ACDBPLACEHOLDER
  5
8424
102
{ACAD_REACTORS
330
8423
102
}
330
8423
  0
SCALE
  5
8458
102
{ACAD_REACTORS
330
8457
102
}
330
8457
100
AcDbScale
 70
     0
300
1:1
140
1.0
141
1.0
290
     1
  0
SCALE
  5
8459
102
{ACAD_REACTORS
330
8457
102
}
330
8457
100
AcDbScale
 70
     0
300
1/128" = 1'-0"
140
0.0078125
141
12.0
290
     0
  0
SCALE
  5
845A
102
{ACAD_REACTORS
330
8457
102
}
330
8457
100
AcDbScale
 70
     0
300
1/64" = 1'-0"
140
0.015625
141
12.0
290
     0
  0
SCALE
  5
845B
102
{ACAD_REACTORS
330
8457
102
}
330
8457
100
AcDbScale
 70
     0
300
1/32" = 1'-0"
140
0.03125
141
12.0
290
     0
  0
SCALE
  5
845C
102
{ACAD_REACTORS
330
8457
102
}
330
8457
100
AcDbScale
 70
     0
300
1/16" = 1'-0"
140
0.0625
141
12.0
290
     0
  0
SCALE
  5
845D
102
{ACAD_REACTORS
330
8457
102
}
330
8457
100
AcDbScale
 70
     0
300
3/32" = 1'-0"
140
0.09375
141
12.0
290
     0
  0
SCALE
  5
845E
102
{ACAD_REACTORS
330
8457
102
}
330
8457
100
AcDbScale
 70
     0
300
1/8" = 1'-0"
140
0.125
141
12.0
290
     0
  0
SCALE
  5
845F
102
{ACAD_REACTORS
330
8457
102
}
330
8457
100
AcDbScale
 70
     0
300
3/16" = 1'-0"
140
0.1875
141
12.0
290
     0
  0
SCALE
  5
8460
102
{ACAD_REACTORS
330
8457
102
}
330
8457
100
AcDbScale
 70
     0
300
1/4" = 1'-0"
140
0.25
141
12.0
290
     0
  0
SCALE
  5
8461
102
{ACAD_REACTORS
330
8457
102
}
330
8457
100
AcDbScale
 70
     0
300
3/8" = 1'-0"
140
0.375
141
12.0
290
     0
  0
SCALE
  5
8462
102
{ACAD_REACTORS
330
8457
102
}
330
8457
100
AcDbScale
 70
     0
300
1/2" = 1'-0"
140
0.5
141
12.0
290
     0
  0
SCALE
  5
8463
102
{ACAD_REACTORS
330
8457
102
}
330
8457
100
AcDbScale
 70
     0
300
3/4" = 1'-0"
140
0.75
141
12.0
290
     0
  0
SCALE
  5
8464
102
{ACAD_REACTORS
330
8457
102
}
330
8457
100
AcDbScale
 70
     0
300
1" = 1'-0"
140
1.0
141
12.0
290
     0
  0
SCALE
  5
8465
102
{ACAD_REACTORS
330
8457
102
}
330
8457
100
AcDbScale
 70
     0
300
1-1/2" = 1'-0"
140
1.5
141
12.0
290
     0
  0
SCALE
  5
8466
102
{ACAD_REACTORS
330
8457
102
}
330
8457
100
AcDbScale
 70
     0
300
3" = 1'-0"
140
3.0
141
12.0
290
     0
  0
SCALE
  5
8467
102
{ACAD_REACTORS
330
8457
102
}
330
8457
100
AcDbScale
 70
     0
300
6" = 1'-0"
140
6.0
141
12.0
290
     0
  0
SCALE
  5
8468
102
{ACAD_REACTORS
330
8457
102
}
330
8457
100
AcDbScale
 70
     0
300
1'-0" = 1'-0"
140
12.0
141
12.0
290
     0
  0
ACDBSECTIONVIEWSTYLE
  5
847D
102
{ACAD_XDICTIONARY
360
864E
102
}
102
{ACAD_REACTORS
330
847C
102
}
330
847C
100
AcDbModelDocViewStyle
 70
     0
  3
Imperial24
290
     0
100
AcDbSectionViewStyle
 70
     0
 71
     0
 90
       78
 71
     1
340
846A
 40
0.24
340
0
340
0
 40
0.24
300
I, O, Q, S, X, Z
 40
0.48
 90
        3
 40
0.18
 90
        1
 71
     2
340
8471
 90
       25
340
8471
 90
       50
 40
0.24
 40
0.0
 40
0.24
 71
     3
340
846A
 40
0.24
 90
        1
 40
0.75
 90
        1
300
%<\AcVar ViewType \f "%tc1">% %<\AcVar ViewSectionStartId>%-%<\AcVar ViewSectionEndId>%\PSCALE %<\AcVar ViewScale \f "%sn">%
 71
     4
300
ANSI31
 40
1.0
 90
        0
290
     0
290
     0
 90
        6
 40
0.0
 40
1.570796326794896
 40
0.2617993877991494
 40
1.308996938995747
 40
-0.2617993877991494
 40
1.832595714594046
  0
TABLESTYLE
  5
8479
102
{ACAD_XDICTIONARY
360
8615
102
}
102
{ACAD_REACTORS
330
8478
102
}
330
8478
100
AcDbTableStyle
  3
Standard
 70
     0
 71
     0
 40
0.06
 41
0.06
280
     0
281
     0
  7
STANDARD
140
0.18
170
     2
 62
     0
 63
     7
283
     0
274
    -2
284
     1
 64
     0
275
    -2
285
     1
 65
     0
276
    -2
286
     1
 66
     0
277
    -2
287
     1
 67
     0
278
    -2
288
     1
 68
     0
279
    -2
289
     1
 69
     0
  7
STANDARD
140
0.25
170
     5
 62
     0
 63
     7
283
     0
274
    -2
284
     1
 64
     0
275
    -2
285
     1
 65
     0
276
    -2
286
     1
 66
     0
277
    -2
287
     1
 67
     0
278
    -2
288
     1
 68
     0
279
    -2
289
     1
 69
     0
  7
STANDARD
140
0.18
170
     5
 62
     0
 63
     7
283
     0
274
    -2
284
     1
 64
     0
275
    -2
285
     1
 65
     0
276
    -2
286
     1
 66
     0
277
    -2
287
     1
 67
     0
278
    -2
288
     1
 68
     0
279
    -2
289
     1
 69
     0
  0
VISUALSTYLE
  5
8444
102
{ACAD_XDICTIONARY
360
8626
102
}
102
{ACAD_REACTORS
330
843E
102
}
330
843E
100
AcDbVisualStyle
  2
2dWireframe
 70
     4
 71
     0
 72
     2
 73
     0
 90
        0
 40
-0.6
 41
-30.0
 62
     5
 63
     7
 74
     1
 91
        4
 64
     7
 65
   257
 75
     1
175
     1
 42
1.0
 92
        0
 66
   257
 43
1.0
 76
     1
 77
     6
 78
     2
 67
     7
 79
     5
170
     0
171
     0
290
     0
174
     0
 93
        1
 44
0.0
173
     0
291
     0
 45
0.0
1001
ACAD
1000
AcDbSavedByObjectVersion
1070
     0
  0
VISUALSTYLE
  5
8443
102
{ACAD_XDICTIONARY
360
8624
102
}
102
{ACAD_REACTORS
330
843E
102
}
330
843E
100
AcDbVisualStyle
  2
Basic
 70
     7
 71
     1
 72
     0
 73
     1
 90
        0
 40
-0.6
 41
-30.0
 62
     5
 63
     7
 74
     0
 91
        4
 64
     7
 65
   257
 75
     1
175
     1
 42
1.0
 92
        8
 66
     7
 43
1.0
 76
     1
 77
     6
 78
     2
 67
     7
 79
     5
170
     0
171
     0
290
     0
174
     0
 93
        1
 44
0.0
173
     0
291
     1
 45
0.0
1001
ACAD
1000
AcDbSavedByObjectVersion
1070
     0
  0
VISUALSTYLE
  5
844A
102
{ACAD_XDICTIONARY
360
8632
102
}
102
{ACAD_REACTORS
330
843E
102
}
330
843E
100
AcDbVisualStyle
  2
Brighten
 70
    12
 71
     2
 72
     2
 73
     0
 90
        0
 40
-0.6
 41
-30.0
 62
     5
 63
     7
 74
     1
 91
        4
 64
     7
 65
   257
 75
     1
175
     1
 42
1.0
 92
        8
 66
     7
 43
1.0
 76
     1
 77
     6
 78
     2
 67
     7
 79
     5
170
     0
171
     0
290
     0
174
     0
 93
        1
 44
50.0
173
     0
291
     1
 45
0.0
1001
ACAD
1000
AcDbSavedByObjectVersion
1070
     0
  0
VISUALSTYLE
  5
844E
102
{ACAD_XDICTIONARY
360
863A
102
}
102
{ACAD_REACTORS
330
843E
102
}
330
843E
100
AcDbVisualStyle
  2
ColorChange
 70
    16
 71
     2
 72
     2
 73
     3
 90
        0
 40
-0.6
 41
-30.0
 62
     5
 63
     8
 74
     1
 91
        4
 64
     7
 65
   257
 75
     1
175
     1
 42
1.0
 92
        8
 66
     8
 43
1.0
 76
     1
 77
     6
 78
     2
 67
     7
 79
     5
170
     0
171
     0
290
     0
174
     0
 93
        1
 44
0.0
173
     0
291
     1
 45
0.0
1001
ACAD
1000
AcDbSavedByObjectVersion
1070
     0
  0
VISUALSTYLE
  5
8447
102
{ACAD_XDICTIONARY
360
862C
102
}
102
{ACAD_REACTORS
330
843E
102
}
330
843E
100
AcDbVisualStyle
  2
Conceptual
 70
     9
 71
     3
 72
     2
 73
     0
 90
        0
 40
-0.6
 41
-30.0
 62
     5
 63
     7
 74
     2
 91
        2
 64
     7
 65
   257
 75
     1
175
     1
 42
179.0
 92
        8
 66
     7
 43
1.0
 76
     1
 77
     6
 78
     2
 67
     7
 79
     3
170
     0
171
     0
290
     0
174
     0
 93
        1
 44
0.0
173
     0
291
     0
 45
0.0
1001
ACAD
1000
AcDbSavedByObjectVersion
1070
     0
  0
VISUALSTYLE
  5
8449
102
{ACAD_XDICTIONARY
360
8630
102
}
102
{ACAD_REACTORS
330
843E
102
}
330
843E
100
AcDbVisualStyle
  2
Dim
 70
    11
 71
     2
 72
     2
 73
     0
 90
        0
 40
-0.6
 41
-30.0
 62
     5
 63
     7
 74
     1
 91
        4
 64
     7
 65
   257
 75
     1
175
     1
 42
1.0
 92
        8
 66
     7
 43
1.0
 76
     1
 77
     6
 78
     2
 67
     7
 79
     5
170
     0
171
     0
290
     0
174
     0
 93
        1
 44
-50.0
173
     0
291
     1
 45
0.0
1001
ACAD
1000
AcDbSavedByObjectVersion
1070
     0
  0
VISUALSTYLE
  5
8456
102
{ACAD_XDICTIONARY
360
864A
102
}
102
{ACAD_REACTORS
330
843E
102
}
330
843E
100
AcDbVisualStyle
  2
EdgeColorOff
 70
    22
 71
     2
 72
     2
 73
     0
 90
        0
 40
-0.6
 41
-30.0
 62
     5
 63
     7
 74
     1
 91
        4
 64
     7
 65
   257
 75
     1
175
     1
 42
1.0
 92
        8
 66
     7
 43
1.0
 76
     1
 77
     6
 78
     2
 67
     7
 79
     5
170
     0
171
     0
290
     0
174
     0
 93
        1
 44
0.0
173
     0
291
     1
 45
0.0
1001
ACAD
1000
AcDbSavedByObjectVersion
1070
     0
  0
VISUALSTYLE
  5
844D
102
{ACAD_XDICTIONARY
360
8638
102
}
102
{ACAD_REACTORS
330
843E
102
}
330
843E
100
AcDbVisualStyle
  2
Facepattern
 70
    15
 71
     2
 72
     2
 73
     0
 90
        0
 40
-0.6
 41
-30.0
 62
     5
 63
     7
 74
     1
 91
        4
 64
     7
 65
   257
 75
     1
175
     1
 42
1.0
 92
        8
 66
     7
 43
1.0
 76
     1
 77
     6
 78
     2
 67
     7
 79
     5
170
     0
171
     0
290
     0
174
     0
 93
        1
 44
0.0
173
     0
291
     1
 45
0.0
1001
ACAD
1000
AcDbSavedByObjectVersion
1070
     0
  0
VISUALSTYLE
  5
843F
102
{ACAD_XDICTIONARY
360
861C
102
}
102
{ACAD_REACTORS
330
843E
102
}
330
843E
100
AcDbVisualStyle
  2
Flat
 70
     0
 71
     2
 72
     1
 73
     1
 90
        2
 40
-0.6
 41
30.0
 62
     5
 63
     7
 74
     0
 91
        0
 64
     7
 65
   257
 75
     1
175
     1
 42
1.0
 92
        8
 66
     7
 43
1.0
 76
     1
 77
     6
 78
     2
 67
     7
 79
     5
170
     0
171
     0
290
     0
174
     0
 93
       13
 44
0.0
173
     0
291
     1
 45
0.0
1001
ACAD
1000
AcDbSavedByObjectVersion
1070
     0
  0
VISUALSTYLE
  5
8440
102
{ACAD_XDICTIONARY
360
861E
102
}
102
{ACAD_REACTORS
330
843E
102
}
330
843E
100
AcDbVisualStyle
  2
FlatWithEdges
 70
     1
 71
     2
 72
     1
 73
     1
 90
        2
 40
-0.6
 41
30.0
 62
     5
 63
     7
 74
     1
 91
        0
 64
     7
 65
   257
 75
     1
175
     1
 42
1.0
 92
        0
 66
   257
 43
1.0
 76
     1
 77
     6
 78
     2
 67
     7
 79
     5
170
     0
171
     0
290
     0
174
     0
 93
       13
 44
0.0
173
     0
291
     1
 45
0.0
1001
ACAD
1000
AcDbSavedByObjectVersion
1070
     0
  0
VISUALSTYLE
  5
8441
102
{ACAD_XDICTIONARY
360
8620
102
}
102
{ACAD_REACTORS
330
843E
102
}
330
843E
100
AcDbVisualStyle
  2
Gouraud
 70
     2
 71
     2
 72
     2
 73
     1
 90
        2
 40
-0.6
 41
30.0
 62
     5
 63
     7
 74
     0
 91
        0
 64
     7
 65
   257
 75
     1
175
     1
 42
1.0
 92
        0
 66
     7
 43
1.0
 76
     1
 77
     6
 78
     2
 67
     7
 79
     5
170
     0
171
     0
290
     0
174
     0
 93
       13
 44
0.0
173
     0
291
     1
 45
0.0
1001
ACAD
1000
AcDbSavedByObjectVersion
1070
     0
  0
VISUALSTYLE
  5
8442
102
{ACAD_XDICTIONARY
360
8622
102
}
102
{ACAD_REACTORS
330
843E
102
}
330
843E
100
AcDbVisualStyle
  2
GouraudWithEdges
 70
     3
 71
     2
 72
     2
 73
     1
 90
        2
 40
-0.6
 41
30.0
 62
     5
 63
     7
 74
     1
 91
        0
 64
     7
 65
   257
 75
     1
175
     1
 42
1.0
 92
        0
 66
   257
 43
1.0
 76
     1
 77
     6
 78
     2
 67
     7
 79
     5
170
     0
171
     0
290
     0
174
     0
 93
       13
 44
0.0
173
     0
291
     1
 45
0.0
1001
ACAD
1000
AcDbSavedByObjectVersion
1070
     0
  0
VISUALSTYLE
  5
8446
102
{ACAD_XDICTIONARY
360
862A
102
}
102
{ACAD_REACTORS
330
843E
102
}
330
843E
100
AcDbVisualStyle
  2
Hidden
 70
     6
 71
     1
 72
     2
 73
     2
 90
        0
 40
-0.6
 41
-30.0
 62
     5
 63
     7
 74
     2
 91
        2
 64
     7
 65
   257
 75
     2
175
     1
 42
40.0
 92
        0
 66
   257
 43
1.0
 76
     1
 77
     6
 78
     2
 67
     7
 79
     3
170
     0
171
     0
290
     0
174
     0
 93
        1
 44
0.0
173
     0
291
     0
 45
0.0
1001
ACAD
1000
AcDbSavedByObjectVersion
1070
     0
  0
VISUALSTYLE
  5
8454
102
{ACAD_XDICTIONARY
360
8646
102
}
102
{ACAD_REACTORS
330
843E
102
}
330
843E
100
AcDbVisualStyle
  2
JitterOff
 70
    20
 71
     2
 72
     2
 73
     0
 90
        0
 40
-0.6
 41
-30.0
 62
     5
 63
     7
 74
     1
 91
        4
 64
     7
 65
   257
 75
     1
175
     1
 42
1.0
 92
       10
 66
     7
 43
1.0
 76
     1
 77
     6
 78
     2
 67
     7
 79
     5
170
     0
171
     0
290
     0
174
     0
 93
        1
 44
0.0
173
     0
291
     1
 45
0.0
1001
ACAD
1000
AcDbSavedByObjectVersion
1070
     0
  0
VISUALSTYLE
  5
844C
102
{ACAD_XDICTIONARY
360
8636
102
}
102
{ACAD_REACTORS
330
843E
102
}
330
843E
100
AcDbVisualStyle
  2
Linepattern
 70
    14
 71
     2
 72
     2
 73
     0
 90
        0
 40
-0.6
 41
-30.0
 62
     5
 63
     7
 74
     1
 91
        4
 64
     7
 65
   257
 75
     7
175
     7
 42
1.0
 92
        8
 66
     7
 43
1.0
 76
     1
 77
     6
 78
     2
 67
     7
 79
     5
170
     0
171
     0
290
     0
174
     0
 93
        1
 44
0.0
173
     0
291
     1
 45
0.0
1001
ACAD
1000
AcDbSavedByObjectVersion
1070
     0
  0
VISUALSTYLE
  5
8455
102
{ACAD_XDICTIONARY
360
8648
102
}
102
{ACAD_REACTORS
330
843E
102
}
330
843E
100
AcDbVisualStyle
  2
OverhangOff
 70
    21
 71
     2
 72
     2
 73
     0
 90
        0
 40
-0.6
 41
-30.0
 62
     5
 63
     7
 74
     1
 91
        4
 64
     7
 65
   257
 75
     1
175
     1
 42
1.0
 92
        9
 66
     7
 43
1.0
 76
     1
 77
     6
 78
     2
 67
     7
 79
     5
170
     0
171
     0
290
     0
174
     0
 93
        1
 44
0.0
173
     0
291
     1
 45
0.0
1001
ACAD
1000
AcDbSavedByObjectVersion
1070
     0
  0
VISUALSTYLE
  5
8448
102
{ACAD_XDICTIONARY
360
862E
102
}
102
{ACAD_REACTORS
330
843E
102
}
330
843E
100
AcDbVisualStyle
  2
Realistic
 70
     8
 71
     2
 72
     3
 73
     0
 90
        2
 40
-0.6
 41
30.0
 62
     5
 63
     7
 74
     0
 91
        0
 64
     7
 65
   257
 75
     1
175
     1
 42
1.0
 92
        8
 66
   257
 43
1.0
 76
     1
 77
     6
 78
     2
 67
     7
 79
     3
170
     0
171
     0
290
     0
174
     0
 93
       13
 44
0.0
173
     0
291
     0
 45
0.0
1001
ACAD
1000
AcDbSavedByObjectVersion
1070
     0
  0
VISUALSTYLE
  5
8453
102
{ACAD_XDICTIONARY
360
8644
102
}
102
{ACAD_REACTORS
330
843E
102
}
330
843E
100
AcDbVisualStyle
  2
Shaded
 70
    27
 71
     2
 72
     2
 73
     1
 90
        2
 40
-0.6
 41
30.0
 62
     5
 63
     7
 74
     0
 91
        4
 64
     7
 65
   257
 75
     1
175
     1
 42
1.0
 92
        8
 66
   257
 43
1.0
 76
     1
 77
     6
 78
     2
 67
     8
 79
     3
170
     0
171
     0
290
     0
174
     0
 93
        5
 44
0.0
173
     0
291
     0
 45
0.0
1001
ACAD
1000
AcDbSavedByObjectVersion
1070
     0
  0
VISUALSTYLE
  5
8452
102
{ACAD_XDICTIONARY
360
8642
102
}
102
{ACAD_REACTORS
330
843E
102
}
330
843E
100
AcDbVisualStyle
  2
Shaded with edges
 70
    26
 71
     2
 72
     2
 73
     1
 90
        2
 40
-0.6
 41
30.0
 62
     5
 63
     7
 74
     1
 91
       10
 64
     7
 65
   257
 75
     2
175
     1
 42
1.0
 92
        8
 66
   257
 43
1.0
 76
     1
 77
     6
 78
     2
 67
     7
 79
     3
170
     0
171
     0
290
     0
174
     0
 93
        5
 44
0.0
173
     0
291
     0
 45
0.0
1001
ACAD
1000
AcDbSavedByObjectVersion
1070
     0
  0
VISUALSTYLE
  5
844F
102
{ACAD_XDICTIONARY
360
863C
102
}
102
{ACAD_REACTORS
330
843E
102
}
330
843E
100
AcDbVisualStyle
  2
Shades of Gray
 70
    23
 71
     2
 72
     2
 73
     3
 90
        0
 40
-0.6
 41
-30.0
 62
     5
 63
     7
 74
     2
 91
        2
 64
     7
 65
     7
 75
     1
175
     1
 42
40.0
 92
        8
 66
     7
 43
1.0
 76
     1
 77
     6
 78
     2
 67
     7
 79
     3
170
     0
171
     0
290
     0
174
     0
 93
        1
 44
0.0
173
     0
291
     0
 45
0.0
1001
ACAD
1000
AcDbSavedByObjectVersion
1070
     0
  0
VISUALSTYLE
  5
8450
102
{ACAD_XDICTIONARY
360
863E
102
}
102
{ACAD_REACTORS
330
843E
102
}
330
843E
100
AcDbVisualStyle
  2
Sketchy
 70
    24
 71
     1
 72
     2
 73
     2
 90
        0
 40
-0.6
 41
-30.0
 62
     5
 63
     7
 74
     2
 91
        2
 64
     7
 65
     7
 75
     1
175
     1
 42
40.0
 92
       11
 66
     7
 43
1.0
 76
     1
 77
     6
 78
     2
 67
     7
 79
     6
170
     0
171
     0
290
     0
174
     0
 93
        1
 44
0.0
173
     0
291
     0
 45
0.0
1001
ACAD
1000
AcDbSavedByObjectVersion
1070
     0
  0
VISUALSTYLE
  5
844B
102
{ACAD_XDICTIONARY
360
8634
102
}
102
{ACAD_REACTORS
330
843E
102
}
330
843E
100
AcDbVisualStyle
  2
Thicken
 70
    13
 71
     2
 72
     2
 73
     0
 90
        0
 40
-0.6
 41
-30.0
 62
     5
 63
     7
 74
     1
 91
        4
 64
     7
 65
   257
 75
     1
175
     1
 42
1.0
 92
       12
 66
     7
 43
1.0
 76
     1
 77
     6
 78
     2
 67
     7
 79
     5
170
     0
171
     0
290
     0
174
     0
 93
        1
 44
0.0
173
     0
291
     1
 45
0.0
1001
ACAD
1000
AcDbSavedByObjectVersion
1070
     0
  0
VISUALSTYLE
  5
8445
102
{ACAD_XDICTIONARY
360
8628
102
}
102
{ACAD_REACTORS
330
843E
102
}
330
843E
100
AcDbVisualStyle
  2
Wireframe
 70
     5
 71
     0
 72
     2
 73
     0
 90
        0
 40
-0.6
 41
-30.0
 62
     5
 63
     7
 74
     1
 91
        4
 64
     7
 65
   257
 75
     1
175
     1
 42
1.0
 92
        0
 66
   257
 43
1.0
 76
     1
 77
     6
 78
     2
 67
     7
 79
     3
170
     0
171
     0
290
     0
174
     0
 93
        1
 44
0.0
173
     0
291
     0
 45
0.0
1001
ACAD
1000
AcDbSavedByObjectVersion
1070
     0
  0
VISUALSTYLE
  5
8451
102
{ACAD_XDICTIONARY
360
8640
102
}
102
{ACAD_REACTORS
330
843E
102
}
330
843E
100
AcDbVisualStyle
  2
X-Ray
 70
    25
 71
     2
 72
     2
 73
     1
 90
        1
 40
0.5
 41
-30.0
 62
     5
 63
     7
 74
     1
 91
        0
 64
     7
 65
   257
 75
     1
175
     1
 42
1.0
 92
        8
 66
     7
 43
1.0
 76
     1
 77
     6
 78
     2
 67
     7
 79
     3
170
     0
171
     0
290
     0
174
     0
 93
       13
 44
0.0
173
     0
291
     0
 45
0.0
1001
ACAD
1000
AcDbSavedByObjectVersion
1070
     0
  0
DICTIONARYVAR
  5
860F
102
{ACAD_REACTORS
330
860A
102
}
330
860A
100
DictionaryVariables
280
     0
  1
1:1
  0
DICTIONARYVAR
  5
860C
102
{ACAD_REACTORS
330
860A
102
}
330
860A
100
DictionaryVariables
280
     0
  1
STANDARD
  0
DICTIONARYVAR
  5
860B
102
{ACAD_REACTORS
330
860A
102
}
330
860A
100
DictionaryVariables
280
     0
  1
STANDARD
  0
DICTIONARYVAR
  5
860D
102
{ACAD_REACTORS
330
860A
102
}
330
860A
100
DictionaryVariables
280
     0
  1
Imperial24
  0
DICTIONARYVAR
  5
860E
102
{ACAD_REACTORS
330
860A
102
}
330
860A
100
DictionaryVariables
280
     0
  1
Imperial24
  0
DICTIONARYVAR
  5
8612
102
{ACAD_REACTORS
330
860A
102
}
330
860A
100
DictionaryVariables
280
     0
  1
1
  0
DICTIONARYVAR
  5
8611
102
{ACAD_REACTORS
330
860A
102
}
330
860A
100
DictionaryVariables
280
     0
  1
0
  0
DICTIONARYVAR
  5
8610
102
{ACAD_REACTORS
330
860A
102
}
330
860A
100
DictionaryVariables
280
     0
  1
127
  0
DICTIONARYVAR
  5
8613
102
{ACAD_REACTORS
330
860A
102
}
330
860A
100
DictionaryVariables
280
     0
  1
2
  0
DICTIONARY
  5
8650
330
847F
100
AcDbDictionary
280
     1
281
     1
  3
ACAD_XREC_ROUNDTRIP
360
8651
  0
DICTIONARY
  5
8654
330
8487
100
AcDbDictionary
280
     1
281
     1
  3
ACAD_XREC_ROUNDTRIP
360
8655
  0
DICTIONARY
  5
8652
330
8483
100
AcDbDictionary
280
     1
281
     1
  3
ACAD_XREC_ROUNDTRIP
360
8653
  0
DICTIONARY
  5
842F
330
842E
100
AcDbDictionary
280
     1
281
     1
  3
ACAD_XREC_ROUNDTRIP
360
861A
  3
BUMPTILE
360
8431
  3
DIFFUSETILE
360
8430
  3
OPACITYTILE
360
8434
  3
REFLECTIONTILE
360
8433
  3
REFRACTIONTILE
360
8435
  3
SPECULARTILE
360
8432
  0
DICTIONARY
  5
8427
330
8426
100
AcDbDictionary
280
     1
281
     1
  3
ACAD_XREC_ROUNDTRIP
360
8619
  3
BUMPTILE
360
8429
  3
DIFFUSETILE
360
8428
  3
OPACITYTILE
360
842C
  3
REFLECTIONTILE
360
842B
  3
REFRACTIONTILE
360
842D
  3
SPECULARTILE
360
842A
  0
DICTIONARY
  5
8437
330
8436
100
AcDbDictionary
280
     1
281
     1
  3
ACAD_XREC_ROUNDTRIP
360
861B
  3
BUMPTILE
360
8439
  3
DIFFUSETILE
360
8438
  3
FBXASSET
360
84CC
  3
OPACITYTILE
360
843C
  3
REFLECTIONTILE
360
843B
  3
REFRACTIONTILE
360
843D
  3
SPECULARTILE
360
843A
  0
DICTIONARY
  5
864E
330
847D
100
AcDbDictionary
280
     1
281
     1
  3
ACAD_XREC_ROUNDTRIP
360
864F
  0
DICTIONARY
  5
8615
330
8479
100
AcDbDictionary
280
     1
281
     1
  3
ACAD_ROUNDTRIP_2008_TABLESTYLE_CELLSTYLEMAP
360
8616
  3
ACAD_XREC_ROUNDTRIP
360
864C
  0
DICTIONARY
  5
8626
330
8444
100
AcDbDictionary
280
     1
281
     1
  3
ACAD_XREC_ROUNDTRIP
360
8627
  0
DICTIONARY
  5
8624
330
8443
100
AcDbDictionary
280
     1
281
     1
  3
ACAD_XREC_ROUNDTRIP
360
8625
  0
DICTIONARY
  5
8632
330
844A
100
AcDbDictionary
280
     1
281
     1
  3
ACAD_XREC_ROUNDTRIP
360
8633
  0
DICTIONARY
  5
863A
330
844E
100
AcDbDictionary
280
     1
281
     1
  3
ACAD_XREC_ROUNDTRIP
360
863B
  0
DICTIONARY
  5
862C
330
8447
100
AcDbDictionary
280
     1
281
     1
  3
ACAD_XREC_ROUNDTRIP
360
862D
  0
DICTIONARY
  5
8630
330
8449
100
AcDbDictionary
280
     1
281
     1
  3
ACAD_XREC_ROUNDTRIP
360
8631
  0
DICTIONARY
  5
864A
330
8456
100
AcDbDictionary
280
     1
281
     1
  3
ACAD_XREC_ROUNDTRIP
360
864B
  0
DICTIONARY
  5
8638
330
844D
100
AcDbDictionary
280
     1
281
     1
  3
ACAD_XREC_ROUNDTRIP
360
8639
  0
DICTIONARY
  5
861C
330
843F
100
AcDbDictionary
280
     1
281
     1
  3
ACAD_XREC_ROUNDTRIP
360
861D
  0
DICTIONARY
  5
861E
330
8440
100
AcDbDictionary
280
     1
281
     1
  3
ACAD_XREC_ROUNDTRIP
360
861F
  0
DICTIONARY
  5
8620
330
8441
100
AcDbDictionary
280
     1
281
     1
  3
ACAD_XREC_ROUNDTRIP
360
8621
  0
DICTIONARY
  5
8622
330
8442
100
AcDbDictionary
280
     1
281
     1
  3
ACAD_XREC_ROUNDTRIP
360
8623
  0
DICTIONARY
  5
862A
330
8446
100
AcDbDictionary
280
     1
281
     1
  3
ACAD_XREC_ROUNDTRIP
360
862B
  0
DICTIONARY
  5
8646
330
8454
100
AcDbDictionary
280
     1
281
     1
  3
ACAD_XREC_ROUNDTRIP
360
8647
  0
DICTIONARY
  5
8636
330
844C
100
AcDbDictionary
280
     1
281
     1
  3
ACAD_XREC_ROUNDTRIP
360
8637
  0
DICTIONARY
  5
8648
330
8455
100
AcDbDictionary
280
     1
281
     1
  3
ACAD_XREC_ROUNDTRIP
360
8649
  0
DICTIONARY
  5
862E
330
8448
100
AcDbDictionary
280
     1
281
     1
  3
ACAD_XREC_ROUNDTRIP
360
862F
  0
DICTIONARY
  5
8644
330
8453
100
AcDbDictionary
280
     1
281
     1
  3
ACAD_XREC_ROUNDTRIP
360
8645
  0
DICTIONARY
  5
8642
330
8452
100
AcDbDictionary
280
     1
281
     1
  3
ACAD_XREC_ROUNDTRIP
360
8643
  0
DICTIONARY
  5
863C
330
844F
100
AcDbDictionary
280
     1
281
     1
  3
ACAD_XREC_ROUNDTRIP
360
863D
  0
DICTIONARY
  5
863E
330
8450
100
AcDbDictionary
280
     1
281
     1
  3
ACAD_XREC_ROUNDTRIP
360
863F
  0
DICTIONARY
  5
8634
330
844B
100
AcDbDictionary
280
     1
281
     1
  3
ACAD_XREC_ROUNDTRIP
360
8635
  0
DICTIONARY
  5
8628
330
8445
100
AcDbDictionary
280
     1
281
     1
  3
ACAD_XREC_ROUNDTRIP
360
8629
  0
DICTIONARY
  5
8640
330
8451
100
AcDbDictionary
280
     1
281
     1
  3
ACAD_XREC_ROUNDTRIP
360
8641
  0
XRECORD
  5
8651
102
{ACAD_REACTORS
330
8650
102
}
330
8650
100
AcDbXrecord
280
     1
102
DISPLAYNAME
  1
Imperial24
102
FLAGS
 90
        0
  0
XRECORD
  5
8655
102
{ACAD_REACTORS
330
8654
102
}
330
8654
100
AcDbXrecord
280
     1
102
SHADEPLOT
 70
     0
102
SHADEPLOTRESLEVEL
 70
     2
102
SHADEPLOTCUSTOMDPI
 70
   300
  0
XRECORD
  5
8653
102
{ACAD_REACTORS
330
8652
102
}
330
8652
100
AcDbXrecord
280
     1
102
SHADEPLOT
 70
     0
102
SHADEPLOTRESLEVEL
 70
     2
102
SHADEPLOTCUSTOMDPI
 70
   300
  0
XRECORD
  5
861A
102
{ACAD_REACTORS
330
842F
102
}
330
842F
100
AcDbXrecord
280
     1
102
MATERIAL
148
0.0
149
0.0
149
0.0
 93
        0
 94
      127
282
     0
 72
     0
 77
     0
171
     0
175
     0
179
     0
273
     0
  0
XRECORD
  5
8431
102
{ACAD_REACTORS
330
842F
102
}
330
842F
100
AcDbXrecord
280
     1
270
     1
271
     1
  0
XRECORD
  5
8430
102
{ACAD_REACTORS
330
842F
102
}
330
842F
100
AcDbXrecord
280
     1
270
     1
271
     1
  0
XRECORD
  5
8434
102
{ACAD_REACTORS
330
842F
102
}
330
842F
100
AcDbXrecord
280
     1
270
     1
271
     1
  0
XRECORD
  5
8433
102
{ACAD_REACTORS
330
842F
102
}
330
842F
100
AcDbXrecord
280
     1
270
     1
271
     1
  0
XRECORD
  5
8435
102
{ACAD_REACTORS
330
842F
102
}
330
842F
100
AcDbXrecord
280
     1
270
     1
271
     1
  0
XRECORD
  5
8432
102
{ACAD_REACTORS
330
842F
102
}
330
842F
100
AcDbXrecord
280
     1
270
     1
271
     1
  0
XRECORD
  5
8619
102
{ACAD_REACTORS
330
8427
102
}
330
8427
100
AcDbXrecord
280
     1
102
MATERIAL
148
0.0
149
0.0
149
0.0
 93
        0
 94
      127
282
     0
 72
     0
 77
     0
171
     0
175
     0
179
     0
273
     0
  0
XRECORD
  5
8429
102
{ACAD_REACTORS
330
8427
102
}
330
8427
100
AcDbXrecord
280
     1
270
     1
271
     1
  0
XRECORD
  5
8428
102
{ACAD_REACTORS
330
8427
102
}
330
8427
100
AcDbXrecord
280
     1
270
     1
271
     1
  0
XRECORD
  5
842C
102
{ACAD_REACTORS
330
8427
102
}
330
8427
100
AcDbXrecord
280
     1
270
     1
271
     1
  0
XRECORD
  5
842B
102
{ACAD_REACTORS
330
8427
102
}
330
8427
100
AcDbXrecord
280
     1
270
     1
271
     1
  0
XRECORD
  5
842D
102
{ACAD_REACTORS
330
8427
102
}
330
8427
100
AcDbXrecord
280
     1
270
     1
271
     1
  0
XRECORD
  5
842A
102
{ACAD_REACTORS
330
8427
102
}
330
8427
100
AcDbXrecord
280
     1
270
     1
271
     1
  0
XRECORD
  5
861B
102
{ACAD_REACTORS
330
8437
102
}
330
8437
100
AcDbXrecord
280
     1
102
MATERIAL
148
0.0
149
0.0
149
0.0
 93
        0
 94
      127
282
     0
 72
     0
 77
     0
171
     0
175
     0
179
     0
273
     0
  0
XRECORD
  5
8439
102
{ACAD_REACTORS
330
8437
102
}
330
8437
100
AcDbXrecord
280
     1
270
     1
271
     1
  0
XRECORD
  5
8438
102
{ACAD_REACTORS
330
8437
102
}
330
8437
100
AcDbXrecord
280
     1
270
     1
271
     1
  0
XRECORD
  5
84CC
102
{ACAD_REACTORS
330
8437
102
}
330
8437
100
AcDbXrecord
280
     1
 70
     1
 90
1959938040
 71
     1
  1
F34EE471-6B0E-4D40-BAE3-095DD5D3BD78
311
504B0304140006080800967074571FC8EF52D7000000200100004F00000036393832353930422D444533412D343746432D423031302D3341423438344641334239322F4173736574446174612F446566696E6974696F6E4974657261746F7250726F706572746965732E62696EEB606060F80F0540260323103700495E20ED
311
9E9A975A94991C9C9C919A9BC8C00612C9C94F4ACC6147C831019920AE4B6A5A62694E0948976F6671726A4E4E625E6A7E69B12042A9426E6209D0B8C41C3D90264E20860914834C48875806B2DF0F88414E02D189290556F689C5C5A925B6FA694915FA166EE6E666C68E46BA066E2E4EBA264EA6AEBA4EAEAE06BA166E4E
311
C66E0616CE064E2ECEFA45A9C5F9A545C9A9C5FA46FA06F15093E30BF2D283221DEB0C19188280D6B330BCDF77326CA76B713857851ED02297F4E6989D063337019948601F00504B03041400060808009670745755EBF7CBEC000000300200004500000036393832353930422D444533412D343746432D423031302D334142
311
3438344641334239322F4173736574446174612F496E7374616E636550726F706572746965732E62696EEB606060F80F0540260323103700495E20ED9E9A975A94991C9C9C919A9BA802147033367175353137D435733270D535713131D075727435D635B0347571317531767231B7604768046931363471713532B5D43535
311
3131D635313332D475727372D13534373670367376B67474B5042A03DBCBA019D37FE8ABC6157B20CD04146B0062181F4C03F940F0C11EA29A8141C08141002C0426541C106CAC2CA046088033B02A030AC2157C6006F21A8018AAF50194E6010A610250382264E08660284CD9E98021862280A91564B406929A0FF62C401E
311
28B6F88038B83CB1243943D7A928312F25350524432B0000504B03041400060808009670745728BB58AF800100009E0500003D00000036393832353930422D444533412D343746432D423031302D3341423438344641334239322F536368656D61732F436F6D6D6F6E536368656D612E786D6CBD544D4FC23018BEFB2B96DE
311
15493C78601010A34B880709DEDFB52FD0D8B54BD70DF6EFED3AC0B12E6442E2716BFB3CEFF3D18E26FB440405EA8C2B1992E1C323095052C5B8DC842437EBFB673219DF8DA659866649B798C078B48AE6410122242F2A4994AC7F93815DF85C049C8564CA0A901499DD886B2EB9B1E02448F358701A9235880C49A0119892
311
A20C89D1B9FD768815CAD268CB5E0355B40B1E47F3E37A2020464BED06AA57CE8FCC20C3C3446D46761A2632A8C1283D07031EFF2AE7CCB1BFEEE916E406DFAC8E36FFD99A9D60A6944090EEDC3B670C7DC13DE86B6B2C5C240D6E503BB85ACD579D513F1B9F9A69DC9CC22AFA80C426D40AF0B21EA168559156B6276F0F72
311
6A6BFF04DCD513A87A62CAD41FB24FCB2858B3952E3D852084DA25B9303C15687973CC8E8AAE11DF2836C38C6A9E765E8C1BA1BFB1DC29CDFE518C8B5A7655A4ED7E77291ABEB80DBD82EC866ADE1B8D05AF9E35CF09D7A061F38A986D9EC412B8F0F65E5D81534D9B231D1E5A8FE577A241F3A5FD01504B03041400060808
311
00967074572CCEBD668A040000E01200003E00000036393832353930422D444533412D343746432D423031302D3341423438344641334239322F536368656D61732F47656E65726963536368656D612E786D6CD5586D6FDB380CFE7EBF42F0F7A649B70E1B90744856B4970F450FCD7A5F05459613EDE4174872DADCAF3F52
311
2F8ED3B88D2F1D06AC4050DBA2493EE4438AF2F8EB73AEC8466823CB62928C06C384888297A92C5693A4B6D9D9E7E4EBD51FE3A931C22EF85AE4EC6AFC38BF261BA626C9AD288496DC3F4FCEAFC63366845F7A10452AF41DB320C0D44EC26EAB20918735565582695670811A6A49643A49A6E9069FA4604A64B29016DC4B48
311
552F95E4932463CA888468C1D2B250DB4962750DF7CE273069CE8363F1FF4EDB00E0A21999574AE4A2B00C353B93F3BD4777B8A61ED8F604ABFEDD79CE56A2B7BDFBDBC50996E0ADDE16FED26223C5D30956C29BDF4A55EA686E5E58B112DA45CE67F76F4FA27EFA3FB672FD7372FC388FAECDCA5209E693CAD167BADCD272
311
F943701B3812F8A3D852008B1D2E32DB927B2F833C6EA95879925356D254582695095A3CE982924720BE5774A3CB9CDCDB350427D2DF20DA1B5532EBE2D5D6288D75D4F7E4FD9890A0EF8E3D93EBB8F8BA4758158EF6FB90A6F9520281C93DE7AAC6D24607DA296BB96018123F821A7D6A5C5884050C475DA4865442732C8B
311
95684A50165CBB3A32F25F783A4A480ED59AD7F924B968AEA50131F46303223E6A397B0E52976030DC1DCA81D7E7C1EDEEA42C19FF27635C505E2BD5198A599020DF50A2330FCB3AAF28CB0124108429553EF1B228802E2265D8F7CC2401042B155BCC7070F1E5C55F13B4A9577362CCCE46C32174E010C3C378C44841A4BD
311
A00FE3A12006CE11EE6AEC59894D3526DDE1CD59D503ECC324017F8061B7F162162FA62EDD81AE3308617770796DCBDAD2B2625C5AE8A63DE20B2C8AA5E95E76E5730823955956E33E705425A2187C185D36489A1B44D3DCEC2172F6BA2105C3546287A7194B2331768EBBE64F6E70A9930ABE0ADEA89E9E2C38523B810287
311
AD67A54A039C1606EAFE68F8304610BB9093DBDDABC0B2AE4E290DCDA15376D7E39F72B556F0B32EAB5D3D498B4C41ABADEC3A1434C422D87E8025A84BDCB2B1417ED750FAE4DA8976863974C577C7F902D3F156AD354DEA3540DE6BEAE2BEA52F7A2EB4CA43802ECE5BF2CE2EDC9347179FFB023CE412E60BE16DA0BE29B3
311
74988A553F561DC04615DD35F7D2C8979F60E5955CE93DF29DED8AFA1EE6642D53418086C03C47C377910F75F7E8F5EF665F70B60FFB22AEDF897D119E8423C773E819A3C1E55E550599EE6EDCA34D0C86FD72057DF2CD46F16A470682471C164E4346D5306BF12D7D12D82CFF673D41636C347443FEB51B50D72EA171A8E4
311
A58623A4A16E0FA2B8B10A0D23268D87C33896EE8FB73305A74BF224EDBADFA0BD674AB354D63DB7BD5D83426761C077DE767728235446A552754EB93B755891C3C4CC6CADE37CF0E912A7BB38DBA010F9DE1282EDF470CA69A9CDA482E334C4A6EA4107987980B17E72F31730EBF88BBD39E7C629F56797A3C0009C2C5AE7
311
951D9A05A02773440F02EEB4DE396A3B6A570C72CCFBCD823B0B8ED3F1D5CEDDFED772FA70236C83FB7D86C385D570B87107535572A60A96035F8F7C6A7192F13007246BBE0521855E6AC46F3E27689CEE7D186A6FD679D98CDCAD13333E04EBE7ED6F55FF01504B0304140006080800967074576180134D5F0100006B0300
311
004500000036393832353930422D444533412D343746432D423031302D3341423438344641334239322F536368656D61732F52656E6465724D6174657269616C536368656D612E786D6CA5934D6FC2300C86EFFB1551EEE343DBA41D1A103009551ADAD40EAE28A4A68D9426284961FCFBE5A340113B2071746D3F765EBF4D
311
C6BFB5407BD0862B49F0B037C0082453059725C18DDD3EBFE3F1E829991803366715D474942CD30FB4A782E00C64017A412D684E454CE3FE28995203B162A6EA5AC94B66997D225E109CD63B0135484BAD1B3C07E9080CA35DB3119C11BCA5C200461A68A1A438126C75E3E230D40FF81FB3F03C91D1E3A3A0AF79FE28E25B
311
C39EC3E17E4C2A2D94A0833A51AF55BCCA7D88572FCBAC529C4140B020FC3AAFA886621DCED7EAD7664CC86024E806DC297DA1BB393E4156543457A4537DB8817349A70F8ACBF09B3EEE2CB2F33E91B65D60786E4E3B39B77E3FEEEF5650424525DA657FB8B46BE6BF064646F0A0F7327C0BC1BC1B4CBBC1C419FA3CCB2350
311
0007872A2580CAAE5461865565294E4EDB4617B62FF579DF9A5B2F54E834076A597573A020912FED777F9B3F504B030414000608080096707457C3CAF2EF51000000570000004700000036393832353930422D444533412D343746432D423031302D3341423438344641334239322F4173736574446174612F417373657454
311
61626C654F66436F6E74656E74732E62696E536160607033367175353137D435733270D535713131D075727435D635B0347571317531767231B71002AACB4D2C492DCA4CCC492C28484D2C4ACC4B4E050A82012F90744FCD03CA26072767A4E6260200504B030414000608080096707457F865834058000000680000004500
311
000036393832353930422D444533412D343746432D423031302D3341423438344641334239322F4173736574446174612F53747265616D56657273696F6E5461626C652E696E66558CBD0A80300C06F73E4B117FB66E451741D041DC5BF98480A492E4FDD18EAEC7DD4555D89EF28DF51A0B1BD8340C4DE7DD848B988C0ACF
311
0649566493F2408C508DDEBB99D5129FF8F1AF8CF5B9503E20FAE5A16B5AF702504B0304140006080800967074577FFFEDB9340100009A0400003600000036393832353930422D444533412D343746432D423031302D3341423438344641334239322F4173736574446174612F636E782E786D6CCD94314FC3301085FF4AE4
311
3D76528A842AC71582A51348540C6C57E752AC3A76645F10FC7BEC2403A888A943D7F3BBF3F327BF93DBCFDE161F18A2F1AE6135AF58814EFBD6B863C346EACA3B566C950CDED30F192B1CF4D8B05C664A1E831F87A5D46207A3CD556BDC6929DEC788B48783C5A7EEC13B42479115DA428C0D8BFA1D7BE030926F319E780B
311
04BCE601A31F83C634894C8FCB241D10085BA656D5EAA6ACEB7255EDEBF5A65A6FD6B76F5264A59207EFEDA237E9B2E08742CFB7325549918F951C835934F92D4CFDE5911F8C932229958C141293A583BE86D401C3608D064AE884D784542611422FC52C56526406BF483C62679CC92DBB640CC887E7640F0319BC3A22FF79
311
BD3C999D8B044EE3F5F2387778790A2FD30F7A9D033925E6DA7272EE901BD75D2025625A23293479ABA86F504B0304140006080800967074579A4A9998080100004F0300003400000036393832353930422D444533412D343746432D423031302D3341423438344641334239322F536368656D61732F636E782E786D6CCD93
311
314F04211484FF0AA15FD85DD7C45C58AEB0B0B2512B3B84772739E06D8035FAEF8595E22EB1D3E23A18BE9099E121F69FDE910F88C96298E9C07A4A206834361C67BAE6437747C95E8A8898CF304A82F230D32A53298E11D7A549060E6A755575369C9A788FDE6378D6EFE01525DAA994669AB62D536B4603E9C48CCA8A0D
311
2C42C2356A283764EBA1DDA023A80C86CAB11F6FBA61E8C6FE659876FDB49B6E5F05AFA4146F88AEF1366488B8108D65118A9D5EF07A2CC51A6D636A062ACFBDB1D286E0859022E5583A6864FE5A0AA996C559AD72A98A6FE00F2305AF512F023F408068F57526BE30F76F919F2018888FE595A255EE3A93FFE6F16F05F06D
311
F6CB08D4AF20BF01504B030414000608080096707457410A3D5871000000A40000002C00000036393832353930422D444533412D343746432D423031302D3341423438344641334239322F636E782E786D6C55CC4D0E82301086E1AB34B31774E7A22D31F1069E60020334B633A63FC6E34B0909B07DDE2F9FEE7EC1AB2FC5
311
E4840DDC9A2B28E25E06C7938192C7CB1D54677514C9871928C640062A83D55394F2D968A0118BAFEA1DBF377CA444F98919176EAB9FEAAB9F2960DA5BBB1E2ED3FA6FFF504B030414000608080096707457FFB0F3FB7F000000A300000007000000636E782E786D6C4D8CD10E822018465F85FDF7140A156C8883CAF77089
311
8EA9D0485A8F1F342FBAFAB6B3EF1CD97ED605BD6D7CB9E01BA80E0490F58F30383F3590B6117340AD923184EDEF06C8F7AB6DA06050728A213D7734D8B14F4BA18BF3F30ECF82D727410CBEDDA9C6ECD25DB12115C1541BC659A7A91175368E45C9F3EBE52D79F505504B03041400060808009670745716E99B5DA6000000
311
35010000130000005B436F6E74656E745F54797065735D2E786D6C9590410E82301045AFD2740F4517C6180A0BF5065E60AC53688469D30E066F6F91AD9AB89CF9FFFD3F99BA9DC7413C3026E749CB4D59498164FCCD51A7E5C4B6D84BD136F5E5193089ECA5A465CF1C0E4A25D3E308A9F401292BD6C711388FB15301CC1D
311
3A54DBAADA29E38991B8E0254336F5092D4C038BF39CD76B6FC6A538AEBEA54A4B08617006389FA516557DE4AE8E7E70DE30729138228C5F021CD93F02D4FB0DCD0B504B0304140006080800967074573DEE336E64000000790000001B0000006175746F6465736B2D64657369676E2D7061636B6167652E786D6C35CBC10E
311
83200C00D05F21DCA56CA76D41FC96062B120735B69A7DBE268BB7777961F8D5AF396893C2ADB70FE7ADA196782C2DF776D7A97B5933C430F15651E5469C55D70F80A4992A3ADC954792C525AE70A1E4D6AD9816CC044FEFDF01FE3FDE907802504B0304140006080800967074574A025A97F9000000960100003700000036
311
393832353930422D444533412D343746432D423031302D3341423438344641334239322F4173736574446174612F636F72652E786D6C8550CB6E833010FC15E4BBC106A72991710402BEA0A7DE2CDBA156828DFCA8FAF9B50395DA534FBB9A9D9DD91D7AFD5A1FC5A7725E5BD3015C22502823ACD466E9400C37F80A8A2BA3
311
CEDAF08B060AC357D5810C03461767E37640C29AA04C468D95EA00B9F72A80423C52D3012F3ED4CA4B1E4362F87BB97171E78B2A71B9F3188D51CB6355CBA4A66F5A39C07AD4CE233A1158B75303C9DCCEB01FDB0192E14CCED3F0D2E3A9A5555E6634E8F5C75D38C5839280D5A86E20C6B0466F985C10B990D33BAD329351
311
1F5CFAF930CDDF25BB7CF5C803A7D53EFDA31A37F9BF6AD42634F5A1BA6F78C0703AF23960B4CA29A5F28C30D59C28FB06504B030414000608080096707457546E6A47F8000000940100003500000036393832353930422D444533412D343746432D423031302D3341423438344641334239322F536368656D61732F636F72
311
652E786D6C8550CB6E833010FC15B477830D4E5322E30814F881F6D49B050EB1126CE447D5CFAF1DA8D49E7ADAD5ECCCECEEB0F3D7F2C83EA575CAE806488E21937A3493D27303C15FD12B6467CEAC31FE170D322D16D9408281B3D99AB0EED068B4973AA1DA4C72078573D243363E62D3801B6F7211B9083E32DC3D5FC578
311
17B3CC49BEF1380B414DBB544DD14D5D95B4C05B5C0F177CA0A8ACFB0AD1A11E507BA93B44BB233DF6DD4B4BFA9A1549CC9957CBCFF6D14AE1E504BCC465850841257E27F484E9891E3E5891989C396FE3CFFBD2F41DF0B7E79D8E15DBEC8F6758A7FF3D83D2BE2A77CF4DE1809378E273C05991328AE51960AC294FFE0D50
311
4B030414000608080096707457494E9EA802010000D70100002D00000036393832353930422D444533412D343746432D423031302D3341423438344641334239322F636F72652E786D6C9591C14E843010865F85CCBDD01650D8946E40DD27F0E4ADD259B6D9A525B4181FDF2218F5A6A7367FBF7FA6FF8C38BE8FB7E40D67
311
6F9C6D80A51412B4BDD3C60E0D2CE14C2A488E52CCCE851F1824568DD8C02A8314C3EC9669977A6703DA55B54EE32E2AEF3140D2DFE2A501DF5F7054A95A4224FC359D547F5503A62CDD38298219BFACFD8C2AA006C929CF096384D367561C687128CA1791ADA4148BB121E77B331C5F51276E0A3112C85264DB6BA416A377
311
C6E8F84773363883BCAB2B5ED6B4238F4F794B8AFBD303E928A3246FBBA22A4E6DDED53C168966297C98E364F622EB0CFE6ADF8CBF922D93FE67B2CDE141B2EF50D93A6629B2CF1DC4735D89FC00504B030414000608080096707457E7C50B4D08010000B201000008000000636F72652E786D6C8D50416EC32010FC0ADA3B
311
3638A4A9234C642BF60B7AEA8D1A92A0D860191CB5BF2FC4AED4DE7A5A3433BB330C3F7D8E037AE8D91B672BA01901A46DEF94B1D70A9670C1AF804E82CFCE855F3240568EBA820483E0D7D92DD306F5CE066D136A9DD21B28BDD701503FC44705BEBFE95166720951E1EFD924FBBBBCEA8C66AB4EF060C69FD57ED6326805
311
A220C50E538A0BF246D991B023DBBFF33C29055F16A3362BA3A2BBB9183D83A849D99DC99EE1A26C7798756587EB73D960D61CD8A16D5E6ADA963C4FCB82FB30C73F6F4762CE80BC7C245F9EAF94E01FCE0D9B208652C8D9E10B04E17922FE845E26F58FD0C6865DB11D5C373C081A033D89689C1A8CE3596F9CA96DF10D50
311
4B01021400140006080800967074571FC8EF52D7000000200100004F000000000000000000000000000000000036393832353930422D444533412D343746432D423031302D3341423438344641334239322F4173736574446174612F446566696E6974696F6E4974657261746F7250726F706572746965732E62696E504B01
311
0214001400060808009670745755EBF7CBEC0000003002000045000000000000000000000000004401000036393832353930422D444533412D343746432D423031302D3341423438344641334239322F4173736574446174612F496E7374616E636550726F706572746965732E62696E504B01021400140006080800967074
311
5728BB58AF800100009E0500003D000000000000000000000000009302000036393832353930422D444533412D343746432D423031302D3341423438344641334239322F536368656D61732F436F6D6D6F6E536368656D612E786D6C504B01021400140006080800967074572CCEBD668A040000E01200003E000000000000
311
000000000000006E04000036393832353930422D444533412D343746432D423031302D3341423438344641334239322F536368656D61732F47656E65726963536368656D612E786D6C504B01021400140006080800967074576180134D5F0100006B0300004500000000000000000000000000540900003639383235393042
311
2D444533412D343746432D423031302D3341423438344641334239322F536368656D61732F52656E6465724D6174657269616C536368656D612E786D6C504B0102140014000608080096707457C3CAF2EF51000000570000004700000000000000000000000000160B000036393832353930422D444533412D343746432D42
311
3031302D3341423438344641334239322F4173736574446174612F41737365745461626C654F66436F6E74656E74732E62696E504B0102140014000608080096707457F865834058000000680000004500000000000000000000000000CC0B000036393832353930422D444533412D343746432D423031302D334142343834
311
4641334239322F4173736574446174612F53747265616D56657273696F6E5461626C652E696E66504B01021400140006080800967074577FFFEDB9340100009A0400003600000000000000000000000000870C000036393832353930422D444533412D343746432D423031302D3341423438344641334239322F4173736574
311
446174612F636E782E786D6C504B01021400140006080800967074579A4A9998080100004F03000034000000000000000000000000000F0E000036393832353930422D444533412D343746432D423031302D3341423438344641334239322F536368656D61732F636E782E786D6C504B010214001400060808009670745741
311
0A3D5871000000A40000002C00000000000000000000000000690F000036393832353930422D444533412D343746432D423031302D3341423438344641334239322F636E782E786D6C504B0102140014000608080096707457FFB0F3FB7F000000A3000000070000000000000000000000000024100000636E782E786D6C50
311
4B010214001400060808009670745716E99B5DA6000000350100001300000000000000000000000000C81000005B436F6E74656E745F54797065735D2E786D6C504B01021400140006080800967074573DEE336E64000000790000001B000000000000000000000000009F1100006175746F6465736B2D64657369676E2D70
311
61636B6167652E786D6C504B01021400140006080800967074574A025A97F90000009601000037000000000000000000000000003C12000036393832353930422D444533412D343746432D423031302D3341423438344641334239322F4173736574446174612F636F72652E786D6C504B0102140014000608080096707457
311
546E6A47F80000009401000035000000000000000000000000008A13000036393832353930422D444533412D343746432D423031302D3341423438344641334239322F536368656D61732F636F72652E786D6C504B0102140014000608080096707457494E9EA802010000D70100002D00000000000000000000000000D514
311
000036393832353930422D444533412D343746432D423031302D3341423438344641334239322F636F72652E786D6C504B0102140014000608080096707457E7C50B4D08010000B2010000080000000000000000000000000022160000636F72652E786D6C504B050600000000110011005A060000501700000000
310
504B030414000608080096707457000000000000000000000000370000006662782F45363730334239302D433134302D343030412D414330342D3746333742414443353432452F617474726962757465732E62696E504B030414000608080096707457000000000000000000000000350000006662782F4536373033423930
310
2D433134302D343030412D414330342D3746333742414443353432452F76657274696365732E62696E504B030414000608080096707457F270F1330600000004000000360000006662782F45363730334239302D433134302D343030412D414330342D3746333742414443353432452F747269616E676C65732E62696E6366
310
60600000504B03041400060808009670745751464CB48900000043010000360000006662782F45363730334239302D433134302D343030412D414330342D3746333742414443353432452F6469726563746F72792E786D6C9D8F310EC2300C45AF127987122606C71DD918B841D4B851A43646695A717C52A85029031293A5
310
A76FBF6FACEF7DA7264E43906840EF0FA03836E242F406C6DCEE4EA06AC22492573150D1F66C60C640E8938CB705396EEDD86DE9B5042FE27813D640EA63BB001C722AF6E55CB61E4863F58284D5D3F53DD715CE1C3985E63FD7F1B7EBDD617E9F1E504B030414000608080096707457C38253603E070000201C0000340000
310
006662782F45363730334239302D433134302D343030412D414330342D3746333742414443353432452F6F626A656374732E786D6CDD595B6FE23814FE2B56F665F721370214469451B98DD0A833A341B3DAB7C80443BDCD4D4ED2D2FDF57BECD8214E03A4739156DB4A853AF6F139DFB99F4CDE1FA3103D1196D124BE355C
310
CB311089836447E3C3AD51E47B7364A0F75334614992D7F61928C611B935F8B2319D1C5852A4726947F6B8089BABABD95F280B484C0C148438CB6E8D2C782011B67091273B923D5A3B9C63EBB03F5AAE556ED4C91E184E1F1A57A59891380756613D062A920357FF1744B2A7139B6FD0B679DDB6F52E6CB385E03AA334CE72
310
1C07AFB86A5CD73BC355E33ACFED2F96BDC1D81CF4FB9ED91FF65C73B69A2D4CF7C673E6C3F97C7CB71C1B683AD9264958292025F10EB4F8624CDD89CD9F54E24B14DAF80E9238268144B36DC38E48BA94644D4C34605D215A4D21A5ACB505AFA3F067B67502456349435B09A73EEBD69B6CFF0610B22E56CA32C2AD3CCB19
310
E85A625FFA8333B1CB554D2F344311CE09A3384421DD32CC4041B0B5549046867B0B27853866428B8A5E9D5730ECEBBED4C6E5BE0843EEBFC654789A0FFE48F24C7046FF21ECC47DFD36E009A42D689C8FA4B0F94B0A24C6135B2C96CFBC9E7C580289F6213E80B580987C93D76BE035E7B160BD30A61F57DBE386C787F6CB
310
5396A484E5DCF284334BBF531AAC9916185F07504A5C75DD9D50F90AD07F02E42B5ED00434C7E8B17FEC2BD9198EB37DC222D00E7290E9C01F07F1AFAFBE4DECEAF014212D569EC314DCF62761AA89A1DD5D83743A7902A34F982785DB0438049BBEA731F77330141426B004F17EBF3D1AD33504535884533804E9E17762F3
310
AF083E4A3A106F1A1A6A0BBF1D14A51CA6E967275D7D009B6134A854A5C9780EDFC14FC1F76EB1F9B829D81E07E45E3AF682EC694C7348A6ED0C69A06B2EFF6DFD4978E48730D9E2F0745ADB14C0358784C78D16B56CA45A90D00B70C2D370A919B1724FC1DBC310C7242932B9DE16A782244C98BF7DF14B176EBDEB4F6503
310
E565D2005A631924F780D19463624CA5B6AA4068D504050BC34C5AE0A1D4AABF2DA2D4C75152C43CD4BE36C5261F1067B8250255414D19B6F25A457647F7FB2283E0D54A72AE0129FD59112E2DBC0F71AC8D5F46F60C43124D629F420E066769BD41BBA002EF32CF1909F73E0DC322F2F734843CE247383D43BFA304F5CCF5
310
485E9E13B66B25A85B96F24965431C7009AC024965AB32E64B9D32F244799929F299CA06DA0E59871AD3FE9974C133450BA0CA188599AFBCFE72D9BF71CDE1CC599AFD45DF3167774BCF74C683C562B0F0668B9B51934F15ADEAF90E54C9CB1CCDFFF28722DAC69886F0808B8D77E9BBF7227BDEDA101AEDD1EAE666E8DDF5
310
4C67B59899FDD96069CE964BC71CAD66DECA19CD9DD9626E339225050B4866F76CC7572699C687735C29EE5EC750286BAE273BA5AFA630FFE318DACC099A12FFAB41B48A5D2D0561D720CA8F3643280E1E798AF203A8FA5ADDA711449B7CB4C5B937C665C7F21CF1E3BAE39E33EE8DC6C3CAD82F066A71CF0FC7B9360902E8
310
3B8BDC4F521CD0BC3DA13670E918A7DF945B2CCF1D2040A7FA5B5D7239CFC84B7C1AE103F1F79877092D81F19A04AD39EC102659466392892EEF55F5D7A0E958504CE939B7C50869E64724C7DF637FA26D68D834C4E6D0877E34E71381AB554165D0B20339479177BF90B885FC2F7E86A3342C3BDD6B18B83D0581EA71DA2C
310
8E33CDAF78027BF371EE3B3B220617D7A857ECABFAA0556B4DEAE3EF267F061E55D7FC4278D415DD4B276BE08EF9CF0882CA70E07A374A11D7B05257E5BC8F0B0BE83C8317FF99D0C343A742B39B4E6A255B5954E724823616E705EBE4AFC381F3EA2219171A0E51BBE98DC5A1E8DF540707E88906EE5C795BBB06EA501AC3
310
9CAB9320AFA4683561A10B31D3E3A3AB37F8F54565D7A9FE70BCFCE51573DDF92231FCB98E0354CB650096D147ABA95BAB6EAD1ECA9E711E4020DD884F73061EB123BB5363A6916B2BD1557D7AAD7A5EF3801AC1C416F3387BCFBF845F31A81ABAE7CCFE50166D76B9BEE689CD82E1F4890F8D699DD6E70F9B061558E97CFA
310
0BC7883C3728C8D539EF862F90FAB63EF5FC0D0A52A26FEB0BC7FF131D8552606D8C06D3E02C09290CE5C90E1D4802D91BC60E1DBA0D16914C6465305E19A4D41B810EA79FCA996A8EB7A13A1D3C60184C87B2172B02188A42C6BC35E43AFA0DC6A07C12298653D623B461328619A860F4D6008BCD29745BD616C659627828
310
A837C695E0D8383EF07C5F9EAAFE3F1DE3E840543AC955EDE9828B944C7326286C53F19E00AABEF2C174F2FDA22B7610CEE1EBB6C82B614E0B27692408EA8540291C4CFD1E25BC4728282ECBE55A628F0649A7C9FC453B28A99A396607315EAFE17DB7F862F3C9F8FA334AC3E2C0D579A9FBD52899BCEB0E8B720A3501C390
310
62A698D790F377F61796C02BA608AD281801FAFD381AFE61CF93284AE272C9BE932FAAD0E6015E3BED6C35F28336DE7107B69802C8B1BEBFC519B1F02E7B8405502DA37C365A42AC1940154D6B06A034C27501C7B4FDEB0592B5516D42520FBB1C1E31D347E048FC5D0E779BFA86DA00127C01B8120F4F5FD4C2C46630049F
310
FE0B504B030414000608080096707457BE9E80413E01000046050000300000006662782F45363730334239302D433134302D343030412D414330342D3746333742414443353432452F636E782E786D6CCD94C14A033110865F25E4BEC96EAD20259B82079FC08378CB66A76B6C36599289D8B737A9DBAA48C543A1BD85C93F
310
F07F333F23D6EFA3256F10A2F1AEA50DAB2901A77D6FDCD0D2849BEA8E92B514C17BFC26A3C4A9115A5ACA548A21F834CDA51E362AD952B5C66DE7A2420CA64B0891126D558C2D8DFA0546C55442DF43DCB25EA1620D0B107D0A1A723F9A11E67E1D4021F4542EEAC54DD534D5A27E6C96AB7AB95ADE3E0B5E945274DEDB59
310
6F1C42F013D13E3F5C36530B5EBEA548C1CC9A4240E59733D6192778FE972266B76E9875B89B8A6E9AACD10AF398B8D708586511A851F04FB114BCF0FEA07EB87F3A3820BD09A0D187DD8506D09C1AC0D118CB49F81FFF5EF837B6EF5E33EEA5B67D1276B67536D4435A638EEBEFFDE7142937D8EB0BFDD1D8F9339F4F091A
310
7D7DC8075F6722E6FB9397975E2EA0FC00504B0304140006080800967074571B418F247F000000A30000000B0000006662782F636E782E786D6C4D8C410EC2201405AF42FE1EFDB5289A000DC57A8FC6D286D882C1623CBE60BA70F592C99B11CD6799C9DBC6970B5E42B54320D6DFC3E0FC2421AD233D0369948821AC7F37
310
20BE5FAC848241892986F4DCD060C73ECD85CECE3F36D89D38D6ED05A9A9185286A8A936C828BFD5BCD5577364872E1BFBA2E4F9F5F296BCFA02504B030414000608080096707457A6D797065F0000008200000007000000636E782E786D6C4DCB3B0E80201045D1AD90E9FD7516806B51190811670C8A61F982B1B0BAC9C9
310
7B72CA7B1037C6D3332918DA1E04D2CAC69353902EDB8C20262D23F3F59B81A079470595414B17391D1F19B4730A5583A7ED43BBE4025D9592775E5ADFFA01504B0304140006080800967074574FEB6A7CA0000000F4000000130000005B436F6E74656E745F54797065735D2E786D6C7D8F4B0EC2300C44AF1279DFA6B040
310
0835ED02B8011730C16D239A8F121795DB93D02D6269CFBC19BBED573B8B17C564BC53B0AB1B10E4B47F18372A5878A88E20FAAEBDBD032591BD2E299898C349CAA427B2986A1FC86565F0D122E7318E32A07EE24872DF3407A9BD63725C71C980AEBDD080CBCCE2BAE6F5D69B7110E7CD57AA146008B3D1C8F92C5954F993
310
BB1BF787F39A89ABC491D09600F9FDA2FB00504B0304140006080800967074573DEE336E64000000790000001B0000006175746F6465736B2D64657369676E2D7061636B6167652E786D6C35CBC10E83200C00D05F21DCA56CA76D41FC96062B120735B69A7DBE268BB7777961F8D5AF396893C2ADB70FE7ADA196782C2DF7
310
76D7A97B5933C430F15651E5469C55D70F80A4992A3ADC954792C525AE70A1E4D6AD9816CC044FEFDF01FE3FDE907802504B030414000608080096707457E116B552F9000000960100003B0000006662782F45363730334239302D433134302D343030412D414330342D3746333742414443353432452F7265736F75726365
310
732F636F72652E786D6C8550CB6E833010FC15B47703E69534328E4255BEA0A7DE2CB32156828DFCA8FAF9B50395DA534FBB9A9D99DD1D76FE5A1ED9275AA78CEE81E62564A8A599949E7B08FE4A8E909D39B3C6F85F34C8B458B087040367B33561DD2169B4479D506D26DC41E11C7AC8E423363D3879C345E422F8C870F7
310
7C15F22E66CC69BEF1380B414DBB544DD14D5D155AE087D7B6BBD0634B9A661C4833760319BA9692F66DACC797F1521D68C98A24E6CCABE567BBB4283C4EC0ABB2AA09A5A42ADF69732A9B53D37EB022313973DEC69FF7A5E93BE0169D0956A263C536FDE31AD6E97FD7A0B4AFABDD755338E0341EF91C7056A49462794618
310
6B4A947F03504B030414000608080096707457571CE6FDF2000000B1010000310000006662782F45363730334239302D433134302D343030412D414330342D3746333742414443353432452F636F72652E786D6C8D50CB6EC32010FC156BEFD86093BA8D3091E3A65FD0536F08888B1283C5A3EAE71712576A6F392D9A9D61
310
66871DBE976BF5A57D30CE0E406A0C95B6D22963E701523CA367A80E9C79E7E21F1A54562C7A80020367B37769DD20E96CD4B6A0D629BD8122041DA192D7FC1820C84FBD885AA49819E152AF425EC4AC6B52DF799C45B3FC4AA5D7226A05BCC56D8708412D7E27748FE99EEE3E5853989CA564D4666554763767A33DF0D353
310
8FBBE30B4613A118518C47344E98A2FEADEB8FE3EBB4A3ED893545CC59883EDFBC7D52AE7B547E17FECB9C56F540666363D76E867745004E729EDB82B3A61498C7ADDD3C4BD9FC07504B03041400060808009670745771D20B7B54010000DD0200000C0000006662782F636F72652E786D6C8D52DB8E832014FC15C33B2A16
310
DB6E8334ED66FD827DDA378AD425553008A69FBFE025AE0F7B89099239E7CC9C9940CECFB68906617AA95501509C824828AE2BA9EA02387B8747109D29315ADB6F6D2052AC15050830A0A436DA7533C4B5B2420554E94ACC20EB7B6141C41B7F2940CF3F45CB62E6ACEFE81F71C7F883D52246F1D4478973B29A4765E5D9E4
310
5D0A03E8E135DF5FD0318718975788CBFD155EF73982F95BB92B5FCA4B76402949C2302556B68B3A37825951019AA5D90E2204B3F41DE1538A4F38FF2049E8A4A4B7C67B9E45833B40EFB72749267CC3E7BAEA6F3E2795DD6533DF34D1038AFC7A63819224E4E37F6378DB0CBDB0CFCFB25BB35878786810DC6A837DA5D26E
310
2D0DAC71C253A7D1F89164AA7AE691E0279EEC179EDF397C504CD57E3566FDF5E66C50DFEED4090307FB8C94362D6BD6E5A615D77315DA585AC6B96EB4F9CFF462750933090F937E01504B030414000608080096707457821A65D406010000B201000008000000636F72652E786D6C8D50C96EC32010FD1534776CE32D6984
310
89E2AAFE829E7AA386B82836582C51FBF785D895DA5B4F83DEBC8DA1E7CF654677699D32BA03921580A41E8D507AEA20F82B3E023A336A8DF1BF6880345F6407090646276BC2BA43A3D15EEA846A23E40E72E7A40734CEF1D1811B3FE4C2331E7C64B85BB6F2F1C62799916CE331EAD5F2231DADE45E0A6065515698105C16
310
AFA43E15F5A96EDE689E988C86A0C41EA5444C5757252DB0C373D35EC8B1C1753DF4B81EDA1EF76D4370F33254C3D370290FA4A0791233EABC8D7FDE4D624F8F1CBFA75C9A6F2B46DF8D9977422C2590D1F317B0E890167F4A8755FCA3B4D2BE2A77C34DE1809158E8B188C1E982713CCE1B67BA36FB06504B010214001400
310
06080800967074570000000000000000000000003700000000000000000000000000000000006662782F45363730334239302D433134302D343030412D414330342D3746333742414443353432452F617474726962757465732E62696E504B0102140014000608080096707457000000000000000000000000350000000000
310
0000000000000000550000006662782F45363730334239302D433134302D343030412D414330342D3746333742414443353432452F76657274696365732E62696E504B0102140014000608080096707457F270F13306000000040000003600000000000000000000000000A80000006662782F45363730334239302D433134
310
302D343030412D414330342D3746333742414443353432452F747269616E676C65732E62696E504B010214001400060808009670745751464CB489000000430100003600000000000000000000000000020100006662782F45363730334239302D433134302D343030412D414330342D3746333742414443353432452F6469
310
726563746F72792E786D6C504B0102140014000608080096707457C38253603E070000201C00003400000000000000000000000000DF0100006662782F45363730334239302D433134302D343030412D414330342D3746333742414443353432452F6F626A656374732E786D6C504B0102140014000608080096707457BE9E
310
80413E0100004605000030000000000000000000000000006F0900006662782F45363730334239302D433134302D343030412D414330342D3746333742414443353432452F636E782E786D6C504B01021400140006080800967074571B418F247F000000A30000000B00000000000000000000000000FB0A00006662782F63
310
6E782E786D6C504B0102140014000608080096707457A6D797065F000000820000000700000000000000000000000000A30B0000636E782E786D6C504B01021400140006080800967074574FEB6A7CA0000000F40000001300000000000000000000000000270C00005B436F6E74656E745F54797065735D2E786D6C504B01
310
021400140006080800967074573DEE336E64000000790000001B00000000000000000000000000F80C00006175746F6465736B2D64657369676E2D7061636B6167652E786D6C504B0102140014000608080096707457E116B552F9000000960100003B00000000000000000000000000950D00006662782F45363730334239
310
302D433134302D343030412D414330342D3746333742414443353432452F7265736F75726365732F636F72652E786D6C504B0102140014000608080096707457571CE6FDF2000000B10100003100000000000000000000000000E70E00006662782F45363730334239302D433134302D343030412D414330342D3746333742
310
414443353432452F636F72652E786D6C504B010214001400060808009670745771D20B7B54010000DD0200000C00000000000000000000000000281000006662782F636F72652E786D6C504B0102140014000608080096707457821A65D406010000B20100000800000000000000000000000000A6110000636F72652E786D
310
6C504B0506000000000E000E0080040000D21200000000
  0
XRECORD
  5
843C
102
{ACAD_REACTORS
330
8437
102
}
330
8437
100
AcDbXrecord
280
     1
270
     1
271
     1
  0
XRECORD
  5
843B
102
{ACAD_REACTORS
330
8437
102
}
330
8437
100
AcDbXrecord
280
     1
270
     1
271
     1
  0
XRECORD
  5
843D
102
{ACAD_REACTORS
330
8437
102
}
330
8437
100
AcDbXrecord
280
     1
270
     1
271
     1
  0
XRECORD
  5
843A
102
{ACAD_REACTORS
330
8437
102
}
330
8437
100
AcDbXrecord
280
     1
270
     1
271
     1
  0
XRECORD
  5
864F
102
{ACAD_REACTORS
330
864E
102
}
330
864E
100
AcDbXrecord
280
     1
102
DISPLAYNAME
  1
Imperial24
102
FLAGS
 90
        0
  0
CELLSTYLEMAP
  5
8616
102
{ACAD_REACTORS
330
8615
102
}
330
8615
100
AcDbCellStyleMap
 90
        3
300
CELLSTYLE
  1
TABLEFORMAT_BEGIN
 90
        5
170
     1
 91
        0
 92
    32768
 62
   257
 93
        1
300
CONTENTFORMAT
  1
CONTENTFORMAT_BEGIN
 90
        0
 91
        0
 92
      512
 93
        0
300

 40
0.0
140
1.0
 94
        5
 62
     0
340
846A
144
0.25
309
CONTENTFORMAT_END
171
     0
 94
        0
309
TABLEFORMAT_END
  1
CELLSTYLE_BEGIN
 90
        1
 91
        1
300
_TITLE
309
CELLSTYLE_END
300
CELLSTYLE
  1
TABLEFORMAT_BEGIN
 90
        5
170
     1
 91
        0
 92
        0
 62
   257
 93
        1
300
CONTENTFORMAT
  1
CONTENTFORMAT_BEGIN
 90
        0
 91
        0
 92
      512
 93
        0
300

 40
0.0
140
1.0
 94
        5
 62
     0
340
846A
144
0.18
309
CONTENTFORMAT_END
171
     0
 94
        0
309
TABLEFORMAT_END
  1
CELLSTYLE_BEGIN
 90
        2
 91
        1
300
_HEADER
309
CELLSTYLE_END
300
CELLSTYLE
  1
TABLEFORMAT_BEGIN
 90
        5
170
     1
 91
        0
 92
        0
 62
   257
 93
        1
300
CONTENTFORMAT
  1
CONTENTFORMAT_BEGIN
 90
        0
 91
        0
 92
      512
 93
        0
300

 40
0.0
140
1.0
 94
        2
 62
     0
340
846A
144
0.18
309
CONTENTFORMAT_END
171
     0
 94
        0
309
TABLEFORMAT_END
  1
CELLSTYLE_BEGIN
 90
        3
 91
        2
300
_DATA
309
CELLSTYLE_END
  0
XRECORD
  5
864C
102
{ACAD_REACTORS
330
8615
102
}
330
8615
100
AcDbXrecord
280
     1
102
ACAD_ROUNDTRIP_PRE2007_TABLESTYLE
 90
      512
 91
        0
  1

 92
      512
 93
        0
  2

 94
      512
 95
        0
  3

  0
XRECORD
  5
8627
102
{ACAD_REACTORS
330
8626
102
}
330
8626
100
AcDbXrecord
280
     1
102
RTVSPost2010Prop28
280
     1
102
RTVSPost2010PropOp28
 70
     1
102
RTVSPost2010Prop29
280
     1
102
RTVSPost2010PropOp29
 70
     1
102
RTVSPost2010Prop30
280
     0
102
RTVSPost2010PropOp30
 70
     1
102
RTVSPost2010Prop31
280
     0
102
RTVSPost2010PropOp31
 70
     1
102
RTVSPost2010Prop32
280
     0
102
RTVSPost2010PropOp32
 70
     1
102
RTVSPost2010Prop33
280
     0
102
RTVSPost2010PropOp33
 70
     1
102
RTVSPost2010Prop34
280
     0
102
RTVSPost2010PropOp34
 70
     1
102
RTVSPost2010Prop35
280
     0
102
RTVSPost2010PropOp35
 70
     1
102
RTVSPost2010Prop36
280
     0
102
RTVSPost2010PropOp36
 70
     1
102
RTVSPost2010Prop37
 90
       50
102
RTVSPost2010PropOp37
 70
     1
102
RTVSPost2010Prop38
140
0.0
102
RTVSPost2010PropOp38
 70
     1
102
RTVSPost2010Prop39
140
1.0
102
RTVSPost2010PropOp39
 70
     1
102
RTVSPost2010Prop40
 90
        0
102
RTVSPost2010PropOp40
 70
     1
102
RTVSPost2010Prop41ColorIndex
 90
       18
102
RTVSPost2010Prop41ColorRGB
 90
        0
102
RTVSPost2010PropOp41
 70
     1
102
RTVSPost2010Prop42
 90
       50
102
RTVSPost2010PropOp42
 70
     1
102
RTVSPost2010Prop43
 90
        3
102
RTVSPost2010PropOp43
 70
     1
102
RTVSPost2010Prop44ColorIndex
 90
        5
102
RTVSPost2010Prop44ColorRGB
 90
      255
102
RTVSPost2010PropOp44
 70
     1
102
RTVSPost2010Prop45
280
     0
102
RTVSPost2010PropOp45
 70
     1
102
RTVSPost2010Prop46
 90
       50
102
RTVSPost2010PropOp46
 70
     1
102
RTVSPost2010Prop47
 90
       50
102
RTVSPost2010PropOp47
 70
     1
102
RTVSPost2010Prop48
 90
       50
102
RTVSPost2010PropOp48
 70
     1
102
RTVSPost2010Prop49
280
     0
102
RTVSPost2010PropOp49
 70
     1
102
RTVSPost2010Prop50
 90
       50
102
RTVSPost2010PropOp50
 70
     1
102
RTVSPost2010Prop51ColorIndex
 90
      256
102
RTVSPost2010Prop51ColorRGB
 90
-16777216
102
RTVSPost2010PropOp51
 70
     0
102
RTVSPost2010Prop52
140
1.0
102
RTVSPost2010PropOp52
 70
     0
102
RTVSPost2010Prop53
 90
        2
102
RTVSPost2010PropOp53
 70
     1
102
RTVSPost2010Prop54
  1
strokes_ogs.tif
102
RTVSPost2010PropOp54
 70
     1
102
RTVSPost2010Prop55
280
     0
102
RTVSPost2010PropOp55
 70
     1
102
RTVSPost2010Prop56
140
1.0
102
RTVSPost2010PropOp56
 70
     1
102
RTVSPost2010Prop57
140
1.0
102
RTVSPost2010PropOp57
 70
     1
102
RTVSPropertyOp0
 70
     1
102
RTVSPropertyOp1
 70
     1
102
RTVSPropertyOp2
 70
     1
102
RTVSPropertyOp3
 70
     1
102
RTVSPropertyOp4
 70
     1
102
RTVSPropertyOp5
 70
     1
102
RTVSPropertyOp6
 70
     1
102
RTVSPropertyOp7
 70
     1
102
RTVSPropertyOp8
 70
     1
102
RTVSPropertyOp9
 70
     1
102
RTVSPropertyOp10
 70
     1
102
RTVSPropertyOp11
 70
     1
102
RTVSPropertyOp12
 70
     1
102
RTVSPropertyOp13
 70
     1
102
RTVSPropertyOp14
 70
     1
102
RTVSPropertyOp15
 70
     1
102
RTVSPropertyOp16
 70
     1
102
RTVSPropertyOp17
 70
     1
102
RTVSPropertyOp18
 70
     1
102
RTVSPropertyOp19
 70
     1
102
RTVSPropertyOp20
 70
     1
102
RTVSPropertyOp21
 70
     1
102
RTVSPropertyOp22
 70
     1
102
RTVSPropertyOp23
 70
     1
102
RTVSPropertyOp24
 70
     1
102
RTVSPropertyOp25
 70
     1
102
RTVSPropertyOp26
 70
     1
102
RTVSPropertyOp27
 70
     1
102
RTVSPropertyOp28
 70
     1
102
RTVSPropertyOp29
 70
     1
102
RTVSPropertyOp30
 70
     1
102
RTVSPropertyOp31
 70
     1
102
RTVSPropertyOp32
 70
     1
102
RTVSPropertyOp33
 70
     1
102
RTVSPropertyOp34
 70
     1
102
RTVSPropertyOp35
 70
     1
102
RTVSPropertyOp36
 70
     1
102
RTVSPropertyOp37
 70
     1
102
RTVSPropertyOp38
 70
     1
102
RTVSPropertyOp39
 70
     1
102
RTVSPropertyOp40
 70
     1
102
RTVSPropertyOp41
 70
     1
102
RTVSPropertyOp42
 70
     1
102
RTVSPropertyOp43
 70
     1
102
RTVSPropertyOp44
 70
     1
102
RTVSPropertyOp45
 70
     1
102
RTVSPropertyOp46
 70
     1
102
RTVSPropertyOp47
 70
     1
102
RTVSPropertyOp48
 70
     1
102
RTVSPropertyOp49
 70
     1
102
RTVSPropertyOp50
 70
     1
102
RTVSPropertyOp51
 70
     0
102
RTVSPropertyOp52
 70
     0
102
RTVSPropertyOp53
 70
     1
102
RTVSPropertyOp54
 70
     1
102
RTVSPropertyOp55
 70
     1
102
RTVSPropertyOp56
 70
     1
102
RTVSPropertyOp57
 70
     1
102
RTVSPropertyOp58
 70
     1
102
RTVSPropertyOp59
 70
     1
102
RTVSPropertyOp60
 70
     1
102
RTVSPropertyOp61
 70
     1
102
RTVSPropertyOp62
 70
     1
  0
XRECORD
  5
8625
102
{ACAD_REACTORS
330
8624
102
}
330
8624
100
AcDbXrecord
280
     1
102
RTVSPost2010Prop28
280
     0
102
RTVSPost2010PropOp28
 70
     1
102
RTVSPost2010Prop29
280
     1
102
RTVSPost2010PropOp29
 70
     1
102
RTVSPost2010Prop30
280
     1
102
RTVSPost2010PropOp30
 70
     1
102
RTVSPost2010Prop31
280
     0
102
RTVSPost2010PropOp31
 70
     1
102
RTVSPost2010Prop32
280
     0
102
RTVSPost2010PropOp32
 70
     1
102
RTVSPost2010Prop33
280
     0
102
RTVSPost2010PropOp33
 70
     1
102
RTVSPost2010Prop34
280
     0
102
RTVSPost2010PropOp34
 70
     1
102
RTVSPost2010Prop35
280
     0
102
RTVSPost2010PropOp35
 70
     1
102
RTVSPost2010Prop36
280
     0
102
RTVSPost2010PropOp36
 70
     1
102
RTVSPost2010Prop37
 90
       50
102
RTVSPost2010PropOp37
 70
     1
102
RTVSPost2010Prop38
140
0.0
102
RTVSPost2010PropOp38
 70
     1
102
RTVSPost2010Prop39
140
1.0
102
RTVSPost2010PropOp39
 70
     1
102
RTVSPost2010Prop40
 90
        0
102
RTVSPost2010PropOp40
 70
     1
102
RTVSPost2010Prop41ColorIndex
 90
       18
102
RTVSPost2010Prop41ColorRGB
 90
        0
102
RTVSPost2010PropOp41
 70
     1
102
RTVSPost2010Prop42
 90
       50
102
RTVSPost2010PropOp42
 70
     1
102
RTVSPost2010Prop43
 90
        3
102
RTVSPost2010PropOp43
 70
     1
102
RTVSPost2010Prop44ColorIndex
 90
        5
102
RTVSPost2010Prop44ColorRGB
 90
      255
102
RTVSPost2010PropOp44
 70
     1
102
RTVSPost2010Prop45
280
     0
102
RTVSPost2010PropOp45
 70
     1
102
RTVSPost2010Prop46
 90
       50
102
RTVSPost2010PropOp46
 70
     1
102
RTVSPost2010Prop47
 90
       50
102
RTVSPost2010PropOp47
 70
     1
102
RTVSPost2010Prop48
 90
       50
102
RTVSPost2010PropOp48
 70
     1
102
RTVSPost2010Prop49
280
     0
102
RTVSPost2010PropOp49
 70
     1
102
RTVSPost2010Prop50
 90
       50
102
RTVSPost2010PropOp50
 70
     1
102
RTVSPost2010Prop51ColorIndex
 90
      256
102
RTVSPost2010Prop51ColorRGB
 90
-16777216
102
RTVSPost2010PropOp51
 70
     0
102
RTVSPost2010Prop52
140
1.0
102
RTVSPost2010PropOp52
 70
     0
102
RTVSPost2010Prop53
 90
        2
102
RTVSPost2010PropOp53
 70
     1
102
RTVSPost2010Prop54
  1
strokes_ogs.tif
102
RTVSPost2010PropOp54
 70
     1
102
RTVSPost2010Prop55
280
     0
102
RTVSPost2010PropOp55
 70
     1
102
RTVSPost2010Prop56
140
1.0
102
RTVSPost2010PropOp56
 70
     1
102
RTVSPost2010Prop57
140
1.0
102
RTVSPost2010PropOp57
 70
     1
102
RTVSPropertyOp0
 70
     1
102
RTVSPropertyOp1
 70
     1
102
RTVSPropertyOp2
 70
     1
102
RTVSPropertyOp3
 70
     1
102
RTVSPropertyOp4
 70
     1
102
RTVSPropertyOp5
 70
     1
102
RTVSPropertyOp6
 70
     1
102
RTVSPropertyOp7
 70
     1
102
RTVSPropertyOp8
 70
     1
102
RTVSPropertyOp9
 70
     1
102
RTVSPropertyOp10
 70
     1
102
RTVSPropertyOp11
 70
     1
102
RTVSPropertyOp12
 70
     1
102
RTVSPropertyOp13
 70
     1
102
RTVSPropertyOp14
 70
     1
102
RTVSPropertyOp15
 70
     1
102
RTVSPropertyOp16
 70
     1
102
RTVSPropertyOp17
 70
     1
102
RTVSPropertyOp18
 70
     1
102
RTVSPropertyOp19
 70
     1
102
RTVSPropertyOp20
 70
     1
102
RTVSPropertyOp21
 70
     1
102
RTVSPropertyOp22
 70
     1
102
RTVSPropertyOp23
 70
     1
102
RTVSPropertyOp24
 70
     1
102
RTVSPropertyOp25
 70
     1
102
RTVSPropertyOp26
 70
     1
102
RTVSPropertyOp27
 70
     1
102
RTVSPropertyOp28
 70
     1
102
RTVSPropertyOp29
 70
     1
102
RTVSPropertyOp30
 70
     1
102
RTVSPropertyOp31
 70
     1
102
RTVSPropertyOp32
 70
     1
102
RTVSPropertyOp33
 70
     1
102
RTVSPropertyOp34
 70
     1
102
RTVSPropertyOp35
 70
     1
102
RTVSPropertyOp36
 70
     1
102
RTVSPropertyOp37
 70
     1
102
RTVSPropertyOp38
 70
     1
102
RTVSPropertyOp39
 70
     1
102
RTVSPropertyOp40
 70
     1
102
RTVSPropertyOp41
 70
     1
102
RTVSPropertyOp42
 70
     1
102
RTVSPropertyOp43
 70
     1
102
RTVSPropertyOp44
 70
     1
102
RTVSPropertyOp45
 70
     1
102
RTVSPropertyOp46
 70
     1
102
RTVSPropertyOp47
 70
     1
102
RTVSPropertyOp48
 70
     1
102
RTVSPropertyOp49
 70
     1
102
RTVSPropertyOp50
 70
     1
102
RTVSPropertyOp51
 70
     0
102
RTVSPropertyOp52
 70
     0
102
RTVSPropertyOp53
 70
     1
102
RTVSPropertyOp54
 70
     1
102
RTVSPropertyOp55
 70
     1
102
RTVSPropertyOp56
 70
     1
102
RTVSPropertyOp57
 70
     1
102
RTVSPropertyOp58
 70
     1
102
RTVSPropertyOp59
 70
     1
102
RTVSPropertyOp60
 70
     1
102
RTVSPropertyOp61
 70
     1
102
RTVSPropertyOp62
 70
     1
  0
XRECORD
  5
8633
102
{ACAD_REACTORS
330
8632
102
}
330
8632
100
AcDbXrecord
280
     1
102
RTVSPost2010Prop28
280
     0
102
RTVSPost2010PropOp28
 70
     1
102
RTVSPost2010Prop29
280
     1
102
RTVSPost2010PropOp29
 70
     1
102
RTVSPost2010Prop30
280
     1
102
RTVSPost2010PropOp30
 70
     1
102
RTVSPost2010Prop31
280
     0
102
RTVSPost2010PropOp31
 70
     1
102
RTVSPost2010Prop32
280
     0
102
RTVSPost2010PropOp32
 70
     1
102
RTVSPost2010Prop33
280
     0
102
RTVSPost2010PropOp33
 70
     1
102
RTVSPost2010Prop34
280
     0
102
RTVSPost2010PropOp34
 70
     1
102
RTVSPost2010Prop35
280
     0
102
RTVSPost2010PropOp35
 70
     1
102
RTVSPost2010Prop36
280
     0
102
RTVSPost2010PropOp36
 70
     1
102
RTVSPost2010Prop37
 90
       50
102
RTVSPost2010PropOp37
 70
     1
102
RTVSPost2010Prop38
140
0.0
102
RTVSPost2010PropOp38
 70
     1
102
RTVSPost2010Prop39
140
1.0
102
RTVSPost2010PropOp39
 70
     1
102
RTVSPost2010Prop40
 90
        0
102
RTVSPost2010PropOp40
 70
     1
102
RTVSPost2010Prop41ColorIndex
 90
       18
102
RTVSPost2010Prop41ColorRGB
 90
        0
102
RTVSPost2010PropOp41
 70
     1
102
RTVSPost2010Prop42
 90
       50
102
RTVSPost2010PropOp42
 70
     1
102
RTVSPost2010Prop43
 90
        3
102
RTVSPost2010PropOp43
 70
     1
102
RTVSPost2010Prop44ColorIndex
 90
        5
102
RTVSPost2010Prop44ColorRGB
 90
      255
102
RTVSPost2010PropOp44
 70
     1
102
RTVSPost2010Prop45
280
     0
102
RTVSPost2010PropOp45
 70
     1
102
RTVSPost2010Prop46
 90
       50
102
RTVSPost2010PropOp46
 70
     1
102
RTVSPost2010Prop47
 90
       50
102
RTVSPost2010PropOp47
 70
     1
102
RTVSPost2010Prop48
 90
       50
102
RTVSPost2010PropOp48
 70
     1
102
RTVSPost2010Prop49
280
     0
102
RTVSPost2010PropOp49
 70
     1
102
RTVSPost2010Prop50
 90
       50
102
RTVSPost2010PropOp50
 70
     1
102
RTVSPost2010Prop51ColorIndex
 90
      256
102
RTVSPost2010Prop51ColorRGB
 90
-16777216
102
RTVSPost2010PropOp51
 70
     0
102
RTVSPost2010Prop52
140
1.0
102
RTVSPost2010PropOp52
 70
     0
102
RTVSPost2010Prop53
 90
        2
102
RTVSPost2010PropOp53
 70
     1
102
RTVSPost2010Prop54
  1
strokes_ogs.tif
102
RTVSPost2010PropOp54
 70
     1
102
RTVSPost2010Prop55
280
     0
102
RTVSPost2010PropOp55
 70
     1
102
RTVSPost2010Prop56
140
1.0
102
RTVSPost2010PropOp56
 70
     1
102
RTVSPost2010Prop57
140
1.0
102
RTVSPost2010PropOp57
 70
     1
102
RTVSPropertyOp0
 70
     1
102
RTVSPropertyOp1
 70
     1
102
RTVSPropertyOp2
 70
     1
102
RTVSPropertyOp3
 70
     1
102
RTVSPropertyOp4
 70
     1
102
RTVSPropertyOp5
 70
     1
102
RTVSPropertyOp6
 70
     1
102
RTVSPropertyOp7
 70
     1
102
RTVSPropertyOp8
 70
     1
102
RTVSPropertyOp9
 70
     1
102
RTVSPropertyOp10
 70
     1
102
RTVSPropertyOp11
 70
     1
102
RTVSPropertyOp12
 70
     1
102
RTVSPropertyOp13
 70
     1
102
RTVSPropertyOp14
 70
     1
102
RTVSPropertyOp15
 70
     1
102
RTVSPropertyOp16
 70
     1
102
RTVSPropertyOp17
 70
     1
102
RTVSPropertyOp18
 70
     1
102
RTVSPropertyOp19
 70
     1
102
RTVSPropertyOp20
 70
     1
102
RTVSPropertyOp21
 70
     1
102
RTVSPropertyOp22
 70
     1
102
RTVSPropertyOp23
 70
     1
102
RTVSPropertyOp24
 70
     1
102
RTVSPropertyOp25
 70
     1
102
RTVSPropertyOp26
 70
     1
102
RTVSPropertyOp27
 70
     1
102
RTVSPropertyOp28
 70
     1
102
RTVSPropertyOp29
 70
     1
102
RTVSPropertyOp30
 70
     1
102
RTVSPropertyOp31
 70
     1
102
RTVSPropertyOp32
 70
     1
102
RTVSPropertyOp33
 70
     1
102
RTVSPropertyOp34
 70
     1
102
RTVSPropertyOp35
 70
     1
102
RTVSPropertyOp36
 70
     1
102
RTVSPropertyOp37
 70
     1
102
RTVSPropertyOp38
 70
     1
102
RTVSPropertyOp39
 70
     1
102
RTVSPropertyOp40
 70
     1
102
RTVSPropertyOp41
 70
     1
102
RTVSPropertyOp42
 70
     1
102
RTVSPropertyOp43
 70
     1
102
RTVSPropertyOp44
 70
     1
102
RTVSPropertyOp45
 70
     1
102
RTVSPropertyOp46
 70
     1
102
RTVSPropertyOp47
 70
     1
102
RTVSPropertyOp48
 70
     1
102
RTVSPropertyOp49
 70
     1
102
RTVSPropertyOp50
 70
     1
102
RTVSPropertyOp51
 70
     0
102
RTVSPropertyOp52
 70
     0
102
RTVSPropertyOp53
 70
     1
102
RTVSPropertyOp54
 70
     1
102
RTVSPropertyOp55
 70
     1
102
RTVSPropertyOp56
 70
     1
102
RTVSPropertyOp57
 70
     1
102
RTVSPropertyOp58
 70
     1
102
RTVSPropertyOp59
 70
     1
102
RTVSPropertyOp60
 70
     1
102
RTVSPropertyOp61
 70
     1
102
RTVSPropertyOp62
 70
     1
  0
XRECORD
  5
863B
102
{ACAD_REACTORS
330
863A
102
}
330
863A
100
AcDbXrecord
280
     1
102
RTVSPost2010Prop28
280
     0
102
RTVSPost2010PropOp28
 70
     1
102
RTVSPost2010Prop29
280
     1
102
RTVSPost2010PropOp29
 70
     1
102
RTVSPost2010Prop30
280
     1
102
RTVSPost2010PropOp30
 70
     1
102
RTVSPost2010Prop31
280
     0
102
RTVSPost2010PropOp31
 70
     1
102
RTVSPost2010Prop32
280
     0
102
RTVSPost2010PropOp32
 70
     1
102
RTVSPost2010Prop33
280
     0
102
RTVSPost2010PropOp33
 70
     1
102
RTVSPost2010Prop34
280
     0
102
RTVSPost2010PropOp34
 70
     1
102
RTVSPost2010Prop35
280
     0
102
RTVSPost2010PropOp35
 70
     1
102
RTVSPost2010Prop36
280
     0
102
RTVSPost2010PropOp36
 70
     1
102
RTVSPost2010Prop37
 90
       50
102
RTVSPost2010PropOp37
 70
     1
102
RTVSPost2010Prop38
140
0.0
102
RTVSPost2010PropOp38
 70
     1
102
RTVSPost2010Prop39
140
1.0
102
RTVSPost2010PropOp39
 70
     1
102
RTVSPost2010Prop40
 90
        0
102
RTVSPost2010PropOp40
 70
     1
102
RTVSPost2010Prop41ColorIndex
 90
       18
102
RTVSPost2010Prop41ColorRGB
 90
        0
102
RTVSPost2010PropOp41
 70
     1
102
RTVSPost2010Prop42
 90
       50
102
RTVSPost2010PropOp42
 70
     1
102
RTVSPost2010Prop43
 90
        3
102
RTVSPost2010PropOp43
 70
     1
102
RTVSPost2010Prop44ColorIndex
 90
        5
102
RTVSPost2010Prop44ColorRGB
 90
      255
102
RTVSPost2010PropOp44
 70
     1
102
RTVSPost2010Prop45
280
     0
102
RTVSPost2010PropOp45
 70
     1
102
RTVSPost2010Prop46
 90
       50
102
RTVSPost2010PropOp46
 70
     1
102
RTVSPost2010Prop47
 90
       50
102
RTVSPost2010PropOp47
 70
     1
102
RTVSPost2010Prop48
 90
       50
102
RTVSPost2010PropOp48
 70
     1
102
RTVSPost2010Prop49
280
     0
102
RTVSPost2010PropOp49
 70
     1
102
RTVSPost2010Prop50
 90
       50
102
RTVSPost2010PropOp50
 70
     1
102
RTVSPost2010Prop51ColorIndex
 90
      256
102
RTVSPost2010Prop51ColorRGB
 90
-16777216
102
RTVSPost2010PropOp51
 70
     0
102
RTVSPost2010Prop52
140
1.0
102
RTVSPost2010PropOp52
 70
     0
102
RTVSPost2010Prop53
 90
        2
102
RTVSPost2010PropOp53
 70
     1
102
RTVSPost2010Prop54
  1
strokes_ogs.tif
102
RTVSPost2010PropOp54
 70
     1
102
RTVSPost2010Prop55
280
     0
102
RTVSPost2010PropOp55
 70
     1
102
RTVSPost2010Prop56
140
1.0
102
RTVSPost2010PropOp56
 70
     1
102
RTVSPost2010Prop57
140
1.0
102
RTVSPost2010PropOp57
 70
     1
102
RTVSPropertyOp0
 70
     1
102
RTVSPropertyOp1
 70
     1
102
RTVSPropertyOp2
 70
     1
102
RTVSPropertyOp3
 70
     1
102
RTVSPropertyOp4
 70
     1
102
RTVSPropertyOp5
 70
     1
102
RTVSPropertyOp6
 70
     1
102
RTVSPropertyOp7
 70
     1
102
RTVSPropertyOp8
 70
     1
102
RTVSPropertyOp9
 70
     1
102
RTVSPropertyOp10
 70
     1
102
RTVSPropertyOp11
 70
     1
102
RTVSPropertyOp12
 70
     1
102
RTVSPropertyOp13
 70
     1
102
RTVSPropertyOp14
 70
     1
102
RTVSPropertyOp15
 70
     1
102
RTVSPropertyOp16
 70
     1
102
RTVSPropertyOp17
 70
     1
102
RTVSPropertyOp18
 70
     1
102
RTVSPropertyOp19
 70
     1
102
RTVSPropertyOp20
 70
     1
102
RTVSPropertyOp21
 70
     1
102
RTVSPropertyOp22
 70
     1
102
RTVSPropertyOp23
 70
     1
102
RTVSPropertyOp24
 70
     1
102
RTVSPropertyOp25
 70
     1
102
RTVSPropertyOp26
 70
     1
102
RTVSPropertyOp27
 70
     1
102
RTVSPropertyOp28
 70
     1
102
RTVSPropertyOp29
 70
     1
102
RTVSPropertyOp30
 70
     1
102
RTVSPropertyOp31
 70
     1
102
RTVSPropertyOp32
 70
     1
102
RTVSPropertyOp33
 70
     1
102
RTVSPropertyOp34
 70
     1
102
RTVSPropertyOp35
 70
     1
102
RTVSPropertyOp36
 70
     1
102
RTVSPropertyOp37
 70
     1
102
RTVSPropertyOp38
 70
     1
102
RTVSPropertyOp39
 70
     1
102
RTVSPropertyOp40
 70
     1
102
RTVSPropertyOp41
 70
     1
102
RTVSPropertyOp42
 70
     1
102
RTVSPropertyOp43
 70
     1
102
RTVSPropertyOp44
 70
     1
102
RTVSPropertyOp45
 70
     1
102
RTVSPropertyOp46
 70
     1
102
RTVSPropertyOp47
 70
     1
102
RTVSPropertyOp48
 70
     1
102
RTVSPropertyOp49
 70
     1
102
RTVSPropertyOp50
 70
     1
102
RTVSPropertyOp51
 70
     0
102
RTVSPropertyOp52
 70
     0
102
RTVSPropertyOp53
 70
     1
102
RTVSPropertyOp54
 70
     1
102
RTVSPropertyOp55
 70
     1
102
RTVSPropertyOp56
 70
     1
102
RTVSPropertyOp57
 70
     1
102
RTVSPropertyOp58
 70
     1
102
RTVSPropertyOp59
 70
     1
102
RTVSPropertyOp60
 70
     1
102
RTVSPropertyOp61
 70
     1
102
RTVSPropertyOp62
 70
     1
  0
XRECORD
  5
862D
102
{ACAD_REACTORS
330
862C
102
}
330
862C
100
AcDbXrecord
280
     1
102
RTVSPost2010Prop28
280
     0
102
RTVSPost2010PropOp28
 70
     1
102
RTVSPost2010Prop29
280
     1
102
RTVSPost2010PropOp29
 70
     1
102
RTVSPost2010Prop30
280
     1
102
RTVSPost2010PropOp30
 70
     1
102
RTVSPost2010Prop31
280
     0
102
RTVSPost2010PropOp31
 70
     1
102
RTVSPost2010Prop32
280
     0
102
RTVSPost2010PropOp32
 70
     1
102
RTVSPost2010Prop33
280
     0
102
RTVSPost2010PropOp33
 70
     1
102
RTVSPost2010Prop34
280
     0
102
RTVSPost2010PropOp34
 70
     1
102
RTVSPost2010Prop35
280
     0
102
RTVSPost2010PropOp35
 70
     1
102
RTVSPost2010Prop36
280
     0
102
RTVSPost2010PropOp36
 70
     1
102
RTVSPost2010Prop37
 90
       50
102
RTVSPost2010PropOp37
 70
     1
102
RTVSPost2010Prop38
140
0.0
102
RTVSPost2010PropOp38
 70
     1
102
RTVSPost2010Prop39
140
1.0
102
RTVSPost2010PropOp39
 70
     1
102
RTVSPost2010Prop40
 90
        0
102
RTVSPost2010PropOp40
 70
     1
102
RTVSPost2010Prop41ColorIndex
 90
       18
102
RTVSPost2010Prop41ColorRGB
 90
        0
102
RTVSPost2010PropOp41
 70
     1
102
RTVSPost2010Prop42
 90
       50
102
RTVSPost2010PropOp42
 70
     1
102
RTVSPost2010Prop43
 90
        3
102
RTVSPost2010PropOp43
 70
     1
102
RTVSPost2010Prop44ColorIndex
 90
        5
102
RTVSPost2010Prop44ColorRGB
 90
      255
102
RTVSPost2010PropOp44
 70
     1
102
RTVSPost2010Prop45
280
     0
102
RTVSPost2010PropOp45
 70
     1
102
RTVSPost2010Prop46
 90
       50
102
RTVSPost2010PropOp46
 70
     1
102
RTVSPost2010Prop47
 90
       50
102
RTVSPost2010PropOp47
 70
     1
102
RTVSPost2010Prop48
 90
       50
102
RTVSPost2010PropOp48
 70
     1
102
RTVSPost2010Prop49
280
     0
102
RTVSPost2010PropOp49
 70
     1
102
RTVSPost2010Prop50
 90
       50
102
RTVSPost2010PropOp50
 70
     1
102
RTVSPost2010Prop51ColorIndex
 90
      256
102
RTVSPost2010Prop51ColorRGB
 90
-16777216
102
RTVSPost2010PropOp51
 70
     0
102
RTVSPost2010Prop52
140
1.0
102
RTVSPost2010PropOp52
 70
     0
102
RTVSPost2010Prop53
 90
        2
102
RTVSPost2010PropOp53
 70
     1
102
RTVSPost2010Prop54
  1
strokes_ogs.tif
102
RTVSPost2010PropOp54
 70
     1
102
RTVSPost2010Prop55
280
     0
102
RTVSPost2010PropOp55
 70
     1
102
RTVSPost2010Prop56
140
1.0
102
RTVSPost2010PropOp56
 70
     1
102
RTVSPost2010Prop57
140
1.0
102
RTVSPost2010PropOp57
 70
     1
102
RTVSPropertyOp0
 70
     1
102
RTVSPropertyOp1
 70
     1
102
RTVSPropertyOp2
 70
     1
102
RTVSPropertyOp3
 70
     1
102
RTVSPropertyOp4
 70
     1
102
RTVSPropertyOp5
 70
     1
102
RTVSPropertyOp6
 70
     1
102
RTVSPropertyOp7
 70
     1
102
RTVSPropertyOp8
 70
     1
102
RTVSPropertyOp9
 70
     1
102
RTVSPropertyOp10
 70
     1
102
RTVSPropertyOp11
 70
     1
102
RTVSPropertyOp12
 70
     1
102
RTVSPropertyOp13
 70
     1
102
RTVSPropertyOp14
 70
     1
102
RTVSPropertyOp15
 70
     1
102
RTVSPropertyOp16
 70
     1
102
RTVSPropertyOp17
 70
     1
102
RTVSPropertyOp18
 70
     1
102
RTVSPropertyOp19
 70
     1
102
RTVSPropertyOp20
 70
     1
102
RTVSPropertyOp21
 70
     1
102
RTVSPropertyOp22
 70
     1
102
RTVSPropertyOp23
 70
     1
102
RTVSPropertyOp24
 70
     1
102
RTVSPropertyOp25
 70
     1
102
RTVSPropertyOp26
 70
     1
102
RTVSPropertyOp27
 70
     1
102
RTVSPropertyOp28
 70
     1
102
RTVSPropertyOp29
 70
     1
102
RTVSPropertyOp30
 70
     1
102
RTVSPropertyOp31
 70
     1
102
RTVSPropertyOp32
 70
     1
102
RTVSPropertyOp33
 70
     1
102
RTVSPropertyOp34
 70
     1
102
RTVSPropertyOp35
 70
     1
102
RTVSPropertyOp36
 70
     1
102
RTVSPropertyOp37
 70
     1
102
RTVSPropertyOp38
 70
     1
102
RTVSPropertyOp39
 70
     1
102
RTVSPropertyOp40
 70
     1
102
RTVSPropertyOp41
 70
     1
102
RTVSPropertyOp42
 70
     1
102
RTVSPropertyOp43
 70
     1
102
RTVSPropertyOp44
 70
     1
102
RTVSPropertyOp45
 70
     1
102
RTVSPropertyOp46
 70
     1
102
RTVSPropertyOp47
 70
     1
102
RTVSPropertyOp48
 70
     1
102
RTVSPropertyOp49
 70
     1
102
RTVSPropertyOp50
 70
     1
102
RTVSPropertyOp51
 70
     0
102
RTVSPropertyOp52
 70
     0
102
RTVSPropertyOp53
 70
     1
102
RTVSPropertyOp54
 70
     1
102
RTVSPropertyOp55
 70
     1
102
RTVSPropertyOp56
 70
     1
102
RTVSPropertyOp57
 70
     1
102
RTVSPropertyOp58
 70
     1
102
RTVSPropertyOp59
 70
     1
102
RTVSPropertyOp60
 70
     1
102
RTVSPropertyOp61
 70
     1
102
RTVSPropertyOp62
 70
     1
  0
XRECORD
  5
8631
102
{ACAD_REACTORS
330
8630
102
}
330
8630
100
AcDbXrecord
280
     1
102
RTVSPost2010Prop28
280
     0
102
RTVSPost2010PropOp28
 70
     1
102
RTVSPost2010Prop29
280
     1
102
RTVSPost2010PropOp29
 70
     1
102
RTVSPost2010Prop30
280
     1
102
RTVSPost2010PropOp30
 70
     1
102
RTVSPost2010Prop31
280
     0
102
RTVSPost2010PropOp31
 70
     1
102
RTVSPost2010Prop32
280
     0
102
RTVSPost2010PropOp32
 70
     1
102
RTVSPost2010Prop33
280
     0
102
RTVSPost2010PropOp33
 70
     1
102
RTVSPost2010Prop34
280
     0
102
RTVSPost2010PropOp34
 70
     1
102
RTVSPost2010Prop35
280
     0
102
RTVSPost2010PropOp35
 70
     1
102
RTVSPost2010Prop36
280
     0
102
RTVSPost2010PropOp36
 70
     1
102
RTVSPost2010Prop37
 90
       50
102
RTVSPost2010PropOp37
 70
     1
102
RTVSPost2010Prop38
140
0.0
102
RTVSPost2010PropOp38
 70
     1
102
RTVSPost2010Prop39
140
1.0
102
RTVSPost2010PropOp39
 70
     1
102
RTVSPost2010Prop40
 90
        0
102
RTVSPost2010PropOp40
 70
     1
102
RTVSPost2010Prop41ColorIndex
 90
       18
102
RTVSPost2010Prop41ColorRGB
 90
        0
102
RTVSPost2010PropOp41
 70
     1
102
RTVSPost2010Prop42
 90
       50
102
RTVSPost2010PropOp42
 70
     1
102
RTVSPost2010Prop43
 90
        3
102
RTVSPost2010PropOp43
 70
     1
102
RTVSPost2010Prop44ColorIndex
 90
        5
102
RTVSPost2010Prop44ColorRGB
 90
      255
102
RTVSPost2010PropOp44
 70
     1
102
RTVSPost2010Prop45
280
     0
102
RTVSPost2010PropOp45
 70
     1
102
RTVSPost2010Prop46
 90
       50
102
RTVSPost2010PropOp46
 70
     1
102
RTVSPost2010Prop47
 90
       50
102
RTVSPost2010PropOp47
 70
     1
102
RTVSPost2010Prop48
 90
       50
102
RTVSPost2010PropOp48
 70
     1
102
RTVSPost2010Prop49
280
     0
102
RTVSPost2010PropOp49
 70
     1
102
RTVSPost2010Prop50
 90
       50
102
RTVSPost2010PropOp50
 70
     1
102
RTVSPost2010Prop51ColorIndex
 90
      256
102
RTVSPost2010Prop51ColorRGB
 90
-16777216
102
RTVSPost2010PropOp51
 70
     0
102
RTVSPost2010Prop52
140
1.0
102
RTVSPost2010PropOp52
 70
     0
102
RTVSPost2010Prop53
 90
        2
102
RTVSPost2010PropOp53
 70
     1
102
RTVSPost2010Prop54
  1
strokes_ogs.tif
102
RTVSPost2010PropOp54
 70
     1
102
RTVSPost2010Prop55
280
     0
102
RTVSPost2010PropOp55
 70
     1
102
RTVSPost2010Prop56
140
1.0
102
RTVSPost2010PropOp56
 70
     1
102
RTVSPost2010Prop57
140
1.0
102
RTVSPost2010PropOp57
 70
     1
102
RTVSPropertyOp0
 70
     1
102
RTVSPropertyOp1
 70
     1
102
RTVSPropertyOp2
 70
     1
102
RTVSPropertyOp3
 70
     1
102
RTVSPropertyOp4
 70
     1
102
RTVSPropertyOp5
 70
     1
102
RTVSPropertyOp6
 70
     1
102
RTVSPropertyOp7
 70
     1
102
RTVSPropertyOp8
 70
     1
102
RTVSPropertyOp9
 70
     1
102
RTVSPropertyOp10
 70
     1
102
RTVSPropertyOp11
 70
     1
102
RTVSPropertyOp12
 70
     1
102
RTVSPropertyOp13
 70
     1
102
RTVSPropertyOp14
 70
     1
102
RTVSPropertyOp15
 70
     1
102
RTVSPropertyOp16
 70
     1
102
RTVSPropertyOp17
 70
     1
102
RTVSPropertyOp18
 70
     1
102
RTVSPropertyOp19
 70
     1
102
RTVSPropertyOp20
 70
     1
102
RTVSPropertyOp21
 70
     1
102
RTVSPropertyOp22
 70
     1
102
RTVSPropertyOp23
 70
     1
102
RTVSPropertyOp24
 70
     1
102
RTVSPropertyOp25
 70
     1
102
RTVSPropertyOp26
 70
     1
102
RTVSPropertyOp27
 70
     1
102
RTVSPropertyOp28
 70
     1
102
RTVSPropertyOp29
 70
     1
102
RTVSPropertyOp30
 70
     1
102
RTVSPropertyOp31
 70
     1
102
RTVSPropertyOp32
 70
     1
102
RTVSPropertyOp33
 70
     1
102
RTVSPropertyOp34
 70
     1
102
RTVSPropertyOp35
 70
     1
102
RTVSPropertyOp36
 70
     1
102
RTVSPropertyOp37
 70
     1
102
RTVSPropertyOp38
 70
     1
102
RTVSPropertyOp39
 70
     1
102
RTVSPropertyOp40
 70
     1
102
RTVSPropertyOp41
 70
     1
102
RTVSPropertyOp42
 70
     1
102
RTVSPropertyOp43
 70
     1
102
RTVSPropertyOp44
 70
     1
102
RTVSPropertyOp45
 70
     1
102
RTVSPropertyOp46
 70
     1
102
RTVSPropertyOp47
 70
     1
102
RTVSPropertyOp48
 70
     1
102
RTVSPropertyOp49
 70
     1
102
RTVSPropertyOp50
 70
     1
102
RTVSPropertyOp51
 70
     0
102
RTVSPropertyOp52
 70
     0
102
RTVSPropertyOp53
 70
     1
102
RTVSPropertyOp54
 70
     1
102
RTVSPropertyOp55
 70
     1
102
RTVSPropertyOp56
 70
     1
102
RTVSPropertyOp57
 70
     1
102
RTVSPropertyOp58
 70
     1
102
RTVSPropertyOp59
 70
     1
102
RTVSPropertyOp60
 70
     1
102
RTVSPropertyOp61
 70
     1
102
RTVSPropertyOp62
 70
     1
  0
XRECORD
  5
864B
102
{ACAD_REACTORS
330
864A
102
}
330
864A
100
AcDbXrecord
280
     1
102
RTVSPost2010Prop28
280
     0
102
RTVSPost2010PropOp28
 70
     1
102
RTVSPost2010Prop29
280
     1
102
RTVSPost2010PropOp29
 70
     1
102
RTVSPost2010Prop30
280
     1
102
RTVSPost2010PropOp30
 70
     1
102
RTVSPost2010Prop31
280
     0
102
RTVSPost2010PropOp31
 70
     1
102
RTVSPost2010Prop32
280
     0
102
RTVSPost2010PropOp32
 70
     1
102
RTVSPost2010Prop33
280
     0
102
RTVSPost2010PropOp33
 70
     1
102
RTVSPost2010Prop34
280
     0
102
RTVSPost2010PropOp34
 70
     1
102
RTVSPost2010Prop35
280
     0
102
RTVSPost2010PropOp35
 70
     1
102
RTVSPost2010Prop36
280
     0
102
RTVSPost2010PropOp36
 70
     1
102
RTVSPost2010Prop37
 90
       50
102
RTVSPost2010PropOp37
 70
     0
102
RTVSPost2010Prop38
140
0.0
102
RTVSPost2010PropOp38
 70
     0
102
RTVSPost2010Prop39
140
1.0
102
RTVSPost2010PropOp39
 70
     0
102
RTVSPost2010Prop40
 90
        0
102
RTVSPost2010PropOp40
 70
     0
102
RTVSPost2010Prop41ColorIndex
 90
       18
102
RTVSPost2010Prop41ColorRGB
 90
        0
102
RTVSPost2010PropOp41
 70
     0
102
RTVSPost2010Prop42
 90
       50
102
RTVSPost2010PropOp42
 70
     0
102
RTVSPost2010Prop43
 90
        3
102
RTVSPost2010PropOp43
 70
     0
102
RTVSPost2010Prop44ColorIndex
 90
        5
102
RTVSPost2010Prop44ColorRGB
 90
      255
102
RTVSPost2010PropOp44
 70
     0
102
RTVSPost2010Prop45
280
     0
102
RTVSPost2010PropOp45
 70
     1
102
RTVSPost2010Prop46
 90
       50
102
RTVSPost2010PropOp46
 70
     0
102
RTVSPost2010Prop47
 90
       50
102
RTVSPost2010PropOp47
 70
     0
102
RTVSPost2010Prop48
 90
       50
102
RTVSPost2010PropOp48
 70
     0
102
RTVSPost2010Prop49
280
     0
102
RTVSPost2010PropOp49
 70
     1
102
RTVSPost2010Prop50
 90
       50
102
RTVSPost2010PropOp50
 70
     0
102
RTVSPost2010Prop51ColorIndex
 90
      256
102
RTVSPost2010Prop51ColorRGB
 90
-16777216
102
RTVSPost2010PropOp51
 70
     0
102
RTVSPost2010Prop52
140
1.0
102
RTVSPost2010PropOp52
 70
     0
102
RTVSPost2010Prop53
 90
        2
102
RTVSPost2010PropOp53
 70
     0
102
RTVSPost2010Prop54
  1
strokes_ogs.tif
102
RTVSPost2010PropOp54
 70
     0
102
RTVSPost2010Prop55
280
     0
102
RTVSPost2010PropOp55
 70
     1
102
RTVSPost2010Prop56
140
1.0
102
RTVSPost2010PropOp56
 70
     0
102
RTVSPost2010Prop57
140
1.0
102
RTVSPost2010PropOp57
 70
     0
102
RTVSPropertyOp0
 70
     0
102
RTVSPropertyOp1
 70
     0
102
RTVSPropertyOp2
 70
     0
102
RTVSPropertyOp3
 70
     0
102
RTVSPropertyOp4
 70
     0
102
RTVSPropertyOp5
 70
     0
102
RTVSPropertyOp6
 70
     0
102
RTVSPropertyOp7
 70
     0
102
RTVSPropertyOp8
 70
     0
102
RTVSPropertyOp9
 70
     0
102
RTVSPropertyOp10
 70
     0
102
RTVSPropertyOp11
 70
     0
102
RTVSPropertyOp12
 70
     0
102
RTVSPropertyOp13
 70
     0
102
RTVSPropertyOp14
 70
     2
102
RTVSPropertyOp15
 70
     0
102
RTVSPropertyOp16
 70
     0
102
RTVSPropertyOp17
 70
     0
102
RTVSPropertyOp18
 70
     0
102
RTVSPropertyOp19
 70
     0
102
RTVSPropertyOp20
 70
     0
102
RTVSPropertyOp21
 70
     0
102
RTVSPropertyOp22
 70
     0
102
RTVSPropertyOp23
 70
     0
102
RTVSPropertyOp24
 70
     0
102
RTVSPropertyOp25
 70
     0
102
RTVSPropertyOp26
 70
     0
102
RTVSPropertyOp27
 70
     0
102
RTVSPropertyOp28
 70
     1
102
RTVSPropertyOp29
 70
     1
102
RTVSPropertyOp30
 70
     1
102
RTVSPropertyOp31
 70
     1
102
RTVSPropertyOp32
 70
     1
102
RTVSPropertyOp33
 70
     1
102
RTVSPropertyOp34
 70
     1
102
RTVSPropertyOp35
 70
     1
102
RTVSPropertyOp36
 70
     1
102
RTVSPropertyOp37
 70
     0
102
RTVSPropertyOp38
 70
     0
102
RTVSPropertyOp39
 70
     0
102
RTVSPropertyOp40
 70
     0
102
RTVSPropertyOp41
 70
     0
102
RTVSPropertyOp42
 70
     0
102
RTVSPropertyOp43
 70
     0
102
RTVSPropertyOp44
 70
     0
102
RTVSPropertyOp45
 70
     1
102
RTVSPropertyOp46
 70
     0
102
RTVSPropertyOp47
 70
     0
102
RTVSPropertyOp48
 70
     0
102
RTVSPropertyOp49
 70
     1
102
RTVSPropertyOp50
 70
     0
102
RTVSPropertyOp51
 70
     0
102
RTVSPropertyOp52
 70
     0
102
RTVSPropertyOp53
 70
     0
102
RTVSPropertyOp54
 70
     0
102
RTVSPropertyOp55
 70
     1
102
RTVSPropertyOp56
 70
     0
102
RTVSPropertyOp57
 70
     0
102
RTVSPropertyOp58
 70
     0
102
RTVSPropertyOp59
 70
     0
102
RTVSPropertyOp60
 70
     0
102
RTVSPropertyOp61
 70
     0
102
RTVSPropertyOp62
 70
     0
  0
XRECORD
  5
8639
102
{ACAD_REACTORS
330
8638
102
}
330
8638
100
AcDbXrecord
280
     1
102
RTVSPost2010Prop28
280
     0
102
RTVSPost2010PropOp28
 70
     1
102
RTVSPost2010Prop29
280
     1
102
RTVSPost2010PropOp29
 70
     1
102
RTVSPost2010Prop30
280
     1
102
RTVSPost2010PropOp30
 70
     1
102
RTVSPost2010Prop31
280
     0
102
RTVSPost2010PropOp31
 70
     1
102
RTVSPost2010Prop32
280
     0
102
RTVSPost2010PropOp32
 70
     1
102
RTVSPost2010Prop33
280
     0
102
RTVSPost2010PropOp33
 70
     1
102
RTVSPost2010Prop34
280
     0
102
RTVSPost2010PropOp34
 70
     1
102
RTVSPost2010Prop35
280
     0
102
RTVSPost2010PropOp35
 70
     1
102
RTVSPost2010Prop36
280
     0
102
RTVSPost2010PropOp36
 70
     1
102
RTVSPost2010Prop37
 90
       50
102
RTVSPost2010PropOp37
 70
     1
102
RTVSPost2010Prop38
140
0.0
102
RTVSPost2010PropOp38
 70
     1
102
RTVSPost2010Prop39
140
1.0
102
RTVSPost2010PropOp39
 70
     1
102
RTVSPost2010Prop40
 90
        0
102
RTVSPost2010PropOp40
 70
     1
102
RTVSPost2010Prop41ColorIndex
 90
       18
102
RTVSPost2010Prop41ColorRGB
 90
        0
102
RTVSPost2010PropOp41
 70
     1
102
RTVSPost2010Prop42
 90
       50
102
RTVSPost2010PropOp42
 70
     1
102
RTVSPost2010Prop43
 90
        3
102
RTVSPost2010PropOp43
 70
     1
102
RTVSPost2010Prop44ColorIndex
 90
        5
102
RTVSPost2010Prop44ColorRGB
 90
      255
102
RTVSPost2010PropOp44
 70
     1
102
RTVSPost2010Prop45
280
     0
102
RTVSPost2010PropOp45
 70
     1
102
RTVSPost2010Prop46
 90
       50
102
RTVSPost2010PropOp46
 70
     1
102
RTVSPost2010Prop47
 90
       50
102
RTVSPost2010PropOp47
 70
     1
102
RTVSPost2010Prop48
 90
       50
102
RTVSPost2010PropOp48
 70
     1
102
RTVSPost2010Prop49
280
     0
102
RTVSPost2010PropOp49
 70
     1
102
RTVSPost2010Prop50
 90
       50
102
RTVSPost2010PropOp50
 70
     1
102
RTVSPost2010Prop51ColorIndex
 90
      256
102
RTVSPost2010Prop51ColorRGB
 90
-16777216
102
RTVSPost2010PropOp51
 70
     0
102
RTVSPost2010Prop52
140
1.0
102
RTVSPost2010PropOp52
 70
     0
102
RTVSPost2010Prop53
 90
        2
102
RTVSPost2010PropOp53
 70
     1
102
RTVSPost2010Prop54
  1
strokes_ogs.tif
102
RTVSPost2010PropOp54
 70
     1
102
RTVSPost2010Prop55
280
     0
102
RTVSPost2010PropOp55
 70
     1
102
RTVSPost2010Prop56
140
1.0
102
RTVSPost2010PropOp56
 70
     1
102
RTVSPost2010Prop57
140
1.0
102
RTVSPost2010PropOp57
 70
     1
102
RTVSPropertyOp0
 70
     1
102
RTVSPropertyOp1
 70
     1
102
RTVSPropertyOp2
 70
     1
102
RTVSPropertyOp3
 70
     1
102
RTVSPropertyOp4
 70
     1
102
RTVSPropertyOp5
 70
     1
102
RTVSPropertyOp6
 70
     1
102
RTVSPropertyOp7
 70
     1
102
RTVSPropertyOp8
 70
     1
102
RTVSPropertyOp9
 70
     1
102
RTVSPropertyOp10
 70
     1
102
RTVSPropertyOp11
 70
     1
102
RTVSPropertyOp12
 70
     1
102
RTVSPropertyOp13
 70
     1
102
RTVSPropertyOp14
 70
     1
102
RTVSPropertyOp15
 70
     1
102
RTVSPropertyOp16
 70
     1
102
RTVSPropertyOp17
 70
     1
102
RTVSPropertyOp18
 70
     1
102
RTVSPropertyOp19
 70
     1
102
RTVSPropertyOp20
 70
     1
102
RTVSPropertyOp21
 70
     1
102
RTVSPropertyOp22
 70
     1
102
RTVSPropertyOp23
 70
     1
102
RTVSPropertyOp24
 70
     1
102
RTVSPropertyOp25
 70
     1
102
RTVSPropertyOp26
 70
     1
102
RTVSPropertyOp27
 70
     1
102
RTVSPropertyOp28
 70
     1
102
RTVSPropertyOp29
 70
     1
102
RTVSPropertyOp30
 70
     1
102
RTVSPropertyOp31
 70
     1
102
RTVSPropertyOp32
 70
     1
102
RTVSPropertyOp33
 70
     1
102
RTVSPropertyOp34
 70
     1
102
RTVSPropertyOp35
 70
     1
102
RTVSPropertyOp36
 70
     1
102
RTVSPropertyOp37
 70
     1
102
RTVSPropertyOp38
 70
     1
102
RTVSPropertyOp39
 70
     1
102
RTVSPropertyOp40
 70
     1
102
RTVSPropertyOp41
 70
     1
102
RTVSPropertyOp42
 70
     1
102
RTVSPropertyOp43
 70
     1
102
RTVSPropertyOp44
 70
     1
102
RTVSPropertyOp45
 70
     1
102
RTVSPropertyOp46
 70
     1
102
RTVSPropertyOp47
 70
     1
102
RTVSPropertyOp48
 70
     1
102
RTVSPropertyOp49
 70
     1
102
RTVSPropertyOp50
 70
     1
102
RTVSPropertyOp51
 70
     0
102
RTVSPropertyOp52
 70
     0
102
RTVSPropertyOp53
 70
     1
102
RTVSPropertyOp54
 70
     1
102
RTVSPropertyOp55
 70
     1
102
RTVSPropertyOp56
 70
     1
102
RTVSPropertyOp57
 70
     1
102
RTVSPropertyOp58
 70
     1
102
RTVSPropertyOp59
 70
     1
102
RTVSPropertyOp60
 70
     1
102
RTVSPropertyOp61
 70
     1
102
RTVSPropertyOp62
 70
     1
  0
XRECORD
  5
861D
102
{ACAD_REACTORS
330
861C
102
}
330
861C
100
AcDbXrecord
280
     1
102
RTVSPost2010Prop28
280
     0
102
RTVSPost2010PropOp28
 70
     1
102
RTVSPost2010Prop29
280
     1
102
RTVSPost2010PropOp29
 70
     1
102
RTVSPost2010Prop30
280
     1
102
RTVSPost2010PropOp30
 70
     1
102
RTVSPost2010Prop31
280
     0
102
RTVSPost2010PropOp31
 70
     1
102
RTVSPost2010Prop32
280
     0
102
RTVSPost2010PropOp32
 70
     1
102
RTVSPost2010Prop33
280
     0
102
RTVSPost2010PropOp33
 70
     1
102
RTVSPost2010Prop34
280
     0
102
RTVSPost2010PropOp34
 70
     1
102
RTVSPost2010Prop35
280
     0
102
RTVSPost2010PropOp35
 70
     1
102
RTVSPost2010Prop36
280
     0
102
RTVSPost2010PropOp36
 70
     1
102
RTVSPost2010Prop37
 90
       50
102
RTVSPost2010PropOp37
 70
     1
102
RTVSPost2010Prop38
140
0.0
102
RTVSPost2010PropOp38
 70
     1
102
RTVSPost2010Prop39
140
1.0
102
RTVSPost2010PropOp39
 70
     1
102
RTVSPost2010Prop40
 90
        0
102
RTVSPost2010PropOp40
 70
     1
102
RTVSPost2010Prop41ColorIndex
 90
       18
102
RTVSPost2010Prop41ColorRGB
 90
        0
102
RTVSPost2010PropOp41
 70
     1
102
RTVSPost2010Prop42
 90
       50
102
RTVSPost2010PropOp42
 70
     1
102
RTVSPost2010Prop43
 90
        3
102
RTVSPost2010PropOp43
 70
     1
102
RTVSPost2010Prop44ColorIndex
 90
        5
102
RTVSPost2010Prop44ColorRGB
 90
      255
102
RTVSPost2010PropOp44
 70
     1
102
RTVSPost2010Prop45
280
     0
102
RTVSPost2010PropOp45
 70
     1
102
RTVSPost2010Prop46
 90
       50
102
RTVSPost2010PropOp46
 70
     1
102
RTVSPost2010Prop47
 90
       50
102
RTVSPost2010PropOp47
 70
     1
102
RTVSPost2010Prop48
 90
       50
102
RTVSPost2010PropOp48
 70
     1
102
RTVSPost2010Prop49
280
     0
102
RTVSPost2010PropOp49
 70
     1
102
RTVSPost2010Prop50
 90
       50
102
RTVSPost2010PropOp50
 70
     1
102
RTVSPost2010Prop51ColorIndex
 90
      256
102
RTVSPost2010Prop51ColorRGB
 90
-16777216
102
RTVSPost2010PropOp51
 70
     0
102
RTVSPost2010Prop52
140
1.0
102
RTVSPost2010PropOp52
 70
     0
102
RTVSPost2010Prop53
 90
        2
102
RTVSPost2010PropOp53
 70
     1
102
RTVSPost2010Prop54
  1
strokes_ogs.tif
102
RTVSPost2010PropOp54
 70
     1
102
RTVSPost2010Prop55
280
     0
102
RTVSPost2010PropOp55
 70
     1
102
RTVSPost2010Prop56
140
1.0
102
RTVSPost2010PropOp56
 70
     1
102
RTVSPost2010Prop57
140
1.0
102
RTVSPost2010PropOp57
 70
     1
102
RTVSPropertyOp0
 70
     1
102
RTVSPropertyOp1
 70
     1
102
RTVSPropertyOp2
 70
     1
102
RTVSPropertyOp3
 70
     1
102
RTVSPropertyOp4
 70
     1
102
RTVSPropertyOp5
 70
     1
102
RTVSPropertyOp6
 70
     1
102
RTVSPropertyOp7
 70
     1
102
RTVSPropertyOp8
 70
     1
102
RTVSPropertyOp9
 70
     1
102
RTVSPropertyOp10
 70
     1
102
RTVSPropertyOp11
 70
     1
102
RTVSPropertyOp12
 70
     1
102
RTVSPropertyOp13
 70
     1
102
RTVSPropertyOp14
 70
     1
102
RTVSPropertyOp15
 70
     1
102
RTVSPropertyOp16
 70
     1
102
RTVSPropertyOp17
 70
     1
102
RTVSPropertyOp18
 70
     1
102
RTVSPropertyOp19
 70
     1
102
RTVSPropertyOp20
 70
     1
102
RTVSPropertyOp21
 70
     1
102
RTVSPropertyOp22
 70
     1
102
RTVSPropertyOp23
 70
     1
102
RTVSPropertyOp24
 70
     1
102
RTVSPropertyOp25
 70
     1
102
RTVSPropertyOp26
 70
     1
102
RTVSPropertyOp27
 70
     1
102
RTVSPropertyOp28
 70
     1
102
RTVSPropertyOp29
 70
     1
102
RTVSPropertyOp30
 70
     1
102
RTVSPropertyOp31
 70
     1
102
RTVSPropertyOp32
 70
     1
102
RTVSPropertyOp33
 70
     1
102
RTVSPropertyOp34
 70
     1
102
RTVSPropertyOp35
 70
     1
102
RTVSPropertyOp36
 70
     1
102
RTVSPropertyOp37
 70
     1
102
RTVSPropertyOp38
 70
     1
102
RTVSPropertyOp39
 70
     1
102
RTVSPropertyOp40
 70
     1
102
RTVSPropertyOp41
 70
     1
102
RTVSPropertyOp42
 70
     1
102
RTVSPropertyOp43
 70
     1
102
RTVSPropertyOp44
 70
     1
102
RTVSPropertyOp45
 70
     1
102
RTVSPropertyOp46
 70
     1
102
RTVSPropertyOp47
 70
     1
102
RTVSPropertyOp48
 70
     1
102
RTVSPropertyOp49
 70
     1
102
RTVSPropertyOp50
 70
     1
102
RTVSPropertyOp51
 70
     0
102
RTVSPropertyOp52
 70
     0
102
RTVSPropertyOp53
 70
     1
102
RTVSPropertyOp54
 70
     1
102
RTVSPropertyOp55
 70
     1
102
RTVSPropertyOp56
 70
     1
102
RTVSPropertyOp57
 70
     1
102
RTVSPropertyOp58
 70
     1
102
RTVSPropertyOp59
 70
     1
102
RTVSPropertyOp60
 70
     1
102
RTVSPropertyOp61
 70
     1
102
RTVSPropertyOp62
 70
     1
  0
XRECORD
  5
861F
102
{ACAD_REACTORS
330
861E
102
}
330
861E
100
AcDbXrecord
280
     1
102
RTVSPost2010Prop28
280
     0
102
RTVSPost2010PropOp28
 70
     1
102
RTVSPost2010Prop29
280
     1
102
RTVSPost2010PropOp29
 70
     1
102
RTVSPost2010Prop30
280
     1
102
RTVSPost2010PropOp30
 70
     1
102
RTVSPost2010Prop31
280
     0
102
RTVSPost2010PropOp31
 70
     1
102
RTVSPost2010Prop32
280
     0
102
RTVSPost2010PropOp32
 70
     1
102
RTVSPost2010Prop33
280
     0
102
RTVSPost2010PropOp33
 70
     1
102
RTVSPost2010Prop34
280
     0
102
RTVSPost2010PropOp34
 70
     1
102
RTVSPost2010Prop35
280
     0
102
RTVSPost2010PropOp35
 70
     1
102
RTVSPost2010Prop36
280
     0
102
RTVSPost2010PropOp36
 70
     1
102
RTVSPost2010Prop37
 90
       50
102
RTVSPost2010PropOp37
 70
     1
102
RTVSPost2010Prop38
140
0.0
102
RTVSPost2010PropOp38
 70
     1
102
RTVSPost2010Prop39
140
1.0
102
RTVSPost2010PropOp39
 70
     1
102
RTVSPost2010Prop40
 90
        0
102
RTVSPost2010PropOp40
 70
     1
102
RTVSPost2010Prop41ColorIndex
 90
       18
102
RTVSPost2010Prop41ColorRGB
 90
        0
102
RTVSPost2010PropOp41
 70
     1
102
RTVSPost2010Prop42
 90
       50
102
RTVSPost2010PropOp42
 70
     1
102
RTVSPost2010Prop43
 90
        3
102
RTVSPost2010PropOp43
 70
     1
102
RTVSPost2010Prop44ColorIndex
 90
        5
102
RTVSPost2010Prop44ColorRGB
 90
      255
102
RTVSPost2010PropOp44
 70
     1
102
RTVSPost2010Prop45
280
     0
102
RTVSPost2010PropOp45
 70
     1
102
RTVSPost2010Prop46
 90
       50
102
RTVSPost2010PropOp46
 70
     1
102
RTVSPost2010Prop47
 90
       50
102
RTVSPost2010PropOp47
 70
     1
102
RTVSPost2010Prop48
 90
       50
102
RTVSPost2010PropOp48
 70
     1
102
RTVSPost2010Prop49
280
     0
102
RTVSPost2010PropOp49
 70
     1
102
RTVSPost2010Prop50
 90
       50
102
RTVSPost2010PropOp50
 70
     1
102
RTVSPost2010Prop51ColorIndex
 90
      256
102
RTVSPost2010Prop51ColorRGB
 90
-16777216
102
RTVSPost2010PropOp51
 70
     0
102
RTVSPost2010Prop52
140
1.0
102
RTVSPost2010PropOp52
 70
     0
102
RTVSPost2010Prop53
 90
        2
102
RTVSPost2010PropOp53
 70
     1
102
RTVSPost2010Prop54
  1
strokes_ogs.tif
102
RTVSPost2010PropOp54
 70
     1
102
RTVSPost2010Prop55
280
     0
102
RTVSPost2010PropOp55
 70
     1
102
RTVSPost2010Prop56
140
1.0
102
RTVSPost2010PropOp56
 70
     1
102
RTVSPost2010Prop57
140
1.0
102
RTVSPost2010PropOp57
 70
     1
102
RTVSPropertyOp0
 70
     1
102
RTVSPropertyOp1
 70
     1
102
RTVSPropertyOp2
 70
     1
102
RTVSPropertyOp3
 70
     1
102
RTVSPropertyOp4
 70
     1
102
RTVSPropertyOp5
 70
     1
102
RTVSPropertyOp6
 70
     1
102
RTVSPropertyOp7
 70
     1
102
RTVSPropertyOp8
 70
     1
102
RTVSPropertyOp9
 70
     1
102
RTVSPropertyOp10
 70
     1
102
RTVSPropertyOp11
 70
     1
102
RTVSPropertyOp12
 70
     1
102
RTVSPropertyOp13
 70
     1
102
RTVSPropertyOp14
 70
     1
102
RTVSPropertyOp15
 70
     1
102
RTVSPropertyOp16
 70
     1
102
RTVSPropertyOp17
 70
     1
102
RTVSPropertyOp18
 70
     1
102
RTVSPropertyOp19
 70
     1
102
RTVSPropertyOp20
 70
     1
102
RTVSPropertyOp21
 70
     1
102
RTVSPropertyOp22
 70
     1
102
RTVSPropertyOp23
 70
     1
102
RTVSPropertyOp24
 70
     1
102
RTVSPropertyOp25
 70
     1
102
RTVSPropertyOp26
 70
     1
102
RTVSPropertyOp27
 70
     1
102
RTVSPropertyOp28
 70
     1
102
RTVSPropertyOp29
 70
     1
102
RTVSPropertyOp30
 70
     1
102
RTVSPropertyOp31
 70
     1
102
RTVSPropertyOp32
 70
     1
102
RTVSPropertyOp33
 70
     1
102
RTVSPropertyOp34
 70
     1
102
RTVSPropertyOp35
 70
     1
102
RTVSPropertyOp36
 70
     1
102
RTVSPropertyOp37
 70
     1
102
RTVSPropertyOp38
 70
     1
102
RTVSPropertyOp39
 70
     1
102
RTVSPropertyOp40
 70
     1
102
RTVSPropertyOp41
 70
     1
102
RTVSPropertyOp42
 70
     1
102
RTVSPropertyOp43
 70
     1
102
RTVSPropertyOp44
 70
     1
102
RTVSPropertyOp45
 70
     1
102
RTVSPropertyOp46
 70
     1
102
RTVSPropertyOp47
 70
     1
102
RTVSPropertyOp48
 70
     1
102
RTVSPropertyOp49
 70
     1
102
RTVSPropertyOp50
 70
     1
102
RTVSPropertyOp51
 70
     0
102
RTVSPropertyOp52
 70
     0
102
RTVSPropertyOp53
 70
     1
102
RTVSPropertyOp54
 70
     1
102
RTVSPropertyOp55
 70
     1
102
RTVSPropertyOp56
 70
     1
102
RTVSPropertyOp57
 70
     1
102
RTVSPropertyOp58
 70
     1
102
RTVSPropertyOp59
 70
     1
102
RTVSPropertyOp60
 70
     1
102
RTVSPropertyOp61
 70
     1
102
RTVSPropertyOp62
 70
     1
  0
XRECORD
  5
8621
102
{ACAD_REACTORS
330
8620
102
}
330
8620
100
AcDbXrecord
280
     1
102
RTVSPost2010Prop28
280
     0
102
RTVSPost2010PropOp28
 70
     1
102
RTVSPost2010Prop29
280
     1
102
RTVSPost2010PropOp29
 70
     1
102
RTVSPost2010Prop30
280
     1
102
RTVSPost2010PropOp30
 70
     1
102
RTVSPost2010Prop31
280
     0
102
RTVSPost2010PropOp31
 70
     1
102
RTVSPost2010Prop32
280
     0
102
RTVSPost2010PropOp32
 70
     1
102
RTVSPost2010Prop33
280
     0
102
RTVSPost2010PropOp33
 70
     1
102
RTVSPost2010Prop34
280
     0
102
RTVSPost2010PropOp34
 70
     1
102
RTVSPost2010Prop35
280
     0
102
RTVSPost2010PropOp35
 70
     1
102
RTVSPost2010Prop36
280
     0
102
RTVSPost2010PropOp36
 70
     1
102
RTVSPost2010Prop37
 90
       50
102
RTVSPost2010PropOp37
 70
     1
102
RTVSPost2010Prop38
140
0.0
102
RTVSPost2010PropOp38
 70
     1
102
RTVSPost2010Prop39
140
1.0
102
RTVSPost2010PropOp39
 70
     1
102
RTVSPost2010Prop40
 90
        0
102
RTVSPost2010PropOp40
 70
     1
102
RTVSPost2010Prop41ColorIndex
 90
       18
102
RTVSPost2010Prop41ColorRGB
 90
        0
102
RTVSPost2010PropOp41
 70
     1
102
RTVSPost2010Prop42
 90
       50
102
RTVSPost2010PropOp42
 70
     1
102
RTVSPost2010Prop43
 90
        3
102
RTVSPost2010PropOp43
 70
     1
102
RTVSPost2010Prop44ColorIndex
 90
        5
102
RTVSPost2010Prop44ColorRGB
 90
      255
102
RTVSPost2010PropOp44
 70
     1
102
RTVSPost2010Prop45
280
     0
102
RTVSPost2010PropOp45
 70
     1
102
RTVSPost2010Prop46
 90
       50
102
RTVSPost2010PropOp46
 70
     1
102
RTVSPost2010Prop47
 90
       50
102
RTVSPost2010PropOp47
 70
     1
102
RTVSPost2010Prop48
 90
       50
102
RTVSPost2010PropOp48
 70
     1
102
RTVSPost2010Prop49
280
     0
102
RTVSPost2010PropOp49
 70
     1
102
RTVSPost2010Prop50
 90
       50
102
RTVSPost2010PropOp50
 70
     1
102
RTVSPost2010Prop51ColorIndex
 90
      256
102
RTVSPost2010Prop51ColorRGB
 90
-16777216
102
RTVSPost2010PropOp51
 70
     0
102
RTVSPost2010Prop52
140
1.0
102
RTVSPost2010PropOp52
 70
     0
102
RTVSPost2010Prop53
 90
        2
102
RTVSPost2010PropOp53
 70
     1
102
RTVSPost2010Prop54
  1
strokes_ogs.tif
102
RTVSPost2010PropOp54
 70
     1
102
RTVSPost2010Prop55
280
     0
102
RTVSPost2010PropOp55
 70
     1
102
RTVSPost2010Prop56
140
1.0
102
RTVSPost2010PropOp56
 70
     1
102
RTVSPost2010Prop57
140
1.0
102
RTVSPost2010PropOp57
 70
     1
102
RTVSPropertyOp0
 70
     1
102
RTVSPropertyOp1
 70
     1
102
RTVSPropertyOp2
 70
     1
102
RTVSPropertyOp3
 70
     1
102
RTVSPropertyOp4
 70
     1
102
RTVSPropertyOp5
 70
     1
102
RTVSPropertyOp6
 70
     1
102
RTVSPropertyOp7
 70
     1
102
RTVSPropertyOp8
 70
     1
102
RTVSPropertyOp9
 70
     1
102
RTVSPropertyOp10
 70
     1
102
RTVSPropertyOp11
 70
     1
102
RTVSPropertyOp12
 70
     1
102
RTVSPropertyOp13
 70
     1
102
RTVSPropertyOp14
 70
     1
102
RTVSPropertyOp15
 70
     1
102
RTVSPropertyOp16
 70
     1
102
RTVSPropertyOp17
 70
     1
102
RTVSPropertyOp18
 70
     1
102
RTVSPropertyOp19
 70
     1
102
RTVSPropertyOp20
 70
     1
102
RTVSPropertyOp21
 70
     1
102
RTVSPropertyOp22
 70
     1
102
RTVSPropertyOp23
 70
     1
102
RTVSPropertyOp24
 70
     1
102
RTVSPropertyOp25
 70
     1
102
RTVSPropertyOp26
 70
     1
102
RTVSPropertyOp27
 70
     1
102
RTVSPropertyOp28
 70
     1
102
RTVSPropertyOp29
 70
     1
102
RTVSPropertyOp30
 70
     1
102
RTVSPropertyOp31
 70
     1
102
RTVSPropertyOp32
 70
     1
102
RTVSPropertyOp33
 70
     1
102
RTVSPropertyOp34
 70
     1
102
RTVSPropertyOp35
 70
     1
102
RTVSPropertyOp36
 70
     1
102
RTVSPropertyOp37
 70
     1
102
RTVSPropertyOp38
 70
     1
102
RTVSPropertyOp39
 70
     1
102
RTVSPropertyOp40
 70
     1
102
RTVSPropertyOp41
 70
     1
102
RTVSPropertyOp42
 70
     1
102
RTVSPropertyOp43
 70
     1
102
RTVSPropertyOp44
 70
     1
102
RTVSPropertyOp45
 70
     1
102
RTVSPropertyOp46
 70
     1
102
RTVSPropertyOp47
 70
     1
102
RTVSPropertyOp48
 70
     1
102
RTVSPropertyOp49
 70
     1
102
RTVSPropertyOp50
 70
     1
102
RTVSPropertyOp51
 70
     0
102
RTVSPropertyOp52
 70
     0
102
RTVSPropertyOp53
 70
     1
102
RTVSPropertyOp54
 70
     1
102
RTVSPropertyOp55
 70
     1
102
RTVSPropertyOp56
 70
     1
102
RTVSPropertyOp57
 70
     1
102
RTVSPropertyOp58
 70
     1
102
RTVSPropertyOp59
 70
     1
102
RTVSPropertyOp60
 70
     1
102
RTVSPropertyOp61
 70
     1
102
RTVSPropertyOp62
 70
     1
  0
XRECORD
  5
8623
102
{ACAD_REACTORS
330
8622
102
}
330
8622
100
AcDbXrecord
280
     1
102
RTVSPost2010Prop28
280
     0
102
RTVSPost2010PropOp28
 70
     1
102
RTVSPost2010Prop29
280
     1
102
RTVSPost2010PropOp29
 70
     1
102
RTVSPost2010Prop30
280
     1
102
RTVSPost2010PropOp30
 70
     1
102
RTVSPost2010Prop31
280
     0
102
RTVSPost2010PropOp31
 70
     1
102
RTVSPost2010Prop32
280
     0
102
RTVSPost2010PropOp32
 70
     1
102
RTVSPost2010Prop33
280
     0
102
RTVSPost2010PropOp33
 70
     1
102
RTVSPost2010Prop34
280
     0
102
RTVSPost2010PropOp34
 70
     1
102
RTVSPost2010Prop35
280
     0
102
RTVSPost2010PropOp35
 70
     1
102
RTVSPost2010Prop36
280
     0
102
RTVSPost2010PropOp36
 70
     1
102
RTVSPost2010Prop37
 90
       50
102
RTVSPost2010PropOp37
 70
     1
102
RTVSPost2010Prop38
140
0.0
102
RTVSPost2010PropOp38
 70
     1
102
RTVSPost2010Prop39
140
1.0
102
RTVSPost2010PropOp39
 70
     1
102
RTVSPost2010Prop40
 90
        0
102
RTVSPost2010PropOp40
 70
     1
102
RTVSPost2010Prop41ColorIndex
 90
       18
102
RTVSPost2010Prop41ColorRGB
 90
        0
102
RTVSPost2010PropOp41
 70
     1
102
RTVSPost2010Prop42
 90
       50
102
RTVSPost2010PropOp42
 70
     1
102
RTVSPost2010Prop43
 90
        3
102
RTVSPost2010PropOp43
 70
     1
102
RTVSPost2010Prop44ColorIndex
 90
        5
102
RTVSPost2010Prop44ColorRGB
 90
      255
102
RTVSPost2010PropOp44
 70
     1
102
RTVSPost2010Prop45
280
     0
102
RTVSPost2010PropOp45
 70
     1
102
RTVSPost2010Prop46
 90
       50
102
RTVSPost2010PropOp46
 70
     1
102
RTVSPost2010Prop47
 90
       50
102
RTVSPost2010PropOp47
 70
     1
102
RTVSPost2010Prop48
 90
       50
102
RTVSPost2010PropOp48
 70
     1
102
RTVSPost2010Prop49
280
     0
102
RTVSPost2010PropOp49
 70
     1
102
RTVSPost2010Prop50
 90
       50
102
RTVSPost2010PropOp50
 70
     1
102
RTVSPost2010Prop51ColorIndex
 90
      256
102
RTVSPost2010Prop51ColorRGB
 90
-16777216
102
RTVSPost2010PropOp51
 70
     0
102
RTVSPost2010Prop52
140
1.0
102
RTVSPost2010PropOp52
 70
     0
102
RTVSPost2010Prop53
 90
        2
102
RTVSPost2010PropOp53
 70
     1
102
RTVSPost2010Prop54
  1
strokes_ogs.tif
102
RTVSPost2010PropOp54
 70
     1
102
RTVSPost2010Prop55
280
     0
102
RTVSPost2010PropOp55
 70
     1
102
RTVSPost2010Prop56
140
1.0
102
RTVSPost2010PropOp56
 70
     1
102
RTVSPost2010Prop57
140
1.0
102
RTVSPost2010PropOp57
 70
     1
102
RTVSPropertyOp0
 70
     1
102
RTVSPropertyOp1
 70
     1
102
RTVSPropertyOp2
 70
     1
102
RTVSPropertyOp3
 70
     1
102
RTVSPropertyOp4
 70
     1
102
RTVSPropertyOp5
 70
     1
102
RTVSPropertyOp6
 70
     1
102
RTVSPropertyOp7
 70
     1
102
RTVSPropertyOp8
 70
     1
102
RTVSPropertyOp9
 70
     1
102
RTVSPropertyOp10
 70
     1
102
RTVSPropertyOp11
 70
     1
102
RTVSPropertyOp12
 70
     1
102
RTVSPropertyOp13
 70
     1
102
RTVSPropertyOp14
 70
     1
102
RTVSPropertyOp15
 70
     1
102
RTVSPropertyOp16
 70
     1
102
RTVSPropertyOp17
 70
     1
102
RTVSPropertyOp18
 70
     1
102
RTVSPropertyOp19
 70
     1
102
RTVSPropertyOp20
 70
     1
102
RTVSPropertyOp21
 70
     1
102
RTVSPropertyOp22
 70
     1
102
RTVSPropertyOp23
 70
     1
102
RTVSPropertyOp24
 70
     1
102
RTVSPropertyOp25
 70
     1
102
RTVSPropertyOp26
 70
     1
102
RTVSPropertyOp27
 70
     1
102
RTVSPropertyOp28
 70
     1
102
RTVSPropertyOp29
 70
     1
102
RTVSPropertyOp30
 70
     1
102
RTVSPropertyOp31
 70
     1
102
RTVSPropertyOp32
 70
     1
102
RTVSPropertyOp33
 70
     1
102
RTVSPropertyOp34
 70
     1
102
RTVSPropertyOp35
 70
     1
102
RTVSPropertyOp36
 70
     1
102
RTVSPropertyOp37
 70
     1
102
RTVSPropertyOp38
 70
     1
102
RTVSPropertyOp39
 70
     1
102
RTVSPropertyOp40
 70
     1
102
RTVSPropertyOp41
 70
     1
102
RTVSPropertyOp42
 70
     1
102
RTVSPropertyOp43
 70
     1
102
RTVSPropertyOp44
 70
     1
102
RTVSPropertyOp45
 70
     1
102
RTVSPropertyOp46
 70
     1
102
RTVSPropertyOp47
 70
     1
102
RTVSPropertyOp48
 70
     1
102
RTVSPropertyOp49
 70
     1
102
RTVSPropertyOp50
 70
     1
102
RTVSPropertyOp51
 70
     0
102
RTVSPropertyOp52
 70
     0
102
RTVSPropertyOp53
 70
     1
102
RTVSPropertyOp54
 70
     1
102
RTVSPropertyOp55
 70
     1
102
RTVSPropertyOp56
 70
     1
102
RTVSPropertyOp57
 70
     1
102
RTVSPropertyOp58
 70
     1
102
RTVSPropertyOp59
 70
     1
102
RTVSPropertyOp60
 70
     1
102
RTVSPropertyOp61
 70
     1
102
RTVSPropertyOp62
 70
     1
  0
XRECORD
  5
862B
102
{ACAD_REACTORS
330
862A
102
}
330
862A
100
AcDbXrecord
280
     1
102
RTVSPost2010Prop28
280
     0
102
RTVSPost2010PropOp28
 70
     1
102
RTVSPost2010Prop29
280
     1
102
RTVSPost2010PropOp29
 70
     1
102
RTVSPost2010Prop30
280
     1
102
RTVSPost2010PropOp30
 70
     1
102
RTVSPost2010Prop31
280
     0
102
RTVSPost2010PropOp31
 70
     1
102
RTVSPost2010Prop32
280
     0
102
RTVSPost2010PropOp32
 70
     1
102
RTVSPost2010Prop33
280
     0
102
RTVSPost2010PropOp33
 70
     1
102
RTVSPost2010Prop34
280
     0
102
RTVSPost2010PropOp34
 70
     1
102
RTVSPost2010Prop35
280
     0
102
RTVSPost2010PropOp35
 70
     1
102
RTVSPost2010Prop36
280
     0
102
RTVSPost2010PropOp36
 70
     1
102
RTVSPost2010Prop37
 90
       50
102
RTVSPost2010PropOp37
 70
     1
102
RTVSPost2010Prop38
140
0.0
102
RTVSPost2010PropOp38
 70
     1
102
RTVSPost2010Prop39
140
1.0
102
RTVSPost2010PropOp39
 70
     1
102
RTVSPost2010Prop40
 90
        0
102
RTVSPost2010PropOp40
 70
     1
102
RTVSPost2010Prop41ColorIndex
 90
       18
102
RTVSPost2010Prop41ColorRGB
 90
        0
102
RTVSPost2010PropOp41
 70
     1
102
RTVSPost2010Prop42
 90
       50
102
RTVSPost2010PropOp42
 70
     1
102
RTVSPost2010Prop43
 90
        3
102
RTVSPost2010PropOp43
 70
     1
102
RTVSPost2010Prop44ColorIndex
 90
        5
102
RTVSPost2010Prop44ColorRGB
 90
      255
102
RTVSPost2010PropOp44
 70
     1
102
RTVSPost2010Prop45
280
     0
102
RTVSPost2010PropOp45
 70
     1
102
RTVSPost2010Prop46
 90
       50
102
RTVSPost2010PropOp46
 70
     1
102
RTVSPost2010Prop47
 90
       50
102
RTVSPost2010PropOp47
 70
     1
102
RTVSPost2010Prop48
 90
       50
102
RTVSPost2010PropOp48
 70
     1
102
RTVSPost2010Prop49
280
     0
102
RTVSPost2010PropOp49
 70
     1
102
RTVSPost2010Prop50
 90
       50
102
RTVSPost2010PropOp50
 70
     1
102
RTVSPost2010Prop51ColorIndex
 90
      256
102
RTVSPost2010Prop51ColorRGB
 90
-16777216
102
RTVSPost2010PropOp51
 70
     0
102
RTVSPost2010Prop52
140
1.0
102
RTVSPost2010PropOp52
 70
     0
102
RTVSPost2010Prop53
 90
        2
102
RTVSPost2010PropOp53
 70
     1
102
RTVSPost2010Prop54
  1
strokes_ogs.tif
102
RTVSPost2010PropOp54
 70
     1
102
RTVSPost2010Prop55
280
     0
102
RTVSPost2010PropOp55
 70
     1
102
RTVSPost2010Prop56
140
1.0
102
RTVSPost2010PropOp56
 70
     1
102
RTVSPost2010Prop57
140
1.0
102
RTVSPost2010PropOp57
 70
     1
102
RTVSPropertyOp0
 70
     1
102
RTVSPropertyOp1
 70
     1
102
RTVSPropertyOp2
 70
     1
102
RTVSPropertyOp3
 70
     1
102
RTVSPropertyOp4
 70
     1
102
RTVSPropertyOp5
 70
     1
102
RTVSPropertyOp6
 70
     1
102
RTVSPropertyOp7
 70
     1
102
RTVSPropertyOp8
 70
     1
102
RTVSPropertyOp9
 70
     1
102
RTVSPropertyOp10
 70
     1
102
RTVSPropertyOp11
 70
     1
102
RTVSPropertyOp12
 70
     1
102
RTVSPropertyOp13
 70
     1
102
RTVSPropertyOp14
 70
     1
102
RTVSPropertyOp15
 70
     1
102
RTVSPropertyOp16
 70
     1
102
RTVSPropertyOp17
 70
     1
102
RTVSPropertyOp18
 70
     1
102
RTVSPropertyOp19
 70
     1
102
RTVSPropertyOp20
 70
     1
102
RTVSPropertyOp21
 70
     1
102
RTVSPropertyOp22
 70
     1
102
RTVSPropertyOp23
 70
     1
102
RTVSPropertyOp24
 70
     1
102
RTVSPropertyOp25
 70
     1
102
RTVSPropertyOp26
 70
     1
102
RTVSPropertyOp27
 70
     1
102
RTVSPropertyOp28
 70
     1
102
RTVSPropertyOp29
 70
     1
102
RTVSPropertyOp30
 70
     1
102
RTVSPropertyOp31
 70
     1
102
RTVSPropertyOp32
 70
     1
102
RTVSPropertyOp33
 70
     1
102
RTVSPropertyOp34
 70
     1
102
RTVSPropertyOp35
 70
     1
102
RTVSPropertyOp36
 70
     1
102
RTVSPropertyOp37
 70
     1
102
RTVSPropertyOp38
 70
     1
102
RTVSPropertyOp39
 70
     1
102
RTVSPropertyOp40
 70
     1
102
RTVSPropertyOp41
 70
     1
102
RTVSPropertyOp42
 70
     1
102
RTVSPropertyOp43
 70
     1
102
RTVSPropertyOp44
 70
     1
102
RTVSPropertyOp45
 70
     1
102
RTVSPropertyOp46
 70
     1
102
RTVSPropertyOp47
 70
     1
102
RTVSPropertyOp48
 70
     1
102
RTVSPropertyOp49
 70
     1
102
RTVSPropertyOp50
 70
     1
102
RTVSPropertyOp51
 70
     0
102
RTVSPropertyOp52
 70
     0
102
RTVSPropertyOp53
 70
     1
102
RTVSPropertyOp54
 70
     1
102
RTVSPropertyOp55
 70
     1
102
RTVSPropertyOp56
 70
     1
102
RTVSPropertyOp57
 70
     1
102
RTVSPropertyOp58
 70
     1
102
RTVSPropertyOp59
 70
     1
102
RTVSPropertyOp60
 70
     1
102
RTVSPropertyOp61
 70
     1
102
RTVSPropertyOp62
 70
     1
  0
XRECORD
  5
8647
102
{ACAD_REACTORS
330
8646
102
}
330
8646
100
AcDbXrecord
280
     1
102
RTVSPost2010Prop28
280
     0
102
RTVSPost2010PropOp28
 70
     1
102
RTVSPost2010Prop29
280
     1
102
RTVSPost2010PropOp29
 70
     1
102
RTVSPost2010Prop30
280
     1
102
RTVSPost2010PropOp30
 70
     1
102
RTVSPost2010Prop31
280
     0
102
RTVSPost2010PropOp31
 70
     1
102
RTVSPost2010Prop32
280
     0
102
RTVSPost2010PropOp32
 70
     1
102
RTVSPost2010Prop33
280
     0
102
RTVSPost2010PropOp33
 70
     1
102
RTVSPost2010Prop34
280
     0
102
RTVSPost2010PropOp34
 70
     1
102
RTVSPost2010Prop35
280
     0
102
RTVSPost2010PropOp35
 70
     1
102
RTVSPost2010Prop36
280
     0
102
RTVSPost2010PropOp36
 70
     1
102
RTVSPost2010Prop37
 90
       50
102
RTVSPost2010PropOp37
 70
     0
102
RTVSPost2010Prop38
140
0.0
102
RTVSPost2010PropOp38
 70
     0
102
RTVSPost2010Prop39
140
1.0
102
RTVSPost2010PropOp39
 70
     0
102
RTVSPost2010Prop40
 90
        0
102
RTVSPost2010PropOp40
 70
     0
102
RTVSPost2010Prop41ColorIndex
 90
       18
102
RTVSPost2010Prop41ColorRGB
 90
        0
102
RTVSPost2010PropOp41
 70
     0
102
RTVSPost2010Prop42
 90
       50
102
RTVSPost2010PropOp42
 70
     0
102
RTVSPost2010Prop43
 90
        3
102
RTVSPost2010PropOp43
 70
     0
102
RTVSPost2010Prop44ColorIndex
 90
        5
102
RTVSPost2010Prop44ColorRGB
 90
      255
102
RTVSPost2010PropOp44
 70
     0
102
RTVSPost2010Prop45
280
     0
102
RTVSPost2010PropOp45
 70
     1
102
RTVSPost2010Prop46
 90
       50
102
RTVSPost2010PropOp46
 70
     0
102
RTVSPost2010Prop47
 90
       50
102
RTVSPost2010PropOp47
 70
     0
102
RTVSPost2010Prop48
 90
       50
102
RTVSPost2010PropOp48
 70
     0
102
RTVSPost2010Prop49
280
     0
102
RTVSPost2010PropOp49
 70
     1
102
RTVSPost2010Prop50
 90
       50
102
RTVSPost2010PropOp50
 70
     0
102
RTVSPost2010Prop51ColorIndex
 90
      256
102
RTVSPost2010Prop51ColorRGB
 90
-16777216
102
RTVSPost2010PropOp51
 70
     0
102
RTVSPost2010Prop52
140
1.0
102
RTVSPost2010PropOp52
 70
     0
102
RTVSPost2010Prop53
 90
        2
102
RTVSPost2010PropOp53
 70
     0
102
RTVSPost2010Prop54
  1
strokes_ogs.tif
102
RTVSPost2010PropOp54
 70
     0
102
RTVSPost2010Prop55
280
     0
102
RTVSPost2010PropOp55
 70
     1
102
RTVSPost2010Prop56
140
1.0
102
RTVSPost2010PropOp56
 70
     0
102
RTVSPost2010Prop57
140
1.0
102
RTVSPost2010PropOp57
 70
     0
102
RTVSPropertyOp0
 70
     0
102
RTVSPropertyOp1
 70
     0
102
RTVSPropertyOp2
 70
     0
102
RTVSPropertyOp3
 70
     0
102
RTVSPropertyOp4
 70
     0
102
RTVSPropertyOp5
 70
     0
102
RTVSPropertyOp6
 70
     0
102
RTVSPropertyOp7
 70
     0
102
RTVSPropertyOp8
 70
     0
102
RTVSPropertyOp9
 70
     0
102
RTVSPropertyOp10
 70
     0
102
RTVSPropertyOp11
 70
     0
102
RTVSPropertyOp12
 70
     0
102
RTVSPropertyOp13
 70
     0
102
RTVSPropertyOp14
 70
     2
102
RTVSPropertyOp15
 70
     0
102
RTVSPropertyOp16
 70
     0
102
RTVSPropertyOp17
 70
     0
102
RTVSPropertyOp18
 70
     0
102
RTVSPropertyOp19
 70
     0
102
RTVSPropertyOp20
 70
     0
102
RTVSPropertyOp21
 70
     0
102
RTVSPropertyOp22
 70
     0
102
RTVSPropertyOp23
 70
     0
102
RTVSPropertyOp24
 70
     0
102
RTVSPropertyOp25
 70
     0
102
RTVSPropertyOp26
 70
     0
102
RTVSPropertyOp27
 70
     0
102
RTVSPropertyOp28
 70
     1
102
RTVSPropertyOp29
 70
     1
102
RTVSPropertyOp30
 70
     1
102
RTVSPropertyOp31
 70
     1
102
RTVSPropertyOp32
 70
     1
102
RTVSPropertyOp33
 70
     1
102
RTVSPropertyOp34
 70
     1
102
RTVSPropertyOp35
 70
     1
102
RTVSPropertyOp36
 70
     1
102
RTVSPropertyOp37
 70
     0
102
RTVSPropertyOp38
 70
     0
102
RTVSPropertyOp39
 70
     0
102
RTVSPropertyOp40
 70
     0
102
RTVSPropertyOp41
 70
     0
102
RTVSPropertyOp42
 70
     0
102
RTVSPropertyOp43
 70
     0
102
RTVSPropertyOp44
 70
     0
102
RTVSPropertyOp45
 70
     1
102
RTVSPropertyOp46
 70
     0
102
RTVSPropertyOp47
 70
     0
102
RTVSPropertyOp48
 70
     0
102
RTVSPropertyOp49
 70
     1
102
RTVSPropertyOp50
 70
     0
102
RTVSPropertyOp51
 70
     0
102
RTVSPropertyOp52
 70
     0
102
RTVSPropertyOp53
 70
     0
102
RTVSPropertyOp54
 70
     0
102
RTVSPropertyOp55
 70
     1
102
RTVSPropertyOp56
 70
     0
102
RTVSPropertyOp57
 70
     0
102
RTVSPropertyOp58
 70
     0
102
RTVSPropertyOp59
 70
     0
102
RTVSPropertyOp60
 70
     0
102
RTVSPropertyOp61
 70
     0
102
RTVSPropertyOp62
 70
     0
  0
XRECORD
  5
8637
102
{ACAD_REACTORS
330
8636
102
}
330
8636
100
AcDbXrecord
280
     1
102
RTVSPost2010Prop28
280
     0
102
RTVSPost2010PropOp28
 70
     1
102
RTVSPost2010Prop29
280
     1
102
RTVSPost2010PropOp29
 70
     1
102
RTVSPost2010Prop30
280
     1
102
RTVSPost2010PropOp30
 70
     1
102
RTVSPost2010Prop31
280
     0
102
RTVSPost2010PropOp31
 70
     1
102
RTVSPost2010Prop32
280
     0
102
RTVSPost2010PropOp32
 70
     1
102
RTVSPost2010Prop33
280
     0
102
RTVSPost2010PropOp33
 70
     1
102
RTVSPost2010Prop34
280
     0
102
RTVSPost2010PropOp34
 70
     1
102
RTVSPost2010Prop35
280
     0
102
RTVSPost2010PropOp35
 70
     1
102
RTVSPost2010Prop36
280
     0
102
RTVSPost2010PropOp36
 70
     1
102
RTVSPost2010Prop37
 90
       50
102
RTVSPost2010PropOp37
 70
     1
102
RTVSPost2010Prop38
140
0.0
102
RTVSPost2010PropOp38
 70
     1
102
RTVSPost2010Prop39
140
1.0
102
RTVSPost2010PropOp39
 70
     1
102
RTVSPost2010Prop40
 90
        0
102
RTVSPost2010PropOp40
 70
     1
102
RTVSPost2010Prop41ColorIndex
 90
       18
102
RTVSPost2010Prop41ColorRGB
 90
        0
102
RTVSPost2010PropOp41
 70
     1
102
RTVSPost2010Prop42
 90
       50
102
RTVSPost2010PropOp42
 70
     1
102
RTVSPost2010Prop43
 90
        3
102
RTVSPost2010PropOp43
 70
     1
102
RTVSPost2010Prop44ColorIndex
 90
        5
102
RTVSPost2010Prop44ColorRGB
 90
      255
102
RTVSPost2010PropOp44
 70
     1
102
RTVSPost2010Prop45
280
     0
102
RTVSPost2010PropOp45
 70
     1
102
RTVSPost2010Prop46
 90
       50
102
RTVSPost2010PropOp46
 70
     1
102
RTVSPost2010Prop47
 90
       50
102
RTVSPost2010PropOp47
 70
     1
102
RTVSPost2010Prop48
 90
       50
102
RTVSPost2010PropOp48
 70
     1
102
RTVSPost2010Prop49
280
     0
102
RTVSPost2010PropOp49
 70
     1
102
RTVSPost2010Prop50
 90
       50
102
RTVSPost2010PropOp50
 70
     1
102
RTVSPost2010Prop51ColorIndex
 90
      256
102
RTVSPost2010Prop51ColorRGB
 90
-16777216
102
RTVSPost2010PropOp51
 70
     0
102
RTVSPost2010Prop52
140
1.0
102
RTVSPost2010PropOp52
 70
     0
102
RTVSPost2010Prop53
 90
        2
102
RTVSPost2010PropOp53
 70
     1
102
RTVSPost2010Prop54
  1
strokes_ogs.tif
102
RTVSPost2010PropOp54
 70
     1
102
RTVSPost2010Prop55
280
     0
102
RTVSPost2010PropOp55
 70
     1
102
RTVSPost2010Prop56
140
1.0
102
RTVSPost2010PropOp56
 70
     1
102
RTVSPost2010Prop57
140
1.0
102
RTVSPost2010PropOp57
 70
     1
102
RTVSPropertyOp0
 70
     1
102
RTVSPropertyOp1
 70
     1
102
RTVSPropertyOp2
 70
     1
102
RTVSPropertyOp3
 70
     1
102
RTVSPropertyOp4
 70
     1
102
RTVSPropertyOp5
 70
     1
102
RTVSPropertyOp6
 70
     1
102
RTVSPropertyOp7
 70
     1
102
RTVSPropertyOp8
 70
     1
102
RTVSPropertyOp9
 70
     1
102
RTVSPropertyOp10
 70
     1
102
RTVSPropertyOp11
 70
     1
102
RTVSPropertyOp12
 70
     1
102
RTVSPropertyOp13
 70
     1
102
RTVSPropertyOp14
 70
     1
102
RTVSPropertyOp15
 70
     1
102
RTVSPropertyOp16
 70
     1
102
RTVSPropertyOp17
 70
     1
102
RTVSPropertyOp18
 70
     1
102
RTVSPropertyOp19
 70
     1
102
RTVSPropertyOp20
 70
     1
102
RTVSPropertyOp21
 70
     1
102
RTVSPropertyOp22
 70
     1
102
RTVSPropertyOp23
 70
     1
102
RTVSPropertyOp24
 70
     1
102
RTVSPropertyOp25
 70
     1
102
RTVSPropertyOp26
 70
     1
102
RTVSPropertyOp27
 70
     1
102
RTVSPropertyOp28
 70
     1
102
RTVSPropertyOp29
 70
     1
102
RTVSPropertyOp30
 70
     1
102
RTVSPropertyOp31
 70
     1
102
RTVSPropertyOp32
 70
     1
102
RTVSPropertyOp33
 70
     1
102
RTVSPropertyOp34
 70
     1
102
RTVSPropertyOp35
 70
     1
102
RTVSPropertyOp36
 70
     1
102
RTVSPropertyOp37
 70
     1
102
RTVSPropertyOp38
 70
     1
102
RTVSPropertyOp39
 70
     1
102
RTVSPropertyOp40
 70
     1
102
RTVSPropertyOp41
 70
     1
102
RTVSPropertyOp42
 70
     1
102
RTVSPropertyOp43
 70
     1
102
RTVSPropertyOp44
 70
     1
102
RTVSPropertyOp45
 70
     1
102
RTVSPropertyOp46
 70
     1
102
RTVSPropertyOp47
 70
     1
102
RTVSPropertyOp48
 70
     1
102
RTVSPropertyOp49
 70
     1
102
RTVSPropertyOp50
 70
     1
102
RTVSPropertyOp51
 70
     0
102
RTVSPropertyOp52
 70
     0
102
RTVSPropertyOp53
 70
     1
102
RTVSPropertyOp54
 70
     1
102
RTVSPropertyOp55
 70
     1
102
RTVSPropertyOp56
 70
     1
102
RTVSPropertyOp57
 70
     1
102
RTVSPropertyOp58
 70
     1
102
RTVSPropertyOp59
 70
     1
102
RTVSPropertyOp60
 70
     1
102
RTVSPropertyOp61
 70
     1
102
RTVSPropertyOp62
 70
     1
  0
XRECORD
  5
8649
102
{ACAD_REACTORS
330
8648
102
}
330
8648
100
AcDbXrecord
280
     1
102
RTVSPost2010Prop28
280
     0
102
RTVSPost2010PropOp28
 70
     1
102
RTVSPost2010Prop29
280
     1
102
RTVSPost2010PropOp29
 70
     1
102
RTVSPost2010Prop30
280
     1
102
RTVSPost2010PropOp30
 70
     1
102
RTVSPost2010Prop31
280
     0
102
RTVSPost2010PropOp31
 70
     1
102
RTVSPost2010Prop32
280
     0
102
RTVSPost2010PropOp32
 70
     1
102
RTVSPost2010Prop33
280
     0
102
RTVSPost2010PropOp33
 70
     1
102
RTVSPost2010Prop34
280
     0
102
RTVSPost2010PropOp34
 70
     1
102
RTVSPost2010Prop35
280
     0
102
RTVSPost2010PropOp35
 70
     1
102
RTVSPost2010Prop36
280
     0
102
RTVSPost2010PropOp36
 70
     1
102
RTVSPost2010Prop37
 90
       50
102
RTVSPost2010PropOp37
 70
     0
102
RTVSPost2010Prop38
140
0.0
102
RTVSPost2010PropOp38
 70
     0
102
RTVSPost2010Prop39
140
1.0
102
RTVSPost2010PropOp39
 70
     0
102
RTVSPost2010Prop40
 90
        0
102
RTVSPost2010PropOp40
 70
     0
102
RTVSPost2010Prop41ColorIndex
 90
       18
102
RTVSPost2010Prop41ColorRGB
 90
        0
102
RTVSPost2010PropOp41
 70
     0
102
RTVSPost2010Prop42
 90
       50
102
RTVSPost2010PropOp42
 70
     0
102
RTVSPost2010Prop43
 90
        3
102
RTVSPost2010PropOp43
 70
     0
102
RTVSPost2010Prop44ColorIndex
 90
        5
102
RTVSPost2010Prop44ColorRGB
 90
      255
102
RTVSPost2010PropOp44
 70
     0
102
RTVSPost2010Prop45
280
     0
102
RTVSPost2010PropOp45
 70
     1
102
RTVSPost2010Prop46
 90
       50
102
RTVSPost2010PropOp46
 70
     0
102
RTVSPost2010Prop47
 90
       50
102
RTVSPost2010PropOp47
 70
     0
102
RTVSPost2010Prop48
 90
       50
102
RTVSPost2010PropOp48
 70
     0
102
RTVSPost2010Prop49
280
     0
102
RTVSPost2010PropOp49
 70
     1
102
RTVSPost2010Prop50
 90
       50
102
RTVSPost2010PropOp50
 70
     0
102
RTVSPost2010Prop51ColorIndex
 90
      256
102
RTVSPost2010Prop51ColorRGB
 90
-16777216
102
RTVSPost2010PropOp51
 70
     0
102
RTVSPost2010Prop52
140
1.0
102
RTVSPost2010PropOp52
 70
     0
102
RTVSPost2010Prop53
 90
        2
102
RTVSPost2010PropOp53
 70
     0
102
RTVSPost2010Prop54
  1
strokes_ogs.tif
102
RTVSPost2010PropOp54
 70
     0
102
RTVSPost2010Prop55
280
     0
102
RTVSPost2010PropOp55
 70
     1
102
RTVSPost2010Prop56
140
1.0
102
RTVSPost2010PropOp56
 70
     0
102
RTVSPost2010Prop57
140
1.0
102
RTVSPost2010PropOp57
 70
     0
102
RTVSPropertyOp0
 70
     0
102
RTVSPropertyOp1
 70
     0
102
RTVSPropertyOp2
 70
     0
102
RTVSPropertyOp3
 70
     0
102
RTVSPropertyOp4
 70
     0
102
RTVSPropertyOp5
 70
     0
102
RTVSPropertyOp6
 70
     0
102
RTVSPropertyOp7
 70
     0
102
RTVSPropertyOp8
 70
     0
102
RTVSPropertyOp9
 70
     0
102
RTVSPropertyOp10
 70
     0
102
RTVSPropertyOp11
 70
     0
102
RTVSPropertyOp12
 70
     0
102
RTVSPropertyOp13
 70
     0
102
RTVSPropertyOp14
 70
     2
102
RTVSPropertyOp15
 70
     0
102
RTVSPropertyOp16
 70
     0
102
RTVSPropertyOp17
 70
     0
102
RTVSPropertyOp18
 70
     0
102
RTVSPropertyOp19
 70
     0
102
RTVSPropertyOp20
 70
     0
102
RTVSPropertyOp21
 70
     0
102
RTVSPropertyOp22
 70
     0
102
RTVSPropertyOp23
 70
     0
102
RTVSPropertyOp24
 70
     0
102
RTVSPropertyOp25
 70
     0
102
RTVSPropertyOp26
 70
     0
102
RTVSPropertyOp27
 70
     0
102
RTVSPropertyOp28
 70
     1
102
RTVSPropertyOp29
 70
     1
102
RTVSPropertyOp30
 70
     1
102
RTVSPropertyOp31
 70
     1
102
RTVSPropertyOp32
 70
     1
102
RTVSPropertyOp33
 70
     1
102
RTVSPropertyOp34
 70
     1
102
RTVSPropertyOp35
 70
     1
102
RTVSPropertyOp36
 70
     1
102
RTVSPropertyOp37
 70
     0
102
RTVSPropertyOp38
 70
     0
102
RTVSPropertyOp39
 70
     0
102
RTVSPropertyOp40
 70
     0
102
RTVSPropertyOp41
 70
     0
102
RTVSPropertyOp42
 70
     0
102
RTVSPropertyOp43
 70
     0
102
RTVSPropertyOp44
 70
     0
102
RTVSPropertyOp45
 70
     1
102
RTVSPropertyOp46
 70
     0
102
RTVSPropertyOp47
 70
     0
102
RTVSPropertyOp48
 70
     0
102
RTVSPropertyOp49
 70
     1
102
RTVSPropertyOp50
 70
     0
102
RTVSPropertyOp51
 70
     0
102
RTVSPropertyOp52
 70
     0
102
RTVSPropertyOp53
 70
     0
102
RTVSPropertyOp54
 70
     0
102
RTVSPropertyOp55
 70
     1
102
RTVSPropertyOp56
 70
     0
102
RTVSPropertyOp57
 70
     0
102
RTVSPropertyOp58
 70
     0
102
RTVSPropertyOp59
 70
     0
102
RTVSPropertyOp60
 70
     0
102
RTVSPropertyOp61
 70
     0
102
RTVSPropertyOp62
 70
     0
  0
XRECORD
  5
862F
102
{ACAD_REACTORS
330
862E
102
}
330
862E
100
AcDbXrecord
280
     1
102
RTVSPost2010Prop28
280
     0
102
RTVSPost2010PropOp28
 70
     1
102
RTVSPost2010Prop29
280
     1
102
RTVSPost2010PropOp29
 70
     1
102
RTVSPost2010Prop30
280
     1
102
RTVSPost2010PropOp30
 70
     1
102
RTVSPost2010Prop31
280
     0
102
RTVSPost2010PropOp31
 70
     1
102
RTVSPost2010Prop32
280
     0
102
RTVSPost2010PropOp32
 70
     1
102
RTVSPost2010Prop33
280
     0
102
RTVSPost2010PropOp33
 70
     1
102
RTVSPost2010Prop34
280
     0
102
RTVSPost2010PropOp34
 70
     1
102
RTVSPost2010Prop35
280
     0
102
RTVSPost2010PropOp35
 70
     1
102
RTVSPost2010Prop36
280
     0
102
RTVSPost2010PropOp36
 70
     1
102
RTVSPost2010Prop37
 90
       50
102
RTVSPost2010PropOp37
 70
     1
102
RTVSPost2010Prop38
140
0.0
102
RTVSPost2010PropOp38
 70
     1
102
RTVSPost2010Prop39
140
1.0
102
RTVSPost2010PropOp39
 70
     1
102
RTVSPost2010Prop40
 90
        0
102
RTVSPost2010PropOp40
 70
     1
102
RTVSPost2010Prop41ColorIndex
 90
       18
102
RTVSPost2010Prop41ColorRGB
 90
        0
102
RTVSPost2010PropOp41
 70
     1
102
RTVSPost2010Prop42
 90
       50
102
RTVSPost2010PropOp42
 70
     1
102
RTVSPost2010Prop43
 90
        3
102
RTVSPost2010PropOp43
 70
     1
102
RTVSPost2010Prop44ColorIndex
 90
        5
102
RTVSPost2010Prop44ColorRGB
 90
      255
102
RTVSPost2010PropOp44
 70
     1
102
RTVSPost2010Prop45
280
     0
102
RTVSPost2010PropOp45
 70
     1
102
RTVSPost2010Prop46
 90
       50
102
RTVSPost2010PropOp46
 70
     1
102
RTVSPost2010Prop47
 90
       50
102
RTVSPost2010PropOp47
 70
     1
102
RTVSPost2010Prop48
 90
       50
102
RTVSPost2010PropOp48
 70
     1
102
RTVSPost2010Prop49
280
     0
102
RTVSPost2010PropOp49
 70
     1
102
RTVSPost2010Prop50
 90
       50
102
RTVSPost2010PropOp50
 70
     1
102
RTVSPost2010Prop51ColorIndex
 90
      256
102
RTVSPost2010Prop51ColorRGB
 90
-16777216
102
RTVSPost2010PropOp51
 70
     0
102
RTVSPost2010Prop52
140
1.0
102
RTVSPost2010PropOp52
 70
     0
102
RTVSPost2010Prop53
 90
        2
102
RTVSPost2010PropOp53
 70
     1
102
RTVSPost2010Prop54
  1
strokes_ogs.tif
102
RTVSPost2010PropOp54
 70
     1
102
RTVSPost2010Prop55
280
     0
102
RTVSPost2010PropOp55
 70
     1
102
RTVSPost2010Prop56
140
1.0
102
RTVSPost2010PropOp56
 70
     1
102
RTVSPost2010Prop57
140
1.0
102
RTVSPost2010PropOp57
 70
     1
102
RTVSPropertyOp0
 70
     1
102
RTVSPropertyOp1
 70
     1
102
RTVSPropertyOp2
 70
     1
102
RTVSPropertyOp3
 70
     1
102
RTVSPropertyOp4
 70
     1
102
RTVSPropertyOp5
 70
     1
102
RTVSPropertyOp6
 70
     1
102
RTVSPropertyOp7
 70
     1
102
RTVSPropertyOp8
 70
     1
102
RTVSPropertyOp9
 70
     1
102
RTVSPropertyOp10
 70
     1
102
RTVSPropertyOp11
 70
     1
102
RTVSPropertyOp12
 70
     1
102
RTVSPropertyOp13
 70
     1
102
RTVSPropertyOp14
 70
     1
102
RTVSPropertyOp15
 70
     1
102
RTVSPropertyOp16
 70
     1
102
RTVSPropertyOp17
 70
     1
102
RTVSPropertyOp18
 70
     1
102
RTVSPropertyOp19
 70
     1
102
RTVSPropertyOp20
 70
     1
102
RTVSPropertyOp21
 70
     1
102
RTVSPropertyOp22
 70
     1
102
RTVSPropertyOp23
 70
     1
102
RTVSPropertyOp24
 70
     1
102
RTVSPropertyOp25
 70
     1
102
RTVSPropertyOp26
 70
     1
102
RTVSPropertyOp27
 70
     1
102
RTVSPropertyOp28
 70
     1
102
RTVSPropertyOp29
 70
     1
102
RTVSPropertyOp30
 70
     1
102
RTVSPropertyOp31
 70
     1
102
RTVSPropertyOp32
 70
     1
102
RTVSPropertyOp33
 70
     1
102
RTVSPropertyOp34
 70
     1
102
RTVSPropertyOp35
 70
     1
102
RTVSPropertyOp36
 70
     1
102
RTVSPropertyOp37
 70
     1
102
RTVSPropertyOp38
 70
     1
102
RTVSPropertyOp39
 70
     1
102
RTVSPropertyOp40
 70
     1
102
RTVSPropertyOp41
 70
     1
102
RTVSPropertyOp42
 70
     1
102
RTVSPropertyOp43
 70
     1
102
RTVSPropertyOp44
 70
     1
102
RTVSPropertyOp45
 70
     1
102
RTVSPropertyOp46
 70
     1
102
RTVSPropertyOp47
 70
     1
102
RTVSPropertyOp48
 70
     1
102
RTVSPropertyOp49
 70
     1
102
RTVSPropertyOp50
 70
     1
102
RTVSPropertyOp51
 70
     0
102
RTVSPropertyOp52
 70
     0
102
RTVSPropertyOp53
 70
     1
102
RTVSPropertyOp54
 70
     1
102
RTVSPropertyOp55
 70
     1
102
RTVSPropertyOp56
 70
     1
102
RTVSPropertyOp57
 70
     1
102
RTVSPropertyOp58
 70
     1
102
RTVSPropertyOp59
 70
     1
102
RTVSPropertyOp60
 70
     1
102
RTVSPropertyOp61
 70
     1
102
RTVSPropertyOp62
 70
     1
  0
XRECORD
  5
8645
102
{ACAD_REACTORS
330
8644
102
}
330
8644
100
AcDbXrecord
280
     1
102
RTVSPost2010Prop28
280
     0
102
RTVSPost2010PropOp28
 70
     1
102
RTVSPost2010Prop29
280
     1
102
RTVSPost2010PropOp29
 70
     1
102
RTVSPost2010Prop30
280
     1
102
RTVSPost2010PropOp30
 70
     1
102
RTVSPost2010Prop31
280
     0
102
RTVSPost2010PropOp31
 70
     1
102
RTVSPost2010Prop32
280
     0
102
RTVSPost2010PropOp32
 70
     1
102
RTVSPost2010Prop33
280
     0
102
RTVSPost2010PropOp33
 70
     1
102
RTVSPost2010Prop34
280
     0
102
RTVSPost2010PropOp34
 70
     1
102
RTVSPost2010Prop35
280
     0
102
RTVSPost2010PropOp35
 70
     1
102
RTVSPost2010Prop36
280
     0
102
RTVSPost2010PropOp36
 70
     1
102
RTVSPost2010Prop37
 90
       50
102
RTVSPost2010PropOp37
 70
     1
102
RTVSPost2010Prop38
140
0.0
102
RTVSPost2010PropOp38
 70
     1
102
RTVSPost2010Prop39
140
1.0
102
RTVSPost2010PropOp39
 70
     1
102
RTVSPost2010Prop40
 90
        0
102
RTVSPost2010PropOp40
 70
     1
102
RTVSPost2010Prop41ColorIndex
 90
       18
102
RTVSPost2010Prop41ColorRGB
 90
        0
102
RTVSPost2010PropOp41
 70
     1
102
RTVSPost2010Prop42
 90
       50
102
RTVSPost2010PropOp42
 70
     1
102
RTVSPost2010Prop43
 90
        3
102
RTVSPost2010PropOp43
 70
     1
102
RTVSPost2010Prop44ColorIndex
 90
        5
102
RTVSPost2010Prop44ColorRGB
 90
      255
102
RTVSPost2010PropOp44
 70
     1
102
RTVSPost2010Prop45
280
     0
102
RTVSPost2010PropOp45
 70
     1
102
RTVSPost2010Prop46
 90
       50
102
RTVSPost2010PropOp46
 70
     1
102
RTVSPost2010Prop47
 90
       50
102
RTVSPost2010PropOp47
 70
     1
102
RTVSPost2010Prop48
 90
       50
102
RTVSPost2010PropOp48
 70
     1
102
RTVSPost2010Prop49
280
     0
102
RTVSPost2010PropOp49
 70
     1
102
RTVSPost2010Prop50
 90
       50
102
RTVSPost2010PropOp50
 70
     1
102
RTVSPost2010Prop51ColorIndex
 90
      256
102
RTVSPost2010Prop51ColorRGB
 90
-16777216
102
RTVSPost2010PropOp51
 70
     0
102
RTVSPost2010Prop52
140
1.0
102
RTVSPost2010PropOp52
 70
     0
102
RTVSPost2010Prop53
 90
        2
102
RTVSPost2010PropOp53
 70
     1
102
RTVSPost2010Prop54
  1
strokes_ogs.tif
102
RTVSPost2010PropOp54
 70
     1
102
RTVSPost2010Prop55
280
     0
102
RTVSPost2010PropOp55
 70
     1
102
RTVSPost2010Prop56
140
1.0
102
RTVSPost2010PropOp56
 70
     1
102
RTVSPost2010Prop57
140
1.0
102
RTVSPost2010PropOp57
 70
     1
102
RTVSPropertyOp0
 70
     1
102
RTVSPropertyOp1
 70
     1
102
RTVSPropertyOp2
 70
     1
102
RTVSPropertyOp3
 70
     1
102
RTVSPropertyOp4
 70
     1
102
RTVSPropertyOp5
 70
     1
102
RTVSPropertyOp6
 70
     1
102
RTVSPropertyOp7
 70
     1
102
RTVSPropertyOp8
 70
     1
102
RTVSPropertyOp9
 70
     1
102
RTVSPropertyOp10
 70
     1
102
RTVSPropertyOp11
 70
     1
102
RTVSPropertyOp12
 70
     1
102
RTVSPropertyOp13
 70
     1
102
RTVSPropertyOp14
 70
     1
102
RTVSPropertyOp15
 70
     1
102
RTVSPropertyOp16
 70
     1
102
RTVSPropertyOp17
 70
     1
102
RTVSPropertyOp18
 70
     1
102
RTVSPropertyOp19
 70
     1
102
RTVSPropertyOp20
 70
     1
102
RTVSPropertyOp21
 70
     1
102
RTVSPropertyOp22
 70
     1
102
RTVSPropertyOp23
 70
     1
102
RTVSPropertyOp24
 70
     1
102
RTVSPropertyOp25
 70
     1
102
RTVSPropertyOp26
 70
     1
102
RTVSPropertyOp27
 70
     1
102
RTVSPropertyOp28
 70
     1
102
RTVSPropertyOp29
 70
     1
102
RTVSPropertyOp30
 70
     1
102
RTVSPropertyOp31
 70
     1
102
RTVSPropertyOp32
 70
     1
102
RTVSPropertyOp33
 70
     1
102
RTVSPropertyOp34
 70
     1
102
RTVSPropertyOp35
 70
     1
102
RTVSPropertyOp36
 70
     1
102
RTVSPropertyOp37
 70
     1
102
RTVSPropertyOp38
 70
     1
102
RTVSPropertyOp39
 70
     1
102
RTVSPropertyOp40
 70
     1
102
RTVSPropertyOp41
 70
     1
102
RTVSPropertyOp42
 70
     1
102
RTVSPropertyOp43
 70
     1
102
RTVSPropertyOp44
 70
     1
102
RTVSPropertyOp45
 70
     1
102
RTVSPropertyOp46
 70
     1
102
RTVSPropertyOp47
 70
     1
102
RTVSPropertyOp48
 70
     1
102
RTVSPropertyOp49
 70
     1
102
RTVSPropertyOp50
 70
     1
102
RTVSPropertyOp51
 70
     0
102
RTVSPropertyOp52
 70
     0
102
RTVSPropertyOp53
 70
     1
102
RTVSPropertyOp54
 70
     1
102
RTVSPropertyOp55
 70
     1
102
RTVSPropertyOp56
 70
     1
102
RTVSPropertyOp57
 70
     1
102
RTVSPropertyOp58
 70
     1
102
RTVSPropertyOp59
 70
     1
102
RTVSPropertyOp60
 70
     1
102
RTVSPropertyOp61
 70
     1
102
RTVSPropertyOp62
 70
     1
  0
XRECORD
  5
8643
102
{ACAD_REACTORS
330
8642
102
}
330
8642
100
AcDbXrecord
280
     1
102
RTVSPost2010Prop28
280
     0
102
RTVSPost2010PropOp28
 70
     1
102
RTVSPost2010Prop29
280
     1
102
RTVSPost2010PropOp29
 70
     1
102
RTVSPost2010Prop30
280
     1
102
RTVSPost2010PropOp30
 70
     1
102
RTVSPost2010Prop31
280
     0
102
RTVSPost2010PropOp31
 70
     1
102
RTVSPost2010Prop32
280
     0
102
RTVSPost2010PropOp32
 70
     1
102
RTVSPost2010Prop33
280
     0
102
RTVSPost2010PropOp33
 70
     1
102
RTVSPost2010Prop34
280
     0
102
RTVSPost2010PropOp34
 70
     1
102
RTVSPost2010Prop35
280
     0
102
RTVSPost2010PropOp35
 70
     1
102
RTVSPost2010Prop36
280
     0
102
RTVSPost2010PropOp36
 70
     1
102
RTVSPost2010Prop37
 90
       50
102
RTVSPost2010PropOp37
 70
     1
102
RTVSPost2010Prop38
140
0.0
102
RTVSPost2010PropOp38
 70
     1
102
RTVSPost2010Prop39
140
1.0
102
RTVSPost2010PropOp39
 70
     1
102
RTVSPost2010Prop40
 90
        0
102
RTVSPost2010PropOp40
 70
     1
102
RTVSPost2010Prop41ColorIndex
 90
       18
102
RTVSPost2010Prop41ColorRGB
 90
        0
102
RTVSPost2010PropOp41
 70
     1
102
RTVSPost2010Prop42
 90
       50
102
RTVSPost2010PropOp42
 70
     1
102
RTVSPost2010Prop43
 90
        3
102
RTVSPost2010PropOp43
 70
     1
102
RTVSPost2010Prop44ColorIndex
 90
        5
102
RTVSPost2010Prop44ColorRGB
 90
      255
102
RTVSPost2010PropOp44
 70
     1
102
RTVSPost2010Prop45
280
     0
102
RTVSPost2010PropOp45
 70
     1
102
RTVSPost2010Prop46
 90
       50
102
RTVSPost2010PropOp46
 70
     1
102
RTVSPost2010Prop47
 90
       50
102
RTVSPost2010PropOp47
 70
     1
102
RTVSPost2010Prop48
 90
       50
102
RTVSPost2010PropOp48
 70
     1
102
RTVSPost2010Prop49
280
     0
102
RTVSPost2010PropOp49
 70
     1
102
RTVSPost2010Prop50
 90
       50
102
RTVSPost2010PropOp50
 70
     1
102
RTVSPost2010Prop51ColorIndex
 90
      256
102
RTVSPost2010Prop51ColorRGB
 90
-16777216
102
RTVSPost2010PropOp51
 70
     0
102
RTVSPost2010Prop52
140
1.0
102
RTVSPost2010PropOp52
 70
     0
102
RTVSPost2010Prop53
 90
        2
102
RTVSPost2010PropOp53
 70
     1
102
RTVSPost2010Prop54
  1
strokes_ogs.tif
102
RTVSPost2010PropOp54
 70
     1
102
RTVSPost2010Prop55
280
     0
102
RTVSPost2010PropOp55
 70
     1
102
RTVSPost2010Prop56
140
1.0
102
RTVSPost2010PropOp56
 70
     1
102
RTVSPost2010Prop57
140
1.0
102
RTVSPost2010PropOp57
 70
     1
102
RTVSPropertyOp0
 70
     1
102
RTVSPropertyOp1
 70
     1
102
RTVSPropertyOp2
 70
     1
102
RTVSPropertyOp3
 70
     1
102
RTVSPropertyOp4
 70
     1
102
RTVSPropertyOp5
 70
     1
102
RTVSPropertyOp6
 70
     1
102
RTVSPropertyOp7
 70
     1
102
RTVSPropertyOp8
 70
     1
102
RTVSPropertyOp9
 70
     1
102
RTVSPropertyOp10
 70
     1
102
RTVSPropertyOp11
 70
     1
102
RTVSPropertyOp12
 70
     1
102
RTVSPropertyOp13
 70
     1
102
RTVSPropertyOp14
 70
     1
102
RTVSPropertyOp15
 70
     1
102
RTVSPropertyOp16
 70
     1
102
RTVSPropertyOp17
 70
     1
102
RTVSPropertyOp18
 70
     1
102
RTVSPropertyOp19
 70
     1
102
RTVSPropertyOp20
 70
     1
102
RTVSPropertyOp21
 70
     1
102
RTVSPropertyOp22
 70
     1
102
RTVSPropertyOp23
 70
     1
102
RTVSPropertyOp24
 70
     1
102
RTVSPropertyOp25
 70
     1
102
RTVSPropertyOp26
 70
     1
102
RTVSPropertyOp27
 70
     1
102
RTVSPropertyOp28
 70
     1
102
RTVSPropertyOp29
 70
     1
102
RTVSPropertyOp30
 70
     1
102
RTVSPropertyOp31
 70
     1
102
RTVSPropertyOp32
 70
     1
102
RTVSPropertyOp33
 70
     1
102
RTVSPropertyOp34
 70
     1
102
RTVSPropertyOp35
 70
     1
102
RTVSPropertyOp36
 70
     1
102
RTVSPropertyOp37
 70
     1
102
RTVSPropertyOp38
 70
     1
102
RTVSPropertyOp39
 70
     1
102
RTVSPropertyOp40
 70
     1
102
RTVSPropertyOp41
 70
     1
102
RTVSPropertyOp42
 70
     1
102
RTVSPropertyOp43
 70
     1
102
RTVSPropertyOp44
 70
     1
102
RTVSPropertyOp45
 70
     1
102
RTVSPropertyOp46
 70
     1
102
RTVSPropertyOp47
 70
     1
102
RTVSPropertyOp48
 70
     1
102
RTVSPropertyOp49
 70
     1
102
RTVSPropertyOp50
 70
     1
102
RTVSPropertyOp51
 70
     0
102
RTVSPropertyOp52
 70
     0
102
RTVSPropertyOp53
 70
     1
102
RTVSPropertyOp54
 70
     1
102
RTVSPropertyOp55
 70
     1
102
RTVSPropertyOp56
 70
     1
102
RTVSPropertyOp57
 70
     1
102
RTVSPropertyOp58
 70
     1
102
RTVSPropertyOp59
 70
     1
102
RTVSPropertyOp60
 70
     1
102
RTVSPropertyOp61
 70
     1
102
RTVSPropertyOp62
 70
     1
  0
XRECORD
  5
863D
102
{ACAD_REACTORS
330
863C
102
}
330
863C
100
AcDbXrecord
280
     1
102
RTVSPost2010Prop28
280
     0
102
RTVSPost2010PropOp28
 70
     1
102
RTVSPost2010Prop29
280
     1
102
RTVSPost2010PropOp29
 70
     1
102
RTVSPost2010Prop30
280
     1
102
RTVSPost2010PropOp30
 70
     1
102
RTVSPost2010Prop31
280
     0
102
RTVSPost2010PropOp31
 70
     1
102
RTVSPost2010Prop32
280
     0
102
RTVSPost2010PropOp32
 70
     1
102
RTVSPost2010Prop33
280
     0
102
RTVSPost2010PropOp33
 70
     1
102
RTVSPost2010Prop34
280
     0
102
RTVSPost2010PropOp34
 70
     1
102
RTVSPost2010Prop35
280
     0
102
RTVSPost2010PropOp35
 70
     1
102
RTVSPost2010Prop36
280
     0
102
RTVSPost2010PropOp36
 70
     1
102
RTVSPost2010Prop37
 90
       50
102
RTVSPost2010PropOp37
 70
     1
102
RTVSPost2010Prop38
140
0.0
102
RTVSPost2010PropOp38
 70
     1
102
RTVSPost2010Prop39
140
1.0
102
RTVSPost2010PropOp39
 70
     1
102
RTVSPost2010Prop40
 90
        0
102
RTVSPost2010PropOp40
 70
     1
102
RTVSPost2010Prop41ColorIndex
 90
       18
102
RTVSPost2010Prop41ColorRGB
 90
        0
102
RTVSPost2010PropOp41
 70
     1
102
RTVSPost2010Prop42
 90
       50
102
RTVSPost2010PropOp42
 70
     1
102
RTVSPost2010Prop43
 90
        3
102
RTVSPost2010PropOp43
 70
     1
102
RTVSPost2010Prop44ColorIndex
 90
        5
102
RTVSPost2010Prop44ColorRGB
 90
      255
102
RTVSPost2010PropOp44
 70
     1
102
RTVSPost2010Prop45
280
     0
102
RTVSPost2010PropOp45
 70
     1
102
RTVSPost2010Prop46
 90
       50
102
RTVSPost2010PropOp46
 70
     1
102
RTVSPost2010Prop47
 90
       50
102
RTVSPost2010PropOp47
 70
     1
102
RTVSPost2010Prop48
 90
       50
102
RTVSPost2010PropOp48
 70
     1
102
RTVSPost2010Prop49
280
     0
102
RTVSPost2010PropOp49
 70
     1
102
RTVSPost2010Prop50
 90
       50
102
RTVSPost2010PropOp50
 70
     1
102
RTVSPost2010Prop51ColorIndex
 90
      256
102
RTVSPost2010Prop51ColorRGB
 90
-16777216
102
RTVSPost2010PropOp51
 70
     0
102
RTVSPost2010Prop52
140
1.0
102
RTVSPost2010PropOp52
 70
     0
102
RTVSPost2010Prop53
 90
        2
102
RTVSPost2010PropOp53
 70
     1
102
RTVSPost2010Prop54
  1
strokes_ogs.tif
102
RTVSPost2010PropOp54
 70
     1
102
RTVSPost2010Prop55
280
     0
102
RTVSPost2010PropOp55
 70
     1
102
RTVSPost2010Prop56
140
1.0
102
RTVSPost2010PropOp56
 70
     1
102
RTVSPost2010Prop57
140
1.0
102
RTVSPost2010PropOp57
 70
     1
102
RTVSPropertyOp0
 70
     1
102
RTVSPropertyOp1
 70
     1
102
RTVSPropertyOp2
 70
     1
102
RTVSPropertyOp3
 70
     1
102
RTVSPropertyOp4
 70
     1
102
RTVSPropertyOp5
 70
     1
102
RTVSPropertyOp6
 70
     1
102
RTVSPropertyOp7
 70
     1
102
RTVSPropertyOp8
 70
     1
102
RTVSPropertyOp9
 70
     1
102
RTVSPropertyOp10
 70
     1
102
RTVSPropertyOp11
 70
     1
102
RTVSPropertyOp12
 70
     1
102
RTVSPropertyOp13
 70
     1
102
RTVSPropertyOp14
 70
     1
102
RTVSPropertyOp15
 70
     1
102
RTVSPropertyOp16
 70
     1
102
RTVSPropertyOp17
 70
     1
102
RTVSPropertyOp18
 70
     1
102
RTVSPropertyOp19
 70
     1
102
RTVSPropertyOp20
 70
     1
102
RTVSPropertyOp21
 70
     1
102
RTVSPropertyOp22
 70
     1
102
RTVSPropertyOp23
 70
     1
102
RTVSPropertyOp24
 70
     1
102
RTVSPropertyOp25
 70
     1
102
RTVSPropertyOp26
 70
     1
102
RTVSPropertyOp27
 70
     1
102
RTVSPropertyOp28
 70
     1
102
RTVSPropertyOp29
 70
     1
102
RTVSPropertyOp30
 70
     1
102
RTVSPropertyOp31
 70
     1
102
RTVSPropertyOp32
 70
     1
102
RTVSPropertyOp33
 70
     1
102
RTVSPropertyOp34
 70
     1
102
RTVSPropertyOp35
 70
     1
102
RTVSPropertyOp36
 70
     1
102
RTVSPropertyOp37
 70
     1
102
RTVSPropertyOp38
 70
     1
102
RTVSPropertyOp39
 70
     1
102
RTVSPropertyOp40
 70
     1
102
RTVSPropertyOp41
 70
     1
102
RTVSPropertyOp42
 70
     1
102
RTVSPropertyOp43
 70
     1
102
RTVSPropertyOp44
 70
     1
102
RTVSPropertyOp45
 70
     1
102
RTVSPropertyOp46
 70
     1
102
RTVSPropertyOp47
 70
     1
102
RTVSPropertyOp48
 70
     1
102
RTVSPropertyOp49
 70
     1
102
RTVSPropertyOp50
 70
     1
102
RTVSPropertyOp51
 70
     0
102
RTVSPropertyOp52
 70
     0
102
RTVSPropertyOp53
 70
     1
102
RTVSPropertyOp54
 70
     1
102
RTVSPropertyOp55
 70
     1
102
RTVSPropertyOp56
 70
     1
102
RTVSPropertyOp57
 70
     1
102
RTVSPropertyOp58
 70
     1
102
RTVSPropertyOp59
 70
     1
102
RTVSPropertyOp60
 70
     1
102
RTVSPropertyOp61
 70
     1
102
RTVSPropertyOp62
 70
     1
  0
XRECORD
  5
863F
102
{ACAD_REACTORS
330
863E
102
}
330
863E
100
AcDbXrecord
280
     1
102
RTVSPost2010Prop28
280
     0
102
RTVSPost2010PropOp28
 70
     1
102
RTVSPost2010Prop29
280
     1
102
RTVSPost2010PropOp29
 70
     1
102
RTVSPost2010Prop30
280
     1
102
RTVSPost2010PropOp30
 70
     1
102
RTVSPost2010Prop31
280
     0
102
RTVSPost2010PropOp31
 70
     1
102
RTVSPost2010Prop32
280
     0
102
RTVSPost2010PropOp32
 70
     1
102
RTVSPost2010Prop33
280
     0
102
RTVSPost2010PropOp33
 70
     1
102
RTVSPost2010Prop34
280
     0
102
RTVSPost2010PropOp34
 70
     1
102
RTVSPost2010Prop35
280
     0
102
RTVSPost2010PropOp35
 70
     1
102
RTVSPost2010Prop36
280
     0
102
RTVSPost2010PropOp36
 70
     1
102
RTVSPost2010Prop37
 90
       50
102
RTVSPost2010PropOp37
 70
     1
102
RTVSPost2010Prop38
140
0.0
102
RTVSPost2010PropOp38
 70
     1
102
RTVSPost2010Prop39
140
1.0
102
RTVSPost2010PropOp39
 70
     1
102
RTVSPost2010Prop40
 90
        0
102
RTVSPost2010PropOp40
 70
     1
102
RTVSPost2010Prop41ColorIndex
 90
       18
102
RTVSPost2010Prop41ColorRGB
 90
        0
102
RTVSPost2010PropOp41
 70
     1
102
RTVSPost2010Prop42
 90
       50
102
RTVSPost2010PropOp42
 70
     1
102
RTVSPost2010Prop43
 90
        3
102
RTVSPost2010PropOp43
 70
     1
102
RTVSPost2010Prop44ColorIndex
 90
        5
102
RTVSPost2010Prop44ColorRGB
 90
      255
102
RTVSPost2010PropOp44
 70
     1
102
RTVSPost2010Prop45
280
     0
102
RTVSPost2010PropOp45
 70
     1
102
RTVSPost2010Prop46
 90
       50
102
RTVSPost2010PropOp46
 70
     1
102
RTVSPost2010Prop47
 90
       50
102
RTVSPost2010PropOp47
 70
     1
102
RTVSPost2010Prop48
 90
       50
102
RTVSPost2010PropOp48
 70
     1
102
RTVSPost2010Prop49
280
     0
102
RTVSPost2010PropOp49
 70
     1
102
RTVSPost2010Prop50
 90
       50
102
RTVSPost2010PropOp50
 70
     1
102
RTVSPost2010Prop51ColorIndex
 90
      256
102
RTVSPost2010Prop51ColorRGB
 90
-16777216
102
RTVSPost2010PropOp51
 70
     0
102
RTVSPost2010Prop52
140
1.0
102
RTVSPost2010PropOp52
 70
     0
102
RTVSPost2010Prop53
 90
        2
102
RTVSPost2010PropOp53
 70
     1
102
RTVSPost2010Prop54
  1
strokes_ogs.tif
102
RTVSPost2010PropOp54
 70
     1
102
RTVSPost2010Prop55
280
     0
102
RTVSPost2010PropOp55
 70
     1
102
RTVSPost2010Prop56
140
1.0
102
RTVSPost2010PropOp56
 70
     1
102
RTVSPost2010Prop57
140
1.0
102
RTVSPost2010PropOp57
 70
     1
102
RTVSPropertyOp0
 70
     1
102
RTVSPropertyOp1
 70
     1
102
RTVSPropertyOp2
 70
     1
102
RTVSPropertyOp3
 70
     1
102
RTVSPropertyOp4
 70
     1
102
RTVSPropertyOp5
 70
     1
102
RTVSPropertyOp6
 70
     1
102
RTVSPropertyOp7
 70
     1
102
RTVSPropertyOp8
 70
     1
102
RTVSPropertyOp9
 70
     1
102
RTVSPropertyOp10
 70
     1
102
RTVSPropertyOp11
 70
     1
102
RTVSPropertyOp12
 70
     1
102
RTVSPropertyOp13
 70
     1
102
RTVSPropertyOp14
 70
     1
102
RTVSPropertyOp15
 70
     1
102
RTVSPropertyOp16
 70
     1
102
RTVSPropertyOp17
 70
     1
102
RTVSPropertyOp18
 70
     1
102
RTVSPropertyOp19
 70
     1
102
RTVSPropertyOp20
 70
     1
102
RTVSPropertyOp21
 70
     1
102
RTVSPropertyOp22
 70
     1
102
RTVSPropertyOp23
 70
     1
102
RTVSPropertyOp24
 70
     1
102
RTVSPropertyOp25
 70
     1
102
RTVSPropertyOp26
 70
     1
102
RTVSPropertyOp27
 70
     1
102
RTVSPropertyOp28
 70
     1
102
RTVSPropertyOp29
 70
     1
102
RTVSPropertyOp30
 70
     1
102
RTVSPropertyOp31
 70
     1
102
RTVSPropertyOp32
 70
     1
102
RTVSPropertyOp33
 70
     1
102
RTVSPropertyOp34
 70
     1
102
RTVSPropertyOp35
 70
     1
102
RTVSPropertyOp36
 70
     1
102
RTVSPropertyOp37
 70
     1
102
RTVSPropertyOp38
 70
     1
102
RTVSPropertyOp39
 70
     1
102
RTVSPropertyOp40
 70
     1
102
RTVSPropertyOp41
 70
     1
102
RTVSPropertyOp42
 70
     1
102
RTVSPropertyOp43
 70
     1
102
RTVSPropertyOp44
 70
     1
102
RTVSPropertyOp45
 70
     1
102
RTVSPropertyOp46
 70
     1
102
RTVSPropertyOp47
 70
     1
102
RTVSPropertyOp48
 70
     1
102
RTVSPropertyOp49
 70
     1
102
RTVSPropertyOp50
 70
     1
102
RTVSPropertyOp51
 70
     0
102
RTVSPropertyOp52
 70
     0
102
RTVSPropertyOp53
 70
     1
102
RTVSPropertyOp54
 70
     1
102
RTVSPropertyOp55
 70
     1
102
RTVSPropertyOp56
 70
     1
102
RTVSPropertyOp57
 70
     1
102
RTVSPropertyOp58
 70
     1
102
RTVSPropertyOp59
 70
     1
102
RTVSPropertyOp60
 70
     1
102
RTVSPropertyOp61
 70
     1
102
RTVSPropertyOp62
 70
     1
  0
XRECORD
  5
8635
102
{ACAD_REACTORS
330
8634
102
}
330
8634
100
AcDbXrecord
280
     1
102
RTVSPost2010Prop28
280
     0
102
RTVSPost2010PropOp28
 70
     1
102
RTVSPost2010Prop29
280
     1
102
RTVSPost2010PropOp29
 70
     1
102
RTVSPost2010Prop30
280
     1
102
RTVSPost2010PropOp30
 70
     1
102
RTVSPost2010Prop31
280
     0
102
RTVSPost2010PropOp31
 70
     1
102
RTVSPost2010Prop32
280
     0
102
RTVSPost2010PropOp32
 70
     1
102
RTVSPost2010Prop33
280
     0
102
RTVSPost2010PropOp33
 70
     1
102
RTVSPost2010Prop34
280
     0
102
RTVSPost2010PropOp34
 70
     1
102
RTVSPost2010Prop35
280
     0
102
RTVSPost2010PropOp35
 70
     1
102
RTVSPost2010Prop36
280
     0
102
RTVSPost2010PropOp36
 70
     1
102
RTVSPost2010Prop37
 90
       50
102
RTVSPost2010PropOp37
 70
     1
102
RTVSPost2010Prop38
140
0.0
102
RTVSPost2010PropOp38
 70
     1
102
RTVSPost2010Prop39
140
1.0
102
RTVSPost2010PropOp39
 70
     1
102
RTVSPost2010Prop40
 90
        0
102
RTVSPost2010PropOp40
 70
     1
102
RTVSPost2010Prop41ColorIndex
 90
       18
102
RTVSPost2010Prop41ColorRGB
 90
        0
102
RTVSPost2010PropOp41
 70
     1
102
RTVSPost2010Prop42
 90
       50
102
RTVSPost2010PropOp42
 70
     1
102
RTVSPost2010Prop43
 90
        3
102
RTVSPost2010PropOp43
 70
     1
102
RTVSPost2010Prop44ColorIndex
 90
        5
102
RTVSPost2010Prop44ColorRGB
 90
      255
102
RTVSPost2010PropOp44
 70
     1
102
RTVSPost2010Prop45
280
     0
102
RTVSPost2010PropOp45
 70
     1
102
RTVSPost2010Prop46
 90
       50
102
RTVSPost2010PropOp46
 70
     1
102
RTVSPost2010Prop47
 90
       50
102
RTVSPost2010PropOp47
 70
     1
102
RTVSPost2010Prop48
 90
       50
102
RTVSPost2010PropOp48
 70
     1
102
RTVSPost2010Prop49
280
     0
102
RTVSPost2010PropOp49
 70
     1
102
RTVSPost2010Prop50
 90
       50
102
RTVSPost2010PropOp50
 70
     1
102
RTVSPost2010Prop51ColorIndex
 90
      256
102
RTVSPost2010Prop51ColorRGB
 90
-16777216
102
RTVSPost2010PropOp51
 70
     0
102
RTVSPost2010Prop52
140
1.0
102
RTVSPost2010PropOp52
 70
     0
102
RTVSPost2010Prop53
 90
        2
102
RTVSPost2010PropOp53
 70
     1
102
RTVSPost2010Prop54
  1
strokes_ogs.tif
102
RTVSPost2010PropOp54
 70
     1
102
RTVSPost2010Prop55
280
     0
102
RTVSPost2010PropOp55
 70
     1
102
RTVSPost2010Prop56
140
1.0
102
RTVSPost2010PropOp56
 70
     1
102
RTVSPost2010Prop57
140
1.0
102
RTVSPost2010PropOp57
 70
     1
102
RTVSPropertyOp0
 70
     1
102
RTVSPropertyOp1
 70
     1
102
RTVSPropertyOp2
 70
     1
102
RTVSPropertyOp3
 70
     1
102
RTVSPropertyOp4
 70
     1
102
RTVSPropertyOp5
 70
     1
102
RTVSPropertyOp6
 70
     1
102
RTVSPropertyOp7
 70
     1
102
RTVSPropertyOp8
 70
     1
102
RTVSPropertyOp9
 70
     1
102
RTVSPropertyOp10
 70
     1
102
RTVSPropertyOp11
 70
     1
102
RTVSPropertyOp12
 70
     1
102
RTVSPropertyOp13
 70
     1
102
RTVSPropertyOp14
 70
     1
102
RTVSPropertyOp15
 70
     1
102
RTVSPropertyOp16
 70
     1
102
RTVSPropertyOp17
 70
     1
102
RTVSPropertyOp18
 70
     1
102
RTVSPropertyOp19
 70
     1
102
RTVSPropertyOp20
 70
     1
102
RTVSPropertyOp21
 70
     1
102
RTVSPropertyOp22
 70
     1
102
RTVSPropertyOp23
 70
     1
102
RTVSPropertyOp24
 70
     1
102
RTVSPropertyOp25
 70
     1
102
RTVSPropertyOp26
 70
     1
102
RTVSPropertyOp27
 70
     1
102
RTVSPropertyOp28
 70
     1
102
RTVSPropertyOp29
 70
     1
102
RTVSPropertyOp30
 70
     1
102
RTVSPropertyOp31
 70
     1
102
RTVSPropertyOp32
 70
     1
102
RTVSPropertyOp33
 70
     1
102
RTVSPropertyOp34
 70
     1
102
RTVSPropertyOp35
 70
     1
102
RTVSPropertyOp36
 70
     1
102
RTVSPropertyOp37
 70
     1
102
RTVSPropertyOp38
 70
     1
102
RTVSPropertyOp39
 70
     1
102
RTVSPropertyOp40
 70
     1
102
RTVSPropertyOp41
 70
     1
102
RTVSPropertyOp42
 70
     1
102
RTVSPropertyOp43
 70
     1
102
RTVSPropertyOp44
 70
     1
102
RTVSPropertyOp45
 70
     1
102
RTVSPropertyOp46
 70
     1
102
RTVSPropertyOp47
 70
     1
102
RTVSPropertyOp48
 70
     1
102
RTVSPropertyOp49
 70
     1
102
RTVSPropertyOp50
 70
     1
102
RTVSPropertyOp51
 70
     0
102
RTVSPropertyOp52
 70
     0
102
RTVSPropertyOp53
 70
     1
102
RTVSPropertyOp54
 70
     1
102
RTVSPropertyOp55
 70
     1
102
RTVSPropertyOp56
 70
     1
102
RTVSPropertyOp57
 70
     1
102
RTVSPropertyOp58
 70
     1
102
RTVSPropertyOp59
 70
     1
102
RTVSPropertyOp60
 70
     1
102
RTVSPropertyOp61
 70
     1
102
RTVSPropertyOp62
 70
     1
  0
XRECORD
  5
8629
102
{ACAD_REACTORS
330
8628
102
}
330
8628
100
AcDbXrecord
280
     1
102
RTVSPost2010Prop28
280
     0
102
RTVSPost2010PropOp28
 70
     1
102
RTVSPost2010Prop29
280
     1
102
RTVSPost2010PropOp29
 70
     1
102
RTVSPost2010Prop30
280
     1
102
RTVSPost2010PropOp30
 70
     1
102
RTVSPost2010Prop31
280
     0
102
RTVSPost2010PropOp31
 70
     1
102
RTVSPost2010Prop32
280
     0
102
RTVSPost2010PropOp32
 70
     1
102
RTVSPost2010Prop33
280
     0
102
RTVSPost2010PropOp33
 70
     1
102
RTVSPost2010Prop34
280
     0
102
RTVSPost2010PropOp34
 70
     1
102
RTVSPost2010Prop35
280
     0
102
RTVSPost2010PropOp35
 70
     1
102
RTVSPost2010Prop36
280
     0
102
RTVSPost2010PropOp36
 70
     1
102
RTVSPost2010Prop37
 90
       50
102
RTVSPost2010PropOp37
 70
     1
102
RTVSPost2010Prop38
140
0.0
102
RTVSPost2010PropOp38
 70
     1
102
RTVSPost2010Prop39
140
1.0
102
RTVSPost2010PropOp39
 70
     1
102
RTVSPost2010Prop40
 90
        0
102
RTVSPost2010PropOp40
 70
     1
102
RTVSPost2010Prop41ColorIndex
 90
       18
102
RTVSPost2010Prop41ColorRGB
 90
        0
102
RTVSPost2010PropOp41
 70
     1
102
RTVSPost2010Prop42
 90
       50
102
RTVSPost2010PropOp42
 70
     1
102
RTVSPost2010Prop43
 90
        3
102
RTVSPost2010PropOp43
 70
     1
102
RTVSPost2010Prop44ColorIndex
 90
        5
102
RTVSPost2010Prop44ColorRGB
 90
      255
102
RTVSPost2010PropOp44
 70
     1
102
RTVSPost2010Prop45
280
     0
102
RTVSPost2010PropOp45
 70
     1
102
RTVSPost2010Prop46
 90
       50
102
RTVSPost2010PropOp46
 70
     1
102
RTVSPost2010Prop47
 90
       50
102
RTVSPost2010PropOp47
 70
     1
102
RTVSPost2010Prop48
 90
       50
102
RTVSPost2010PropOp48
 70
     1
102
RTVSPost2010Prop49
280
     0
102
RTVSPost2010PropOp49
 70
     1
102
RTVSPost2010Prop50
 90
       50
102
RTVSPost2010PropOp50
 70
     1
102
RTVSPost2010Prop51ColorIndex
 90
      256
102
RTVSPost2010Prop51ColorRGB
 90
-16777216
102
RTVSPost2010PropOp51
 70
     0
102
RTVSPost2010Prop52
140
1.0
102
RTVSPost2010PropOp52
 70
     0
102
RTVSPost2010Prop53
 90
        2
102
RTVSPost2010PropOp53
 70
     1
102
RTVSPost2010Prop54
  1
strokes_ogs.tif
102
RTVSPost2010PropOp54
 70
     1
102
RTVSPost2010Prop55
280
     0
102
RTVSPost2010PropOp55
 70
     1
102
RTVSPost2010Prop56
140
1.0
102
RTVSPost2010PropOp56
 70
     1
102
RTVSPost2010Prop57
140
1.0
102
RTVSPost2010PropOp57
 70
     1
102
RTVSPropertyOp0
 70
     1
102
RTVSPropertyOp1
 70
     1
102
RTVSPropertyOp2
 70
     1
102
RTVSPropertyOp3
 70
     1
102
RTVSPropertyOp4
 70
     1
102
RTVSPropertyOp5
 70
     1
102
RTVSPropertyOp6
 70
     1
102
RTVSPropertyOp7
 70
     1
102
RTVSPropertyOp8
 70
     1
102
RTVSPropertyOp9
 70
     1
102
RTVSPropertyOp10
 70
     1
102
RTVSPropertyOp11
 70
     1
102
RTVSPropertyOp12
 70
     1
102
RTVSPropertyOp13
 70
     1
102
RTVSPropertyOp14
 70
     1
102
RTVSPropertyOp15
 70
     1
102
RTVSPropertyOp16
 70
     1
102
RTVSPropertyOp17
 70
     1
102
RTVSPropertyOp18
 70
     1
102
RTVSPropertyOp19
 70
     1
102
RTVSPropertyOp20
 70
     1
102
RTVSPropertyOp21
 70
     1
102
RTVSPropertyOp22
 70
     1
102
RTVSPropertyOp23
 70
     1
102
RTVSPropertyOp24
 70
     1
102
RTVSPropertyOp25
 70
     1
102
RTVSPropertyOp26
 70
     1
102
RTVSPropertyOp27
 70
     1
102
RTVSPropertyOp28
 70
     1
102
RTVSPropertyOp29
 70
     1
102
RTVSPropertyOp30
 70
     1
102
RTVSPropertyOp31
 70
     1
102
RTVSPropertyOp32
 70
     1
102
RTVSPropertyOp33
 70
     1
102
RTVSPropertyOp34
 70
     1
102
RTVSPropertyOp35
 70
     1
102
RTVSPropertyOp36
 70
     1
102
RTVSPropertyOp37
 70
     1
102
RTVSPropertyOp38
 70
     1
102
RTVSPropertyOp39
 70
     1
102
RTVSPropertyOp40
 70
     1
102
RTVSPropertyOp41
 70
     1
102
RTVSPropertyOp42
 70
     1
102
RTVSPropertyOp43
 70
     1
102
RTVSPropertyOp44
 70
     1
102
RTVSPropertyOp45
 70
     1
102
RTVSPropertyOp46
 70
     1
102
RTVSPropertyOp47
 70
     1
102
RTVSPropertyOp48
 70
     1
102
RTVSPropertyOp49
 70
     1
102
RTVSPropertyOp50
 70
     1
102
RTVSPropertyOp51
 70
     0
102
RTVSPropertyOp52
 70
     0
102
RTVSPropertyOp53
 70
     1
102
RTVSPropertyOp54
 70
     1
102
RTVSPropertyOp55
 70
     1
102
RTVSPropertyOp56
 70
     1
102
RTVSPropertyOp57
 70
     1
102
RTVSPropertyOp58
 70
     1
102
RTVSPropertyOp59
 70
     1
102
RTVSPropertyOp60
 70
     1
102
RTVSPropertyOp61
 70
     1
102
RTVSPropertyOp62
 70
     1
  0
XRECORD
  5
8641
102
{ACAD_REACTORS
330
8640
102
}
330
8640
100
AcDbXrecord
280
     1
102
RTVSPost2010Prop28
280
     0
102
RTVSPost2010PropOp28
 70
     1
102
RTVSPost2010Prop29
280
     1
102
RTVSPost2010PropOp29
 70
     1
102
RTVSPost2010Prop30
280
     1
102
RTVSPost2010PropOp30
 70
     1
102
RTVSPost2010Prop31
280
     0
102
RTVSPost2010PropOp31
 70
     1
102
RTVSPost2010Prop32
280
     0
102
RTVSPost2010PropOp32
 70
     1
102
RTVSPost2010Prop33
280
     0
102
RTVSPost2010PropOp33
 70
     1
102
RTVSPost2010Prop34
280
     0
102
RTVSPost2010PropOp34
 70
     1
102
RTVSPost2010Prop35
280
     0
102
RTVSPost2010PropOp35
 70
     1
102
RTVSPost2010Prop36
280
     0
102
RTVSPost2010PropOp36
 70
     1
102
RTVSPost2010Prop37
 90
       50
102
RTVSPost2010PropOp37
 70
     1
102
RTVSPost2010Prop38
140
0.0
102
RTVSPost2010PropOp38
 70
     1
102
RTVSPost2010Prop39
140
1.0
102
RTVSPost2010PropOp39
 70
     1
102
RTVSPost2010Prop40
 90
        0
102
RTVSPost2010PropOp40
 70
     1
102
RTVSPost2010Prop41ColorIndex
 90
       18
102
RTVSPost2010Prop41ColorRGB
 90
        0
102
RTVSPost2010PropOp41
 70
     1
102
RTVSPost2010Prop42
 90
       50
102
RTVSPost2010PropOp42
 70
     1
102
RTVSPost2010Prop43
 90
        3
102
RTVSPost2010PropOp43
 70
     1
102
RTVSPost2010Prop44ColorIndex
 90
        5
102
RTVSPost2010Prop44ColorRGB
 90
      255
102
RTVSPost2010PropOp44
 70
     1
102
RTVSPost2010Prop45
280
     0
102
RTVSPost2010PropOp45
 70
     1
102
RTVSPost2010Prop46
 90
       50
102
RTVSPost2010PropOp46
 70
     1
102
RTVSPost2010Prop47
 90
       50
102
RTVSPost2010PropOp47
 70
     1
102
RTVSPost2010Prop48
 90
       50
102
RTVSPost2010PropOp48
 70
     1
102
RTVSPost2010Prop49
280
     0
102
RTVSPost2010PropOp49
 70
     1
102
RTVSPost2010Prop50
 90
       50
102
RTVSPost2010PropOp50
 70
     1
102
RTVSPost2010Prop51ColorIndex
 90
      256
102
RTVSPost2010Prop51ColorRGB
 90
-16777216
102
RTVSPost2010PropOp51
 70
     0
102
RTVSPost2010Prop52
140
1.0
102
RTVSPost2010PropOp52
 70
     0
102
RTVSPost2010Prop53
 90
        2
102
RTVSPost2010PropOp53
 70
     1
102
RTVSPost2010Prop54
  1
strokes_ogs.tif
102
RTVSPost2010PropOp54
 70
     1
102
RTVSPost2010Prop55
280
     0
102
RTVSPost2010PropOp55
 70
     1
102
RTVSPost2010Prop56
140
1.0
102
RTVSPost2010PropOp56
 70
     1
102
RTVSPost2010Prop57
140
1.0
102
RTVSPost2010PropOp57
 70
     1
102
RTVSPropertyOp0
 70
     1
102
RTVSPropertyOp1
 70
     1
102
RTVSPropertyOp2
 70
     1
102
RTVSPropertyOp3
 70
     1
102
RTVSPropertyOp4
 70
     1
102
RTVSPropertyOp5
 70
     1
102
RTVSPropertyOp6
 70
     1
102
RTVSPropertyOp7
 70
     1
102
RTVSPropertyOp8
 70
     1
102
RTVSPropertyOp9
 70
     1
102
RTVSPropertyOp10
 70
     1
102
RTVSPropertyOp11
 70
     1
102
RTVSPropertyOp12
 70
     1
102
RTVSPropertyOp13
 70
     1
102
RTVSPropertyOp14
 70
     1
102
RTVSPropertyOp15
 70
     1
102
RTVSPropertyOp16
 70
     1
102
RTVSPropertyOp17
 70
     1
102
RTVSPropertyOp18
 70
     1
102
RTVSPropertyOp19
 70
     1
102
RTVSPropertyOp20
 70
     1
102
RTVSPropertyOp21
 70
     1
102
RTVSPropertyOp22
 70
     1
102
RTVSPropertyOp23
 70
     1
102
RTVSPropertyOp24
 70
     1
102
RTVSPropertyOp25
 70
     1
102
RTVSPropertyOp26
 70
     1
102
RTVSPropertyOp27
 70
     1
102
RTVSPropertyOp28
 70
     1
102
RTVSPropertyOp29
 70
     1
102
RTVSPropertyOp30
 70
     1
102
RTVSPropertyOp31
 70
     1
102
RTVSPropertyOp32
 70
     1
102
RTVSPropertyOp33
 70
     1
102
RTVSPropertyOp34
 70
     1
102
RTVSPropertyOp35
 70
     1
102
RTVSPropertyOp36
 70
     1
102
RTVSPropertyOp37
 70
     1
102
RTVSPropertyOp38
 70
     1
102
RTVSPropertyOp39
 70
     1
102
RTVSPropertyOp40
 70
     1
102
RTVSPropertyOp41
 70
     1
102
RTVSPropertyOp42
 70
     1
102
RTVSPropertyOp43
 70
     1
102
RTVSPropertyOp44
 70
     1
102
RTVSPropertyOp45
 70
     1
102
RTVSPropertyOp46
 70
     1
102
RTVSPropertyOp47
 70
     1
102
RTVSPropertyOp48
 70
     1
102
RTVSPropertyOp49
 70
     1
102
RTVSPropertyOp50
 70
     1
102
RTVSPropertyOp51
 70
     0
102
RTVSPropertyOp52
 70
     0
102
RTVSPropertyOp53
 70
     1
102
RTVSPropertyOp54
 70
     1
102
RTVSPropertyOp55
 70
     1
102
RTVSPropertyOp56
 70
     1
102
RTVSPropertyOp57
 70
     1
102
RTVSPropertyOp58
 70
     1
102
RTVSPropertyOp59
 70
     1
102
RTVSPropertyOp60
 70
     1
102
RTVSPropertyOp61
 70
     1
102
RTVSPropertyOp62
 70
     1
  0
ENDSEC
  0
EOF
