  0
SECTION
  2
HEADER
  9
$ACADVER
  1
AC1015
  9
$ACADMAINTVER
 70
    20
  9
$DWGCODEPAGE
  3
ANSI_932
  9
$INSBASE
 10
0.0
 20
0.0
 30
0.0
  9
$EXTMIN
 10
-0.1922460740788665
 20
-0.2700599612071528
 30
-0.0015258207003583
  9
$EXTMAX
 10
6300.192275410744
 20
8850.270101172235
 30
0.0000000349246037
  9
$LIMMIN
 10
0.0
 20
0.0
  9
$LIMMAX
 10
297.0
 20
210.0
  9
$ORTHOMODE
 70
     1
  9
$REGENMODE
 70
     1
  9
$FILLMODE
 70
     0
  9
$QTEXTMODE
 70
     0
  9
$MIRRTEXT
 70
     1
  9
$LTSCALE
 40
100.0
  9
$ATTMODE
 70
     1
  9
$TEXTSIZE
 40
180.0
  9
$TRACEWID
 40
0.05
  9
$TEXTSTYLE
  7
STANDARD
  9
$CLAYER
  8
3
  9
$CELTYPE
  6
ByLayer
  9
$CECOLOR
 62
   256
  9
$CELTSCALE
 40
1.0
  9
$DISPSILH
 70
     0
  9
$DIMSCALE
 40
30.0
  9
$DIMASZ
 40
2.0
  9
$DIMEXO
 40
1.0
  9
$DIMDLI
 40
10.0
  9
$DIMRND
 40
0.0
  9
$DIMDLE
 40
0.0
  9
$DIMEXE
 40
1.0
  9
$DIMTP
 40
1.0
  9
$DIMTM
 40
1.0
  9
$DIMTXT
 40
3.0
  9
$DIMCEN
 40
0.0
  9
$DIMTSZ
 40
0.0
  9
$DIMTOL
 70
     0
  9
$DIMLIM
 70
     0
  9
$DIMTIH
 70
     0
  9
$DIMTOH
 70
     0
  9
$DIMSE1
 70
     0
  9
$DIMSE2
 70
     0
  9
$DIMTAD
 70
     1
  9
$DIMZIN
 70
     8
  9
$DIMBLK
  1

  9
$DIMASO
 70
     1
  9
$DIMSHO
 70
     1
  9
$DIMPOST
  1

  9
$DIMAPOST
  1

  9
$DIMALT
 70
     0
  9
$DIMALTD
 70
     2
  9
$DIMALTF
 40
0.039
  9
$DIMLFAC
 40
1.0
  9
$DIMTOFL
 70
     1
  9
$DIMTVP
 40
0.0
  9
$DIMTIX
 70
     0
  9
$DIMSOXD
 70
     0
  9
$DIMSAH
 70
     1
  9
$DIMBLK1
  1
OPEN
  9
$DIMBLK2
  1
OPEN
  9
$DIMSTYLE
  2
IGA
  9
$DIMCLRD
 70
     0
  9
$DIMCLRE
 70
     0
  9
$DIMCLRT
 70
     0
  9
$DIMTFAC
 40
10.0
  9
$DIMGAP
 40
1.0
  9
$DIMJUST
 70
     0
  9
$DIMSD1
 70
     0
  9
$DIMSD2
 70
     0
  9
$DIMTOLJ
 70
     1
  9
$DIMTZIN
 70
     0
  9
$DIMALTZ
 70
     0
  9
$DIMALTTZ
 70
     0
  9
$DIMUPT
 70
     0
  9
$DIMDEC
 70
     4
  9
$DIMTDEC
 70
     4
  9
$DIMALTU
 70
     2
  9
$DIMALTTD
 70
     2
  9
$DIMTXSTY
  7
STANDARD
  9
$DIMAUNIT
 70
     0
  9
$DIMADEC
 70
     0
  9
$DIMALTRND
 40
0.0
  9
$DIMAZIN
 70
     0
  9
$DIMDSEP
 70
    46
  9
$DIMATFIT
 70
     3
  9
$DIMFRAC
 70
     0
  9
$DIMLDRBLK
  1
OPEN
  9
$DIMLUNIT
 70
     2
  9
$DIMLWD
 70
    -2
  9
$DIMLWE
 70
    -2
  9
$DIMTMOVE
 70
     0
  9
$LUNITS
 70
     2
  9
$LUPREC
 70
     3
  9
$SKETCHINC
 40
0.1
  9
$FILLETRAD
 40
50.0
  9
$AUNITS
 70
     0
  9
$AUPREC
 70
     0
  9
$MENU
  1
acad
  9
$ELEVATION
 40
0.0
  9
$PELEVATION
 40
0.0
  9
$THICKNESS
 40
0.0
  9
$LIMCHECK
 70
     0
  9
$CHAMFERA
 40
0.5
  9
$CHAMFERB
 40
0.5
  9
$CHAMFERC
 40
0.0
  9
$CHAMFERD
 40
0.0
  9
$SKPOLY
 70
     0
  9
$TDCREATE
 40
2451389.542895833
  9
$TDUCREATE
 40
2451389.167895833
  9
$TDUPDATE
 40
2460269.586309144
  9
$TDUUPDATE
 40
2460269.211309144
  9
$TDINDWG
 40
0.0131871644
  9
$TDUSRTIMER
 40
0.0131869097
  9
$USRTIMER
 70
     1
  9
$ANGBASE
 50
0.0
  9
$ANGDIR
 70
     0
  9
$PDMODE
 70
     0
  9
$PDSIZE
 40
0.0
  9
$PLINEWID
 40
0.0
  9
$SPLFRAME
 70
     0
  9
$SPLINETYPE
 70
     6
  9
$SPLINESEGS
 70
     8
  9
$HANDSEED
  5
8377
  9
$SURFTAB1
 70
     6
  9
$SURFTAB2
 70
     6
  9
$SURFTYPE
 70
     6
  9
$SURFU
 70
     6
  9
$SURFV
 70
     6
  9
$UCSBASE
  2

  9
$UCSNAME
  2

  9
$UCSORG
 10
0.0
 20
0.0
 30
0.0
  9
$UCSXDIR
 10
1.0
 20
0.0
 30
0.0
  9
$UCSYDIR
 10
0.0
 20
1.0
 30
0.0
  9
$UCSORTHOREF
  2

  9
$UCSORTHOVIEW
 70
     0
  9
$UCSORGTOP
 10
0.0
 20
0.0
 30
0.0
  9
$UCSORGBOTTOM
 10
0.0
 20
0.0
 30
0.0
  9
$UCSORGLEFT
 10
0.0
 20
0.0
 30
0.0
  9
$UCSORGRIGHT
 10
0.0
 20
0.0
 30
0.0
  9
$UCSORGFRONT
 10
0.0
 20
0.0
 30
0.0
  9
$UCSORGBACK
 10
0.0
 20
0.0
 30
0.0
  9
$PUCSBASE
  2

  9
$PUCSNAME
  2

  9
$PUCSORG
 10
0.0
 20
0.0
 30
0.0
  9
$PUCSXDIR
 10
1.0
 20
0.0
 30
0.0
  9
$PUCSYDIR
 10
0.0
 20
1.0
 30
0.0
  9
$PUCSORTHOREF
  2

  9
$PUCSORTHOVIEW
 70
     0
  9
$PUCSORGTOP
 10
0.0
 20
0.0
 30
0.0
  9
$PUCSORGBOTTOM
 10
0.0
 20
0.0
 30
0.0
  9
$PUCSORGLEFT
 10
0.0
 20
0.0
 30
0.0
  9
$PUCSORGRIGHT
 10
0.0
 20
0.0
 30
0.0
  9
$PUCSORGFRONT
 10
0.0
 20
0.0
 30
0.0
  9
$PUCSORGBACK
 10
0.0
 20
0.0
 30
0.0
  9
$USERI1
 70
     0
  9
$USERI2
 70
     0
  9
$USERI3
 70
     0
  9
$USERI4
 70
     0
  9
$USERI5
 70
     0
  9
$USERR1
 40
0.0
  9
$USERR2
 40
0.0
  9
$USERR3
 40
0.0
  9
$USERR4
 40
0.0
  9
$USERR5
 40
0.0
  9
$WORLDVIEW
 70
     1
  9
$SHADEDGE
 70
     3
  9
$SHADEDIF
 70
    70
  9
$TILEMODE
 70
     1
  9
$MAXACTVP
 70
    16
  9
$PINSBASE
 10
0.0
 20
0.0
 30
0.0
  9
$PLIMCHECK
 70
     0
  9
$PEXTMIN
 10
1.000000000000000E+20
 20
1.000000000000000E+20
 30
1.000000000000000E+20
  9
$PEXTMAX
 10
-1.000000000000000E+20
 20
-1.000000000000000E+20
 30
-1.000000000000000E+20
  9
$PLIMMIN
 10
0.0
 20
0.0
  9
$PLIMMAX
 10
12.0
 20
9.0
  9
$UNITMODE
 70
     0
  9
$VISRETAIN
 70
     0
  9
$PLINEGEN
 70
     0
  9
$PSLTSCALE
 70
     1
  9
$TREEDEPTH
 70
  3020
  9
$CMLSTYLE
  2
Standard
  9
$CMLJUST
 70
     0
  9
$CMLSCALE
 40
1.0
  9
$PROXYGRAPHICS
 70
     1
  9
$MEASUREMENT
 70
     0
  9
$CELWEIGHT
370
    -1
  9
$ENDCAPS
280
     0
  9
$JOINSTYLE
280
     0
  9
$LWDISPLAY
290
     0
  9
$INSUNITS
 70
     0
  9
$HYPERLINKBASE
  1

  9
$STYLESHEET
  1

  9
$XEDIT
290
     1
  9
$CEPSNTYPE
380
     0
  9
$PSTYLEMODE
290
     1
  9
$FINGERPRINTGUID
  2
{C198E9C9-64D9-4573-8497-54C95B5B3883}
  9
$VERSIONGUID
  2
{D0199E4F-6D6C-4AF8-9870-9A591152F357}
  9
$EXTNAMES
290
     1
  9
$PSVPSCALE
 40
0.0
  9
$OLESTARTUP
290
     0
  0
ENDSEC
  0
SECTION
  2
CLASSES
  0
CLASS
  1
ACDBDICTIONARYWDFLT
  2
AcDbDictionaryWithDefault
  3
ObjectDBX Classes
 90
        0
280
     0
281
     0
  0
CLASS
  1
MATERIAL
  2
AcDbMaterial
  3
ObjectDBX Classes
 90
     1153
280
     0
281
     0
  0
CLASS
  1
VISUALSTYLE
  2
AcDbVisualStyle
  3
ObjectDBX Classes
 90
     4095
280
     0
281
     0
  0
CLASS
  1
SCALE
  2
AcDbScale
  3
ObjectDBX Classes
 90
     1153
280
     0
281
     0
  0
CLASS
  1
TABLESTYLE
  2
AcDbTableStyle
  3
ObjectDBX Classes
 90
     4095
280
     0
281
     0
  0
CLASS
  1
MLEADERSTYLE
  2
AcDbMLeaderStyle
  3
ACDB_MLEADERSTYLE_CLASS
 90
     4095
280
     0
281
     0
  0
CLASS
  1
ACDBSECTIONVIEWSTYLE
  2
AcDbSectionViewStyle
  3
ObjectDBX Classes
 90
     1025
280
     0
281
     0
  0
CLASS
  1
ACDBDETAILVIEWSTYLE
  2
AcDbDetailViewStyle
  3
ObjectDBX Classes
 90
     1025
280
     0
281
     0
  0
CLASS
  1
DICTIONARYVAR
  2
AcDbDictionaryVar
  3
ObjectDBX Classes
 90
        0
280
     0
281
     0
  0
CLASS
  1
CELLSTYLEMAP
  2
AcDbCellStyleMap
  3
ObjectDBX Classes
 90
     1152
280
     0
281
     0
  0
CLASS
  1
ACDBPLACEHOLDER
  2
AcDbPlaceHolder
  3
ObjectDBX Classes
 90
        0
280
     0
281
     0
  0
CLASS
  1
LAYOUT
  2
AcDbLayout
  3
ObjectDBX Classes
 90
        0
280
     0
281
     0
  0
ENDSEC
  0
SECTION
  2
TABLES
  0
TABLE
  2
VPORT
  5
81E6
330
0
100
AcDbSymbolTable
 70
     1
  0
VPORT
  5
8252
330
81E6
100
AcDbSymbolTableRecord
100
AcDbViewportTableRecord
  2
*ACTIVE
 70
     0
 10
0.0
 20
0.0
 11
1.0
 21
1.0
 12
3150.000014668333
 22
4425.000020605514
 13
0.0
 23
0.0
 14
10.0
 24
10.0
 15
10.0
 25
10.0
 16
0.0
 26
0.0
 36
1.0
 17
0.0
 27
0.0
 37
0.0
 40
8907.213844128961
 41
2.050213675213675
 42
50.0
 43
0.0
 44
0.0
 50
0.0
 51
0.0
 71
     0
 72
   100
 73
     1
 74
     0
 75
     0
 76
     0
 77
     0
 78
     0
281
     0
 65
     1
110
0.0
120
0.0
130
0.0
111
1.0
121
0.0
131
0.0
112
0.0
122
1.0
132
0.0
 79
     0
146
0.0
1001
ACAD_NAV_VCDISPLAY
1070
     3
  0
ENDTAB
  0
TABLE
  2
LTYPE
  5
81E3
330
0
100
AcDbSymbolTable
 70
     2
  0
LTYPE
  5
8238
330
81E3
100
AcDbSymbolTableRecord
100
AcDbLinetypeTableRecord
  2
ByBlock
 70
     0
  3

 72
    65
 73
     0
 40
0.0
  0
LTYPE
  5
8239
330
81E3
100
AcDbSymbolTableRecord
100
AcDbLinetypeTableRecord
  2
ByLayer
 70
     0
  3

 72
    65
 73
     0
 40
0.0
  0
LTYPE
  5
823A
330
81E3
100
AcDbSymbolTableRecord
100
AcDbLinetypeTableRecord
  2
CONTINUOUS
 70
     0
  3
Solid line
 72
    65
 73
     0
 40
0.0
  0
LTYPE
  5
8253
330
81E3
100
AcDbSymbolTableRecord
100
AcDbLinetypeTableRecord
  2
CENTER
 70
     0
  3
____ _ ____ _ ____ _ ____ _ ____ _ ____ _ ____ 
 72
    65
 73
     4
 40
2.0
 49
1.25
 74
     0
 49
-0.25
 74
     0
 49
0.25
 74
     0
 49
-0.25
 74
     0
  0
ENDTAB
  0
TABLE
  2
LAYER
  5
81E0
330
0
100
AcDbSymbolTable
 70
     6
  0
LAYER
  5
8232
102
{ACAD_XDICTIONARY
360
8321
102
}
330
81E0
100
AcDbSymbolTableRecord
100
AcDbLayerTableRecord
  2
0
 70
     0
 62
     7
  6
CONTINUOUS
370
    -3
390
81ED
  0
LAYER
  5
8251
102
{ACAD_XDICTIONARY
360
8323
102
}
330
81E0
100
AcDbSymbolTableRecord
100
AcDbLayerTableRecord
  2
3
 70
     0
 62
     2
  6
CONTINUOUS
370
    -3
390
81ED
  0
LAYER
  5
8254
102
{ACAD_XDICTIONARY
360
8325
102
}
330
81E0
100
AcDbSymbolTableRecord
100
AcDbLayerTableRecord
  2
2
 70
     0
 62
     3
  6
CENTER
370
    -3
390
81ED
  0
LAYER
  5
8255
102
{ACAD_XDICTIONARY
360
8327
102
}
330
81E0
100
AcDbSymbolTableRecord
100
AcDbLayerTableRecord
  2
1
 70
     0
 62
     4
  6
CONTINUOUS
370
    -3
390
81ED
  0
LAYER
  5
8256
102
{ACAD_XDICTIONARY
360
8329
102
}
330
81E0
100
AcDbSymbolTableRecord
100
AcDbLayerTableRecord
  2
4
 70
     0
 62
     7
  6
CONTINUOUS
370
    -3
390
81ED
  0
LAYER
  5
8257
330
81E0
100
AcDbSymbolTableRecord
100
AcDbLayerTableRecord
  2
DEFPOINTS
 70
     0
 62
     7
  6
CONTINUOUS
290
     0
370
    -3
390
81ED
  0
ENDTAB
  0
TABLE
  2
STYLE
  5
81E1
330
0
100
AcDbSymbolTable
 70
     2
  0
STYLE
  5
8233
330
81E1
100
AcDbSymbolTableRecord
100
AcDbTextStyleTableRecord
  2
STANDARD
 70
     0
 40
0.0
 41
1.0
 50
0.0
 71
     0
 42
180.0
  3
simplex.shx
  4
extfont.shx
  0
STYLE
  5
8237
330
81E1
100
AcDbSymbolTableRecord
100
AcDbTextStyleTableRecord
  2
Annotative
 70
     0
 40
0.0
 41
1.0
 50
0.0
 71
     0
 42
0.2
  3
txt
  4

1001
AcadAnnotative
1000
AnnotativeData
1002
{
1070
     1
1070
     1
1002
}
  0
ENDTAB
  0
TABLE
  2
VIEW
  5
81E4
330
0
100
AcDbSymbolTable
 70
     0
  0
ENDTAB
  0
TABLE
  2
UCS
  5
81E5
330
0
100
AcDbSymbolTable
 70
     0
  0
ENDTAB
  0
TABLE
  2
APPID
  5
81E7
330
0
100
AcDbSymbolTable
 70
     6
  0
APPID
  5
8234
330
81E7
100
AcDbSymbolTableRecord
100
AcDbRegAppTableRecord
  2
ACAD
 70
     0
  0
APPID
  5
823B
330
81E7
100
AcDbSymbolTableRecord
100
AcDbRegAppTableRecord
  2
AcadAnnotative
 70
     0
  0
APPID
  5
82E6
330
81E7
100
AcDbSymbolTableRecord
100
AcDbRegAppTableRecord
  2
ACAD_DSTYLE_DIMJAG
 70
     0
  0
APPID
  5
82E7
330
81E7
100
AcDbSymbolTableRecord
100
AcDbRegAppTableRecord
  2
ACAD_DSTYLE_DIMTALN
 70
     0
  0
APPID
  5
8335
330
81E7
100
AcDbSymbolTableRecord
100
AcDbRegAppTableRecord
  2
ACAD_NAV_VCDISPLAY
 70
     0
  0
APPID
  5
836E
330
81E7
100
AcDbSymbolTableRecord
100
AcDbRegAppTableRecord
  2
ACAD_MLEADERVER
 70
     0
  0
ENDTAB
  0
TABLE
  2
DIMSTYLE
  5
81E8
330
0
100
AcDbSymbolTable
 70
     4
100
AcDbDimStyleTable
 71
     1
340
8258
  0
DIMSTYLE
105
8235
102
{ACAD_REACTORS
330
7C9E
330
7C9F
330
7CE1
330
7CEC
330
7CED
330
7CEE
330
7CF0
330
7CF1
330
7D1D
330
7D1F
330
7D20
330
7D23
330
80F0
330
80FD
330
810A
330
8117
330
8126
330
8133
102
}
330
81E8
100
AcDbSymbolTableRecord
100
AcDbDimStyleTableRecord
  2
Standard
 70
     0
340
8233
  0
DIMSTYLE
105
8236
330
81E8
100
AcDbSymbolTableRecord
100
AcDbDimStyleTableRecord
  2
Annotative
 70
     0
340
8233
1001
AcadAnnotative
1000
AnnotativeData
1002
{
1070
     1
1070
     1
1002
}
  0
DIMSTYLE
105
8258
102
{ACAD_REACTORS
330
829A
330
82A7
330
82E8
330
82F5
330
830B
102
}
330
81E8
100
AcDbSymbolTableRecord
100
AcDbDimStyleTableRecord
  2
IGA
 70
     0
 40
2.0
 41
2.0
 42
0.5
 43
10.0
 44
1.0
 47
1.0
 48
1.0
 73
     0
 74
     0
 77
     1
 78
     8
140
3.0
141
0.0
143
0.03937
146
10.0
147
1.0
173
     1
271
     3
272
     3
279
     2
284
     8
285
     8
286
     8
340
8233
  0
DIMSTYLE
105
8259
330
81E8
100
AcDbSymbolTableRecord
100
AcDbDimStyleTableRecord
  2
MATSU
 70
     0
 41
2.0
 42
1.0
 43
10.0
 44
1.0
 73
     0
 74
     0
 77
     1
 78
     8
140
3.0
141
0.0
143
0.03937
147
0.5
172
     1
173
     1
176
   256
177
   256
178
   256
271
     3
272
     3
279
     2
284
     8
285
     8
286
     8
340
8233
  0
ENDTAB
  0
TABLE
  2
BLOCK_RECORD
  5
81DF
330
0
100
AcDbSymbolTable
 70
    36
  0
BLOCK_RECORD
  5
824D
330
81DF
100
AcDbSymbolTableRecord
100
AcDbBlockTableRecord
  2
*Model_Space
340
8250
  0
BLOCK_RECORD
  5
8249
330
81DF
100
AcDbSymbolTableRecord
100
AcDbBlockTableRecord
  2
*Paper_Space
340
824C
  0
BLOCK_RECORD
  5
825D
330
81DF
100
AcDbSymbolTableRecord
100
AcDbBlockTableRecord
  2
$MODEL_SPACE
340
0
  0
BLOCK_RECORD
  5
825F
330
81DF
100
AcDbSymbolTableRecord
100
AcDbBlockTableRecord
  2
$PAPER_SPACE
340
0
  0
BLOCK_RECORD
  5
8261
330
81DF
100
AcDbSymbolTableRecord
100
AcDbBlockTableRecord
  2
_OPEN
340
0
102
{BLKREFS
331
7E5D
331
7E5E
331
7E68
331
7E69
331
7EB5
331
7EB6
331
80C6
331
80C7
331
80D1
331
80D2
331
7ED6
331
7ED7
331
7EE1
331
7EE2
331
7EEC
331
7EED
331
7EF7
331
7EF8
331
7F02
331
7F03
331
7F0D
331
7F0E
331
7F18
331
7F19
331
81BA
331
81BB
331
7F2D
331
7F2E
331
7F38
331
7F39
331
81C3
331
81C4
331
81CF
331
80E9
331
80EA
331
80F6
331
80F7
331
8103
331
8104
331
8110
331
8111
331
812C
331
812D
331
82EF
331
82F0
331
8305
331
8306
331
831B
331
831C
331
82C9
331
82CA
331
82D2
331
82D3
102
}
  0
BLOCK_RECORD
  5
8263
330
81DF
100
AcDbSymbolTableRecord
100
AcDbBlockTableRecord
  2
YA_N
340
0
102
{BLKREFS
331
7C3B
331
7C59
331
7C5B
331
7CC8
102
}
  0
BLOCK_RECORD
  5
8265
330
81DF
100
AcDbSymbolTableRecord
100
AcDbBlockTableRecord
  2
*D4
340
0
  0
BLOCK_RECORD
  5
8267
330
81DF
100
AcDbSymbolTableRecord
100
AcDbBlockTableRecord
  2
*D5
340
0
  0
BLOCK_RECORD
  5
8269
330
81DF
100
AcDbSymbolTableRecord
100
AcDbBlockTableRecord
  2
*D6
340
0
  0
BLOCK_RECORD
  5
826B
330
81DF
100
AcDbSymbolTableRecord
100
AcDbBlockTableRecord
  2
*D7
340
0
  0
BLOCK_RECORD
  5
826D
330
81DF
100
AcDbSymbolTableRecord
100
AcDbBlockTableRecord
  2
*U8
340
0
102
{BLKREFS
331
80C8
102
}
  0
BLOCK_RECORD
  5
826E
330
81DF
100
AcDbSymbolTableRecord
100
AcDbBlockTableRecord
  2
*D9
340
0
  0
BLOCK_RECORD
  5
8270
330
81DF
100
AcDbSymbolTableRecord
100
AcDbBlockTableRecord
  2
*D10
340
0
  0
BLOCK_RECORD
  5
8272
330
81DF
100
AcDbSymbolTableRecord
100
AcDbBlockTableRecord
  2
*D11
340
0
  0
BLOCK_RECORD
  5
8274
330
81DF
100
AcDbSymbolTableRecord
100
AcDbBlockTableRecord
  2
*D12
340
0
  0
BLOCK_RECORD
  5
8276
330
81DF
100
AcDbSymbolTableRecord
100
AcDbBlockTableRecord
  2
*D13
340
0
  0
BLOCK_RECORD
  5
8278
330
81DF
100
AcDbSymbolTableRecord
100
AcDbBlockTableRecord
  2
*D14
340
0
  0
BLOCK_RECORD
  5
827A
330
81DF
100
AcDbSymbolTableRecord
100
AcDbBlockTableRecord
  2
*D15
340
0
  0
BLOCK_RECORD
  5
827C
330
81DF
100
AcDbSymbolTableRecord
100
AcDbBlockTableRecord
  2
*D16
340
0
  0
BLOCK_RECORD
  5
827E
330
81DF
100
AcDbSymbolTableRecord
100
AcDbBlockTableRecord
  2
*D17
340
0
  0
BLOCK_RECORD
  5
8280
330
81DF
100
AcDbSymbolTableRecord
100
AcDbBlockTableRecord
  2
*D18
340
0
  0
BLOCK_RECORD
  5
8282
330
81DF
100
AcDbSymbolTableRecord
100
AcDbBlockTableRecord
  2
*D19
340
0
  0
BLOCK_RECORD
  5
8284
330
81DF
100
AcDbSymbolTableRecord
100
AcDbBlockTableRecord
  2
*D20
340
0
  0
BLOCK_RECORD
  5
8286
330
81DF
100
AcDbSymbolTableRecord
100
AcDbBlockTableRecord
  2
*D21
340
0
  0
BLOCK_RECORD
  5
8288
330
81DF
100
AcDbSymbolTableRecord
100
AcDbBlockTableRecord
  2
_DOT
340
0
102
{BLKREFS
331
81CE
102
}
  0
BLOCK_RECORD
  5
828A
330
81DF
100
AcDbSymbolTableRecord
100
AcDbBlockTableRecord
  2
*D23
340
0
  0
BLOCK_RECORD
  5
828C
330
81DF
100
AcDbSymbolTableRecord
100
AcDbBlockTableRecord
  2
*D24
340
0
  0
BLOCK_RECORD
  5
828E
330
81DF
100
AcDbSymbolTableRecord
100
AcDbBlockTableRecord
  2
*D25
340
0
  0
BLOCK_RECORD
  5
8290
330
81DF
100
AcDbSymbolTableRecord
100
AcDbBlockTableRecord
  2
*D26
340
0
  0
BLOCK_RECORD
  5
8292
330
81DF
100
AcDbSymbolTableRecord
100
AcDbBlockTableRecord
  2
_NONE
340
0
  0
BLOCK_RECORD
  5
8294
330
81DF
100
AcDbSymbolTableRecord
100
AcDbBlockTableRecord
  2
*D28
340
0
  0
BLOCK_RECORD
  5
8296
330
81DF
100
AcDbSymbolTableRecord
100
AcDbBlockTableRecord
  2
*D29
340
0
  0
BLOCK_RECORD
  5
829B
330
81DF
100
AcDbSymbolTableRecord
100
AcDbBlockTableRecord
  2
*D30
340
0
  0
BLOCK_RECORD
  5
82A8
330
81DF
100
AcDbSymbolTableRecord
100
AcDbBlockTableRecord
  2
*D31
340
0
  0
BLOCK_RECORD
  5
82D8
330
81DF
100
AcDbSymbolTableRecord
100
AcDbBlockTableRecord
  2
*D32
340
0
  0
BLOCK_RECORD
  5
82E9
330
81DF
100
AcDbSymbolTableRecord
100
AcDbBlockTableRecord
  2
*D33
340
0
  0
BLOCK_RECORD
  5
82F6
330
81DF
100
AcDbSymbolTableRecord
100
AcDbBlockTableRecord
  2
*D34
340
0
  0
BLOCK_RECORD
  5
830C
330
81DF
100
AcDbSymbolTableRecord
100
AcDbBlockTableRecord
  2
*D35
340
0
  0
ENDTAB
  0
ENDSEC
  0
SECTION
  2
BLOCKS
  0
BLOCK
  5
824E
330
824D
100
AcDbEntity
  8
0
100
AcDbBlockBegin
  2
*Model_Space
 70
     0
 10
0.0
 20
0.0
 30
0.0
  3
*Model_Space
  1

  0
ENDBLK
  5
824F
330
824D
100
AcDbEntity
  8
0
100
AcDbBlockEnd
  0
BLOCK
  5
824A
330
8249
100
AcDbEntity
 67
     1
  8
0
100
AcDbBlockBegin
  2
*Paper_Space
 70
     0
 10
0.0
 20
0.0
 30
0.0
  3
*Paper_Space
  1

  0
ENDBLK
  5
824B
330
8249
100
AcDbEntity
 67
     1
  8
0
100
AcDbBlockEnd
  0
BLOCK
  5
825E
330
825D
100
AcDbEntity
  8
0
100
AcDbBlockBegin
  2
$MODEL_SPACE
 70
     0
 10
0.0
 20
0.0
 30
0.0
  3
$MODEL_SPACE
  1

  0
ENDBLK
  5
1B
330
825D
100
AcDbEntity
  8
0
100
AcDbBlockEnd
  0
BLOCK
  5
8260
330
825F
100
AcDbEntity
  8
0
100
AcDbBlockBegin
  2
$PAPER_SPACE
 70
     0
 10
0.0
 20
0.0
 30
0.0
  3
$PAPER_SPACE
  1

  0
ENDBLK
  5
18
330
825F
100
AcDbEntity
  8
0
100
AcDbBlockEnd
  0
BLOCK
  5
8262
330
8261
100
AcDbEntity
  8
0
100
AcDbBlockBegin
  2
_OPEN
 70
     0
 10
0.0
 20
0.0
 30
0.0
  3
_OPEN
  1

  0
LINE
  5
79FD
330
8261
100
AcDbEntity
  8
0
  6
ByBlock
 62
     0
100
AcDbLine
 10
-1.0
 20
0.1666666666666666
 30
0.0
 11
0.0
 21
0.0
 31
0.0
  0
LINE
  5
79FE
330
8261
100
AcDbEntity
  8
0
  6
ByBlock
 62
     0
100
AcDbLine
 10
0.0
 20
0.0
 30
0.0
 11
-1.0
 21
-0.1666666666666666
 31
0.0
  0
LINE
  5
79FF
330
8261
100
AcDbEntity
  8
0
  6
ByBlock
 62
     0
100
AcDbLine
 10
0.0
 20
0.0
 30
0.0
 11
-1.0
 21
0.0
 31
0.0
  0
ENDBLK
  5
7A01
330
8261
100
AcDbEntity
  8
0
100
AcDbBlockEnd
  0
BLOCK
  5
8264
330
8263
100
AcDbEntity
  8
0
100
AcDbBlockBegin
  2
YA_N
 70
     0
 10
0.0
 20
0.0
 30
0.0
  3
YA_N
  1

  0
ENDBLK
  5
7A0C
330
8263
100
AcDbEntity
  8
0
100
AcDbBlockEnd
  0
BLOCK
  5
8266
330
8265
100
AcDbEntity
  8
0
100
AcDbBlockBegin
  2
*D4
 70
     1
 10
0.0
 20
0.0
 30
0.0
  3
*D4
  1

  0
LINE
  5
7E5A
330
8265
100
AcDbEntity
  8
0
  6
ByBlock
100
AcDbLine
 10
1307.646099619923
 20
-680.8219045855365
 30
0.0
 11
1457.261208063135
 21
-680.8219045855365
 31
0.0
  0
LINE
  5
7E5B
330
8265
100
AcDbEntity
  8
0
  6
ByBlock
100
AcDbLine
 10
1307.646099619923
 20
244.1780954144633
 30
0.0
 11
1457.261208063135
 21
244.1780954144633
 31
0.0
  0
LINE
  5
7E5C
330
8265
100
AcDbEntity
  8
0
  6
ByBlock
100
AcDbLine
 10
1427.261208063135
 20
-620.8219045855367
 30
0.0
 11
1427.261208063135
 21
184.1780954144633
 31
0.0
  0
INSERT
  5
7E5D
330
8265
100
AcDbEntity
  8
0
  6
ByBlock
100
AcDbBlockReference
  2
_OPEN
 10
1427.261208063135
 20
-680.8219045855365
 30
0.0
 41
60.0
 42
60.0
 43
60.0
 50
270.0
  0
INSERT
  5
7E5E
330
8265
100
AcDbEntity
  8
0
  6
ByBlock
100
AcDbBlockReference
  2
_OPEN
 10
1427.261208063135
 20
244.1780954144633
 30
0.0
 41
60.0
 42
60.0
 43
60.0
 50
90.0
  0
TEXT
  5
7E5F
330
8265
100
AcDbEntity
  8
3
100
AcDbText
 10
1412.261208063135
 20
-334.0361902998222
 30
0.0
 40
90.0
  1
925
 50
90.0
100
AcDbText
  0
POINT
  5
7E60
330
8265
100
AcDbEntity
  8
DEFPOINTS
  6
ByBlock
 62
     0
100
AcDbPoint
 10
1277.646099619923
 20
-680.8219045855365
 30
0.0
  0
POINT
  5
7E61
330
8265
100
AcDbEntity
  8
DEFPOINTS
  6
ByBlock
 62
     0
100
AcDbPoint
 10
1277.646099619923
 20
244.1780954144633
 30
0.0
  0
POINT
  5
7E62
330
8265
100
AcDbEntity
  8
DEFPOINTS
  6
ByBlock
 62
     0
100
AcDbPoint
 10
1427.261208063135
 20
244.1780954144633
 30
0.0
  0
ENDBLK
  5
7E63
330
8265
100
AcDbEntity
  8
0
100
AcDbBlockEnd
  0
BLOCK
  5
8268
330
8267
100
AcDbEntity
  8
0
100
AcDbBlockBegin
  2
*D5
 70
     1
 10
0.0
 20
0.0
 30
0.0
  3
*D5
  1

  0
LINE
  5
7E65
330
8267
100
AcDbEntity
  8
0
  6
ByBlock
100
AcDbLine
 10
1307.646099619923
 20
-680.8219045855365
 30
0.0
 11
1607.604508160997
 21
-680.8219045855365
 31
0.0
  0
LINE
  5
7E66
330
8267
100
AcDbEntity
  8
0
  6
ByBlock
100
AcDbLine
 10
1343.90143839847
 20
280.1780954144632
 30
0.0
 11
1607.604508160997
 21
280.1780954144632
 31
0.0
  0
LINE
  5
7E67
330
8267
100
AcDbEntity
  8
0
  6
ByBlock
100
AcDbLine
 10
1577.604508160997
 20
-620.8219045855367
 30
0.0
 11
1577.604508160997
 21
220.1780954144633
 31
0.0
  0
INSERT
  5
7E68
330
8267
100
AcDbEntity
  8
0
  6
ByBlock
100
AcDbBlockReference
  2
_OPEN
 10
1577.604508160997
 20
-680.8219045855365
 30
0.0
 41
60.0
 42
60.0
 43
60.0
 50
270.0
  0
INSERT
  5
7E69
330
8267
100
AcDbEntity
  8
0
  6
ByBlock
100
AcDbBlockReference
  2
_OPEN
 10
1577.604508160997
 20
280.1780954144632
 30
0.0
 41
60.0
 42
60.0
 43
60.0
 50
90.0
  0
TEXT
  5
7E6A
330
8267
100
AcDbEntity
  8
3
100
AcDbText
 10
1562.604508160997
 20
-296.7504760141081
 30
0.0
 40
90.0
  1
961
 50
90.0
100
AcDbText
  0
POINT
  5
7E6B
330
8267
100
AcDbEntity
  8
DEFPOINTS
  6
ByBlock
 62
     0
100
AcDbPoint
 10
1277.646099619923
 20
-680.8219045855365
 30
0.0
  0
POINT
  5
7E6C
330
8267
100
AcDbEntity
  8
DEFPOINTS
  6
ByBlock
 62
     0
100
AcDbPoint
 10
1313.90143839847
 20
280.1780954144632
 30
0.0
  0
POINT
  5
7E6D
330
8267
100
AcDbEntity
  8
DEFPOINTS
  6
ByBlock
 62
     0
100
AcDbPoint
 10
1577.604508160997
 20
280.1780954144632
 30
0.0
  0
ENDBLK
  5
7E6E
330
8267
100
AcDbEntity
  8
0
100
AcDbBlockEnd
  0
BLOCK
  5
826A
330
8269
100
AcDbEntity
  8
0
100
AcDbBlockBegin
  2
*D6
 70
     1
 10
0.0
 20
0.0
 30
0.0
  3
*D6
  1

  0
LINE
  5
7EB2
330
8269
100
AcDbEntity
  8
0
  6
ByBlock
100
AcDbLine
 10
2904.805828611463
 20
922.6366796297712
 30
0.0
 11
2904.805828611463
 21
1146.37004894809
 31
0.0
  0
LINE
  5
7EB3
330
8269
100
AcDbEntity
  8
0
  6
ByBlock
100
AcDbLine
 10
4024.805828611461
 20
925.6800729674994
 30
0.0
 11
4024.805828611461
 21
1146.37004894809
 31
0.0
  0
LINE
  5
7EB4
330
8269
100
AcDbEntity
  8
0
  6
ByBlock
100
AcDbLine
 10
2964.805828611463
 20
1116.37004894809
 30
0.0
 11
3964.805828611462
 21
1116.37004894809
 31
0.0
  0
INSERT
  5
7EB5
330
8269
100
AcDbEntity
  8
0
  6
ByBlock
100
AcDbBlockReference
  2
_OPEN
 10
2904.805828611463
 20
1116.37004894809
 30
0.0
 41
60.0
 42
60.0
 43
60.0
 50
180.0
  0
INSERT
  5
7EB6
330
8269
100
AcDbEntity
  8
0
  6
ByBlock
100
AcDbBlockReference
  2
_OPEN
 10
4024.805828611461
 20
1116.37004894809
 30
0.0
 41
60.0
 42
60.0
 43
60.0
  0
TEXT
  5
7EB7
330
8269
100
AcDbEntity
  8
3
100
AcDbText
 10
3323.377257182892
 20
1131.37004894809
 30
0.0
 40
90.0
  1
1120
100
AcDbText
  0
POINT
  5
7EB8
330
8269
100
AcDbEntity
  8
DEFPOINTS
  6
ByBlock
 62
     0
100
AcDbPoint
 10
2904.805828611463
 20
892.6366796297712
 30
0.0
  0
POINT
  5
7EB9
330
8269
100
AcDbEntity
  8
DEFPOINTS
  6
ByBlock
 62
     0
100
AcDbPoint
 10
4024.805828611461
 20
895.6800729674993
 30
0.0
  0
POINT
  5
7EBA
330
8269
100
AcDbEntity
  8
DEFPOINTS
  6
ByBlock
 62
     0
100
AcDbPoint
 10
4024.805828611461
 20
1116.37004894809
 30
0.0
  0
ENDBLK
  5
7EBB
330
8269
100
AcDbEntity
  8
0
100
AcDbBlockEnd
  0
BLOCK
  5
826C
330
826B
100
AcDbEntity
  8
0
100
AcDbBlockBegin
  2
*D7
 70
     1
 10
0.0
 20
0.0
 30
0.0
  3
*D7
  1

  0
LINE
  5
80C3
330
826B
100
AcDbEntity
  8
0
  6
ByBlock
100
AcDbLine
 10
4057.061241143684
 20
3605.233310273391
 30
0.0
 11
4057.061241143684
 21
4384.456419218762
 31
0.0
  0
LINE
  5
80C4
330
826B
100
AcDbEntity
  8
0
  6
ByBlock
100
AcDbLine
 10
4955.061241143687
 20
4366.808979398128
 30
0.0
 11
4955.061241143687
 21
4384.456419218762
 31
0.0
  0
LINE
  5
80C5
330
826B
100
AcDbEntity
  8
0
  6
ByBlock
100
AcDbLine
 10
4117.061241143685
 20
4354.456419218762
 30
0.0
 11
4895.061241143687
 21
4354.456419218762
 31
0.0
  0
INSERT
  5
80C6
330
826B
100
AcDbEntity
  8
0
  6
ByBlock
100
AcDbBlockReference
  2
_OPEN
 10
4057.061241143684
 20
4354.456419218762
 30
0.0
 41
60.0
 42
60.0
 43
60.0
 50
180.0
  0
INSERT
  5
80C7
330
826B
100
AcDbEntity
  8
0
  6
ByBlock
100
AcDbBlockReference
  2
_OPEN
 10
4955.061241143687
 20
4354.456419218762
 30
0.0
 41
60.0
 42
60.0
 43
60.0
  0
INSERT
  5
80C8
330
826B
100
AcDbEntity
  8
3
100
AcDbBlockReference
  2
*U8
 10
0.0
 20
0.0
 30
0.0
  0
POINT
  5
80C9
330
826B
100
AcDbEntity
  8
DEFPOINTS
  6
ByBlock
 62
     0
100
AcDbPoint
 10
4057.061241143684
 20
3575.233310273389
 30
0.0
  0
POINT
  5
80CA
330
826B
100
AcDbEntity
  8
DEFPOINTS
  6
ByBlock
 62
     0
100
AcDbPoint
 10
4955.061241143687
 20
4336.808979398129
 30
0.0
  0
POINT
  5
80CB
330
826B
100
AcDbEntity
  8
DEFPOINTS
  6
ByBlock
 62
     0
100
AcDbPoint
 10
4955.061241143687
 20
4354.456419218762
 30
0.0
  0
ENDBLK
  5
80CC
330
826B
100
AcDbEntity
  8
0
100
AcDbBlockEnd
  0
BLOCK
  5
8298
330
826D
100
AcDbEntity
  8
0
100
AcDbBlockBegin
  2
*U8
 70
     1
 10
0.0
 20
0.0
 30
0.0
  3
*U8
  1

  0
TEXT
  5
81D8
330
826D
100
AcDbEntity
  8
3
100
AcDbText
 10
4377.489812572258
 20
4519.456419218761
 30
0.0
 40
90.0
  1
MAX
100
AcDbText
  0
TEXT
  5
81D9
330
826D
100
AcDbEntity
  8
3
100
AcDbText
 10
4390.346955429399
 20
4369.456419218762
 30
0.0
 40
90.0
  1
920
100
AcDbText
  0
ENDBLK
  5
81DB
330
826D
100
AcDbEntity
  8
0
100
AcDbBlockEnd
  0
BLOCK
  5
826F
330
826E
100
AcDbEntity
  8
0
100
AcDbBlockBegin
  2
*D9
 70
     1
 10
0.0
 20
0.0
 30
0.0
  3
*D9
  1

  0
LINE
  5
80CE
330
826E
100
AcDbEntity
  8
0
  6
ByBlock
100
AcDbLine
 10
4955.061241143687
 20
4274.902313297989
 30
0.0
 11
4955.061241143687
 21
4384.456419218762
 31
0.0
  0
LINE
  5
80CF
330
826E
100
AcDbEntity
  8
0
  6
ByBlock
100
AcDbLine
 10
5624.561241143687
 20
3285.73331027339
 30
0.0
 11
5624.561241143687
 21
4384.456419218762
 31
0.0
  0
LINE
  5
80D0
330
826E
100
AcDbEntity
  8
0
  6
ByBlock
100
AcDbLine
 10
5015.061241143687
 20
4354.456419218762
 30
0.0
 11
5564.561241143685
 21
4354.456419218762
 31
0.0
  0
INSERT
  5
80D1
330
826E
100
AcDbEntity
  8
0
  6
ByBlock
100
AcDbBlockReference
  2
_OPEN
 10
4955.061241143687
 20
4354.456419218762
 30
0.0
 41
60.0
 42
60.0
 43
60.0
 50
180.0
  0
INSERT
  5
80D2
330
826E
100
AcDbEntity
  8
0
  6
ByBlock
100
AcDbBlockReference
  2
_OPEN
 10
5624.561241143687
 20
4354.456419218762
 30
0.0
 41
60.0
 42
60.0
 43
60.0
  0
TEXT
  5
80D3
330
826E
100
AcDbEntity
  8
3
100
AcDbText
 10
5116.239812572258
 20
4408.027847790191
 30
0.0
 40
90.0
  1
(680)
100
AcDbText
  0
POINT
  5
80D4
330
826E
100
AcDbEntity
  8
DEFPOINTS
  6
ByBlock
 62
     0
100
AcDbPoint
 10
4955.061241143687
 20
4244.902313297989
 30
0.0
  0
POINT
  5
80D5
330
826E
100
AcDbEntity
  8
DEFPOINTS
  6
ByBlock
 62
     0
100
AcDbPoint
 10
5624.561241143687
 20
3255.73331027339
 30
0.0
  0
POINT
  5
80D6
330
826E
100
AcDbEntity
  8
DEFPOINTS
  6
ByBlock
 62
     0
100
AcDbPoint
 10
5624.561241143687
 20
4354.456419218762
 30
0.0
  0
ENDBLK
  5
80D7
330
826E
100
AcDbEntity
  8
0
100
AcDbBlockEnd
  0
BLOCK
  5
8271
330
8270
100
AcDbEntity
  8
0
100
AcDbBlockBegin
  2
*D10
 70
     1
 10
0.0
 20
0.0
 30
0.0
  3
*D10
  1

  0
LINE
  5
7ED3
330
8270
100
AcDbEntity
  8
0
  6
ByBlock
100
AcDbLine
 10
-652.3539003800747
 20
3444.814411033823
 30
0.0
 11
-652.3539003800747
 21
4321.829069539044
 31
0.0
  0
LINE
  5
7ED4
330
8270
100
AcDbEntity
  8
0
  6
ByBlock
100
AcDbLine
 10
97.64609961992526
 20
4019.814411033823
 30
0.0
 11
97.64609961992526
 21
4321.829069539044
 31
0.0
  0
LINE
  5
7ED5
330
8270
100
AcDbEntity
  8
0
  6
ByBlock
100
AcDbLine
 10
-592.3539003800747
 20
4291.829069539044
 30
0.0
 11
37.64609961992526
 21
4291.829069539044
 31
0.0
  0
INSERT
  5
7ED6
330
8270
100
AcDbEntity
  8
0
  6
ByBlock
100
AcDbBlockReference
  2
_OPEN
 10
-652.3539003800747
 20
4291.829069539044
 30
0.0
 41
60.0
 42
60.0
 43
60.0
 50
180.0
  0
INSERT
  5
7ED7
330
8270
100
AcDbEntity
  8
0
  6
ByBlock
100
AcDbBlockReference
  2
_OPEN
 10
97.64609961992526
 20
4291.829069539044
 30
0.0
 41
60.0
 42
60.0
 43
60.0
  0
TEXT
  5
7ED8
330
8270
100
AcDbEntity
  8
3
100
AcDbText
 10
-393.0681860943603
 20
4306.829069539044
 30
0.0
 40
90.0
  1
750
100
AcDbText
  0
POINT
  5
7ED9
330
8270
100
AcDbEntity
  8
DEFPOINTS
  6
ByBlock
 62
     0
100
AcDbPoint
 10
-652.3539003800747
 20
3414.814411033823
 30
0.0
  0
POINT
  5
7EDA
330
8270
100
AcDbEntity
  8
DEFPOINTS
  6
ByBlock
 62
     0
100
AcDbPoint
 10
97.64609961992526
 20
3989.814411033823
 30
0.0
  0
POINT
  5
7EDB
330
8270
100
AcDbEntity
  8
DEFPOINTS
  6
ByBlock
 62
     0
100
AcDbPoint
 10
97.64609961992526
 20
4291.829069539044
 30
0.0
  0
ENDBLK
  5
7EDC
330
8270
100
AcDbEntity
  8
0
100
AcDbBlockEnd
  0
BLOCK
  5
8273
330
8272
100
AcDbEntity
  8
0
100
AcDbBlockBegin
  2
*D11
 70
     1
 10
0.0
 20
0.0
 30
0.0
  3
*D11
  1

  0
LINE
  5
7EDE
330
8272
100
AcDbEntity
  8
0
  6
ByBlock
100
AcDbLine
 10
97.64609961992526
 20
4019.814411033823
 30
0.0
 11
97.64609961992526
 21
4321.829069539044
 31
0.0
  0
LINE
  5
7EDF
330
8272
100
AcDbEntity
  8
0
  6
ByBlock
100
AcDbLine
 10
1217.646099619925
 20
4019.814411033823
 30
0.0
 11
1217.646099619925
 21
4321.829069539044
 31
0.0
  0
LINE
  5
7EE0
330
8272
100
AcDbEntity
  8
0
  6
ByBlock
100
AcDbLine
 10
157.6460996199252
 20
4291.829069539044
 30
0.0
 11
1157.646099619925
 21
4291.829069539044
 31
0.0
  0
INSERT
  5
7EE1
330
8272
100
AcDbEntity
  8
0
  6
ByBlock
100
AcDbBlockReference
  2
_OPEN
 10
97.64609961992526
 20
4291.829069539044
 30
0.0
 41
60.0
 42
60.0
 43
60.0
 50
180.0
  0
INSERT
  5
7EE2
330
8272
100
AcDbEntity
  8
0
  6
ByBlock
100
AcDbBlockReference
  2
_OPEN
 10
1217.646099619925
 20
4291.829069539044
 30
0.0
 41
60.0
 42
60.0
 43
60.0
  0
TEXT
  5
7EE3
330
8272
100
AcDbEntity
  8
3
100
AcDbText
 10
516.2175281913537
 20
4306.829069539044
 30
0.0
 40
90.0
  1
1120
100
AcDbText
  0
POINT
  5
7EE4
330
8272
100
AcDbEntity
  8
DEFPOINTS
  6
ByBlock
 62
     0
100
AcDbPoint
 10
97.64609961992526
 20
3989.814411033823
 30
0.0
  0
POINT
  5
7EE5
330
8272
100
AcDbEntity
  8
DEFPOINTS
  6
ByBlock
 62
     0
100
AcDbPoint
 10
1217.646099619925
 20
3989.814411033823
 30
0.0
  0
POINT
  5
7EE6
330
8272
100
AcDbEntity
  8
DEFPOINTS
  6
ByBlock
 62
     0
100
AcDbPoint
 10
1217.646099619925
 20
4291.829069539044
 30
0.0
  0
ENDBLK
  5
7EE7
330
8272
100
AcDbEntity
  8
0
100
AcDbBlockEnd
  0
BLOCK
  5
8275
330
8274
100
AcDbEntity
  8
0
100
AcDbBlockBegin
  2
*D12
 70
     1
 10
0.0
 20
0.0
 30
0.0
  3
*D12
  1

  0
LINE
  5
7EE9
330
8274
100
AcDbEntity
  8
0
  6
ByBlock
100
AcDbLine
 10
1247.646099619925
 20
3989.814411033823
 30
0.0
 11
1548.070321786341
 21
3989.814411033823
 31
0.0
  0
LINE
  5
7EEA
330
8274
100
AcDbEntity
  8
0
  6
ByBlock
100
AcDbLine
 10
1247.646099619925
 20
2614.814411033822
 30
0.0
 11
1548.070321786341
 21
2614.814411033822
 31
0.0
  0
LINE
  5
7EEB
330
8274
100
AcDbEntity
  8
0
  6
ByBlock
100
AcDbLine
 10
1518.070321786341
 20
3929.814411033823
 30
0.0
 11
1518.070321786341
 21
2674.814411033822
 31
0.0
  0
INSERT
  5
7EEC
330
8274
100
AcDbEntity
  8
0
  6
ByBlock
100
AcDbBlockReference
  2
_OPEN
 10
1518.070321786341
 20
3989.814411033823
 30
0.0
 41
60.0
 42
60.0
 43
60.0
 50
90.0
  0
INSERT
  5
7EED
330
8274
100
AcDbEntity
  8
0
  6
ByBlock
100
AcDbBlockReference
  2
_OPEN
 10
1518.070321786341
 20
2614.814411033822
 30
0.0
 41
60.0
 42
60.0
 43
60.0
 50
270.0
  0
TEXT
  5
7EEE
330
8274
100
AcDbEntity
  8
3
100
AcDbText
 10
1503.070321786341
 20
3152.314411033823
 30
0.0
 40
90.0
  1
1375
 50
90.0
100
AcDbText
  0
POINT
  5
7EEF
330
8274
100
AcDbEntity
  8
DEFPOINTS
  6
ByBlock
 62
     0
100
AcDbPoint
 10
1217.646099619925
 20
3989.814411033823
 30
0.0
  0
POINT
  5
7EF0
330
8274
100
AcDbEntity
  8
DEFPOINTS
  6
ByBlock
 62
     0
100
AcDbPoint
 10
1217.646099619925
 20
2614.814411033822
 30
0.0
  0
POINT
  5
7EF1
330
8274
100
AcDbEntity
  8
DEFPOINTS
  6
ByBlock
 62
     0
100
AcDbPoint
 10
1518.070321786341
 20
2614.814411033822
 30
0.0
  0
ENDBLK
  5
7EF2
330
8274
100
AcDbEntity
  8
0
100
AcDbBlockEnd
  0
BLOCK
  5
8277
330
8276
100
AcDbEntity
  8
0
100
AcDbBlockBegin
  2
*D13
 70
     1
 10
0.0
 20
0.0
 30
0.0
  3
*D13
  1

  0
LINE
  5
7EF4
330
8276
100
AcDbEntity
  8
0
  6
ByBlock
100
AcDbLine
 10
-652.3539003800747
 20
2584.814411033822
 30
0.0
 11
-652.3539003800747
 21
2277.667251551749
 31
0.0
  0
LINE
  5
7EF5
330
8276
100
AcDbEntity
  8
0
  6
ByBlock
100
AcDbLine
 10
1217.646099619925
 20
2584.814411033821
 30
0.0
 11
1217.646099619925
 21
2277.667251551749
 31
0.0
  0
LINE
  5
7EF6
330
8276
100
AcDbEntity
  8
0
  6
ByBlock
100
AcDbLine
 10
-592.3539003800747
 20
2307.667251551749
 30
0.0
 11
1157.646099619925
 21
2307.667251551749
 31
0.0
  0
INSERT
  5
7EF7
330
8276
100
AcDbEntity
  8
0
  6
ByBlock
100
AcDbBlockReference
  2
_OPEN
 10
-652.3539003800747
 20
2307.667251551749
 30
0.0
 41
60.0
 42
60.0
 43
60.0
 50
180.0
  0
INSERT
  5
7EF8
330
8276
100
AcDbEntity
  8
0
  6
ByBlock
100
AcDbBlockReference
  2
_OPEN
 10
1217.646099619925
 20
2307.667251551749
 30
0.0
 41
60.0
 42
60.0
 43
60.0
  0
TEXT
  5
7EF9
330
8276
100
AcDbEntity
  8
3
100
AcDbText
 10
132.6460996199253
 20
2322.667251551749
 30
0.0
 40
90.0
  1
1870
100
AcDbText
  0
POINT
  5
7EFA
330
8276
100
AcDbEntity
  8
DEFPOINTS
  6
ByBlock
 62
     0
100
AcDbPoint
 10
-652.3539003800747
 20
2614.814411033822
 30
0.0
  0
POINT
  5
7EFB
330
8276
100
AcDbEntity
  8
DEFPOINTS
  6
ByBlock
 62
     0
100
AcDbPoint
 10
1217.646099619925
 20
2614.814411033822
 30
0.0
  0
POINT
  5
7EFC
330
8276
100
AcDbEntity
  8
DEFPOINTS
  6
ByBlock
 62
     0
100
AcDbPoint
 10
1217.646099619925
 20
2307.667251551749
 30
0.0
  0
ENDBLK
  5
7EFD
330
8276
100
AcDbEntity
  8
0
100
AcDbBlockEnd
  0
BLOCK
  5
8279
330
8278
100
AcDbEntity
  8
0
100
AcDbBlockBegin
  2
*D14
 70
     1
 10
0.0
 20
0.0
 30
0.0
  3
*D14
  1

  0
LINE
  5
7EFF
330
8278
100
AcDbEntity
  8
0
  6
ByBlock
100
AcDbLine
 10
-682.3539003800747
 20
3414.814411033823
 30
0.0
 11
-983.0946067666992
 21
3414.814411033823
 31
0.0
  0
LINE
  5
7F00
330
8278
100
AcDbEntity
  8
0
  6
ByBlock
100
AcDbLine
 10
-682.3539003800747
 20
2614.814411033822
 30
0.0
 11
-983.0946067666992
 21
2614.814411033822
 31
0.0
  0
LINE
  5
7F01
330
8278
100
AcDbEntity
  8
0
  6
ByBlock
100
AcDbLine
 10
-953.0946067666992
 20
3354.814411033823
 30
0.0
 11
-953.0946067666992
 21
2674.814411033822
 31
0.0
  0
INSERT
  5
7F02
330
8278
100
AcDbEntity
  8
0
  6
ByBlock
100
AcDbBlockReference
  2
_OPEN
 10
-953.0946067666992
 20
3414.814411033823
 30
0.0
 41
60.0
 42
60.0
 43
60.0
 50
90.0
  0
INSERT
  5
7F03
330
8278
100
AcDbEntity
  8
0
  6
ByBlock
100
AcDbBlockReference
  2
_OPEN
 10
-953.0946067666992
 20
2614.814411033822
 30
0.0
 41
60.0
 42
60.0
 43
60.0
 50
270.0
  0
TEXT
  5
7F04
330
8278
100
AcDbEntity
  8
3
100
AcDbText
 10
-968.0946067666992
 20
2899.100125319537
 30
0.0
 40
90.0
  1
800
 50
90.0
100
AcDbText
  0
POINT
  5
7F05
330
8278
100
AcDbEntity
  8
DEFPOINTS
  6
ByBlock
 62
     0
100
AcDbPoint
 10
-652.3539003800747
 20
3414.814411033823
 30
0.0
  0
POINT
  5
7F06
330
8278
100
AcDbEntity
  8
DEFPOINTS
  6
ByBlock
 62
     0
100
AcDbPoint
 10
-652.3539003800747
 20
2614.814411033822
 30
0.0
  0
POINT
  5
7F07
330
8278
100
AcDbEntity
  8
DEFPOINTS
  6
ByBlock
 62
     0
100
AcDbPoint
 10
-953.0946067666992
 20
2614.814411033822
 30
0.0
  0
ENDBLK
  5
7F08
330
8278
100
AcDbEntity
  8
0
100
AcDbBlockEnd
  0
BLOCK
  5
827B
330
827A
100
AcDbEntity
  8
0
100
AcDbBlockBegin
  2
*D15
 70
     1
 10
0.0
 20
0.0
 30
0.0
  3
*D15
  1

  0
LINE
  5
7F0A
330
827A
100
AcDbEntity
  8
0
  6
ByBlock
100
AcDbLine
 10
4060.305828611461
 20
-194.8219045855367
 30
0.0
 11
4378.696822439597
 21
-194.8219045855367
 31
0.0
  0
LINE
  5
7F0B
330
827A
100
AcDbEntity
  8
0
  6
ByBlock
100
AcDbLine
 10
4060.305828611461
 20
755.1780954144633
 30
0.0
 11
4378.696822439597
 21
755.1780954144633
 31
0.0
  0
LINE
  5
7F0C
330
827A
100
AcDbEntity
  8
0
  6
ByBlock
100
AcDbLine
 10
4348.696822439597
 20
-134.8219045855366
 30
0.0
 11
4348.696822439597
 21
695.1780954144632
 31
0.0
  0
INSERT
  5
7F0D
330
827A
100
AcDbEntity
  8
0
  6
ByBlock
100
AcDbBlockReference
  2
_OPEN
 10
4348.696822439597
 20
-194.8219045855367
 30
0.0
 41
60.0
 42
60.0
 43
60.0
 50
270.0
  0
INSERT
  5
7F0E
330
827A
100
AcDbEntity
  8
0
  6
ByBlock
100
AcDbBlockReference
  2
_OPEN
 10
4348.696822439597
 20
755.1780954144633
 30
0.0
 41
60.0
 42
60.0
 43
60.0
 50
90.0
  0
TEXT
  5
7F0F
330
827A
100
AcDbEntity
  8
3
100
AcDbText
 10
4333.696822439597
 20
119.4638097001776
 30
0.0
 40
90.0
  1
\U+03C6950
 50
90.0
100
AcDbText
  0
POINT
  5
7F10
330
827A
100
AcDbEntity
  8
DEFPOINTS
  6
ByBlock
 62
     0
100
AcDbPoint
 10
4030.305828611463
 20
-194.8219045855367
 30
0.0
  0
POINT
  5
7F11
330
827A
100
AcDbEntity
  8
DEFPOINTS
  6
ByBlock
 62
     0
100
AcDbPoint
 10
4030.305828611463
 20
755.1780954144633
 30
0.0
  0
POINT
  5
7F12
330
827A
100
AcDbEntity
  8
DEFPOINTS
  6
ByBlock
 62
     0
100
AcDbPoint
 10
4348.696822439597
 20
755.1780954144633
 30
0.0
  0
ENDBLK
  5
7F13
330
827A
100
AcDbEntity
  8
0
100
AcDbBlockEnd
  0
BLOCK
  5
827D
330
827C
100
AcDbEntity
  8
0
100
AcDbBlockBegin
  2
*D16
 70
     1
 10
0.0
 20
0.0
 30
0.0
  3
*D16
  1

  0
LINE
  5
7F15
330
827C
100
AcDbEntity
  8
0
  6
ByBlock
100
AcDbLine
 10
1277.646099619923
 20
316.6780954144633
 30
0.0
 11
1277.646099619923
 21
1219.071631558228
 31
0.0
  0
LINE
  5
7F16
330
827C
100
AcDbEntity
  8
0
  6
ByBlock
100
AcDbLine
 10
657.6460996199237
 20
1000.264970047074
 30
0.0
 11
657.6460996199237
 21
1219.071631558228
 31
0.0
  0
LINE
  5
7F17
330
827C
100
AcDbEntity
  8
0
  6
ByBlock
100
AcDbLine
 10
1217.646099619924
 20
1189.071631558228
 30
0.0
 11
717.6460996199238
 21
1189.071631558228
 31
0.0
  0
INSERT
  5
7F18
330
827C
100
AcDbEntity
  8
0
  6
ByBlock
100
AcDbBlockReference
  2
_OPEN
 10
1277.646099619923
 20
1189.071631558228
 30
0.0
 41
60.0
 42
60.0
 43
60.0
  0
INSERT
  5
7F19
330
827C
100
AcDbEntity
  8
0
  6
ByBlock
100
AcDbBlockReference
  2
_OPEN
 10
657.6460996199237
 20
1189.071631558228
 30
0.0
 41
60.0
 42
60.0
 43
60.0
 50
180.0
  0
TEXT
  5
7F1A
330
827C
100
AcDbEntity
  8
3
100
AcDbText
 10
851.931813905638
 20
1204.071631558228
 30
0.0
 40
90.0
  1
620
100
AcDbText
  0
POINT
  5
7F1B
330
827C
100
AcDbEntity
  8
DEFPOINTS
  6
ByBlock
 62
     0
100
AcDbPoint
 10
1277.646099619923
 20
286.6780954144632
 30
0.0
  0
POINT
  5
7F1C
330
827C
100
AcDbEntity
  8
DEFPOINTS
  6
ByBlock
 62
     0
100
AcDbPoint
 10
657.6460996199237
 20
970.2649700470738
 30
0.0
  0
POINT
  5
7F1D
330
827C
100
AcDbEntity
  8
DEFPOINTS
  6
ByBlock
 62
     0
100
AcDbPoint
 10
657.6460996199237
 20
1189.071631558228
 30
0.0
  0
ENDBLK
  5
7F1E
330
827C
100
AcDbEntity
  8
0
100
AcDbBlockEnd
  0
BLOCK
  5
827F
330
827E
100
AcDbEntity
  8
0
100
AcDbBlockBegin
  2
*D17
 70
     1
 10
0.0
 20
0.0
 30
0.0
  3
*D17
  1

  0
LINE
  5
81B8
330
827E
100
AcDbEntity
  8
3
100
AcDbLine
 10
1370.901512152148
 20
3258.233310273389
 30
0.0
 11
1370.901512152148
 21
4234.126846417155
 31
0.0
  0
LINE
  5
81B9
330
827E
100
AcDbEntity
  8
3
100
AcDbLine
 10
2087.901512152148
 20
4204.126846417155
 30
0.0
 11
1430.901512152147
 21
4204.126846417155
 31
0.0
  0
INSERT
  5
81BA
330
827E
100
AcDbEntity
  8
3
100
AcDbBlockReference
  2
_OPEN
 10
2147.901512152148
 20
4204.126846417155
 30
0.0
 41
60.0
 42
60.0
 43
60.0
  0
INSERT
  5
81BB
330
827E
100
AcDbEntity
  8
3
100
AcDbBlockReference
  2
_OPEN
 10
1370.901512152148
 20
4204.126846417155
 30
0.0
 41
60.0
 42
60.0
 43
60.0
 50
180.0
  0
TEXT
  5
81DC
330
827E
100
AcDbEntity
  8
3
100
AcDbText
 10
1579.4
 20
4104.829999999999
 30
0.0
 40
90.0
  1
777
100
AcDbText
  0
POINT
  5
81BD
330
827E
100
AcDbEntity
  8
DEFPOINTS
 62
     0
100
AcDbPoint
 10
2147.901512152148
 20
3985.320184906001
 30
0.0
  0
POINT
  5
81BE
330
827E
100
AcDbEntity
  8
DEFPOINTS
 62
     0
100
AcDbPoint
 10
1370.901512152148
 20
3228.23331027339
 30
0.0
  0
POINT
  5
81BF
330
827E
100
AcDbEntity
  8
DEFPOINTS
 62
     0
100
AcDbPoint
 10
1370.901512152148
 20
4204.126846417155
 30
0.0
  0
ENDBLK
  5
7F28
330
827E
100
AcDbEntity
  8
0
100
AcDbBlockEnd
  0
BLOCK
  5
8281
330
8280
100
AcDbEntity
  8
0
100
AcDbBlockBegin
  2
*D18
 70
     1
 10
0.0
 20
0.0
 30
0.0
  3
*D18
  1

  0
LINE
  5
7F2A
330
8280
100
AcDbEntity
  8
0
  6
ByBlock
100
AcDbLine
 10
1277.646099619923
 20
274.1780954144632
 30
0.0
 11
1277.646099619923
 21
1415.243121188919
 31
0.0
  0
LINE
  5
7F2B
330
8280
100
AcDbEntity
  8
0
  6
ByBlock
100
AcDbLine
 10
-652.3539003800741
 20
-689.8219045855371
 30
0.0
 11
-652.3539003800741
 21
1415.243121188919
 31
0.0
  0
LINE
  5
7F2C
330
8280
100
AcDbEntity
  8
0
  6
ByBlock
100
AcDbLine
 10
1217.646099619924
 20
1385.243121188919
 30
0.0
 11
-592.3539003800741
 21
1385.243121188919
 31
0.0
  0
INSERT
  5
7F2D
330
8280
100
AcDbEntity
  8
0
  6
ByBlock
100
AcDbBlockReference
  2
_OPEN
 10
1277.646099619923
 20
1385.243121188919
 30
0.0
 41
60.0
 42
60.0
 43
60.0
  0
INSERT
  5
7F2E
330
8280
100
AcDbEntity
  8
0
  6
ByBlock
100
AcDbBlockReference
  2
_OPEN
 10
-652.3539003800741
 20
1385.243121188919
 30
0.0
 41
60.0
 42
60.0
 43
60.0
 50
180.0
  0
TEXT
  5
7F2F
330
8280
100
AcDbEntity
  8
3
100
AcDbText
 10
162.6460996199248
 20
1400.243121188919
 30
0.0
 40
90.0
  1
1930
100
AcDbText
  0
POINT
  5
7F30
330
8280
100
AcDbEntity
  8
DEFPOINTS
  6
ByBlock
 62
     0
100
AcDbPoint
 10
1277.646099619923
 20
244.1780954144633
 30
0.0
  0
POINT
  5
7F31
330
8280
100
AcDbEntity
  8
DEFPOINTS
  6
ByBlock
 62
     0
100
AcDbPoint
 10
-652.3539003800741
 20
-719.8219045855371
 30
0.0
  0
POINT
  5
7F32
330
8280
100
AcDbEntity
  8
DEFPOINTS
  6
ByBlock
 62
     0
100
AcDbPoint
 10
-652.3539003800741
 20
1385.243121188919
 30
0.0
  0
ENDBLK
  5
7F33
330
8280
100
AcDbEntity
  8
0
100
AcDbBlockEnd
  0
BLOCK
  5
8283
330
8282
100
AcDbEntity
  8
0
100
AcDbBlockBegin
  2
*D19
 70
     1
 10
0.0
 20
0.0
 30
0.0
  3
*D19
  1

  0
LINE
  5
7F35
330
8282
100
AcDbEntity
  8
0
  6
ByBlock
100
AcDbLine
 10
620.6460996199238
 20
923.1780954144634
 30
0.0
 11
1799.330077344984
 21
923.1780954144634
 31
0.0
  0
LINE
  5
7F36
330
8282
100
AcDbEntity
  8
0
  6
ByBlock
100
AcDbLine
 10
1373.90143839847
 20
280.1780954144632
 30
0.0
 11
1799.330077344984
 21
280.1780954144632
 31
0.0
  0
LINE
  5
7F37
330
8282
100
AcDbEntity
  8
0
  6
ByBlock
100
AcDbLine
 10
1769.330077344984
 20
863.1780954144632
 30
0.0
 11
1769.330077344984
 21
340.1780954144633
 31
0.0
  0
INSERT
  5
7F38
330
8282
100
AcDbEntity
  8
0
  6
ByBlock
100
AcDbBlockReference
  2
_OPEN
 10
1769.330077344984
 20
923.1780954144634
 30
0.0
 41
60.0
 42
60.0
 43
60.0
 50
90.0
  0
INSERT
  5
7F39
330
8282
100
AcDbEntity
  8
0
  6
ByBlock
100
AcDbBlockReference
  2
_OPEN
 10
1769.330077344984
 20
280.1780954144632
 30
0.0
 41
60.0
 42
60.0
 43
60.0
 50
270.0
  0
TEXT
  5
7F3A
330
8282
100
AcDbEntity
  8
3
100
AcDbText
 10
1754.330077344984
 20
485.9638097001775
 30
0.0
 40
90.0
  1
643
 50
90.0
100
AcDbText
  0
POINT
  5
7F3B
330
8282
100
AcDbEntity
  8
DEFPOINTS
  6
ByBlock
 62
     0
100
AcDbPoint
 10
590.6460996199237
 20
923.1780954144634
 30
0.0
  0
POINT
  5
7F3C
330
8282
100
AcDbEntity
  8
DEFPOINTS
  6
ByBlock
 62
     0
100
AcDbPoint
 10
1343.90143839847
 20
280.1780954144632
 30
0.0
  0
POINT
  5
7F3D
330
8282
100
AcDbEntity
  8
DEFPOINTS
  6
ByBlock
 62
     0
100
AcDbPoint
 10
1769.330077344984
 20
280.1780954144632
 30
0.0
  0
ENDBLK
  5
7F3E
330
8282
100
AcDbEntity
  8
0
100
AcDbBlockEnd
  0
BLOCK
  5
8285
330
8284
100
AcDbEntity
  8
0
100
AcDbBlockBegin
  2
*D20
 70
     1
 10
0.0
 20
0.0
 30
0.0
  3
*D20
  1

  0
LINE
  5
81C0
330
8284
100
AcDbEntity
  8
3
 62
     0
100
AcDbLine
 10
2849.156850930694
 20
3295.233310273391
 30
0.0
 11
3289.58548987721
 21
3295.23331027339
 31
0.0
  0
LINE
  5
81C1
330
8284
100
AcDbEntity
  8
3
 62
     0
100
AcDbLine
 10
2722.901512152148
 20
2195.23331027339
 30
0.0
 11
3289.585489877208
 21
2195.233310273389
 31
0.0
  0
LINE
  5
81C2
330
8284
100
AcDbEntity
  8
3
 62
     0
100
AcDbLine
 10
3259.585489877208
 20
3235.23331027339
 30
0.0
 11
3259.585489877208
 21
2255.233310273389
 31
0.0
  0
INSERT
  5
81C3
330
8284
100
AcDbEntity
  8
3
 62
     0
100
AcDbBlockReference
  2
_OPEN
 10
3259.585489877208
 20
3295.23331027339
 30
0.0
 41
60.0
 42
60.0
 43
60.0
 50
90.0
  0
INSERT
  5
81C4
330
8284
100
AcDbEntity
  8
3
 62
     0
100
AcDbBlockReference
  2
_OPEN
 10
3259.585489877208
 20
2195.233310273389
 30
0.0
 41
60.0
 42
60.0
 43
60.0
 50
270.0
  0
TEXT
  5
81DD
330
8284
100
AcDbEntity
  8
3
 62
     0
100
AcDbText
 10
3004.59
 20
2585.93
 30
0.0
 40
90.0
  1
1100
100
AcDbText
  0
POINT
  5
81C6
330
8284
100
AcDbEntity
  8
DEFPOINTS
 62
     0
100
AcDbPoint
 10
2834.156850930694
 20
3295.233310273391
 30
0.0
  0
POINT
  5
81C7
330
8284
100
AcDbEntity
  8
DEFPOINTS
 62
     0
100
AcDbPoint
 10
2707.901512152147
 20
2195.23331027339
 30
0.0
  0
POINT
  5
81C8
330
8284
100
AcDbEntity
  8
DEFPOINTS
 62
     0
100
AcDbPoint
 10
3259.585489877208
 20
2195.233310273389
 30
0.0
  0
ENDBLK
  5
7FAC
330
8284
100
AcDbEntity
  8
0
100
AcDbBlockEnd
  0
BLOCK
  5
8287
330
8286
100
AcDbEntity
  8
0
100
AcDbBlockBegin
  2
*D21
 70
     1
 10
0.0
 20
0.0
 30
0.0
  3
*D21
  1

  0
LINE
  5
81C9
330
8286
100
AcDbEntity
  8
3
 62
     0
100
AcDbLine
 10
2722.901512152151
 20
2168.23331027339
 30
0.0
 11
3289.585489877208
 21
2168.233310273389
 31
0.0
  0
LINE
  5
81CA
330
8286
100
AcDbEntity
  8
3
 62
     0
100
AcDbLine
 10
2722.901512152151
 20
2068.23331027339
 30
0.0
 11
3289.585489877208
 21
2068.233310273389
 31
0.0
  0
LINE
  5
81CB
330
8286
100
AcDbEntity
  8
3
 62
     0
100
AcDbLine
 10
3259.585489877208
 20
2228.233310273389
 30
0.0
 11
3259.585489877208
 21
2288.233310273389
 31
0.0
  0
LINE
  5
81CC
330
8286
100
AcDbEntity
  8
3
 62
     0
100
AcDbLine
 10
3259.585489877208
 20
2008.233310273389
 30
0.0
 11
3259.585489877208
 21
1673.947595987675
 31
0.0
  0
LINE
  5
81CD
330
8286
100
AcDbEntity
  8
3
 62
     0
100
AcDbLine
 10
3259.585489877208
 20
2168.233310273389
 30
0.0
 11
3259.585489877208
 21
2068.233310273389
 31
0.0
  0
INSERT
  5
81CE
330
8286
100
AcDbEntity
  8
3
 62
     0
100
AcDbBlockReference
  2
_DOT
 10
3259.585489877208
 20
2168.233310273389
 30
0.0
 41
60.0
 42
60.0
 43
60.0
 50
270.0
  0
INSERT
  5
81CF
330
8286
100
AcDbEntity
  8
3
 62
     0
100
AcDbBlockReference
  2
_OPEN
 10
3259.585489877208
 20
2068.233310273389
 30
0.0
 41
60.0
 42
60.0
 43
60.0
 50
90.0
  0
TEXT
  5
81DE
330
8286
100
AcDbEntity
  8
3
 62
     0
100
AcDbText
 10
3004.59
 20
1651.79
 30
0.0
 40
90.0
  1
100
100
AcDbText
  0
POINT
  5
81D1
330
8286
100
AcDbEntity
  8
DEFPOINTS
 62
     0
100
AcDbPoint
 10
2707.901512152149
 20
2168.23331027339
 30
0.0
  0
POINT
  5
81D2
330
8286
100
AcDbEntity
  8
DEFPOINTS
 62
     0
100
AcDbPoint
 10
2707.901512152149
 20
2068.23331027339
 30
0.0
  0
POINT
  5
81D3
330
8286
100
AcDbEntity
  8
DEFPOINTS
 62
     0
100
AcDbPoint
 10
3259.585489877208
 20
2068.233310273389
 30
0.0
  0
ENDBLK
  5
8058
330
8286
100
AcDbEntity
  8
0
100
AcDbBlockEnd
  0
BLOCK
  5
8289
330
8288
100
AcDbEntity
  8
0
100
AcDbBlockBegin
  2
_DOT
 70
     0
 10
0.0
 20
0.0
 30
0.0
  3
_DOT
  1

  0
LWPOLYLINE
  5
8068
330
8288
100
AcDbEntity
  8
0
  6
ByBlock
 62
     0
100
AcDbPolyline
 90
        2
 70
     1
 43
0.25
 10
-0.125
 20
0.0
 42
1.0
 10
0.125
 20
0.0
 42
1.0
  0
LINE
  5
806C
330
8288
100
AcDbEntity
  8
0
  6
ByBlock
 62
     0
100
AcDbLine
 10
-0.25
 20
0.0
 30
0.0
 11
-1.0
 21
0.0
 31
0.0
  0
ENDBLK
  5
804B
330
8288
100
AcDbEntity
  8
0
100
AcDbBlockEnd
  0
BLOCK
  5
828B
330
828A
100
AcDbEntity
  8
0
100
AcDbBlockBegin
  2
*D23
 70
     1
 10
0.0
 20
0.0
 30
0.0
  3
*D23
  1

  0
LINE
  5
80E6
330
828A
100
AcDbEntity
  8
0
  6
ByBlock
 62
     0
100
AcDbLine
 10
837.9015121521478
 20
2038.23331027339
 30
0.0
 11
837.9015121521478
 21
1845.490397878904
 31
0.0
  0
LINE
  5
80E7
330
828A
100
AcDbEntity
  8
0
  6
ByBlock
 62
     0
100
AcDbLine
 10
2147.901512152148
 20
2038.23331027339
 30
0.0
 11
2147.901512152148
 21
1845.490397878904
 31
0.0
  0
LINE
  5
80E8
330
828A
100
AcDbEntity
  8
0
  6
ByBlock
 62
     0
100
AcDbLine
 10
897.9015121521477
 20
1875.490397878904
 30
0.0
 11
2087.901512152148
 21
1875.490397878904
 31
0.0
  0
INSERT
  5
80E9
330
828A
100
AcDbEntity
  8
0
  6
ByBlock
 62
     0
100
AcDbBlockReference
  2
_OPEN
 10
837.9015121521478
 20
1875.490397878904
 30
0.0
 41
60.0
 42
60.0
 43
60.0
 50
180.0
  0
INSERT
  5
80EA
330
828A
100
AcDbEntity
  8
0
  6
ByBlock
 62
     0
100
AcDbBlockReference
  2
_OPEN
 10
2147.901512152148
 20
1875.490397878904
 30
0.0
 41
60.0
 42
60.0
 43
60.0
  0
TEXT
  5
80EB
330
828A
100
AcDbEntity
  8
3
 62
     0
100
AcDbText
 10
1351.472940723576
 20
1905.490397878904
 30
0.0
 40
90.0
  1
1310
100
AcDbText
  0
POINT
  5
80EC
330
828A
100
AcDbEntity
  8
DEFPOINTS
  6
ByBlock
 62
     0
100
AcDbPoint
 10
837.9015121521478
 20
2068.23331027339
 30
0.0
  0
POINT
  5
80ED
330
828A
100
AcDbEntity
  8
DEFPOINTS
  6
ByBlock
 62
     0
100
AcDbPoint
 10
2147.901512152148
 20
2068.23331027339
 30
0.0
  0
POINT
  5
80EE
330
828A
100
AcDbEntity
  8
DEFPOINTS
  6
ByBlock
 62
     0
100
AcDbPoint
 10
2147.901512152148
 20
1875.490397878904
 30
0.0
  0
ENDBLK
  5
80EF
330
828A
100
AcDbEntity
  8
0
100
AcDbBlockEnd
  0
BLOCK
  5
828D
330
828C
100
AcDbEntity
  8
0
100
AcDbBlockBegin
  2
*D24
 70
     1
 10
0.0
 20
0.0
 30
0.0
  3
*D24
  1

  0
LINE
  5
80F3
330
828C
100
AcDbEntity
  8
0
  6
ByBlock
 62
     0
100
AcDbLine
 10
2147.901512152148
 20
2038.23331027339
 30
0.0
 11
2147.901512152148
 21
1845.490397878904
 31
0.0
  0
LINE
  5
80F4
330
828C
100
AcDbEntity
  8
0
  6
ByBlock
 62
     0
100
AcDbLine
 10
2707.901512152149
 20
2038.23331027339
 30
0.0
 11
2707.901512152149
 21
1845.490397878904
 31
0.0
  0
LINE
  5
80F5
330
828C
100
AcDbEntity
  8
0
  6
ByBlock
 62
     0
100
AcDbLine
 10
2207.901512152147
 20
1875.490397878904
 30
0.0
 11
2647.901512152151
 21
1875.490397878904
 31
0.0
  0
INSERT
  5
80F6
330
828C
100
AcDbEntity
  8
0
  6
ByBlock
 62
     0
100
AcDbBlockReference
  2
_OPEN
 10
2147.901512152148
 20
1875.490397878904
 30
0.0
 41
60.0
 42
60.0
 43
60.0
 50
180.0
  0
INSERT
  5
80F7
330
828C
100
AcDbEntity
  8
0
  6
ByBlock
 62
     0
100
AcDbBlockReference
  2
_OPEN
 10
2707.901512152149
 20
1875.490397878904
 30
0.0
 41
60.0
 42
60.0
 43
60.0
  0
TEXT
  5
80F8
330
828C
100
AcDbEntity
  8
3
 62
     0
100
AcDbText
 10
2312.187226437863
 20
1905.490397878904
 30
0.0
 40
90.0
  1
560
100
AcDbText
  0
POINT
  5
80F9
330
828C
100
AcDbEntity
  8
DEFPOINTS
  6
ByBlock
 62
     0
100
AcDbPoint
 10
2147.901512152148
 20
2068.23331027339
 30
0.0
  0
POINT
  5
80FA
330
828C
100
AcDbEntity
  8
DEFPOINTS
  6
ByBlock
 62
     0
100
AcDbPoint
 10
2707.901512152149
 20
2068.23331027339
 30
0.0
  0
POINT
  5
80FB
330
828C
100
AcDbEntity
  8
DEFPOINTS
  6
ByBlock
 62
     0
100
AcDbPoint
 10
2707.901512152149
 20
1875.490397878904
 30
0.0
  0
ENDBLK
  5
80FC
330
828C
100
AcDbEntity
  8
0
100
AcDbBlockEnd
  0
BLOCK
  5
828F
330
828E
100
AcDbEntity
  8
0
100
AcDbBlockBegin
  2
*D25
 70
     1
 10
0.0
 20
0.0
 30
0.0
  3
*D25
  1

  0
LINE
  5
8100
330
828E
100
AcDbEntity
  8
0
  6
ByBlock
 62
     0
100
AcDbLine
 10
4000.890847887129
 20
2038.23331027339
 30
0.0
 11
4000.890847887129
 21
1845.490397878904
 31
0.0
  0
LINE
  5
8101
330
828E
100
AcDbEntity
  8
0
  6
ByBlock
 62
     0
100
AcDbLine
 10
4762.890847887128
 20
2038.233310273389
 30
0.0
 11
4762.890847887128
 21
1845.490397878904
 31
0.0
  0
LINE
  5
8102
330
828E
100
AcDbEntity
  8
0
  6
ByBlock
 62
     0
100
AcDbLine
 10
4060.890847887129
 20
1875.490397878904
 30
0.0
 11
4702.890847887128
 21
1875.490397878904
 31
0.0
  0
INSERT
  5
8103
330
828E
100
AcDbEntity
  8
0
  6
ByBlock
 62
     0
100
AcDbBlockReference
  2
_OPEN
 10
4000.890847887129
 20
1875.490397878904
 30
0.0
 41
60.0
 42
60.0
 43
60.0
 50
180.0
  0
INSERT
  5
8104
330
828E
100
AcDbEntity
  8
0
  6
ByBlock
 62
     0
100
AcDbBlockReference
  2
_OPEN
 10
4762.890847887128
 20
1875.490397878904
 30
0.0
 41
60.0
 42
60.0
 43
60.0
  0
TEXT
  5
8105
330
828E
100
AcDbEntity
  8
3
 62
     0
100
AcDbText
 10
4266.176562172844
 20
1905.490397878904
 30
0.0
 40
90.0
  1
762
100
AcDbText
  0
POINT
  5
8106
330
828E
100
AcDbEntity
  8
DEFPOINTS
  6
ByBlock
 62
     0
100
AcDbPoint
 10
4000.890847887129
 20
2068.23331027339
 30
0.0
  0
POINT
  5
8107
330
828E
100
AcDbEntity
  8
DEFPOINTS
  6
ByBlock
 62
     0
100
AcDbPoint
 10
4762.890847887128
 20
2068.233310273389
 30
0.0
  0
POINT
  5
8108
330
828E
100
AcDbEntity
  8
DEFPOINTS
  6
ByBlock
 62
     0
100
AcDbPoint
 10
4762.890847887128
 20
1875.490397878904
 30
0.0
  0
ENDBLK
  5
8109
330
828E
100
AcDbEntity
  8
0
100
AcDbBlockEnd
  0
BLOCK
  5
8291
330
8290
100
AcDbEntity
  8
0
100
AcDbBlockBegin
  2
*D26
 70
     1
 10
0.0
 20
0.0
 30
0.0
  3
*D26
  1

  0
LINE
  5
810D
330
8290
100
AcDbEntity
  8
0
  6
ByBlock
 62
     0
100
AcDbLine
 10
4762.890847887128
 20
2038.233310273389
 30
0.0
 11
4762.890847887128
 21
1845.490397878904
 31
0.0
  0
LINE
  5
810E
330
8290
100
AcDbEntity
  8
0
  6
ByBlock
 62
     0
100
AcDbLine
 10
5375.890847887129
 20
2038.23331027339
 30
0.0
 11
5375.890847887129
 21
1845.490397878904
 31
0.0
  0
LINE
  5
810F
330
8290
100
AcDbEntity
  8
0
  6
ByBlock
 62
     0
100
AcDbLine
 10
4822.890847887128
 20
1875.490397878904
 30
0.0
 11
5315.890847887128
 21
1875.490397878904
 31
0.0
  0
INSERT
  5
8110
330
8290
100
AcDbEntity
  8
0
  6
ByBlock
 62
     0
100
AcDbBlockReference
  2
_OPEN
 10
4762.890847887128
 20
1875.490397878904
 30
0.0
 41
60.0
 42
60.0
 43
60.0
 50
180.0
  0
INSERT
  5
8111
330
8290
100
AcDbEntity
  8
0
  6
ByBlock
 62
     0
100
AcDbBlockReference
  2
_OPEN
 10
5375.890847887129
 20
1875.490397878904
 30
0.0
 41
60.0
 42
60.0
 43
60.0
  0
TEXT
  5
8112
330
8290
100
AcDbEntity
  8
3
 62
     0
100
AcDbText
 10
4962.247990744272
 20
1905.490397878904
 30
0.0
 40
90.0
  1
613
100
AcDbText
  0
POINT
  5
8113
330
8290
100
AcDbEntity
  8
DEFPOINTS
  6
ByBlock
 62
     0
100
AcDbPoint
 10
4762.890847887128
 20
2068.233310273389
 30
0.0
  0
POINT
  5
8114
330
8290
100
AcDbEntity
  8
DEFPOINTS
  6
ByBlock
 62
     0
100
AcDbPoint
 10
5375.890847887129
 20
2068.23331027339
 30
0.0
  0
POINT
  5
8115
330
8290
100
AcDbEntity
  8
DEFPOINTS
  6
ByBlock
 62
     0
100
AcDbPoint
 10
5375.890847887129
 20
1875.490397878904
 30
0.0
  0
ENDBLK
  5
8116
330
8290
100
AcDbEntity
  8
0
100
AcDbBlockEnd
  0
BLOCK
  5
8293
330
8292
100
AcDbEntity
  8
0
100
AcDbBlockBegin
  2
_NONE
 70
     0
 10
0.0
 20
0.0
 30
0.0
  3
_NONE
  1

  0
CIRCLE
  5
811A
330
8292
100
AcDbEntity
  8
0
  6
ByBlock
 62
     0
100
AcDbCircle
 10
0.0
 20
0.0
 30
0.0
 40
0.25
  0
ENDBLK
  5
811B
330
8292
100
AcDbEntity
  8
0
100
AcDbBlockEnd
  0
BLOCK
  5
8295
330
8294
100
AcDbEntity
  8
0
100
AcDbBlockBegin
  2
*D28
 70
     1
 10
0.0
 20
0.0
 30
0.0
  3
*D28
  1

  0
LINE
  5
8147
330
8294
100
AcDbEntity
  8
0
  6
ByBlock
 62
     0
100
AcDbLine
 10
3257.155668567127
 20
2168.23331027339
 30
0.0
 11
3257.155668567127
 21
2168.23331027339
 31
0.0
  0
LINE
  5
8148
330
8294
100
AcDbEntity
  8
0
  6
ByBlock
 62
     0
100
AcDbLine
 10
3257.155668567127
 20
2195.23331027339
 30
0.0
 11
3257.155668567127
 21
2315.23331027339
 31
0.0
  0
TEXT
  5
8149
330
8294
100
AcDbEntity
  8
3
 62
     0
100
AcDbText
 10
3430.727097138556
 20
2024.019024559104
 30
0.0
 40
90.0
  1
 (27)
 50
90.0
100
AcDbText
  0
LINE
  5
814A
330
8294
100
AcDbEntity
  8
0
  6
ByBlock
 62
     0
100
AcDbLine
 10
3257.155668567127
 20
2168.23331027339
 30
0.0
 11
3257.155668567127
 21
2195.23331027339
 31
0.0
  0
POINT
  5
814B
330
8294
100
AcDbEntity
  8
DEFPOINTS
  6
ByBlock
 62
     0
100
AcDbPoint
 10
2707.901512152149
 20
2168.23331027339
 30
0.0
  0
POINT
  5
814C
330
8294
100
AcDbEntity
  8
DEFPOINTS
  6
ByBlock
 62
     0
100
AcDbPoint
 10
2707.901512152147
 20
2195.23331027339
 30
0.0
  0
POINT
  5
814D
330
8294
100
AcDbEntity
  8
DEFPOINTS
  6
ByBlock
 62
     0
100
AcDbPoint
 10
3257.155668567127
 20
2195.23331027339
 30
0.0
  0
ENDBLK
  5
814E
330
8294
100
AcDbEntity
  8
0
100
AcDbBlockEnd
  0
BLOCK
  5
8297
330
8296
100
AcDbEntity
  8
0
100
AcDbBlockBegin
  2
*D29
 70
     1
 10
0.0
 20
0.0
 30
0.0
  3
*D29
  1

  0
LINE
  5
8129
330
8296
100
AcDbEntity
  8
0
  6
ByBlock
 62
     0
100
AcDbLine
 10
2737.901512152149
 20
2068.23331027339
 30
0.0
 11
3529.651041399429
 21
2068.23331027339
 31
0.0
  0
LINE
  5
812A
330
8296
100
AcDbEntity
  8
0
  6
ByBlock
 62
     0
100
AcDbLine
 10
2140.901512152148
 20
3938.233310273391
 30
0.0
 11
3529.651041399429
 21
3938.233310273391
 31
0.0
  0
LINE
  5
812B
330
8296
100
AcDbEntity
  8
0
  6
ByBlock
 62
     0
100
AcDbLine
 10
3499.651041399429
 20
2128.23331027339
 30
0.0
 11
3499.651041399429
 21
3878.233310273391
 31
0.0
  0
INSERT
  5
812C
330
8296
100
AcDbEntity
  8
0
  6
ByBlock
 62
     0
100
AcDbBlockReference
  2
_OPEN
 10
3499.651041399429
 20
2068.23331027339
 30
0.0
 41
60.0
 42
60.0
 43
60.0
 50
270.0
  0
INSERT
  5
812D
330
8296
100
AcDbEntity
  8
0
  6
ByBlock
 62
     0
100
AcDbBlockReference
  2
_OPEN
 10
3499.651041399429
 20
3938.233310273391
 30
0.0
 41
60.0
 42
60.0
 43
60.0
 50
90.0
  0
TEXT
  5
812E
330
8296
100
AcDbEntity
  8
3
 62
     0
100
AcDbText
 10
3431.079612828001
 20
2795.376167416247
 30
0.0
 40
90.0
  1
(1870)
 50
90.0
100
AcDbText
  0
POINT
  5
812F
330
8296
100
AcDbEntity
  8
DEFPOINTS
  6
ByBlock
 62
     0
100
AcDbPoint
 10
2707.901512152149
 20
2068.23331027339
 30
0.0
  0
POINT
  5
8130
330
8296
100
AcDbEntity
  8
DEFPOINTS
  6
ByBlock
 62
     0
100
AcDbPoint
 10
2110.901512152147
 20
3938.233310273391
 30
0.0
  0
POINT
  5
8131
330
8296
100
AcDbEntity
  8
DEFPOINTS
  6
ByBlock
 62
     0
100
AcDbPoint
 10
3499.651041399429
 20
3938.233310273391
 30
0.0
  0
ENDBLK
  5
8132
330
8296
100
AcDbEntity
  8
0
100
AcDbBlockEnd
  0
BLOCK
  5
829C
330
829B
100
AcDbEntity
  8
0
100
AcDbBlockBegin
  2
*D30
 70
     1
 10
0.0
 20
0.0
 30
0.0
  3
*D30
  1

  0
LINE
  5
82C6
330
829B
100
AcDbEntity
  8
3
 62
     0
370
    -2
100
AcDbLine
 10
3812.890847887127
 20
3605.233310273389
 30
0.0
 11
3812.890847887127
 21
4401.557236320695
 31
0.0
  0
LINE
  5
82C7
330
829B
100
AcDbEntity
  8
3
 62
     0
370
    -2
100
AcDbLine
 10
4762.89084788713
 20
4266.425263807017
 30
0.0
 11
4762.89084788713
 21
4401.557236320695
 31
0.0
  0
LINE
  5
82C8
330
829B
100
AcDbEntity
  8
3
 62
     0
370
    -2
100
AcDbLine
 10
3872.890847887127
 20
4371.557236320696
 30
0.0
 11
4702.89084788713
 21
4371.557236320696
 31
0.0
  0
INSERT
  5
82C9
330
829B
100
AcDbEntity
  8
3
 62
     0
370
    -2
100
AcDbBlockReference
  2
_OPEN
 10
3812.890847887127
 20
4371.557236320696
 30
0.0
 41
60.0
 42
60.0
 43
60.0
 50
180.0
  0
INSERT
  5
82CA
330
829B
100
AcDbEntity
  8
3
 62
     0
370
    -2
100
AcDbBlockReference
  2
_OPEN
 10
4762.89084788713
 20
4371.557236320696
 30
0.0
 41
60.0
 42
60.0
 43
60.0
  0
MTEXT
  5
82CB
330
829B
100
AcDbEntity
  8
3
 62
     0
100
AcDbMText
 10
4287.890847887129
 20
4470.128664892124
 30
0.0
 40
90.0
 41
0.0
 71
     5
 72
     1
  1
\A1;(950)
 73
     1
 44
1.0
1001
ACAD
1000
MTEXTBEGIN
1070
    73
1070
     1
1070
    44
1040
1.0
1070
    74
1070
     0
1000
MTEXTEND
  0
POINT
  5
82CC
330
829B
100
AcDbEntity
  8
DEFPOINTS
 62
     0
100
AcDbPoint
 10
3812.890847887127
 20
3575.233310273389
 30
0.0
  0
POINT
  5
82CD
330
829B
100
AcDbEntity
  8
DEFPOINTS
 62
     0
100
AcDbPoint
 10
4762.89084788713
 20
4236.425263807017
 30
0.0
  0
POINT
  5
82CE
330
829B
100
AcDbEntity
  8
DEFPOINTS
 62
     0
100
AcDbPoint
 10
4762.89084788713
 20
4371.557236320696
 30
0.0
  0
ENDBLK
  5
829D
330
829B
100
AcDbEntity
  8
0
100
AcDbBlockEnd
  0
BLOCK
  5
82A9
330
82A8
100
AcDbEntity
  8
0
100
AcDbBlockBegin
  2
*D31
 70
     1
 10
0.0
 20
0.0
 30
0.0
  3
*D31
  1

  0
LINE
  5
82CF
330
82A8
100
AcDbEntity
  8
3
 62
     0
370
    -2
100
AcDbLine
 10
4762.89084788713
 20
4266.425263807017
 30
0.0
 11
4762.89084788713
 21
4401.557236320695
 31
0.0
  0
LINE
  5
82D0
330
82A8
100
AcDbEntity
  8
3
 62
     0
370
    -2
100
AcDbLine
 10
5442.890847887127
 20
3285.73331027339
 30
0.0
 11
5442.890847887127
 21
4401.557236320695
 31
0.0
  0
LINE
  5
82D1
330
82A8
100
AcDbEntity
  8
3
 62
     0
370
    -2
100
AcDbLine
 10
4822.89084788713
 20
4371.557236320696
 30
0.0
 11
5382.890847887129
 21
4371.557236320696
 31
0.0
  0
INSERT
  5
82D2
330
82A8
100
AcDbEntity
  8
3
 62
     0
370
    -2
100
AcDbBlockReference
  2
_OPEN
 10
4762.89084788713
 20
4371.557236320696
 30
0.0
 41
60.0
 42
60.0
 43
60.0
 50
180.0
  0
INSERT
  5
82D3
330
82A8
100
AcDbEntity
  8
3
 62
     0
370
    -2
100
AcDbBlockReference
  2
_OPEN
 10
5442.890847887127
 20
4371.557236320696
 30
0.0
 41
60.0
 42
60.0
 43
60.0
  0
MTEXT
  5
82D4
330
82A8
100
AcDbEntity
  8
3
 62
     0
100
AcDbMText
 10
5102.890847887129
 20
4470.128664892124
 30
0.0
 40
90.0
 41
0.0
 71
     5
 72
     1
  1
\A1;(680)
 73
     1
 44
1.0
1001
ACAD
1000
MTEXTBEGIN
1070
    73
1070
     1
1070
    44
1040
1.0
1070
    74
1070
     0
1000
MTEXTEND
  0
POINT
  5
82D5
330
82A8
100
AcDbEntity
  8
DEFPOINTS
 62
     0
100
AcDbPoint
 10
4762.89084788713
 20
4236.425263807017
 30
0.0
  0
POINT
  5
82D6
330
82A8
100
AcDbEntity
  8
DEFPOINTS
 62
     0
100
AcDbPoint
 10
5442.890847887127
 20
3255.73331027339
 30
0.0
  0
POINT
  5
82D7
330
82A8
100
AcDbEntity
  8
DEFPOINTS
 62
     0
100
AcDbPoint
 10
5442.890847887127
 20
4371.557236320696
 30
0.0
  0
ENDBLK
  5
82AA
330
82A8
100
AcDbEntity
  8
0
100
AcDbBlockEnd
  0
BLOCK
  5
82D9
330
82D8
100
AcDbEntity
  8
0
100
AcDbBlockBegin
  2
*D32
 70
     1
 10
0.0
 20
0.0
 30
0.0
  3
*D32
  1

  0
LINE
  5
82DB
330
82D8
100
AcDbEntity
  8
3
 62
     0
370
    -2
100
AcDbLine
 10
837.9015121521499
 20
5010.552760698954
 30
0.0
 11
837.9015121521499
 21
4609.880601216881
 31
0.0
  0
LINE
  5
82DC
330
82D8
100
AcDbEntity
  8
3
 62
     0
370
    -2
100
AcDbLine
 10
2707.901512152149
 20
5010.552760698954
 30
0.0
 11
2707.901512152149
 21
4609.880601216881
 31
0.0
  0
LINE
  5
82DD
330
82D8
100
AcDbEntity
  8
3
 62
     0
370
    -2
100
AcDbLine
 10
843.3015121521497
 20
4615.28060121688
 30
0.0
 11
1749.630083580721
 21
4615.28060121688
 31
0.0
  0
LINE
  5
82DE
330
82D8
100
AcDbEntity
  8
3
 62
     0
370
    -2
100
AcDbLine
 10
2702.501512152149
 20
4615.28060121688
 30
0.0
 11
1796.172940723578
 21
4615.28060121688
 31
0.0
  0
SOLID
  5
82DF
330
82D8
100
AcDbEntity
  8
3
 62
     0
100
AcDbTrace
 10
843.3015121521497
 20
4616.18060121688
 30
0.0
 11
843.3015121521497
 21
4614.380601216881
 31
0.0
 12
837.9015121521499
 22
4615.28060121688
 32
0.0
 13
837.9015121521499
 23
4615.28060121688
 33
0.0
  0
SOLID
  5
82E0
330
82D8
100
AcDbEntity
  8
3
 62
     0
100
AcDbTrace
 10
2702.501512152149
 20
4616.18060121688
 30
0.0
 11
2702.501512152149
 21
4614.380601216881
 31
0.0
 12
2707.901512152149
 22
4615.28060121688
 32
0.0
 13
2707.901512152149
 23
4615.28060121688
 33
0.0
  0
MTEXT
  5
82E1
330
82D8
100
AcDbEntity
  8
3
 62
     0
100
AcDbMText
 10
1772.90151215215
 20
4615.28060121688
 30
0.0
 40
5.399999999999999
 41
0.0
 71
     5
 72
     1
  1
\A1;1870.0000
 73
     1
 44
1.0
1001
ACAD
1000
MTEXTBEGIN
1070
    73
1070
     1
1070
    44
1040
1.0
1070
    74
1070
     0
1000
MTEXTEND
  0
POINT
  5
82E2
330
82D8
100
AcDbEntity
  8
DEFPOINTS
 62
     0
100
AcDbPoint
 10
837.9015121521499
 20
5012.427760698954
 30
0.0
  0
POINT
  5
82E3
330
82D8
100
AcDbEntity
  8
DEFPOINTS
 62
     0
100
AcDbPoint
 10
2707.901512152149
 20
5012.427760698954
 30
0.0
  0
POINT
  5
82E4
330
82D8
100
AcDbEntity
  8
DEFPOINTS
 62
     0
100
AcDbPoint
 10
2707.901512152149
 20
4615.28060121688
 30
0.0
  0
ENDBLK
  5
82DA
330
82D8
100
AcDbEntity
  8
0
100
AcDbBlockEnd
  0
BLOCK
  5
82EA
330
82E9
100
AcDbEntity
  8
0
100
AcDbBlockBegin
  2
*D33
 70
     1
 10
0.0
 20
0.0
 30
0.0
  3
*D33
  1

  0
LINE
  5
82EC
330
82E9
100
AcDbEntity
  8
3
 62
     0
370
    -2
100
AcDbLine
 10
837.9015121521486
 20
4982.427760698953
 30
0.0
 11
837.9015121521486
 21
4594.183642941788
 31
0.0
  0
LINE
  5
82ED
330
82E9
100
AcDbEntity
  8
3
 62
     0
370
    -2
100
AcDbLine
 10
2707.901512152149
 20
4982.427760698953
 30
0.0
 11
2707.901512152149
 21
4594.183642941788
 31
0.0
  0
LINE
  5
82EE
330
82E9
100
AcDbEntity
  8
3
 62
     0
370
    -2
100
AcDbLine
 10
897.9015121521486
 20
4624.183642941789
 30
0.0
 11
2647.901512152149
 21
4624.183642941789
 31
0.0
  0
INSERT
  5
82EF
330
82E9
100
AcDbEntity
  8
3
 62
     0
370
    -2
100
AcDbBlockReference
  2
_OPEN
 10
837.9015121521486
 20
4624.183642941789
 30
0.0
 41
60.0
 42
60.0
 43
60.0
 50
180.0
  0
INSERT
  5
82F0
330
82E9
100
AcDbEntity
  8
3
 62
     0
370
    -2
100
AcDbBlockReference
  2
_OPEN
 10
2707.901512152149
 20
4624.183642941789
 30
0.0
 41
60.0
 42
60.0
 43
60.0
  0
MTEXT
  5
82F1
330
82E9
100
AcDbEntity
  8
3
 62
     0
100
AcDbMText
 10
1772.901512152149
 20
4699.183642941789
 30
0.0
 40
90.0
 41
0.0
 71
     5
 72
     1
  1
\A1;1870
 73
     1
 44
1.0
1001
ACAD
1000
MTEXTBEGIN
1070
    73
1070
     1
1070
    44
1040
1.0
1070
    74
1070
     0
1000
MTEXTEND
  0
POINT
  5
82F2
330
82E9
100
AcDbEntity
  8
DEFPOINTS
 62
     0
100
AcDbPoint
 10
837.9015121521486
 20
5012.427760698954
 30
0.0
  0
POINT
  5
82F3
330
82E9
100
AcDbEntity
  8
DEFPOINTS
 62
     0
100
AcDbPoint
 10
2707.901512152149
 20
5012.427760698954
 30
0.0
  0
POINT
  5
82F4
330
82E9
100
AcDbEntity
  8
DEFPOINTS
 62
     0
100
AcDbPoint
 10
2707.901512152149
 20
4624.183642941789
 30
0.0
  0
ENDBLK
  5
82EB
330
82E9
100
AcDbEntity
  8
0
100
AcDbBlockEnd
  0
BLOCK
  5
82F7
330
82F6
100
AcDbEntity
  8
0
100
AcDbBlockBegin
  2
*D34
 70
     1
 10
0.0
 20
0.0
 30
0.0
  3
*D34
  1

  0
LINE
  5
8302
330
82F6
100
AcDbEntity
  8
3
 62
     0
370
    -2
100
AcDbLine
 10
2147.901512152148
 20
4015.320184906001
 30
0.0
 11
2147.901512152148
 21
4234.126846417155
 31
0.0
  0
LINE
  5
8303
330
82F6
100
AcDbEntity
  8
3
 62
     0
370
    -2
100
AcDbLine
 10
1370.901512152148
 20
3258.23331027339
 30
0.0
 11
1370.901512152148
 21
4234.126846417155
 31
0.0
  0
LINE
  5
8304
330
82F6
100
AcDbEntity
  8
3
 62
     0
370
    -2
100
AcDbLine
 10
2087.901512152148
 20
4204.126846417155
 30
0.0
 11
1430.901512152148
 21
4204.126846417155
 31
0.0
  0
INSERT
  5
8305
330
82F6
100
AcDbEntity
  8
3
 62
     0
370
    -2
100
AcDbBlockReference
  2
_OPEN
 10
2147.901512152148
 20
4204.126846417155
 30
0.0
 41
60.0
 42
60.0
 43
60.0
  0
INSERT
  5
8306
330
82F6
100
AcDbEntity
  8
3
 62
     0
370
    -2
100
AcDbBlockReference
  2
_OPEN
 10
1370.901512152148
 20
4204.126846417155
 30
0.0
 41
60.0
 42
60.0
 43
60.0
 50
180.0
  0
MTEXT
  5
8307
330
82F6
100
AcDbEntity
  8
3
 62
     0
100
AcDbMText
 10
1759.401512152148
 20
4279.126846417155
 30
0.0
 40
90.0
 41
0.0
 71
     5
 72
     1
  1
\A1;777
 73
     1
 44
1.0
1001
ACAD
1000
MTEXTBEGIN
1070
    73
1070
     1
1070
    44
1040
1.0
1070
    74
1070
     0
1000
MTEXTEND
  0
POINT
  5
8308
330
82F6
100
AcDbEntity
  8
DEFPOINTS
 62
     0
100
AcDbPoint
 10
2147.901512152148
 20
3985.320184906001
 30
0.0
  0
POINT
  5
8309
330
82F6
100
AcDbEntity
  8
DEFPOINTS
 62
     0
100
AcDbPoint
 10
1370.901512152148
 20
3228.23331027339
 30
0.0
  0
POINT
  5
830A
330
82F6
100
AcDbEntity
  8
DEFPOINTS
 62
     0
100
AcDbPoint
 10
1370.901512152148
 20
4204.126846417155
 30
0.0
  0
ENDBLK
  5
82F8
330
82F6
100
AcDbEntity
  8
0
100
AcDbBlockEnd
  0
BLOCK
  5
830D
330
830C
100
AcDbEntity
  8
0
100
AcDbBlockBegin
  2
*D35
 70
     1
 10
0.0
 20
0.0
 30
0.0
  3
*D35
  1

  0
LINE
  5
8318
330
830C
100
AcDbEntity
  8
3
 62
     0
370
    -2
100
AcDbLine
 10
2834.156850930694
 20
3295.233310273391
 30
0.0
 11
3287.155668567128
 21
3295.23331027339
 31
0.0
  0
LINE
  5
8319
330
830C
100
AcDbEntity
  8
3
 62
     0
370
    -2
100
AcDbLine
 10
2737.901512152149
 20
2195.23331027339
 30
0.0
 11
3287.155668567127
 21
2195.23331027339
 31
0.0
  0
LINE
  5
831A
330
830C
100
AcDbEntity
  8
3
 62
     0
370
    -2
100
AcDbLine
 10
3257.155668567128
 20
3235.23331027339
 30
0.0
 11
3257.155668567127
 21
2255.23331027339
 31
0.0
  0
INSERT
  5
831B
330
830C
100
AcDbEntity
  8
3
 62
     0
370
    -2
100
AcDbBlockReference
  2
_OPEN
 10
3257.155668567128
 20
3295.23331027339
 30
0.0
 41
60.0
 42
60.0
 43
60.0
 50
90.0
  0
INSERT
  5
831C
330
830C
100
AcDbEntity
  8
3
 62
     0
370
    -2
100
AcDbBlockReference
  2
_OPEN
 10
3257.155668567127
 20
2195.23331027339
 30
0.0
 41
60.0
 42
60.0
 43
60.0
 50
270.0
  0
MTEXT
  5
831D
330
830C
100
AcDbEntity
  8
3
 62
     0
100
AcDbMText
 10
3182.155668567127
 20
2745.233310273391
 30
0.0
 40
90.0
 41
0.0
 71
     5
 72
     1
  1
\A1;1100
 11
0.0000000000000001
 21
1.0
 31
0.0
 73
     1
 44
1.0
1001
ACAD
1000
MTEXTBEGIN
1070
    73
1070
     1
1070
    44
1040
1.0
1070
    74
1070
     0
1000
MTEXTEND
  0
POINT
  5
831E
330
830C
100
AcDbEntity
  8
DEFPOINTS
 62
     0
100
AcDbPoint
 10
2804.156850930694
 20
3295.233310273391
 30
0.0
  0
POINT
  5
831F
330
830C
100
AcDbEntity
  8
DEFPOINTS
 62
     0
100
AcDbPoint
 10
2707.901512152149
 20
2195.23331027339
 30
0.0
  0
POINT
  5
8320
330
830C
100
AcDbEntity
  8
DEFPOINTS
 62
     0
100
AcDbPoint
 10
3257.155668567127
 20
2195.23331027339
 30
0.0
  0
ENDBLK
  5
830E
330
830C
100
AcDbEntity
  8
0
100
AcDbBlockEnd
  0
ENDSEC
  0
SECTION
  2
ENTITIES
  0
INSERT
  5
7C3B
330
824D
100
AcDbEntity
  8
0
100
AcDbBlockReference
  2
YA_N
 10
6.0
 20
5.0
 30
0.0
  0
LINE
  5
7C3D
330
824D
100
AcDbEntity
  8
2
100
AcDbLine
 10
2804.156850930694
 20
3295.233310273391
 30
0.0
 11
1302.576757513456
 21
3295.233310273391
 31
0.0
  0
LINE
  5
7C3E
330
824D
100
AcDbEntity
  8
2
100
AcDbLine
 10
2147.901512152148
 20
3985.320184906001
 30
0.0
 11
2147.901512152148
 21
2068.23331027339
 31
0.0
  0
ARC
  5
7C3F
330
824D
100
AcDbEntity
  8
1
100
AcDbCircle
 10
2214.901512152148
 20
3228.23331027339
 30
0.0
 40
844.0
100
AcDbArc
 50
175.446847612781
 51
265.4468476127809
  0
ARC
  5
7C40
330
824D
100
AcDbEntity
  8
1
100
AcDbCircle
 10
2080.901512152148
 20
3228.23331027339
 30
0.0
 40
710.0
100
AcDbArc
 50
84.58515829387057
 51
174.5851582938705
  0
ARC
  5
7C41
330
824D
100
AcDbEntity
  8
1
100
AcDbCircle
 10
2094.401512152148
 20
3348.73331027339
 30
0.0
 40
589.5
100
AcDbArc
 50
354.7929639116504
 51
84.79296391165046
  0
LINE
  5
7C42
330
824D
100
AcDbEntity
  8
1
100
AcDbLine
 10
2767.901512152148
 20
2291.73331027339
 30
0.0
 11
2767.901512152148
 21
3301.73331027339
 31
0.0
  0
LINE
  5
7C43
330
824D
100
AcDbEntity
  8
1
100
AcDbLine
 10
2767.901512152148
 20
3259.233310273391
 30
0.0
 11
2682.691190436985
 21
3259.233310273391
 31
0.0
  0
LINE
  5
7C44
330
824D
100
AcDbEntity
  8
1
100
AcDbLine
 10
2767.901512152148
 20
2334.233310273389
 30
0.0
 11
2147.901512152148
 21
2386.896873406425
 31
0.0
  0
LINE
  5
7C45
330
824D
100
AcDbEntity
  8
1
100
AcDbLine
 10
2767.901512152148
 20
2291.73331027339
 30
0.0
 11
2764.901512152148
 21
2291.73331027339
 31
0.0
  0
LINE
  5
7C46
330
824D
100
AcDbEntity
  8
1
100
AcDbLine
 10
2767.901512152148
 20
3301.73331027339
 30
0.0
 11
2764.901512152148
 21
3301.73331027339
 31
0.0
  0
LINE
  5
7C47
330
824D
100
AcDbEntity
  8
1
100
AcDbLine
 10
2727.901512152147
 20
2337.630959507779
 30
0.0
 11
2727.901512152147
 21
3259.233310273391
 31
0.0
  0
LINE
  5
7C48
330
824D
100
AcDbEntity
  8
1
100
AcDbLine
 10
2764.901512152148
 20
2291.73331027339
 30
0.0
 11
2764.901512152148
 21
3301.73331027339
 31
0.0
  0
LINE
  5
7C49
330
824D
100
AcDbEntity
  8
1
100
AcDbLine
 10
837.9015121521499
 20
2295.233310273389
 30
0.0
 11
837.9015121521499
 21
2195.23331027339
 31
0.0
  0
LINE
  5
7C4A
330
824D
100
AcDbEntity
  8
1
100
AcDbLine
 10
2707.901512152147
 20
2295.23331027339
 30
0.0
 11
2707.901512152147
 21
2195.23331027339
 31
0.0
  0
LINE
  5
7C4B
330
824D
100
AcDbEntity
  8
1
100
AcDbLine
 10
837.9015121521499
 20
2195.23331027339
 30
0.0
 11
2707.901512152149
 21
2195.23331027339
 31
0.0
1001
ACAD
1000
ASC_BOUNDS
1002
{
1070
    19
1002
}
  0
LINE
  5
7C4C
330
824D
100
AcDbEntity
  8
1
100
AcDbLine
 10
837.9015121521499
 20
2295.233310273389
 30
0.0
 11
2707.901512152149
 21
2295.23331027339
 31
0.0
  0
LINE
  5
7C4D
330
824D
100
AcDbEntity
  8
2
100
AcDbLine
 10
1087.901512152148
 20
2863.235801269493
 30
0.0
 11
1087.901512152148
 21
2068.23331027339
 31
0.0
  0
LINE
  5
7C4E
330
824D
100
AcDbEntity
  8
2
100
AcDbLine
 10
790.7646249416941
 20
2570.233310273389
 30
0.0
 11
1302.744438605981
 21
2570.233310273389
 31
0.0
  0
LINE
  5
7C4F
330
824D
100
AcDbEntity
  8
1
100
AcDbLine
 10
5322.890847887129
 20
3938.233310273391
 30
0.0
 11
5322.890847887129
 21
3331.23331027339
 31
0.0
  0
LINE
  5
7C50
330
824D
100
AcDbEntity
  8
1
100
AcDbLine
 10
4000.890847887119
 20
2195.23331027339
 30
0.0
 11
5375.890847887138
 21
2195.23331027339
 31
0.0
1001
ACAD
1000
ASC_BOUNDS
1002
{
1070
    19
1005
0
1005
0
1005
0
1005
0
1002
}
  0
LINE
  5
7C51
330
824D
100
AcDbEntity
  8
1
100
AcDbLine
 10
4000.890847887129
 20
2295.23331027339
 30
0.0
 11
5375.890847887129
 21
2295.23331027339
 31
0.0
  0
LINE
  5
7C52
330
824D
100
AcDbEntity
  8
1
100
AcDbLine
 10
4000.890847887129
 20
2295.23331027339
 30
0.0
 11
4000.890847887119
 21
2195.23331027339
 31
0.0
  0
LINE
  5
7C53
330
824D
100
AcDbEntity
  8
1
100
AcDbLine
 10
5375.890847887129
 20
2295.23331027339
 30
0.0
 11
5375.890847887138
 21
2195.23331027339
 31
0.0
  0
LINE
  5
7C54
330
824D
100
AcDbEntity
  8
1
100
AcDbLine
 10
4762.89084788713
 20
3938.233310273391
 30
0.0
 11
5322.890847887129
 21
3938.233310273391
 31
0.0
  0
LINE
  5
7C55
330
824D
100
AcDbEntity
  8
2
100
AcDbLine
 10
3820.311749241432
 20
3295.233310273391
 30
0.0
 11
5473.410495644865
 21
3295.233310273391
 31
0.0
  0
LINE
  5
7C56
330
824D
100
AcDbEntity
  8
1
100
AcDbLine
 10
5313.390847887129
 20
2195.23331027339
 30
0.0
 11
5375.890847887138
 21
2195.23331027339
 31
0.0
1001
ACAD
1000
ASC_BOUNDS
1002
{
1070
    19
1005
0
1005
0
1002
}
  0
LINE
  5
7C57
330
824D
100
AcDbEntity
  8
2
100
AcDbLine
 10
4762.89084788713
 20
4110.452251509412
 30
0.0
 11
4762.890847887128
 21
2068.233310273389
 31
0.0
  0
POINT
  5
7C58
330
824D
100
AcDbEntity
  8
1
100
AcDbPoint
 10
1374.069849024355
 20
3270.23331027339
 30
0.0
  0
INSERT
  5
7C59
330
824D
100
AcDbEntity
  8
0
100
AcDbBlockReference
  2
YA_N
 10
-1638.667820090515
 20
-980.7401201518075
 30
0.0
 41
20.0
 42
20.0
 43
20.0
  0
INSERT
  5
7C5B
330
824D
100
AcDbEntity
  8
0
100
AcDbBlockReference
  2
YA_N
 10
-1552.816625123014
 20
-1070.405552057982
 30
0.0
 41
20.0
 42
20.0
 43
20.0
  0
ARC
  5
7C5D
330
824D
100
AcDbEntity
  8
1
100
AcDbCircle
 10
1087.901512152148
 20
2570.233310273389
 30
0.0
 40
185.0
100
AcDbArc
 50
287.9452509999999
 51
252.054749
  0
LINE
  5
7C5E
330
824D
100
AcDbEntity
  8
1
100
AcDbLine
 10
1144.901512152147
 20
2394.233310273389
 30
0.0
 11
1030.901512152148
 21
2394.233310273389
 31
0.0
  0
LINE
  5
7C60
330
824D
100
AcDbEntity
  8
1
100
AcDbLine
 10
1249.901512152147
 20
2465.492343273389
 30
0.0
 11
1249.901512152147
 21
2390.233310273389
 31
0.0
  0
LINE
  5
7C61
330
824D
100
AcDbEntity
  8
1
100
AcDbLine
 10
1190.401512152148
 20
2395.381869273389
 30
0.0
 11
1180.894798152148
 21
2410.30447727339
 31
0.0
  0
LINE
  5
7C64
330
824D
100
AcDbEntity
  8
1
100
AcDbLine
 10
1190.401512152148
 20
2407.233310273389
 30
0.0
 11
1190.401512152148
 21
2390.233310273389
 31
0.0
  0
LINE
  5
7C66
330
824D
100
AcDbEntity
  8
1
100
AcDbLine
 10
1193.401512152147
 20
2410.233310273389
 30
0.0
 11
1246.901512152148
 21
2410.233310273389
 31
0.0
  0
ARC
  5
7C67
330
824D
100
AcDbEntity
  8
1
100
AcDbCircle
 10
1246.901512152148
 20
2407.233310273389
 30
0.0
 40
3.0
100
AcDbArc
 50
0.0
 51
90.0
  0
LINE
  5
7C6E
330
824D
100
AcDbEntity
  8
1
100
AcDbLine
 10
1198.725425152148
 20
2410.233310273389
 30
0.0
 11
1193.545677152147
 21
2418.363925273389
 31
0.0
  0
ARC
  5
7C70
330
824D
100
AcDbEntity
  8
1
100
AcDbCircle
 10
1193.401512152147
 20
2407.233310273389
 30
0.0
 40
3.0
100
AcDbArc
 50
90.0
 51
180.0
  0
LINE
  5
7C71
330
824D
100
AcDbEntity
  8
1
100
AcDbLine
 10
1249.901512152147
 20
2465.492343273389
 30
0.0
 11
1243.517540152148
 21
2470.190097273389
 31
0.0
  0
LINE
  5
7C76
330
824D
100
AcDbEntity
  8
1
100
AcDbLine
 10
985.4015121521481
 20
2395.381869273389
 30
0.0
 11
994.9082261521487
 21
2410.30447727339
 31
0.0
  0
LINE
  5
7C7A
330
824D
100
AcDbEntity
  8
1
100
AcDbLine
 10
985.4015121521481
 20
2407.233310273389
 30
0.0
 11
985.4015121521481
 21
2390.233310273389
 31
0.0
  0
LINE
  5
7C7B
330
824D
100
AcDbEntity
  8
1
100
AcDbLine
 10
925.9015121521477
 20
2465.492343273389
 30
0.0
 11
925.9015121521477
 21
2390.233310273389
 31
0.0
  0
LINE
  5
7C7D
330
824D
100
AcDbEntity
  8
1
100
AcDbLine
 10
982.401512152148
 20
2410.233310273389
 30
0.0
 11
928.901512152148
 21
2410.233310273389
 31
0.0
  0
LINE
  5
7C7F
330
824D
100
AcDbEntity
  8
1
100
AcDbLine
 10
977.0775981521484
 20
2410.233310273389
 30
0.0
 11
982.2573471521479
 21
2418.363925273389
 31
0.0
  0
ARC
  5
7C80
330
824D
100
AcDbEntity
  8
1
100
AcDbCircle
 10
982.401512152148
 20
2407.233310273389
 30
0.0
 40
3.0
100
AcDbArc
 50
0.0
 51
90.0
  0
ARC
  5
7C81
330
824D
100
AcDbEntity
  8
1
100
AcDbCircle
 10
928.901512152148
 20
2407.233310273389
 30
0.0
 40
3.0
100
AcDbArc
 50
90.0
 51
180.0
  0
LINE
  5
7C8C
330
824D
100
AcDbEntity
  8
1
100
AcDbLine
 10
925.9015121521477
 20
2465.492343273389
 30
0.0
 11
932.2854231521487
 21
2470.190097273389
 31
0.0
  0
LINE
  5
7C8D
330
824D
100
AcDbEntity
  8
1
100
AcDbLine
 10
862.9015121521478
 20
2335.233310273389
 30
0.0
 11
1312.901512152148
 21
2335.233310273389
 31
0.0
  0
LINE
  5
7C8E
330
824D
100
AcDbEntity
  8
1
100
AcDbLine
 10
887.9015121521478
 20
2335.233310273389
 30
0.0
 11
887.9015121521478
 21
2295.233310273389
 31
0.0
  0
LINE
  5
7C8F
330
824D
100
AcDbEntity
  8
1
100
AcDbLine
 10
1287.901512152147
 20
2335.233310273389
 30
0.0
 11
1287.901512152147
 21
2295.233310273389
 31
0.0
  0
LINE
  5
7C90
330
824D
100
AcDbEntity
  8
1
100
AcDbLine
 10
877.7999737510254
 20
2390.233310273389
 30
0.0
 11
1017.901512152147
 21
2390.233310273389
 31
0.0
  0
LINE
  5
7C91
330
824D
100
AcDbEntity
  8
1
100
AcDbLine
 10
1312.901512152148
 20
2335.233310273389
 30
0.0
 11
1297.699195517636
 21
2390.233310273389
 31
0.0
  0
LINE
  5
7C92
330
824D
100
AcDbEntity
  8
1
100
AcDbLine
 10
862.9015121521478
 20
2335.233310273389
 30
0.0
 11
877.7999737510254
 21
2390.233310273389
 31
0.0
  0
LINE
  5
7C94
330
824D
100
AcDbEntity
  8
1
100
AcDbLine
 10
1017.901512152147
 20
2380.233310273389
 30
0.0
 11
1157.901512152147
 21
2380.233310273389
 31
0.0
  0
LINE
  5
7C95
330
824D
100
AcDbEntity
  8
1
100
AcDbLine
 10
1017.901512152147
 20
2390.233310273389
 30
0.0
 11
1017.901512152147
 21
2380.233310273389
 31
0.0
  0
LINE
  5
7C96
330
824D
100
AcDbEntity
  8
1
100
AcDbLine
 10
1157.901512152147
 20
2390.233310273389
 30
0.0
 11
1157.901512152147
 21
2380.233310273389
 31
0.0
  0
LINE
  5
7C97
330
824D
100
AcDbEntity
  8
1
100
AcDbLine
 10
1157.901512152147
 20
2390.233310273389
 30
0.0
 11
1297.699195517636
 21
2390.233310273389
 31
0.0
  0
LINE
  5
7C9A
330
824D
100
AcDbEntity
  8
1
100
AcDbLine
 10
837.9015121521478
 20
2168.23331027339
 30
0.0
 11
2707.901512152149
 21
2168.23331027339
 31
0.0
1001
ACAD
1000
ASC_BOUNDS
1002
{
1070
    19
1002
}
  0
LINE
  5
7C9B
330
824D
100
AcDbEntity
  8
1
100
AcDbLine
 10
837.9015121521478
 20
2168.23331027339
 30
0.0
 11
837.9015121521478
 21
2068.23331027339
 31
0.0
  0
LINE
  5
7C9C
330
824D
100
AcDbEntity
  8
1
100
AcDbLine
 10
2707.901512152149
 20
2168.23331027339
 30
0.0
 11
2707.901512152149
 21
2068.23331027339
 31
0.0
  0
LINE
  5
7C9D
330
824D
100
AcDbEntity
  8
1
100
AcDbLine
 10
4000.890847887119
 20
2168.23331027339
 30
0.0
 11
5375.890847887129
 21
2168.23331027339
 31
0.0
1001
ACAD
1000
ASC_BOUNDS
1002
{
1070
    19
1005
0
1005
0
1005
0
1005
0
1005
0
1005
0
1002
}
  0
DIMENSION
  5
7C9E
330
824D
100
AcDbEntity
  8
3
100
AcDbDimension
  2
*D4
 10
2917.516620595359
 20
3259.233310273391
 30
0.0
 11
2857.516620595359
 21
2796.733310273391
 31
0.0
 12
1490.255412532223
 22
3015.055214858927
 32
0.0
 71
     5
 42
-1.0
  3
Standard
100
AcDbAlignedDimension
 13
2767.901512152148
 23
2334.233310273389
 33
0.0
 14
2767.901512152148
 24
3259.233310273391
 34
0.0
 50
270.0
100
AcDbRotatedDimension
1001
ACAD
1000
DSTYLE
1002
{
1070
    40
1040
30.0
1002
}
  0
DIMENSION
  5
7C9F
330
824D
100
AcDbEntity
  8
3
100
AcDbDimension
  2
*D5
 10
3067.859920693221
 20
3295.233310273391
 30
0.0
 11
3007.859920693221
 21
2814.73331027339
 31
0.0
 12
1490.255412532223
 22
3015.055214858927
 32
0.0
 71
     5
 42
-1.0
  3
Standard
100
AcDbAlignedDimension
 13
2767.901512152148
 23
2334.233310273389
 33
0.0
 14
2804.156850930694
 24
3295.233310273391
 34
0.0
 50
270.0
100
AcDbRotatedDimension
1001
ACAD
1000
DSTYLE
1002
{
1070
    40
1040
30.0
1002
}
  0
POINT
  5
7CA0
330
824D
100
AcDbEntity
  8
1
100
AcDbPoint
 10
2707.901512152149
 20
2168.23331027339
 30
0.0
  0
POINT
  5
7CA1
330
824D
100
AcDbEntity
  8
1
100
AcDbPoint
 10
2707.901512152149
 20
2103.233310273389
 30
0.0
  0
POINT
  5
7CA2
330
824D
100
AcDbEntity
  8
1
100
AcDbPoint
 10
2707.901512152149
 20
2168.23331027339
 30
0.0
  0
POINT
  5
7CA3
330
824D
100
AcDbEntity
  8
1
100
AcDbPoint
 10
2707.901512152147
 20
2195.23331027339
 30
0.0
  0
CIRCLE
  5
7CA4
330
824D
100
AcDbEntity
  8
1
100
AcDbCircle
 10
1087.901512152148
 20
2570.233310273389
 30
0.0
 40
119.0
  0
LINE
  5
7CA5
330
824D
100
AcDbEntity
  8
1
100
AcDbLine
 10
5322.890847887129
 20
3331.23331027339
 30
0.0
 11
5322.890847887129
 21
2334.233310273389
 31
0.0
  0
LINE
  5
7CA6
330
824D
100
AcDbEntity
  8
1
100
AcDbLine
 10
4202.890847887129
 20
3938.233310273391
 30
0.0
 11
4202.890847887129
 21
3295.233310273391
 31
0.0
  0
LINE
  5
7CA7
330
824D
100
AcDbEntity
  8
1
100
AcDbLine
 10
4762.890847887128
 20
3938.233310273391
 30
0.0
 11
4202.890847887129
 21
3938.233310273391
 31
0.0
  0
LINE
  5
7CA8
330
824D
100
AcDbEntity
  8
1
100
AcDbLine
 10
4202.890847887129
 20
3295.233310273391
 30
0.0
 11
4202.890847887129
 21
2334.233310273389
 31
0.0
  0
LINE
  5
7CA9
330
824D
100
AcDbEntity
  8
1
100
AcDbLine
 10
4074.890847887129
 20
3269.433310273389
 30
0.0
 11
4150.590847887129
 21
3269.433310273389
 31
0.0
  0
LINE
  5
7CAA
330
824D
100
AcDbEntity
  8
1
100
AcDbLine
 10
4074.890847887129
 20
3119.43331027339
 30
0.0
 11
4150.590847887129
 21
3119.43331027339
 31
0.0
  0
LINE
  5
7CAB
330
824D
100
AcDbEntity
  8
1
100
AcDbLine
 10
4064.890847887129
 20
3259.43331027339
 30
0.0
 11
4064.89084788713
 21
3129.43331027339
 31
0.0
  0
LINE
  5
7CAC
330
824D
100
AcDbEntity
  8
1
100
AcDbLine
 10
4189.890847887128
 20
3269.433310273389
 30
0.0
 11
4189.890847887129
 21
3119.43331027339
 31
0.0
  0
ARC
  5
7CAD
330
824D
100
AcDbEntity
  8
1
100
AcDbCircle
 10
4074.890847887129
 20
3259.43331027339
 30
0.0
 40
10.0
100
AcDbArc
 50
90.0
 51
180.0000000000003
  0
ARC
  5
7CAE
330
824D
100
AcDbEntity
  8
1
100
AcDbCircle
 10
4074.890847887129
 20
3129.43331027339
 30
0.0
 40
10.0
100
AcDbArc
 50
180.0000000000003
 51
270.0
  0
LINE
  5
7CAF
330
824D
100
AcDbEntity
  8
1
100
AcDbLine
 10
4150.590847887129
 20
3119.43331027339
 30
0.0
 11
4189.890847887129
 21
3119.43331027339
 31
0.0
  0
LINE
  5
7CB0
330
824D
100
AcDbEntity
  8
1
100
AcDbLine
 10
4150.590847887129
 20
3269.433310273389
 30
0.0
 11
4189.890847887129
 21
3269.433310273389
 31
0.0
  0
LINE
  5
7CB1
330
824D
100
AcDbEntity
  8
1
100
AcDbLine
 10
5442.890847887127
 20
3255.73331027339
 30
0.0
 11
5442.890847887127
 21
3155.733310273391
 31
0.0
  0
LINE
  5
7CB2
330
824D
100
AcDbEntity
  8
1
100
AcDbLine
 10
5342.390847887129
 20
3265.73331027339
 30
0.0
 11
5342.390847887129
 21
3145.73331027339
 31
0.0
  0
LINE
  5
7CB3
330
824D
100
AcDbEntity
  8
1
100
AcDbLine
 10
5342.390847887129
 20
3265.73331027339
 30
0.0
 11
5375.190847887129
 21
3265.73331027339
 31
0.0
  0
LINE
  5
7CB4
330
824D
100
AcDbEntity
  8
1
100
AcDbLine
 10
5342.390847887129
 20
3145.73331027339
 30
0.0
 11
5375.190847887129
 21
3145.73331027339
 31
0.0
  0
ARC
  5
7CB5
330
824D
100
AcDbEntity
  8
1
100
AcDbCircle
 10
5432.890847887128
 20
3255.73331027339
 30
0.0
 40
10.0
100
AcDbArc
 50
0.0000000000003257
 51
90.0
  0
ARC
  5
7CB6
330
824D
100
AcDbEntity
  8
1
100
AcDbCircle
 10
5432.890847887128
 20
3155.733310273391
 30
0.0
 40
10.0
100
AcDbArc
 50
270.0
 51
0.0000000000003257
  0
LINE
  5
7CB7
330
824D
100
AcDbEntity
  8
1
100
AcDbLine
 10
5375.190847887129
 20
3145.73331027339
 30
0.0
 11
5432.890847887128
 21
3145.73331027339
 31
0.0
  0
LINE
  5
7CB8
330
824D
100
AcDbEntity
  8
1
100
AcDbLine
 10
5375.190847887129
 20
3265.73331027339
 30
0.0
 11
5432.890847887128
 21
3265.73331027339
 31
0.0
  0
LINE
  5
7CB9
330
824D
100
AcDbEntity
  8
1
100
AcDbLine
 10
4049.890847887129
 20
3325.233310273389
 30
0.0
 11
4049.890847887129
 21
3265.233310273389
 31
0.0
  0
LINE
  5
7CBA
330
824D
100
AcDbEntity
  8
1
100
AcDbLine
 10
4044.890847887129
 20
3322.73331027339
 30
0.0
 11
4049.890847887129
 21
3322.73331027339
 31
0.0
  0
LINE
  5
7CBB
330
824D
100
AcDbEntity
  8
1
100
AcDbLine
 10
4044.890847887129
 20
3267.733310273391
 30
0.0
 11
4049.890847887129
 21
3267.733310273391
 31
0.0
  0
LINE
  5
7CBC
330
824D
100
AcDbEntity
  8
1
100
AcDbLine
 10
3934.89084788713
 20
3498.433310273389
 30
0.0
 11
3934.890847887121
 21
2451.233310273389
 31
0.0
  0
LINE
  5
7CBD
330
824D
100
AcDbEntity
  8
1
100
AcDbLine
 10
4044.890847887129
 20
3498.433310273389
 30
0.0
 11
4044.890847887121
 21
2451.233310273389
 31
0.0
  0
LINE
  5
7CBE
330
824D
100
AcDbEntity
  8
2
100
AcDbLine
 10
3902.246755419798
 20
2570.233310273389
 30
0.0
 11
4406.078365778554
 21
2570.233310273389
 31
0.0
  0
LINE
  5
7CBF
330
824D
100
AcDbEntity
  8
1
100
AcDbLine
 10
3934.890847887127
 20
2689.233310273389
 30
0.0
 11
4044.890847887127
 21
2689.233310273389
 31
0.0
  0
LINE
  5
7CC0
330
824D
100
AcDbEntity
  8
1
100
AcDbLine
 10
3934.890847887125
 20
2451.233310273389
 30
0.0
 11
4044.890847887125
 21
2451.233310273389
 31
0.0
  0
LINE
  5
7CC1
330
824D
100
AcDbEntity
  8
1
100
AcDbLine
 10
3812.890847887127
 20
3575.233310273389
 30
0.0
 11
3812.890847887135
 21
2350.233310273389
 31
0.0
  0
LINE
  5
7CC2
330
824D
100
AcDbEntity
  8
1
100
AcDbLine
 10
3812.890847887131
 20
2350.233310273389
 30
0.0
 11
4064.890847887133
 21
2350.233310273389
 31
0.0
  0
LINE
  5
7CC3
330
824D
100
AcDbEntity
  8
1
100
AcDbLine
 10
4064.890847887124
 20
3575.233310273389
 30
0.0
 11
4064.890847887125
 21
3555.23331027339
 31
0.0
  0
LINE
  5
7CC4
330
824D
100
AcDbEntity
  8
1
100
AcDbLine
 10
4064.890847887132
 20
2370.233310273389
 30
0.0
 11
4064.890847887132
 21
2350.23331027339
 31
0.0
  0
POINT
  5
7CC5
330
824D
100
AcDbEntity
  8
1
100
AcDbPoint
 10
5442.890847887127
 20
3255.73331027339
 30
0.0
  0
LINE
  5
7CC6
330
824D
100
AcDbEntity
  8
2
100
AcDbLine
 10
678.029584787244
 20
5774.427760698952
 30
0.0
 11
2821.263589865146
 21
5774.427760698952
 31
0.0
  0
LINE
  5
7CC7
330
824D
100
AcDbEntity
  8
2
100
AcDbLine
 10
2147.90151215215
 20
4773.169051944666
 30
0.0
 11
2147.90151215215
 21
6308.93614357028
 31
0.0
  0
INSERT
  5
7CC8
330
824D
100
AcDbEntity
  8
0
100
AcDbBlockReference
  2
YA_N
 10
1902.396177633552
 20
-2784.746590060132
 30
0.0
  0
LINE
  5
7CCA
330
824D
100
AcDbEntity
  8
1
100
AcDbLine
 10
5375.890847887129
 20
2200.764815344057
 30
0.0
 11
5375.890847887129
 21
2195.23331027339
 31
0.0
  0
LINE
  5
7CCB
330
824D
100
AcDbEntity
  8
1
100
AcDbLine
 10
4000.890847887129
 20
2068.23331027339
 30
0.0
 11
5375.890847887129
 21
2068.23331027339
 31
0.0
1001
ACAD
1000
ASC_BOUNDS
1002
{
1070
    19
1002
}
  0
LINE
  5
7CCC
330
824D
100
AcDbEntity
  8
1
100
AcDbLine
 10
5375.890847887129
 20
2168.23331027339
 30
0.0
 11
5375.890847887129
 21
2068.23331027339
 31
0.0
  0
LINE
  5
7CD0
330
824D
100
AcDbEntity
  8
1
100
AcDbLine
 10
4049.890847887129
 20
3325.233310273389
 30
0.0
 11
4202.890847887129
 21
3325.233310273389
 31
0.0
  0
LINE
  5
7CD1
330
824D
100
AcDbEntity
  8
1
100
AcDbLine
 10
4049.890847887129
 20
3265.233310273389
 30
0.0
 11
4066.744683145361
 21
3265.233310273389
 31
0.0
  0
LINE
  5
7CD2
330
824D
100
AcDbEntity
  8
1
100
AcDbLine
 10
837.9015121521478
 20
2068.23331027339
 30
0.0
 11
2707.901512152149
 21
2068.23331027339
 31
0.0
1001
ACAD
1000
ASC_BOUNDS
1002
{
1070
    19
1002
}
  0
POINT
  5
7CD6
330
824D
100
AcDbEntity
  8
1
100
AcDbPoint
 10
2707.901512152149
 20
2168.23331027339
 30
0.0
  0
POINT
  5
7CD7
330
824D
100
AcDbEntity
  8
1
100
AcDbPoint
 10
2707.901512152149
 20
2068.23331027339
 30
0.0
  0
POINT
  5
7CD8
330
824D
100
AcDbEntity
  8
1
100
AcDbPoint
 10
2707.901512152149
 20
2168.23331027339
 30
0.0
  0
POINT
  5
7CD9
330
824D
100
AcDbEntity
  8
1
100
AcDbPoint
 10
2707.901512152149
 20
2195.23331027339
 30
0.0
  0
ARC
  5
7CDA
330
824D
100
AcDbEntity
  8
1
100
AcDbCircle
 10
2147.901512152148
 20
3295.233310273391
 30
0.0
 40
536.0
100
AcDbArc
 50
356.1488768735023
 51
0.0
  0
CIRCLE
  5
7CDB
330
824D
100
AcDbEntity
  8
1
100
AcDbCircle
 10
2147.901512152148
 20
3295.233310273391
 30
0.0
 40
203.2
  0
ARC
  5
7CDC
330
824D
100
AcDbEntity
  8
1
100
AcDbCircle
 10
2147.901512152148
 20
3295.233310273391
 30
0.0
 40
280.0
100
AcDbArc
 50
301.6927691141284
 51
127.8941718121952
  0
ARC
  5
7CDD
330
824D
100
AcDbEntity
  8
1
100
AcDbCircle
 10
1087.901512152148
 20
2570.233310273389
 30
0.0
 40
220.0
100
AcDbArc
 50
127.0485407364137
 51
301.6927691141284
  0
LINE
  5
7CDE
330
824D
100
AcDbEntity
  8
1
100
AcDbLine
 10
3934.89084788713
 20
3498.433310273389
 30
0.0
 11
4044.890847887129
 21
3498.433310273389
 31
0.0
  0
LINE
  5
7CDF
330
824D
100
AcDbEntity
  8
1
100
AcDbLine
 10
3934.890847887127
 20
3092.03331027339
 30
0.0
 11
4044.890847887127
 21
3092.03331027339
 31
0.0
  0
LINE
  5
7CE0
330
824D
100
AcDbEntity
  8
1
100
AcDbLine
 10
3812.890847887127
 20
3575.233310273389
 30
0.0
 11
4064.890847887124
 21
3575.233310273389
 31
0.0
  0
DIMENSION
  5
7CE1
330
824D
100
AcDbEntity
  8
3
100
AcDbDimension
  2
*D6
 10
5322.890847887129
 20
4131.425263807017
 30
0.0
 11
4762.890847887129
 21
4191.425263807017
 31
0.0
 12
1298.085019275666
 22
3015.055214858927
 32
0.0
 71
     5
 42
-1.0
  3
Standard
100
AcDbAlignedDimension
 13
4202.890847887129
 23
3907.691894488698
 33
0.0
 14
5322.890847887129
 24
3910.735287826426
 34
0.0
100
AcDbRotatedDimension
1001
ACAD
1000
DSTYLE
1002
{
1070
    40
1040
30.0
1002
}
  0
LINE
  5
7CE5
330
824D
100
AcDbEntity
  8
1
100
AcDbLine
 10
1587.901512152149
 20
6387.427760698954
 30
0.0
 11
2707.901512152149
 21
6387.427760698953
 31
0.0
  0
LINE
  5
7CE6
330
824D
100
AcDbEntity
  8
1
100
AcDbLine
 10
837.9015121521499
 20
5012.427760698954
 30
0.0
 11
2707.901512152149
 21
5012.427760698954
 31
0.0
  0
LINE
  5
7CE7
330
824D
100
AcDbEntity
  8
1
100
AcDbLine
 10
2707.901512152149
 20
5012.427760698954
 30
0.0
 11
2707.901512152149
 21
5214.427760698953
 31
0.0
  0
LINE
  5
7CE8
330
824D
100
AcDbEntity
  8
1
100
AcDbLine
 10
1587.901512152149
 20
6334.427760698953
 30
0.0
 11
1587.901512152149
 21
6387.427760698953
 31
0.0
  0
LINE
  5
7CE9
330
824D
100
AcDbEntity
  8
1
100
AcDbLine
 10
837.9015121521486
 20
5012.427760698954
 30
0.0
 11
837.9015121521499
 21
5812.427760698954
 31
0.0
  0
LINE
  5
7CEA
330
824D
100
AcDbEntity
  8
1
100
AcDbLine
 10
837.9015121521499
 20
5812.427760698953
 30
0.0
 11
1370.901512152149
 21
5812.427760698954
 31
0.0
  0
LINE
  5
7CEB
330
824D
100
AcDbEntity
  8
2
100
AcDbLine
 10
1087.901512152149
 20
4699.852220520106
 30
0.0
 11
1087.901512152149
 21
5604.526103265165
 31
0.0
  0
DIMENSION
  5
7CEC
330
824D
100
AcDbEntity
  8
3
100
AcDbDimension
  2
*D10
 10
1587.901512152149
 20
6689.442419204175
 30
0.0
 11
1212.901512152149
 21
6749.442419204175
 31
0.0
 12
1490.255412532223
 22
2397.613349665131
 32
0.0
 71
     5
 42
-1.0
  3
Standard
100
AcDbAlignedDimension
 13
837.9015121521499
 23
5812.427760698954
 33
0.0
 14
1587.901512152149
 24
6387.427760698954
 34
0.0
100
AcDbRotatedDimension
1001
ACAD
1000
DSTYLE
1002
{
1070
    40
1040
30.0
1002
}
  0
DIMENSION
  5
7CED
330
824D
100
AcDbEntity
  8
3
100
AcDbDimension
  2
*D11
 10
2707.901512152149
 20
6689.442419204175
 30
0.0
 11
2147.90151215215
 21
6749.442419204175
 31
0.0
 12
1490.255412532223
 22
2397.613349665131
 32
0.0
 71
     5
 42
-1.0
  3
Standard
100
AcDbAlignedDimension
 13
1587.901512152149
 23
6387.427760698954
 33
0.0
 14
2707.901512152149
 24
6387.427760698953
 34
0.0
100
AcDbRotatedDimension
1001
ACAD
1000
DSTYLE
1002
{
1070
    40
1040
30.0
1002
}
  0
DIMENSION
  5
7CEE
330
824D
100
AcDbEntity
  8
3
100
AcDbDimension
  2
*D12
 10
3008.325734318565
 20
5012.427760698954
 30
0.0
 11
2948.325734318565
 21
5699.927760698953
 31
0.0
 12
1490.255412532223
 22
2397.613349665131
 32
0.0
 71
     5
 42
-1.0
  3
Standard
100
AcDbAlignedDimension
 13
2707.901512152149
 23
6387.427760698953
 33
0.0
 14
2707.901512152149
 24
5012.427760698954
 34
0.0
 50
90.0
100
AcDbRotatedDimension
1001
ACAD
1000
DSTYLE
1002
{
1070
    40
1040
30.0
1002
}
  0
DIMENSION
  5
7CF0
330
824D
100
AcDbEntity
  8
3
100
AcDbDimension
  2
*D14
 10
537.1608057655248
 20
5012.427760698954
 30
0.0
 11
477.1608057655249
 21
5412.427760698953
 31
0.0
 12
1490.255412532223
 22
2397.613349665131
 32
0.0
 71
     5
 42
-1.0
  3
Standard
100
AcDbAlignedDimension
 13
837.9015121521499
 23
5812.427760698954
 33
0.0
 14
837.9015121521499
 24
5012.427760698954
 34
0.0
 50
90.0
100
AcDbRotatedDimension
1001
ACAD
1000
DSTYLE
1002
{
1070
    40
1040
30.0
1002
}
  0
DIMENSION
  5
7CF1
330
824D
100
AcDbEntity
  8
3
100
AcDbDimension
  2
*D15
 10
5646.781841715262
 20
3770.233310273391
 30
0.0
 11
5646.781841715262
 21
3295.233310273391
 31
0.0
 12
1298.085019275666
 22
3015.055214858927
 32
0.0
 70
   128
  1
\U+03C6<>
 71
     5
 42
-1.0
  3
Standard
100
AcDbAlignedDimension
 13
5328.390847887129
 23
2820.23331027339
 33
0.0
 14
5328.390847887129
 24
3770.233310273391
 34
0.0
 50
90.0
100
AcDbRotatedDimension
1001
ACAD
1000
DSTYLE
1002
{
1070
    40
1040
30.0
1002
}
  0
CIRCLE
  5
7CF2
330
824D
100
AcDbEntity
  8
1
100
AcDbCircle
 10
2147.901512152148
 20
3295.233310273391
 30
0.0
 40
475.0
  0
CIRCLE
  5
7CF3
330
824D
100
AcDbEntity
  8
1
100
AcDbCircle
 10
2147.901512152148
 20
3295.233310273391
 30
0.0
 40
515.0
  0
LINE
  5
7CF4
330
824D
100
AcDbEntity
  8
1
100
AcDbLine
 10
4000.890847887119
 20
2168.23331027339
 30
0.0
 11
4000.890847887109
 21
2068.23331027339
 31
0.0
  0
LINE
  5
7CF5
330
824D
100
AcDbEntity
  8
1
100
AcDbLine
 10
867.9015121521477
 20
4824.427760698953
 30
0.0
 11
2427.901512152148
 21
4824.427760698952
 31
0.0
  0
LINE
  5
7CF6
330
824D
100
AcDbEntity
  8
1
100
AcDbLine
 10
867.9015121521477
 20
5114.427760698955
 30
0.0
 11
2427.901512152148
 21
5114.427760698951
 31
0.0
  0
LINE
  5
7CF7
330
824D
100
AcDbEntity
  8
1
100
AcDbLine
 10
968.9015121521476
 20
4984.427760698953
 30
0.0
 11
1206.901512152148
 21
4984.427760698953
 31
0.0
  0
LINE
  5
7CF8
330
824D
100
AcDbEntity
  8
1
100
AcDbLine
 10
968.9015121521476
 20
5094.427760698954
 30
0.0
 11
1206.901512152148
 21
5094.427760698954
 31
0.0
  0
LINE
  5
7CF9
330
824D
100
AcDbEntity
  8
1
100
AcDbLine
 10
2427.901512152148
 20
4824.427760698952
 30
0.0
 11
2427.901512152148
 21
5114.427760698951
 31
0.0
  0
LINE
  5
7CFA
330
824D
100
AcDbEntity
  8
1
100
AcDbLine
 10
867.9015121521477
 20
4824.427760698953
 30
0.0
 11
867.9015121521477
 21
5114.427760698955
 31
0.0
  0
LINE
  5
7CFB
330
824D
100
AcDbEntity
  8
1
100
AcDbLine
 10
2351.101512152147
 20
4984.427760698952
 30
0.0
 11
2351.101512152147
 21
5094.427760698954
 31
0.0
  0
LINE
  5
7CFC
330
824D
100
AcDbEntity
  8
1
100
AcDbLine
 10
1944.701512152148
 20
4984.427760698952
 30
0.0
 11
1944.701512152148
 21
5094.427760698954
 31
0.0
  0
LINE
  5
7CFD
330
824D
100
AcDbEntity
  8
1
100
AcDbLine
 10
1206.901512152148
 20
4984.427760698952
 30
0.0
 11
1206.901512152148
 21
5094.427760698954
 31
0.0
  0
LINE
  5
7CFE
330
824D
100
AcDbEntity
  8
1
100
AcDbLine
 10
968.9015121521476
 20
4984.427760698953
 30
0.0
 11
968.9015121521476
 21
5094.427760698954
 31
0.0
  0
LINE
  5
7CFF
330
824D
100
AcDbEntity
  8
1
100
AcDbLine
 10
1944.701512152148
 20
5094.427760698954
 30
0.0
 11
2351.101512152147
 21
5094.427760698954
 31
0.0
  0
LINE
  5
7D00
330
824D
100
AcDbEntity
  8
1
100
AcDbLine
 10
1944.701512152148
 20
4984.427760698953
 30
0.0
 11
2351.101512152147
 21
4984.427760698952
 31
0.0
  0
LINE
  5
7D01
330
824D
100
AcDbEntity
  8
1
100
AcDbLine
 10
2767.90151215215
 20
5174.427760698954
 30
0.0
 11
2767.90151215215
 21
6374.427760698953
 31
0.0
  0
LINE
  5
7D02
330
824D
100
AcDbEntity
  8
1
100
AcDbLine
 10
1370.901512152149
 20
5214.427760698953
 30
0.0
 11
1370.901512152149
 21
6334.427760698954
 31
0.0
  0
LINE
  5
7D03
330
824D
100
AcDbEntity
  8
1
100
AcDbLine
 10
1370.901512152149
 20
6334.427760698953
 30
0.0
 11
2767.90151215215
 21
6334.427760698953
 31
0.0
  0
LINE
  5
7D04
330
824D
100
AcDbEntity
  8
1
100
AcDbLine
 10
1370.901512152149
 20
5214.427760698953
 30
0.0
 11
2767.90151215215
 21
5214.427760698953
 31
0.0
  0
LINE
  5
7D05
330
824D
100
AcDbEntity
  8
1
100
AcDbLine
 10
905.4015121521498
 20
5660.927760698953
 30
0.0
 11
1270.401512152149
 21
5660.927760698957
 31
0.0
  0
LINE
  5
7D06
330
824D
100
AcDbEntity
  8
1
100
AcDbLine
 10
1270.401512152149
 20
5099.427760698953
 30
0.0
 11
1270.401512152149
 21
5660.927760698953
 31
0.0
  0
LINE
  5
7D07
330
824D
100
AcDbEntity
  8
1
100
AcDbLine
 10
905.4015121521498
 20
5099.427760698953
 30
0.0
 11
905.4015121521498
 21
5660.927760698953
 31
0.0
  0
LINE
  5
7D08
330
824D
100
AcDbEntity
  8
1
100
AcDbLine
 10
905.4015121521498
 20
5099.427760698953
 30
0.0
 11
1270.401512152149
 21
5099.427760698955
 31
0.0
  0
LINE
  5
7D09
330
824D
100
AcDbEntity
  8
1
100
AcDbLine
 10
1111.901512152149
 20
5094.427760698954
 30
0.0
 11
1111.901512152149
 21
5099.427760698953
 31
0.0
  0
LINE
  5
7D0A
330
824D
100
AcDbEntity
  8
1
100
AcDbLine
 10
1063.901512152149
 20
5094.427760698954
 30
0.0
 11
1063.901512152149
 21
5099.427760698953
 31
0.0
  0
LINE
  5
7D0B
330
824D
100
AcDbEntity
  8
1
100
AcDbLine
 10
2177.901512152149
 20
5094.427760698954
 30
0.0
 11
2177.901512152149
 21
5214.427760698953
 31
0.0
  0
LINE
  5
7D0C
330
824D
100
AcDbEntity
  8
1
100
AcDbLine
 10
2117.901512152149
 20
5094.427760698954
 30
0.0
 11
2117.901512152149
 21
5214.427760698953
 31
0.0
  0
LINE
  5
7D0D
330
824D
100
AcDbEntity
  8
1
100
AcDbLine
 10
4049.890847887127
 20
2752.733310273391
 30
0.0
 11
4202.890847887129
 21
2752.733310273391
 31
0.0
  0
LINE
  5
7D0E
330
824D
100
AcDbEntity
  8
1
100
AcDbLine
 10
4049.890847887127
 20
2387.733310273391
 30
0.0
 11
4202.890847887129
 21
2387.733310273391
 31
0.0
  0
LINE
  5
7D0F
330
824D
100
AcDbEntity
  8
1
100
AcDbLine
 10
4049.890847887127
 20
2752.73331027339
 30
0.0
 11
4049.890847887127
 21
2387.733310273391
 31
0.0
  0
LINE
  5
7D10
330
824D
100
AcDbEntity
  8
1
100
AcDbLine
 10
4044.890847887127
 20
2594.23331027339
 30
0.0
 11
4049.890847887127
 21
2594.23331027339
 31
0.0
  0
LINE
  5
7D11
330
824D
100
AcDbEntity
  8
1
100
AcDbLine
 10
4044.890847887127
 20
2546.23331027339
 30
0.0
 11
4049.890847887127
 21
2546.23331027339
 31
0.0
  0
LINE
  5
7D18
330
824D
100
AcDbEntity
  8
1
100
AcDbLine
 10
2707.901512152149
 20
6334.427760698953
 30
0.0
 11
2707.901512152149
 21
6387.427760698953
 31
0.0
  0
LINE
  5
7D19
330
824D
100
AcDbEntity
  8
1
100
AcDbLine
 10
1979.203918011536
 20
3518.708413430697
 30
0.0
 11
955.3534024702388
 21
2745.82089132556
 31
0.0
  0
LINE
  5
7D1A
330
824D
100
AcDbEntity
  8
1
100
AcDbLine
 10
2295.003508360397
 20
3056.987633058569
 30
0.0
 11
1203.481652030058
 21
2383.040278176031
 31
0.0
  0
LINE
  5
7D1B
330
824D
100
AcDbEntity
  8
1
100
AcDbLine
 10
2022.436252824562
 20
3455.072944600619
 30
0.0
 11
1014.425302211288
 21
2663.840182738645
 31
0.0
  0
LINE
  5
7D1C
330
824D
100
AcDbEntity
  8
1
100
AcDbLine
 10
2251.373403200692
 20
3120.351041981725
 30
0.0
 11
1148.497747559514
 21
2467.817021263999
 31
0.0
  0
DIMENSION
  5
7D1D
330
824D
100
AcDbEntity
  8
3
100
AcDbDimension
  2
*D16
 10
2147.901512152148
 20
4204.126846417155
 30
0.0
 11
2457.901512152147
 21
4264.126846417155
 31
0.0
 12
1490.255412532223
 22
3015.055214858927
 32
0.0
 71
     5
 42
-1.0
  3
Standard
100
AcDbAlignedDimension
 13
2767.901512152148
 23
3301.73331027339
 33
0.0
 14
2147.901512152148
 24
3985.320184906001
 34
0.0
100
AcDbRotatedDimension
1001
ACAD
1000
DSTYLE
1002
{
1070
    40
1040
30.0
1002
}
  0
DIMENSION
  5
7D1F
330
824D
100
AcDbEntity
  8
3
100
AcDbDimension
  2
*D18
 10
837.9015121521499
 20
4400.298336047845
 30
0.0
 11
1802.901512152148
 21
4460.298336047848
 31
0.0
 12
1490.255412532223
 22
3015.055214858927
 32
0.0
 71
     5
 42
-1.0
  3
Standard
100
AcDbAlignedDimension
 13
2767.901512152148
 23
3259.233310273391
 33
0.0
 14
837.9015121521499
 24
2295.233310273389
 34
0.0
100
AcDbRotatedDimension
1001
ACAD
1000
DSTYLE
1002
{
1070
    40
1040
30.0
1002
}
  0
DIMENSION
  5
7D20
330
824D
100
AcDbEntity
  8
3
100
AcDbDimension
  2
*D19
 10
3259.585489877208
 20
3295.233310273391
 30
0.0
 11
3199.585489877208
 21
3616.733310273391
 31
0.0
 12
1490.255412532223
 22
3015.055214858927
 32
0.0
 71
     5
 42
-1.0
  3
Standard
100
AcDbAlignedDimension
 13
2080.901512152148
 23
3938.233310273391
 33
0.0
 14
2834.156850930694
 24
3295.233310273391
 34
0.0
 50
90.0
100
AcDbRotatedDimension
1001
ACAD
1000
DSTYLE
1002
{
1070
    40
1040
30.0
1002
}
  0
DIMENSION
  5
7D23
330
824D
100
AcDbEntity
  8
3
100
AcDbDimension
  2
*D21
 10
3259.585489877208
 20
2068.233310273389
 30
0.0
 11
3184.585489877208
 21
1811.090453130533
 31
0.0
 71
     5
 42
-1.0
  3
Standard
100
AcDbAlignedDimension
 13
2707.901512152149
 23
2168.23331027339
 33
0.0
 14
2707.901512152149
 24
2068.23331027339
 34
0.0
 50
90.0
100
AcDbRotatedDimension
1001
ACAD
1000
DSTYLE
1002
{
1070
   287
1070
     3
1070
   287
1070
     3
1070
    40
1040
30.0
1070
   143
1040
0.039
1070
   172
1070
     1
1070
   271
1070
     0
1070
   279
1070
     0
1070
   288
1070
     1
1070
     6
1000
DOT
1002
}
  0
LINE
  5
7D25
330
824D
100
AcDbEntity
  8
1
100
AcDbLine
 10
4202.890847887129
 20
2334.233310273389
 30
0.0
 11
5322.890847887129
 21
2334.233310273389
 31
0.0
  0
LINE
  5
7D26
330
824D
100
AcDbEntity
  8
1
100
AcDbLine
 10
4202.890847887129
 20
3259.233310273391
 30
0.0
 11
5322.890847887129
 21
3259.233310273391
 31
0.0
  0
LINE
  5
7D27
330
824D
100
AcDbEntity
  8
1
100
AcDbLine
 10
5322.890847887129
 20
3259.233310273391
 30
0.0
 11
4202.890847887129
 21
2334.233310273389
 31
0.0
  0
LINE
  5
7D28
330
824D
100
AcDbEntity
  8
1
100
AcDbLine
 10
4202.890847887129
 20
3259.233310273391
 30
0.0
 11
5322.890847887129
 21
2334.233310273389
 31
0.0
  0
LINE
  5
7D29
330
824D
100
AcDbEntity
  8
1
100
AcDbLine
 10
2764.90151215215
 20
6374.427760698953
 30
0.0
 11
2767.90151215215
 21
6374.427760698953
 31
0.0
  0
LINE
  5
7D2A
330
824D
100
AcDbEntity
  8
1
100
AcDbLine
 10
2764.90151215215
 20
5174.427760698954
 30
0.0
 11
2767.90151215215
 21
5174.427760698954
 31
0.0
  0
LINE
  5
7D2B
330
824D
100
AcDbEntity
  8
1
100
AcDbLine
 10
2764.90151215215
 20
5174.427760698954
 30
0.0
 11
2764.90151215215
 21
6374.427760698953
 31
0.0
  0
LINE
  5
7F83
330
824D
100
AcDbEntity
  8
4
100
AcDbLine
 10
5550.0
 20
1500.0
 30
0.0
 11
5550.0
 21
900.0
 31
0.0
  0
LINE
  5
7F84
330
824D
100
AcDbEntity
  8
4
100
AcDbLine
 10
3450.0
 20
1500.0
 30
0.0
 11
3450.0
 21
900.0
 31
0.0
  0
LINE
  5
7F85
330
824D
100
AcDbEntity
  8
4
100
AcDbLine
 10
1950.0
 20
1500.0
 30
0.0
 11
1950.0
 21
900.0
 31
0.0
  0
LINE
  5
7F88
330
824D
100
AcDbEntity
  8
4
100
AcDbLine
 10
1950.0
 20
900.0
 30
0.0
 11
5550.0
 21
900.0
 31
0.0
  0
LINE
  5
7F89
330
824D
100
AcDbEntity
  8
4
100
AcDbLine
 10
1950.0
 20
1200.0
 30
0.0
 11
5550.0
 21
1200.0
 31
0.0
  0
TEXT
  5
7F8A
330
824D
100
AcDbEntity
  8
4
100
AcDbText
 10
2065.506242540704
 20
1294.629077599838
 30
0.0
 40
150.0
  1
機器名称
100
AcDbText
  0
TEXT
  5
7F8B
330
824D
100
AcDbEntity
  8
4
100
AcDbText
 10
2058.774318074392
 20
964.9354701960326
 30
0.0
 40
150.0
  1
機器型番
100
AcDbText
  0
TEXT
  5
7F8C
330
824D
100
AcDbEntity
  8
4
100
AcDbText
 10
3533.036236462995
 20
1267.715306872705
 30
0.0
 40
150.0
  1
ミツヤ多翼送風機
100
AcDbText
  0
TEXT
  5
7F8D
330
824D
100
AcDbEntity
  8
4
100
AcDbText
 10
3559.963486756442
 20
951.4787528398301
 30
0.0
 40
150.0
  1
MF#5 1/2-5
100
AcDbText
  0
TEXT
  5
7F8F
330
824D
100
AcDbEntity
  8
4
100
AcDbText
 10
2381.689729328609
 20
7150.286523997547
 30
0.0
 40
161.9999999999998
  1
床置防振ベット
100
AcDbText
  0
TEXT
  5
7F90
330
824D
100
AcDbEntity
  8
4
100
AcDbText
 10
948.5027799883393
 20
7601.642928597894
 30
0.0
 40
216.0
  1
遠心式両吸込両持多翼ファン
100
AcDbText
  0
LINE
  5
7F91
330
824D
100
AcDbEntity
  8
4
100
AcDbLine
 10
750.0
 20
7408.226262794413
 30
0.0
 11
5550.0
 21
7408.226262794413
 31
0.0
  0
LINE
  5
7F92
330
824D
100
AcDbEntity
  8
4
100
AcDbLine
 10
750.0
 20
8008.226262794414
 30
0.0
 11
5550.0
 21
8008.226262794414
 31
0.0
  0
LINE
  5
7F93
330
824D
100
AcDbEntity
  8
4
100
AcDbLine
 10
1950.0
 20
1500.0
 30
0.0
 11
5550.0
 21
1500.0
 31
0.0
  0
LINE
  5
7F94
330
824D
100
AcDbEntity
  8
4
100
AcDbLine
 10
750.0
 20
8008.226262794414
 30
0.0
 11
750.0
 21
7408.226262794413
 31
0.0
  0
TEXT
  5
7F95
330
824D
100
AcDbEntity
  8
4
100
AcDbText
 10
1074.113232600502
 20
7146.958432639029
 30
0.0
 40
161.9999999999998
  1
左回転右横向
100
AcDbText
  0
TEXT
  5
7F96
330
824D
100
AcDbEntity
  8
4
100
AcDbText
 10
4406.908677747869
 20
8118.183244485924
 30
0.0
 40
168.0
  1
No.
100
AcDbText
  0
TEXT
  5
7F97
330
824D
100
AcDbEntity
  8
4
100
AcDbText
 10
3933.888187800039
 20
7150.286523997547
 30
0.0
 40
161.9999999999998
  1
縮尺：1/30
100
AcDbText
  0
LINE
  5
7F98
330
824D
100
AcDbEntity
  8
4
100
AcDbLine
 10
5550.0
 20
8008.226262794414
 30
0.0
 11
5550.0
 21
7408.226262794413
 31
0.0
  0
LINE
  5
7F99
330
824D
100
AcDbEntity
  8
4
100
AcDbLine
 10
6300.0
 20
8850.0
 30
0.0
 11
6300.0
 21
8850.0
 31
0.0
  0
LINE
  5
7F9A
330
824D
100
AcDbEntity
  8
4
100
AcDbLine
 10
4321.852267079594
 20
8043.790749376205
 30
0.0
 11
4321.852267079594
 21
8359.956784649257
 31
0.0
  0
LINE
  5
7F9B
330
824D
100
AcDbEntity
  8
4
100
AcDbLine
 10
4321.852267079594
 20
8359.956784649257
 30
0.0
 11
5550.0
 21
8359.956784649257
 31
0.0
  0
LINE
  5
7F9C
330
824D
100
AcDbEntity
  8
4
100
AcDbLine
 10
5550.0
 20
8359.956784649257
 30
0.0
 11
5550.0
 21
8043.790749376205
 31
0.0
  0
LINE
  5
7F9D
330
824D
100
AcDbEntity
  8
4
100
AcDbLine
 10
5550.0
 20
8043.790749376205
 30
0.0
 11
4321.852267079594
 21
8043.790749376205
 31
0.0
  0
LINE
  5
7F9E
330
824D
100
AcDbEntity
  8
4
100
AcDbLine
 10
0.0
 20
0.0
 30
0.0
 11
0.0
 21
8850.0
 31
0.0
  0
LINE
  5
7F9F
330
824D
100
AcDbEntity
  8
4
100
AcDbLine
 10
0.0
 20
8850.0
 30
0.0
 11
6300.0
 21
8850.0
 31
0.0
  0
LINE
  5
7FA0
330
824D
100
AcDbEntity
  8
4
100
AcDbLine
 10
6300.0
 20
8850.0
 30
0.0
 11
6300.0
 21
0.0
 31
0.0
  0
LINE
  5
7FA1
330
824D
100
AcDbEntity
  8
4
100
AcDbLine
 10
6300.0
 20
0.0
 30
0.0
 11
0.0
 21
0.0
 31
0.0
  0
DIMENSION
  5
80F0
330
824D
100
AcDbEntity
  8
3
100
AcDbDimension
  2
*D23
 10
2147.901512152148
 20
1875.490397878904
 30
0.0
 11
1492.901512152148
 21
1950.490397878904
 31
0.0
 71
     5
 42
-1.0
  3
Standard
100
AcDbAlignedDimension
 13
837.9015121521478
 23
2068.23331027339
 33
0.0
 14
2147.901512152148
 24
2068.23331027339
 34
0.0
100
AcDbRotatedDimension
1001
ACAD
1000
DSTYLE
1002
{
1070
   172
1070
     1
1070
    40
1040
30.0
1070
    42
1040
1.0
1070
   271
1070
     0
1070
   143
1040
0.039
1002
}
  0
DIMENSION
  5
80FD
330
824D
100
AcDbEntity
  8
3
100
AcDbDimension
  2
*D24
 10
2707.901512152149
 20
1875.490397878904
 30
0.0
 11
2427.901512152148
 21
1950.490397878904
 31
0.0
 71
     5
 42
-1.0
  3
Standard
100
AcDbAlignedDimension
 13
2147.901512152148
 23
2068.23331027339
 33
0.0
 14
2707.901512152149
 24
2068.23331027339
 34
0.0
100
AcDbRotatedDimension
1001
ACAD
1000
DSTYLE
1002
{
1070
   172
1070
     1
1070
    40
1040
30.0
1070
    42
1040
1.0
1070
   271
1070
     0
1070
   143
1040
0.039
1002
}
  0
DIMENSION
  5
810A
330
824D
100
AcDbEntity
  8
3
100
AcDbDimension
  2
*D25
 10
4762.890847887128
 20
1875.490397878904
 30
0.0
 11
4381.890847887129
 21
1950.490397878904
 31
0.0
 71
     5
 42
-1.0
  3
Standard
100
AcDbAlignedDimension
 13
4000.890847887129
 23
2068.23331027339
 33
0.0
 14
4762.890847887128
 24
2068.233310273389
 34
0.0
100
AcDbRotatedDimension
1001
ACAD
1000
DSTYLE
1002
{
1070
   172
1070
     1
1070
    40
1040
30.0
1070
    42
1040
1.0
1070
   271
1070
     0
1070
   143
1040
0.039
1002
}
  0
DIMENSION
  5
8117
330
824D
100
AcDbEntity
  8
3
100
AcDbDimension
  2
*D26
 10
5375.890847887129
 20
1875.490397878904
 30
0.0
 11
5069.390847887129
 21
1950.490397878904
 31
0.0
 71
     5
 42
-1.0
  3
Standard
100
AcDbAlignedDimension
 13
4762.890847887128
 23
2068.233310273389
 33
0.0
 14
5375.890847887129
 24
2068.23331027339
 34
0.0
100
AcDbRotatedDimension
1001
ACAD
1000
DSTYLE
1002
{
1070
   172
1070
     1
1070
    40
1040
30.0
1070
    42
1040
1.0
1070
   271
1070
     0
1070
   143
1040
0.039
1002
}
  0
DIMENSION
  5
8126
330
824D
100
AcDbEntity
  8
3
100
AcDbDimension
  2
*D28
 10
3257.155668567127
 20
2195.23331027339
 30
0.0
 11
3400.727097138556
 21
2181.73331027339
 31
0.0
  1
 <>
 71
     5
 42
-1.0
  3
Standard
100
AcDbAlignedDimension
 13
2707.901512152149
 23
2168.23331027339
 33
0.0
 14
2707.901512152147
 24
2195.23331027339
 34
0.0
 50
90.0
100
AcDbRotatedDimension
1001
ACAD
1000
DSTYLE
1002
{
1070
   172
1070
     1
1070
    76
1070
     1
1070
    75
1070
     1
1070
    40
1040
30.0
1070
     3
1000
(<>)
1070
    42
1040
1.0
1070
   271
1070
     0
1070
     7
1000
_NONE
1070
     6
1000
_NONE
1070
   143
1040
0.039
1002
}
  0
DIMENSION
  5
8133
330
824D
100
AcDbEntity
  8
3
100
AcDbDimension
  2
*D29
 10
3499.651041399429
 20
3938.233310273391
 30
0.0
 11
3401.079612828
 21
3003.23331027339
 31
0.0
 71
     5
 42
-1.0
  3
Standard
100
AcDbAlignedDimension
 13
2707.901512152149
 23
2068.23331027339
 33
0.0
 14
2110.901512152147
 24
3938.233310273391
 34
0.0
 50
90.0
100
AcDbRotatedDimension
1001
ACAD
1000
DSTYLE
1002
{
1070
   172
1070
     1
1070
    40
1040
30.0
1070
     3
1000
(<>)
1070
    42
1040
1.0
1070
   271
1070
     0
1070
   143
1040
0.039
1002
}
  0
DIMENSION
  5
829A
330
824D
100
AcDbEntity
  8
3
100
AcDbDimension
  2
*D30
 10
4762.89084788713
 20
4371.557236320696
 30
0.0
 11
4287.890847887129
 21
4470.128664892124
 31
0.0
 70
    32
 71
     5
 42
950.0000000000026
  3
IGA
100
AcDbAlignedDimension
 13
3812.890847887127
 23
3575.233310273389
 33
0.0
 14
4762.89084788713
 24
4236.425263807017
 34
0.0
100
AcDbRotatedDimension
1001
ACAD
1000
DSTYLE
1002
{
1070
     3
1000
(<>)
1070
    40
1040
30.0
1070
    42
1040
1.0
1070
   143
1040
0.039
1070
   172
1070
     1
1070
   271
1070
     4
1070
   272
1070
     4
1070
   279
1070
     0
1070
   284
1070
     0
1070
   285
1070
     0
1070
   286
1070
     0
1070
   341
1005
8261
1070
   343
1005
8261
1070
   344
1005
8261
1002
}
  0
DIMENSION
  5
82A7
330
824D
100
AcDbEntity
  8
3
100
AcDbDimension
  2
*D31
 10
5442.890847887127
 20
4371.557236320696
 30
0.0
 11
5102.890847887129
 21
4470.128664892124
 31
0.0
 70
    32
 71
     5
 42
679.9999999999982
  3
IGA
100
AcDbAlignedDimension
 13
4762.89084788713
 23
4236.425263807017
 33
0.0
 14
5442.890847887127
 24
3255.73331027339
 34
0.0
100
AcDbRotatedDimension
1001
ACAD
1000
DSTYLE
1002
{
1070
     3
1000
(<>)
1070
    40
1040
30.0
1070
    42
1040
1.0
1070
   143
1040
0.039
1070
   172
1070
     1
1070
   271
1070
     4
1070
   272
1070
     4
1070
   279
1070
     1
1070
   284
1070
     0
1070
   285
1070
     0
1070
   286
1070
     0
1070
   341
1005
8261
1070
   343
1005
8261
1070
   344
1005
8261
1002
}
  0
DIMENSION
  5
82E8
330
824D
100
AcDbEntity
  8
3
100
AcDbDimension
  2
*D33
 10
2707.901512152149
 20
4624.183642941789
 30
0.0
 11
1772.901512152149
 21
4699.183642941789
 31
0.0
 70
    32
 71
     5
 42
1870.0
  3
IGA
100
AcDbAlignedDimension
 13
837.9015121521486
 23
5012.427760698954
 33
0.0
 14
2707.901512152149
 24
5012.427760698954
 34
0.0
100
AcDbRotatedDimension
1001
ACAD
1000
DSTYLE
1002
{
1070
    40
1040
30.0
1070
    42
1040
1.0
1070
   143
1040
0.039
1070
   172
1070
     1
1070
   271
1070
     4
1070
   272
1070
     4
1070
   279
1070
     0
1070
   284
1070
     0
1070
   285
1070
     0
1070
   286
1070
     0
1070
   341
1005
8261
1070
   343
1005
8261
1070
   344
1005
8261
1002
}
  0
DIMENSION
  5
82F5
330
824D
100
AcDbEntity
  8
3
100
AcDbDimension
  2
*D34
 10
1370.901512152148
 20
4204.126846417155
 30
0.0
 11
1759.401512152148
 21
4279.126846417155
 31
0.0
 70
    32
 71
     5
 42
777.0
  3
IGA
100
AcDbAlignedDimension
 13
2147.901512152148
 23
3985.320184906001
 33
0.0
 14
1370.901512152148
 24
3228.23331027339
 34
0.0
100
AcDbRotatedDimension
1001
ACAD
1000
DSTYLE
1002
{
1070
    40
1040
30.0
1070
    42
1040
1.0
1070
   143
1040
0.039
1070
   172
1070
     1
1070
   271
1070
     4
1070
   272
1070
     4
1070
   279
1070
     0
1070
   284
1070
     0
1070
   285
1070
     0
1070
   286
1070
     0
1070
   341
1005
8261
1070
   343
1005
8261
1070
   344
1005
8261
1002
}
  0
DIMENSION
  5
830B
330
824D
100
AcDbEntity
  8
3
100
AcDbDimension
  2
*D35
 10
3257.155668567127
 20
2195.23331027339
 30
0.0
 11
3182.155668567127
 21
2745.233310273391
 31
0.0
 70
    32
 71
     5
 42
1100.0
  3
IGA
100
AcDbAlignedDimension
 13
2804.156850930694
 23
3295.233310273391
 33
0.0
 14
2707.901512152149
 24
2195.23331027339
 34
0.0
 50
90.0
100
AcDbRotatedDimension
1001
ACAD
1000
DSTYLE
1002
{
1070
    40
1040
30.0
1070
    42
1040
1.0
1070
   143
1040
0.039
1070
   172
1070
     1
1070
   271
1070
     4
1070
   272
1070
     4
1070
   279
1070
     0
1070
   284
1070
     0
1070
   285
1070
     0
1070
   286
1070
     0
1070
   341
1005
8261
1070
   343
1005
8261
1070
   344
1005
8261
1002
}
  0
ENDSEC
  0
SECTION
  2
OBJECTS
  0
DICTIONARY
  5
81EA
330
0
100
AcDbDictionary
281
     1
  3
ACAD_CIP_PREVIOUS_PRODUCT_INFO
350
8299
  3
ACAD_COLOR
350
8240
  3
ACAD_DETAILVIEWSTYLE
350
8247
  3
ACAD_GROUP
350
81EB
  3
ACAD_LAYOUT
350
823F
  3
ACAD_MATERIAL
350
81EE
  3
ACAD_MLEADERSTYLE
350
8243
  3
ACAD_MLINESTYLE
350
823C
  3
ACAD_PLOTSETTINGS
350
823E
  3
ACAD_PLOTSTYLENAME
350
81EC
  3
ACAD_SCALELIST
350
8220
  3
ACAD_SECTIONVIEWSTYLE
350
8245
  3
ACAD_TABLESTYLE
350
8241
  3
ACAD_VISUALSTYLE
350
8207
  3
ACDB_RECOMPOSE_DATA
350
8338
  3
AcDbVariableDictionary
350
832B
  3
DWGPROPS
350
8339
  0
DICTIONARY
  5
8321
330
8232
100
AcDbDictionary
280
     1
281
     1
  3
ADSK_XREC_LAYER_RECONCILED
360
8322
  0
DICTIONARY
  5
8323
330
8251
100
AcDbDictionary
280
     1
281
     1
  3
ADSK_XREC_LAYER_RECONCILED
360
8324
  0
DICTIONARY
  5
8325
330
8254
100
AcDbDictionary
280
     1
281
     1
  3
ADSK_XREC_LAYER_RECONCILED
360
8326
  0
DICTIONARY
  5
8327
330
8255
100
AcDbDictionary
280
     1
281
     1
  3
ADSK_XREC_LAYER_RECONCILED
360
8328
  0
DICTIONARY
  5
8329
330
8256
100
AcDbDictionary
280
     1
281
     1
  3
ADSK_XREC_LAYER_RECONCILED
360
832A
  0
XRECORD
  5
8299
102
{ACAD_REACTORS
330
81EA
102
}
330
81EA
100
AcDbXrecord
280
     1
300
ACDLT
300
2015
300
INVLTS_F_S
  0
DICTIONARY
  5
8240
102
{ACAD_REACTORS
330
81EA
102
}
330
81EA
100
AcDbDictionary
281
     1
  0
DICTIONARY
  5
8247
102
{ACAD_REACTORS
330
81EA
102
}
330
81EA
100
AcDbDictionary
281
     1
  3
Imperial24
350
8248
  0
DICTIONARY
  5
81EB
102
{ACAD_REACTORS
330
81EA
102
}
330
81EA
100
AcDbDictionary
281
     1
  0
DICTIONARY
  5
823F
102
{ACAD_REACTORS
330
81EA
102
}
330
81EA
100
AcDbDictionary
281
     1
  3
Model
350
8250
  3
レイアウト1
350
824C
  0
DICTIONARY
  5
81EE
102
{ACAD_REACTORS
330
81EA
102
}
330
81EA
100
AcDbDictionary
281
     1
  3
ByBlock
350
81F7
  3
ByLayer
350
81EF
  3
Global
350
81FF
  0
DICTIONARY
  5
8243
102
{ACAD_REACTORS
330
81EA
102
}
330
81EA
100
AcDbDictionary
281
     1
  3
Standard
350
8244
  0
DICTIONARY
  5
823C
102
{ACAD_REACTORS
330
81EA
102
}
330
81EA
100
AcDbDictionary
281
     1
  3
Standard
350
823D
  0
DICTIONARY
  5
823E
102
{ACAD_REACTORS
330
81EA
102
}
330
81EA
100
AcDbDictionary
281
     1
  0
ACDBDICTIONARYWDFLT
  5
81EC
102
{ACAD_REACTORS
330
81EA
102
}
330
81EA
100
AcDbDictionary
281
     1
  3
Normal
350
81ED
100
AcDbDictionaryWithDefault
340
81ED
  0
DICTIONARY
  5
8220
102
{ACAD_REACTORS
330
81EA
102
}
330
81EA
100
AcDbDictionary
281
     1
  3
A0
350
8221
  3
A1
350
8222
  3
A2
350
8223
  3
A3
350
8224
  3
A4
350
8225
  3
A5
350
8226
  3
A6
350
8227
  3
A7
350
8228
  3
A8
350
8229
  3
A9
350
822A
  3
B0
350
822B
  3
B1
350
822C
  3
B2
350
822D
  3
B3
350
822E
  3
B4
350
822F
  3
B5
350
8230
  3
B6
350
8231
  0
DICTIONARY
  5
8245
102
{ACAD_REACTORS
330
81EA
102
}
330
81EA
100
AcDbDictionary
281
     1
  3
Imperial24
350
8246
  0
DICTIONARY
  5
8241
102
{ACAD_REACTORS
330
81EA
102
}
330
81EA
100
AcDbDictionary
281
     1
  3
Standard
350
8242
  0
DICTIONARY
  5
8207
102
{ACAD_REACTORS
330
81EA
102
}
330
81EA
100
AcDbDictionary
281
     1
  3
2dWireframe
350
820D
  3
Basic
350
820C
  3
Brighten
350
8213
  3
ColorChange
350
8217
  3
Conceptual
350
8210
  3
Dim
350
8212
  3
EdgeColorOff
350
821F
  3
Facepattern
350
8216
  3
Flat
350
8208
  3
FlatWithEdges
350
8209
  3
Gouraud
350
820A
  3
GouraudWithEdges
350
820B
  3
Hidden
350
820F
  3
JitterOff
350
821D
  3
Linepattern
350
8215
  3
OverhangOff
350
821E
  3
Realistic
350
8211
  3
Shaded
350
821C
  3
Shaded with edges
350
821B
  3
Shades of Gray
350
8218
  3
Sketchy
350
8219
  3
Thicken
350
8214
  3
Wireframe
350
820E
  3
X-Ray
350
821A
  0
XRECORD
  5
8338
102
{ACAD_REACTORS
330
81EA
102
}
330
81EA
100
AcDbXrecord
280
     1
 90
        1
330
8242
  0
DICTIONARY
  5
832B
102
{ACAD_REACTORS
330
81EA
102
}
330
81EA
100
AcDbDictionary
281
     1
  3
CANNOSCALE
350
8330
  3
CMLEADERSTYLE
350
832D
  3
CTABLESTYLE
350
832C
  3
CVIEWDETAILSTYLE
350
832E
  3
CVIEWSECTIONSTYLE
350
832F
  3
DIMASSOC
350
8333
  3
INDEXCTL
350
8332
  3
SORTENTS
350
8331
  3
XCLIPFRAME
350
8334
  0
XRECORD
  5
8339
102
{ACAD_REACTORS
330
81EA
102
}
330
81EA
100
AcDbXrecord
280
     1
  1
DWGPROPS COOKIE
  2

  3

  4

  6

  7

  8
yasukiyo.ogawa
  9

300
=
301
=
302
=
303
=
304
=
305
=
306
=
307
=
308
=
309
=
 40
0.0131862847222222
 41
2451389.542895833
 42
2460269.586309144
  1

 90
        0
  0
XRECORD
  5
8322
102
{ACAD_REACTORS
330
8321
102
}
330
8321
100
AcDbXrecord
280
     1
290
     1
  0
XRECORD
  5
8324
102
{ACAD_REACTORS
330
8323
102
}
330
8323
100
AcDbXrecord
280
     1
290
     1
  0
XRECORD
  5
8326
102
{ACAD_REACTORS
330
8325
102
}
330
8325
100
AcDbXrecord
280
     1
290
     1
  0
XRECORD
  5
8328
102
{ACAD_REACTORS
330
8327
102
}
330
8327
100
AcDbXrecord
280
     1
290
     1
  0
XRECORD
  5
832A
102
{ACAD_REACTORS
330
8329
102
}
330
8329
100
AcDbXrecord
280
     1
290
     1
  0
ACDBDETAILVIEWSTYLE
  5
8248
102
{ACAD_XDICTIONARY
360
8371
102
}
102
{ACAD_REACTORS
330
8247
102
}
330
8247
100
AcDbModelDocViewStyle
 70
     0
  3
Imperial24
290
     0
100
AcDbDetailViewStyle
 70
     0
 71
     0
 90
        3
 71
     1
340
8233
 40
0.24
340
0
 40
0.24
300

 40
0.36
280
     3
 71
     2
340
823A
 90
       25
 71
     3
340
8233
 40
0.24
 90
        1
 40
0.75
 90
        1
300
%<\AcVar ViewType \f "%tc1">% %<\AcVar ViewDetailId>%\PSCALE %<\AcVar ViewScale \f "%sn">%
 71
     4
340
823A
 90
       25
340
823A
 90
       25
280
     0
  0
LAYOUT
  5
8250
102
{ACAD_XDICTIONARY
360
8375
102
}
102
{ACAD_REACTORS
330
823F
102
}
330
823F
100
AcDbPlotSettings
  1

  2
RICOH imagio MP W3600 RPCS
  4

  6

 40
0.0
 41
0.0
 42
0.0
 43
0.0
 44
0.0
 45
0.0
 46
0.0
 47
0.0
 48
0.0
 49
0.0
140
0.0
141
0.0
142
1.0
143
1.0
 70
  1712
 72
     0
 73
     0
 74
     0
  7

 75
     0
147
1.0
148
0.0
149
0.0
100
AcDbLayout
  1
Model
 70
     1
 71
     0
 10
0.0
 20
0.0
 11
12.0
 21
9.0
 12
0.0
 22
0.0
 32
0.0
 14
0.0
 24
0.0
 34
0.0
 15
0.0
 25
0.0
 35
0.0
146
0.0
 13
0.0
 23
0.0
 33
0.0
 16
1.0
 26
0.0
 36
0.0
 17
0.0
 27
1.0
 37
0.0
 76
     0
330
824D
331
8252
  0
LAYOUT
  5
824C
102
{ACAD_XDICTIONARY
360
8373
102
}
102
{ACAD_REACTORS
330
823F
102
}
330
823F
100
AcDbPlotSettings
  1

  2
RICOH imagio MP W3600 RPCS
  4

  6

 40
0.0
 41
0.0
 42
0.0
 43
0.0
 44
0.0
 45
0.0
 46
0.0
 47
0.0
 48
0.0
 49
0.0
140
0.0
141
0.0
142
1.0
143
1.0
 70
   688
 72
     0
 73
     0
 74
     5
  7

 75
    16
147
1.0
148
0.0
149
0.0
100
AcDbLayout
  1
レイアウト1
 70
     1
 71
     1
 10
0.0
 20
0.0
 11
12.0
 21
9.0
 12
0.0
 22
0.0
 32
0.0
 14
1.000000000000000E+20
 24
1.000000000000000E+20
 34
1.000000000000000E+20
 15
-1.000000000000000E+20
 25
-1.000000000000000E+20
 35
-1.000000000000000E+20
146
0.0
 13
0.0
 23
0.0
 33
0.0
 16
1.0
 26
0.0
 36
0.0
 17
0.0
 27
1.0
 37
0.0
 76
     0
330
8249
  0
MATERIAL
  5
81F7
102
{ACAD_XDICTIONARY
360
81F8
102
}
102
{ACAD_REACTORS
330
81EE
102
}
330
81EE
100
AcDbMaterial
  1
ByBlock
 72
     0
 43
0.0208333333333333
 43
0.0
 43
0.0
 43
0.0
 43
0.0
 43
0.0208333333333333
 43
0.0
 43
0.0
 43
0.0
 43
0.0
 43
1.0
 43
0.0
 43
0.0
 43
0.0
 43
0.0
 43
1.0
 77
     0
 47
0.0208333333333333
 47
0.0
 47
0.0
 47
0.0
 47
0.0
 47
0.0208333333333333
 47
0.0
 47
0.0
 47
0.0
 47
0.0
 47
1.0
 47
0.0
 47
0.0
 47
0.0
 47
0.0
 47
1.0
171
     0
 49
0.0208333333333333
 49
0.0
 49
0.0
 49
0.0
 49
0.0
 49
0.0208333333333333
 49
0.0
 49
0.0
 49
0.0
 49
0.0
 49
1.0
 49
0.0
 49
0.0
 49
0.0
 49
0.0
 49
1.0
175
     0
142
0.0208333333333333
142
0.0
142
0.0
142
0.0
142
0.0
142
0.0208333333333333
142
0.0
142
0.0
142
0.0
142
0.0
142
1.0
142
0.0
142
0.0
142
0.0
142
0.0
142
1.0
179
     0
144
0.0208333333333333
144
0.0
144
0.0
144
0.0
144
0.0
144
0.0208333333333333
144
0.0
144
0.0
144
0.0
144
0.0
144
1.0
144
0.0
144
0.0
144
0.0
144
0.0
144
1.0
147
0.0208333333333333
147
0.0
147
0.0
147
0.0
147
0.0
147
0.0208333333333333
147
0.0
147
0.0
147
0.0
147
0.0
147
1.0
147
0.0
147
0.0
147
0.0
147
0.0
147
1.0
  0
MATERIAL
  5
81EF
102
{ACAD_XDICTIONARY
360
81F0
102
}
102
{ACAD_REACTORS
330
81EE
102
}
330
81EE
100
AcDbMaterial
  1
ByLayer
 72
     0
 43
0.0208333333333333
 43
0.0
 43
0.0
 43
0.0
 43
0.0
 43
0.0208333333333333
 43
0.0
 43
0.0
 43
0.0
 43
0.0
 43
1.0
 43
0.0
 43
0.0
 43
0.0
 43
0.0
 43
1.0
 77
     0
 47
0.0208333333333333
 47
0.0
 47
0.0
 47
0.0
 47
0.0
 47
0.0208333333333333
 47
0.0
 47
0.0
 47
0.0
 47
0.0
 47
1.0
 47
0.0
 47
0.0
 47
0.0
 47
0.0
 47
1.0
171
     0
 49
0.0208333333333333
 49
0.0
 49
0.0
 49
0.0
 49
0.0
 49
0.0208333333333333
 49
0.0
 49
0.0
 49
0.0
 49
0.0
 49
1.0
 49
0.0
 49
0.0
 49
0.0
 49
0.0
 49
1.0
175
     0
142
0.0208333333333333
142
0.0
142
0.0
142
0.0
142
0.0
142
0.0208333333333333
142
0.0
142
0.0
142
0.0
142
0.0
142
1.0
142
0.0
142
0.0
142
0.0
142
0.0
142
1.0
179
     0
144
0.0208333333333333
144
0.0
144
0.0
144
0.0
144
0.0
144
0.0208333333333333
144
0.0
144
0.0
144
0.0
144
0.0
144
1.0
144
0.0
144
0.0
144
0.0
144
0.0
144
1.0
147
0.0208333333333333
147
0.0
147
0.0
147
0.0
147
0.0
147
0.0208333333333333
147
0.0
147
0.0
147
0.0
147
0.0
147
1.0
147
0.0
147
0.0
147
0.0
147
0.0
147
1.0
  0
MATERIAL
  5
81FF
102
{ACAD_XDICTIONARY
360
8200
102
}
102
{ACAD_REACTORS
330
81EE
102
}
330
81EE
100
AcDbMaterial
  1
Global
 72
     0
 43
0.0208333333333333
 43
0.0
 43
0.0
 43
0.0
 43
0.0
 43
0.0208333333333333
 43
0.0
 43
0.0
 43
0.0
 43
0.0
 43
1.0
 43
0.0
 43
0.0
 43
0.0
 43
0.0
 43
1.0
 77
     0
 47
0.0208333333333333
 47
0.0
 47
0.0
 47
0.0
 47
0.0
 47
0.0208333333333333
 47
0.0
 47
0.0
 47
0.0
 47
0.0
 47
1.0
 47
0.0
 47
0.0
 47
0.0
 47
0.0
 47
1.0
171
     0
 49
0.0208333333333333
 49
0.0
 49
0.0
 49
0.0
 49
0.0
 49
0.0208333333333333
 49
0.0
 49
0.0
 49
0.0
 49
0.0
 49
1.0
 49
0.0
 49
0.0
 49
0.0
 49
0.0
 49
1.0
175
     0
142
0.0208333333333333
142
0.0
142
0.0
142
0.0
142
0.0
142
0.0208333333333333
142
0.0
142
0.0
142
0.0
142
0.0
142
1.0
142
0.0
142
0.0
142
0.0
142
0.0
142
1.0
179
     0
144
0.0208333333333333
144
0.0
144
0.0
144
0.0
144
0.0
144
0.0208333333333333
144
0.0
144
0.0
144
0.0
144
0.0
144
1.0
144
0.0
144
0.0
144
0.0
144
0.0
144
1.0
147
0.0208333333333333
147
0.0
147
0.0
147
0.0
147
0.0
147
0.0208333333333333
147
0.0
147
0.0
147
0.0
147
0.0
147
1.0
147
0.0
147
0.0
147
0.0
147
0.0
147
1.0
  0
MLEADERSTYLE
  5
8244
102
{ACAD_REACTORS
330
8243
102
}
330
8243
100
AcDbMLeaderStyle
170
     2
171
     1
172
     0
 90
        2
 40
0.0
 41
0.0
173
     1
 91
-1056964608
340
8238
 92
       -2
290
     1
 42
0.09
291
     1
 43
0.36
  3
Standard
 44
0.18
300

342
8233
174
     1
178
     6
175
     1
176
     0
 93
-1056964608
 45
0.18
292
     0
297
     0
 46
0.18
 94
-1056964608
 47
1.0
 49
1.0
140
1.0
293
     1
141
0.0
294
     1
177
     0
142
1.0
295
     0
296
     0
143
0.125
1001
ACAD_MLEADERVER
1070
     2
  0
MLINESTYLE
  5
823D
102
{ACAD_REACTORS
330
823C
102
}
330
823C
100
AcDbMlineStyle
  2
STANDARD
 70
     0
  3

 62
   256
 51
90.0
 52
90.0
 71
     2
 49
0.5
 62
   256
  6
BYLAYER
 49
-0.5
 62
   256
  6
BYLAYER
  0
ACDBPLACEHOLDER
  5
81ED
102
{ACAD_REACTORS
330
81EC
102
}
330
81EC
  0
SCALE
  5
8221
102
{ACAD_REACTORS
330
8220
102
}
330
8220
100
AcDbScale
 70
     0
300
1:1
140
1.0
141
1.0
290
     1
  0
SCALE
  5
8222
102
{ACAD_REACTORS
330
8220
102
}
330
8220
100
AcDbScale
 70
     0
300
1/128" = 1'-0"
140
0.0078125
141
12.0
290
     0
  0
SCALE
  5
8223
102
{ACAD_REACTORS
330
8220
102
}
330
8220
100
AcDbScale
 70
     0
300
1/64" = 1'-0"
140
0.015625
141
12.0
290
     0
  0
SCALE
  5
8224
102
{ACAD_REACTORS
330
8220
102
}
330
8220
100
AcDbScale
 70
     0
300
1/32" = 1'-0"
140
0.03125
141
12.0
290
     0
  0
SCALE
  5
8225
102
{ACAD_REACTORS
330
8220
102
}
330
8220
100
AcDbScale
 70
     0
300
1/16" = 1'-0"
140
0.0625
141
12.0
290
     0
  0
SCALE
  5
8226
102
{ACAD_REACTORS
330
8220
102
}
330
8220
100
AcDbScale
 70
     0
300
3/32" = 1'-0"
140
0.09375
141
12.0
290
     0
  0
SCALE
  5
8227
102
{ACAD_REACTORS
330
8220
102
}
330
8220
100
AcDbScale
 70
     0
300
1/8" = 1'-0"
140
0.125
141
12.0
290
     0
  0
SCALE
  5
8228
102
{ACAD_REACTORS
330
8220
102
}
330
8220
100
AcDbScale
 70
     0
300
3/16" = 1'-0"
140
0.1875
141
12.0
290
     0
  0
SCALE
  5
8229
102
{ACAD_REACTORS
330
8220
102
}
330
8220
100
AcDbScale
 70
     0
300
1/4" = 1'-0"
140
0.25
141
12.0
290
     0
  0
SCALE
  5
822A
102
{ACAD_REACTORS
330
8220
102
}
330
8220
100
AcDbScale
 70
     0
300
3/8" = 1'-0"
140
0.375
141
12.0
290
     0
  0
SCALE
  5
822B
102
{ACAD_REACTORS
330
8220
102
}
330
8220
100
AcDbScale
 70
     0
300
1/2" = 1'-0"
140
0.5
141
12.0
290
     0
  0
SCALE
  5
822C
102
{ACAD_REACTORS
330
8220
102
}
330
8220
100
AcDbScale
 70
     0
300
3/4" = 1'-0"
140
0.75
141
12.0
290
     0
  0
SCALE
  5
822D
102
{ACAD_REACTORS
330
8220
102
}
330
8220
100
AcDbScale
 70
     0
300
1" = 1'-0"
140
1.0
141
12.0
290
     0
  0
SCALE
  5
822E
102
{ACAD_REACTORS
330
8220
102
}
330
8220
100
AcDbScale
 70
     0
300
1-1/2" = 1'-0"
140
1.5
141
12.0
290
     0
  0
SCALE
  5
822F
102
{ACAD_REACTORS
330
8220
102
}
330
8220
100
AcDbScale
 70
     0
300
3" = 1'-0"
140
3.0
141
12.0
290
     0
  0
SCALE
  5
8230
102
{ACAD_REACTORS
330
8220
102
}
330
8220
100
AcDbScale
 70
     0
300
6" = 1'-0"
140
6.0
141
12.0
290
     0
  0
SCALE
  5
8231
102
{ACAD_REACTORS
330
8220
102
}
330
8220
100
AcDbScale
 70
     0
300
1'-0" = 1'-0"
140
12.0
141
12.0
290
     0
  0
ACDBSECTIONVIEWSTYLE
  5
8246
102
{ACAD_XDICTIONARY
360
836F
102
}
102
{ACAD_REACTORS
330
8245
102
}
330
8245
100
AcDbModelDocViewStyle
 70
     0
  3
Imperial24
290
     0
100
AcDbSectionViewStyle
 70
     0
 71
     0
 90
       78
 71
     1
340
8233
 40
0.24
340
0
340
0
 40
0.24
300
I, O, Q, S, X, Z
 40
0.48
 90
        3
 40
0.18
 90
        1
 71
     2
340
823A
 90
       25
340
823A
 90
       50
 40
0.24
 40
0.0
 40
0.24
 71
     3
340
8233
 40
0.24
 90
        1
 40
0.75
 90
        1
300
%<\AcVar ViewType \f "%tc1">% %<\AcVar ViewSectionStartId>%-%<\AcVar ViewSectionEndId>%\PSCALE %<\AcVar ViewScale \f "%sn">%
 71
     4
300
ANSI31
 40
1.0
 90
        0
290
     0
290
     0
 90
        6
 40
0.0
 40
1.570796326794896
 40
0.2617993877991494
 40
1.308996938995747
 40
-0.2617993877991494
 40
1.832595714594046
  0
TABLESTYLE
  5
8242
102
{ACAD_XDICTIONARY
360
8336
102
}
102
{ACAD_REACTORS
330
8241
102
}
330
8241
100
AcDbTableStyle
  3
Standard
 70
     0
 71
     0
 40
0.06
 41
0.06
280
     0
281
     0
  7
STANDARD
140
0.18
170
     2
 62
     0
 63
     7
283
     0
274
    -2
284
     1
 64
     0
275
    -2
285
     1
 65
     0
276
    -2
286
     1
 66
     0
277
    -2
287
     1
 67
     0
278
    -2
288
     1
 68
     0
279
    -2
289
     1
 69
     0
  7
STANDARD
140
0.25
170
     5
 62
     0
 63
     7
283
     0
274
    -2
284
     1
 64
     0
275
    -2
285
     1
 65
     0
276
    -2
286
     1
 66
     0
277
    -2
287
     1
 67
     0
278
    -2
288
     1
 68
     0
279
    -2
289
     1
 69
     0
  7
STANDARD
140
0.18
170
     5
 62
     0
 63
     7
283
     0
274
    -2
284
     1
 64
     0
275
    -2
285
     1
 65
     0
276
    -2
286
     1
 66
     0
277
    -2
287
     1
 67
     0
278
    -2
288
     1
 68
     0
279
    -2
289
     1
 69
     0
  0
VISUALSTYLE
  5
820D
102
{ACAD_XDICTIONARY
360
8347
102
}
102
{ACAD_REACTORS
330
8207
102
}
330
8207
100
AcDbVisualStyle
  2
2dWireframe
 70
     4
 71
     0
 72
     2
 73
     0
 90
        0
 40
-0.6
 41
-30.0
 62
     5
 63
     7
 74
     1
 91
        4
 64
     7
 65
   257
 75
     1
175
     1
 42
1.0
 92
        0
 66
   257
 43
1.0
 76
     1
 77
     6
 78
     2
 67
     7
 79
     5
170
     0
171
     0
290
     0
174
     0
 93
        1
 44
0.0
173
     0
291
     0
 45
0.0
1001
ACAD
1000
AcDbSavedByObjectVersion
1070
     0
  0
VISUALSTYLE
  5
820C
102
{ACAD_XDICTIONARY
360
8345
102
}
102
{ACAD_REACTORS
330
8207
102
}
330
8207
100
AcDbVisualStyle
  2
Basic
 70
     7
 71
     1
 72
     0
 73
     1
 90
        0
 40
-0.6
 41
-30.0
 62
     5
 63
     7
 74
     0
 91
        4
 64
     7
 65
   257
 75
     1
175
     1
 42
1.0
 92
        8
 66
     7
 43
1.0
 76
     1
 77
     6
 78
     2
 67
     7
 79
     5
170
     0
171
     0
290
     0
174
     0
 93
        1
 44
0.0
173
     0
291
     1
 45
0.0
1001
ACAD
1000
AcDbSavedByObjectVersion
1070
     0
  0
VISUALSTYLE
  5
8213
102
{ACAD_XDICTIONARY
360
8353
102
}
102
{ACAD_REACTORS
330
8207
102
}
330
8207
100
AcDbVisualStyle
  2
Brighten
 70
    12
 71
     2
 72
     2
 73
     0
 90
        0
 40
-0.6
 41
-30.0
 62
     5
 63
     7
 74
     1
 91
        4
 64
     7
 65
   257
 75
     1
175
     1
 42
1.0
 92
        8
 66
     7
 43
1.0
 76
     1
 77
     6
 78
     2
 67
     7
 79
     5
170
     0
171
     0
290
     0
174
     0
 93
        1
 44
50.0
173
     0
291
     1
 45
0.0
1001
ACAD
1000
AcDbSavedByObjectVersion
1070
     0
  0
VISUALSTYLE
  5
8217
102
{ACAD_XDICTIONARY
360
835B
102
}
102
{ACAD_REACTORS
330
8207
102
}
330
8207
100
AcDbVisualStyle
  2
ColorChange
 70
    16
 71
     2
 72
     2
 73
     3
 90
        0
 40
-0.6
 41
-30.0
 62
     5
 63
     8
 74
     1
 91
        4
 64
     7
 65
   257
 75
     1
175
     1
 42
1.0
 92
        8
 66
     8
 43
1.0
 76
     1
 77
     6
 78
     2
 67
     7
 79
     5
170
     0
171
     0
290
     0
174
     0
 93
        1
 44
0.0
173
     0
291
     1
 45
0.0
1001
ACAD
1000
AcDbSavedByObjectVersion
1070
     0
  0
VISUALSTYLE
  5
8210
102
{ACAD_XDICTIONARY
360
834D
102
}
102
{ACAD_REACTORS
330
8207
102
}
330
8207
100
AcDbVisualStyle
  2
Conceptual
 70
     9
 71
     3
 72
     2
 73
     0
 90
        0
 40
-0.6
 41
-30.0
 62
     5
 63
     7
 74
     2
 91
        2
 64
     7
 65
   257
 75
     1
175
     1
 42
179.0
 92
        8
 66
     7
 43
1.0
 76
     1
 77
     6
 78
     2
 67
     7
 79
     3
170
     0
171
     0
290
     0
174
     0
 93
        1
 44
0.0
173
     0
291
     0
 45
0.0
1001
ACAD
1000
AcDbSavedByObjectVersion
1070
     0
  0
VISUALSTYLE
  5
8212
102
{ACAD_XDICTIONARY
360
8351
102
}
102
{ACAD_REACTORS
330
8207
102
}
330
8207
100
AcDbVisualStyle
  2
Dim
 70
    11
 71
     2
 72
     2
 73
     0
 90
        0
 40
-0.6
 41
-30.0
 62
     5
 63
     7
 74
     1
 91
        4
 64
     7
 65
   257
 75
     1
175
     1
 42
1.0
 92
        8
 66
     7
 43
1.0
 76
     1
 77
     6
 78
     2
 67
     7
 79
     5
170
     0
171
     0
290
     0
174
     0
 93
        1
 44
-50.0
173
     0
291
     1
 45
0.0
1001
ACAD
1000
AcDbSavedByObjectVersion
1070
     0
  0
VISUALSTYLE
  5
821F
102
{ACAD_XDICTIONARY
360
836B
102
}
102
{ACAD_REACTORS
330
8207
102
}
330
8207
100
AcDbVisualStyle
  2
EdgeColorOff
 70
    22
 71
     2
 72
     2
 73
     0
 90
        0
 40
-0.6
 41
-30.0
 62
     5
 63
     7
 74
     1
 91
        4
 64
     7
 65
   257
 75
     1
175
     1
 42
1.0
 92
        8
 66
     7
 43
1.0
 76
     1
 77
     6
 78
     2
 67
     7
 79
     5
170
     0
171
     0
290
     0
174
     0
 93
        1
 44
0.0
173
     0
291
     1
 45
0.0
1001
ACAD
1000
AcDbSavedByObjectVersion
1070
     0
  0
VISUALSTYLE
  5
8216
102
{ACAD_XDICTIONARY
360
8359
102
}
102
{ACAD_REACTORS
330
8207
102
}
330
8207
100
AcDbVisualStyle
  2
Facepattern
 70
    15
 71
     2
 72
     2
 73
     0
 90
        0
 40
-0.6
 41
-30.0
 62
     5
 63
     7
 74
     1
 91
        4
 64
     7
 65
   257
 75
     1
175
     1
 42
1.0
 92
        8
 66
     7
 43
1.0
 76
     1
 77
     6
 78
     2
 67
     7
 79
     5
170
     0
171
     0
290
     0
174
     0
 93
        1
 44
0.0
173
     0
291
     1
 45
0.0
1001
ACAD
1000
AcDbSavedByObjectVersion
1070
     0
  0
VISUALSTYLE
  5
8208
102
{ACAD_XDICTIONARY
360
833D
102
}
102
{ACAD_REACTORS
330
8207
102
}
330
8207
100
AcDbVisualStyle
  2
Flat
 70
     0
 71
     2
 72
     1
 73
     1
 90
        2
 40
-0.6
 41
30.0
 62
     5
 63
     7
 74
     0
 91
        0
 64
     7
 65
   257
 75
     1
175
     1
 42
1.0
 92
        8
 66
     7
 43
1.0
 76
     1
 77
     6
 78
     2
 67
     7
 79
     5
170
     0
171
     0
290
     0
174
     0
 93
       13
 44
0.0
173
     0
291
     1
 45
0.0
1001
ACAD
1000
AcDbSavedByObjectVersion
1070
     0
  0
VISUALSTYLE
  5
8209
102
{ACAD_XDICTIONARY
360
833F
102
}
102
{ACAD_REACTORS
330
8207
102
}
330
8207
100
AcDbVisualStyle
  2
FlatWithEdges
 70
     1
 71
     2
 72
     1
 73
     1
 90
        2
 40
-0.6
 41
30.0
 62
     5
 63
     7
 74
     1
 91
        0
 64
     7
 65
   257
 75
     1
175
     1
 42
1.0
 92
        0
 66
   257
 43
1.0
 76
     1
 77
     6
 78
     2
 67
     7
 79
     5
170
     0
171
     0
290
     0
174
     0
 93
       13
 44
0.0
173
     0
291
     1
 45
0.0
1001
ACAD
1000
AcDbSavedByObjectVersion
1070
     0
  0
VISUALSTYLE
  5
820A
102
{ACAD_XDICTIONARY
360
8341
102
}
102
{ACAD_REACTORS
330
8207
102
}
330
8207
100
AcDbVisualStyle
  2
Gouraud
 70
     2
 71
     2
 72
     2
 73
     1
 90
        2
 40
-0.6
 41
30.0
 62
     5
 63
     7
 74
     0
 91
        0
 64
     7
 65
   257
 75
     1
175
     1
 42
1.0
 92
        0
 66
     7
 43
1.0
 76
     1
 77
     6
 78
     2
 67
     7
 79
     5
170
     0
171
     0
290
     0
174
     0
 93
       13
 44
0.0
173
     0
291
     1
 45
0.0
1001
ACAD
1000
AcDbSavedByObjectVersion
1070
     0
  0
VISUALSTYLE
  5
820B
102
{ACAD_XDICTIONARY
360
8343
102
}
102
{ACAD_REACTORS
330
8207
102
}
330
8207
100
AcDbVisualStyle
  2
GouraudWithEdges
 70
     3
 71
     2
 72
     2
 73
     1
 90
        2
 40
-0.6
 41
30.0
 62
     5
 63
     7
 74
     1
 91
        0
 64
     7
 65
   257
 75
     1
175
     1
 42
1.0
 92
        0
 66
   257
 43
1.0
 76
     1
 77
     6
 78
     2
 67
     7
 79
     5
170
     0
171
     0
290
     0
174
     0
 93
       13
 44
0.0
173
     0
291
     1
 45
0.0
1001
ACAD
1000
AcDbSavedByObjectVersion
1070
     0
  0
VISUALSTYLE
  5
820F
102
{ACAD_XDICTIONARY
360
834B
102
}
102
{ACAD_REACTORS
330
8207
102
}
330
8207
100
AcDbVisualStyle
  2
Hidden
 70
     6
 71
     1
 72
     2
 73
     2
 90
        0
 40
-0.6
 41
-30.0
 62
     5
 63
     7
 74
     2
 91
        2
 64
     7
 65
   257
 75
     2
175
     1
 42
40.0
 92
        0
 66
   257
 43
1.0
 76
     1
 77
     6
 78
     2
 67
     7
 79
     3
170
     0
171
     0
290
     0
174
     0
 93
        1
 44
0.0
173
     0
291
     0
 45
0.0
1001
ACAD
1000
AcDbSavedByObjectVersion
1070
     0
  0
VISUALSTYLE
  5
821D
102
{ACAD_XDICTIONARY
360
8367
102
}
102
{ACAD_REACTORS
330
8207
102
}
330
8207
100
AcDbVisualStyle
  2
JitterOff
 70
    20
 71
     2
 72
     2
 73
     0
 90
        0
 40
-0.6
 41
-30.0
 62
     5
 63
     7
 74
     1
 91
        4
 64
     7
 65
   257
 75
     1
175
     1
 42
1.0
 92
       10
 66
     7
 43
1.0
 76
     1
 77
     6
 78
     2
 67
     7
 79
     5
170
     0
171
     0
290
     0
174
     0
 93
        1
 44
0.0
173
     0
291
     1
 45
0.0
1001
ACAD
1000
AcDbSavedByObjectVersion
1070
     0
  0
VISUALSTYLE
  5
8215
102
{ACAD_XDICTIONARY
360
8357
102
}
102
{ACAD_REACTORS
330
8207
102
}
330
8207
100
AcDbVisualStyle
  2
Linepattern
 70
    14
 71
     2
 72
     2
 73
     0
 90
        0
 40
-0.6
 41
-30.0
 62
     5
 63
     7
 74
     1
 91
        4
 64
     7
 65
   257
 75
     7
175
     7
 42
1.0
 92
        8
 66
     7
 43
1.0
 76
     1
 77
     6
 78
     2
 67
     7
 79
     5
170
     0
171
     0
290
     0
174
     0
 93
        1
 44
0.0
173
     0
291
     1
 45
0.0
1001
ACAD
1000
AcDbSavedByObjectVersion
1070
     0
  0
VISUALSTYLE
  5
821E
102
{ACAD_XDICTIONARY
360
8369
102
}
102
{ACAD_REACTORS
330
8207
102
}
330
8207
100
AcDbVisualStyle
  2
OverhangOff
 70
    21
 71
     2
 72
     2
 73
     0
 90
        0
 40
-0.6
 41
-30.0
 62
     5
 63
     7
 74
     1
 91
        4
 64
     7
 65
   257
 75
     1
175
     1
 42
1.0
 92
        9
 66
     7
 43
1.0
 76
     1
 77
     6
 78
     2
 67
     7
 79
     5
170
     0
171
     0
290
     0
174
     0
 93
        1
 44
0.0
173
     0
291
     1
 45
0.0
1001
ACAD
1000
AcDbSavedByObjectVersion
1070
     0
  0
VISUALSTYLE
  5
8211
102
{ACAD_XDICTIONARY
360
834F
102
}
102
{ACAD_REACTORS
330
8207
102
}
330
8207
100
AcDbVisualStyle
  2
Realistic
 70
     8
 71
     2
 72
     3
 73
     0
 90
        2
 40
-0.6
 41
30.0
 62
     5
 63
     7
 74
     0
 91
        0
 64
     7
 65
   257
 75
     1
175
     1
 42
1.0
 92
        8
 66
   257
 43
1.0
 76
     1
 77
     6
 78
     2
 67
     7
 79
     3
170
     0
171
     0
290
     0
174
     0
 93
       13
 44
0.0
173
     0
291
     0
 45
0.0
1001
ACAD
1000
AcDbSavedByObjectVersion
1070
     0
  0
VISUALSTYLE
  5
821C
102
{ACAD_XDICTIONARY
360
8365
102
}
102
{ACAD_REACTORS
330
8207
102
}
330
8207
100
AcDbVisualStyle
  2
Shaded
 70
    27
 71
     2
 72
     2
 73
     1
 90
        2
 40
-0.6
 41
30.0
 62
     5
 63
     7
 74
     0
 91
        4
 64
     7
 65
   257
 75
     1
175
     1
 42
1.0
 92
        8
 66
   257
 43
1.0
 76
     1
 77
     6
 78
     2
 67
     8
 79
     3
170
     0
171
     0
290
     0
174
     0
 93
        5
 44
0.0
173
     0
291
     0
 45
0.0
1001
ACAD
1000
AcDbSavedByObjectVersion
1070
     0
  0
VISUALSTYLE
  5
821B
102
{ACAD_XDICTIONARY
360
8363
102
}
102
{ACAD_REACTORS
330
8207
102
}
330
8207
100
AcDbVisualStyle
  2
Shaded with edges
 70
    26
 71
     2
 72
     2
 73
     1
 90
        2
 40
-0.6
 41
30.0
 62
     5
 63
     7
 74
     1
 91
       10
 64
     7
 65
   257
 75
     2
175
     1
 42
1.0
 92
        8
 66
   257
 43
1.0
 76
     1
 77
     6
 78
     2
 67
     7
 79
     3
170
     0
171
     0
290
     0
174
     0
 93
        5
 44
0.0
173
     0
291
     0
 45
0.0
1001
ACAD
1000
AcDbSavedByObjectVersion
1070
     0
  0
VISUALSTYLE
  5
8218
102
{ACAD_XDICTIONARY
360
835D
102
}
102
{ACAD_REACTORS
330
8207
102
}
330
8207
100
AcDbVisualStyle
  2
Shades of Gray
 70
    23
 71
     2
 72
     2
 73
     3
 90
        0
 40
-0.6
 41
-30.0
 62
     5
 63
     7
 74
     2
 91
        2
 64
     7
 65
     7
 75
     1
175
     1
 42
40.0
 92
        8
 66
     7
 43
1.0
 76
     1
 77
     6
 78
     2
 67
     7
 79
     3
170
     0
171
     0
290
     0
174
     0
 93
        1
 44
0.0
173
     0
291
     0
 45
0.0
1001
ACAD
1000
AcDbSavedByObjectVersion
1070
     0
  0
VISUALSTYLE
  5
8219
102
{ACAD_XDICTIONARY
360
835F
102
}
102
{ACAD_REACTORS
330
8207
102
}
330
8207
100
AcDbVisualStyle
  2
Sketchy
 70
    24
 71
     1
 72
     2
 73
     2
 90
        0
 40
-0.6
 41
-30.0
 62
     5
 63
     7
 74
     2
 91
        2
 64
     7
 65
     7
 75
     1
175
     1
 42
40.0
 92
       11
 66
     7
 43
1.0
 76
     1
 77
     6
 78
     2
 67
     7
 79
     6
170
     0
171
     0
290
     0
174
     0
 93
        1
 44
0.0
173
     0
291
     0
 45
0.0
1001
ACAD
1000
AcDbSavedByObjectVersion
1070
     0
  0
VISUALSTYLE
  5
8214
102
{ACAD_XDICTIONARY
360
8355
102
}
102
{ACAD_REACTORS
330
8207
102
}
330
8207
100
AcDbVisualStyle
  2
Thicken
 70
    13
 71
     2
 72
     2
 73
     0
 90
        0
 40
-0.6
 41
-30.0
 62
     5
 63
     7
 74
     1
 91
        4
 64
     7
 65
   257
 75
     1
175
     1
 42
1.0
 92
       12
 66
     7
 43
1.0
 76
     1
 77
     6
 78
     2
 67
     7
 79
     5
170
     0
171
     0
290
     0
174
     0
 93
        1
 44
0.0
173
     0
291
     1
 45
0.0
1001
ACAD
1000
AcDbSavedByObjectVersion
1070
     0
  0
VISUALSTYLE
  5
820E
102
{ACAD_XDICTIONARY
360
8349
102
}
102
{ACAD_REACTORS
330
8207
102
}
330
8207
100
AcDbVisualStyle
  2
Wireframe
 70
     5
 71
     0
 72
     2
 73
     0
 90
        0
 40
-0.6
 41
-30.0
 62
     5
 63
     7
 74
     1
 91
        4
 64
     7
 65
   257
 75
     1
175
     1
 42
1.0
 92
        0
 66
   257
 43
1.0
 76
     1
 77
     6
 78
     2
 67
     7
 79
     3
170
     0
171
     0
290
     0
174
     0
 93
        1
 44
0.0
173
     0
291
     0
 45
0.0
1001
ACAD
1000
AcDbSavedByObjectVersion
1070
     0
  0
VISUALSTYLE
  5
821A
102
{ACAD_XDICTIONARY
360
8361
102
}
102
{ACAD_REACTORS
330
8207
102
}
330
8207
100
AcDbVisualStyle
  2
X-Ray
 70
    25
 71
     2
 72
     2
 73
     1
 90
        1
 40
0.5
 41
-30.0
 62
     5
 63
     7
 74
     1
 91
        0
 64
     7
 65
   257
 75
     1
175
     1
 42
1.0
 92
        8
 66
     7
 43
1.0
 76
     1
 77
     6
 78
     2
 67
     7
 79
     3
170
     0
171
     0
290
     0
174
     0
 93
       13
 44
0.0
173
     0
291
     0
 45
0.0
1001
ACAD
1000
AcDbSavedByObjectVersion
1070
     0
  0
DICTIONARYVAR
  5
8330
102
{ACAD_REACTORS
330
832B
102
}
330
832B
100
DictionaryVariables
280
     0
  1
1:1
  0
DICTIONARYVAR
  5
832D
102
{ACAD_REACTORS
330
832B
102
}
330
832B
100
DictionaryVariables
280
     0
  1
STANDARD
  0
DICTIONARYVAR
  5
832C
102
{ACAD_REACTORS
330
832B
102
}
330
832B
100
DictionaryVariables
280
     0
  1
STANDARD
  0
DICTIONARYVAR
  5
832E
102
{ACAD_REACTORS
330
832B
102
}
330
832B
100
DictionaryVariables
280
     0
  1
Imperial24
  0
DICTIONARYVAR
  5
832F
102
{ACAD_REACTORS
330
832B
102
}
330
832B
100
DictionaryVariables
280
     0
  1
Imperial24
  0
DICTIONARYVAR
  5
8333
102
{ACAD_REACTORS
330
832B
102
}
330
832B
100
DictionaryVariables
280
     0
  1
1
  0
DICTIONARYVAR
  5
8332
102
{ACAD_REACTORS
330
832B
102
}
330
832B
100
DictionaryVariables
280
     0
  1
0
  0
DICTIONARYVAR
  5
8331
102
{ACAD_REACTORS
330
832B
102
}
330
832B
100
DictionaryVariables
280
     0
  1
127
  0
DICTIONARYVAR
  5
8334
102
{ACAD_REACTORS
330
832B
102
}
330
832B
100
DictionaryVariables
280
     0
  1
2
  0
DICTIONARY
  5
8371
330
8248
100
AcDbDictionary
280
     1
281
     1
  3
ACAD_XREC_ROUNDTRIP
360
8372
  0
DICTIONARY
  5
8375
330
8250
100
AcDbDictionary
280
     1
281
     1
  3
ACAD_XREC_ROUNDTRIP
360
8376
  0
DICTIONARY
  5
8373
330
824C
100
AcDbDictionary
280
     1
281
     1
  3
ACAD_XREC_ROUNDTRIP
360
8374
  0
DICTIONARY
  5
81F8
330
81F7
100
AcDbDictionary
280
     1
281
     1
  3
ACAD_XREC_ROUNDTRIP
360
833B
  3
BUMPTILE
360
81FA
  3
DIFFUSETILE
360
81F9
  3
OPACITYTILE
360
81FD
  3
REFLECTIONTILE
360
81FC
  3
REFRACTIONTILE
360
81FE
  3
SPECULARTILE
360
81FB
  0
DICTIONARY
  5
81F0
330
81EF
100
AcDbDictionary
280
     1
281
     1
  3
ACAD_XREC_ROUNDTRIP
360
833A
  3
BUMPTILE
360
81F2
  3
DIFFUSETILE
360
81F1
  3
OPACITYTILE
360
81F5
  3
REFLECTIONTILE
360
81F4
  3
REFRACTIONTILE
360
81F6
  3
SPECULARTILE
360
81F3
  0
DICTIONARY
  5
8200
330
81FF
100
AcDbDictionary
280
     1
281
     1
  3
ACAD_XREC_ROUNDTRIP
360
833C
  3
BUMPTILE
360
8202
  3
DIFFUSETILE
360
8201
  3
FBXASSET
360
82E5
  3
OPACITYTILE
360
8205
  3
REFLECTIONTILE
360
8204
  3
REFRACTIONTILE
360
8206
  3
SPECULARTILE
360
8203
  0
DICTIONARY
  5
836F
330
8246
100
AcDbDictionary
280
     1
281
     1
  3
ACAD_XREC_ROUNDTRIP
360
8370
  0
DICTIONARY
  5
8336
330
8242
100
AcDbDictionary
280
     1
281
     1
  3
ACAD_ROUNDTRIP_2008_TABLESTYLE_CELLSTYLEMAP
360
8337
  3
ACAD_XREC_ROUNDTRIP
360
836D
  0
DICTIONARY
  5
8347
330
820D
100
AcDbDictionary
280
     1
281
     1
  3
ACAD_XREC_ROUNDTRIP
360
8348
  0
DICTIONARY
  5
8345
330
820C
100
AcDbDictionary
280
     1
281
     1
  3
ACAD_XREC_ROUNDTRIP
360
8346
  0
DICTIONARY
  5
8353
330
8213
100
AcDbDictionary
280
     1
281
     1
  3
ACAD_XREC_ROUNDTRIP
360
8354
  0
DICTIONARY
  5
835B
330
8217
100
AcDbDictionary
280
     1
281
     1
  3
ACAD_XREC_ROUNDTRIP
360
835C
  0
DICTIONARY
  5
834D
330
8210
100
AcDbDictionary
280
     1
281
     1
  3
ACAD_XREC_ROUNDTRIP
360
834E
  0
DICTIONARY
  5
8351
330
8212
100
AcDbDictionary
280
     1
281
     1
  3
ACAD_XREC_ROUNDTRIP
360
8352
  0
DICTIONARY
  5
836B
330
821F
100
AcDbDictionary
280
     1
281
     1
  3
ACAD_XREC_ROUNDTRIP
360
836C
  0
DICTIONARY
  5
8359
330
8216
100
AcDbDictionary
280
     1
281
     1
  3
ACAD_XREC_ROUNDTRIP
360
835A
  0
DICTIONARY
  5
833D
330
8208
100
AcDbDictionary
280
     1
281
     1
  3
ACAD_XREC_ROUNDTRIP
360
833E
  0
DICTIONARY
  5
833F
330
8209
100
AcDbDictionary
280
     1
281
     1
  3
ACAD_XREC_ROUNDTRIP
360
8340
  0
DICTIONARY
  5
8341
330
820A
100
AcDbDictionary
280
     1
281
     1
  3
ACAD_XREC_ROUNDTRIP
360
8342
  0
DICTIONARY
  5
8343
330
820B
100
AcDbDictionary
280
     1
281
     1
  3
ACAD_XREC_ROUNDTRIP
360
8344
  0
DICTIONARY
  5
834B
330
820F
100
AcDbDictionary
280
     1
281
     1
  3
ACAD_XREC_ROUNDTRIP
360
834C
  0
DICTIONARY
  5
8367
330
821D
100
AcDbDictionary
280
     1
281
     1
  3
ACAD_XREC_ROUNDTRIP
360
8368
  0
DICTIONARY
  5
8357
330
8215
100
AcDbDictionary
280
     1
281
     1
  3
ACAD_XREC_ROUNDTRIP
360
8358
  0
DICTIONARY
  5
8369
330
821E
100
AcDbDictionary
280
     1
281
     1
  3
ACAD_XREC_ROUNDTRIP
360
836A
  0
DICTIONARY
  5
834F
330
8211
100
AcDbDictionary
280
     1
281
     1
  3
ACAD_XREC_ROUNDTRIP
360
8350
  0
DICTIONARY
  5
8365
330
821C
100
AcDbDictionary
280
     1
281
     1
  3
ACAD_XREC_ROUNDTRIP
360
8366
  0
DICTIONARY
  5
8363
330
821B
100
AcDbDictionary
280
     1
281
     1
  3
ACAD_XREC_ROUNDTRIP
360
8364
  0
DICTIONARY
  5
835D
330
8218
100
AcDbDictionary
280
     1
281
     1
  3
ACAD_XREC_ROUNDTRIP
360
835E
  0
DICTIONARY
  5
835F
330
8219
100
AcDbDictionary
280
     1
281
     1
  3
ACAD_XREC_ROUNDTRIP
360
8360
  0
DICTIONARY
  5
8355
330
8214
100
AcDbDictionary
280
     1
281
     1
  3
ACAD_XREC_ROUNDTRIP
360
8356
  0
DICTIONARY
  5
8349
330
820E
100
AcDbDictionary
280
     1
281
     1
  3
ACAD_XREC_ROUNDTRIP
360
834A
  0
DICTIONARY
  5
8361
330
821A
100
AcDbDictionary
280
     1
281
     1
  3
ACAD_XREC_ROUNDTRIP
360
8362
  0
XRECORD
  5
8372
102
{ACAD_REACTORS
330
8371
102
}
330
8371
100
AcDbXrecord
280
     1
102
DISPLAYNAME
  1
Imperial24
102
FLAGS
 90
        0
  0
XRECORD
  5
8376
102
{ACAD_REACTORS
330
8375
102
}
330
8375
100
AcDbXrecord
280
     1
102
SHADEPLOT
 70
     0
102
SHADEPLOTRESLEVEL
 70
     2
102
SHADEPLOTCUSTOMDPI
 70
   300
  0
XRECORD
  5
8374
102
{ACAD_REACTORS
330
8373
102
}
330
8373
100
AcDbXrecord
280
     1
102
SHADEPLOT
 70
     0
102
SHADEPLOTRESLEVEL
 70
     2
102
SHADEPLOTCUSTOMDPI
 70
   300
  0
XRECORD
  5
833B
102
{ACAD_REACTORS
330
81F8
102
}
330
81F8
100
AcDbXrecord
280
     1
102
MATERIAL
148
0.0
149
0.0
149
0.0
 93
        0
 94
      127
282
     0
 72
     0
 77
     0
171
     0
175
     0
179
     0
273
     0
  0
XRECORD
  5
81FA
102
{ACAD_REACTORS
330
81F8
102
}
330
81F8
100
AcDbXrecord
280
     1
270
     1
271
     1
  0
XRECORD
  5
81F9
102
{ACAD_REACTORS
330
81F8
102
}
330
81F8
100
AcDbXrecord
280
     1
270
     1
271
     1
  0
XRECORD
  5
81FD
102
{ACAD_REACTORS
330
81F8
102
}
330
81F8
100
AcDbXrecord
280
     1
270
     1
271
     1
  0
XRECORD
  5
81FC
102
{ACAD_REACTORS
330
81F8
102
}
330
81F8
100
AcDbXrecord
280
     1
270
     1
271
     1
  0
XRECORD
  5
81FE
102
{ACAD_REACTORS
330
81F8
102
}
330
81F8
100
AcDbXrecord
280
     1
270
     1
271
     1
  0
XRECORD
  5
81FB
102
{ACAD_REACTORS
330
81F8
102
}
330
81F8
100
AcDbXrecord
280
     1
270
     1
271
     1
  0
XRECORD
  5
833A
102
{ACAD_REACTORS
330
81F0
102
}
330
81F0
100
AcDbXrecord
280
     1
102
MATERIAL
148
0.0
149
0.0
149
0.0
 93
        0
 94
      127
282
     0
 72
     0
 77
     0
171
     0
175
     0
179
     0
273
     0
  0
XRECORD
  5
81F2
102
{ACAD_REACTORS
330
81F0
102
}
330
81F0
100
AcDbXrecord
280
     1
270
     1
271
     1
  0
XRECORD
  5
81F1
102
{ACAD_REACTORS
330
81F0
102
}
330
81F0
100
AcDbXrecord
280
     1
270
     1
271
     1
  0
XRECORD
  5
81F5
102
{ACAD_REACTORS
330
81F0
102
}
330
81F0
100
AcDbXrecord
280
     1
270
     1
271
     1
  0
XRECORD
  5
81F4
102
{ACAD_REACTORS
330
81F0
102
}
330
81F0
100
AcDbXrecord
280
     1
270
     1
271
     1
  0
XRECORD
  5
81F6
102
{ACAD_REACTORS
330
81F0
102
}
330
81F0
100
AcDbXrecord
280
     1
270
     1
271
     1
  0
XRECORD
  5
81F3
102
{ACAD_REACTORS
330
81F0
102
}
330
81F0
100
AcDbXrecord
280
     1
270
     1
271
     1
  0
XRECORD
  5
833C
102
{ACAD_REACTORS
330
8200
102
}
330
8200
100
AcDbXrecord
280
     1
102
MATERIAL
148
0.0
149
0.0
149
0.0
 93
        0
 94
      127
282
     0
 72
     0
 77
     0
171
     0
175
     0
179
     0
273
     0
  0
XRECORD
  5
8202
102
{ACAD_REACTORS
330
8200
102
}
330
8200
100
AcDbXrecord
280
     1
270
     1
271
     1
  0
XRECORD
  5
8201
102
{ACAD_REACTORS
330
8200
102
}
330
8200
100
AcDbXrecord
280
     1
270
     1
271
     1
  0
XRECORD
  5
82E5
102
{ACAD_REACTORS
330
8200
102
}
330
8200
100
AcDbXrecord
280
     1
 70
     1
 90
1959938040
 71
     1
  1
574C4340-E223-4080-9FD6-6C7BAAE8871B
311
504B0304140006080800597074577692EF1FDA000000200100004F00000043423935313436452D344141422D344545352D393545432D4241444539333535434446452F4173736574446174612F446566696E6974696F6E4974657261746F7250726F706572746965732E62696E454E3D4FC33010350C200686FE83AABBB1E3
311
B4348ADA22DC244C748189A5BA3AD712C949AA38911819F9D770A716F5A477EF3EDFDD8F10E2F76C148A2BC237F97BE2176CB0ABDC9BFBC41AC40D577CBB037F7BE95D53C869867B187CCF5BAF5570E83D34D80E6174191DD7D0931CF8075EBA23FC17022B1C4EC7F8FE86C02F3143794C9F2004EC976ABFFB5249319F3FC6
311
CF46EA22B3726A67B9B479AE6552D8B8D0C95ADB6CAD3A0CEDD0390CCA28BD3D2B6F8FCDA12A578BBEAA71DC408DCB89EB907E2A272BA34D2CA3481AFD1E4D536DD259F4B1503CF907504B03041400060808005970745755694118EF000000300200004500000043423935313436452D344141422D344545352D393545432D
311
4241444539333535434446452F4173736574446174612F496E7374616E636550726F706572746965732E62696EEB606060F80F0540260323103700495E20ED9E9A975A94991C9C9C919A9BA802143035377136313631D075353232D63531B030D0B5747331D335733677727474B5B0303774624768046931363471713532B5
311
D4353531016A313332D475727372D13534373670367376B67474B5042A03DBCBA019D37FE8ABC6157B20CD04146B0062181F4C03F940F0C11EA29A8141C08141002C0426541C106CAC2CA046088033B02A030AC2157C6006F21A8018AAF50194E6010A610250382264E08660284CD9E98021862280A91564B406929A0FF62C
311
401E28B6F88038B83CB1243943D7A928312F25350524131B1BFB9F161800504B03041400060808005970745728BB58AF800100009E0500003D00000043423935313436452D344141422D344545352D393545432D4241444539333535434446452F536368656D61732F436F6D6D6F6E536368656D612E786D6CBD544D4FC230
311
18BEFB2B96DE15493C78601010A34B880709DEDFB52FD0D8B54BD70DF6EFED3AC0B12E6442E2716BFB3CEFF3D18E26FB440405EA8C2B1992E1C323095052C5B8DC842437EBFB673219DF8DA659866649B798C078B48AE6410122242F2A4994AC7F93815DF85C049C8564CA0A901499DD886B2EB9B1E02448F358701A923588
311
0C49A0119892A20C89D1B9FD768815CAD268CB5E0355B40B1E47F3E37A2020464BED06AA57CE8FCC20C3C3446D46761A2632A8C1283D07031EFF2AE7CCB1BFEEE916E406DFAC8E36FFD99A9D60A6944090EEDC3B670C7DC13DE86B6B2C5C240D6E503BB85ACD579D513F1B9F9A69DC9CC22AFA80C426D40AF0B21EA1685591
311
56B6276F0F726A6BFF04DCD513A87A62CAD41FB24FCB2858B3952E3D852084DA25B9303C15687973CC8E8AAE11DF2836C38C6A9E765E8C1BA1BFB1DC29CDFE518C8B5A7655A4ED7E77291ABEB80DBD82EC866ADE1B8D05AF9E35CF09D7A061F38A986D9EC412B8F0F65E5D81534D9B231D1E5A8FE577A241F3A5FD01504B03
311
04140006080800597074572CCEBD668A040000E01200003E00000043423935313436452D344141422D344545352D393545432D4241444539333535434446452F536368656D61732F47656E65726963536368656D612E786D6CD5586D6FDB380CFE7EBF42F0F7A649B70E1B90744856B4970F450FCD7A5F05459613EDE41748
311
72DADCAF3F522F8ED3B88D2F1D06AC4050DBA2493EE4438AF2F8EB73AEC8466823CB62928C06C384888297A92C5693A4B6D9D9E7E4EBD51FE3A931C22EF85AE4EC6AFC38BF261BA626C9AD288496DC3F4FCEAFC63366845F7A10452AF41DB320C0D44EC26EAB20918735565582695670811A6A49643A49A6E9069FA4604A64
311
B29016DC4B48552F95E4932463CA888468C1D2B250DB4962750DF7CE273069CE8363F1FF4EDB00E0A21999574AE4A2B00C353B93F3BD4777B8A61ED8F604ABFEDD79CE56A2B7BDFBDBC50996E0ADDE16FED26223C5D30956C29BDF4A55EA686E5E58B112DA45CE67F76F4FA27EFA3FB672FD7372FC388FAECDCA5209E693CA
311
D167BADCD272F943701B3812F8A3D852008B1D2E32DB927B2F833C6EA95879925356D254582695095A3CE982924720BE5774A3CB9CDCDB350427D2DF20DA1B5532EBE2D5D6288D75D4F7E4FD9890A0EF8E3D93EBB8F8BA4758158EF6FB90A6F9520281C93DE7AAC6D24607DA296BB96018123F821A7D6A5C5884050C475DA4
311
865442732C8B95684A50165CBB3A32F25F783A4A480ED59AD7F924B968AEA50131F46303223E6A397B0E52976030DC1DCA81D7E7C1EDEEA42C19FF27635C505E2BD5198A599020DF50A2330FCB3AAF28CB0124108429553EF1B228802E2265D8F7CC2401042B155BCC7070F1E5C55F13B4A9577362CCCE46C32174E010C3C3
311
78C44841A4BDA00FE3A12006CE11EE6AEC59894D3526DDE1CD59D503ECC324017F8061B7F162162FA62EDD81AE3308617770796DCBDAD2B2625C5AE8A63DE20B2C8AA5E95E76E5730823955956E33E705425A2187C185D36489A1B44D3DCEC2172F6BA2105C3546287A7194B2331768EBBE64F6E70A9930ABE0ADEA89E9E2C
311
38523B810287AD67A54A039C1606EAFE68F8304610BB9093DBDDABC0B2AE4E290DCDA15376D7E39F72B556F0B32EAB5D3D498B4C41ABADEC3A1434C422D87E8025A84BDCB2B1417ED750FAE4DA8976863974C577C7F902D3F156AD354DEA3540DE6BEAE2BEA52F7A2EB4CA43802ECE5BF2CE2EDC9347179FFB023CE412E60B
311
E16DA0BE29B374988A553F561DC04615DD35F7D2C8979F60E5955CE93DF29DED8AFA1EE6642D53418086C03C47C377910F75F7E8F5EF665F70B60FFB22AEDF897D119E8423C773E819A3C1E55E550599EE6EDCA34D0C86FD72057DF2CD46F16A470682471C164E4346D5306BF12D7D12D82CFF673D41636C347443FEB51B50
311
D72EA171A8E4A58623A4A16E0FA2B8B10A0D23268D87C33896EE8FB73305A74BF224EDBADFA0BD674AB354D63DB7BD5D83426761C077DE767728235446A552754EB93B755891C3C4CC6CADE37CF0E912A7BB38DBA010F9DE1282EDF470CA69A9CDA482E334C4A6EA4107987980B17E72F31730EBF88BBD39E7C629F56797A3
311
C0009C2C5AE7951D9A05A02773440F02EEB4DE396A3B6A570C72CCFBCD823B0B8ED3F1D5CEDDFED772FA70236C83FB7D86C385D570B87107535572A60A96035F8F7C6A7192F13007246BBE0521855E6AC46F3E27689CEE7D186A6FD679D98CDCAD13333E04EBE7ED6F55FF01504B0304140006080800597074576180134D5F
311
0100006B0300004500000043423935313436452D344141422D344545352D393545432D4241444539333535434446452F536368656D61732F52656E6465724D6174657269616C536368656D612E786D6CA5934D6FC2300C86EFFB1551EEE343DBA41D1A103009551ADAD40EAE28A4A68D9426284961FCFBE5A340113B207174
311
6D3F765EBF4DC6BFB5407BD0862B49F0B037C0082453059725C18DDD3EBFE3F1E829991803366715D474942CD30FB4A782E00C64017A412D684E454CE3FE28995203B162A6EA5AC94B66997D225E109CD63B0135484BAD1B3C07E9080CA35DB3119C11BCA5C200461A68A1A438126C75E3E230D40FF81FB3F03C91D1E3A3A0
311
AF79FE28E25BC39EC3E17E4C2A2D94A0833A51AF55BCCA7D88572FCBAC529C4140B020FC3AAFA886621DCED7EAD7664CC86024E806DC297DA1BB393E4156543457A4537DB8817349A70F8ACBF09B3EEE2CB2F33E91B65D60786E4E3B39B77E3FEEEF5650424525DA657FB8B46BE6BF064646F0A0F7327C0BC1BC1B4CBBC1C4
311
19FA3CCB23500007872A2580CAAE5461865565294E4EDB4617B62FF579DF9A5B2F54E834076A597573A020912FED777F9B3F504B03041400060808005970745785C0977051000000570000004700000043423935313436452D344141422D344545352D393545432D4241444539333535434446452F4173736574446174612F
311
41737365745461626C654F66436F6E74656E74732E62696E536160603035377136313631D075353232D63531B030D0B5747331D335733677727474B5B03037741202AACB4D2C492DCA4CCC492C28484D2C4ACC4B4E050A82012F90744FCD03CA26072767A4E6260200504B030414000608080059707457F865834058000000
311
680000004500000043423935313436452D344141422D344545352D393545432D4241444539333535434446452F4173736574446174612F53747265616D56657273696F6E5461626C652E696E66558CBD0A80300C06F73E4B117FB66E451741D041DC5BF98480A492E4FDD18EAEC7DD4555D89EF28DF51A0B1BD8340C4DE7DD
311
848B988C0ACF0649566493F2408C508DDEBB99D5129FF8F1AF8CF5B9503E20FAE5A16B5AF702504B0304140006080800597074579D993647340100009A0400003600000043423935313436452D344141422D344545352D393545432D4241444539333535434446452F4173736574446174612F636E782E786D6CCD94314FC3
311
301085FF4AE43D7612404295E30AC1D209242A06B6AB7369AD3A76645F10FC7BEC3403A888A943D7F3BBF3F327BF93EBCFC1161F18A2F1AE6535AF58814EFBCEB87DCB26EACB7B56AC950CDED30F192B1C0CD8B25C664AEE839FC6A5D4610F93CD556BDC71293EC488B4859DC5E7FED13B42479115DA428C2D8BFA80037098
311
C877188FBC03025EF380D14F41639A4466C065920E08841D534DD5DC94755D36D5B6BE5D55CDEAAE7E97222B95DC796F17BD4997053F16FA742B539514F958C929984593DFC2D45F1EF9CE38299252C9482131593AE86B4C1D308ED668A0844E784D486512210C529CC44A8ACCE0178927EC8D33B965938C01F9F092EC6120
311
835747E43FAF9727B37191C069BC5E1EE70E2F4FE175FE416FA740CE89B9B69C9C3BE4C6F517488998D7480A4DDE2AEA1B504B03041400060808005970745796ED1A54070100004F0300003400000043423935313436452D344141422D344545352D393545432D4241444539333535434446452F536368656D61732F636E78
311
2E786D6CCD93314F04211484FF0AA13F58564DCC85E50A0B2B1BB5B2437877470E781B608DFE7B61A5B84BECB4B80E862F646678C8DD67F0E403527618272AD840094483D6C5C34497B2DFDC53B253322196338C92A8034CB4C954C943C265EE9285BD5E7C53BD8BA72E3E6008185FCC1182A6C4789DF344F3BA657A296821
311
9F98D54533C112645C92817A437101FA0D26812E60A91A87F16623C4661C5EC5ED7618B777E24DF2462AF98EE83BEF62818433315817B1DA19246FC74A2EC975A665A0EADC1BAB6D485E09257349B5834E96AFB9927A9EBD33BAD4AAF80AFE304AF216F522F0234448CE5C67E20B73FF16F919A285F4545F2939EDAF33F96F
311
1EFF56005F67BF8E40FB0AEA1B504B030414000608080059707457410A3D5871000000A40000002C00000043423935313436452D344141422D344545352D393545432D4241444539333535434446452F636E782E786D6C55CC4D0E82301086E1AB34B31774E7A22D31F1069E60020334B633A63FC6E34B0909B07DDE2F9FEE
311
7EC1AB2FC5E4840DDC9A2B28E25E06C7938192C7CB1D54677514C9871928C640062A83D55394F2D968A0118BAFEA1DBF377CA444F98919176EAB9FEAAB9F2960DA5BBB1E2ED3FA6FFF504B030414000608080059707457B7830B247D000000A300000007000000636E782E786D6C4D8CD10AC22018465F45FE7BAB9146823A
311
D4D97B8CE686E4346C468F9FC62EBAFAE0F09DC3FBCF1AD0DBE5974F514077380172F19E261F1701659BF115502F794E69FBBB018AE3EA04340C922F3995E78E26378F25341A7C7CECD068463B72B19828A531B1966246ADC15A0D969D2935C3CD56E3D8943ABF5EDD96975F504B03041400060808005970745716E99B5DA6
311
00000035010000130000005B436F6E74656E745F54797065735D2E786D6C9590410E82301045AFD2740F4517C6180A0BF5065E60AC53688469D30E066F6F91AD9AB89CF9FFFD3F99BA9DC7413C3026E749CB4D59498164FCCD51A7E5C4B6D84BD136F5E5193089ECA5A465CF1C0E4A25D3E308A9F401292BD6C711388FB153
311
01CC1D3A54DBAADA29E38991B8E0254336F5092D4C038BF39CD76B6FC6A538AEBEA54A4B08617006389FA516557DE4AE8E7E70DE30729138228C5F021CD93F02D4FB0DCD0B504B0304140006080800597074573DEE336E64000000790000001B0000006175746F6465736B2D64657369676E2D7061636B6167652E786D6C35
311
CBC10E83200C00D05F21DCA56CA76D41FC96062B120735B69A7DBE268BB7777961F8D5AF396893C2ADB70FE7ADA196782C2DF776D7A97B5933C430F15651E5469C55D70F80A4992A3ADC954792C525AE70A1E4D6AD9816CC044FEFDF01FE3FDE907802504B0304140006080800597074571C9E9BA3F6000000960100003700
311
000043423935313436452D344141422D344545352D393545432D4241444539333535434446452F4173736574446174612F636F72652E786D6C8550CB6EC32010FC156BEFD8406CC58E3091137F424FBD2120294A0C168FAA9F5F885DA93DF5C2A2D999D9DD61E7AFE5597D6A1F8CB323901A43A5AD74CAD8FB0829DE500FD5
311
9933EF5CFC4583CA8A458F5060E0ECEE5D5A77483A1BB52DA8754AEFA0084147A8E4337F4608F2432FA21629664678D4AB900F71D735A9371E672919B54B8DCA6EE666B407DE751DEDE7BE45EDF19A9F611E504F3045F371BEB4177C9D8609B3A688398B66F9992EBD16512BE014D303220451FC46DA13A6A78EBCB3A63039
311
0BD1E79BF7A1E53AE053D97A1651B066EBFE714DABFADF35191B0F7477DD140138C94BBE1A9C3525A55C5E11E65A12E5DF504B030414000608080059707457D7F3C011F6000000940100003500000043423935313436452D344141422D344545352D393545432D4241444539333535434446452F536368656D61732F636F72
311
652E786D6C8550CB6EC32010FC156BEFB681D88A1D61A224FE83F6D41B02E2A0C460F1A8FAF905DB95DA532F2C9A9D99DD1D7AFE9A5FC5A7725E5B3300AE1014CA082BB5990688E15E76509C1975D6865F34280C9FD5001906462767E3B243C29AA04C468D956A07B9F72A40215EE93380170F35F38AC79018FE592D5C3CF9
311
A42A5C6D3C4663D472976A99DCF45D2B07AC6D5BD28D5D5336C75B7AFAB12F3B8C48391EC76B7345B74B7F41B4CE6246839E7FA60BA77850121841E450625C12F48E9B1322A7167FD03A3319F5C1A59BF7A1F93A606FEB9E9ED65BEF8F675CE4FF9E519B7020BBE7A6F0C0705A716D305AE78C5259034C35E7C9BE01504B03
311
04140006080800597074572437850302010000D70100002D00000043423935313436452D344141422D344545352D393545432D4241444539333535434446452F636F72652E786D6C9591C16E842010865FC5CC1D1595A6BB4136EADA27E8A9372AB32ED9150C60D3C72F569BB6B7F604F9F9FE19FE197E7A9FEEC91B3AAFAD
311
A981A639246806ABB4196B58C2853C427212DC591B7E60901839610DAB0C828FCE2EF32E0DD60434AB6AACC25D94DE638064B8C74B0D7EB8E22453B98448F85B3ACBE126474C69BA7182073D7D59078732A00251E44549282545FE4CAB635E1C197DE1D94A0ABE6813CA626F86D32BAAC4CE214602C178B6BD466AD16A67B4
311
8A7FD4178D0E44D71E18AD1E7A52354D4BAABE67E4C0FA8EB4CDB93F948C75E7A73E168966C17D7071327B9175067FB56FC65FC99659FD33D9E6F020E877A86C1DB3E0D9E70EE2B9AE447C00504B03041400060808005970745719F6FD0905010000B201000008000000636F72652E786D6C8D50416EC32010FC0ADABB6D20
311
B6E2449828899FD0536FD41007C5060B70D4FEBE1053A9BDF5C2A2D9D999D965A7CF79424FE5BCB6A603526240CA0C566A3376B0865BD1023A71E6AC0DBF68808C9855070906CE4667D7254383354199841A2B550685F72A001AA6F8E9C00F77358B52AC2132FCA35CC4F010A32A49B9F1380B7AFE191D9C124149E014D35D
311
414841F11BA98F981E1BF2CEAAC4E46C5DB5CC565A46777DD3CA016F9A86B67D5B17F5FE1A9F437F285A8269D1EFFB4B7DC1D7F3E18C59958639F3C1C59DB348CC199017CFE4CBAAADC5D987B55326C4501259337D018F0AA9F127F4BAC87F84D626EC6816DC263C701203BD1AD1385D3096D779634DD7E6DF504B01021400
311
140006080800597074577692EF1FDA000000200100004F000000000000000000000000000000000043423935313436452D344141422D344545352D393545432D4241444539333535434446452F4173736574446174612F446566696E6974696F6E4974657261746F7250726F706572746965732E62696E504B010214001400
311
060808005970745755694118EF0000003002000045000000000000000000000000004701000043423935313436452D344141422D344545352D393545432D4241444539333535434446452F4173736574446174612F496E7374616E636550726F706572746965732E62696E504B010214001400060808005970745728BB58AF
311
800100009E0500003D000000000000000000000000009902000043423935313436452D344141422D344545352D393545432D4241444539333535434446452F536368656D61732F436F6D6D6F6E536368656D612E786D6C504B01021400140006080800597074572CCEBD668A040000E01200003E0000000000000000000000
311
00007404000043423935313436452D344141422D344545352D393545432D4241444539333535434446452F536368656D61732F47656E65726963536368656D612E786D6C504B01021400140006080800597074576180134D5F0100006B03000045000000000000000000000000005A09000043423935313436452D34414142
311
2D344545352D393545432D4241444539333535434446452F536368656D61732F52656E6465724D6174657269616C536368656D612E786D6C504B010214001400060808005970745785C09770510000005700000047000000000000000000000000001C0B000043423935313436452D344141422D344545352D393545432D42
311
41444539333535434446452F4173736574446174612F41737365745461626C654F66436F6E74656E74732E62696E504B0102140014000608080059707457F865834058000000680000004500000000000000000000000000D20B000043423935313436452D344141422D344545352D393545432D4241444539333535434446
311
452F4173736574446174612F53747265616D56657273696F6E5461626C652E696E66504B01021400140006080800597074579D993647340100009A04000036000000000000000000000000008D0C000043423935313436452D344141422D344545352D393545432D4241444539333535434446452F4173736574446174612F
311
636E782E786D6C504B010214001400060808005970745796ED1A54070100004F0300003400000000000000000000000000150E000043423935313436452D344141422D344545352D393545432D4241444539333535434446452F536368656D61732F636E782E786D6C504B0102140014000608080059707457410A3D587100
311
0000A40000002C000000000000000000000000006E0F000043423935313436452D344141422D344545352D393545432D4241444539333535434446452F636E782E786D6C504B0102140014000608080059707457B7830B247D000000A3000000070000000000000000000000000029100000636E782E786D6C504B01021400
311
1400060808005970745716E99B5DA6000000350100001300000000000000000000000000CB1000005B436F6E74656E745F54797065735D2E786D6C504B01021400140006080800597074573DEE336E64000000790000001B00000000000000000000000000A21100006175746F6465736B2D64657369676E2D7061636B6167
311
652E786D6C504B01021400140006080800597074571C9E9BA3F60000009601000037000000000000000000000000003F12000043423935313436452D344141422D344545352D393545432D4241444539333535434446452F4173736574446174612F636F72652E786D6C504B0102140014000608080059707457D7F3C011F6
311
0000009401000035000000000000000000000000008A13000043423935313436452D344141422D344545352D393545432D4241444539333535434446452F536368656D61732F636F72652E786D6C504B01021400140006080800597074572437850302010000D70100002D00000000000000000000000000D3140000434239
311
35313436452D344141422D344545352D393545432D4241444539333535434446452F636F72652E786D6C504B010214001400060808005970745719F6FD0905010000B2010000080000000000000000000000000020160000636F72652E786D6C504B050600000000110011005A0600004B1700000000
310
504B030414000608080059707457000000000000000000000000370000006662782F35363337363938462D314544442D344236452D423039462D3841383846433833364242352F617474726962757465732E62696E504B030414000608080059707457000000000000000000000000350000006662782F3536333736393846
310
2D314544442D344236452D423039462D3841383846433833364242352F76657274696365732E62696E504B030414000608080059707457F270F1330600000004000000360000006662782F35363337363938462D314544442D344236452D423039462D3841383846433833364242352F747269616E676C65732E62696E6366
310
60600000504B03041400060808005970745751464CB48900000043010000360000006662782F35363337363938462D314544442D344236452D423039462D3841383846433833364242352F6469726563746F72792E786D6C9D8F310EC2300C45AF127987122606C71DD918B841D4B851A43646695A717C52A85029031293A5
310
A76FBF6FACEF7DA7264E43906840EF0FA03836E242F406C6DCEE4EA06AC22492573150D1F66C60C640E8938CB705396EEDD86DE9B5042FE27813D640EA63BB001C722AF6E55CB61E4863F58284D5D3F53DD715CE1C3985E63FD7F1B7EBDD617E9F1E504B0304140006080800597074572EDA50073E070000201C0000340000
310
006662782F35363337363938462D314544442D344236452D423039462D3841383846433833364242352F6F626A656374732E786D6CDD59596FDB3810FE2B84F665F74197AFD885E322B6E3C228D2160DBAD837819669871BEA002525CEFEFA1D52A42C2AB2ADF400169B00B14391C3996FEED1F4FD2162E889F08C26F1B5E5
310
3B9E85481C265B1AEFAFAD22DFD9630BBD9FA1294F92BCB6CF42318EC8B52596ADD974CF9322554B5BB2C3056BAEAEE67FA12C2431B150C870965D5B59F84022ECE0224FB6247B74B638C7CE7E77707CA7DC6892DD739C3E34AE4A3127710EACC27A0C541407BEF92F88E4CEA6AED8606CEB77DBD63BB3CD95829B8CD238CB
310
711CBEE2AA715DEF04578DEBFAFE6079DB1B4EECE160D0B707A39E6FCF57F3A5ED5FF5BDC568B198DCDC4E2C349B6E9284550A4849BC052DBE58337FEA8A2795F80A8536BEC3248E49A8D06CDBB0258A2E2559131303585F8A565348296B6DA1DF51F813DB3A8162B064A0AD85D39F75EB4D367F030859172BE51911569EE5
310
1C74ADB02FFDC19BBAE5AAA1179AA108E78453CC10A31B8E392808B6960A32C8086F11A490C04C6A51D3ABF30A867DD997DAB8DC158C09FFB566D2D302F04792679233FA0FE147EEEBB7014F206D41E37CAC84CD5F52203199BA72B17CD6EFA987259068C7F01EAC05C4149BFABD065E0B110BD64B6BF671B539DC8BF8D07E
310
79CA9394F05C589E7466E5775A8335D302E3EB004A89ABA9BB232A5F01FA4F807CC50B9A82E6383D0C0E032D3BC771B64B7804DA411EB23DF8E321F1F5D5B7A95B1D9E2164C4CA539882DBFE244C0D318CBB6B90CEA64F60F409EF2BE1EE43CCC0A6EF682CFC1C0C05B1049620DEEF36076BB686600A8B700A33901E7EA7AE
310
F88AE0A3A403F1A6A1A1B6F0DB4151DA619A7E76D4D507B0194EC34A55868CA7F01DFE147C6F96F71FEF0BBEC321B9538EBD243B1AD31C92693B4306E886CB7F5B7F921EF981251BCC8EA78D4D215CB34F44DC6851CBBD520B927A014E441A2E352357EE28783B6338264991A9F5B63815262CE1C1E625285DB8F5AE3FB50D
310
94972903688D6590DC434E5381893553DAAA02A15313142C0C736581FB52ABC1A688D2004749118B50FBDA149B7C409C1196085425356DD8DA6B35D92DDDED8A0C82572BC98501A4F2674DB8B4F001C4B1367E39D9710C493489030A39189CA5F506E3820ABCF33C6784ED02CA5811053BCA208F04114E4FD0EF28413D733D
310
9297E7846F5B099A96A57D52DB90005C01AB41D2D9AA8CF94AA79C3C515166CA7CA6B381B143D5A1D66C70225D884CD102A8364669E6C3ABC162D01F78F66DAF07159337F6ECC96A39B2478BABF9CDCDED787CE5CF9B7CEA6855CF77A04A51E618FE973F14D126C694C1032136DEA6EFDECBEC79ED426874C7ABABAB51FFA6
310
677BABE5DC1ECC87B7F6FCF6D6B3C7AB797FE58D17DE7CB97039C992828724737BAE1768934CE3FD29AE3477AF6328943597939DD6575398FF710C6DE6044389FFD5205AC5AE9682B06B1015479B2114878F22450521547DADEED308A24D3EDAE2DC1BE3B2E7F43DF9E3FB939E37E98D27A3CAD8CF066A79CF0FC7B9360942
310
E83B8B3C48521CD2BC3DA13670E918A7DF945B9CBE3F44804EF5B7BAE47C9E51970434C27B12ECB0E8125A02E325095A73D89E2559466392C92EEF55F5D7A0E939504C9939B7C50869164424C7DF637FB26D68D834C46616403F9A8B89C0C5AAA03268D5819CA228BA5F48DC52FE9720C351CACA4EF712067E4F43A07B9C36
310
8B134C8B2B9EC0DE029C07DE96C8C1C525EA15FBBA3E68D55A93FAE4BBC99F8047D735BF101E7D45F7D2C919FA13F13386A0321AFAFD2BAD884B58E9AB72D1C7B1023ACFF025782674FFD0A9D0ECA6935AC95616D53989A08DC579C13BF9EB68E8BDBA48C5858643D46E7A637128FB37DDC1017AB2813B55DED6AE813A94C6
310
30E7EA24C82B295A4D58EA42CEF4C4E8EA0D7E7D56D975AA3F1C2F7F79C55C77BE480E7F2EE300D572198055F4316AEAD6AADBA887B2679C871048EFE5A73D078FD892EDB13133C8B595E8BA3EBD543DAF45408D60628B459CBD135FD8570CAA86EE39733F94459B5BAEAF45627360387DE4C360DAA4F5F9C37D830AAC743E
310
FD4560449E1B14D4EA4274C367487D5B1F7BFE060525D1B7F599E3FF898E422BB0364683697096300A4379B2457B9240F686B143876E8347249359198C570529FD46A0C3E9A772A69AE30DD3A7C3070C8369A67AB12284A12864CC6B4BADA3DF600C2A26917238E53C421BA66298850A4EAF2DB0D89C42B7E56C609C258787
310
927A635C098E8DE3BDC8F7E5A9EAFFE331810E44A5A35CD59E2EB828C90C6782C23695EF09A0EA2B1FCCA6DF2FBA6607E11CBE6E8ABC12E6B870944681A05F0894C2C1D4EF51C17B8082E2BC5CBE23F71890749ACC9FB58392AA9D63BE97E3F51ADE37CB2FAE988CAF3FA394157BA1CE73DDAF41C9165D372BCA29D4140C43
310
89996251432EDEB95F7802AF9822B4A26004E8F7C378F487BB48A22889CB25F746BDA842F70FF0DA69EBEA911FB4F19E3F74E514408DF5830DCE8883B7D9232C806A3915B3D11262C300AA685A3300AD11A10B3866EC5F2F91AA8D6A13927AD815F0C8993E024712EF7284DBD437D40690E00BC0957C78FCA217A62E8721F8
310
EC5F504B0304140006080800597074573887DE413E01000046050000300000006662782F35363337363938462D314544442D344236452D423039462D3841383846433833364242352F636E782E786D6CCD94CF4A033110C65F65C97DB37F5490924DC1834FE041BC65B3D335369B599259B16F6F52D3AA48C543A1DEC2E41B
310
F87E331F23D66F932D5EC10783AE630DAF59014EE360DCD8B18536E52D2BD6527844FA2263855313742C959914A3C765CEA501366AB1A96A8DDBE6A222F2A65F08022BB45521742CE8679814570BE10061CB07458A37DC43C0C56B88FD6426C8FDDA832218986CEBF6AA6C9AB2AD1F9AEB55DDAE6E9A275125A5143DA2CD7A
310
E3083CCE85C6F870D14C2DAAF42DC5E24DD62402263F9DF1DE3851C57F294274EBC6ACA3DD9C74F36C8D5614C754A126A0328A404DA2FA104B5125DE6FD4F7778F0707C5603C6842BFBBD0009A5303381AE331097FE3DF0B7FC7C6FE25E25E6ADB2761B3ADB3A11ED21A625C7FEE3FA648B9D1FEBFD01F8D9D3FF3F19490D1
310
FF0FF9E0EB4CC4D5FEE4C5A5A70B28DF01504B0304140006080800597074571E2E5B567F000000A30000000B0000006662782F636E782E786D6C4D8CD10E822018465F85FDF794CEA4DF0D7091F21E2ED131111A69EBF183E64557DF76F69DC3DBCFEAC8DBC4970D5E40792A8018FF08A3F5B3807D9B280269258F216C7F37
310
207E588D808C41F23986FD79A0D14CC3EE3275D62F07AC5975650D6A5AF65D472F8AF554158DA67843D477AC98527532CE5949F3EBA5CD79F905504B030414000608080059707457A6D797065F0000008200000007000000636E782E786D6C4DCB3B0E80201045D1AD90E9FD7516806B51190811670C8A61F982B1B0BAC9C9
310
7B72CA7B1037C6D3332918DA1E04D2CAC69353902EDB8C20262D23F3F59B81A079470595414B17391D1F19B4730A5583A7ED43BBE4025D9592775E5ADFFA01504B0304140006080800597074574FEB6A7CA0000000F4000000130000005B436F6E74656E745F54797065735D2E786D6C7D8F4B0EC2300C44AF1279DFA6B040
310
0835ED02B8011730C16D239A8F121795DB93D02D6269CFBC19BBED573B8B17C564BC53B0AB1B10E4B47F18372A5878A88E20FAAEBDBD032591BD2E299898C349CAA427B2986A1FC86565F0D122E7318E32A07EE24872DF3407A9BD63725C71C980AEBDD080CBCCE2BAE6F5D69B7110E7CD57AA146008B3D1C8F92C5954F993
310
BB1BF787F39A89ABC491D09600F9FDA2FB00504B0304140006080800597074573DEE336E64000000790000001B0000006175746F6465736B2D64657369676E2D7061636B6167652E786D6C35CBC10E83200C00D05F21DCA56CA76D41FC96062B120735B69A7DBE268BB7777961F8D5AF396893C2ADB70FE7ADA196782C2DF7
310
76D7A97B5933C430F15651E5469C55D70F80A4992A3ADC954792C525AE70A1E4D6AD9816CC044FEFDF01FE3FDE907802504B030414000608080059707457588559CAF9000000960100003B0000006662782F35363337363938462D314544442D344236452D423039462D3841383846433833364242352F7265736F75726365
310
732F636F72652E786D6C8550CB6E833010FC15B477C076124823E3A821E917F4D49B6536C44AB0911F553FBF76A0527BEA6957B333B3BBC38F5FD3A3F844E7B5351DD08A408146D9419BB18318AEE51E8AA3E0CEDAF08B06859113769061107C7436CE2BA4AC0968326AEC802B28BDC700857AA4A603AF6E38C94AC69018FE
310
5ECD52DDE58815AD169EE031EA6195EA21B9E9AB4607A269DB53D3F7AC7CDB5DF6E5969CCFE5895EDA9211727E699B57D6929ED7592C78D0D3CF76E550061C4030C23625A589FF4EB707C20E3BFAC1EBCC14DC07977E5E97E6EF4038F4363A859ED7CBF48F6B9C87FF5DA33661C356D745E141D074E47320789D534AE51961
310
AA3951F10D504B030414000608080059707457A2A79FBCF3000000B1010000310000006662782F35363337363938462D314544442D344236452D423039462D3841383846433833364242352F636F72652E786D6C8D50CB6EC32010FC156BEFD8C68E5D1261A2BA89BFA0A7DE10101725068B47D5CF2F24AED4DE725A343BC3
310
CC0E3D7E2FB7E24B39AFAD1900973514CA082BB5990788E182081447469DB5E10F0D0AC31735408681D1D9D9B86E90B02628935163A5DA40EEBD0A50885B7A0CE0C5A75A78C963480C7F2D572EAE7C56252E1F3C46835E7EA5C2291E9404D6D44D8B30464DFD8E7787BA3974F8835699C9688C5A6E565A26777DD1CA01EBFA
310
F6A5DF9309E1F3E98476637F4663BD9F107925647A236D3F8E1DADB298511F5CBA79FB245FF7ACFC21FC9739AEF289CCDA84B6D90C1F0A0F0CA73CF705A3552E308D7BBB69E6B2D90F504B0304140006080800597074578263408E54010000DD0200000C0000006662782F636F72652E786D6C8D52D96EC32010FC158B77DB
310
400EA711266A8E7E419FFA466CE2A2D86061B0F2F95D7CC8CD430F59C26876777666043B3C9A3AEAA5ED94D13922094691D4852995AE72E4DD2DDEA1E8C09935C67D6B4391168DCC518011679535BE9DA0C268277540B529E5048AAE930E45450D971C75C5A76C4422BC838EEE9EB4A2B88B4A262419FB38F35E95D3A82A81
310
4DDD94B4886FB3ECB83D9D68FCB6B9ECE2353E9FE323B96431C5F8FC926D5F69864F2C0DC39C39D5CCDB0B2B859325E214D3554C08F4BF93F51ED3FD867CB0347472D6390B9EA7A5C11DE2B7EB83A523FEC4E7DBF26F3EAFB45BD1896F9CE81027206F287096867CE03784F79C212C86FC9CB8D6B3853B40BD2C9CB16BA894
310
C62FA55ED45E02358E868FA563159807829F78E82F3CBF7340504257204D38B85EBD0BDB9F35B5D2C6BD7B44DAD846D48BB851E2722E8B9E2CCDE385A98DFDCFF46C750E330D0F937F01504B0304140006080800597074576B56A44506010000B201000008000000636F72652E786D6C8D504B6EC32010BD0A9ABD6D20899D
310
4698A8B1D31374D51D35C445B1C1021CB5B72F24546A775D0D7AF37E0C3B7ECE13BA29E7B5352D9012035266B0529BB185355C8A3DA02367CEDAF08B06C88859B59060E06C74765D323458139449A8B152655078AF02A0618A8F16FCF0A166518A354486BF968B18AE625425291F3CCE829E7FA483532228099C62BA290829
310
287E25DB03A6871D7963556272B6AE5AE6282D63BABE68E580D74D73AABB8E162FBBF3BED8E2BE2F4EE4DC440BDC3F35F5336D70C7AA24E6CC0717FF9C4D62CF80BCB8A55C563D569CBD5B3B65422C259135D31770CCAAB4F8537A5DE43F4A6B1336341B3E141E388985EE8B189C2E18C7FDBC71A66BF36F504B0102140014
310
0006080800597074570000000000000000000000003700000000000000000000000000000000006662782F35363337363938462D314544442D344236452D423039462D3841383846433833364242352F617474726962757465732E62696E504B01021400140006080800597074570000000000000000000000003500000000
310
000000000000000000550000006662782F35363337363938462D314544442D344236452D423039462D3841383846433833364242352F76657274696365732E62696E504B0102140014000608080059707457F270F13306000000040000003600000000000000000000000000A80000006662782F35363337363938462D3145
310
44442D344236452D423039462D3841383846433833364242352F747269616E676C65732E62696E504B010214001400060808005970745751464CB489000000430100003600000000000000000000000000020100006662782F35363337363938462D314544442D344236452D423039462D3841383846433833364242352F64
310
69726563746F72792E786D6C504B01021400140006080800597074572EDA50073E070000201C00003400000000000000000000000000DF0100006662782F35363337363938462D314544442D344236452D423039462D3841383846433833364242352F6F626A656374732E786D6C504B010214001400060808005970745738
310
87DE413E0100004605000030000000000000000000000000006F0900006662782F35363337363938462D314544442D344236452D423039462D3841383846433833364242352F636E782E786D6C504B01021400140006080800597074571E2E5B567F000000A30000000B00000000000000000000000000FB0A00006662782F
310
636E782E786D6C504B0102140014000608080059707457A6D797065F000000820000000700000000000000000000000000A30B0000636E782E786D6C504B01021400140006080800597074574FEB6A7CA0000000F40000001300000000000000000000000000270C00005B436F6E74656E745F54797065735D2E786D6C504B
310
01021400140006080800597074573DEE336E64000000790000001B00000000000000000000000000F80C00006175746F6465736B2D64657369676E2D7061636B6167652E786D6C504B0102140014000608080059707457588559CAF9000000960100003B00000000000000000000000000950D00006662782F353633373639
310
38462D314544442D344236452D423039462D3841383846433833364242352F7265736F75726365732F636F72652E786D6C504B0102140014000608080059707457A2A79FBCF3000000B10100003100000000000000000000000000E70E00006662782F35363337363938462D314544442D344236452D423039462D38413838
310
46433833364242352F636F72652E786D6C504B01021400140006080800597074578263408E54010000DD0200000C00000000000000000000000000291000006662782F636F72652E786D6C504B01021400140006080800597074576B56A44506010000B20100000800000000000000000000000000A7110000636F72652E78
310
6D6C504B0506000000000E000E0080040000D31200000000
  0
XRECORD
  5
8205
102
{ACAD_REACTORS
330
8200
102
}
330
8200
100
AcDbXrecord
280
     1
270
     1
271
     1
  0
XRECORD
  5
8204
102
{ACAD_REACTORS
330
8200
102
}
330
8200
100
AcDbXrecord
280
     1
270
     1
271
     1
  0
XRECORD
  5
8206
102
{ACAD_REACTORS
330
8200
102
}
330
8200
100
AcDbXrecord
280
     1
270
     1
271
     1
  0
XRECORD
  5
8203
102
{ACAD_REACTORS
330
8200
102
}
330
8200
100
AcDbXrecord
280
     1
270
     1
271
     1
  0
XRECORD
  5
8370
102
{ACAD_REACTORS
330
836F
102
}
330
836F
100
AcDbXrecord
280
     1
102
DISPLAYNAME
  1
Imperial24
102
FLAGS
 90
        0
  0
CELLSTYLEMAP
  5
8337
102
{ACAD_REACTORS
330
8336
102
}
330
8336
100
AcDbCellStyleMap
 90
        3
300
CELLSTYLE
  1
TABLEFORMAT_BEGIN
 90
        5
170
     1
 91
        0
 92
    32768
 62
   257
 93
        1
300
CONTENTFORMAT
  1
CONTENTFORMAT_BEGIN
 90
        0
 91
        0
 92
      512
 93
        0
300

 40
0.0
140
1.0
 94
        5
 62
     0
340
8233
144
0.25
309
CONTENTFORMAT_END
171
     0
 94
        0
309
TABLEFORMAT_END
  1
CELLSTYLE_BEGIN
 90
        1
 91
        1
300
_TITLE
309
CELLSTYLE_END
300
CELLSTYLE
  1
TABLEFORMAT_BEGIN
 90
        5
170
     1
 91
        0
 92
        0
 62
   257
 93
        1
300
CONTENTFORMAT
  1
CONTENTFORMAT_BEGIN
 90
        0
 91
        0
 92
      512
 93
        0
300

 40
0.0
140
1.0
 94
        5
 62
     0
340
8233
144
0.18
309
CONTENTFORMAT_END
171
     0
 94
        0
309
TABLEFORMAT_END
  1
CELLSTYLE_BEGIN
 90
        2
 91
        1
300
_HEADER
309
CELLSTYLE_END
300
CELLSTYLE
  1
TABLEFORMAT_BEGIN
 90
        5
170
     1
 91
        0
 92
        0
 62
   257
 93
        1
300
CONTENTFORMAT
  1
CONTENTFORMAT_BEGIN
 90
        0
 91
        0
 92
      512
 93
        0
300

 40
0.0
140
1.0
 94
        2
 62
     0
340
8233
144
0.18
309
CONTENTFORMAT_END
171
     0
 94
        0
309
TABLEFORMAT_END
  1
CELLSTYLE_BEGIN
 90
        3
 91
        2
300
_DATA
309
CELLSTYLE_END
  0
XRECORD
  5
836D
102
{ACAD_REACTORS
330
8336
102
}
330
8336
100
AcDbXrecord
280
     1
102
ACAD_ROUNDTRIP_PRE2007_TABLESTYLE
 90
      512
 91
        0
  1

 92
      512
 93
        0
  2

 94
      512
 95
        0
  3

  0
XRECORD
  5
8348
102
{ACAD_REACTORS
330
8347
102
}
330
8347
100
AcDbXrecord
280
     1
102
RTVSPost2010Prop28
280
     1
102
RTVSPost2010PropOp28
 70
     1
102
RTVSPost2010Prop29
280
     1
102
RTVSPost2010PropOp29
 70
     1
102
RTVSPost2010Prop30
280
     0
102
RTVSPost2010PropOp30
 70
     1
102
RTVSPost2010Prop31
280
     0
102
RTVSPost2010PropOp31
 70
     1
102
RTVSPost2010Prop32
280
     0
102
RTVSPost2010PropOp32
 70
     1
102
RTVSPost2010Prop33
280
     0
102
RTVSPost2010PropOp33
 70
     1
102
RTVSPost2010Prop34
280
     0
102
RTVSPost2010PropOp34
 70
     1
102
RTVSPost2010Prop35
280
     0
102
RTVSPost2010PropOp35
 70
     1
102
RTVSPost2010Prop36
280
     0
102
RTVSPost2010PropOp36
 70
     1
102
RTVSPost2010Prop37
 90
       50
102
RTVSPost2010PropOp37
 70
     1
102
RTVSPost2010Prop38
140
0.0
102
RTVSPost2010PropOp38
 70
     1
102
RTVSPost2010Prop39
140
1.0
102
RTVSPost2010PropOp39
 70
     1
102
RTVSPost2010Prop40
 90
        0
102
RTVSPost2010PropOp40
 70
     1
102
RTVSPost2010Prop41ColorIndex
 90
       18
102
RTVSPost2010Prop41ColorRGB
 90
        0
102
RTVSPost2010PropOp41
 70
     1
102
RTVSPost2010Prop42
 90
       50
102
RTVSPost2010PropOp42
 70
     1
102
RTVSPost2010Prop43
 90
        3
102
RTVSPost2010PropOp43
 70
     1
102
RTVSPost2010Prop44ColorIndex
 90
        5
102
RTVSPost2010Prop44ColorRGB
 90
      255
102
RTVSPost2010PropOp44
 70
     1
102
RTVSPost2010Prop45
280
     0
102
RTVSPost2010PropOp45
 70
     1
102
RTVSPost2010Prop46
 90
       50
102
RTVSPost2010PropOp46
 70
     1
102
RTVSPost2010Prop47
 90
       50
102
RTVSPost2010PropOp47
 70
     1
102
RTVSPost2010Prop48
 90
       50
102
RTVSPost2010PropOp48
 70
     1
102
RTVSPost2010Prop49
280
     0
102
RTVSPost2010PropOp49
 70
     1
102
RTVSPost2010Prop50
 90
       50
102
RTVSPost2010PropOp50
 70
     1
102
RTVSPost2010Prop51ColorIndex
 90
      256
102
RTVSPost2010Prop51ColorRGB
 90
-16777216
102
RTVSPost2010PropOp51
 70
     0
102
RTVSPost2010Prop52
140
1.0
102
RTVSPost2010PropOp52
 70
     0
102
RTVSPost2010Prop53
 90
        2
102
RTVSPost2010PropOp53
 70
     1
102
RTVSPost2010Prop54
  1
strokes_ogs.tif
102
RTVSPost2010PropOp54
 70
     1
102
RTVSPost2010Prop55
280
     0
102
RTVSPost2010PropOp55
 70
     1
102
RTVSPost2010Prop56
140
1.0
102
RTVSPost2010PropOp56
 70
     1
102
RTVSPost2010Prop57
140
1.0
102
RTVSPost2010PropOp57
 70
     1
102
RTVSPropertyOp0
 70
     1
102
RTVSPropertyOp1
 70
     1
102
RTVSPropertyOp2
 70
     1
102
RTVSPropertyOp3
 70
     1
102
RTVSPropertyOp4
 70
     1
102
RTVSPropertyOp5
 70
     1
102
RTVSPropertyOp6
 70
     1
102
RTVSPropertyOp7
 70
     1
102
RTVSPropertyOp8
 70
     1
102
RTVSPropertyOp9
 70
     1
102
RTVSPropertyOp10
 70
     1
102
RTVSPropertyOp11
 70
     1
102
RTVSPropertyOp12
 70
     1
102
RTVSPropertyOp13
 70
     1
102
RTVSPropertyOp14
 70
     1
102
RTVSPropertyOp15
 70
     1
102
RTVSPropertyOp16
 70
     1
102
RTVSPropertyOp17
 70
     1
102
RTVSPropertyOp18
 70
     1
102
RTVSPropertyOp19
 70
     1
102
RTVSPropertyOp20
 70
     1
102
RTVSPropertyOp21
 70
     1
102
RTVSPropertyOp22
 70
     1
102
RTVSPropertyOp23
 70
     1
102
RTVSPropertyOp24
 70
     1
102
RTVSPropertyOp25
 70
     1
102
RTVSPropertyOp26
 70
     1
102
RTVSPropertyOp27
 70
     1
102
RTVSPropertyOp28
 70
     1
102
RTVSPropertyOp29
 70
     1
102
RTVSPropertyOp30
 70
     1
102
RTVSPropertyOp31
 70
     1
102
RTVSPropertyOp32
 70
     1
102
RTVSPropertyOp33
 70
     1
102
RTVSPropertyOp34
 70
     1
102
RTVSPropertyOp35
 70
     1
102
RTVSPropertyOp36
 70
     1
102
RTVSPropertyOp37
 70
     1
102
RTVSPropertyOp38
 70
     1
102
RTVSPropertyOp39
 70
     1
102
RTVSPropertyOp40
 70
     1
102
RTVSPropertyOp41
 70
     1
102
RTVSPropertyOp42
 70
     1
102
RTVSPropertyOp43
 70
     1
102
RTVSPropertyOp44
 70
     1
102
RTVSPropertyOp45
 70
     1
102
RTVSPropertyOp46
 70
     1
102
RTVSPropertyOp47
 70
     1
102
RTVSPropertyOp48
 70
     1
102
RTVSPropertyOp49
 70
     1
102
RTVSPropertyOp50
 70
     1
102
RTVSPropertyOp51
 70
     0
102
RTVSPropertyOp52
 70
     0
102
RTVSPropertyOp53
 70
     1
102
RTVSPropertyOp54
 70
     1
102
RTVSPropertyOp55
 70
     1
102
RTVSPropertyOp56
 70
     1
102
RTVSPropertyOp57
 70
     1
102
RTVSPropertyOp58
 70
     1
102
RTVSPropertyOp59
 70
     1
102
RTVSPropertyOp60
 70
     1
102
RTVSPropertyOp61
 70
     1
102
RTVSPropertyOp62
 70
     1
  0
XRECORD
  5
8346
102
{ACAD_REACTORS
330
8345
102
}
330
8345
100
AcDbXrecord
280
     1
102
RTVSPost2010Prop28
280
     0
102
RTVSPost2010PropOp28
 70
     1
102
RTVSPost2010Prop29
280
     1
102
RTVSPost2010PropOp29
 70
     1
102
RTVSPost2010Prop30
280
     1
102
RTVSPost2010PropOp30
 70
     1
102
RTVSPost2010Prop31
280
     0
102
RTVSPost2010PropOp31
 70
     1
102
RTVSPost2010Prop32
280
     0
102
RTVSPost2010PropOp32
 70
     1
102
RTVSPost2010Prop33
280
     0
102
RTVSPost2010PropOp33
 70
     1
102
RTVSPost2010Prop34
280
     0
102
RTVSPost2010PropOp34
 70
     1
102
RTVSPost2010Prop35
280
     0
102
RTVSPost2010PropOp35
 70
     1
102
RTVSPost2010Prop36
280
     0
102
RTVSPost2010PropOp36
 70
     1
102
RTVSPost2010Prop37
 90
       50
102
RTVSPost2010PropOp37
 70
     1
102
RTVSPost2010Prop38
140
0.0
102
RTVSPost2010PropOp38
 70
     1
102
RTVSPost2010Prop39
140
1.0
102
RTVSPost2010PropOp39
 70
     1
102
RTVSPost2010Prop40
 90
        0
102
RTVSPost2010PropOp40
 70
     1
102
RTVSPost2010Prop41ColorIndex
 90
       18
102
RTVSPost2010Prop41ColorRGB
 90
        0
102
RTVSPost2010PropOp41
 70
     1
102
RTVSPost2010Prop42
 90
       50
102
RTVSPost2010PropOp42
 70
     1
102
RTVSPost2010Prop43
 90
        3
102
RTVSPost2010PropOp43
 70
     1
102
RTVSPost2010Prop44ColorIndex
 90
        5
102
RTVSPost2010Prop44ColorRGB
 90
      255
102
RTVSPost2010PropOp44
 70
     1
102
RTVSPost2010Prop45
280
     0
102
RTVSPost2010PropOp45
 70
     1
102
RTVSPost2010Prop46
 90
       50
102
RTVSPost2010PropOp46
 70
     1
102
RTVSPost2010Prop47
 90
       50
102
RTVSPost2010PropOp47
 70
     1
102
RTVSPost2010Prop48
 90
       50
102
RTVSPost2010PropOp48
 70
     1
102
RTVSPost2010Prop49
280
     0
102
RTVSPost2010PropOp49
 70
     1
102
RTVSPost2010Prop50
 90
       50
102
RTVSPost2010PropOp50
 70
     1
102
RTVSPost2010Prop51ColorIndex
 90
      256
102
RTVSPost2010Prop51ColorRGB
 90
-16777216
102
RTVSPost2010PropOp51
 70
     0
102
RTVSPost2010Prop52
140
1.0
102
RTVSPost2010PropOp52
 70
     0
102
RTVSPost2010Prop53
 90
        2
102
RTVSPost2010PropOp53
 70
     1
102
RTVSPost2010Prop54
  1
strokes_ogs.tif
102
RTVSPost2010PropOp54
 70
     1
102
RTVSPost2010Prop55
280
     0
102
RTVSPost2010PropOp55
 70
     1
102
RTVSPost2010Prop56
140
1.0
102
RTVSPost2010PropOp56
 70
     1
102
RTVSPost2010Prop57
140
1.0
102
RTVSPost2010PropOp57
 70
     1
102
RTVSPropertyOp0
 70
     1
102
RTVSPropertyOp1
 70
     1
102
RTVSPropertyOp2
 70
     1
102
RTVSPropertyOp3
 70
     1
102
RTVSPropertyOp4
 70
     1
102
RTVSPropertyOp5
 70
     1
102
RTVSPropertyOp6
 70
     1
102
RTVSPropertyOp7
 70
     1
102
RTVSPropertyOp8
 70
     1
102
RTVSPropertyOp9
 70
     1
102
RTVSPropertyOp10
 70
     1
102
RTVSPropertyOp11
 70
     1
102
RTVSPropertyOp12
 70
     1
102
RTVSPropertyOp13
 70
     1
102
RTVSPropertyOp14
 70
     1
102
RTVSPropertyOp15
 70
     1
102
RTVSPropertyOp16
 70
     1
102
RTVSPropertyOp17
 70
     1
102
RTVSPropertyOp18
 70
     1
102
RTVSPropertyOp19
 70
     1
102
RTVSPropertyOp20
 70
     1
102
RTVSPropertyOp21
 70
     1
102
RTVSPropertyOp22
 70
     1
102
RTVSPropertyOp23
 70
     1
102
RTVSPropertyOp24
 70
     1
102
RTVSPropertyOp25
 70
     1
102
RTVSPropertyOp26
 70
     1
102
RTVSPropertyOp27
 70
     1
102
RTVSPropertyOp28
 70
     1
102
RTVSPropertyOp29
 70
     1
102
RTVSPropertyOp30
 70
     1
102
RTVSPropertyOp31
 70
     1
102
RTVSPropertyOp32
 70
     1
102
RTVSPropertyOp33
 70
     1
102
RTVSPropertyOp34
 70
     1
102
RTVSPropertyOp35
 70
     1
102
RTVSPropertyOp36
 70
     1
102
RTVSPropertyOp37
 70
     1
102
RTVSPropertyOp38
 70
     1
102
RTVSPropertyOp39
 70
     1
102
RTVSPropertyOp40
 70
     1
102
RTVSPropertyOp41
 70
     1
102
RTVSPropertyOp42
 70
     1
102
RTVSPropertyOp43
 70
     1
102
RTVSPropertyOp44
 70
     1
102
RTVSPropertyOp45
 70
     1
102
RTVSPropertyOp46
 70
     1
102
RTVSPropertyOp47
 70
     1
102
RTVSPropertyOp48
 70
     1
102
RTVSPropertyOp49
 70
     1
102
RTVSPropertyOp50
 70
     1
102
RTVSPropertyOp51
 70
     0
102
RTVSPropertyOp52
 70
     0
102
RTVSPropertyOp53
 70
     1
102
RTVSPropertyOp54
 70
     1
102
RTVSPropertyOp55
 70
     1
102
RTVSPropertyOp56
 70
     1
102
RTVSPropertyOp57
 70
     1
102
RTVSPropertyOp58
 70
     1
102
RTVSPropertyOp59
 70
     1
102
RTVSPropertyOp60
 70
     1
102
RTVSPropertyOp61
 70
     1
102
RTVSPropertyOp62
 70
     1
  0
XRECORD
  5
8354
102
{ACAD_REACTORS
330
8353
102
}
330
8353
100
AcDbXrecord
280
     1
102
RTVSPost2010Prop28
280
     0
102
RTVSPost2010PropOp28
 70
     1
102
RTVSPost2010Prop29
280
     1
102
RTVSPost2010PropOp29
 70
     1
102
RTVSPost2010Prop30
280
     1
102
RTVSPost2010PropOp30
 70
     1
102
RTVSPost2010Prop31
280
     0
102
RTVSPost2010PropOp31
 70
     1
102
RTVSPost2010Prop32
280
     0
102
RTVSPost2010PropOp32
 70
     1
102
RTVSPost2010Prop33
280
     0
102
RTVSPost2010PropOp33
 70
     1
102
RTVSPost2010Prop34
280
     0
102
RTVSPost2010PropOp34
 70
     1
102
RTVSPost2010Prop35
280
     0
102
RTVSPost2010PropOp35
 70
     1
102
RTVSPost2010Prop36
280
     0
102
RTVSPost2010PropOp36
 70
     1
102
RTVSPost2010Prop37
 90
       50
102
RTVSPost2010PropOp37
 70
     1
102
RTVSPost2010Prop38
140
0.0
102
RTVSPost2010PropOp38
 70
     1
102
RTVSPost2010Prop39
140
1.0
102
RTVSPost2010PropOp39
 70
     1
102
RTVSPost2010Prop40
 90
        0
102
RTVSPost2010PropOp40
 70
     1
102
RTVSPost2010Prop41ColorIndex
 90
       18
102
RTVSPost2010Prop41ColorRGB
 90
        0
102
RTVSPost2010PropOp41
 70
     1
102
RTVSPost2010Prop42
 90
       50
102
RTVSPost2010PropOp42
 70
     1
102
RTVSPost2010Prop43
 90
        3
102
RTVSPost2010PropOp43
 70
     1
102
RTVSPost2010Prop44ColorIndex
 90
        5
102
RTVSPost2010Prop44ColorRGB
 90
      255
102
RTVSPost2010PropOp44
 70
     1
102
RTVSPost2010Prop45
280
     0
102
RTVSPost2010PropOp45
 70
     1
102
RTVSPost2010Prop46
 90
       50
102
RTVSPost2010PropOp46
 70
     1
102
RTVSPost2010Prop47
 90
       50
102
RTVSPost2010PropOp47
 70
     1
102
RTVSPost2010Prop48
 90
       50
102
RTVSPost2010PropOp48
 70
     1
102
RTVSPost2010Prop49
280
     0
102
RTVSPost2010PropOp49
 70
     1
102
RTVSPost2010Prop50
 90
       50
102
RTVSPost2010PropOp50
 70
     1
102
RTVSPost2010Prop51ColorIndex
 90
      256
102
RTVSPost2010Prop51ColorRGB
 90
-16777216
102
RTVSPost2010PropOp51
 70
     0
102
RTVSPost2010Prop52
140
1.0
102
RTVSPost2010PropOp52
 70
     0
102
RTVSPost2010Prop53
 90
        2
102
RTVSPost2010PropOp53
 70
     1
102
RTVSPost2010Prop54
  1
strokes_ogs.tif
102
RTVSPost2010PropOp54
 70
     1
102
RTVSPost2010Prop55
280
     0
102
RTVSPost2010PropOp55
 70
     1
102
RTVSPost2010Prop56
140
1.0
102
RTVSPost2010PropOp56
 70
     1
102
RTVSPost2010Prop57
140
1.0
102
RTVSPost2010PropOp57
 70
     1
102
RTVSPropertyOp0
 70
     1
102
RTVSPropertyOp1
 70
     1
102
RTVSPropertyOp2
 70
     1
102
RTVSPropertyOp3
 70
     1
102
RTVSPropertyOp4
 70
     1
102
RTVSPropertyOp5
 70
     1
102
RTVSPropertyOp6
 70
     1
102
RTVSPropertyOp7
 70
     1
102
RTVSPropertyOp8
 70
     1
102
RTVSPropertyOp9
 70
     1
102
RTVSPropertyOp10
 70
     1
102
RTVSPropertyOp11
 70
     1
102
RTVSPropertyOp12
 70
     1
102
RTVSPropertyOp13
 70
     1
102
RTVSPropertyOp14
 70
     1
102
RTVSPropertyOp15
 70
     1
102
RTVSPropertyOp16
 70
     1
102
RTVSPropertyOp17
 70
     1
102
RTVSPropertyOp18
 70
     1
102
RTVSPropertyOp19
 70
     1
102
RTVSPropertyOp20
 70
     1
102
RTVSPropertyOp21
 70
     1
102
RTVSPropertyOp22
 70
     1
102
RTVSPropertyOp23
 70
     1
102
RTVSPropertyOp24
 70
     1
102
RTVSPropertyOp25
 70
     1
102
RTVSPropertyOp26
 70
     1
102
RTVSPropertyOp27
 70
     1
102
RTVSPropertyOp28
 70
     1
102
RTVSPropertyOp29
 70
     1
102
RTVSPropertyOp30
 70
     1
102
RTVSPropertyOp31
 70
     1
102
RTVSPropertyOp32
 70
     1
102
RTVSPropertyOp33
 70
     1
102
RTVSPropertyOp34
 70
     1
102
RTVSPropertyOp35
 70
     1
102
RTVSPropertyOp36
 70
     1
102
RTVSPropertyOp37
 70
     1
102
RTVSPropertyOp38
 70
     1
102
RTVSPropertyOp39
 70
     1
102
RTVSPropertyOp40
 70
     1
102
RTVSPropertyOp41
 70
     1
102
RTVSPropertyOp42
 70
     1
102
RTVSPropertyOp43
 70
     1
102
RTVSPropertyOp44
 70
     1
102
RTVSPropertyOp45
 70
     1
102
RTVSPropertyOp46
 70
     1
102
RTVSPropertyOp47
 70
     1
102
RTVSPropertyOp48
 70
     1
102
RTVSPropertyOp49
 70
     1
102
RTVSPropertyOp50
 70
     1
102
RTVSPropertyOp51
 70
     0
102
RTVSPropertyOp52
 70
     0
102
RTVSPropertyOp53
 70
     1
102
RTVSPropertyOp54
 70
     1
102
RTVSPropertyOp55
 70
     1
102
RTVSPropertyOp56
 70
     1
102
RTVSPropertyOp57
 70
     1
102
RTVSPropertyOp58
 70
     1
102
RTVSPropertyOp59
 70
     1
102
RTVSPropertyOp60
 70
     1
102
RTVSPropertyOp61
 70
     1
102
RTVSPropertyOp62
 70
     1
  0
XRECORD
  5
835C
102
{ACAD_REACTORS
330
835B
102
}
330
835B
100
AcDbXrecord
280
     1
102
RTVSPost2010Prop28
280
     0
102
RTVSPost2010PropOp28
 70
     1
102
RTVSPost2010Prop29
280
     1
102
RTVSPost2010PropOp29
 70
     1
102
RTVSPost2010Prop30
280
     1
102
RTVSPost2010PropOp30
 70
     1
102
RTVSPost2010Prop31
280
     0
102
RTVSPost2010PropOp31
 70
     1
102
RTVSPost2010Prop32
280
     0
102
RTVSPost2010PropOp32
 70
     1
102
RTVSPost2010Prop33
280
     0
102
RTVSPost2010PropOp33
 70
     1
102
RTVSPost2010Prop34
280
     0
102
RTVSPost2010PropOp34
 70
     1
102
RTVSPost2010Prop35
280
     0
102
RTVSPost2010PropOp35
 70
     1
102
RTVSPost2010Prop36
280
     0
102
RTVSPost2010PropOp36
 70
     1
102
RTVSPost2010Prop37
 90
       50
102
RTVSPost2010PropOp37
 70
     1
102
RTVSPost2010Prop38
140
0.0
102
RTVSPost2010PropOp38
 70
     1
102
RTVSPost2010Prop39
140
1.0
102
RTVSPost2010PropOp39
 70
     1
102
RTVSPost2010Prop40
 90
        0
102
RTVSPost2010PropOp40
 70
     1
102
RTVSPost2010Prop41ColorIndex
 90
       18
102
RTVSPost2010Prop41ColorRGB
 90
        0
102
RTVSPost2010PropOp41
 70
     1
102
RTVSPost2010Prop42
 90
       50
102
RTVSPost2010PropOp42
 70
     1
102
RTVSPost2010Prop43
 90
        3
102
RTVSPost2010PropOp43
 70
     1
102
RTVSPost2010Prop44ColorIndex
 90
        5
102
RTVSPost2010Prop44ColorRGB
 90
      255
102
RTVSPost2010PropOp44
 70
     1
102
RTVSPost2010Prop45
280
     0
102
RTVSPost2010PropOp45
 70
     1
102
RTVSPost2010Prop46
 90
       50
102
RTVSPost2010PropOp46
 70
     1
102
RTVSPost2010Prop47
 90
       50
102
RTVSPost2010PropOp47
 70
     1
102
RTVSPost2010Prop48
 90
       50
102
RTVSPost2010PropOp48
 70
     1
102
RTVSPost2010Prop49
280
     0
102
RTVSPost2010PropOp49
 70
     1
102
RTVSPost2010Prop50
 90
       50
102
RTVSPost2010PropOp50
 70
     1
102
RTVSPost2010Prop51ColorIndex
 90
      256
102
RTVSPost2010Prop51ColorRGB
 90
-16777216
102
RTVSPost2010PropOp51
 70
     0
102
RTVSPost2010Prop52
140
1.0
102
RTVSPost2010PropOp52
 70
     0
102
RTVSPost2010Prop53
 90
        2
102
RTVSPost2010PropOp53
 70
     1
102
RTVSPost2010Prop54
  1
strokes_ogs.tif
102
RTVSPost2010PropOp54
 70
     1
102
RTVSPost2010Prop55
280
     0
102
RTVSPost2010PropOp55
 70
     1
102
RTVSPost2010Prop56
140
1.0
102
RTVSPost2010PropOp56
 70
     1
102
RTVSPost2010Prop57
140
1.0
102
RTVSPost2010PropOp57
 70
     1
102
RTVSPropertyOp0
 70
     1
102
RTVSPropertyOp1
 70
     1
102
RTVSPropertyOp2
 70
     1
102
RTVSPropertyOp3
 70
     1
102
RTVSPropertyOp4
 70
     1
102
RTVSPropertyOp5
 70
     1
102
RTVSPropertyOp6
 70
     1
102
RTVSPropertyOp7
 70
     1
102
RTVSPropertyOp8
 70
     1
102
RTVSPropertyOp9
 70
     1
102
RTVSPropertyOp10
 70
     1
102
RTVSPropertyOp11
 70
     1
102
RTVSPropertyOp12
 70
     1
102
RTVSPropertyOp13
 70
     1
102
RTVSPropertyOp14
 70
     1
102
RTVSPropertyOp15
 70
     1
102
RTVSPropertyOp16
 70
     1
102
RTVSPropertyOp17
 70
     1
102
RTVSPropertyOp18
 70
     1
102
RTVSPropertyOp19
 70
     1
102
RTVSPropertyOp20
 70
     1
102
RTVSPropertyOp21
 70
     1
102
RTVSPropertyOp22
 70
     1
102
RTVSPropertyOp23
 70
     1
102
RTVSPropertyOp24
 70
     1
102
RTVSPropertyOp25
 70
     1
102
RTVSPropertyOp26
 70
     1
102
RTVSPropertyOp27
 70
     1
102
RTVSPropertyOp28
 70
     1
102
RTVSPropertyOp29
 70
     1
102
RTVSPropertyOp30
 70
     1
102
RTVSPropertyOp31
 70
     1
102
RTVSPropertyOp32
 70
     1
102
RTVSPropertyOp33
 70
     1
102
RTVSPropertyOp34
 70
     1
102
RTVSPropertyOp35
 70
     1
102
RTVSPropertyOp36
 70
     1
102
RTVSPropertyOp37
 70
     1
102
RTVSPropertyOp38
 70
     1
102
RTVSPropertyOp39
 70
     1
102
RTVSPropertyOp40
 70
     1
102
RTVSPropertyOp41
 70
     1
102
RTVSPropertyOp42
 70
     1
102
RTVSPropertyOp43
 70
     1
102
RTVSPropertyOp44
 70
     1
102
RTVSPropertyOp45
 70
     1
102
RTVSPropertyOp46
 70
     1
102
RTVSPropertyOp47
 70
     1
102
RTVSPropertyOp48
 70
     1
102
RTVSPropertyOp49
 70
     1
102
RTVSPropertyOp50
 70
     1
102
RTVSPropertyOp51
 70
     0
102
RTVSPropertyOp52
 70
     0
102
RTVSPropertyOp53
 70
     1
102
RTVSPropertyOp54
 70
     1
102
RTVSPropertyOp55
 70
     1
102
RTVSPropertyOp56
 70
     1
102
RTVSPropertyOp57
 70
     1
102
RTVSPropertyOp58
 70
     1
102
RTVSPropertyOp59
 70
     1
102
RTVSPropertyOp60
 70
     1
102
RTVSPropertyOp61
 70
     1
102
RTVSPropertyOp62
 70
     1
  0
XRECORD
  5
834E
102
{ACAD_REACTORS
330
834D
102
}
330
834D
100
AcDbXrecord
280
     1
102
RTVSPost2010Prop28
280
     0
102
RTVSPost2010PropOp28
 70
     1
102
RTVSPost2010Prop29
280
     1
102
RTVSPost2010PropOp29
 70
     1
102
RTVSPost2010Prop30
280
     1
102
RTVSPost2010PropOp30
 70
     1
102
RTVSPost2010Prop31
280
     0
102
RTVSPost2010PropOp31
 70
     1
102
RTVSPost2010Prop32
280
     0
102
RTVSPost2010PropOp32
 70
     1
102
RTVSPost2010Prop33
280
     0
102
RTVSPost2010PropOp33
 70
     1
102
RTVSPost2010Prop34
280
     0
102
RTVSPost2010PropOp34
 70
     1
102
RTVSPost2010Prop35
280
     0
102
RTVSPost2010PropOp35
 70
     1
102
RTVSPost2010Prop36
280
     0
102
RTVSPost2010PropOp36
 70
     1
102
RTVSPost2010Prop37
 90
       50
102
RTVSPost2010PropOp37
 70
     1
102
RTVSPost2010Prop38
140
0.0
102
RTVSPost2010PropOp38
 70
     1
102
RTVSPost2010Prop39
140
1.0
102
RTVSPost2010PropOp39
 70
     1
102
RTVSPost2010Prop40
 90
        0
102
RTVSPost2010PropOp40
 70
     1
102
RTVSPost2010Prop41ColorIndex
 90
       18
102
RTVSPost2010Prop41ColorRGB
 90
        0
102
RTVSPost2010PropOp41
 70
     1
102
RTVSPost2010Prop42
 90
       50
102
RTVSPost2010PropOp42
 70
     1
102
RTVSPost2010Prop43
 90
        3
102
RTVSPost2010PropOp43
 70
     1
102
RTVSPost2010Prop44ColorIndex
 90
        5
102
RTVSPost2010Prop44ColorRGB
 90
      255
102
RTVSPost2010PropOp44
 70
     1
102
RTVSPost2010Prop45
280
     0
102
RTVSPost2010PropOp45
 70
     1
102
RTVSPost2010Prop46
 90
       50
102
RTVSPost2010PropOp46
 70
     1
102
RTVSPost2010Prop47
 90
       50
102
RTVSPost2010PropOp47
 70
     1
102
RTVSPost2010Prop48
 90
       50
102
RTVSPost2010PropOp48
 70
     1
102
RTVSPost2010Prop49
280
     0
102
RTVSPost2010PropOp49
 70
     1
102
RTVSPost2010Prop50
 90
       50
102
RTVSPost2010PropOp50
 70
     1
102
RTVSPost2010Prop51ColorIndex
 90
      256
102
RTVSPost2010Prop51ColorRGB
 90
-16777216
102
RTVSPost2010PropOp51
 70
     0
102
RTVSPost2010Prop52
140
1.0
102
RTVSPost2010PropOp52
 70
     0
102
RTVSPost2010Prop53
 90
        2
102
RTVSPost2010PropOp53
 70
     1
102
RTVSPost2010Prop54
  1
strokes_ogs.tif
102
RTVSPost2010PropOp54
 70
     1
102
RTVSPost2010Prop55
280
     0
102
RTVSPost2010PropOp55
 70
     1
102
RTVSPost2010Prop56
140
1.0
102
RTVSPost2010PropOp56
 70
     1
102
RTVSPost2010Prop57
140
1.0
102
RTVSPost2010PropOp57
 70
     1
102
RTVSPropertyOp0
 70
     1
102
RTVSPropertyOp1
 70
     1
102
RTVSPropertyOp2
 70
     1
102
RTVSPropertyOp3
 70
     1
102
RTVSPropertyOp4
 70
     1
102
RTVSPropertyOp5
 70
     1
102
RTVSPropertyOp6
 70
     1
102
RTVSPropertyOp7
 70
     1
102
RTVSPropertyOp8
 70
     1
102
RTVSPropertyOp9
 70
     1
102
RTVSPropertyOp10
 70
     1
102
RTVSPropertyOp11
 70
     1
102
RTVSPropertyOp12
 70
     1
102
RTVSPropertyOp13
 70
     1
102
RTVSPropertyOp14
 70
     1
102
RTVSPropertyOp15
 70
     1
102
RTVSPropertyOp16
 70
     1
102
RTVSPropertyOp17
 70
     1
102
RTVSPropertyOp18
 70
     1
102
RTVSPropertyOp19
 70
     1
102
RTVSPropertyOp20
 70
     1
102
RTVSPropertyOp21
 70
     1
102
RTVSPropertyOp22
 70
     1
102
RTVSPropertyOp23
 70
     1
102
RTVSPropertyOp24
 70
     1
102
RTVSPropertyOp25
 70
     1
102
RTVSPropertyOp26
 70
     1
102
RTVSPropertyOp27
 70
     1
102
RTVSPropertyOp28
 70
     1
102
RTVSPropertyOp29
 70
     1
102
RTVSPropertyOp30
 70
     1
102
RTVSPropertyOp31
 70
     1
102
RTVSPropertyOp32
 70
     1
102
RTVSPropertyOp33
 70
     1
102
RTVSPropertyOp34
 70
     1
102
RTVSPropertyOp35
 70
     1
102
RTVSPropertyOp36
 70
     1
102
RTVSPropertyOp37
 70
     1
102
RTVSPropertyOp38
 70
     1
102
RTVSPropertyOp39
 70
     1
102
RTVSPropertyOp40
 70
     1
102
RTVSPropertyOp41
 70
     1
102
RTVSPropertyOp42
 70
     1
102
RTVSPropertyOp43
 70
     1
102
RTVSPropertyOp44
 70
     1
102
RTVSPropertyOp45
 70
     1
102
RTVSPropertyOp46
 70
     1
102
RTVSPropertyOp47
 70
     1
102
RTVSPropertyOp48
 70
     1
102
RTVSPropertyOp49
 70
     1
102
RTVSPropertyOp50
 70
     1
102
RTVSPropertyOp51
 70
     0
102
RTVSPropertyOp52
 70
     0
102
RTVSPropertyOp53
 70
     1
102
RTVSPropertyOp54
 70
     1
102
RTVSPropertyOp55
 70
     1
102
RTVSPropertyOp56
 70
     1
102
RTVSPropertyOp57
 70
     1
102
RTVSPropertyOp58
 70
     1
102
RTVSPropertyOp59
 70
     1
102
RTVSPropertyOp60
 70
     1
102
RTVSPropertyOp61
 70
     1
102
RTVSPropertyOp62
 70
     1
  0
XRECORD
  5
8352
102
{ACAD_REACTORS
330
8351
102
}
330
8351
100
AcDbXrecord
280
     1
102
RTVSPost2010Prop28
280
     0
102
RTVSPost2010PropOp28
 70
     1
102
RTVSPost2010Prop29
280
     1
102
RTVSPost2010PropOp29
 70
     1
102
RTVSPost2010Prop30
280
     1
102
RTVSPost2010PropOp30
 70
     1
102
RTVSPost2010Prop31
280
     0
102
RTVSPost2010PropOp31
 70
     1
102
RTVSPost2010Prop32
280
     0
102
RTVSPost2010PropOp32
 70
     1
102
RTVSPost2010Prop33
280
     0
102
RTVSPost2010PropOp33
 70
     1
102
RTVSPost2010Prop34
280
     0
102
RTVSPost2010PropOp34
 70
     1
102
RTVSPost2010Prop35
280
     0
102
RTVSPost2010PropOp35
 70
     1
102
RTVSPost2010Prop36
280
     0
102
RTVSPost2010PropOp36
 70
     1
102
RTVSPost2010Prop37
 90
       50
102
RTVSPost2010PropOp37
 70
     1
102
RTVSPost2010Prop38
140
0.0
102
RTVSPost2010PropOp38
 70
     1
102
RTVSPost2010Prop39
140
1.0
102
RTVSPost2010PropOp39
 70
     1
102
RTVSPost2010Prop40
 90
        0
102
RTVSPost2010PropOp40
 70
     1
102
RTVSPost2010Prop41ColorIndex
 90
       18
102
RTVSPost2010Prop41ColorRGB
 90
        0
102
RTVSPost2010PropOp41
 70
     1
102
RTVSPost2010Prop42
 90
       50
102
RTVSPost2010PropOp42
 70
     1
102
RTVSPost2010Prop43
 90
        3
102
RTVSPost2010PropOp43
 70
     1
102
RTVSPost2010Prop44ColorIndex
 90
        5
102
RTVSPost2010Prop44ColorRGB
 90
      255
102
RTVSPost2010PropOp44
 70
     1
102
RTVSPost2010Prop45
280
     0
102
RTVSPost2010PropOp45
 70
     1
102
RTVSPost2010Prop46
 90
       50
102
RTVSPost2010PropOp46
 70
     1
102
RTVSPost2010Prop47
 90
       50
102
RTVSPost2010PropOp47
 70
     1
102
RTVSPost2010Prop48
 90
       50
102
RTVSPost2010PropOp48
 70
     1
102
RTVSPost2010Prop49
280
     0
102
RTVSPost2010PropOp49
 70
     1
102
RTVSPost2010Prop50
 90
       50
102
RTVSPost2010PropOp50
 70
     1
102
RTVSPost2010Prop51ColorIndex
 90
      256
102
RTVSPost2010Prop51ColorRGB
 90
-16777216
102
RTVSPost2010PropOp51
 70
     0
102
RTVSPost2010Prop52
140
1.0
102
RTVSPost2010PropOp52
 70
     0
102
RTVSPost2010Prop53
 90
        2
102
RTVSPost2010PropOp53
 70
     1
102
RTVSPost2010Prop54
  1
strokes_ogs.tif
102
RTVSPost2010PropOp54
 70
     1
102
RTVSPost2010Prop55
280
     0
102
RTVSPost2010PropOp55
 70
     1
102
RTVSPost2010Prop56
140
1.0
102
RTVSPost2010PropOp56
 70
     1
102
RTVSPost2010Prop57
140
1.0
102
RTVSPost2010PropOp57
 70
     1
102
RTVSPropertyOp0
 70
     1
102
RTVSPropertyOp1
 70
     1
102
RTVSPropertyOp2
 70
     1
102
RTVSPropertyOp3
 70
     1
102
RTVSPropertyOp4
 70
     1
102
RTVSPropertyOp5
 70
     1
102
RTVSPropertyOp6
 70
     1
102
RTVSPropertyOp7
 70
     1
102
RTVSPropertyOp8
 70
     1
102
RTVSPropertyOp9
 70
     1
102
RTVSPropertyOp10
 70
     1
102
RTVSPropertyOp11
 70
     1
102
RTVSPropertyOp12
 70
     1
102
RTVSPropertyOp13
 70
     1
102
RTVSPropertyOp14
 70
     1
102
RTVSPropertyOp15
 70
     1
102
RTVSPropertyOp16
 70
     1
102
RTVSPropertyOp17
 70
     1
102
RTVSPropertyOp18
 70
     1
102
RTVSPropertyOp19
 70
     1
102
RTVSPropertyOp20
 70
     1
102
RTVSPropertyOp21
 70
     1
102
RTVSPropertyOp22
 70
     1
102
RTVSPropertyOp23
 70
     1
102
RTVSPropertyOp24
 70
     1
102
RTVSPropertyOp25
 70
     1
102
RTVSPropertyOp26
 70
     1
102
RTVSPropertyOp27
 70
     1
102
RTVSPropertyOp28
 70
     1
102
RTVSPropertyOp29
 70
     1
102
RTVSPropertyOp30
 70
     1
102
RTVSPropertyOp31
 70
     1
102
RTVSPropertyOp32
 70
     1
102
RTVSPropertyOp33
 70
     1
102
RTVSPropertyOp34
 70
     1
102
RTVSPropertyOp35
 70
     1
102
RTVSPropertyOp36
 70
     1
102
RTVSPropertyOp37
 70
     1
102
RTVSPropertyOp38
 70
     1
102
RTVSPropertyOp39
 70
     1
102
RTVSPropertyOp40
 70
     1
102
RTVSPropertyOp41
 70
     1
102
RTVSPropertyOp42
 70
     1
102
RTVSPropertyOp43
 70
     1
102
RTVSPropertyOp44
 70
     1
102
RTVSPropertyOp45
 70
     1
102
RTVSPropertyOp46
 70
     1
102
RTVSPropertyOp47
 70
     1
102
RTVSPropertyOp48
 70
     1
102
RTVSPropertyOp49
 70
     1
102
RTVSPropertyOp50
 70
     1
102
RTVSPropertyOp51
 70
     0
102
RTVSPropertyOp52
 70
     0
102
RTVSPropertyOp53
 70
     1
102
RTVSPropertyOp54
 70
     1
102
RTVSPropertyOp55
 70
     1
102
RTVSPropertyOp56
 70
     1
102
RTVSPropertyOp57
 70
     1
102
RTVSPropertyOp58
 70
     1
102
RTVSPropertyOp59
 70
     1
102
RTVSPropertyOp60
 70
     1
102
RTVSPropertyOp61
 70
     1
102
RTVSPropertyOp62
 70
     1
  0
XRECORD
  5
836C
102
{ACAD_REACTORS
330
836B
102
}
330
836B
100
AcDbXrecord
280
     1
102
RTVSPost2010Prop28
280
     0
102
RTVSPost2010PropOp28
 70
     1
102
RTVSPost2010Prop29
280
     1
102
RTVSPost2010PropOp29
 70
     1
102
RTVSPost2010Prop30
280
     1
102
RTVSPost2010PropOp30
 70
     1
102
RTVSPost2010Prop31
280
     0
102
RTVSPost2010PropOp31
 70
     1
102
RTVSPost2010Prop32
280
     0
102
RTVSPost2010PropOp32
 70
     1
102
RTVSPost2010Prop33
280
     0
102
RTVSPost2010PropOp33
 70
     1
102
RTVSPost2010Prop34
280
     0
102
RTVSPost2010PropOp34
 70
     1
102
RTVSPost2010Prop35
280
     0
102
RTVSPost2010PropOp35
 70
     1
102
RTVSPost2010Prop36
280
     0
102
RTVSPost2010PropOp36
 70
     1
102
RTVSPost2010Prop37
 90
       50
102
RTVSPost2010PropOp37
 70
     0
102
RTVSPost2010Prop38
140
0.0
102
RTVSPost2010PropOp38
 70
     0
102
RTVSPost2010Prop39
140
1.0
102
RTVSPost2010PropOp39
 70
     0
102
RTVSPost2010Prop40
 90
        0
102
RTVSPost2010PropOp40
 70
     0
102
RTVSPost2010Prop41ColorIndex
 90
       18
102
RTVSPost2010Prop41ColorRGB
 90
        0
102
RTVSPost2010PropOp41
 70
     0
102
RTVSPost2010Prop42
 90
       50
102
RTVSPost2010PropOp42
 70
     0
102
RTVSPost2010Prop43
 90
        3
102
RTVSPost2010PropOp43
 70
     0
102
RTVSPost2010Prop44ColorIndex
 90
        5
102
RTVSPost2010Prop44ColorRGB
 90
      255
102
RTVSPost2010PropOp44
 70
     0
102
RTVSPost2010Prop45
280
     0
102
RTVSPost2010PropOp45
 70
     1
102
RTVSPost2010Prop46
 90
       50
102
RTVSPost2010PropOp46
 70
     0
102
RTVSPost2010Prop47
 90
       50
102
RTVSPost2010PropOp47
 70
     0
102
RTVSPost2010Prop48
 90
       50
102
RTVSPost2010PropOp48
 70
     0
102
RTVSPost2010Prop49
280
     0
102
RTVSPost2010PropOp49
 70
     1
102
RTVSPost2010Prop50
 90
       50
102
RTVSPost2010PropOp50
 70
     0
102
RTVSPost2010Prop51ColorIndex
 90
      256
102
RTVSPost2010Prop51ColorRGB
 90
-16777216
102
RTVSPost2010PropOp51
 70
     0
102
RTVSPost2010Prop52
140
1.0
102
RTVSPost2010PropOp52
 70
     0
102
RTVSPost2010Prop53
 90
        2
102
RTVSPost2010PropOp53
 70
     0
102
RTVSPost2010Prop54
  1
strokes_ogs.tif
102
RTVSPost2010PropOp54
 70
     0
102
RTVSPost2010Prop55
280
     0
102
RTVSPost2010PropOp55
 70
     1
102
RTVSPost2010Prop56
140
1.0
102
RTVSPost2010PropOp56
 70
     0
102
RTVSPost2010Prop57
140
1.0
102
RTVSPost2010PropOp57
 70
     0
102
RTVSPropertyOp0
 70
     0
102
RTVSPropertyOp1
 70
     0
102
RTVSPropertyOp2
 70
     0
102
RTVSPropertyOp3
 70
     0
102
RTVSPropertyOp4
 70
     0
102
RTVSPropertyOp5
 70
     0
102
RTVSPropertyOp6
 70
     0
102
RTVSPropertyOp7
 70
     0
102
RTVSPropertyOp8
 70
     0
102
RTVSPropertyOp9
 70
     0
102
RTVSPropertyOp10
 70
     0
102
RTVSPropertyOp11
 70
     0
102
RTVSPropertyOp12
 70
     0
102
RTVSPropertyOp13
 70
     0
102
RTVSPropertyOp14
 70
     2
102
RTVSPropertyOp15
 70
     0
102
RTVSPropertyOp16
 70
     0
102
RTVSPropertyOp17
 70
     0
102
RTVSPropertyOp18
 70
     0
102
RTVSPropertyOp19
 70
     0
102
RTVSPropertyOp20
 70
     0
102
RTVSPropertyOp21
 70
     0
102
RTVSPropertyOp22
 70
     0
102
RTVSPropertyOp23
 70
     0
102
RTVSPropertyOp24
 70
     0
102
RTVSPropertyOp25
 70
     0
102
RTVSPropertyOp26
 70
     0
102
RTVSPropertyOp27
 70
     0
102
RTVSPropertyOp28
 70
     1
102
RTVSPropertyOp29
 70
     1
102
RTVSPropertyOp30
 70
     1
102
RTVSPropertyOp31
 70
     1
102
RTVSPropertyOp32
 70
     1
102
RTVSPropertyOp33
 70
     1
102
RTVSPropertyOp34
 70
     1
102
RTVSPropertyOp35
 70
     1
102
RTVSPropertyOp36
 70
     1
102
RTVSPropertyOp37
 70
     0
102
RTVSPropertyOp38
 70
     0
102
RTVSPropertyOp39
 70
     0
102
RTVSPropertyOp40
 70
     0
102
RTVSPropertyOp41
 70
     0
102
RTVSPropertyOp42
 70
     0
102
RTVSPropertyOp43
 70
     0
102
RTVSPropertyOp44
 70
     0
102
RTVSPropertyOp45
 70
     1
102
RTVSPropertyOp46
 70
     0
102
RTVSPropertyOp47
 70
     0
102
RTVSPropertyOp48
 70
     0
102
RTVSPropertyOp49
 70
     1
102
RTVSPropertyOp50
 70
     0
102
RTVSPropertyOp51
 70
     0
102
RTVSPropertyOp52
 70
     0
102
RTVSPropertyOp53
 70
     0
102
RTVSPropertyOp54
 70
     0
102
RTVSPropertyOp55
 70
     1
102
RTVSPropertyOp56
 70
     0
102
RTVSPropertyOp57
 70
     0
102
RTVSPropertyOp58
 70
     0
102
RTVSPropertyOp59
 70
     0
102
RTVSPropertyOp60
 70
     0
102
RTVSPropertyOp61
 70
     0
102
RTVSPropertyOp62
 70
     0
  0
XRECORD
  5
835A
102
{ACAD_REACTORS
330
8359
102
}
330
8359
100
AcDbXrecord
280
     1
102
RTVSPost2010Prop28
280
     0
102
RTVSPost2010PropOp28
 70
     1
102
RTVSPost2010Prop29
280
     1
102
RTVSPost2010PropOp29
 70
     1
102
RTVSPost2010Prop30
280
     1
102
RTVSPost2010PropOp30
 70
     1
102
RTVSPost2010Prop31
280
     0
102
RTVSPost2010PropOp31
 70
     1
102
RTVSPost2010Prop32
280
     0
102
RTVSPost2010PropOp32
 70
     1
102
RTVSPost2010Prop33
280
     0
102
RTVSPost2010PropOp33
 70
     1
102
RTVSPost2010Prop34
280
     0
102
RTVSPost2010PropOp34
 70
     1
102
RTVSPost2010Prop35
280
     0
102
RTVSPost2010PropOp35
 70
     1
102
RTVSPost2010Prop36
280
     0
102
RTVSPost2010PropOp36
 70
     1
102
RTVSPost2010Prop37
 90
       50
102
RTVSPost2010PropOp37
 70
     1
102
RTVSPost2010Prop38
140
0.0
102
RTVSPost2010PropOp38
 70
     1
102
RTVSPost2010Prop39
140
1.0
102
RTVSPost2010PropOp39
 70
     1
102
RTVSPost2010Prop40
 90
        0
102
RTVSPost2010PropOp40
 70
     1
102
RTVSPost2010Prop41ColorIndex
 90
       18
102
RTVSPost2010Prop41ColorRGB
 90
        0
102
RTVSPost2010PropOp41
 70
     1
102
RTVSPost2010Prop42
 90
       50
102
RTVSPost2010PropOp42
 70
     1
102
RTVSPost2010Prop43
 90
        3
102
RTVSPost2010PropOp43
 70
     1
102
RTVSPost2010Prop44ColorIndex
 90
        5
102
RTVSPost2010Prop44ColorRGB
 90
      255
102
RTVSPost2010PropOp44
 70
     1
102
RTVSPost2010Prop45
280
     0
102
RTVSPost2010PropOp45
 70
     1
102
RTVSPost2010Prop46
 90
       50
102
RTVSPost2010PropOp46
 70
     1
102
RTVSPost2010Prop47
 90
       50
102
RTVSPost2010PropOp47
 70
     1
102
RTVSPost2010Prop48
 90
       50
102
RTVSPost2010PropOp48
 70
     1
102
RTVSPost2010Prop49
280
     0
102
RTVSPost2010PropOp49
 70
     1
102
RTVSPost2010Prop50
 90
       50
102
RTVSPost2010PropOp50
 70
     1
102
RTVSPost2010Prop51ColorIndex
 90
      256
102
RTVSPost2010Prop51ColorRGB
 90
-16777216
102
RTVSPost2010PropOp51
 70
     0
102
RTVSPost2010Prop52
140
1.0
102
RTVSPost2010PropOp52
 70
     0
102
RTVSPost2010Prop53
 90
        2
102
RTVSPost2010PropOp53
 70
     1
102
RTVSPost2010Prop54
  1
strokes_ogs.tif
102
RTVSPost2010PropOp54
 70
     1
102
RTVSPost2010Prop55
280
     0
102
RTVSPost2010PropOp55
 70
     1
102
RTVSPost2010Prop56
140
1.0
102
RTVSPost2010PropOp56
 70
     1
102
RTVSPost2010Prop57
140
1.0
102
RTVSPost2010PropOp57
 70
     1
102
RTVSPropertyOp0
 70
     1
102
RTVSPropertyOp1
 70
     1
102
RTVSPropertyOp2
 70
     1
102
RTVSPropertyOp3
 70
     1
102
RTVSPropertyOp4
 70
     1
102
RTVSPropertyOp5
 70
     1
102
RTVSPropertyOp6
 70
     1
102
RTVSPropertyOp7
 70
     1
102
RTVSPropertyOp8
 70
     1
102
RTVSPropertyOp9
 70
     1
102
RTVSPropertyOp10
 70
     1
102
RTVSPropertyOp11
 70
     1
102
RTVSPropertyOp12
 70
     1
102
RTVSPropertyOp13
 70
     1
102
RTVSPropertyOp14
 70
     1
102
RTVSPropertyOp15
 70
     1
102
RTVSPropertyOp16
 70
     1
102
RTVSPropertyOp17
 70
     1
102
RTVSPropertyOp18
 70
     1
102
RTVSPropertyOp19
 70
     1
102
RTVSPropertyOp20
 70
     1
102
RTVSPropertyOp21
 70
     1
102
RTVSPropertyOp22
 70
     1
102
RTVSPropertyOp23
 70
     1
102
RTVSPropertyOp24
 70
     1
102
RTVSPropertyOp25
 70
     1
102
RTVSPropertyOp26
 70
     1
102
RTVSPropertyOp27
 70
     1
102
RTVSPropertyOp28
 70
     1
102
RTVSPropertyOp29
 70
     1
102
RTVSPropertyOp30
 70
     1
102
RTVSPropertyOp31
 70
     1
102
RTVSPropertyOp32
 70
     1
102
RTVSPropertyOp33
 70
     1
102
RTVSPropertyOp34
 70
     1
102
RTVSPropertyOp35
 70
     1
102
RTVSPropertyOp36
 70
     1
102
RTVSPropertyOp37
 70
     1
102
RTVSPropertyOp38
 70
     1
102
RTVSPropertyOp39
 70
     1
102
RTVSPropertyOp40
 70
     1
102
RTVSPropertyOp41
 70
     1
102
RTVSPropertyOp42
 70
     1
102
RTVSPropertyOp43
 70
     1
102
RTVSPropertyOp44
 70
     1
102
RTVSPropertyOp45
 70
     1
102
RTVSPropertyOp46
 70
     1
102
RTVSPropertyOp47
 70
     1
102
RTVSPropertyOp48
 70
     1
102
RTVSPropertyOp49
 70
     1
102
RTVSPropertyOp50
 70
     1
102
RTVSPropertyOp51
 70
     0
102
RTVSPropertyOp52
 70
     0
102
RTVSPropertyOp53
 70
     1
102
RTVSPropertyOp54
 70
     1
102
RTVSPropertyOp55
 70
     1
102
RTVSPropertyOp56
 70
     1
102
RTVSPropertyOp57
 70
     1
102
RTVSPropertyOp58
 70
     1
102
RTVSPropertyOp59
 70
     1
102
RTVSPropertyOp60
 70
     1
102
RTVSPropertyOp61
 70
     1
102
RTVSPropertyOp62
 70
     1
  0
XRECORD
  5
833E
102
{ACAD_REACTORS
330
833D
102
}
330
833D
100
AcDbXrecord
280
     1
102
RTVSPost2010Prop28
280
     0
102
RTVSPost2010PropOp28
 70
     1
102
RTVSPost2010Prop29
280
     1
102
RTVSPost2010PropOp29
 70
     1
102
RTVSPost2010Prop30
280
     1
102
RTVSPost2010PropOp30
 70
     1
102
RTVSPost2010Prop31
280
     0
102
RTVSPost2010PropOp31
 70
     1
102
RTVSPost2010Prop32
280
     0
102
RTVSPost2010PropOp32
 70
     1
102
RTVSPost2010Prop33
280
     0
102
RTVSPost2010PropOp33
 70
     1
102
RTVSPost2010Prop34
280
     0
102
RTVSPost2010PropOp34
 70
     1
102
RTVSPost2010Prop35
280
     0
102
RTVSPost2010PropOp35
 70
     1
102
RTVSPost2010Prop36
280
     0
102
RTVSPost2010PropOp36
 70
     1
102
RTVSPost2010Prop37
 90
       50
102
RTVSPost2010PropOp37
 70
     1
102
RTVSPost2010Prop38
140
0.0
102
RTVSPost2010PropOp38
 70
     1
102
RTVSPost2010Prop39
140
1.0
102
RTVSPost2010PropOp39
 70
     1
102
RTVSPost2010Prop40
 90
        0
102
RTVSPost2010PropOp40
 70
     1
102
RTVSPost2010Prop41ColorIndex
 90
       18
102
RTVSPost2010Prop41ColorRGB
 90
        0
102
RTVSPost2010PropOp41
 70
     1
102
RTVSPost2010Prop42
 90
       50
102
RTVSPost2010PropOp42
 70
     1
102
RTVSPost2010Prop43
 90
        3
102
RTVSPost2010PropOp43
 70
     1
102
RTVSPost2010Prop44ColorIndex
 90
        5
102
RTVSPost2010Prop44ColorRGB
 90
      255
102
RTVSPost2010PropOp44
 70
     1
102
RTVSPost2010Prop45
280
     0
102
RTVSPost2010PropOp45
 70
     1
102
RTVSPost2010Prop46
 90
       50
102
RTVSPost2010PropOp46
 70
     1
102
RTVSPost2010Prop47
 90
       50
102
RTVSPost2010PropOp47
 70
     1
102
RTVSPost2010Prop48
 90
       50
102
RTVSPost2010PropOp48
 70
     1
102
RTVSPost2010Prop49
280
     0
102
RTVSPost2010PropOp49
 70
     1
102
RTVSPost2010Prop50
 90
       50
102
RTVSPost2010PropOp50
 70
     1
102
RTVSPost2010Prop51ColorIndex
 90
      256
102
RTVSPost2010Prop51ColorRGB
 90
-16777216
102
RTVSPost2010PropOp51
 70
     0
102
RTVSPost2010Prop52
140
1.0
102
RTVSPost2010PropOp52
 70
     0
102
RTVSPost2010Prop53
 90
        2
102
RTVSPost2010PropOp53
 70
     1
102
RTVSPost2010Prop54
  1
strokes_ogs.tif
102
RTVSPost2010PropOp54
 70
     1
102
RTVSPost2010Prop55
280
     0
102
RTVSPost2010PropOp55
 70
     1
102
RTVSPost2010Prop56
140
1.0
102
RTVSPost2010PropOp56
 70
     1
102
RTVSPost2010Prop57
140
1.0
102
RTVSPost2010PropOp57
 70
     1
102
RTVSPropertyOp0
 70
     1
102
RTVSPropertyOp1
 70
     1
102
RTVSPropertyOp2
 70
     1
102
RTVSPropertyOp3
 70
     1
102
RTVSPropertyOp4
 70
     1
102
RTVSPropertyOp5
 70
     1
102
RTVSPropertyOp6
 70
     1
102
RTVSPropertyOp7
 70
     1
102
RTVSPropertyOp8
 70
     1
102
RTVSPropertyOp9
 70
     1
102
RTVSPropertyOp10
 70
     1
102
RTVSPropertyOp11
 70
     1
102
RTVSPropertyOp12
 70
     1
102
RTVSPropertyOp13
 70
     1
102
RTVSPropertyOp14
 70
     1
102
RTVSPropertyOp15
 70
     1
102
RTVSPropertyOp16
 70
     1
102
RTVSPropertyOp17
 70
     1
102
RTVSPropertyOp18
 70
     1
102
RTVSPropertyOp19
 70
     1
102
RTVSPropertyOp20
 70
     1
102
RTVSPropertyOp21
 70
     1
102
RTVSPropertyOp22
 70
     1
102
RTVSPropertyOp23
 70
     1
102
RTVSPropertyOp24
 70
     1
102
RTVSPropertyOp25
 70
     1
102
RTVSPropertyOp26
 70
     1
102
RTVSPropertyOp27
 70
     1
102
RTVSPropertyOp28
 70
     1
102
RTVSPropertyOp29
 70
     1
102
RTVSPropertyOp30
 70
     1
102
RTVSPropertyOp31
 70
     1
102
RTVSPropertyOp32
 70
     1
102
RTVSPropertyOp33
 70
     1
102
RTVSPropertyOp34
 70
     1
102
RTVSPropertyOp35
 70
     1
102
RTVSPropertyOp36
 70
     1
102
RTVSPropertyOp37
 70
     1
102
RTVSPropertyOp38
 70
     1
102
RTVSPropertyOp39
 70
     1
102
RTVSPropertyOp40
 70
     1
102
RTVSPropertyOp41
 70
     1
102
RTVSPropertyOp42
 70
     1
102
RTVSPropertyOp43
 70
     1
102
RTVSPropertyOp44
 70
     1
102
RTVSPropertyOp45
 70
     1
102
RTVSPropertyOp46
 70
     1
102
RTVSPropertyOp47
 70
     1
102
RTVSPropertyOp48
 70
     1
102
RTVSPropertyOp49
 70
     1
102
RTVSPropertyOp50
 70
     1
102
RTVSPropertyOp51
 70
     0
102
RTVSPropertyOp52
 70
     0
102
RTVSPropertyOp53
 70
     1
102
RTVSPropertyOp54
 70
     1
102
RTVSPropertyOp55
 70
     1
102
RTVSPropertyOp56
 70
     1
102
RTVSPropertyOp57
 70
     1
102
RTVSPropertyOp58
 70
     1
102
RTVSPropertyOp59
 70
     1
102
RTVSPropertyOp60
 70
     1
102
RTVSPropertyOp61
 70
     1
102
RTVSPropertyOp62
 70
     1
  0
XRECORD
  5
8340
102
{ACAD_REACTORS
330
833F
102
}
330
833F
100
AcDbXrecord
280
     1
102
RTVSPost2010Prop28
280
     0
102
RTVSPost2010PropOp28
 70
     1
102
RTVSPost2010Prop29
280
     1
102
RTVSPost2010PropOp29
 70
     1
102
RTVSPost2010Prop30
280
     1
102
RTVSPost2010PropOp30
 70
     1
102
RTVSPost2010Prop31
280
     0
102
RTVSPost2010PropOp31
 70
     1
102
RTVSPost2010Prop32
280
     0
102
RTVSPost2010PropOp32
 70
     1
102
RTVSPost2010Prop33
280
     0
102
RTVSPost2010PropOp33
 70
     1
102
RTVSPost2010Prop34
280
     0
102
RTVSPost2010PropOp34
 70
     1
102
RTVSPost2010Prop35
280
     0
102
RTVSPost2010PropOp35
 70
     1
102
RTVSPost2010Prop36
280
     0
102
RTVSPost2010PropOp36
 70
     1
102
RTVSPost2010Prop37
 90
       50
102
RTVSPost2010PropOp37
 70
     1
102
RTVSPost2010Prop38
140
0.0
102
RTVSPost2010PropOp38
 70
     1
102
RTVSPost2010Prop39
140
1.0
102
RTVSPost2010PropOp39
 70
     1
102
RTVSPost2010Prop40
 90
        0
102
RTVSPost2010PropOp40
 70
     1
102
RTVSPost2010Prop41ColorIndex
 90
       18
102
RTVSPost2010Prop41ColorRGB
 90
        0
102
RTVSPost2010PropOp41
 70
     1
102
RTVSPost2010Prop42
 90
       50
102
RTVSPost2010PropOp42
 70
     1
102
RTVSPost2010Prop43
 90
        3
102
RTVSPost2010PropOp43
 70
     1
102
RTVSPost2010Prop44ColorIndex
 90
        5
102
RTVSPost2010Prop44ColorRGB
 90
      255
102
RTVSPost2010PropOp44
 70
     1
102
RTVSPost2010Prop45
280
     0
102
RTVSPost2010PropOp45
 70
     1
102
RTVSPost2010Prop46
 90
       50
102
RTVSPost2010PropOp46
 70
     1
102
RTVSPost2010Prop47
 90
       50
102
RTVSPost2010PropOp47
 70
     1
102
RTVSPost2010Prop48
 90
       50
102
RTVSPost2010PropOp48
 70
     1
102
RTVSPost2010Prop49
280
     0
102
RTVSPost2010PropOp49
 70
     1
102
RTVSPost2010Prop50
 90
       50
102
RTVSPost2010PropOp50
 70
     1
102
RTVSPost2010Prop51ColorIndex
 90
      256
102
RTVSPost2010Prop51ColorRGB
 90
-16777216
102
RTVSPost2010PropOp51
 70
     0
102
RTVSPost2010Prop52
140
1.0
102
RTVSPost2010PropOp52
 70
     0
102
RTVSPost2010Prop53
 90
        2
102
RTVSPost2010PropOp53
 70
     1
102
RTVSPost2010Prop54
  1
strokes_ogs.tif
102
RTVSPost2010PropOp54
 70
     1
102
RTVSPost2010Prop55
280
     0
102
RTVSPost2010PropOp55
 70
     1
102
RTVSPost2010Prop56
140
1.0
102
RTVSPost2010PropOp56
 70
     1
102
RTVSPost2010Prop57
140
1.0
102
RTVSPost2010PropOp57
 70
     1
102
RTVSPropertyOp0
 70
     1
102
RTVSPropertyOp1
 70
     1
102
RTVSPropertyOp2
 70
     1
102
RTVSPropertyOp3
 70
     1
102
RTVSPropertyOp4
 70
     1
102
RTVSPropertyOp5
 70
     1
102
RTVSPropertyOp6
 70
     1
102
RTVSPropertyOp7
 70
     1
102
RTVSPropertyOp8
 70
     1
102
RTVSPropertyOp9
 70
     1
102
RTVSPropertyOp10
 70
     1
102
RTVSPropertyOp11
 70
     1
102
RTVSPropertyOp12
 70
     1
102
RTVSPropertyOp13
 70
     1
102
RTVSPropertyOp14
 70
     1
102
RTVSPropertyOp15
 70
     1
102
RTVSPropertyOp16
 70
     1
102
RTVSPropertyOp17
 70
     1
102
RTVSPropertyOp18
 70
     1
102
RTVSPropertyOp19
 70
     1
102
RTVSPropertyOp20
 70
     1
102
RTVSPropertyOp21
 70
     1
102
RTVSPropertyOp22
 70
     1
102
RTVSPropertyOp23
 70
     1
102
RTVSPropertyOp24
 70
     1
102
RTVSPropertyOp25
 70
     1
102
RTVSPropertyOp26
 70
     1
102
RTVSPropertyOp27
 70
     1
102
RTVSPropertyOp28
 70
     1
102
RTVSPropertyOp29
 70
     1
102
RTVSPropertyOp30
 70
     1
102
RTVSPropertyOp31
 70
     1
102
RTVSPropertyOp32
 70
     1
102
RTVSPropertyOp33
 70
     1
102
RTVSPropertyOp34
 70
     1
102
RTVSPropertyOp35
 70
     1
102
RTVSPropertyOp36
 70
     1
102
RTVSPropertyOp37
 70
     1
102
RTVSPropertyOp38
 70
     1
102
RTVSPropertyOp39
 70
     1
102
RTVSPropertyOp40
 70
     1
102
RTVSPropertyOp41
 70
     1
102
RTVSPropertyOp42
 70
     1
102
RTVSPropertyOp43
 70
     1
102
RTVSPropertyOp44
 70
     1
102
RTVSPropertyOp45
 70
     1
102
RTVSPropertyOp46
 70
     1
102
RTVSPropertyOp47
 70
     1
102
RTVSPropertyOp48
 70
     1
102
RTVSPropertyOp49
 70
     1
102
RTVSPropertyOp50
 70
     1
102
RTVSPropertyOp51
 70
     0
102
RTVSPropertyOp52
 70
     0
102
RTVSPropertyOp53
 70
     1
102
RTVSPropertyOp54
 70
     1
102
RTVSPropertyOp55
 70
     1
102
RTVSPropertyOp56
 70
     1
102
RTVSPropertyOp57
 70
     1
102
RTVSPropertyOp58
 70
     1
102
RTVSPropertyOp59
 70
     1
102
RTVSPropertyOp60
 70
     1
102
RTVSPropertyOp61
 70
     1
102
RTVSPropertyOp62
 70
     1
  0
XRECORD
  5
8342
102
{ACAD_REACTORS
330
8341
102
}
330
8341
100
AcDbXrecord
280
     1
102
RTVSPost2010Prop28
280
     0
102
RTVSPost2010PropOp28
 70
     1
102
RTVSPost2010Prop29
280
     1
102
RTVSPost2010PropOp29
 70
     1
102
RTVSPost2010Prop30
280
     1
102
RTVSPost2010PropOp30
 70
     1
102
RTVSPost2010Prop31
280
     0
102
RTVSPost2010PropOp31
 70
     1
102
RTVSPost2010Prop32
280
     0
102
RTVSPost2010PropOp32
 70
     1
102
RTVSPost2010Prop33
280
     0
102
RTVSPost2010PropOp33
 70
     1
102
RTVSPost2010Prop34
280
     0
102
RTVSPost2010PropOp34
 70
     1
102
RTVSPost2010Prop35
280
     0
102
RTVSPost2010PropOp35
 70
     1
102
RTVSPost2010Prop36
280
     0
102
RTVSPost2010PropOp36
 70
     1
102
RTVSPost2010Prop37
 90
       50
102
RTVSPost2010PropOp37
 70
     1
102
RTVSPost2010Prop38
140
0.0
102
RTVSPost2010PropOp38
 70
     1
102
RTVSPost2010Prop39
140
1.0
102
RTVSPost2010PropOp39
 70
     1
102
RTVSPost2010Prop40
 90
        0
102
RTVSPost2010PropOp40
 70
     1
102
RTVSPost2010Prop41ColorIndex
 90
       18
102
RTVSPost2010Prop41ColorRGB
 90
        0
102
RTVSPost2010PropOp41
 70
     1
102
RTVSPost2010Prop42
 90
       50
102
RTVSPost2010PropOp42
 70
     1
102
RTVSPost2010Prop43
 90
        3
102
RTVSPost2010PropOp43
 70
     1
102
RTVSPost2010Prop44ColorIndex
 90
        5
102
RTVSPost2010Prop44ColorRGB
 90
      255
102
RTVSPost2010PropOp44
 70
     1
102
RTVSPost2010Prop45
280
     0
102
RTVSPost2010PropOp45
 70
     1
102
RTVSPost2010Prop46
 90
       50
102
RTVSPost2010PropOp46
 70
     1
102
RTVSPost2010Prop47
 90
       50
102
RTVSPost2010PropOp47
 70
     1
102
RTVSPost2010Prop48
 90
       50
102
RTVSPost2010PropOp48
 70
     1
102
RTVSPost2010Prop49
280
     0
102
RTVSPost2010PropOp49
 70
     1
102
RTVSPost2010Prop50
 90
       50
102
RTVSPost2010PropOp50
 70
     1
102
RTVSPost2010Prop51ColorIndex
 90
      256
102
RTVSPost2010Prop51ColorRGB
 90
-16777216
102
RTVSPost2010PropOp51
 70
     0
102
RTVSPost2010Prop52
140
1.0
102
RTVSPost2010PropOp52
 70
     0
102
RTVSPost2010Prop53
 90
        2
102
RTVSPost2010PropOp53
 70
     1
102
RTVSPost2010Prop54
  1
strokes_ogs.tif
102
RTVSPost2010PropOp54
 70
     1
102
RTVSPost2010Prop55
280
     0
102
RTVSPost2010PropOp55
 70
     1
102
RTVSPost2010Prop56
140
1.0
102
RTVSPost2010PropOp56
 70
     1
102
RTVSPost2010Prop57
140
1.0
102
RTVSPost2010PropOp57
 70
     1
102
RTVSPropertyOp0
 70
     1
102
RTVSPropertyOp1
 70
     1
102
RTVSPropertyOp2
 70
     1
102
RTVSPropertyOp3
 70
     1
102
RTVSPropertyOp4
 70
     1
102
RTVSPropertyOp5
 70
     1
102
RTVSPropertyOp6
 70
     1
102
RTVSPropertyOp7
 70
     1
102
RTVSPropertyOp8
 70
     1
102
RTVSPropertyOp9
 70
     1
102
RTVSPropertyOp10
 70
     1
102
RTVSPropertyOp11
 70
     1
102
RTVSPropertyOp12
 70
     1
102
RTVSPropertyOp13
 70
     1
102
RTVSPropertyOp14
 70
     1
102
RTVSPropertyOp15
 70
     1
102
RTVSPropertyOp16
 70
     1
102
RTVSPropertyOp17
 70
     1
102
RTVSPropertyOp18
 70
     1
102
RTVSPropertyOp19
 70
     1
102
RTVSPropertyOp20
 70
     1
102
RTVSPropertyOp21
 70
     1
102
RTVSPropertyOp22
 70
     1
102
RTVSPropertyOp23
 70
     1
102
RTVSPropertyOp24
 70
     1
102
RTVSPropertyOp25
 70
     1
102
RTVSPropertyOp26
 70
     1
102
RTVSPropertyOp27
 70
     1
102
RTVSPropertyOp28
 70
     1
102
RTVSPropertyOp29
 70
     1
102
RTVSPropertyOp30
 70
     1
102
RTVSPropertyOp31
 70
     1
102
RTVSPropertyOp32
 70
     1
102
RTVSPropertyOp33
 70
     1
102
RTVSPropertyOp34
 70
     1
102
RTVSPropertyOp35
 70
     1
102
RTVSPropertyOp36
 70
     1
102
RTVSPropertyOp37
 70
     1
102
RTVSPropertyOp38
 70
     1
102
RTVSPropertyOp39
 70
     1
102
RTVSPropertyOp40
 70
     1
102
RTVSPropertyOp41
 70
     1
102
RTVSPropertyOp42
 70
     1
102
RTVSPropertyOp43
 70
     1
102
RTVSPropertyOp44
 70
     1
102
RTVSPropertyOp45
 70
     1
102
RTVSPropertyOp46
 70
     1
102
RTVSPropertyOp47
 70
     1
102
RTVSPropertyOp48
 70
     1
102
RTVSPropertyOp49
 70
     1
102
RTVSPropertyOp50
 70
     1
102
RTVSPropertyOp51
 70
     0
102
RTVSPropertyOp52
 70
     0
102
RTVSPropertyOp53
 70
     1
102
RTVSPropertyOp54
 70
     1
102
RTVSPropertyOp55
 70
     1
102
RTVSPropertyOp56
 70
     1
102
RTVSPropertyOp57
 70
     1
102
RTVSPropertyOp58
 70
     1
102
RTVSPropertyOp59
 70
     1
102
RTVSPropertyOp60
 70
     1
102
RTVSPropertyOp61
 70
     1
102
RTVSPropertyOp62
 70
     1
  0
XRECORD
  5
8344
102
{ACAD_REACTORS
330
8343
102
}
330
8343
100
AcDbXrecord
280
     1
102
RTVSPost2010Prop28
280
     0
102
RTVSPost2010PropOp28
 70
     1
102
RTVSPost2010Prop29
280
     1
102
RTVSPost2010PropOp29
 70
     1
102
RTVSPost2010Prop30
280
     1
102
RTVSPost2010PropOp30
 70
     1
102
RTVSPost2010Prop31
280
     0
102
RTVSPost2010PropOp31
 70
     1
102
RTVSPost2010Prop32
280
     0
102
RTVSPost2010PropOp32
 70
     1
102
RTVSPost2010Prop33
280
     0
102
RTVSPost2010PropOp33
 70
     1
102
RTVSPost2010Prop34
280
     0
102
RTVSPost2010PropOp34
 70
     1
102
RTVSPost2010Prop35
280
     0
102
RTVSPost2010PropOp35
 70
     1
102
RTVSPost2010Prop36
280
     0
102
RTVSPost2010PropOp36
 70
     1
102
RTVSPost2010Prop37
 90
       50
102
RTVSPost2010PropOp37
 70
     1
102
RTVSPost2010Prop38
140
0.0
102
RTVSPost2010PropOp38
 70
     1
102
RTVSPost2010Prop39
140
1.0
102
RTVSPost2010PropOp39
 70
     1
102
RTVSPost2010Prop40
 90
        0
102
RTVSPost2010PropOp40
 70
     1
102
RTVSPost2010Prop41ColorIndex
 90
       18
102
RTVSPost2010Prop41ColorRGB
 90
        0
102
RTVSPost2010PropOp41
 70
     1
102
RTVSPost2010Prop42
 90
       50
102
RTVSPost2010PropOp42
 70
     1
102
RTVSPost2010Prop43
 90
        3
102
RTVSPost2010PropOp43
 70
     1
102
RTVSPost2010Prop44ColorIndex
 90
        5
102
RTVSPost2010Prop44ColorRGB
 90
      255
102
RTVSPost2010PropOp44
 70
     1
102
RTVSPost2010Prop45
280
     0
102
RTVSPost2010PropOp45
 70
     1
102
RTVSPost2010Prop46
 90
       50
102
RTVSPost2010PropOp46
 70
     1
102
RTVSPost2010Prop47
 90
       50
102
RTVSPost2010PropOp47
 70
     1
102
RTVSPost2010Prop48
 90
       50
102
RTVSPost2010PropOp48
 70
     1
102
RTVSPost2010Prop49
280
     0
102
RTVSPost2010PropOp49
 70
     1
102
RTVSPost2010Prop50
 90
       50
102
RTVSPost2010PropOp50
 70
     1
102
RTVSPost2010Prop51ColorIndex
 90
      256
102
RTVSPost2010Prop51ColorRGB
 90
-16777216
102
RTVSPost2010PropOp51
 70
     0
102
RTVSPost2010Prop52
140
1.0
102
RTVSPost2010PropOp52
 70
     0
102
RTVSPost2010Prop53
 90
        2
102
RTVSPost2010PropOp53
 70
     1
102
RTVSPost2010Prop54
  1
strokes_ogs.tif
102
RTVSPost2010PropOp54
 70
     1
102
RTVSPost2010Prop55
280
     0
102
RTVSPost2010PropOp55
 70
     1
102
RTVSPost2010Prop56
140
1.0
102
RTVSPost2010PropOp56
 70
     1
102
RTVSPost2010Prop57
140
1.0
102
RTVSPost2010PropOp57
 70
     1
102
RTVSPropertyOp0
 70
     1
102
RTVSPropertyOp1
 70
     1
102
RTVSPropertyOp2
 70
     1
102
RTVSPropertyOp3
 70
     1
102
RTVSPropertyOp4
 70
     1
102
RTVSPropertyOp5
 70
     1
102
RTVSPropertyOp6
 70
     1
102
RTVSPropertyOp7
 70
     1
102
RTVSPropertyOp8
 70
     1
102
RTVSPropertyOp9
 70
     1
102
RTVSPropertyOp10
 70
     1
102
RTVSPropertyOp11
 70
     1
102
RTVSPropertyOp12
 70
     1
102
RTVSPropertyOp13
 70
     1
102
RTVSPropertyOp14
 70
     1
102
RTVSPropertyOp15
 70
     1
102
RTVSPropertyOp16
 70
     1
102
RTVSPropertyOp17
 70
     1
102
RTVSPropertyOp18
 70
     1
102
RTVSPropertyOp19
 70
     1
102
RTVSPropertyOp20
 70
     1
102
RTVSPropertyOp21
 70
     1
102
RTVSPropertyOp22
 70
     1
102
RTVSPropertyOp23
 70
     1
102
RTVSPropertyOp24
 70
     1
102
RTVSPropertyOp25
 70
     1
102
RTVSPropertyOp26
 70
     1
102
RTVSPropertyOp27
 70
     1
102
RTVSPropertyOp28
 70
     1
102
RTVSPropertyOp29
 70
     1
102
RTVSPropertyOp30
 70
     1
102
RTVSPropertyOp31
 70
     1
102
RTVSPropertyOp32
 70
     1
102
RTVSPropertyOp33
 70
     1
102
RTVSPropertyOp34
 70
     1
102
RTVSPropertyOp35
 70
     1
102
RTVSPropertyOp36
 70
     1
102
RTVSPropertyOp37
 70
     1
102
RTVSPropertyOp38
 70
     1
102
RTVSPropertyOp39
 70
     1
102
RTVSPropertyOp40
 70
     1
102
RTVSPropertyOp41
 70
     1
102
RTVSPropertyOp42
 70
     1
102
RTVSPropertyOp43
 70
     1
102
RTVSPropertyOp44
 70
     1
102
RTVSPropertyOp45
 70
     1
102
RTVSPropertyOp46
 70
     1
102
RTVSPropertyOp47
 70
     1
102
RTVSPropertyOp48
 70
     1
102
RTVSPropertyOp49
 70
     1
102
RTVSPropertyOp50
 70
     1
102
RTVSPropertyOp51
 70
     0
102
RTVSPropertyOp52
 70
     0
102
RTVSPropertyOp53
 70
     1
102
RTVSPropertyOp54
 70
     1
102
RTVSPropertyOp55
 70
     1
102
RTVSPropertyOp56
 70
     1
102
RTVSPropertyOp57
 70
     1
102
RTVSPropertyOp58
 70
     1
102
RTVSPropertyOp59
 70
     1
102
RTVSPropertyOp60
 70
     1
102
RTVSPropertyOp61
 70
     1
102
RTVSPropertyOp62
 70
     1
  0
XRECORD
  5
834C
102
{ACAD_REACTORS
330
834B
102
}
330
834B
100
AcDbXrecord
280
     1
102
RTVSPost2010Prop28
280
     0
102
RTVSPost2010PropOp28
 70
     1
102
RTVSPost2010Prop29
280
     1
102
RTVSPost2010PropOp29
 70
     1
102
RTVSPost2010Prop30
280
     1
102
RTVSPost2010PropOp30
 70
     1
102
RTVSPost2010Prop31
280
     0
102
RTVSPost2010PropOp31
 70
     1
102
RTVSPost2010Prop32
280
     0
102
RTVSPost2010PropOp32
 70
     1
102
RTVSPost2010Prop33
280
     0
102
RTVSPost2010PropOp33
 70
     1
102
RTVSPost2010Prop34
280
     0
102
RTVSPost2010PropOp34
 70
     1
102
RTVSPost2010Prop35
280
     0
102
RTVSPost2010PropOp35
 70
     1
102
RTVSPost2010Prop36
280
     0
102
RTVSPost2010PropOp36
 70
     1
102
RTVSPost2010Prop37
 90
       50
102
RTVSPost2010PropOp37
 70
     1
102
RTVSPost2010Prop38
140
0.0
102
RTVSPost2010PropOp38
 70
     1
102
RTVSPost2010Prop39
140
1.0
102
RTVSPost2010PropOp39
 70
     1
102
RTVSPost2010Prop40
 90
        0
102
RTVSPost2010PropOp40
 70
     1
102
RTVSPost2010Prop41ColorIndex
 90
       18
102
RTVSPost2010Prop41ColorRGB
 90
        0
102
RTVSPost2010PropOp41
 70
     1
102
RTVSPost2010Prop42
 90
       50
102
RTVSPost2010PropOp42
 70
     1
102
RTVSPost2010Prop43
 90
        3
102
RTVSPost2010PropOp43
 70
     1
102
RTVSPost2010Prop44ColorIndex
 90
        5
102
RTVSPost2010Prop44ColorRGB
 90
      255
102
RTVSPost2010PropOp44
 70
     1
102
RTVSPost2010Prop45
280
     0
102
RTVSPost2010PropOp45
 70
     1
102
RTVSPost2010Prop46
 90
       50
102
RTVSPost2010PropOp46
 70
     1
102
RTVSPost2010Prop47
 90
       50
102
RTVSPost2010PropOp47
 70
     1
102
RTVSPost2010Prop48
 90
       50
102
RTVSPost2010PropOp48
 70
     1
102
RTVSPost2010Prop49
280
     0
102
RTVSPost2010PropOp49
 70
     1
102
RTVSPost2010Prop50
 90
       50
102
RTVSPost2010PropOp50
 70
     1
102
RTVSPost2010Prop51ColorIndex
 90
      256
102
RTVSPost2010Prop51ColorRGB
 90
-16777216
102
RTVSPost2010PropOp51
 70
     0
102
RTVSPost2010Prop52
140
1.0
102
RTVSPost2010PropOp52
 70
     0
102
RTVSPost2010Prop53
 90
        2
102
RTVSPost2010PropOp53
 70
     1
102
RTVSPost2010Prop54
  1
strokes_ogs.tif
102
RTVSPost2010PropOp54
 70
     1
102
RTVSPost2010Prop55
280
     0
102
RTVSPost2010PropOp55
 70
     1
102
RTVSPost2010Prop56
140
1.0
102
RTVSPost2010PropOp56
 70
     1
102
RTVSPost2010Prop57
140
1.0
102
RTVSPost2010PropOp57
 70
     1
102
RTVSPropertyOp0
 70
     1
102
RTVSPropertyOp1
 70
     1
102
RTVSPropertyOp2
 70
     1
102
RTVSPropertyOp3
 70
     1
102
RTVSPropertyOp4
 70
     1
102
RTVSPropertyOp5
 70
     1
102
RTVSPropertyOp6
 70
     1
102
RTVSPropertyOp7
 70
     1
102
RTVSPropertyOp8
 70
     1
102
RTVSPropertyOp9
 70
     1
102
RTVSPropertyOp10
 70
     1
102
RTVSPropertyOp11
 70
     1
102
RTVSPropertyOp12
 70
     1
102
RTVSPropertyOp13
 70
     1
102
RTVSPropertyOp14
 70
     1
102
RTVSPropertyOp15
 70
     1
102
RTVSPropertyOp16
 70
     1
102
RTVSPropertyOp17
 70
     1
102
RTVSPropertyOp18
 70
     1
102
RTVSPropertyOp19
 70
     1
102
RTVSPropertyOp20
 70
     1
102
RTVSPropertyOp21
 70
     1
102
RTVSPropertyOp22
 70
     1
102
RTVSPropertyOp23
 70
     1
102
RTVSPropertyOp24
 70
     1
102
RTVSPropertyOp25
 70
     1
102
RTVSPropertyOp26
 70
     1
102
RTVSPropertyOp27
 70
     1
102
RTVSPropertyOp28
 70
     1
102
RTVSPropertyOp29
 70
     1
102
RTVSPropertyOp30
 70
     1
102
RTVSPropertyOp31
 70
     1
102
RTVSPropertyOp32
 70
     1
102
RTVSPropertyOp33
 70
     1
102
RTVSPropertyOp34
 70
     1
102
RTVSPropertyOp35
 70
     1
102
RTVSPropertyOp36
 70
     1
102
RTVSPropertyOp37
 70
     1
102
RTVSPropertyOp38
 70
     1
102
RTVSPropertyOp39
 70
     1
102
RTVSPropertyOp40
 70
     1
102
RTVSPropertyOp41
 70
     1
102
RTVSPropertyOp42
 70
     1
102
RTVSPropertyOp43
 70
     1
102
RTVSPropertyOp44
 70
     1
102
RTVSPropertyOp45
 70
     1
102
RTVSPropertyOp46
 70
     1
102
RTVSPropertyOp47
 70
     1
102
RTVSPropertyOp48
 70
     1
102
RTVSPropertyOp49
 70
     1
102
RTVSPropertyOp50
 70
     1
102
RTVSPropertyOp51
 70
     0
102
RTVSPropertyOp52
 70
     0
102
RTVSPropertyOp53
 70
     1
102
RTVSPropertyOp54
 70
     1
102
RTVSPropertyOp55
 70
     1
102
RTVSPropertyOp56
 70
     1
102
RTVSPropertyOp57
 70
     1
102
RTVSPropertyOp58
 70
     1
102
RTVSPropertyOp59
 70
     1
102
RTVSPropertyOp60
 70
     1
102
RTVSPropertyOp61
 70
     1
102
RTVSPropertyOp62
 70
     1
  0
XRECORD
  5
8368
102
{ACAD_REACTORS
330
8367
102
}
330
8367
100
AcDbXrecord
280
     1
102
RTVSPost2010Prop28
280
     0
102
RTVSPost2010PropOp28
 70
     1
102
RTVSPost2010Prop29
280
     1
102
RTVSPost2010PropOp29
 70
     1
102
RTVSPost2010Prop30
280
     1
102
RTVSPost2010PropOp30
 70
     1
102
RTVSPost2010Prop31
280
     0
102
RTVSPost2010PropOp31
 70
     1
102
RTVSPost2010Prop32
280
     0
102
RTVSPost2010PropOp32
 70
     1
102
RTVSPost2010Prop33
280
     0
102
RTVSPost2010PropOp33
 70
     1
102
RTVSPost2010Prop34
280
     0
102
RTVSPost2010PropOp34
 70
     1
102
RTVSPost2010Prop35
280
     0
102
RTVSPost2010PropOp35
 70
     1
102
RTVSPost2010Prop36
280
     0
102
RTVSPost2010PropOp36
 70
     1
102
RTVSPost2010Prop37
 90
       50
102
RTVSPost2010PropOp37
 70
     0
102
RTVSPost2010Prop38
140
0.0
102
RTVSPost2010PropOp38
 70
     0
102
RTVSPost2010Prop39
140
1.0
102
RTVSPost2010PropOp39
 70
     0
102
RTVSPost2010Prop40
 90
        0
102
RTVSPost2010PropOp40
 70
     0
102
RTVSPost2010Prop41ColorIndex
 90
       18
102
RTVSPost2010Prop41ColorRGB
 90
        0
102
RTVSPost2010PropOp41
 70
     0
102
RTVSPost2010Prop42
 90
       50
102
RTVSPost2010PropOp42
 70
     0
102
RTVSPost2010Prop43
 90
        3
102
RTVSPost2010PropOp43
 70
     0
102
RTVSPost2010Prop44ColorIndex
 90
        5
102
RTVSPost2010Prop44ColorRGB
 90
      255
102
RTVSPost2010PropOp44
 70
     0
102
RTVSPost2010Prop45
280
     0
102
RTVSPost2010PropOp45
 70
     1
102
RTVSPost2010Prop46
 90
       50
102
RTVSPost2010PropOp46
 70
     0
102
RTVSPost2010Prop47
 90
       50
102
RTVSPost2010PropOp47
 70
     0
102
RTVSPost2010Prop48
 90
       50
102
RTVSPost2010PropOp48
 70
     0
102
RTVSPost2010Prop49
280
     0
102
RTVSPost2010PropOp49
 70
     1
102
RTVSPost2010Prop50
 90
       50
102
RTVSPost2010PropOp50
 70
     0
102
RTVSPost2010Prop51ColorIndex
 90
      256
102
RTVSPost2010Prop51ColorRGB
 90
-16777216
102
RTVSPost2010PropOp51
 70
     0
102
RTVSPost2010Prop52
140
1.0
102
RTVSPost2010PropOp52
 70
     0
102
RTVSPost2010Prop53
 90
        2
102
RTVSPost2010PropOp53
 70
     0
102
RTVSPost2010Prop54
  1
strokes_ogs.tif
102
RTVSPost2010PropOp54
 70
     0
102
RTVSPost2010Prop55
280
     0
102
RTVSPost2010PropOp55
 70
     1
102
RTVSPost2010Prop56
140
1.0
102
RTVSPost2010PropOp56
 70
     0
102
RTVSPost2010Prop57
140
1.0
102
RTVSPost2010PropOp57
 70
     0
102
RTVSPropertyOp0
 70
     0
102
RTVSPropertyOp1
 70
     0
102
RTVSPropertyOp2
 70
     0
102
RTVSPropertyOp3
 70
     0
102
RTVSPropertyOp4
 70
     0
102
RTVSPropertyOp5
 70
     0
102
RTVSPropertyOp6
 70
     0
102
RTVSPropertyOp7
 70
     0
102
RTVSPropertyOp8
 70
     0
102
RTVSPropertyOp9
 70
     0
102
RTVSPropertyOp10
 70
     0
102
RTVSPropertyOp11
 70
     0
102
RTVSPropertyOp12
 70
     0
102
RTVSPropertyOp13
 70
     0
102
RTVSPropertyOp14
 70
     2
102
RTVSPropertyOp15
 70
     0
102
RTVSPropertyOp16
 70
     0
102
RTVSPropertyOp17
 70
     0
102
RTVSPropertyOp18
 70
     0
102
RTVSPropertyOp19
 70
     0
102
RTVSPropertyOp20
 70
     0
102
RTVSPropertyOp21
 70
     0
102
RTVSPropertyOp22
 70
     0
102
RTVSPropertyOp23
 70
     0
102
RTVSPropertyOp24
 70
     0
102
RTVSPropertyOp25
 70
     0
102
RTVSPropertyOp26
 70
     0
102
RTVSPropertyOp27
 70
     0
102
RTVSPropertyOp28
 70
     1
102
RTVSPropertyOp29
 70
     1
102
RTVSPropertyOp30
 70
     1
102
RTVSPropertyOp31
 70
     1
102
RTVSPropertyOp32
 70
     1
102
RTVSPropertyOp33
 70
     1
102
RTVSPropertyOp34
 70
     1
102
RTVSPropertyOp35
 70
     1
102
RTVSPropertyOp36
 70
     1
102
RTVSPropertyOp37
 70
     0
102
RTVSPropertyOp38
 70
     0
102
RTVSPropertyOp39
 70
     0
102
RTVSPropertyOp40
 70
     0
102
RTVSPropertyOp41
 70
     0
102
RTVSPropertyOp42
 70
     0
102
RTVSPropertyOp43
 70
     0
102
RTVSPropertyOp44
 70
     0
102
RTVSPropertyOp45
 70
     1
102
RTVSPropertyOp46
 70
     0
102
RTVSPropertyOp47
 70
     0
102
RTVSPropertyOp48
 70
     0
102
RTVSPropertyOp49
 70
     1
102
RTVSPropertyOp50
 70
     0
102
RTVSPropertyOp51
 70
     0
102
RTVSPropertyOp52
 70
     0
102
RTVSPropertyOp53
 70
     0
102
RTVSPropertyOp54
 70
     0
102
RTVSPropertyOp55
 70
     1
102
RTVSPropertyOp56
 70
     0
102
RTVSPropertyOp57
 70
     0
102
RTVSPropertyOp58
 70
     0
102
RTVSPropertyOp59
 70
     0
102
RTVSPropertyOp60
 70
     0
102
RTVSPropertyOp61
 70
     0
102
RTVSPropertyOp62
 70
     0
  0
XRECORD
  5
8358
102
{ACAD_REACTORS
330
8357
102
}
330
8357
100
AcDbXrecord
280
     1
102
RTVSPost2010Prop28
280
     0
102
RTVSPost2010PropOp28
 70
     1
102
RTVSPost2010Prop29
280
     1
102
RTVSPost2010PropOp29
 70
     1
102
RTVSPost2010Prop30
280
     1
102
RTVSPost2010PropOp30
 70
     1
102
RTVSPost2010Prop31
280
     0
102
RTVSPost2010PropOp31
 70
     1
102
RTVSPost2010Prop32
280
     0
102
RTVSPost2010PropOp32
 70
     1
102
RTVSPost2010Prop33
280
     0
102
RTVSPost2010PropOp33
 70
     1
102
RTVSPost2010Prop34
280
     0
102
RTVSPost2010PropOp34
 70
     1
102
RTVSPost2010Prop35
280
     0
102
RTVSPost2010PropOp35
 70
     1
102
RTVSPost2010Prop36
280
     0
102
RTVSPost2010PropOp36
 70
     1
102
RTVSPost2010Prop37
 90
       50
102
RTVSPost2010PropOp37
 70
     1
102
RTVSPost2010Prop38
140
0.0
102
RTVSPost2010PropOp38
 70
     1
102
RTVSPost2010Prop39
140
1.0
102
RTVSPost2010PropOp39
 70
     1
102
RTVSPost2010Prop40
 90
        0
102
RTVSPost2010PropOp40
 70
     1
102
RTVSPost2010Prop41ColorIndex
 90
       18
102
RTVSPost2010Prop41ColorRGB
 90
        0
102
RTVSPost2010PropOp41
 70
     1
102
RTVSPost2010Prop42
 90
       50
102
RTVSPost2010PropOp42
 70
     1
102
RTVSPost2010Prop43
 90
        3
102
RTVSPost2010PropOp43
 70
     1
102
RTVSPost2010Prop44ColorIndex
 90
        5
102
RTVSPost2010Prop44ColorRGB
 90
      255
102
RTVSPost2010PropOp44
 70
     1
102
RTVSPost2010Prop45
280
     0
102
RTVSPost2010PropOp45
 70
     1
102
RTVSPost2010Prop46
 90
       50
102
RTVSPost2010PropOp46
 70
     1
102
RTVSPost2010Prop47
 90
       50
102
RTVSPost2010PropOp47
 70
     1
102
RTVSPost2010Prop48
 90
       50
102
RTVSPost2010PropOp48
 70
     1
102
RTVSPost2010Prop49
280
     0
102
RTVSPost2010PropOp49
 70
     1
102
RTVSPost2010Prop50
 90
       50
102
RTVSPost2010PropOp50
 70
     1
102
RTVSPost2010Prop51ColorIndex
 90
      256
102
RTVSPost2010Prop51ColorRGB
 90
-16777216
102
RTVSPost2010PropOp51
 70
     0
102
RTVSPost2010Prop52
140
1.0
102
RTVSPost2010PropOp52
 70
     0
102
RTVSPost2010Prop53
 90
        2
102
RTVSPost2010PropOp53
 70
     1
102
RTVSPost2010Prop54
  1
strokes_ogs.tif
102
RTVSPost2010PropOp54
 70
     1
102
RTVSPost2010Prop55
280
     0
102
RTVSPost2010PropOp55
 70
     1
102
RTVSPost2010Prop56
140
1.0
102
RTVSPost2010PropOp56
 70
     1
102
RTVSPost2010Prop57
140
1.0
102
RTVSPost2010PropOp57
 70
     1
102
RTVSPropertyOp0
 70
     1
102
RTVSPropertyOp1
 70
     1
102
RTVSPropertyOp2
 70
     1
102
RTVSPropertyOp3
 70
     1
102
RTVSPropertyOp4
 70
     1
102
RTVSPropertyOp5
 70
     1
102
RTVSPropertyOp6
 70
     1
102
RTVSPropertyOp7
 70
     1
102
RTVSPropertyOp8
 70
     1
102
RTVSPropertyOp9
 70
     1
102
RTVSPropertyOp10
 70
     1
102
RTVSPropertyOp11
 70
     1
102
RTVSPropertyOp12
 70
     1
102
RTVSPropertyOp13
 70
     1
102
RTVSPropertyOp14
 70
     1
102
RTVSPropertyOp15
 70
     1
102
RTVSPropertyOp16
 70
     1
102
RTVSPropertyOp17
 70
     1
102
RTVSPropertyOp18
 70
     1
102
RTVSPropertyOp19
 70
     1
102
RTVSPropertyOp20
 70
     1
102
RTVSPropertyOp21
 70
     1
102
RTVSPropertyOp22
 70
     1
102
RTVSPropertyOp23
 70
     1
102
RTVSPropertyOp24
 70
     1
102
RTVSPropertyOp25
 70
     1
102
RTVSPropertyOp26
 70
     1
102
RTVSPropertyOp27
 70
     1
102
RTVSPropertyOp28
 70
     1
102
RTVSPropertyOp29
 70
     1
102
RTVSPropertyOp30
 70
     1
102
RTVSPropertyOp31
 70
     1
102
RTVSPropertyOp32
 70
     1
102
RTVSPropertyOp33
 70
     1
102
RTVSPropertyOp34
 70
     1
102
RTVSPropertyOp35
 70
     1
102
RTVSPropertyOp36
 70
     1
102
RTVSPropertyOp37
 70
     1
102
RTVSPropertyOp38
 70
     1
102
RTVSPropertyOp39
 70
     1
102
RTVSPropertyOp40
 70
     1
102
RTVSPropertyOp41
 70
     1
102
RTVSPropertyOp42
 70
     1
102
RTVSPropertyOp43
 70
     1
102
RTVSPropertyOp44
 70
     1
102
RTVSPropertyOp45
 70
     1
102
RTVSPropertyOp46
 70
     1
102
RTVSPropertyOp47
 70
     1
102
RTVSPropertyOp48
 70
     1
102
RTVSPropertyOp49
 70
     1
102
RTVSPropertyOp50
 70
     1
102
RTVSPropertyOp51
 70
     0
102
RTVSPropertyOp52
 70
     0
102
RTVSPropertyOp53
 70
     1
102
RTVSPropertyOp54
 70
     1
102
RTVSPropertyOp55
 70
     1
102
RTVSPropertyOp56
 70
     1
102
RTVSPropertyOp57
 70
     1
102
RTVSPropertyOp58
 70
     1
102
RTVSPropertyOp59
 70
     1
102
RTVSPropertyOp60
 70
     1
102
RTVSPropertyOp61
 70
     1
102
RTVSPropertyOp62
 70
     1
  0
XRECORD
  5
836A
102
{ACAD_REACTORS
330
8369
102
}
330
8369
100
AcDbXrecord
280
     1
102
RTVSPost2010Prop28
280
     0
102
RTVSPost2010PropOp28
 70
     1
102
RTVSPost2010Prop29
280
     1
102
RTVSPost2010PropOp29
 70
     1
102
RTVSPost2010Prop30
280
     1
102
RTVSPost2010PropOp30
 70
     1
102
RTVSPost2010Prop31
280
     0
102
RTVSPost2010PropOp31
 70
     1
102
RTVSPost2010Prop32
280
     0
102
RTVSPost2010PropOp32
 70
     1
102
RTVSPost2010Prop33
280
     0
102
RTVSPost2010PropOp33
 70
     1
102
RTVSPost2010Prop34
280
     0
102
RTVSPost2010PropOp34
 70
     1
102
RTVSPost2010Prop35
280
     0
102
RTVSPost2010PropOp35
 70
     1
102
RTVSPost2010Prop36
280
     0
102
RTVSPost2010PropOp36
 70
     1
102
RTVSPost2010Prop37
 90
       50
102
RTVSPost2010PropOp37
 70
     0
102
RTVSPost2010Prop38
140
0.0
102
RTVSPost2010PropOp38
 70
     0
102
RTVSPost2010Prop39
140
1.0
102
RTVSPost2010PropOp39
 70
     0
102
RTVSPost2010Prop40
 90
        0
102
RTVSPost2010PropOp40
 70
     0
102
RTVSPost2010Prop41ColorIndex
 90
       18
102
RTVSPost2010Prop41ColorRGB
 90
        0
102
RTVSPost2010PropOp41
 70
     0
102
RTVSPost2010Prop42
 90
       50
102
RTVSPost2010PropOp42
 70
     0
102
RTVSPost2010Prop43
 90
        3
102
RTVSPost2010PropOp43
 70
     0
102
RTVSPost2010Prop44ColorIndex
 90
        5
102
RTVSPost2010Prop44ColorRGB
 90
      255
102
RTVSPost2010PropOp44
 70
     0
102
RTVSPost2010Prop45
280
     0
102
RTVSPost2010PropOp45
 70
     1
102
RTVSPost2010Prop46
 90
       50
102
RTVSPost2010PropOp46
 70
     0
102
RTVSPost2010Prop47
 90
       50
102
RTVSPost2010PropOp47
 70
     0
102
RTVSPost2010Prop48
 90
       50
102
RTVSPost2010PropOp48
 70
     0
102
RTVSPost2010Prop49
280
     0
102
RTVSPost2010PropOp49
 70
     1
102
RTVSPost2010Prop50
 90
       50
102
RTVSPost2010PropOp50
 70
     0
102
RTVSPost2010Prop51ColorIndex
 90
      256
102
RTVSPost2010Prop51ColorRGB
 90
-16777216
102
RTVSPost2010PropOp51
 70
     0
102
RTVSPost2010Prop52
140
1.0
102
RTVSPost2010PropOp52
 70
     0
102
RTVSPost2010Prop53
 90
        2
102
RTVSPost2010PropOp53
 70
     0
102
RTVSPost2010Prop54
  1
strokes_ogs.tif
102
RTVSPost2010PropOp54
 70
     0
102
RTVSPost2010Prop55
280
     0
102
RTVSPost2010PropOp55
 70
     1
102
RTVSPost2010Prop56
140
1.0
102
RTVSPost2010PropOp56
 70
     0
102
RTVSPost2010Prop57
140
1.0
102
RTVSPost2010PropOp57
 70
     0
102
RTVSPropertyOp0
 70
     0
102
RTVSPropertyOp1
 70
     0
102
RTVSPropertyOp2
 70
     0
102
RTVSPropertyOp3
 70
     0
102
RTVSPropertyOp4
 70
     0
102
RTVSPropertyOp5
 70
     0
102
RTVSPropertyOp6
 70
     0
102
RTVSPropertyOp7
 70
     0
102
RTVSPropertyOp8
 70
     0
102
RTVSPropertyOp9
 70
     0
102
RTVSPropertyOp10
 70
     0
102
RTVSPropertyOp11
 70
     0
102
RTVSPropertyOp12
 70
     0
102
RTVSPropertyOp13
 70
     0
102
RTVSPropertyOp14
 70
     2
102
RTVSPropertyOp15
 70
     0
102
RTVSPropertyOp16
 70
     0
102
RTVSPropertyOp17
 70
     0
102
RTVSPropertyOp18
 70
     0
102
RTVSPropertyOp19
 70
     0
102
RTVSPropertyOp20
 70
     0
102
RTVSPropertyOp21
 70
     0
102
RTVSPropertyOp22
 70
     0
102
RTVSPropertyOp23
 70
     0
102
RTVSPropertyOp24
 70
     0
102
RTVSPropertyOp25
 70
     0
102
RTVSPropertyOp26
 70
     0
102
RTVSPropertyOp27
 70
     0
102
RTVSPropertyOp28
 70
     1
102
RTVSPropertyOp29
 70
     1
102
RTVSPropertyOp30
 70
     1
102
RTVSPropertyOp31
 70
     1
102
RTVSPropertyOp32
 70
     1
102
RTVSPropertyOp33
 70
     1
102
RTVSPropertyOp34
 70
     1
102
RTVSPropertyOp35
 70
     1
102
RTVSPropertyOp36
 70
     1
102
RTVSPropertyOp37
 70
     0
102
RTVSPropertyOp38
 70
     0
102
RTVSPropertyOp39
 70
     0
102
RTVSPropertyOp40
 70
     0
102
RTVSPropertyOp41
 70
     0
102
RTVSPropertyOp42
 70
     0
102
RTVSPropertyOp43
 70
     0
102
RTVSPropertyOp44
 70
     0
102
RTVSPropertyOp45
 70
     1
102
RTVSPropertyOp46
 70
     0
102
RTVSPropertyOp47
 70
     0
102
RTVSPropertyOp48
 70
     0
102
RTVSPropertyOp49
 70
     1
102
RTVSPropertyOp50
 70
     0
102
RTVSPropertyOp51
 70
     0
102
RTVSPropertyOp52
 70
     0
102
RTVSPropertyOp53
 70
     0
102
RTVSPropertyOp54
 70
     0
102
RTVSPropertyOp55
 70
     1
102
RTVSPropertyOp56
 70
     0
102
RTVSPropertyOp57
 70
     0
102
RTVSPropertyOp58
 70
     0
102
RTVSPropertyOp59
 70
     0
102
RTVSPropertyOp60
 70
     0
102
RTVSPropertyOp61
 70
     0
102
RTVSPropertyOp62
 70
     0
  0
XRECORD
  5
8350
102
{ACAD_REACTORS
330
834F
102
}
330
834F
100
AcDbXrecord
280
     1
102
RTVSPost2010Prop28
280
     0
102
RTVSPost2010PropOp28
 70
     1
102
RTVSPost2010Prop29
280
     1
102
RTVSPost2010PropOp29
 70
     1
102
RTVSPost2010Prop30
280
     1
102
RTVSPost2010PropOp30
 70
     1
102
RTVSPost2010Prop31
280
     0
102
RTVSPost2010PropOp31
 70
     1
102
RTVSPost2010Prop32
280
     0
102
RTVSPost2010PropOp32
 70
     1
102
RTVSPost2010Prop33
280
     0
102
RTVSPost2010PropOp33
 70
     1
102
RTVSPost2010Prop34
280
     0
102
RTVSPost2010PropOp34
 70
     1
102
RTVSPost2010Prop35
280
     0
102
RTVSPost2010PropOp35
 70
     1
102
RTVSPost2010Prop36
280
     0
102
RTVSPost2010PropOp36
 70
     1
102
RTVSPost2010Prop37
 90
       50
102
RTVSPost2010PropOp37
 70
     1
102
RTVSPost2010Prop38
140
0.0
102
RTVSPost2010PropOp38
 70
     1
102
RTVSPost2010Prop39
140
1.0
102
RTVSPost2010PropOp39
 70
     1
102
RTVSPost2010Prop40
 90
        0
102
RTVSPost2010PropOp40
 70
     1
102
RTVSPost2010Prop41ColorIndex
 90
       18
102
RTVSPost2010Prop41ColorRGB
 90
        0
102
RTVSPost2010PropOp41
 70
     1
102
RTVSPost2010Prop42
 90
       50
102
RTVSPost2010PropOp42
 70
     1
102
RTVSPost2010Prop43
 90
        3
102
RTVSPost2010PropOp43
 70
     1
102
RTVSPost2010Prop44ColorIndex
 90
        5
102
RTVSPost2010Prop44ColorRGB
 90
      255
102
RTVSPost2010PropOp44
 70
     1
102
RTVSPost2010Prop45
280
     0
102
RTVSPost2010PropOp45
 70
     1
102
RTVSPost2010Prop46
 90
       50
102
RTVSPost2010PropOp46
 70
     1
102
RTVSPost2010Prop47
 90
       50
102
RTVSPost2010PropOp47
 70
     1
102
RTVSPost2010Prop48
 90
       50
102
RTVSPost2010PropOp48
 70
     1
102
RTVSPost2010Prop49
280
     0
102
RTVSPost2010PropOp49
 70
     1
102
RTVSPost2010Prop50
 90
       50
102
RTVSPost2010PropOp50
 70
     1
102
RTVSPost2010Prop51ColorIndex
 90
      256
102
RTVSPost2010Prop51ColorRGB
 90
-16777216
102
RTVSPost2010PropOp51
 70
     0
102
RTVSPost2010Prop52
140
1.0
102
RTVSPost2010PropOp52
 70
     0
102
RTVSPost2010Prop53
 90
        2
102
RTVSPost2010PropOp53
 70
     1
102
RTVSPost2010Prop54
  1
strokes_ogs.tif
102
RTVSPost2010PropOp54
 70
     1
102
RTVSPost2010Prop55
280
     0
102
RTVSPost2010PropOp55
 70
     1
102
RTVSPost2010Prop56
140
1.0
102
RTVSPost2010PropOp56
 70
     1
102
RTVSPost2010Prop57
140
1.0
102
RTVSPost2010PropOp57
 70
     1
102
RTVSPropertyOp0
 70
     1
102
RTVSPropertyOp1
 70
     1
102
RTVSPropertyOp2
 70
     1
102
RTVSPropertyOp3
 70
     1
102
RTVSPropertyOp4
 70
     1
102
RTVSPropertyOp5
 70
     1
102
RTVSPropertyOp6
 70
     1
102
RTVSPropertyOp7
 70
     1
102
RTVSPropertyOp8
 70
     1
102
RTVSPropertyOp9
 70
     1
102
RTVSPropertyOp10
 70
     1
102
RTVSPropertyOp11
 70
     1
102
RTVSPropertyOp12
 70
     1
102
RTVSPropertyOp13
 70
     1
102
RTVSPropertyOp14
 70
     1
102
RTVSPropertyOp15
 70
     1
102
RTVSPropertyOp16
 70
     1
102
RTVSPropertyOp17
 70
     1
102
RTVSPropertyOp18
 70
     1
102
RTVSPropertyOp19
 70
     1
102
RTVSPropertyOp20
 70
     1
102
RTVSPropertyOp21
 70
     1
102
RTVSPropertyOp22
 70
     1
102
RTVSPropertyOp23
 70
     1
102
RTVSPropertyOp24
 70
     1
102
RTVSPropertyOp25
 70
     1
102
RTVSPropertyOp26
 70
     1
102
RTVSPropertyOp27
 70
     1
102
RTVSPropertyOp28
 70
     1
102
RTVSPropertyOp29
 70
     1
102
RTVSPropertyOp30
 70
     1
102
RTVSPropertyOp31
 70
     1
102
RTVSPropertyOp32
 70
     1
102
RTVSPropertyOp33
 70
     1
102
RTVSPropertyOp34
 70
     1
102
RTVSPropertyOp35
 70
     1
102
RTVSPropertyOp36
 70
     1
102
RTVSPropertyOp37
 70
     1
102
RTVSPropertyOp38
 70
     1
102
RTVSPropertyOp39
 70
     1
102
RTVSPropertyOp40
 70
     1
102
RTVSPropertyOp41
 70
     1
102
RTVSPropertyOp42
 70
     1
102
RTVSPropertyOp43
 70
     1
102
RTVSPropertyOp44
 70
     1
102
RTVSPropertyOp45
 70
     1
102
RTVSPropertyOp46
 70
     1
102
RTVSPropertyOp47
 70
     1
102
RTVSPropertyOp48
 70
     1
102
RTVSPropertyOp49
 70
     1
102
RTVSPropertyOp50
 70
     1
102
RTVSPropertyOp51
 70
     0
102
RTVSPropertyOp52
 70
     0
102
RTVSPropertyOp53
 70
     1
102
RTVSPropertyOp54
 70
     1
102
RTVSPropertyOp55
 70
     1
102
RTVSPropertyOp56
 70
     1
102
RTVSPropertyOp57
 70
     1
102
RTVSPropertyOp58
 70
     1
102
RTVSPropertyOp59
 70
     1
102
RTVSPropertyOp60
 70
     1
102
RTVSPropertyOp61
 70
     1
102
RTVSPropertyOp62
 70
     1
  0
XRECORD
  5
8366
102
{ACAD_REACTORS
330
8365
102
}
330
8365
100
AcDbXrecord
280
     1
102
RTVSPost2010Prop28
280
     0
102
RTVSPost2010PropOp28
 70
     1
102
RTVSPost2010Prop29
280
     1
102
RTVSPost2010PropOp29
 70
     1
102
RTVSPost2010Prop30
280
     1
102
RTVSPost2010PropOp30
 70
     1
102
RTVSPost2010Prop31
280
     0
102
RTVSPost2010PropOp31
 70
     1
102
RTVSPost2010Prop32
280
     0
102
RTVSPost2010PropOp32
 70
     1
102
RTVSPost2010Prop33
280
     0
102
RTVSPost2010PropOp33
 70
     1
102
RTVSPost2010Prop34
280
     0
102
RTVSPost2010PropOp34
 70
     1
102
RTVSPost2010Prop35
280
     0
102
RTVSPost2010PropOp35
 70
     1
102
RTVSPost2010Prop36
280
     0
102
RTVSPost2010PropOp36
 70
     1
102
RTVSPost2010Prop37
 90
       50
102
RTVSPost2010PropOp37
 70
     1
102
RTVSPost2010Prop38
140
0.0
102
RTVSPost2010PropOp38
 70
     1
102
RTVSPost2010Prop39
140
1.0
102
RTVSPost2010PropOp39
 70
     1
102
RTVSPost2010Prop40
 90
        0
102
RTVSPost2010PropOp40
 70
     1
102
RTVSPost2010Prop41ColorIndex
 90
       18
102
RTVSPost2010Prop41ColorRGB
 90
        0
102
RTVSPost2010PropOp41
 70
     1
102
RTVSPost2010Prop42
 90
       50
102
RTVSPost2010PropOp42
 70
     1
102
RTVSPost2010Prop43
 90
        3
102
RTVSPost2010PropOp43
 70
     1
102
RTVSPost2010Prop44ColorIndex
 90
        5
102
RTVSPost2010Prop44ColorRGB
 90
      255
102
RTVSPost2010PropOp44
 70
     1
102
RTVSPost2010Prop45
280
     0
102
RTVSPost2010PropOp45
 70
     1
102
RTVSPost2010Prop46
 90
       50
102
RTVSPost2010PropOp46
 70
     1
102
RTVSPost2010Prop47
 90
       50
102
RTVSPost2010PropOp47
 70
     1
102
RTVSPost2010Prop48
 90
       50
102
RTVSPost2010PropOp48
 70
     1
102
RTVSPost2010Prop49
280
     0
102
RTVSPost2010PropOp49
 70
     1
102
RTVSPost2010Prop50
 90
       50
102
RTVSPost2010PropOp50
 70
     1
102
RTVSPost2010Prop51ColorIndex
 90
      256
102
RTVSPost2010Prop51ColorRGB
 90
-16777216
102
RTVSPost2010PropOp51
 70
     0
102
RTVSPost2010Prop52
140
1.0
102
RTVSPost2010PropOp52
 70
     0
102
RTVSPost2010Prop53
 90
        2
102
RTVSPost2010PropOp53
 70
     1
102
RTVSPost2010Prop54
  1
strokes_ogs.tif
102
RTVSPost2010PropOp54
 70
     1
102
RTVSPost2010Prop55
280
     0
102
RTVSPost2010PropOp55
 70
     1
102
RTVSPost2010Prop56
140
1.0
102
RTVSPost2010PropOp56
 70
     1
102
RTVSPost2010Prop57
140
1.0
102
RTVSPost2010PropOp57
 70
     1
102
RTVSPropertyOp0
 70
     1
102
RTVSPropertyOp1
 70
     1
102
RTVSPropertyOp2
 70
     1
102
RTVSPropertyOp3
 70
     1
102
RTVSPropertyOp4
 70
     1
102
RTVSPropertyOp5
 70
     1
102
RTVSPropertyOp6
 70
     1
102
RTVSPropertyOp7
 70
     1
102
RTVSPropertyOp8
 70
     1
102
RTVSPropertyOp9
 70
     1
102
RTVSPropertyOp10
 70
     1
102
RTVSPropertyOp11
 70
     1
102
RTVSPropertyOp12
 70
     1
102
RTVSPropertyOp13
 70
     1
102
RTVSPropertyOp14
 70
     1
102
RTVSPropertyOp15
 70
     1
102
RTVSPropertyOp16
 70
     1
102
RTVSPropertyOp17
 70
     1
102
RTVSPropertyOp18
 70
     1
102
RTVSPropertyOp19
 70
     1
102
RTVSPropertyOp20
 70
     1
102
RTVSPropertyOp21
 70
     1
102
RTVSPropertyOp22
 70
     1
102
RTVSPropertyOp23
 70
     1
102
RTVSPropertyOp24
 70
     1
102
RTVSPropertyOp25
 70
     1
102
RTVSPropertyOp26
 70
     1
102
RTVSPropertyOp27
 70
     1
102
RTVSPropertyOp28
 70
     1
102
RTVSPropertyOp29
 70
     1
102
RTVSPropertyOp30
 70
     1
102
RTVSPropertyOp31
 70
     1
102
RTVSPropertyOp32
 70
     1
102
RTVSPropertyOp33
 70
     1
102
RTVSPropertyOp34
 70
     1
102
RTVSPropertyOp35
 70
     1
102
RTVSPropertyOp36
 70
     1
102
RTVSPropertyOp37
 70
     1
102
RTVSPropertyOp38
 70
     1
102
RTVSPropertyOp39
 70
     1
102
RTVSPropertyOp40
 70
     1
102
RTVSPropertyOp41
 70
     1
102
RTVSPropertyOp42
 70
     1
102
RTVSPropertyOp43
 70
     1
102
RTVSPropertyOp44
 70
     1
102
RTVSPropertyOp45
 70
     1
102
RTVSPropertyOp46
 70
     1
102
RTVSPropertyOp47
 70
     1
102
RTVSPropertyOp48
 70
     1
102
RTVSPropertyOp49
 70
     1
102
RTVSPropertyOp50
 70
     1
102
RTVSPropertyOp51
 70
     0
102
RTVSPropertyOp52
 70
     0
102
RTVSPropertyOp53
 70
     1
102
RTVSPropertyOp54
 70
     1
102
RTVSPropertyOp55
 70
     1
102
RTVSPropertyOp56
 70
     1
102
RTVSPropertyOp57
 70
     1
102
RTVSPropertyOp58
 70
     1
102
RTVSPropertyOp59
 70
     1
102
RTVSPropertyOp60
 70
     1
102
RTVSPropertyOp61
 70
     1
102
RTVSPropertyOp62
 70
     1
  0
XRECORD
  5
8364
102
{ACAD_REACTORS
330
8363
102
}
330
8363
100
AcDbXrecord
280
     1
102
RTVSPost2010Prop28
280
     0
102
RTVSPost2010PropOp28
 70
     1
102
RTVSPost2010Prop29
280
     1
102
RTVSPost2010PropOp29
 70
     1
102
RTVSPost2010Prop30
280
     1
102
RTVSPost2010PropOp30
 70
     1
102
RTVSPost2010Prop31
280
     0
102
RTVSPost2010PropOp31
 70
     1
102
RTVSPost2010Prop32
280
     0
102
RTVSPost2010PropOp32
 70
     1
102
RTVSPost2010Prop33
280
     0
102
RTVSPost2010PropOp33
 70
     1
102
RTVSPost2010Prop34
280
     0
102
RTVSPost2010PropOp34
 70
     1
102
RTVSPost2010Prop35
280
     0
102
RTVSPost2010PropOp35
 70
     1
102
RTVSPost2010Prop36
280
     0
102
RTVSPost2010PropOp36
 70
     1
102
RTVSPost2010Prop37
 90
       50
102
RTVSPost2010PropOp37
 70
     1
102
RTVSPost2010Prop38
140
0.0
102
RTVSPost2010PropOp38
 70
     1
102
RTVSPost2010Prop39
140
1.0
102
RTVSPost2010PropOp39
 70
     1
102
RTVSPost2010Prop40
 90
        0
102
RTVSPost2010PropOp40
 70
     1
102
RTVSPost2010Prop41ColorIndex
 90
       18
102
RTVSPost2010Prop41ColorRGB
 90
        0
102
RTVSPost2010PropOp41
 70
     1
102
RTVSPost2010Prop42
 90
       50
102
RTVSPost2010PropOp42
 70
     1
102
RTVSPost2010Prop43
 90
        3
102
RTVSPost2010PropOp43
 70
     1
102
RTVSPost2010Prop44ColorIndex
 90
        5
102
RTVSPost2010Prop44ColorRGB
 90
      255
102
RTVSPost2010PropOp44
 70
     1
102
RTVSPost2010Prop45
280
     0
102
RTVSPost2010PropOp45
 70
     1
102
RTVSPost2010Prop46
 90
       50
102
RTVSPost2010PropOp46
 70
     1
102
RTVSPost2010Prop47
 90
       50
102
RTVSPost2010PropOp47
 70
     1
102
RTVSPost2010Prop48
 90
       50
102
RTVSPost2010PropOp48
 70
     1
102
RTVSPost2010Prop49
280
     0
102
RTVSPost2010PropOp49
 70
     1
102
RTVSPost2010Prop50
 90
       50
102
RTVSPost2010PropOp50
 70
     1
102
RTVSPost2010Prop51ColorIndex
 90
      256
102
RTVSPost2010Prop51ColorRGB
 90
-16777216
102
RTVSPost2010PropOp51
 70
     0
102
RTVSPost2010Prop52
140
1.0
102
RTVSPost2010PropOp52
 70
     0
102
RTVSPost2010Prop53
 90
        2
102
RTVSPost2010PropOp53
 70
     1
102
RTVSPost2010Prop54
  1
strokes_ogs.tif
102
RTVSPost2010PropOp54
 70
     1
102
RTVSPost2010Prop55
280
     0
102
RTVSPost2010PropOp55
 70
     1
102
RTVSPost2010Prop56
140
1.0
102
RTVSPost2010PropOp56
 70
     1
102
RTVSPost2010Prop57
140
1.0
102
RTVSPost2010PropOp57
 70
     1
102
RTVSPropertyOp0
 70
     1
102
RTVSPropertyOp1
 70
     1
102
RTVSPropertyOp2
 70
     1
102
RTVSPropertyOp3
 70
     1
102
RTVSPropertyOp4
 70
     1
102
RTVSPropertyOp5
 70
     1
102
RTVSPropertyOp6
 70
     1
102
RTVSPropertyOp7
 70
     1
102
RTVSPropertyOp8
 70
     1
102
RTVSPropertyOp9
 70
     1
102
RTVSPropertyOp10
 70
     1
102
RTVSPropertyOp11
 70
     1
102
RTVSPropertyOp12
 70
     1
102
RTVSPropertyOp13
 70
     1
102
RTVSPropertyOp14
 70
     1
102
RTVSPropertyOp15
 70
     1
102
RTVSPropertyOp16
 70
     1
102
RTVSPropertyOp17
 70
     1
102
RTVSPropertyOp18
 70
     1
102
RTVSPropertyOp19
 70
     1
102
RTVSPropertyOp20
 70
     1
102
RTVSPropertyOp21
 70
     1
102
RTVSPropertyOp22
 70
     1
102
RTVSPropertyOp23
 70
     1
102
RTVSPropertyOp24
 70
     1
102
RTVSPropertyOp25
 70
     1
102
RTVSPropertyOp26
 70
     1
102
RTVSPropertyOp27
 70
     1
102
RTVSPropertyOp28
 70
     1
102
RTVSPropertyOp29
 70
     1
102
RTVSPropertyOp30
 70
     1
102
RTVSPropertyOp31
 70
     1
102
RTVSPropertyOp32
 70
     1
102
RTVSPropertyOp33
 70
     1
102
RTVSPropertyOp34
 70
     1
102
RTVSPropertyOp35
 70
     1
102
RTVSPropertyOp36
 70
     1
102
RTVSPropertyOp37
 70
     1
102
RTVSPropertyOp38
 70
     1
102
RTVSPropertyOp39
 70
     1
102
RTVSPropertyOp40
 70
     1
102
RTVSPropertyOp41
 70
     1
102
RTVSPropertyOp42
 70
     1
102
RTVSPropertyOp43
 70
     1
102
RTVSPropertyOp44
 70
     1
102
RTVSPropertyOp45
 70
     1
102
RTVSPropertyOp46
 70
     1
102
RTVSPropertyOp47
 70
     1
102
RTVSPropertyOp48
 70
     1
102
RTVSPropertyOp49
 70
     1
102
RTVSPropertyOp50
 70
     1
102
RTVSPropertyOp51
 70
     0
102
RTVSPropertyOp52
 70
     0
102
RTVSPropertyOp53
 70
     1
102
RTVSPropertyOp54
 70
     1
102
RTVSPropertyOp55
 70
     1
102
RTVSPropertyOp56
 70
     1
102
RTVSPropertyOp57
 70
     1
102
RTVSPropertyOp58
 70
     1
102
RTVSPropertyOp59
 70
     1
102
RTVSPropertyOp60
 70
     1
102
RTVSPropertyOp61
 70
     1
102
RTVSPropertyOp62
 70
     1
  0
XRECORD
  5
835E
102
{ACAD_REACTORS
330
835D
102
}
330
835D
100
AcDbXrecord
280
     1
102
RTVSPost2010Prop28
280
     0
102
RTVSPost2010PropOp28
 70
     1
102
RTVSPost2010Prop29
280
     1
102
RTVSPost2010PropOp29
 70
     1
102
RTVSPost2010Prop30
280
     1
102
RTVSPost2010PropOp30
 70
     1
102
RTVSPost2010Prop31
280
     0
102
RTVSPost2010PropOp31
 70
     1
102
RTVSPost2010Prop32
280
     0
102
RTVSPost2010PropOp32
 70
     1
102
RTVSPost2010Prop33
280
     0
102
RTVSPost2010PropOp33
 70
     1
102
RTVSPost2010Prop34
280
     0
102
RTVSPost2010PropOp34
 70
     1
102
RTVSPost2010Prop35
280
     0
102
RTVSPost2010PropOp35
 70
     1
102
RTVSPost2010Prop36
280
     0
102
RTVSPost2010PropOp36
 70
     1
102
RTVSPost2010Prop37
 90
       50
102
RTVSPost2010PropOp37
 70
     1
102
RTVSPost2010Prop38
140
0.0
102
RTVSPost2010PropOp38
 70
     1
102
RTVSPost2010Prop39
140
1.0
102
RTVSPost2010PropOp39
 70
     1
102
RTVSPost2010Prop40
 90
        0
102
RTVSPost2010PropOp40
 70
     1
102
RTVSPost2010Prop41ColorIndex
 90
       18
102
RTVSPost2010Prop41ColorRGB
 90
        0
102
RTVSPost2010PropOp41
 70
     1
102
RTVSPost2010Prop42
 90
       50
102
RTVSPost2010PropOp42
 70
     1
102
RTVSPost2010Prop43
 90
        3
102
RTVSPost2010PropOp43
 70
     1
102
RTVSPost2010Prop44ColorIndex
 90
        5
102
RTVSPost2010Prop44ColorRGB
 90
      255
102
RTVSPost2010PropOp44
 70
     1
102
RTVSPost2010Prop45
280
     0
102
RTVSPost2010PropOp45
 70
     1
102
RTVSPost2010Prop46
 90
       50
102
RTVSPost2010PropOp46
 70
     1
102
RTVSPost2010Prop47
 90
       50
102
RTVSPost2010PropOp47
 70
     1
102
RTVSPost2010Prop48
 90
       50
102
RTVSPost2010PropOp48
 70
     1
102
RTVSPost2010Prop49
280
     0
102
RTVSPost2010PropOp49
 70
     1
102
RTVSPost2010Prop50
 90
       50
102
RTVSPost2010PropOp50
 70
     1
102
RTVSPost2010Prop51ColorIndex
 90
      256
102
RTVSPost2010Prop51ColorRGB
 90
-16777216
102
RTVSPost2010PropOp51
 70
     0
102
RTVSPost2010Prop52
140
1.0
102
RTVSPost2010PropOp52
 70
     0
102
RTVSPost2010Prop53
 90
        2
102
RTVSPost2010PropOp53
 70
     1
102
RTVSPost2010Prop54
  1
strokes_ogs.tif
102
RTVSPost2010PropOp54
 70
     1
102
RTVSPost2010Prop55
280
     0
102
RTVSPost2010PropOp55
 70
     1
102
RTVSPost2010Prop56
140
1.0
102
RTVSPost2010PropOp56
 70
     1
102
RTVSPost2010Prop57
140
1.0
102
RTVSPost2010PropOp57
 70
     1
102
RTVSPropertyOp0
 70
     1
102
RTVSPropertyOp1
 70
     1
102
RTVSPropertyOp2
 70
     1
102
RTVSPropertyOp3
 70
     1
102
RTVSPropertyOp4
 70
     1
102
RTVSPropertyOp5
 70
     1
102
RTVSPropertyOp6
 70
     1
102
RTVSPropertyOp7
 70
     1
102
RTVSPropertyOp8
 70
     1
102
RTVSPropertyOp9
 70
     1
102
RTVSPropertyOp10
 70
     1
102
RTVSPropertyOp11
 70
     1
102
RTVSPropertyOp12
 70
     1
102
RTVSPropertyOp13
 70
     1
102
RTVSPropertyOp14
 70
     1
102
RTVSPropertyOp15
 70
     1
102
RTVSPropertyOp16
 70
     1
102
RTVSPropertyOp17
 70
     1
102
RTVSPropertyOp18
 70
     1
102
RTVSPropertyOp19
 70
     1
102
RTVSPropertyOp20
 70
     1
102
RTVSPropertyOp21
 70
     1
102
RTVSPropertyOp22
 70
     1
102
RTVSPropertyOp23
 70
     1
102
RTVSPropertyOp24
 70
     1
102
RTVSPropertyOp25
 70
     1
102
RTVSPropertyOp26
 70
     1
102
RTVSPropertyOp27
 70
     1
102
RTVSPropertyOp28
 70
     1
102
RTVSPropertyOp29
 70
     1
102
RTVSPropertyOp30
 70
     1
102
RTVSPropertyOp31
 70
     1
102
RTVSPropertyOp32
 70
     1
102
RTVSPropertyOp33
 70
     1
102
RTVSPropertyOp34
 70
     1
102
RTVSPropertyOp35
 70
     1
102
RTVSPropertyOp36
 70
     1
102
RTVSPropertyOp37
 70
     1
102
RTVSPropertyOp38
 70
     1
102
RTVSPropertyOp39
 70
     1
102
RTVSPropertyOp40
 70
     1
102
RTVSPropertyOp41
 70
     1
102
RTVSPropertyOp42
 70
     1
102
RTVSPropertyOp43
 70
     1
102
RTVSPropertyOp44
 70
     1
102
RTVSPropertyOp45
 70
     1
102
RTVSPropertyOp46
 70
     1
102
RTVSPropertyOp47
 70
     1
102
RTVSPropertyOp48
 70
     1
102
RTVSPropertyOp49
 70
     1
102
RTVSPropertyOp50
 70
     1
102
RTVSPropertyOp51
 70
     0
102
RTVSPropertyOp52
 70
     0
102
RTVSPropertyOp53
 70
     1
102
RTVSPropertyOp54
 70
     1
102
RTVSPropertyOp55
 70
     1
102
RTVSPropertyOp56
 70
     1
102
RTVSPropertyOp57
 70
     1
102
RTVSPropertyOp58
 70
     1
102
RTVSPropertyOp59
 70
     1
102
RTVSPropertyOp60
 70
     1
102
RTVSPropertyOp61
 70
     1
102
RTVSPropertyOp62
 70
     1
  0
XRECORD
  5
8360
102
{ACAD_REACTORS
330
835F
102
}
330
835F
100
AcDbXrecord
280
     1
102
RTVSPost2010Prop28
280
     0
102
RTVSPost2010PropOp28
 70
     1
102
RTVSPost2010Prop29
280
     1
102
RTVSPost2010PropOp29
 70
     1
102
RTVSPost2010Prop30
280
     1
102
RTVSPost2010PropOp30
 70
     1
102
RTVSPost2010Prop31
280
     0
102
RTVSPost2010PropOp31
 70
     1
102
RTVSPost2010Prop32
280
     0
102
RTVSPost2010PropOp32
 70
     1
102
RTVSPost2010Prop33
280
     0
102
RTVSPost2010PropOp33
 70
     1
102
RTVSPost2010Prop34
280
     0
102
RTVSPost2010PropOp34
 70
     1
102
RTVSPost2010Prop35
280
     0
102
RTVSPost2010PropOp35
 70
     1
102
RTVSPost2010Prop36
280
     0
102
RTVSPost2010PropOp36
 70
     1
102
RTVSPost2010Prop37
 90
       50
102
RTVSPost2010PropOp37
 70
     1
102
RTVSPost2010Prop38
140
0.0
102
RTVSPost2010PropOp38
 70
     1
102
RTVSPost2010Prop39
140
1.0
102
RTVSPost2010PropOp39
 70
     1
102
RTVSPost2010Prop40
 90
        0
102
RTVSPost2010PropOp40
 70
     1
102
RTVSPost2010Prop41ColorIndex
 90
       18
102
RTVSPost2010Prop41ColorRGB
 90
        0
102
RTVSPost2010PropOp41
 70
     1
102
RTVSPost2010Prop42
 90
       50
102
RTVSPost2010PropOp42
 70
     1
102
RTVSPost2010Prop43
 90
        3
102
RTVSPost2010PropOp43
 70
     1
102
RTVSPost2010Prop44ColorIndex
 90
        5
102
RTVSPost2010Prop44ColorRGB
 90
      255
102
RTVSPost2010PropOp44
 70
     1
102
RTVSPost2010Prop45
280
     0
102
RTVSPost2010PropOp45
 70
     1
102
RTVSPost2010Prop46
 90
       50
102
RTVSPost2010PropOp46
 70
     1
102
RTVSPost2010Prop47
 90
       50
102
RTVSPost2010PropOp47
 70
     1
102
RTVSPost2010Prop48
 90
       50
102
RTVSPost2010PropOp48
 70
     1
102
RTVSPost2010Prop49
280
     0
102
RTVSPost2010PropOp49
 70
     1
102
RTVSPost2010Prop50
 90
       50
102
RTVSPost2010PropOp50
 70
     1
102
RTVSPost2010Prop51ColorIndex
 90
      256
102
RTVSPost2010Prop51ColorRGB
 90
-16777216
102
RTVSPost2010PropOp51
 70
     0
102
RTVSPost2010Prop52
140
1.0
102
RTVSPost2010PropOp52
 70
     0
102
RTVSPost2010Prop53
 90
        2
102
RTVSPost2010PropOp53
 70
     1
102
RTVSPost2010Prop54
  1
strokes_ogs.tif
102
RTVSPost2010PropOp54
 70
     1
102
RTVSPost2010Prop55
280
     0
102
RTVSPost2010PropOp55
 70
     1
102
RTVSPost2010Prop56
140
1.0
102
RTVSPost2010PropOp56
 70
     1
102
RTVSPost2010Prop57
140
1.0
102
RTVSPost2010PropOp57
 70
     1
102
RTVSPropertyOp0
 70
     1
102
RTVSPropertyOp1
 70
     1
102
RTVSPropertyOp2
 70
     1
102
RTVSPropertyOp3
 70
     1
102
RTVSPropertyOp4
 70
     1
102
RTVSPropertyOp5
 70
     1
102
RTVSPropertyOp6
 70
     1
102
RTVSPropertyOp7
 70
     1
102
RTVSPropertyOp8
 70
     1
102
RTVSPropertyOp9
 70
     1
102
RTVSPropertyOp10
 70
     1
102
RTVSPropertyOp11
 70
     1
102
RTVSPropertyOp12
 70
     1
102
RTVSPropertyOp13
 70
     1
102
RTVSPropertyOp14
 70
     1
102
RTVSPropertyOp15
 70
     1
102
RTVSPropertyOp16
 70
     1
102
RTVSPropertyOp17
 70
     1
102
RTVSPropertyOp18
 70
     1
102
RTVSPropertyOp19
 70
     1
102
RTVSPropertyOp20
 70
     1
102
RTVSPropertyOp21
 70
     1
102
RTVSPropertyOp22
 70
     1
102
RTVSPropertyOp23
 70
     1
102
RTVSPropertyOp24
 70
     1
102
RTVSPropertyOp25
 70
     1
102
RTVSPropertyOp26
 70
     1
102
RTVSPropertyOp27
 70
     1
102
RTVSPropertyOp28
 70
     1
102
RTVSPropertyOp29
 70
     1
102
RTVSPropertyOp30
 70
     1
102
RTVSPropertyOp31
 70
     1
102
RTVSPropertyOp32
 70
     1
102
RTVSPropertyOp33
 70
     1
102
RTVSPropertyOp34
 70
     1
102
RTVSPropertyOp35
 70
     1
102
RTVSPropertyOp36
 70
     1
102
RTVSPropertyOp37
 70
     1
102
RTVSPropertyOp38
 70
     1
102
RTVSPropertyOp39
 70
     1
102
RTVSPropertyOp40
 70
     1
102
RTVSPropertyOp41
 70
     1
102
RTVSPropertyOp42
 70
     1
102
RTVSPropertyOp43
 70
     1
102
RTVSPropertyOp44
 70
     1
102
RTVSPropertyOp45
 70
     1
102
RTVSPropertyOp46
 70
     1
102
RTVSPropertyOp47
 70
     1
102
RTVSPropertyOp48
 70
     1
102
RTVSPropertyOp49
 70
     1
102
RTVSPropertyOp50
 70
     1
102
RTVSPropertyOp51
 70
     0
102
RTVSPropertyOp52
 70
     0
102
RTVSPropertyOp53
 70
     1
102
RTVSPropertyOp54
 70
     1
102
RTVSPropertyOp55
 70
     1
102
RTVSPropertyOp56
 70
     1
102
RTVSPropertyOp57
 70
     1
102
RTVSPropertyOp58
 70
     1
102
RTVSPropertyOp59
 70
     1
102
RTVSPropertyOp60
 70
     1
102
RTVSPropertyOp61
 70
     1
102
RTVSPropertyOp62
 70
     1
  0
XRECORD
  5
8356
102
{ACAD_REACTORS
330
8355
102
}
330
8355
100
AcDbXrecord
280
     1
102
RTVSPost2010Prop28
280
     0
102
RTVSPost2010PropOp28
 70
     1
102
RTVSPost2010Prop29
280
     1
102
RTVSPost2010PropOp29
 70
     1
102
RTVSPost2010Prop30
280
     1
102
RTVSPost2010PropOp30
 70
     1
102
RTVSPost2010Prop31
280
     0
102
RTVSPost2010PropOp31
 70
     1
102
RTVSPost2010Prop32
280
     0
102
RTVSPost2010PropOp32
 70
     1
102
RTVSPost2010Prop33
280
     0
102
RTVSPost2010PropOp33
 70
     1
102
RTVSPost2010Prop34
280
     0
102
RTVSPost2010PropOp34
 70
     1
102
RTVSPost2010Prop35
280
     0
102
RTVSPost2010PropOp35
 70
     1
102
RTVSPost2010Prop36
280
     0
102
RTVSPost2010PropOp36
 70
     1
102
RTVSPost2010Prop37
 90
       50
102
RTVSPost2010PropOp37
 70
     1
102
RTVSPost2010Prop38
140
0.0
102
RTVSPost2010PropOp38
 70
     1
102
RTVSPost2010Prop39
140
1.0
102
RTVSPost2010PropOp39
 70
     1
102
RTVSPost2010Prop40
 90
        0
102
RTVSPost2010PropOp40
 70
     1
102
RTVSPost2010Prop41ColorIndex
 90
       18
102
RTVSPost2010Prop41ColorRGB
 90
        0
102
RTVSPost2010PropOp41
 70
     1
102
RTVSPost2010Prop42
 90
       50
102
RTVSPost2010PropOp42
 70
     1
102
RTVSPost2010Prop43
 90
        3
102
RTVSPost2010PropOp43
 70
     1
102
RTVSPost2010Prop44ColorIndex
 90
        5
102
RTVSPost2010Prop44ColorRGB
 90
      255
102
RTVSPost2010PropOp44
 70
     1
102
RTVSPost2010Prop45
280
     0
102
RTVSPost2010PropOp45
 70
     1
102
RTVSPost2010Prop46
 90
       50
102
RTVSPost2010PropOp46
 70
     1
102
RTVSPost2010Prop47
 90
       50
102
RTVSPost2010PropOp47
 70
     1
102
RTVSPost2010Prop48
 90
       50
102
RTVSPost2010PropOp48
 70
     1
102
RTVSPost2010Prop49
280
     0
102
RTVSPost2010PropOp49
 70
     1
102
RTVSPost2010Prop50
 90
       50
102
RTVSPost2010PropOp50
 70
     1
102
RTVSPost2010Prop51ColorIndex
 90
      256
102
RTVSPost2010Prop51ColorRGB
 90
-16777216
102
RTVSPost2010PropOp51
 70
     0
102
RTVSPost2010Prop52
140
1.0
102
RTVSPost2010PropOp52
 70
     0
102
RTVSPost2010Prop53
 90
        2
102
RTVSPost2010PropOp53
 70
     1
102
RTVSPost2010Prop54
  1
strokes_ogs.tif
102
RTVSPost2010PropOp54
 70
     1
102
RTVSPost2010Prop55
280
     0
102
RTVSPost2010PropOp55
 70
     1
102
RTVSPost2010Prop56
140
1.0
102
RTVSPost2010PropOp56
 70
     1
102
RTVSPost2010Prop57
140
1.0
102
RTVSPost2010PropOp57
 70
     1
102
RTVSPropertyOp0
 70
     1
102
RTVSPropertyOp1
 70
     1
102
RTVSPropertyOp2
 70
     1
102
RTVSPropertyOp3
 70
     1
102
RTVSPropertyOp4
 70
     1
102
RTVSPropertyOp5
 70
     1
102
RTVSPropertyOp6
 70
     1
102
RTVSPropertyOp7
 70
     1
102
RTVSPropertyOp8
 70
     1
102
RTVSPropertyOp9
 70
     1
102
RTVSPropertyOp10
 70
     1
102
RTVSPropertyOp11
 70
     1
102
RTVSPropertyOp12
 70
     1
102
RTVSPropertyOp13
 70
     1
102
RTVSPropertyOp14
 70
     1
102
RTVSPropertyOp15
 70
     1
102
RTVSPropertyOp16
 70
     1
102
RTVSPropertyOp17
 70
     1
102
RTVSPropertyOp18
 70
     1
102
RTVSPropertyOp19
 70
     1
102
RTVSPropertyOp20
 70
     1
102
RTVSPropertyOp21
 70
     1
102
RTVSPropertyOp22
 70
     1
102
RTVSPropertyOp23
 70
     1
102
RTVSPropertyOp24
 70
     1
102
RTVSPropertyOp25
 70
     1
102
RTVSPropertyOp26
 70
     1
102
RTVSPropertyOp27
 70
     1
102
RTVSPropertyOp28
 70
     1
102
RTVSPropertyOp29
 70
     1
102
RTVSPropertyOp30
 70
     1
102
RTVSPropertyOp31
 70
     1
102
RTVSPropertyOp32
 70
     1
102
RTVSPropertyOp33
 70
     1
102
RTVSPropertyOp34
 70
     1
102
RTVSPropertyOp35
 70
     1
102
RTVSPropertyOp36
 70
     1
102
RTVSPropertyOp37
 70
     1
102
RTVSPropertyOp38
 70
     1
102
RTVSPropertyOp39
 70
     1
102
RTVSPropertyOp40
 70
     1
102
RTVSPropertyOp41
 70
     1
102
RTVSPropertyOp42
 70
     1
102
RTVSPropertyOp43
 70
     1
102
RTVSPropertyOp44
 70
     1
102
RTVSPropertyOp45
 70
     1
102
RTVSPropertyOp46
 70
     1
102
RTVSPropertyOp47
 70
     1
102
RTVSPropertyOp48
 70
     1
102
RTVSPropertyOp49
 70
     1
102
RTVSPropertyOp50
 70
     1
102
RTVSPropertyOp51
 70
     0
102
RTVSPropertyOp52
 70
     0
102
RTVSPropertyOp53
 70
     1
102
RTVSPropertyOp54
 70
     1
102
RTVSPropertyOp55
 70
     1
102
RTVSPropertyOp56
 70
     1
102
RTVSPropertyOp57
 70
     1
102
RTVSPropertyOp58
 70
     1
102
RTVSPropertyOp59
 70
     1
102
RTVSPropertyOp60
 70
     1
102
RTVSPropertyOp61
 70
     1
102
RTVSPropertyOp62
 70
     1
  0
XRECORD
  5
834A
102
{ACAD_REACTORS
330
8349
102
}
330
8349
100
AcDbXrecord
280
     1
102
RTVSPost2010Prop28
280
     0
102
RTVSPost2010PropOp28
 70
     1
102
RTVSPost2010Prop29
280
     1
102
RTVSPost2010PropOp29
 70
     1
102
RTVSPost2010Prop30
280
     1
102
RTVSPost2010PropOp30
 70
     1
102
RTVSPost2010Prop31
280
     0
102
RTVSPost2010PropOp31
 70
     1
102
RTVSPost2010Prop32
280
     0
102
RTVSPost2010PropOp32
 70
     1
102
RTVSPost2010Prop33
280
     0
102
RTVSPost2010PropOp33
 70
     1
102
RTVSPost2010Prop34
280
     0
102
RTVSPost2010PropOp34
 70
     1
102
RTVSPost2010Prop35
280
     0
102
RTVSPost2010PropOp35
 70
     1
102
RTVSPost2010Prop36
280
     0
102
RTVSPost2010PropOp36
 70
     1
102
RTVSPost2010Prop37
 90
       50
102
RTVSPost2010PropOp37
 70
     1
102
RTVSPost2010Prop38
140
0.0
102
RTVSPost2010PropOp38
 70
     1
102
RTVSPost2010Prop39
140
1.0
102
RTVSPost2010PropOp39
 70
     1
102
RTVSPost2010Prop40
 90
        0
102
RTVSPost2010PropOp40
 70
     1
102
RTVSPost2010Prop41ColorIndex
 90
       18
102
RTVSPost2010Prop41ColorRGB
 90
        0
102
RTVSPost2010PropOp41
 70
     1
102
RTVSPost2010Prop42
 90
       50
102
RTVSPost2010PropOp42
 70
     1
102
RTVSPost2010Prop43
 90
        3
102
RTVSPost2010PropOp43
 70
     1
102
RTVSPost2010Prop44ColorIndex
 90
        5
102
RTVSPost2010Prop44ColorRGB
 90
      255
102
RTVSPost2010PropOp44
 70
     1
102
RTVSPost2010Prop45
280
     0
102
RTVSPost2010PropOp45
 70
     1
102
RTVSPost2010Prop46
 90
       50
102
RTVSPost2010PropOp46
 70
     1
102
RTVSPost2010Prop47
 90
       50
102
RTVSPost2010PropOp47
 70
     1
102
RTVSPost2010Prop48
 90
       50
102
RTVSPost2010PropOp48
 70
     1
102
RTVSPost2010Prop49
280
     0
102
RTVSPost2010PropOp49
 70
     1
102
RTVSPost2010Prop50
 90
       50
102
RTVSPost2010PropOp50
 70
     1
102
RTVSPost2010Prop51ColorIndex
 90
      256
102
RTVSPost2010Prop51ColorRGB
 90
-16777216
102
RTVSPost2010PropOp51
 70
     0
102
RTVSPost2010Prop52
140
1.0
102
RTVSPost2010PropOp52
 70
     0
102
RTVSPost2010Prop53
 90
        2
102
RTVSPost2010PropOp53
 70
     1
102
RTVSPost2010Prop54
  1
strokes_ogs.tif
102
RTVSPost2010PropOp54
 70
     1
102
RTVSPost2010Prop55
280
     0
102
RTVSPost2010PropOp55
 70
     1
102
RTVSPost2010Prop56
140
1.0
102
RTVSPost2010PropOp56
 70
     1
102
RTVSPost2010Prop57
140
1.0
102
RTVSPost2010PropOp57
 70
     1
102
RTVSPropertyOp0
 70
     1
102
RTVSPropertyOp1
 70
     1
102
RTVSPropertyOp2
 70
     1
102
RTVSPropertyOp3
 70
     1
102
RTVSPropertyOp4
 70
     1
102
RTVSPropertyOp5
 70
     1
102
RTVSPropertyOp6
 70
     1
102
RTVSPropertyOp7
 70
     1
102
RTVSPropertyOp8
 70
     1
102
RTVSPropertyOp9
 70
     1
102
RTVSPropertyOp10
 70
     1
102
RTVSPropertyOp11
 70
     1
102
RTVSPropertyOp12
 70
     1
102
RTVSPropertyOp13
 70
     1
102
RTVSPropertyOp14
 70
     1
102
RTVSPropertyOp15
 70
     1
102
RTVSPropertyOp16
 70
     1
102
RTVSPropertyOp17
 70
     1
102
RTVSPropertyOp18
 70
     1
102
RTVSPropertyOp19
 70
     1
102
RTVSPropertyOp20
 70
     1
102
RTVSPropertyOp21
 70
     1
102
RTVSPropertyOp22
 70
     1
102
RTVSPropertyOp23
 70
     1
102
RTVSPropertyOp24
 70
     1
102
RTVSPropertyOp25
 70
     1
102
RTVSPropertyOp26
 70
     1
102
RTVSPropertyOp27
 70
     1
102
RTVSPropertyOp28
 70
     1
102
RTVSPropertyOp29
 70
     1
102
RTVSPropertyOp30
 70
     1
102
RTVSPropertyOp31
 70
     1
102
RTVSPropertyOp32
 70
     1
102
RTVSPropertyOp33
 70
     1
102
RTVSPropertyOp34
 70
     1
102
RTVSPropertyOp35
 70
     1
102
RTVSPropertyOp36
 70
     1
102
RTVSPropertyOp37
 70
     1
102
RTVSPropertyOp38
 70
     1
102
RTVSPropertyOp39
 70
     1
102
RTVSPropertyOp40
 70
     1
102
RTVSPropertyOp41
 70
     1
102
RTVSPropertyOp42
 70
     1
102
RTVSPropertyOp43
 70
     1
102
RTVSPropertyOp44
 70
     1
102
RTVSPropertyOp45
 70
     1
102
RTVSPropertyOp46
 70
     1
102
RTVSPropertyOp47
 70
     1
102
RTVSPropertyOp48
 70
     1
102
RTVSPropertyOp49
 70
     1
102
RTVSPropertyOp50
 70
     1
102
RTVSPropertyOp51
 70
     0
102
RTVSPropertyOp52
 70
     0
102
RTVSPropertyOp53
 70
     1
102
RTVSPropertyOp54
 70
     1
102
RTVSPropertyOp55
 70
     1
102
RTVSPropertyOp56
 70
     1
102
RTVSPropertyOp57
 70
     1
102
RTVSPropertyOp58
 70
     1
102
RTVSPropertyOp59
 70
     1
102
RTVSPropertyOp60
 70
     1
102
RTVSPropertyOp61
 70
     1
102
RTVSPropertyOp62
 70
     1
  0
XRECORD
  5
8362
102
{ACAD_REACTORS
330
8361
102
}
330
8361
100
AcDbXrecord
280
     1
102
RTVSPost2010Prop28
280
     0
102
RTVSPost2010PropOp28
 70
     1
102
RTVSPost2010Prop29
280
     1
102
RTVSPost2010PropOp29
 70
     1
102
RTVSPost2010Prop30
280
     1
102
RTVSPost2010PropOp30
 70
     1
102
RTVSPost2010Prop31
280
     0
102
RTVSPost2010PropOp31
 70
     1
102
RTVSPost2010Prop32
280
     0
102
RTVSPost2010PropOp32
 70
     1
102
RTVSPost2010Prop33
280
     0
102
RTVSPost2010PropOp33
 70
     1
102
RTVSPost2010Prop34
280
     0
102
RTVSPost2010PropOp34
 70
     1
102
RTVSPost2010Prop35
280
     0
102
RTVSPost2010PropOp35
 70
     1
102
RTVSPost2010Prop36
280
     0
102
RTVSPost2010PropOp36
 70
     1
102
RTVSPost2010Prop37
 90
       50
102
RTVSPost2010PropOp37
 70
     1
102
RTVSPost2010Prop38
140
0.0
102
RTVSPost2010PropOp38
 70
     1
102
RTVSPost2010Prop39
140
1.0
102
RTVSPost2010PropOp39
 70
     1
102
RTVSPost2010Prop40
 90
        0
102
RTVSPost2010PropOp40
 70
     1
102
RTVSPost2010Prop41ColorIndex
 90
       18
102
RTVSPost2010Prop41ColorRGB
 90
        0
102
RTVSPost2010PropOp41
 70
     1
102
RTVSPost2010Prop42
 90
       50
102
RTVSPost2010PropOp42
 70
     1
102
RTVSPost2010Prop43
 90
        3
102
RTVSPost2010PropOp43
 70
     1
102
RTVSPost2010Prop44ColorIndex
 90
        5
102
RTVSPost2010Prop44ColorRGB
 90
      255
102
RTVSPost2010PropOp44
 70
     1
102
RTVSPost2010Prop45
280
     0
102
RTVSPost2010PropOp45
 70
     1
102
RTVSPost2010Prop46
 90
       50
102
RTVSPost2010PropOp46
 70
     1
102
RTVSPost2010Prop47
 90
       50
102
RTVSPost2010PropOp47
 70
     1
102
RTVSPost2010Prop48
 90
       50
102
RTVSPost2010PropOp48
 70
     1
102
RTVSPost2010Prop49
280
     0
102
RTVSPost2010PropOp49
 70
     1
102
RTVSPost2010Prop50
 90
       50
102
RTVSPost2010PropOp50
 70
     1
102
RTVSPost2010Prop51ColorIndex
 90
      256
102
RTVSPost2010Prop51ColorRGB
 90
-16777216
102
RTVSPost2010PropOp51
 70
     0
102
RTVSPost2010Prop52
140
1.0
102
RTVSPost2010PropOp52
 70
     0
102
RTVSPost2010Prop53
 90
        2
102
RTVSPost2010PropOp53
 70
     1
102
RTVSPost2010Prop54
  1
strokes_ogs.tif
102
RTVSPost2010PropOp54
 70
     1
102
RTVSPost2010Prop55
280
     0
102
RTVSPost2010PropOp55
 70
     1
102
RTVSPost2010Prop56
140
1.0
102
RTVSPost2010PropOp56
 70
     1
102
RTVSPost2010Prop57
140
1.0
102
RTVSPost2010PropOp57
 70
     1
102
RTVSPropertyOp0
 70
     1
102
RTVSPropertyOp1
 70
     1
102
RTVSPropertyOp2
 70
     1
102
RTVSPropertyOp3
 70
     1
102
RTVSPropertyOp4
 70
     1
102
RTVSPropertyOp5
 70
     1
102
RTVSPropertyOp6
 70
     1
102
RTVSPropertyOp7
 70
     1
102
RTVSPropertyOp8
 70
     1
102
RTVSPropertyOp9
 70
     1
102
RTVSPropertyOp10
 70
     1
102
RTVSPropertyOp11
 70
     1
102
RTVSPropertyOp12
 70
     1
102
RTVSPropertyOp13
 70
     1
102
RTVSPropertyOp14
 70
     1
102
RTVSPropertyOp15
 70
     1
102
RTVSPropertyOp16
 70
     1
102
RTVSPropertyOp17
 70
     1
102
RTVSPropertyOp18
 70
     1
102
RTVSPropertyOp19
 70
     1
102
RTVSPropertyOp20
 70
     1
102
RTVSPropertyOp21
 70
     1
102
RTVSPropertyOp22
 70
     1
102
RTVSPropertyOp23
 70
     1
102
RTVSPropertyOp24
 70
     1
102
RTVSPropertyOp25
 70
     1
102
RTVSPropertyOp26
 70
     1
102
RTVSPropertyOp27
 70
     1
102
RTVSPropertyOp28
 70
     1
102
RTVSPropertyOp29
 70
     1
102
RTVSPropertyOp30
 70
     1
102
RTVSPropertyOp31
 70
     1
102
RTVSPropertyOp32
 70
     1
102
RTVSPropertyOp33
 70
     1
102
RTVSPropertyOp34
 70
     1
102
RTVSPropertyOp35
 70
     1
102
RTVSPropertyOp36
 70
     1
102
RTVSPropertyOp37
 70
     1
102
RTVSPropertyOp38
 70
     1
102
RTVSPropertyOp39
 70
     1
102
RTVSPropertyOp40
 70
     1
102
RTVSPropertyOp41
 70
     1
102
RTVSPropertyOp42
 70
     1
102
RTVSPropertyOp43
 70
     1
102
RTVSPropertyOp44
 70
     1
102
RTVSPropertyOp45
 70
     1
102
RTVSPropertyOp46
 70
     1
102
RTVSPropertyOp47
 70
     1
102
RTVSPropertyOp48
 70
     1
102
RTVSPropertyOp49
 70
     1
102
RTVSPropertyOp50
 70
     1
102
RTVSPropertyOp51
 70
     0
102
RTVSPropertyOp52
 70
     0
102
RTVSPropertyOp53
 70
     1
102
RTVSPropertyOp54
 70
     1
102
RTVSPropertyOp55
 70
     1
102
RTVSPropertyOp56
 70
     1
102
RTVSPropertyOp57
 70
     1
102
RTVSPropertyOp58
 70
     1
102
RTVSPropertyOp59
 70
     1
102
RTVSPropertyOp60
 70
     1
102
RTVSPropertyOp61
 70
     1
102
RTVSPropertyOp62
 70
     1
  0
ENDSEC
  0
EOF
