  0
SECTION
  2
HEADER
  9
$ACADVER
  1
AC1015
  9
$ACADMAINTVER
 70
    20
  9
$DWGCODEPAGE
  3
ANSI_932
  9
$INSBASE
 10
0.0
 20
0.0
 30
0.0
  9
$EXTMIN
 10
-0.1922460740788665
 20
-0.2700599612071528
 30
-0.0015258207003583
  9
$EXTMAX
 10
6300.192275410744
 20
8850.270101172235
 30
0.0000000349246037
  9
$LIMMIN
 10
0.0
 20
0.0
  9
$LIMMAX
 10
297.0
 20
210.0
  9
$ORTHOMODE
 70
     1
  9
$REGENMODE
 70
     1
  9
$FILLMODE
 70
     0
  9
$QTEXTMODE
 70
     0
  9
$MIRRTEXT
 70
     1
  9
$LTSCALE
 40
100.0
  9
$ATTMODE
 70
     1
  9
$TEXTSIZE
 40
180.0
  9
$TRACEWID
 40
0.05
  9
$TEXTSTYLE
  7
STANDARD
  9
$CLAYER
  8
3
  9
$CELTYPE
  6
ByLayer
  9
$CECOLOR
 62
   256
  9
$CELTSCALE
 40
1.0
  9
$DISPSILH
 70
     0
  9
$DIMSCALE
 40
30.0
  9
$DIMASZ
 40
2.0
  9
$DIMEXO
 40
1.0
  9
$DIMDLI
 40
10.0
  9
$DIMRND
 40
0.0
  9
$DIMDLE
 40
0.0
  9
$DIMEXE
 40
1.0
  9
$DIMTP
 40
1.0
  9
$DIMTM
 40
1.0
  9
$DIMTXT
 40
3.0
  9
$DIMCEN
 40
0.0
  9
$DIMTSZ
 40
0.0
  9
$DIMTOL
 70
     0
  9
$DIMLIM
 70
     0
  9
$DIMTIH
 70
     0
  9
$DIMTOH
 70
     0
  9
$DIMSE1
 70
     0
  9
$DIMSE2
 70
     0
  9
$DIMTAD
 70
     1
  9
$DIMZIN
 70
     8
  9
$DIMBLK
  1

  9
$DIMASO
 70
     1
  9
$DIMSHO
 70
     1
  9
$DIMPOST
  1

  9
$DIMAPOST
  1

  9
$DIMALT
 70
     0
  9
$DIMALTD
 70
     2
  9
$DIMALTF
 40
0.039
  9
$DIMLFAC
 40
1.0
  9
$DIMTOFL
 70
     1
  9
$DIMTVP
 40
0.0
  9
$DIMTIX
 70
     0
  9
$DIMSOXD
 70
     0
  9
$DIMSAH
 70
     1
  9
$DIMBLK1
  1
OPEN
  9
$DIMBLK2
  1
OPEN
  9
$DIMSTYLE
  2
IGA
  9
$DIMCLRD
 70
     0
  9
$DIMCLRE
 70
     0
  9
$DIMCLRT
 70
     0
  9
$DIMTFAC
 40
10.0
  9
$DIMGAP
 40
1.0
  9
$DIMJUST
 70
     0
  9
$DIMSD1
 70
     0
  9
$DIMSD2
 70
     0
  9
$DIMTOLJ
 70
     1
  9
$DIMTZIN
 70
     0
  9
$DIMALTZ
 70
     0
  9
$DIMALTTZ
 70
     0
  9
$DIMUPT
 70
     0
  9
$DIMDEC
 70
     4
  9
$DIMTDEC
 70
     4
  9
$DIMALTU
 70
     2
  9
$DIMALTTD
 70
     2
  9
$DIMTXSTY
  7
STANDARD
  9
$DIMAUNIT
 70
     0
  9
$DIMADEC
 70
     0
  9
$DIMALTRND
 40
0.0
  9
$DIMAZIN
 70
     0
  9
$DIMDSEP
 70
    46
  9
$DIMATFIT
 70
     3
  9
$DIMFRAC
 70
     0
  9
$DIMLDRBLK
  1
OPEN
  9
$DIMLUNIT
 70
     2
  9
$DIMLWD
 70
    -2
  9
$DIMLWE
 70
    -2
  9
$DIMTMOVE
 70
     0
  9
$LUNITS
 70
     2
  9
$LUPREC
 70
     3
  9
$SKETCHINC
 40
0.1
  9
$FILLETRAD
 40
50.0
  9
$AUNITS
 70
     0
  9
$AUPREC
 70
     0
  9
$MENU
  1
acad
  9
$ELEVATION
 40
0.0
  9
$PELEVATION
 40
0.0
  9
$THICKNESS
 40
0.0
  9
$LIMCHECK
 70
     0
  9
$CHAMFERA
 40
0.5
  9
$CHAMFERB
 40
0.5
  9
$CHAMFERC
 40
0.0
  9
$CHAMFERD
 40
0.0
  9
$SKPOLY
 70
     0
  9
$TDCREATE
 40
2451389.487709028
  9
$TDUCREATE
 40
2451389.112709028
  9
$TDUPDATE
 40
2460269.573568750
  9
$TDUUPDATE
 40
2460269.198568750
  9
$TDINDWG
 40
0.0183339699
  9
$TDUSRTIMER
 40
0.0183337153
  9
$USRTIMER
 70
     1
  9
$ANGBASE
 50
0.0
  9
$ANGDIR
 70
     0
  9
$PDMODE
 70
     0
  9
$PDSIZE
 40
0.0
  9
$PLINEWID
 40
0.0
  9
$SPLFRAME
 70
     0
  9
$SPLINETYPE
 70
     6
  9
$SPLINESEGS
 70
     8
  9
$HANDSEED
  5
8672
  9
$SURFTAB1
 70
     6
  9
$SURFTAB2
 70
     6
  9
$SURFTYPE
 70
     6
  9
$SURFU
 70
     6
  9
$SURFV
 70
     6
  9
$UCSBASE
  2

  9
$UCSNAME
  2

  9
$UCSORG
 10
0.0
 20
0.0
 30
0.0
  9
$UCSXDIR
 10
1.0
 20
0.0
 30
0.0
  9
$UCSYDIR
 10
0.0
 20
1.0
 30
0.0
  9
$UCSORTHOREF
  2

  9
$UCSORTHOVIEW
 70
     0
  9
$UCSORGTOP
 10
0.0
 20
0.0
 30
0.0
  9
$UCSORGBOTTOM
 10
0.0
 20
0.0
 30
0.0
  9
$UCSORGLEFT
 10
0.0
 20
0.0
 30
0.0
  9
$UCSORGRIGHT
 10
0.0
 20
0.0
 30
0.0
  9
$UCSORGFRONT
 10
0.0
 20
0.0
 30
0.0
  9
$UCSORGBACK
 10
0.0
 20
0.0
 30
0.0
  9
$PUCSBASE
  2

  9
$PUCSNAME
  2

  9
$PUCSORG
 10
0.0
 20
0.0
 30
0.0
  9
$PUCSXDIR
 10
1.0
 20
0.0
 30
0.0
  9
$PUCSYDIR
 10
0.0
 20
1.0
 30
0.0
  9
$PUCSORTHOREF
  2

  9
$PUCSORTHOVIEW
 70
     0
  9
$PUCSORGTOP
 10
0.0
 20
0.0
 30
0.0
  9
$PUCSORGBOTTOM
 10
0.0
 20
0.0
 30
0.0
  9
$PUCSORGLEFT
 10
0.0
 20
0.0
 30
0.0
  9
$PUCSORGRIGHT
 10
0.0
 20
0.0
 30
0.0
  9
$PUCSORGFRONT
 10
0.0
 20
0.0
 30
0.0
  9
$PUCSORGBACK
 10
0.0
 20
0.0
 30
0.0
  9
$USERI1
 70
     0
  9
$USERI2
 70
     0
  9
$USERI3
 70
     0
  9
$USERI4
 70
     0
  9
$USERI5
 70
     0
  9
$USERR1
 40
0.0
  9
$USERR2
 40
0.0
  9
$USERR3
 40
0.0
  9
$USERR4
 40
0.0
  9
$USERR5
 40
0.0
  9
$WORLDVIEW
 70
     1
  9
$SHADEDGE
 70
     3
  9
$SHADEDIF
 70
    70
  9
$TILEMODE
 70
     1
  9
$MAXACTVP
 70
    16
  9
$PINSBASE
 10
0.0
 20
0.0
 30
0.0
  9
$PLIMCHECK
 70
     0
  9
$PEXTMIN
 10
1.000000000000000E+20
 20
1.000000000000000E+20
 30
1.000000000000000E+20
  9
$PEXTMAX
 10
-1.000000000000000E+20
 20
-1.000000000000000E+20
 30
-1.000000000000000E+20
  9
$PLIMMIN
 10
0.0
 20
0.0
  9
$PLIMMAX
 10
12.0
 20
9.0
  9
$UNITMODE
 70
     0
  9
$VISRETAIN
 70
     0
  9
$PLINEGEN
 70
     0
  9
$PSLTSCALE
 70
     1
  9
$TREEDEPTH
 70
  3020
  9
$CMLSTYLE
  2
Standard
  9
$CMLJUST
 70
     0
  9
$CMLSCALE
 40
1.0
  9
$PROXYGRAPHICS
 70
     1
  9
$MEASUREMENT
 70
     0
  9
$CELWEIGHT
370
    -1
  9
$ENDCAPS
280
     0
  9
$JOINSTYLE
280
     0
  9
$LWDISPLAY
290
     0
  9
$INSUNITS
 70
     0
  9
$HYPERLINKBASE
  1

  9
$STYLESHEET
  1

  9
$XEDIT
290
     1
  9
$CEPSNTYPE
380
     0
  9
$PSTYLEMODE
290
     1
  9
$FINGERPRINTGUID
  2
{F048CA67-58C0-460B-A797-67DAB731D237}
  9
$VERSIONGUID
  2
{8BA716A2-094E-4A20-AD20-AABCD39E4F86}
  9
$EXTNAMES
290
     1
  9
$PSVPSCALE
 40
0.0
  9
$OLESTARTUP
290
     0
  0
ENDSEC
  0
SECTION
  2
CLASSES
  0
CLASS
  1
ACDBDICTIONARYWDFLT
  2
AcDbDictionaryWithDefault
  3
ObjectDBX Classes
 90
        0
280
     0
281
     0
  0
CLASS
  1
MATERIAL
  2
AcDbMaterial
  3
ObjectDBX Classes
 90
     1153
280
     0
281
     0
  0
CLASS
  1
VISUALSTYLE
  2
AcDbVisualStyle
  3
ObjectDBX Classes
 90
     4095
280
     0
281
     0
  0
CLASS
  1
SCALE
  2
AcDbScale
  3
ObjectDBX Classes
 90
     1153
280
     0
281
     0
  0
CLASS
  1
TABLESTYLE
  2
AcDbTableStyle
  3
ObjectDBX Classes
 90
     4095
280
     0
281
     0
  0
CLASS
  1
MLEADERSTYLE
  2
AcDbMLeaderStyle
  3
ACDB_MLEADERSTYLE_CLASS
 90
     4095
280
     0
281
     0
  0
CLASS
  1
ACDBSECTIONVIEWSTYLE
  2
AcDbSectionViewStyle
  3
ObjectDBX Classes
 90
     1025
280
     0
281
     0
  0
CLASS
  1
ACDBDETAILVIEWSTYLE
  2
AcDbDetailViewStyle
  3
ObjectDBX Classes
 90
     1025
280
     0
281
     0
  0
CLASS
  1
SORTENTSTABLE
  2
AcDbSortentsTable
  3
ObjectDBX Classes
 90
        0
280
     0
281
     0
  0
CLASS
  1
DICTIONARYVAR
  2
AcDbDictionaryVar
  3
ObjectDBX Classes
 90
        0
280
     0
281
     0
  0
CLASS
  1
CELLSTYLEMAP
  2
AcDbCellStyleMap
  3
ObjectDBX Classes
 90
     1152
280
     0
281
     0
  0
CLASS
  1
ACDBPLACEHOLDER
  2
AcDbPlaceHolder
  3
ObjectDBX Classes
 90
        0
280
     0
281
     0
  0
CLASS
  1
LAYOUT
  2
AcDbLayout
  3
ObjectDBX Classes
 90
        0
280
     0
281
     0
  0
ENDSEC
  0
SECTION
  2
TABLES
  0
TABLE
  2
VPORT
  5
8431
330
0
100
AcDbSymbolTable
 70
     1
  0
VPORT
  5
849D
330
8431
100
AcDbSymbolTableRecord
100
AcDbViewportTableRecord
  2
*ACTIVE
 70
     0
 10
0.0
 20
0.0
 11
1.0
 21
1.0
 12
5575.652068549913
 22
4679.553975718902
 13
0.0
 23
0.0
 14
10.0
 24
10.0
 15
10.0
 25
10.0
 16
0.0
 26
0.0
 36
1.0
 17
0.0
 27
0.0
 37
0.0
 40
8929.543160520921
 41
2.050213675213675
 42
50.0
 43
0.0
 44
0.0
 50
0.0
 51
0.0
 71
     0
 72
   100
 73
     1
 74
     0
 75
     0
 76
     0
 77
     0
 78
     0
281
     0
 65
     1
110
0.0
120
0.0
130
0.0
111
1.0
121
0.0
131
0.0
112
0.0
122
1.0
132
0.0
 79
     0
146
0.0
1001
ACAD_NAV_VCDISPLAY
1070
     3
  0
ENDTAB
  0
TABLE
  2
LTYPE
  5
842E
330
0
100
AcDbSymbolTable
 70
     3
  0
LTYPE
  5
8483
330
842E
100
AcDbSymbolTableRecord
100
AcDbLinetypeTableRecord
  2
ByBlock
 70
     0
  3

 72
    65
 73
     0
 40
0.0
  0
LTYPE
  5
8484
330
842E
100
AcDbSymbolTableRecord
100
AcDbLinetypeTableRecord
  2
ByLayer
 70
     0
  3

 72
    65
 73
     0
 40
0.0
  0
LTYPE
  5
8485
330
842E
100
AcDbSymbolTableRecord
100
AcDbLinetypeTableRecord
  2
CONTINUOUS
 70
     0
  3
Solid line
 72
    65
 73
     0
 40
0.0
  0
LTYPE
  5
849E
330
842E
100
AcDbSymbolTableRecord
100
AcDbLinetypeTableRecord
  2
CENTER
 70
     0
  3
____ _ ____ _ ____ _ ____ _ ____ _ ____ _ ____ 
 72
    65
 73
     4
 40
2.0
 49
1.25
 74
     0
 49
-0.25
 74
     0
 49
0.25
 74
     0
 49
-0.25
 74
     0
  0
ENDTAB
  0
TABLE
  2
LAYER
  5
842B
330
0
100
AcDbSymbolTable
 70
     6
  0
LAYER
  5
847D
102
{ACAD_XDICTIONARY
360
861C
102
}
330
842B
100
AcDbSymbolTableRecord
100
AcDbLayerTableRecord
  2
0
 70
     0
 62
     7
  6
CONTINUOUS
370
    -3
390
8438
  0
LAYER
  5
849C
102
{ACAD_XDICTIONARY
360
861E
102
}
330
842B
100
AcDbSymbolTableRecord
100
AcDbLayerTableRecord
  2
3
 70
     0
 62
     2
  6
CONTINUOUS
370
    -3
390
8438
  0
LAYER
  5
849F
102
{ACAD_XDICTIONARY
360
8620
102
}
330
842B
100
AcDbSymbolTableRecord
100
AcDbLayerTableRecord
  2
2
 70
     0
 62
     3
  6
CENTER
370
    -3
390
8438
  0
LAYER
  5
84A0
102
{ACAD_XDICTIONARY
360
8622
102
}
330
842B
100
AcDbSymbolTableRecord
100
AcDbLayerTableRecord
  2
1
 70
     0
 62
     4
  6
CONTINUOUS
370
    -3
390
8438
  0
LAYER
  5
84A1
102
{ACAD_XDICTIONARY
360
8624
102
}
330
842B
100
AcDbSymbolTableRecord
100
AcDbLayerTableRecord
  2
4
 70
     0
 62
     7
  6
CONTINUOUS
370
    -3
390
8438
  0
LAYER
  5
84A2
330
842B
100
AcDbSymbolTableRecord
100
AcDbLayerTableRecord
  2
DEFPOINTS
 70
     0
 62
     7
  6
CONTINUOUS
290
     0
370
    -3
390
8438
  0
ENDTAB
  0
TABLE
  2
STYLE
  5
842C
330
0
100
AcDbSymbolTable
 70
     2
  0
STYLE
  5
847E
330
842C
100
AcDbSymbolTableRecord
100
AcDbTextStyleTableRecord
  2
STANDARD
 70
     0
 40
0.0
 41
1.0
 50
0.0
 71
     0
 42
180.0
  3
simplex.shx
  4
extfont.shx
  0
STYLE
  5
8482
330
842C
100
AcDbSymbolTableRecord
100
AcDbTextStyleTableRecord
  2
Annotative
 70
     0
 40
0.0
 41
1.0
 50
0.0
 71
     0
 42
0.2
  3
txt
  4

1001
AcadAnnotative
1000
AnnotativeData
1002
{
1070
     1
1070
     1
1002
}
  0
ENDTAB
  0
TABLE
  2
VIEW
  5
842F
330
0
100
AcDbSymbolTable
 70
     0
  0
ENDTAB
  0
TABLE
  2
UCS
  5
8430
330
0
100
AcDbSymbolTable
 70
     0
  0
ENDTAB
  0
TABLE
  2
APPID
  5
8432
330
0
100
AcDbSymbolTable
 70
     6
  0
APPID
  5
847F
330
8432
100
AcDbSymbolTableRecord
100
AcDbRegAppTableRecord
  2
ACAD
 70
     0
  0
APPID
  5
8486
330
8432
100
AcDbSymbolTableRecord
100
AcDbRegAppTableRecord
  2
AcadAnnotative
 70
     0
  0
APPID
  5
8516
330
8432
100
AcDbSymbolTableRecord
100
AcDbRegAppTableRecord
  2
AcadAnnoMonitorAlertIconDisabled
 70
     0
  0
APPID
  5
8517
330
8432
100
AcDbSymbolTableRecord
100
AcDbRegAppTableRecord
  2
ACAD_EXEMPT_FROM_CAD_STANDARDS
 70
     0
  0
APPID
  5
8630
330
8432
100
AcDbSymbolTableRecord
100
AcDbRegAppTableRecord
  2
ACAD_NAV_VCDISPLAY
 70
     0
  0
APPID
  5
8669
330
8432
100
AcDbSymbolTableRecord
100
AcDbRegAppTableRecord
  2
ACAD_MLEADERVER
 70
     0
  0
ENDTAB
  0
TABLE
  2
DIMSTYLE
  5
8433
330
0
100
AcDbSymbolTable
 70
     3
100
AcDbDimStyleTable
 71
     1
340
84A3
  0
DIMSTYLE
105
8480
102
{ACAD_REACTORS
330
8277
330
8284
330
8291
330
829E
330
82AB
102
}
330
8433
100
AcDbSymbolTableRecord
100
AcDbDimStyleTableRecord
  2
Standard
 70
     0
340
847E
  0
DIMSTYLE
105
8481
330
8433
100
AcDbSymbolTableRecord
100
AcDbDimStyleTableRecord
  2
Annotative
 70
     0
340
847E
1001
AcadAnnotative
1000
AnnotativeData
1002
{
1070
     1
1070
     1
1002
}
  0
DIMSTYLE
105
84A3
102
{ACAD_REACTORS
330
84DE
330
84EB
330
84F8
330
8509
330
8580
330
858D
330
859A
330
85A7
330
85B4
330
85C1
330
85CE
330
85DB
330
85E8
330
85F5
330
8602
330
860F
102
}
330
8433
100
AcDbSymbolTableRecord
100
AcDbDimStyleTableRecord
  2
IGA
 70
     0
 40
2.0
 41
2.0
 42
0.5
 43
10.0
 44
1.0
 47
1.0
 48
1.0
 73
     0
 74
     0
 77
     1
 78
     8
140
3.0
141
0.0
143
0.03937
146
10.0
147
1.0
173
     1
271
     3
272
     3
279
     2
284
     8
285
     8
286
     8
340
847E
  0
ENDTAB
  0
TABLE
  2
BLOCK_RECORD
  5
842A
330
0
100
AcDbSymbolTable
 70
    44
  0
BLOCK_RECORD
  5
8498
102
{ACAD_XDICTIONARY
360
8506
102
}
330
842A
100
AcDbSymbolTableRecord
100
AcDbBlockTableRecord
  2
*Model_Space
340
849B
  0
BLOCK_RECORD
  5
8494
330
842A
100
AcDbSymbolTableRecord
100
AcDbBlockTableRecord
  2
*Paper_Space
340
8497
  0
BLOCK_RECORD
  5
84A7
330
842A
100
AcDbSymbolTableRecord
100
AcDbBlockTableRecord
  2
$MODEL_SPACE
340
0
  0
BLOCK_RECORD
  5
84A9
330
842A
100
AcDbSymbolTableRecord
100
AcDbBlockTableRecord
  2
$PAPER_SPACE
340
0
  0
BLOCK_RECORD
  5
84AB
330
842A
100
AcDbSymbolTableRecord
100
AcDbBlockTableRecord
  2
_OPEN
340
0
102
{BLKREFS
331
83D1
331
83D2
331
83DA
331
83DB
331
8389
331
838A
331
8392
331
8393
331
839B
331
839C
331
83A4
331
83A5
331
83AD
331
83AE
331
83B6
331
83B7
331
83BF
331
83C0
331
83C8
331
83C9
331
83E3
331
83E4
331
83EC
331
83ED
331
83F5
331
83F6
331
83FE
331
83FF
331
8407
331
8408
331
8410
331
8411
331
8609
331
860A
331
8616
331
8617
331
85A1
331
85A2
331
85AE
331
85AF
331
85BB
331
85BC
331
85C8
331
85C9
331
85D5
331
85D6
331
85E2
331
85E3
331
85EF
331
85F0
331
85FC
331
85FD
331
8564
331
8565
331
856D
331
856E
331
8587
331
8588
331
8594
331
8595
331
8270
331
8271
331
827D
331
827E
331
828A
331
828B
331
8297
331
8298
331
82A4
331
82A5
331
8525
331
8526
331
84FF
331
8500
102
}
  0
BLOCK_RECORD
  5
84AD
330
842A
100
AcDbSymbolTableRecord
100
AcDbBlockTableRecord
  2
YA_N
340
0
102
{BLKREFS
331
7C3E
331
7C5C
331
7C5E
331
7CCB
102
}
  0
BLOCK_RECORD
  5
84AF
330
842A
100
AcDbSymbolTableRecord
100
AcDbBlockTableRecord
  2
*D4
340
0
  0
BLOCK_RECORD
  5
84B1
330
842A
100
AcDbSymbolTableRecord
100
AcDbBlockTableRecord
  2
*D5
340
0
  0
BLOCK_RECORD
  5
84B3
330
842A
100
AcDbSymbolTableRecord
100
AcDbBlockTableRecord
  2
*D6
340
0
  0
BLOCK_RECORD
  5
84B5
330
842A
100
AcDbSymbolTableRecord
100
AcDbBlockTableRecord
  2
*D7
340
0
  0
BLOCK_RECORD
  5
84B7
330
842A
100
AcDbSymbolTableRecord
100
AcDbBlockTableRecord
  2
*D8
340
0
  0
BLOCK_RECORD
  5
84B9
330
842A
100
AcDbSymbolTableRecord
100
AcDbBlockTableRecord
  2
*D9
340
0
  0
BLOCK_RECORD
  5
84BB
330
842A
100
AcDbSymbolTableRecord
100
AcDbBlockTableRecord
  2
*D10
340
0
  0
BLOCK_RECORD
  5
84BD
330
842A
100
AcDbSymbolTableRecord
100
AcDbBlockTableRecord
  2
*D11
340
0
  0
BLOCK_RECORD
  5
84BF
330
842A
100
AcDbSymbolTableRecord
100
AcDbBlockTableRecord
  2
*D12
340
0
  0
BLOCK_RECORD
  5
84C1
330
842A
100
AcDbSymbolTableRecord
100
AcDbBlockTableRecord
  2
*D13
340
0
  0
BLOCK_RECORD
  5
84C3
330
842A
100
AcDbSymbolTableRecord
100
AcDbBlockTableRecord
  2
*D14
340
0
  0
BLOCK_RECORD
  5
84C5
330
842A
100
AcDbSymbolTableRecord
100
AcDbBlockTableRecord
  2
*D15
340
0
  0
BLOCK_RECORD
  5
84C7
330
842A
100
AcDbSymbolTableRecord
100
AcDbBlockTableRecord
  2
*D16
340
0
  0
BLOCK_RECORD
  5
84C9
330
842A
100
AcDbSymbolTableRecord
100
AcDbBlockTableRecord
  2
*D17
340
0
  0
BLOCK_RECORD
  5
84CB
330
842A
100
AcDbSymbolTableRecord
100
AcDbBlockTableRecord
  2
*D18
340
0
  0
BLOCK_RECORD
  5
84CD
330
842A
100
AcDbSymbolTableRecord
100
AcDbBlockTableRecord
  2
*D19
340
0
  0
BLOCK_RECORD
  5
84CF
330
842A
100
AcDbSymbolTableRecord
100
AcDbBlockTableRecord
  2
_DOT
340
0
  0
BLOCK_RECORD
  5
84D1
330
842A
100
AcDbSymbolTableRecord
100
AcDbBlockTableRecord
  2
_NONE
340
0
  0
BLOCK_RECORD
  5
84D3
330
842A
100
AcDbSymbolTableRecord
100
AcDbBlockTableRecord
  2
*D22
340
0
  0
BLOCK_RECORD
  5
84D5
330
842A
100
AcDbSymbolTableRecord
100
AcDbBlockTableRecord
  2
*D23
340
0
  0
BLOCK_RECORD
  5
84D7
330
842A
100
AcDbSymbolTableRecord
100
AcDbBlockTableRecord
  2
*D24
340
0
  0
BLOCK_RECORD
  5
84D9
330
842A
100
AcDbSymbolTableRecord
100
AcDbBlockTableRecord
  2
*D25
340
0
  0
BLOCK_RECORD
  5
84DB
330
842A
100
AcDbSymbolTableRecord
100
AcDbBlockTableRecord
  2
*D26
340
0
  0
BLOCK_RECORD
  5
84DF
330
842A
100
AcDbSymbolTableRecord
100
AcDbBlockTableRecord
  2
*D27
340
0
  0
BLOCK_RECORD
  5
84EC
330
842A
100
AcDbSymbolTableRecord
100
AcDbBlockTableRecord
  2
*D28
340
0
  0
BLOCK_RECORD
  5
84F9
330
842A
100
AcDbSymbolTableRecord
100
AcDbBlockTableRecord
  2
*D29
340
0
  0
BLOCK_RECORD
  5
850A
330
842A
100
AcDbSymbolTableRecord
100
AcDbBlockTableRecord
  2
*D30
340
0
  0
BLOCK_RECORD
  5
8573
330
842A
100
AcDbSymbolTableRecord
100
AcDbBlockTableRecord
  2
*D31
340
0
  0
BLOCK_RECORD
  5
8581
330
842A
100
AcDbSymbolTableRecord
100
AcDbBlockTableRecord
  2
*D32
340
0
  0
BLOCK_RECORD
  5
858E
330
842A
100
AcDbSymbolTableRecord
100
AcDbBlockTableRecord
  2
*D33
340
0
  0
BLOCK_RECORD
  5
859B
330
842A
100
AcDbSymbolTableRecord
100
AcDbBlockTableRecord
  2
*D34
340
0
  0
BLOCK_RECORD
  5
85A8
330
842A
100
AcDbSymbolTableRecord
100
AcDbBlockTableRecord
  2
*D35
340
0
  0
BLOCK_RECORD
  5
85B5
330
842A
100
AcDbSymbolTableRecord
100
AcDbBlockTableRecord
  2
*D36
340
0
  0
BLOCK_RECORD
  5
85C2
330
842A
100
AcDbSymbolTableRecord
100
AcDbBlockTableRecord
  2
*D37
340
0
  0
BLOCK_RECORD
  5
85CF
330
842A
100
AcDbSymbolTableRecord
100
AcDbBlockTableRecord
  2
*D38
340
0
  0
BLOCK_RECORD
  5
85DC
330
842A
100
AcDbSymbolTableRecord
100
AcDbBlockTableRecord
  2
*D39
340
0
  0
BLOCK_RECORD
  5
85E9
330
842A
100
AcDbSymbolTableRecord
100
AcDbBlockTableRecord
  2
*D40
340
0
  0
BLOCK_RECORD
  5
85F6
330
842A
100
AcDbSymbolTableRecord
100
AcDbBlockTableRecord
  2
*D41
340
0
  0
BLOCK_RECORD
  5
8603
330
842A
100
AcDbSymbolTableRecord
100
AcDbBlockTableRecord
  2
*D42
340
0
  0
BLOCK_RECORD
  5
8610
330
842A
100
AcDbSymbolTableRecord
100
AcDbBlockTableRecord
  2
*D43
340
0
  0
ENDTAB
  0
ENDSEC
  0
SECTION
  2
BLOCKS
  0
BLOCK
  5
8499
330
8498
100
AcDbEntity
  8
0
100
AcDbBlockBegin
  2
*Model_Space
 70
     0
 10
0.0
 20
0.0
 30
0.0
  3
*Model_Space
  1

  0
ENDBLK
  5
849A
330
8498
100
AcDbEntity
  8
0
100
AcDbBlockEnd
  0
BLOCK
  5
8495
330
8494
100
AcDbEntity
 67
     1
  8
0
100
AcDbBlockBegin
  2
*Paper_Space
 70
     0
 10
0.0
 20
0.0
 30
0.0
  3
*Paper_Space
  1

  0
ENDBLK
  5
8496
330
8494
100
AcDbEntity
 67
     1
  8
0
100
AcDbBlockEnd
  0
BLOCK
  5
84A8
330
84A7
100
AcDbEntity
  8
0
100
AcDbBlockBegin
  2
$MODEL_SPACE
 70
     0
 10
0.0
 20
0.0
 30
0.0
  3
$MODEL_SPACE
  1

  0
ENDBLK
  5
1B
330
84A7
100
AcDbEntity
  8
0
100
AcDbBlockEnd
  0
BLOCK
  5
84AA
330
84A9
100
AcDbEntity
  8
0
100
AcDbBlockBegin
  2
$PAPER_SPACE
 70
     0
 10
0.0
 20
0.0
 30
0.0
  3
$PAPER_SPACE
  1

  0
ENDBLK
  5
18
330
84A9
100
AcDbEntity
  8
0
100
AcDbBlockEnd
  0
BLOCK
  5
84AC
330
84AB
100
AcDbEntity
  8
0
100
AcDbBlockBegin
  2
_OPEN
 70
     0
 10
0.0
 20
0.0
 30
0.0
  3
_OPEN
  1

  0
LINE
  5
79FD
330
84AB
100
AcDbEntity
  8
0
  6
ByBlock
 62
     0
100
AcDbLine
 10
-1.0
 20
0.1666666666666666
 30
0.0
 11
0.0
 21
0.0
 31
0.0
  0
LINE
  5
79FE
330
84AB
100
AcDbEntity
  8
0
  6
ByBlock
 62
     0
100
AcDbLine
 10
0.0
 20
0.0
 30
0.0
 11
-1.0
 21
-0.1666666666666666
 31
0.0
  0
LINE
  5
79FF
330
84AB
100
AcDbEntity
  8
0
  6
ByBlock
 62
     0
100
AcDbLine
 10
0.0
 20
0.0
 30
0.0
 11
-1.0
 21
0.0
 31
0.0
  0
ENDBLK
  5
7A01
330
84AB
100
AcDbEntity
  8
0
100
AcDbBlockEnd
  0
BLOCK
  5
84AE
330
84AD
100
AcDbEntity
  8
0
100
AcDbBlockBegin
  2
YA_N
 70
     0
 10
0.0
 20
0.0
 30
0.0
  3
YA_N
  1

  0
ENDBLK
  5
7A0C
330
84AD
100
AcDbEntity
  8
0
100
AcDbBlockEnd
  0
BLOCK
  5
84B0
330
84AF
100
AcDbEntity
  8
0
100
AcDbBlockBegin
  2
*D4
 70
     1
 10
0.0
 20
0.0
 30
0.0
  3
*D4
  1

  0
LINE
  5
8386
330
84AF
100
AcDbEntity
  8
3
 62
     0
100
AcDbLine
 10
1482.933136459589
 20
2334.233310273386
 30
0.0
 11
1318.318028016377
 21
2334.233310273386
 31
0.0
  0
LINE
  5
8387
330
84AF
100
AcDbEntity
  8
3
 62
     0
100
AcDbLine
 10
1482.933136459589
 20
3259.233310273387
 30
0.0
 11
1318.318028016377
 21
3259.233310273387
 31
0.0
  0
LINE
  5
8388
330
84AF
100
AcDbEntity
  8
3
 62
     0
100
AcDbLine
 10
1348.318028016377
 20
2394.233310273386
 30
0.0
 11
1348.318028016378
 21
3199.233310273387
 31
0.0
  0
INSERT
  5
8389
330
84AF
100
AcDbEntity
  8
3
 62
     0
100
AcDbBlockReference
  2
_OPEN
 10
1348.318028016377
 20
2334.233310273386
 30
0.0
 41
60.0
 42
60.0
 43
60.0
 50
270.0
  0
INSERT
  5
838A
330
84AF
100
AcDbEntity
  8
3
 62
     0
100
AcDbBlockReference
  2
_OPEN
 10
1348.318028016378
 20
3259.233310273387
 30
0.0
 41
60.0
 42
60.0
 43
60.0
 50
90.0
  0
TEXT
  5
8419
330
84AF
100
AcDbEntity
  8
3
 62
     0
100
AcDbText
 10
1093.32
 20
2637.43
 30
0.0
 40
90.0
  1
925
100
AcDbText
  0
POINT
  5
838C
330
84AF
100
AcDbEntity
  8
DEFPOINTS
 62
     0
100
AcDbPoint
 10
1497.933136459589
 20
2334.233310273386
 30
0.0
  0
POINT
  5
838D
330
84AF
100
AcDbEntity
  8
DEFPOINTS
 62
     0
100
AcDbPoint
 10
1497.933136459589
 20
3259.233310273387
 30
0.0
  0
POINT
  5
838E
330
84AF
100
AcDbEntity
  8
DEFPOINTS
 62
     0
100
AcDbPoint
 10
1348.318028016378
 20
3259.233310273387
 30
0.0
  0
ENDBLK
  5
819C
330
84AF
100
AcDbEntity
  8
0
100
AcDbBlockEnd
  0
BLOCK
  5
84B2
330
84B1
100
AcDbEntity
  8
0
100
AcDbBlockBegin
  2
*D5
 70
     1
 10
0.0
 20
0.0
 30
0.0
  3
*D5
  1

  0
LINE
  5
838F
330
84B1
100
AcDbEntity
  8
3
 62
     0
100
AcDbLine
 10
1482.933136459589
 20
2334.233310273386
 30
0.0
 11
1167.974727918515
 21
2334.233310273386
 31
0.0
  0
LINE
  5
8390
330
84B1
100
AcDbEntity
  8
3
 62
     0
100
AcDbLine
 10
1446.677797681042
 20
3295.233310273387
 30
0.0
 11
1167.974727918515
 21
3295.233310273387
 31
0.0
  0
LINE
  5
8391
330
84B1
100
AcDbEntity
  8
3
 62
     0
100
AcDbLine
 10
1197.974727918515
 20
2394.233310273386
 30
0.0
 11
1197.974727918515
 21
3235.233310273387
 31
0.0
  0
INSERT
  5
8392
330
84B1
100
AcDbEntity
  8
3
 62
     0
100
AcDbBlockReference
  2
_OPEN
 10
1197.974727918515
 20
2334.233310273386
 30
0.0
 41
60.0
 42
60.0
 43
60.0
 50
270.0
  0
INSERT
  5
8393
330
84B1
100
AcDbEntity
  8
3
 62
     0
100
AcDbBlockReference
  2
_OPEN
 10
1197.974727918515
 20
3295.233310273387
 30
0.0
 41
60.0
 42
60.0
 43
60.0
 50
90.0
  0
TEXT
  5
841A
330
84B1
100
AcDbEntity
  8
3
 62
     0
100
AcDbText
 10
942.975
 20
2655.43
 30
0.0
 40
90.0
  1
961
100
AcDbText
  0
POINT
  5
8395
330
84B1
100
AcDbEntity
  8
DEFPOINTS
 62
     0
100
AcDbPoint
 10
1497.933136459589
 20
2334.233310273386
 30
0.0
  0
POINT
  5
8396
330
84B1
100
AcDbEntity
  8
DEFPOINTS
 62
     0
100
AcDbPoint
 10
1461.677797681042
 20
3295.233310273387
 30
0.0
  0
POINT
  5
8397
330
84B1
100
AcDbEntity
  8
DEFPOINTS
 62
     0
100
AcDbPoint
 10
1197.974727918515
 20
3295.233310273387
 30
0.0
  0
ENDBLK
  5
8191
330
84B1
100
AcDbEntity
  8
0
100
AcDbBlockEnd
  0
BLOCK
  5
84B4
330
84B3
100
AcDbEntity
  8
0
100
AcDbBlockBegin
  2
*D6
 70
     1
 10
0.0
 20
0.0
 30
0.0
  3
*D6
  1

  0
LINE
  5
8398
330
84B3
100
AcDbEntity
  8
3
 62
     0
100
AcDbLine
 10
4540.45196027847
 20
3922.691894488695
 30
0.0
 11
4540.45196027847
 21
4161.425263807013
 31
0.0
  0
LINE
  5
8399
330
84B3
100
AcDbEntity
  8
3
 62
     0
100
AcDbLine
 10
5660.451960278471
 20
3925.735287826423
 30
0.0
 11
5660.451960278471
 21
4161.425263807013
 31
0.0
  0
LINE
  5
839A
330
84B3
100
AcDbEntity
  8
3
 62
     0
100
AcDbLine
 10
4600.451960278469
 20
4131.425263807012
 30
0.0
 11
5600.451960278469
 21
4131.425263807012
 31
0.0
  0
INSERT
  5
839B
330
84B3
100
AcDbEntity
  8
3
 62
     0
100
AcDbBlockReference
  2
_OPEN
 10
4540.45196027847
 20
4131.425263807012
 30
0.0
 41
60.0
 42
60.0
 43
60.0
 50
180.0
  0
INSERT
  5
839C
330
84B3
100
AcDbEntity
  8
3
 62
     0
100
AcDbBlockReference
  2
_OPEN
 10
5660.451960278471
 20
4131.425263807012
 30
0.0
 41
60.0
 42
60.0
 43
60.0
  0
TEXT
  5
841B
330
84B3
100
AcDbEntity
  8
3
 62
     0
100
AcDbText
 10
4920.449999999999
 20
4047.13
 30
0.0
 40
90.0
  1
1120
100
AcDbText
  0
POINT
  5
839E
330
84B3
100
AcDbEntity
  8
DEFPOINTS
 62
     0
100
AcDbPoint
 10
4540.45196027847
 20
3907.691894488694
 30
0.0
  0
POINT
  5
839F
330
84B3
100
AcDbEntity
  8
DEFPOINTS
 62
     0
100
AcDbPoint
 10
5660.451960278471
 20
3910.735287826422
 30
0.0
  0
POINT
  5
83A0
330
84B3
100
AcDbEntity
  8
DEFPOINTS
 62
     0
100
AcDbPoint
 10
5660.451960278471
 20
4131.425263807012
 30
0.0
  0
ENDBLK
  5
815A
330
84B3
100
AcDbEntity
  8
0
100
AcDbBlockEnd
  0
BLOCK
  5
84B6
330
84B5
100
AcDbEntity
  8
0
100
AcDbBlockBegin
  2
*D7
 70
     1
 10
0.0
 20
0.0
 30
0.0
  3
*D7
  1

  0
LINE
  5
83A1
330
84B5
100
AcDbEntity
  8
3
 62
     0
100
AcDbLine
 10
4202.451960278468
 20
3590.233310273386
 30
0.0
 11
4202.451960278468
 21
4360.687899330344
 31
0.0
  0
LINE
  5
83A2
330
84B5
100
AcDbEntity
  8
3
 62
     0
100
AcDbLine
 10
5100.451960278469
 20
4328.040459509711
 30
0.0
 11
5100.451960278469
 21
4360.687899330344
 31
0.0
  0
LINE
  5
83A3
330
84B5
100
AcDbEntity
  8
3
 62
     0
100
AcDbLine
 10
4262.451960278466
 20
4330.687899330344
 30
0.0
 11
5040.45196027847
 21
4330.687899330344
 31
0.0
  0
INSERT
  5
83A4
330
84B5
100
AcDbEntity
  8
3
 62
     0
100
AcDbBlockReference
  2
_OPEN
 10
4202.451960278468
 20
4330.687899330344
 30
0.0
 41
60.0
 42
60.0
 43
60.0
 50
180.0
  0
INSERT
  5
83A5
330
84B5
100
AcDbEntity
  8
3
 62
     0
100
AcDbBlockReference
  2
_OPEN
 10
5100.451960278469
 20
4330.687899330344
 30
0.0
 41
60.0
 42
60.0
 43
60.0
  0
TEXT
  5
841C
330
84B5
100
AcDbEntity
  8
3
 62
     0
100
AcDbText
 10
4471.449999999999
 20
4321.39
 30
0.0
 40
90.0
  1
MAX
100
AcDbText
  0
TEXT
  5
841D
330
84B5
100
AcDbEntity
  8
3
 62
     0
100
AcDbText
 10
4471.449999999999
 20
4204.39
 30
0.0
 40
90.0
  1
920
100
AcDbText
  0
POINT
  5
83A7
330
84B5
100
AcDbEntity
  8
DEFPOINTS
 62
     0
100
AcDbPoint
 10
4202.451960278468
 20
3575.233310273386
 30
0.0
  0
POINT
  5
83A8
330
84B5
100
AcDbEntity
  8
DEFPOINTS
 62
     0
100
AcDbPoint
 10
5100.451960278469
 20
4313.040459509712
 30
0.0
  0
POINT
  5
83A9
330
84B5
100
AcDbEntity
  8
DEFPOINTS
 62
     0
100
AcDbPoint
 10
5100.451960278469
 20
4330.687899330344
 30
0.0
  0
ENDBLK
  5
814F
330
84B5
100
AcDbEntity
  8
0
100
AcDbBlockEnd
  0
BLOCK
  5
84B8
330
84B7
100
AcDbEntity
  8
0
100
AcDbBlockBegin
  2
*D8
 70
     1
 10
0.0
 20
0.0
 30
0.0
  3
*D8
  1

  0
LINE
  5
83AA
330
84B7
100
AcDbEntity
  8
3
 62
     0
100
AcDbLine
 10
5100.451960278469
 20
4262.241863128489
 30
0.0
 11
5100.451960278469
 21
4360.687899330344
 31
0.0
  0
LINE
  5
83AB
330
84B7
100
AcDbEntity
  8
3
 62
     0
100
AcDbLine
 10
5769.951960278469
 20
3270.733310273386
 30
0.0
 11
5769.951960278469
 21
4360.687899330344
 31
0.0
  0
LINE
  5
83AC
330
84B7
100
AcDbEntity
  8
3
 62
     0
100
AcDbLine
 10
5160.45196027847
 20
4330.687899330344
 30
0.0
 11
5709.95196027847
 21
4330.687899330344
 31
0.0
  0
INSERT
  5
83AD
330
84B7
100
AcDbEntity
  8
3
 62
     0
100
AcDbBlockReference
  2
_OPEN
 10
5100.451960278469
 20
4330.687899330344
 30
0.0
 41
60.0
 42
60.0
 43
60.0
 50
180.0
  0
INSERT
  5
83AE
330
84B7
100
AcDbEntity
  8
3
 62
     0
100
AcDbBlockReference
  2
_OPEN
 10
5769.951960278469
 20
4330.687899330344
 30
0.0
 41
60.0
 42
60.0
 43
60.0
  0
TEXT
  5
841E
330
84B7
100
AcDbEntity
  8
3
 62
     0
100
AcDbText
 10
5255.2
 20
4269.96
 30
0.0
 40
90.0
  1
(680)
100
AcDbText
  0
POINT
  5
83B0
330
84B7
100
AcDbEntity
  8
DEFPOINTS
 62
     0
100
AcDbPoint
 10
5100.451960278469
 20
4247.241863128489
 30
0.0
  0
POINT
  5
83B1
330
84B7
100
AcDbEntity
  8
DEFPOINTS
 62
     0
100
AcDbPoint
 10
5769.951960278469
 20
3255.733310273387
 30
0.0
  0
POINT
  5
83B2
330
84B7
100
AcDbEntity
  8
DEFPOINTS
 62
     0
100
AcDbPoint
 10
5769.951960278469
 20
4330.687899330344
 30
0.0
  0
ENDBLK
  5
8144
330
84B7
100
AcDbEntity
  8
0
100
AcDbBlockEnd
  0
BLOCK
  5
84BA
330
84B9
100
AcDbEntity
  8
0
100
AcDbBlockBegin
  2
*D9
 70
     1
 10
0.0
 20
0.0
 30
0.0
  3
*D9
  1

  0
LINE
  5
83B3
330
84B9
100
AcDbEntity
  8
3
 62
     0
100
AcDbLine
 10
3427.933136459587
 20
5878.314780538588
 30
0.0
 11
3427.933136459587
 21
6770.329439043807
 31
0.0
  0
LINE
  5
83B4
330
84B9
100
AcDbEntity
  8
3
 62
     0
100
AcDbLine
 10
2677.933136459587
 20
6453.314780538587
 30
0.0
 11
2677.933136459587
 21
6770.329439043807
 31
0.0
  0
LINE
  5
83B5
330
84B9
100
AcDbEntity
  8
3
 62
     0
100
AcDbLine
 10
3367.933136459587
 20
6740.329439043809
 30
0.0
 11
2737.933136459587
 21
6740.329439043809
 31
0.0
  0
INSERT
  5
83B6
330
84B9
100
AcDbEntity
  8
3
 62
     0
100
AcDbBlockReference
  2
_OPEN
 10
3427.933136459587
 20
6740.329439043809
 30
0.0
 41
60.0
 42
60.0
 43
60.0
  0
INSERT
  5
83B7
330
84B9
100
AcDbEntity
  8
3
 62
     0
100
AcDbBlockReference
  2
_OPEN
 10
2677.933136459587
 20
6740.329439043809
 30
0.0
 41
60.0
 42
60.0
 43
60.0
 50
180.0
  0
TEXT
  5
841F
330
84B9
100
AcDbEntity
  8
3
 62
     0
100
AcDbText
 10
2872.93
 20
6656.03
 30
0.0
 40
90.0
  1
750
100
AcDbText
  0
POINT
  5
83B9
330
84B9
100
AcDbEntity
  8
DEFPOINTS
 62
     0
100
AcDbPoint
 10
3427.933136459587
 20
5863.314780538586
 30
0.0
  0
POINT
  5
83BA
330
84B9
100
AcDbEntity
  8
DEFPOINTS
 62
     0
100
AcDbPoint
 10
2677.933136459587
 20
6438.314780538586
 30
0.0
  0
POINT
  5
83BB
330
84B9
100
AcDbEntity
  8
DEFPOINTS
 62
     0
100
AcDbPoint
 10
2677.933136459587
 20
6740.329439043809
 30
0.0
  0
ENDBLK
  5
8139
330
84B9
100
AcDbEntity
  8
0
100
AcDbBlockEnd
  0
BLOCK
  5
84BC
330
84BB
100
AcDbEntity
  8
0
100
AcDbBlockBegin
  2
*D10
 70
     1
 10
0.0
 20
0.0
 30
0.0
  3
*D10
  1

  0
LINE
  5
83BC
330
84BB
100
AcDbEntity
  8
3
 62
     0
100
AcDbLine
 10
2677.933136459587
 20
6453.314780538587
 30
0.0
 11
2677.933136459587
 21
6770.329439043807
 31
0.0
  0
LINE
  5
83BD
330
84BB
100
AcDbEntity
  8
3
 62
     0
100
AcDbLine
 10
1557.933136459588
 20
6453.314780538585
 30
0.0
 11
1557.933136459588
 21
6770.329439043807
 31
0.0
  0
LINE
  5
83BE
330
84BB
100
AcDbEntity
  8
3
 62
     0
100
AcDbLine
 10
2617.933136459587
 20
6740.329439043809
 30
0.0
 11
1617.933136459589
 21
6740.329439043809
 31
0.0
  0
INSERT
  5
83BF
330
84BB
100
AcDbEntity
  8
3
 62
     0
100
AcDbBlockReference
  2
_OPEN
 10
2677.933136459587
 20
6740.329439043809
 30
0.0
 41
60.0
 42
60.0
 43
60.0
  0
INSERT
  5
83C0
330
84BB
100
AcDbEntity
  8
3
 62
     0
100
AcDbBlockReference
  2
_OPEN
 10
1557.933136459588
 20
6740.329439043809
 30
0.0
 41
60.0
 42
60.0
 43
60.0
 50
180.0
  0
TEXT
  5
8420
330
84BB
100
AcDbEntity
  8
3
 62
     0
100
AcDbText
 10
1937.93
 20
6656.03
 30
0.0
 40
90.0
  1
1120
100
AcDbText
  0
POINT
  5
83C2
330
84BB
100
AcDbEntity
  8
DEFPOINTS
 62
     0
100
AcDbPoint
 10
2677.933136459587
 20
6438.314780538586
 30
0.0
  0
POINT
  5
83C3
330
84BB
100
AcDbEntity
  8
DEFPOINTS
 62
     0
100
AcDbPoint
 10
1557.933136459588
 20
6438.314780538584
 30
0.0
  0
POINT
  5
83C4
330
84BB
100
AcDbEntity
  8
DEFPOINTS
 62
     0
100
AcDbPoint
 10
1557.933136459588
 20
6740.329439043809
 30
0.0
  0
ENDBLK
  5
812E
330
84BB
100
AcDbEntity
  8
0
100
AcDbBlockEnd
  0
BLOCK
  5
84BE
330
84BD
100
AcDbEntity
  8
0
100
AcDbBlockBegin
  2
*D11
 70
     1
 10
0.0
 20
0.0
 30
0.0
  3
*D11
  1

  0
LINE
  5
83C5
330
84BD
100
AcDbEntity
  8
3
 62
     0
100
AcDbLine
 10
1542.933136459589
 20
6438.314780538584
 30
0.0
 11
1227.508914293172
 21
6438.314780538584
 31
0.0
  0
LINE
  5
83C6
330
84BD
100
AcDbEntity
  8
3
 62
     0
100
AcDbLine
 10
1542.933136459587
 20
5063.314780538585
 30
0.0
 11
1227.508914293172
 21
5063.314780538585
 31
0.0
  0
LINE
  5
83C7
330
84BD
100
AcDbEntity
  8
3
 62
     0
100
AcDbLine
 10
1257.508914293172
 20
6378.314780538585
 30
0.0
 11
1257.508914293172
 21
5123.314780538585
 31
0.0
  0
INSERT
  5
83C8
330
84BD
100
AcDbEntity
  8
3
 62
     0
100
AcDbBlockReference
  2
_OPEN
 10
1257.508914293172
 20
6438.314780538584
 30
0.0
 41
60.0
 42
60.0
 43
60.0
 50
90.0
  0
INSERT
  5
83C9
330
84BD
100
AcDbEntity
  8
3
 62
     0
100
AcDbBlockReference
  2
_OPEN
 10
1257.508914293172
 20
5063.314780538585
 30
0.0
 41
60.0
 42
60.0
 43
60.0
 50
270.0
  0
TEXT
  5
8421
330
84BD
100
AcDbEntity
  8
3
 62
     0
100
AcDbText
 10
1002.51
 20
5591.51
 30
0.0
 40
90.0
  1
1375
100
AcDbText
  0
POINT
  5
83CB
330
84BD
100
AcDbEntity
  8
DEFPOINTS
 62
     0
100
AcDbPoint
 10
1557.933136459588
 20
6438.314780538584
 30
0.0
  0
POINT
  5
83CC
330
84BD
100
AcDbEntity
  8
DEFPOINTS
 62
     0
100
AcDbPoint
 10
1557.933136459587
 20
5063.314780538585
 30
0.0
  0
POINT
  5
83CD
330
84BD
100
AcDbEntity
  8
DEFPOINTS
 62
     0
100
AcDbPoint
 10
1257.508914293172
 20
5063.314780538585
 30
0.0
  0
ENDBLK
  5
8123
330
84BD
100
AcDbEntity
  8
0
100
AcDbBlockEnd
  0
BLOCK
  5
84C0
330
84BF
100
AcDbEntity
  8
0
100
AcDbBlockBegin
  2
*D12
 70
     1
 10
0.0
 20
0.0
 30
0.0
  3
*D12
  1

  0
LINE
  5
83CE
330
84BF
100
AcDbEntity
  8
3
 62
     0
100
AcDbLine
 10
3427.933136459587
 20
5048.314780538586
 30
0.0
 11
3427.933136459587
 21
4726.167621056513
 31
0.0
  0
LINE
  5
83CF
330
84BF
100
AcDbEntity
  8
3
 62
     0
100
AcDbLine
 10
1557.933136459587
 20
5048.314780538586
 30
0.0
 11
1557.933136459587
 21
4726.167621056513
 31
0.0
  0
LINE
  5
83D0
330
84BF
100
AcDbEntity
  8
3
 62
     0
100
AcDbLine
 10
3367.933136459587
 20
4756.167621056513
 30
0.0
 11
1617.933136459587
 21
4756.167621056513
 31
0.0
  0
INSERT
  5
83D1
330
84BF
100
AcDbEntity
  8
3
 62
     0
100
AcDbBlockReference
  2
_OPEN
 10
3427.933136459587
 20
4756.167621056513
 30
0.0
 41
60.0
 42
60.0
 43
60.0
  0
INSERT
  5
83D2
330
84BF
100
AcDbEntity
  8
3
 62
     0
100
AcDbBlockReference
  2
_OPEN
 10
1557.933136459587
 20
4756.167621056513
 30
0.0
 41
60.0
 42
60.0
 43
60.0
 50
180.0
  0
TEXT
  5
8422
330
84BF
100
AcDbEntity
  8
3
 62
     0
100
AcDbText
 10
2312.93
 20
4671.87
 30
0.0
 40
90.0
  1
1870
100
AcDbText
  0
POINT
  5
83D4
330
84BF
100
AcDbEntity
  8
DEFPOINTS
 62
     0
100
AcDbPoint
 10
3427.933136459587
 20
5063.314780538585
 30
0.0
  0
POINT
  5
83D5
330
84BF
100
AcDbEntity
  8
DEFPOINTS
 62
     0
100
AcDbPoint
 10
1557.933136459587
 20
5063.314780538585
 30
0.0
  0
POINT
  5
83D6
330
84BF
100
AcDbEntity
  8
DEFPOINTS
 62
     0
100
AcDbPoint
 10
1557.933136459587
 20
4756.167621056513
 30
0.0
  0
ENDBLK
  5
8118
330
84BF
100
AcDbEntity
  8
0
100
AcDbBlockEnd
  0
BLOCK
  5
84C2
330
84C1
100
AcDbEntity
  8
0
100
AcDbBlockBegin
  2
*D13
 70
     1
 10
0.0
 20
0.0
 30
0.0
  3
*D13
  1

  0
LINE
  5
83D7
330
84C1
100
AcDbEntity
  8
3
 62
     0
100
AcDbLine
 10
3442.933136459587
 20
5863.314780538586
 30
0.0
 11
3758.673842846212
 21
5863.314780538586
 31
0.0
  0
LINE
  5
83D8
330
84C1
100
AcDbEntity
  8
3
 62
     0
100
AcDbLine
 10
3442.933136459587
 20
5063.314780538585
 30
0.0
 11
3758.673842846212
 21
5063.314780538585
 31
0.0
  0
LINE
  5
83D9
330
84C1
100
AcDbEntity
  8
3
 62
     0
100
AcDbLine
 10
3728.673842846212
 20
5803.314780538586
 30
0.0
 11
3728.673842846212
 21
5123.314780538585
 31
0.0
  0
INSERT
  5
83DA
330
84C1
100
AcDbEntity
  8
3
 62
     0
100
AcDbBlockReference
  2
_OPEN
 10
3728.673842846212
 20
5863.314780538586
 30
0.0
 41
60.0
 42
60.0
 43
60.0
 50
90.0
  0
INSERT
  5
83DB
330
84C1
100
AcDbEntity
  8
3
 62
     0
100
AcDbBlockReference
  2
_OPEN
 10
3728.673842846212
 20
5063.314780538585
 30
0.0
 41
60.0
 42
60.0
 43
60.0
 50
270.0
  0
TEXT
  5
8423
330
84C1
100
AcDbEntity
  8
3
 62
     0
100
AcDbText
 10
3473.67
 20
5304.01
 30
0.0
 40
90.0
  1
800
100
AcDbText
  0
POINT
  5
83DD
330
84C1
100
AcDbEntity
  8
DEFPOINTS
 62
     0
100
AcDbPoint
 10
3427.933136459587
 20
5863.314780538586
 30
0.0
  0
POINT
  5
83DE
330
84C1
100
AcDbEntity
  8
DEFPOINTS
 62
     0
100
AcDbPoint
 10
3427.933136459587
 20
5063.314780538585
 30
0.0
  0
POINT
  5
83DF
330
84C1
100
AcDbEntity
  8
DEFPOINTS
 62
     0
100
AcDbPoint
 10
3728.673842846212
 20
5063.314780538585
 30
0.0
  0
ENDBLK
  5
810D
330
84C1
100
AcDbEntity
  8
0
100
AcDbBlockEnd
  0
BLOCK
  5
84C4
330
84C3
100
AcDbEntity
  8
0
100
AcDbBlockBegin
  2
*D14
 70
     1
 10
0.0
 20
0.0
 30
0.0
  3
*D14
  1

  0
LINE
  5
83E0
330
84C3
100
AcDbEntity
  8
3
 62
     0
100
AcDbLine
 10
5680.95196027847
 20
2820.233310273387
 30
0.0
 11
6014.342954106604
 21
2820.233310273387
 31
0.0
  0
LINE
  5
83E1
330
84C3
100
AcDbEntity
  8
3
 62
     0
100
AcDbLine
 10
5680.95196027847
 20
3770.233310273387
 30
0.0
 11
6014.342954106604
 21
3770.233310273387
 31
0.0
  0
LINE
  5
83E2
330
84C3
100
AcDbEntity
  8
3
 62
     0
100
AcDbLine
 10
5984.342954106605
 20
2880.233310273387
 30
0.0
 11
5984.342954106605
 21
3710.233310273387
 31
0.0
  0
INSERT
  5
83E3
330
84C3
100
AcDbEntity
  8
3
 62
     0
100
AcDbBlockReference
  2
_OPEN
 10
5984.342954106605
 20
2820.233310273387
 30
0.0
 41
60.0
 42
60.0
 43
60.0
 50
270.0
  0
INSERT
  5
83E4
330
84C3
100
AcDbEntity
  8
3
 62
     0
100
AcDbBlockReference
  2
_OPEN
 10
5984.342954106605
 20
3770.233310273387
 30
0.0
 41
60.0
 42
60.0
 43
60.0
 50
90.0
  0
TEXT
  5
8424
330
84C3
100
AcDbEntity
  8
3
 62
     0
100
AcDbText
 10
5729.34
 20
3135.93
 30
0.0
 40
90.0
  1
\U+03C6950
100
AcDbText
  0
POINT
  5
83E6
330
84C3
100
AcDbEntity
  8
DEFPOINTS
 62
     0
100
AcDbPoint
 10
5665.951960278469
 20
2820.233310273387
 30
0.0
  0
POINT
  5
83E7
330
84C3
100
AcDbEntity
  8
DEFPOINTS
 62
     0
100
AcDbPoint
 10
5665.951960278469
 20
3770.233310273387
 30
0.0
  0
POINT
  5
83E8
330
84C3
100
AcDbEntity
  8
DEFPOINTS
 62
     0
100
AcDbPoint
 10
5984.342954106605
 20
3770.233310273387
 30
0.0
  0
ENDBLK
  5
8102
330
84C3
100
AcDbEntity
  8
0
100
AcDbBlockEnd
  0
BLOCK
  5
84C6
330
84C5
100
AcDbEntity
  8
0
100
AcDbBlockBegin
  2
*D15
 70
     1
 10
0.0
 20
0.0
 30
0.0
  3
*D15
  1

  0
LINE
  5
83E9
330
84C5
100
AcDbEntity
  8
3
 62
     0
100
AcDbLine
 10
1497.933136459589
 20
3316.733310273387
 30
0.0
 11
1497.933136459589
 21
4234.126846417152
 31
0.0
  0
LINE
  5
83EA
330
84C5
100
AcDbEntity
  8
3
 62
     0
100
AcDbLine
 10
2117.933136459589
 20
4000.320184905996
 30
0.0
 11
2117.933136459589
 21
4234.126846417152
 31
0.0
  0
LINE
  5
83EB
330
84C5
100
AcDbEntity
  8
3
 62
     0
100
AcDbLine
 10
1557.933136459588
 20
4204.126846417151
 30
0.0
 11
2057.933136459589
 21
4204.126846417151
 31
0.0
  0
INSERT
  5
83EC
330
84C5
100
AcDbEntity
  8
3
 62
     0
100
AcDbBlockReference
  2
_OPEN
 10
1497.933136459589
 20
4204.126846417151
 30
0.0
 41
60.0
 42
60.0
 43
60.0
 50
180.0
  0
INSERT
  5
83ED
330
84C5
100
AcDbEntity
  8
3
 62
     0
100
AcDbBlockReference
  2
_OPEN
 10
2117.933136459589
 20
4204.126846417151
 30
0.0
 41
60.0
 42
60.0
 43
60.0
  0
TEXT
  5
8425
330
84C5
100
AcDbEntity
  8
3
 62
     0
100
AcDbText
 10
1627.93
 20
4119.83
 30
0.0
 40
90.0
  1
620
100
AcDbText
  0
POINT
  5
83EF
330
84C5
100
AcDbEntity
  8
DEFPOINTS
 62
     0
100
AcDbPoint
 10
1497.933136459589
 20
3301.733310273387
 30
0.0
  0
POINT
  5
83F0
330
84C5
100
AcDbEntity
  8
DEFPOINTS
 62
     0
100
AcDbPoint
 10
2117.933136459589
 20
3985.320184905996
 30
0.0
  0
POINT
  5
83F1
330
84C5
100
AcDbEntity
  8
DEFPOINTS
 62
     0
100
AcDbPoint
 10
2117.933136459589
 20
4204.126846417151
 30
0.0
  0
ENDBLK
  5
80F7
330
84C5
100
AcDbEntity
  8
0
100
AcDbBlockEnd
  0
BLOCK
  5
84C8
330
84C7
100
AcDbEntity
  8
0
100
AcDbBlockBegin
  2
*D16
 70
     1
 10
0.0
 20
0.0
 30
0.0
  3
*D16
  1

  0
LINE
  5
83F2
330
84C7
100
AcDbEntity
  8
3
 62
     0
100
AcDbLine
 10
2117.933136459589
 20
4000.320184905996
 30
0.0
 11
2117.933136459589
 21
4234.126846417152
 31
0.0
  0
LINE
  5
83F3
330
84C7
100
AcDbEntity
  8
3
 62
     0
100
AcDbLine
 10
2894.933136459589
 20
3243.233310273387
 30
0.0
 11
2894.933136459589
 21
4234.126846417152
 31
0.0
  0
LINE
  5
83F4
330
84C7
100
AcDbEntity
  8
3
 62
     0
100
AcDbLine
 10
2177.933136459589
 20
4204.126846417151
 30
0.0
 11
2834.933136459589
 21
4204.126846417151
 31
0.0
  0
INSERT
  5
83F5
330
84C7
100
AcDbEntity
  8
3
 62
     0
100
AcDbBlockReference
  2
_OPEN
 10
2117.933136459589
 20
4204.126846417151
 30
0.0
 41
60.0
 42
60.0
 43
60.0
 50
180.0
  0
INSERT
  5
83F6
330
84C7
100
AcDbEntity
  8
3
 62
     0
100
AcDbBlockReference
  2
_OPEN
 10
2894.933136459589
 20
4204.126846417151
 30
0.0
 41
60.0
 42
60.0
 43
60.0
  0
TEXT
  5
8426
330
84C7
100
AcDbEntity
  8
3
 62
     0
100
AcDbText
 10
2326.43
 20
4119.83
 30
0.0
 40
90.0
  1
777
100
AcDbText
  0
POINT
  5
83F8
330
84C7
100
AcDbEntity
  8
DEFPOINTS
 62
     0
100
AcDbPoint
 10
2117.933136459589
 20
3985.320184905996
 30
0.0
  0
POINT
  5
83F9
330
84C7
100
AcDbEntity
  8
DEFPOINTS
 62
     0
100
AcDbPoint
 10
2894.933136459589
 20
3228.233310273387
 30
0.0
  0
POINT
  5
83FA
330
84C7
100
AcDbEntity
  8
DEFPOINTS
 62
     0
100
AcDbPoint
 10
2894.933136459589
 20
4204.126846417151
 30
0.0
  0
ENDBLK
  5
80EC
330
84C7
100
AcDbEntity
  8
0
100
AcDbBlockEnd
  0
BLOCK
  5
84CA
330
84C9
100
AcDbEntity
  8
0
100
AcDbBlockBegin
  2
*D17
 70
     1
 10
0.0
 20
0.0
 30
0.0
  3
*D17
  1

  0
LINE
  5
83FB
330
84C9
100
AcDbEntity
  8
3
 62
     0
100
AcDbLine
 10
1497.933136459589
 20
3274.233310273387
 30
0.0
 11
1497.933136459589
 21
4430.298336047842
 31
0.0
  0
LINE
  5
83FC
330
84C9
100
AcDbEntity
  8
3
 62
     0
100
AcDbLine
 10
3427.933136459587
 20
2310.233310273386
 30
0.0
 11
3427.933136459587
 21
4430.298336047842
 31
0.0
  0
LINE
  5
83FD
330
84C9
100
AcDbEntity
  8
3
 62
     0
100
AcDbLine
 10
1557.933136459588
 20
4400.298336047842
 30
0.0
 11
3367.933136459587
 21
4400.298336047842
 31
0.0
  0
INSERT
  5
83FE
330
84C9
100
AcDbEntity
  8
3
 62
     0
100
AcDbBlockReference
  2
_OPEN
 10
1497.933136459589
 20
4400.298336047842
 30
0.0
 41
60.0
 42
60.0
 43
60.0
 50
180.0
  0
INSERT
  5
83FF
330
84C9
100
AcDbEntity
  8
3
 62
     0
100
AcDbBlockReference
  2
_OPEN
 10
3427.933136459587
 20
4400.298336047842
 30
0.0
 41
60.0
 42
60.0
 43
60.0
  0
TEXT
  5
8427
330
84C9
100
AcDbEntity
  8
3
 62
     0
100
AcDbText
 10
2282.93
 20
4316.0
 30
0.0
 40
90.0
  1
1930
100
AcDbText
  0
POINT
  5
8401
330
84C9
100
AcDbEntity
  8
DEFPOINTS
 62
     0
100
AcDbPoint
 10
1497.933136459589
 20
3259.233310273387
 30
0.0
  0
POINT
  5
8402
330
84C9
100
AcDbEntity
  8
DEFPOINTS
 62
     0
100
AcDbPoint
 10
3427.933136459587
 20
2295.233310273386
 30
0.0
  0
POINT
  5
8403
330
84C9
100
AcDbEntity
  8
DEFPOINTS
 62
     0
100
AcDbPoint
 10
3427.933136459587
 20
4400.298336047842
 30
0.0
  0
ENDBLK
  5
80E1
330
84C9
100
AcDbEntity
  8
0
100
AcDbBlockEnd
  0
BLOCK
  5
84CC
330
84CB
100
AcDbEntity
  8
0
100
AcDbBlockBegin
  2
*D18
 70
     1
 10
0.0
 20
0.0
 30
0.0
  3
*D18
  1

  0
LINE
  5
8404
330
84CB
100
AcDbEntity
  8
3
 62
     0
100
AcDbLine
 10
2169.933136459589
 20
3938.233310273387
 30
0.0
 11
976.2491587345287
 21
3938.233310273387
 31
0.0
  0
LINE
  5
8405
330
84CB
100
AcDbEntity
  8
3
 62
     0
100
AcDbLine
 10
1416.677797681042
 20
3295.233310273387
 30
0.0
 11
976.2491587345284
 21
3295.233310273387
 31
0.0
  0
LINE
  5
8406
330
84CB
100
AcDbEntity
  8
3
 62
     0
100
AcDbLine
 10
1006.249158734528
 20
3878.233310273387
 30
0.0
 11
1006.249158734528
 21
3355.233310273387
 31
0.0
  0
INSERT
  5
8407
330
84CB
100
AcDbEntity
  8
3
 62
     0
100
AcDbBlockReference
  2
_OPEN
 10
1006.249158734528
 20
3938.233310273387
 30
0.0
 41
60.0
 42
60.0
 43
60.0
 50
90.0
  0
INSERT
  5
8408
330
84CB
100
AcDbEntity
  8
3
 62
     0
100
AcDbBlockReference
  2
_OPEN
 10
1006.249158734528
 20
3295.233310273387
 30
0.0
 41
60.0
 42
60.0
 43
60.0
 50
270.0
  0
TEXT
  5
8428
330
84CB
100
AcDbEntity
  8
3
 62
     0
100
AcDbText
 10
751.2489999999999
 20
3457.43
 30
0.0
 40
90.0
  1
643
100
AcDbText
  0
POINT
  5
840A
330
84CB
100
AcDbEntity
  8
DEFPOINTS
 62
     0
100
AcDbPoint
 10
2184.933136459588
 20
3938.233310273387
 30
0.0
  0
POINT
  5
840B
330
84CB
100
AcDbEntity
  8
DEFPOINTS
 62
     0
100
AcDbPoint
 10
1431.677797681042
 20
3295.233310273387
 30
0.0
  0
POINT
  5
840C
330
84CB
100
AcDbEntity
  8
DEFPOINTS
 62
     0
100
AcDbPoint
 10
1006.249158734528
 20
3295.233310273387
 30
0.0
  0
ENDBLK
  5
80D6
330
84CB
100
AcDbEntity
  8
0
100
AcDbBlockEnd
  0
BLOCK
  5
84CE
330
84CD
100
AcDbEntity
  8
0
100
AcDbBlockBegin
  2
*D19
 70
     1
 10
0.0
 20
0.0
 30
0.0
  3
*D19
  1

  0
LINE
  5
840D
330
84CD
100
AcDbEntity
  8
3
 62
     0
100
AcDbLine
 10
1416.677797681042
 20
3295.233310273387
 30
0.0
 11
976.2491587345287
 21
3295.233310273387
 31
0.0
  0
LINE
  5
840E
330
84CD
100
AcDbEntity
  8
3
 62
     0
100
AcDbLine
 10
1542.933136459589
 20
2195.233310273386
 30
0.0
 11
976.2491587345284
 21
2195.233310273386
 31
0.0
  0
LINE
  5
840F
330
84CD
100
AcDbEntity
  8
3
 62
     0
100
AcDbLine
 10
1006.249158734528
 20
3235.233310273387
 30
0.0
 11
1006.249158734528
 21
2255.233310273387
 31
0.0
  0
INSERT
  5
8410
330
84CD
100
AcDbEntity
  8
3
 62
     0
100
AcDbBlockReference
  2
_OPEN
 10
1006.249158734528
 20
3295.233310273387
 30
0.0
 41
60.0
 42
60.0
 43
60.0
 50
90.0
  0
INSERT
  5
8411
330
84CD
100
AcDbEntity
  8
3
 62
     0
100
AcDbBlockReference
  2
_OPEN
 10
1006.249158734528
 20
2195.233310273386
 30
0.0
 41
60.0
 42
60.0
 43
60.0
 50
270.0
  0
TEXT
  5
8429
330
84CD
100
AcDbEntity
  8
3
 62
     0
100
AcDbText
 10
751.2489999999999
 20
2585.93
 30
0.0
 40
90.0
  1
1100
100
AcDbText
  0
POINT
  5
8413
330
84CD
100
AcDbEntity
  8
DEFPOINTS
 62
     0
100
AcDbPoint
 10
1431.677797681042
 20
3295.233310273387
 30
0.0
  0
POINT
  5
8414
330
84CD
100
AcDbEntity
  8
DEFPOINTS
 62
     0
100
AcDbPoint
 10
1557.933136459588
 20
2195.233310273386
 30
0.0
  0
POINT
  5
8415
330
84CD
100
AcDbEntity
  8
DEFPOINTS
 62
     0
100
AcDbPoint
 10
1006.249158734528
 20
2195.233310273386
 30
0.0
  0
ENDBLK
  5
80CB
330
84CD
100
AcDbEntity
  8
0
100
AcDbBlockEnd
  0
BLOCK
  5
84D0
330
84CF
100
AcDbEntity
  8
0
100
AcDbBlockBegin
  2
_DOT
 70
     0
 10
0.0
 20
0.0
 30
0.0
  3
_DOT
  1

  0
LWPOLYLINE
  5
8024
330
84CF
100
AcDbEntity
  8
0
  6
ByBlock
 62
     0
100
AcDbPolyline
 90
        2
 70
     1
 43
0.25
 10
-0.125
 20
0.0
 42
1.0
 10
0.125
 20
0.0
 42
1.0
  0
LINE
  5
8028
330
84CF
100
AcDbEntity
  8
0
  6
ByBlock
 62
     0
100
AcDbLine
 10
-0.25
 20
0.0
 30
0.0
 11
-1.0
 21
0.0
 31
0.0
  0
ENDBLK
  5
7FFA
330
84CF
100
AcDbEntity
  8
0
100
AcDbBlockEnd
  0
BLOCK
  5
84D2
330
84D1
100
AcDbEntity
  8
0
100
AcDbBlockBegin
  2
_NONE
 70
     0
 10
0.0
 20
0.0
 30
0.0
  3
_NONE
  1

  0
CIRCLE
  5
821C
330
84D1
100
AcDbEntity
  8
0
  6
ByBlock
 62
     0
100
AcDbCircle
 10
0.0
 20
0.0
 30
0.0
 40
0.25
  0
ENDBLK
  5
821D
330
84D1
100
AcDbEntity
  8
0
100
AcDbBlockEnd
  0
BLOCK
  5
84D4
330
84D3
100
AcDbEntity
  8
0
100
AcDbBlockBegin
  2
*D22
 70
     1
 10
0.0
 20
0.0
 30
0.0
  3
*D22
  1

  0
LINE
  5
826D
330
84D3
100
AcDbEntity
  8
0
  6
ByBlock
 62
     0
100
AcDbLine
 10
1557.933136459588
 20
2165.233310273386
 30
0.0
 11
1557.933136459588
 21
1981.448739188665
 31
0.0
  0
LINE
  5
826E
330
84D3
100
AcDbEntity
  8
0
  6
ByBlock
 62
     0
100
AcDbLine
 10
2117.933136459588
 20
2165.233310273386
 30
0.0
 11
2117.933136459588
 21
1981.448739188665
 31
0.0
  0
LINE
  5
826F
330
84D3
100
AcDbEntity
  8
0
  6
ByBlock
 62
     0
100
AcDbLine
 10
1617.933136459589
 20
2011.448739188665
 30
0.0
 11
2057.933136459588
 21
2011.448739188665
 31
0.0
  0
INSERT
  5
8270
330
84D3
100
AcDbEntity
  8
0
  6
ByBlock
 62
     0
100
AcDbBlockReference
  2
_OPEN
 10
1557.933136459588
 20
2011.448739188665
 30
0.0
 41
60.0
 42
60.0
 43
60.0
 50
180.0
  0
INSERT
  5
8271
330
84D3
100
AcDbEntity
  8
0
  6
ByBlock
 62
     0
100
AcDbBlockReference
  2
_OPEN
 10
2117.933136459588
 20
2011.448739188665
 30
0.0
 41
60.0
 42
60.0
 43
60.0
  0
TEXT
  5
8272
330
84D3
100
AcDbEntity
  8
3
 62
     0
100
AcDbText
 10
1722.218850745302
 20
2041.448739188665
 30
0.0
 40
90.0
  1
560
100
AcDbText
  0
POINT
  5
8273
330
84D3
100
AcDbEntity
  8
DEFPOINTS
  6
ByBlock
 62
     0
100
AcDbPoint
 10
1557.933136459588
 20
2195.233310273386
 30
0.0
  0
POINT
  5
8274
330
84D3
100
AcDbEntity
  8
DEFPOINTS
  6
ByBlock
 62
     0
100
AcDbPoint
 10
2117.933136459588
 20
2195.233310273386
 30
0.0
  0
POINT
  5
8275
330
84D3
100
AcDbEntity
  8
DEFPOINTS
  6
ByBlock
 62
     0
100
AcDbPoint
 10
2117.933136459588
 20
2011.448739188665
 30
0.0
  0
ENDBLK
  5
8276
330
84D3
100
AcDbEntity
  8
0
100
AcDbBlockEnd
  0
BLOCK
  5
84D6
330
84D5
100
AcDbEntity
  8
0
100
AcDbBlockBegin
  2
*D23
 70
     1
 10
0.0
 20
0.0
 30
0.0
  3
*D23
  1

  0
LINE
  5
827A
330
84D5
100
AcDbEntity
  8
0
  6
ByBlock
 62
     0
100
AcDbLine
 10
2117.933136459588
 20
2165.233310273386
 30
0.0
 11
2117.933136459588
 21
1981.448739188665
 31
0.0
  0
LINE
  5
827B
330
84D5
100
AcDbEntity
  8
0
  6
ByBlock
 62
     0
100
AcDbLine
 10
3427.933136459587
 20
2165.233310273386
 30
0.0
 11
3427.933136459587
 21
1981.448739188665
 31
0.0
  0
LINE
  5
827C
330
84D5
100
AcDbEntity
  8
0
  6
ByBlock
 62
     0
100
AcDbLine
 10
2177.933136459588
 20
2011.448739188665
 30
0.0
 11
3367.933136459587
 21
2011.448739188665
 31
0.0
  0
INSERT
  5
827D
330
84D5
100
AcDbEntity
  8
0
  6
ByBlock
 62
     0
100
AcDbBlockReference
  2
_OPEN
 10
2117.933136459588
 20
2011.448739188665
 30
0.0
 41
60.0
 42
60.0
 43
60.0
 50
180.0
  0
INSERT
  5
827E
330
84D5
100
AcDbEntity
  8
0
  6
ByBlock
 62
     0
100
AcDbBlockReference
  2
_OPEN
 10
3427.933136459587
 20
2011.448739188665
 30
0.0
 41
60.0
 42
60.0
 43
60.0
  0
TEXT
  5
827F
330
84D5
100
AcDbEntity
  8
3
 62
     0
100
AcDbText
 10
2631.504565031017
 20
2041.448739188665
 30
0.0
 40
90.0
  1
1310
100
AcDbText
  0
POINT
  5
8280
330
84D5
100
AcDbEntity
  8
DEFPOINTS
  6
ByBlock
 62
     0
100
AcDbPoint
 10
2117.933136459588
 20
2195.233310273386
 30
0.0
  0
POINT
  5
8281
330
84D5
100
AcDbEntity
  8
DEFPOINTS
  6
ByBlock
 62
     0
100
AcDbPoint
 10
3427.933136459587
 20
2195.233310273386
 30
0.0
  0
POINT
  5
8282
330
84D5
100
AcDbEntity
  8
DEFPOINTS
  6
ByBlock
 62
     0
100
AcDbPoint
 10
3427.933136459587
 20
2011.448739188665
 30
0.0
  0
ENDBLK
  5
8283
330
84D5
100
AcDbEntity
  8
0
100
AcDbBlockEnd
  0
BLOCK
  5
84D8
330
84D7
100
AcDbEntity
  8
0
100
AcDbBlockBegin
  2
*D24
 70
     1
 10
0.0
 20
0.0
 30
0.0
  3
*D24
  1

  0
LINE
  5
8287
330
84D7
100
AcDbEntity
  8
0
  6
ByBlock
 62
     0
100
AcDbLine
 10
4338.451960278461
 20
2165.233310273386
 30
0.0
 11
4338.451960278461
 21
1981.448739188665
 31
0.0
  0
LINE
  5
8288
330
84D7
100
AcDbEntity
  8
0
  6
ByBlock
 62
     0
100
AcDbLine
 10
5100.451960278469
 20
2165.233310273386
 30
0.0
 11
5100.451960278469
 21
1981.448739188665
 31
0.0
  0
LINE
  5
8289
330
84D7
100
AcDbEntity
  8
0
  6
ByBlock
 62
     0
100
AcDbLine
 10
4398.451960278461
 20
2011.448739188665
 30
0.0
 11
5040.45196027847
 21
2011.448739188665
 31
0.0
  0
INSERT
  5
828A
330
84D7
100
AcDbEntity
  8
0
  6
ByBlock
 62
     0
100
AcDbBlockReference
  2
_OPEN
 10
4338.451960278461
 20
2011.448739188665
 30
0.0
 41
60.0
 42
60.0
 43
60.0
 50
180.0
  0
INSERT
  5
828B
330
84D7
100
AcDbEntity
  8
0
  6
ByBlock
 62
     0
100
AcDbBlockReference
  2
_OPEN
 10
5100.451960278469
 20
2011.448739188665
 30
0.0
 41
60.0
 42
60.0
 43
60.0
  0
TEXT
  5
828C
330
84D7
100
AcDbEntity
  8
3
 62
     0
100
AcDbText
 10
4603.737674564182
 20
2041.448739188665
 30
0.0
 40
90.0
  1
762
100
AcDbText
  0
POINT
  5
828D
330
84D7
100
AcDbEntity
  8
DEFPOINTS
  6
ByBlock
 62
     0
100
AcDbPoint
 10
4338.451960278461
 20
2195.233310273386
 30
0.0
  0
POINT
  5
828E
330
84D7
100
AcDbEntity
  8
DEFPOINTS
  6
ByBlock
 62
     0
100
AcDbPoint
 10
5100.451960278469
 20
2195.233310273386
 30
0.0
  0
POINT
  5
828F
330
84D7
100
AcDbEntity
  8
DEFPOINTS
  6
ByBlock
 62
     0
100
AcDbPoint
 10
5100.451960278469
 20
2011.448739188665
 30
0.0
  0
ENDBLK
  5
8290
330
84D7
100
AcDbEntity
  8
0
100
AcDbBlockEnd
  0
BLOCK
  5
84DA
330
84D9
100
AcDbEntity
  8
0
100
AcDbBlockBegin
  2
*D25
 70
     1
 10
0.0
 20
0.0
 30
0.0
  3
*D25
  1

  0
LINE
  5
8294
330
84D9
100
AcDbEntity
  8
0
  6
ByBlock
 62
     0
100
AcDbLine
 10
5100.451960278469
 20
2165.233310273386
 30
0.0
 11
5100.451960278469
 21
1981.448739188665
 31
0.0
  0
LINE
  5
8295
330
84D9
100
AcDbEntity
  8
0
  6
ByBlock
 62
     0
100
AcDbLine
 10
5713.45196027848
 20
2165.233310273386
 30
0.0
 11
5713.45196027848
 21
1981.448739188665
 31
0.0
  0
LINE
  5
8296
330
84D9
100
AcDbEntity
  8
0
  6
ByBlock
 62
     0
100
AcDbLine
 10
5160.45196027847
 20
2011.448739188665
 30
0.0
 11
5653.451960278477
 21
2011.448739188665
 31
0.0
  0
INSERT
  5
8297
330
84D9
100
AcDbEntity
  8
0
  6
ByBlock
 62
     0
100
AcDbBlockReference
  2
_OPEN
 10
5100.451960278469
 20
2011.448739188665
 30
0.0
 41
60.0
 42
60.0
 43
60.0
 50
180.0
  0
INSERT
  5
8298
330
84D9
100
AcDbEntity
  8
0
  6
ByBlock
 62
     0
100
AcDbBlockReference
  2
_OPEN
 10
5713.45196027848
 20
2011.448739188665
 30
0.0
 41
60.0
 42
60.0
 43
60.0
  0
TEXT
  5
8299
330
84D9
100
AcDbEntity
  8
3
 62
     0
100
AcDbText
 10
5299.809103135618
 20
2041.448739188665
 30
0.0
 40
90.0
  1
613
100
AcDbText
  0
POINT
  5
829A
330
84D9
100
AcDbEntity
  8
DEFPOINTS
  6
ByBlock
 62
     0
100
AcDbPoint
 10
5100.451960278469
 20
2195.233310273386
 30
0.0
  0
POINT
  5
829B
330
84D9
100
AcDbEntity
  8
DEFPOINTS
  6
ByBlock
 62
     0
100
AcDbPoint
 10
5713.45196027848
 20
2195.233310273386
 30
0.0
  0
POINT
  5
829C
330
84D9
100
AcDbEntity
  8
DEFPOINTS
  6
ByBlock
 62
     0
100
AcDbPoint
 10
5713.45196027848
 20
2011.448739188665
 30
0.0
  0
ENDBLK
  5
829D
330
84D9
100
AcDbEntity
  8
0
100
AcDbBlockEnd
  0
BLOCK
  5
84DC
330
84DB
100
AcDbEntity
  8
0
100
AcDbBlockBegin
  2
*D26
 70
     1
 10
0.0
 20
0.0
 30
0.0
  3
*D26
  1

  0
LINE
  5
82A1
330
84DB
100
AcDbEntity
  8
0
  6
ByBlock
 62
     0
100
AcDbLine
 10
1527.933136459588
 20
2195.233310273386
 30
0.0
 11
779.2942118000245
 21
2195.233310273386
 31
0.0
  0
LINE
  5
82A2
330
84DB
100
AcDbEntity
  8
0
  6
ByBlock
 62
     0
100
AcDbLine
 10
2139.933136459589
 20
3938.233310273387
 30
0.0
 11
779.2942118000245
 21
3938.233310273387
 31
0.0
  0
LINE
  5
82A3
330
84DB
100
AcDbEntity
  8
0
  6
ByBlock
 62
     0
100
AcDbLine
 10
809.2942118000244
 20
2255.233310273386
 30
0.0
 11
809.2942118000244
 21
3878.233310273387
 31
0.0
  0
INSERT
  5
82A4
330
84DB
100
AcDbEntity
  8
0
  6
ByBlock
 62
     0
100
AcDbBlockReference
  2
_OPEN
 10
809.2942118000244
 20
2195.233310273386
 30
0.0
 41
60.0
 42
60.0
 43
60.0
 50
270.0
  0
INSERT
  5
82A5
330
84DB
100
AcDbEntity
  8
0
  6
ByBlock
 62
     0
100
AcDbBlockReference
  2
_OPEN
 10
809.2942118000244
 20
3938.233310273387
 30
0.0
 41
60.0
 42
60.0
 43
60.0
 50
90.0
  0
TEXT
  5
82A6
330
84DB
100
AcDbEntity
  8
3
 62
     0
100
AcDbText
 10
779.2942118000245
 20
2916.733310273386
 30
0.0
 40
90.0
  1
1743
 50
90.0
100
AcDbText
  0
POINT
  5
82A7
330
84DB
100
AcDbEntity
  8
DEFPOINTS
  6
ByBlock
 62
     0
100
AcDbPoint
 10
1557.933136459588
 20
2195.233310273386
 30
0.0
  0
POINT
  5
82A8
330
84DB
100
AcDbEntity
  8
DEFPOINTS
  6
ByBlock
 62
     0
100
AcDbPoint
 10
2169.933136459589
 20
3938.233310273387
 30
0.0
  0
POINT
  5
82A9
330
84DB
100
AcDbEntity
  8
DEFPOINTS
  6
ByBlock
 62
     0
100
AcDbPoint
 10
809.2942118000244
 20
3938.233310273387
 30
0.0
  0
ENDBLK
  5
82AA
330
84DB
100
AcDbEntity
  8
0
100
AcDbBlockEnd
  0
BLOCK
  5
84E0
330
84DF
100
AcDbEntity
  8
0
100
AcDbBlockBegin
  2
*D27
 70
     1
 10
0.0
 20
0.0
 30
0.0
  3
*D27
  1

  0
LINE
  5
856A
330
84DF
100
AcDbEntity
  8
3
 62
     0
370
    -2
100
AcDbLine
 10
4150.451960278467
 20
3605.233310273387
 30
0.0
 11
4150.451960278467
 21
4484.626208584919
 31
0.0
  0
LINE
  5
856B
330
84DF
100
AcDbEntity
  8
3
 62
     0
370
    -2
100
AcDbLine
 10
5100.451960278469
 20
4314.797925133574
 30
0.0
 11
5100.451960278469
 21
4484.626208584919
 31
0.0
  0
LINE
  5
856C
330
84DF
100
AcDbEntity
  8
3
 62
     0
370
    -2
100
AcDbLine
 10
4210.451960278468
 20
4454.626208584919
 30
0.0
 11
5040.45196027847
 21
4454.626208584919
 31
0.0
  0
INSERT
  5
856D
330
84DF
100
AcDbEntity
  8
3
 62
     0
370
    -2
100
AcDbBlockReference
  2
_OPEN
 10
4150.451960278467
 20
4454.626208584919
 30
0.0
 41
60.0
 42
60.0
 43
60.0
 50
180.0
  0
INSERT
  5
856E
330
84DF
100
AcDbEntity
  8
3
 62
     0
370
    -2
100
AcDbBlockReference
  2
_OPEN
 10
5100.451960278469
 20
4454.626208584919
 30
0.0
 41
60.0
 42
60.0
 43
60.0
  0
MTEXT
  5
856F
330
84DF
100
AcDbEntity
  8
3
 62
     0
100
AcDbMText
 10
4625.451960278468
 20
4553.197637156348
 30
0.0
 40
90.0
 41
0.0
 71
     5
 72
     1
  1
\A1;(950)
 73
     1
 44
1.0
1001
ACAD
1000
MTEXTBEGIN
1070
    73
1070
     1
1070
    44
1040
1.0
1070
    74
1070
     0
1000
MTEXTEND
  0
POINT
  5
8570
330
84DF
100
AcDbEntity
  8
DEFPOINTS
 62
     0
100
AcDbPoint
 10
4150.451960278467
 20
3575.233310273386
 30
0.0
  0
POINT
  5
8571
330
84DF
100
AcDbEntity
  8
DEFPOINTS
 62
     0
100
AcDbPoint
 10
5100.451960278469
 20
4284.797925133574
 30
0.0
  0
POINT
  5
8572
330
84DF
100
AcDbEntity
  8
DEFPOINTS
 62
     0
100
AcDbPoint
 10
5100.451960278469
 20
4454.626208584919
 30
0.0
  0
ENDBLK
  5
84E1
330
84DF
100
AcDbEntity
  8
0
100
AcDbBlockEnd
  0
BLOCK
  5
84ED
330
84EC
100
AcDbEntity
  8
0
100
AcDbBlockBegin
  2
*D28
 70
     1
 10
0.0
 20
0.0
 30
0.0
  3
*D28
  1

  0
LINE
  5
8561
330
84EC
100
AcDbEntity
  8
3
 62
     0
370
    -2
100
AcDbLine
 10
5100.451960278469
 20
4314.797925133574
 30
0.0
 11
5100.451960278469
 21
4484.626208584919
 31
0.0
  0
LINE
  5
8562
330
84EC
100
AcDbEntity
  8
3
 62
     0
370
    -2
100
AcDbLine
 10
5780.451960278468
 20
3285.733310273387
 30
0.0
 11
5780.451960278468
 21
4484.626208584919
 31
0.0
  0
LINE
  5
8563
330
84EC
100
AcDbEntity
  8
3
 62
     0
370
    -2
100
AcDbLine
 10
5160.45196027847
 20
4454.626208584919
 30
0.0
 11
5720.451960278468
 21
4454.626208584919
 31
0.0
  0
INSERT
  5
8564
330
84EC
100
AcDbEntity
  8
3
 62
     0
370
    -2
100
AcDbBlockReference
  2
_OPEN
 10
5100.451960278469
 20
4454.626208584919
 30
0.0
 41
60.0
 42
60.0
 43
60.0
 50
180.0
  0
INSERT
  5
8565
330
84EC
100
AcDbEntity
  8
3
 62
     0
370
    -2
100
AcDbBlockReference
  2
_OPEN
 10
5780.451960278468
 20
4454.626208584919
 30
0.0
 41
60.0
 42
60.0
 43
60.0
  0
MTEXT
  5
8566
330
84EC
100
AcDbEntity
  8
3
 62
     0
100
AcDbMText
 10
5440.451960278469
 20
4553.197637156348
 30
0.0
 40
90.0
 41
0.0
 71
     5
 72
     1
  1
\A1;(680)
 73
     1
 44
1.0
1001
ACAD
1000
MTEXTBEGIN
1070
    73
1070
     1
1070
    44
1040
1.0
1070
    74
1070
     0
1000
MTEXTEND
  0
POINT
  5
8567
330
84EC
100
AcDbEntity
  8
DEFPOINTS
 62
     0
100
AcDbPoint
 10
5100.451960278469
 20
4284.797925133574
 30
0.0
  0
POINT
  5
8568
330
84EC
100
AcDbEntity
  8
DEFPOINTS
 62
     0
100
AcDbPoint
 10
5780.451960278468
 20
3255.733310273387
 30
0.0
  0
POINT
  5
8569
330
84EC
100
AcDbEntity
  8
DEFPOINTS
 62
     0
100
AcDbPoint
 10
5780.451960278468
 20
4454.626208584919
 30
0.0
  0
ENDBLK
  5
84EE
330
84EC
100
AcDbEntity
  8
0
100
AcDbBlockEnd
  0
BLOCK
  5
84FA
330
84F9
100
AcDbEntity
  8
0
100
AcDbBlockBegin
  2
*D29
 70
     1
 10
0.0
 20
0.0
 30
0.0
  3
*D29
  1

  0
LINE
  5
84FC
330
84F9
100
AcDbEntity
  8
3
 62
     0
370
    -2
100
AcDbLine
 10
4540.45196027847
 20
3968.233310273387
 30
0.0
 11
4540.45196027847
 21
4161.425263807013
 31
0.0
  0
LINE
  5
84FD
330
84F9
100
AcDbEntity
  8
3
 62
     0
370
    -2
100
AcDbLine
 10
5660.451960278471
 20
3968.233310273387
 30
0.0
 11
5660.451960278471
 21
4161.425263807013
 31
0.0
  0
LINE
  5
84FE
330
84F9
100
AcDbEntity
  8
3
 62
     0
370
    -2
100
AcDbLine
 10
4600.451960278469
 20
4131.425263807012
 30
0.0
 11
5600.45196027847
 21
4131.425263807012
 31
0.0
  0
INSERT
  5
84FF
330
84F9
100
AcDbEntity
  8
3
 62
     0
370
    -2
100
AcDbBlockReference
  2
_OPEN
 10
4540.45196027847
 20
4131.425263807012
 30
0.0
 41
60.0
 42
60.0
 43
60.0
 50
180.0
  0
INSERT
  5
8500
330
84F9
100
AcDbEntity
  8
3
 62
     0
370
    -2
100
AcDbBlockReference
  2
_OPEN
 10
5660.451960278471
 20
4131.425263807012
 30
0.0
 41
60.0
 42
60.0
 43
60.0
  0
MTEXT
  5
8501
330
84F9
100
AcDbEntity
  8
3
 62
     0
100
AcDbMText
 10
5100.451960278469
 20
4206.425263807012
 30
0.0
 40
90.0
 41
0.0
 71
     5
 72
     1
  1
\A1;1120
 73
     1
 44
1.0
1001
ACAD
1000
MTEXTBEGIN
1070
    73
1070
     1
1070
    44
1040
1.0
1070
    74
1070
     0
1000
MTEXTEND
  0
POINT
  5
8502
330
84F9
100
AcDbEntity
  8
DEFPOINTS
 62
     0
100
AcDbPoint
 10
4540.45196027847
 20
3938.233310273387
 30
0.0
  0
POINT
  5
8503
330
84F9
100
AcDbEntity
  8
DEFPOINTS
 62
     0
100
AcDbPoint
 10
5660.451960278471
 20
3938.233310273387
 30
0.0
  0
POINT
  5
8504
330
84F9
100
AcDbEntity
  8
DEFPOINTS
 62
     0
100
AcDbPoint
 10
5660.451960278471
 20
4131.425263807012
 30
0.0
  0
ENDBLK
  5
84FB
330
84F9
100
AcDbEntity
  8
0
100
AcDbBlockEnd
  0
BLOCK
  5
850B
330
850A
100
AcDbEntity
  8
0
100
AcDbBlockBegin
  2
*D30
 70
     1
 10
0.0
 20
0.0
 30
0.0
  3
*D30
  1

  0
LINE
  5
8522
330
850A
100
AcDbEntity
  8
3
 62
     0
370
    -2
100
AcDbLine
 10
5690.45196027847
 20
3770.233310273387
 30
0.0
 11
6010.736962217212
 21
3770.233310273387
 31
0.0
  0
LINE
  5
8523
330
850A
100
AcDbEntity
  8
3
 62
     0
370
    -2
100
AcDbLine
 10
5690.45196027847
 20
2820.233310273387
 30
0.0
 11
6010.736962217212
 21
2820.233310273387
 31
0.0
  0
LINE
  5
8524
330
850A
100
AcDbEntity
  8
3
 62
     0
370
    -2
100
AcDbLine
 10
5980.736962217211
 20
3710.233310273387
 30
0.0
 11
5980.736962217211
 21
2880.233310273387
 31
0.0
  0
INSERT
  5
8525
330
850A
100
AcDbEntity
  8
3
 62
     0
370
    -2
100
AcDbBlockReference
  2
_OPEN
 10
5980.736962217211
 20
3770.233310273387
 30
0.0
 41
60.0
 42
60.0
 43
60.0
 50
90.0
  0
INSERT
  5
8526
330
850A
100
AcDbEntity
  8
3
 62
     0
370
    -2
100
AcDbBlockReference
  2
_OPEN
 10
5980.736962217211
 20
2820.233310273387
 30
0.0
 41
60.0
 42
60.0
 43
60.0
 50
270.0
  0
MTEXT
  5
8527
330
850A
100
AcDbEntity
  8
3
 62
     0
100
AcDbMText
 10
5905.736962217211
 20
3295.233310273388
 30
0.0
 40
90.0
 41
0.0
 71
     5
 72
     1
  1
\A1;\U+03C6950
 11
0.0000000000000001
 21
1.0
 31
0.0
 73
     1
 44
1.0
1001
ACAD
1000
MTEXTBEGIN
1070
    73
1070
     1
1070
    44
1040
1.0
1070
    74
1070
     0
1000
MTEXTEND
  0
POINT
  5
8528
330
850A
100
AcDbEntity
  8
DEFPOINTS
 62
     0
100
AcDbPoint
 10
5660.451960278471
 20
3770.233310273387
 30
0.0
  0
POINT
  5
8529
330
850A
100
AcDbEntity
  8
DEFPOINTS
 62
     0
100
AcDbPoint
 10
5660.451960278471
 20
2820.233310273387
 30
0.0
  0
POINT
  5
852A
330
850A
100
AcDbEntity
  8
DEFPOINTS
 62
     0
100
AcDbPoint
 10
5980.736962217211
 20
2820.233310273387
 30
0.0
  0
ENDBLK
  5
850C
330
850A
100
AcDbEntity
  8
0
100
AcDbBlockEnd
  0
BLOCK
  5
8574
330
8573
100
AcDbEntity
  8
0
100
AcDbBlockBegin
  2
*D31
 70
     1
 10
0.0
 20
0.0
 30
0.0
  3
*D31
  1

  0
LINE
  5
8576
330
8573
100
AcDbEntity
  8
3
 62
     0
370
    -2
100
AcDbLine
 10
3427.933136459587
 20
5061.439780538585
 30
0.0
 11
3427.933136459587
 21
4660.767621056513
 31
0.0
  0
LINE
  5
8577
330
8573
100
AcDbEntity
  8
3
 62
     0
370
    -2
100
AcDbLine
 10
1557.933136459587
 20
5061.439780538585
 30
0.0
 11
1557.933136459587
 21
4660.767621056513
 31
0.0
  0
LINE
  5
8578
330
8573
100
AcDbEntity
  8
3
 62
     0
370
    -2
100
AcDbLine
 10
3422.533136459587
 20
4666.167621056512
 30
0.0
 11
2504.633136459587
 21
4666.167621056512
 31
0.0
  0
LINE
  5
8579
330
8573
100
AcDbEntity
  8
3
 62
     0
370
    -2
100
AcDbLine
 10
1563.333136459587
 20
4666.167621056512
 30
0.0
 11
2481.233136459587
 21
4666.167621056512
 31
0.0
  0
SOLID
  5
857A
330
8573
100
AcDbEntity
  8
3
 62
     0
100
AcDbTrace
 10
3422.533136459587
 20
4667.067621056513
 30
0.0
 11
3422.533136459587
 21
4665.267621056513
 31
0.0
 12
3427.933136459587
 22
4666.167621056512
 32
0.0
 13
3427.933136459587
 23
4666.167621056512
 33
0.0
  0
SOLID
  5
857B
330
8573
100
AcDbEntity
  8
3
 62
     0
100
AcDbTrace
 10
1563.333136459587
 20
4667.067621056513
 30
0.0
 11
1563.333136459587
 21
4665.267621056513
 31
0.0
 12
1557.933136459587
 22
4666.167621056512
 32
0.0
 13
1557.933136459587
 23
4666.167621056512
 33
0.0
  0
MTEXT
  5
857C
330
8573
100
AcDbEntity
  8
3
 62
     0
100
AcDbMText
 10
2492.933136459587
 20
4666.167621056512
 30
0.0
 40
5.399999999999999
 41
0.0
 71
     5
 72
     1
  1
\A1;1870
 73
     1
 44
1.0
1001
ACAD
1000
MTEXTBEGIN
1070
    73
1070
     1
1070
    44
1040
1.0
1070
    74
1070
     0
1000
MTEXTEND
  0
POINT
  5
857D
330
8573
100
AcDbEntity
  8
DEFPOINTS
 62
     0
100
AcDbPoint
 10
3427.933136459587
 20
5063.314780538585
 30
0.0
  0
POINT
  5
857E
330
8573
100
AcDbEntity
  8
DEFPOINTS
 62
     0
100
AcDbPoint
 10
1557.933136459587
 20
5063.314780538585
 30
0.0
  0
POINT
  5
857F
330
8573
100
AcDbEntity
  8
DEFPOINTS
 62
     0
100
AcDbPoint
 10
1557.933136459587
 20
4666.167621056512
 30
0.0
  0
ENDBLK
  5
8575
330
8573
100
AcDbEntity
  8
0
100
AcDbBlockEnd
  0
BLOCK
  5
8582
330
8581
100
AcDbEntity
  8
0
100
AcDbBlockBegin
  2
*D32
 70
     1
 10
0.0
 20
0.0
 30
0.0
  3
*D32
  1

  0
LINE
  5
8584
330
8581
100
AcDbEntity
  8
3
 62
     0
370
    -2
100
AcDbLine
 10
1527.933136459588
 20
5063.314780538585
 30
0.0
 11
1227.508914293172
 21
5063.314780538585
 31
0.0
  0
LINE
  5
8585
330
8581
100
AcDbEntity
  8
3
 62
     0
370
    -2
100
AcDbLine
 10
1527.933136459588
 20
6438.314780538584
 30
0.0
 11
1227.508914293172
 21
6438.314780538584
 31
0.0
  0
LINE
  5
8586
330
8581
100
AcDbEntity
  8
3
 62
     0
370
    -2
100
AcDbLine
 10
1257.508914293172
 20
5123.314780538585
 30
0.0
 11
1257.508914293172
 21
6378.314780538584
 31
0.0
  0
INSERT
  5
8587
330
8581
100
AcDbEntity
  8
3
 62
     0
370
    -2
100
AcDbBlockReference
  2
_OPEN
 10
1257.508914293172
 20
5063.314780538585
 30
0.0
 41
60.0
 42
60.0
 43
60.0
 50
270.0
  0
INSERT
  5
8588
330
8581
100
AcDbEntity
  8
3
 62
     0
370
    -2
100
AcDbBlockReference
  2
_OPEN
 10
1257.508914293172
 20
6438.314780538584
 30
0.0
 41
60.0
 42
60.0
 43
60.0
 50
90.0
  0
MTEXT
  5
8589
330
8581
100
AcDbEntity
  8
3
 62
     0
100
AcDbMText
 10
1182.508914293171
 20
5750.814780538585
 30
0.0
 40
90.0
 41
0.0
 71
     5
 72
     1
  1
\A1;1375
 11
0.0000000000000001
 21
1.0
 31
0.0
 73
     1
 44
1.0
1001
ACAD
1000
MTEXTBEGIN
1070
    73
1070
     1
1070
    44
1040
1.0
1070
    74
1070
     0
1000
MTEXTEND
  0
POINT
  5
858A
330
8581
100
AcDbEntity
  8
DEFPOINTS
 62
     0
100
AcDbPoint
 10
1557.933136459588
 20
5063.314780538585
 30
0.0
  0
POINT
  5
858B
330
8581
100
AcDbEntity
  8
DEFPOINTS
 62
     0
100
AcDbPoint
 10
1557.933136459588
 20
6438.314780538584
 30
0.0
  0
POINT
  5
858C
330
8581
100
AcDbEntity
  8
DEFPOINTS
 62
     0
100
AcDbPoint
 10
1257.508914293172
 20
6438.314780538584
 30
0.0
  0
ENDBLK
  5
8583
330
8581
100
AcDbEntity
  8
0
100
AcDbBlockEnd
  0
BLOCK
  5
858F
330
858E
100
AcDbEntity
  8
0
100
AcDbBlockBegin
  2
*D33
 70
     1
 10
0.0
 20
0.0
 30
0.0
  3
*D33
  1

  0
LINE
  5
8591
330
858E
100
AcDbEntity
  8
3
 62
     0
370
    -2
100
AcDbLine
 10
1557.933136459587
 20
6468.314780538584
 30
0.0
 11
1557.933136459587
 21
6770.329439043809
 31
0.0
  0
LINE
  5
8592
330
858E
100
AcDbEntity
  8
3
 62
     0
370
    -2
100
AcDbLine
 10
2677.933136459587
 20
6468.314780538586
 30
0.0
 11
2677.933136459587
 21
6770.329439043809
 31
0.0
  0
LINE
  5
8593
330
858E
100
AcDbEntity
  8
3
 62
     0
370
    -2
100
AcDbLine
 10
1617.933136459587
 20
6740.329439043809
 30
0.0
 11
2617.933136459587
 21
6740.329439043809
 31
0.0
  0
INSERT
  5
8594
330
858E
100
AcDbEntity
  8
3
 62
     0
370
    -2
100
AcDbBlockReference
  2
_OPEN
 10
1557.933136459587
 20
6740.329439043809
 30
0.0
 41
60.0
 42
60.0
 43
60.0
 50
180.0
  0
INSERT
  5
8595
330
858E
100
AcDbEntity
  8
3
 62
     0
370
    -2
100
AcDbBlockReference
  2
_OPEN
 10
2677.933136459587
 20
6740.329439043809
 30
0.0
 41
60.0
 42
60.0
 43
60.0
  0
MTEXT
  5
8596
330
858E
100
AcDbEntity
  8
3
 62
     0
100
AcDbMText
 10
2117.933136459587
 20
6815.329439043809
 30
0.0
 40
90.0
 41
0.0
 71
     5
 72
     1
  1
\A1;1120
 73
     1
 44
1.0
1001
ACAD
1000
MTEXTBEGIN
1070
    73
1070
     1
1070
    44
1040
1.0
1070
    74
1070
     0
1000
MTEXTEND
  0
POINT
  5
8597
330
858E
100
AcDbEntity
  8
DEFPOINTS
 62
     0
100
AcDbPoint
 10
1557.933136459587
 20
6438.314780538584
 30
0.0
  0
POINT
  5
8598
330
858E
100
AcDbEntity
  8
DEFPOINTS
 62
     0
100
AcDbPoint
 10
2677.933136459587
 20
6438.314780538586
 30
0.0
  0
POINT
  5
8599
330
858E
100
AcDbEntity
  8
DEFPOINTS
 62
     0
100
AcDbPoint
 10
2677.933136459587
 20
6740.329439043809
 30
0.0
  0
ENDBLK
  5
8590
330
858E
100
AcDbEntity
  8
0
100
AcDbBlockEnd
  0
BLOCK
  5
859C
330
859B
100
AcDbEntity
  8
0
100
AcDbBlockBegin
  2
*D34
 70
     1
 10
0.0
 20
0.0
 30
0.0
  3
*D34
  1

  0
LINE
  5
859E
330
859B
100
AcDbEntity
  8
3
 62
     0
370
    -2
100
AcDbLine
 10
2677.933136459587
 20
6468.314780538586
 30
0.0
 11
2677.933136459587
 21
6770.329439043809
 31
0.0
  0
LINE
  5
859F
330
859B
100
AcDbEntity
  8
3
 62
     0
370
    -2
100
AcDbLine
 10
3427.933136459587
 20
5893.314780538585
 30
0.0
 11
3427.933136459587
 21
6770.329439043809
 31
0.0
  0
LINE
  5
85A0
330
859B
100
AcDbEntity
  8
3
 62
     0
370
    -2
100
AcDbLine
 10
2737.933136459587
 20
6740.329439043809
 30
0.0
 11
3367.933136459587
 21
6740.329439043809
 31
0.0
  0
INSERT
  5
85A1
330
859B
100
AcDbEntity
  8
3
 62
     0
370
    -2
100
AcDbBlockReference
  2
_OPEN
 10
2677.933136459587
 20
6740.329439043809
 30
0.0
 41
60.0
 42
60.0
 43
60.0
 50
180.0
  0
INSERT
  5
85A2
330
859B
100
AcDbEntity
  8
3
 62
     0
370
    -2
100
AcDbBlockReference
  2
_OPEN
 10
3427.933136459587
 20
6740.329439043809
 30
0.0
 41
60.0
 42
60.0
 43
60.0
  0
MTEXT
  5
85A3
330
859B
100
AcDbEntity
  8
3
 62
     0
100
AcDbMText
 10
3052.933136459587
 20
6815.329439043809
 30
0.0
 40
90.0
 41
0.0
 71
     5
 72
     1
  1
\A1;750
 73
     1
 44
1.0
1001
ACAD
1000
MTEXTBEGIN
1070
    73
1070
     1
1070
    44
1040
1.0
1070
    74
1070
     0
1000
MTEXTEND
  0
POINT
  5
85A4
330
859B
100
AcDbEntity
  8
DEFPOINTS
 62
     0
100
AcDbPoint
 10
2677.933136459587
 20
6438.314780538586
 30
0.0
  0
POINT
  5
85A5
330
859B
100
AcDbEntity
  8
DEFPOINTS
 62
     0
100
AcDbPoint
 10
3427.933136459587
 20
5863.314780538585
 30
0.0
  0
POINT
  5
85A6
330
859B
100
AcDbEntity
  8
DEFPOINTS
 62
     0
100
AcDbPoint
 10
3427.933136459587
 20
6740.329439043809
 30
0.0
  0
ENDBLK
  5
859D
330
859B
100
AcDbEntity
  8
0
100
AcDbBlockEnd
  0
BLOCK
  5
85A9
330
85A8
100
AcDbEntity
  8
0
100
AcDbBlockBegin
  2
*D35
 70
     1
 10
0.0
 20
0.0
 30
0.0
  3
*D35
  1

  0
LINE
  5
85AB
330
85A8
100
AcDbEntity
  8
3
 62
     0
370
    -2
100
AcDbLine
 10
3457.933136459587
 20
5863.314780538585
 30
0.0
 11
3794.210222697242
 21
5863.314780538585
 31
0.0
  0
LINE
  5
85AC
330
85A8
100
AcDbEntity
  8
3
 62
     0
370
    -2
100
AcDbLine
 10
3457.933136459587
 20
5063.314780538586
 30
0.0
 11
3794.210222697242
 21
5063.314780538586
 31
0.0
  0
LINE
  5
85AD
330
85A8
100
AcDbEntity
  8
3
 62
     0
370
    -2
100
AcDbLine
 10
3764.210222697242
 20
5803.314780538585
 30
0.0
 11
3764.210222697242
 21
5123.314780538586
 31
0.0
  0
INSERT
  5
85AE
330
85A8
100
AcDbEntity
  8
3
 62
     0
370
    -2
100
AcDbBlockReference
  2
_OPEN
 10
3764.210222697242
 20
5863.314780538585
 30
0.0
 41
60.0
 42
60.0
 43
60.0
 50
90.0
  0
INSERT
  5
85AF
330
85A8
100
AcDbEntity
  8
3
 62
     0
370
    -2
100
AcDbBlockReference
  2
_OPEN
 10
3764.210222697242
 20
5063.314780538586
 30
0.0
 41
60.0
 42
60.0
 43
60.0
 50
270.0
  0
MTEXT
  5
85B0
330
85A8
100
AcDbEntity
  8
3
 62
     0
100
AcDbMText
 10
3689.210222697241
 20
5463.314780538587
 30
0.0
 40
90.0
 41
0.0
 71
     5
 72
     1
  1
\A1;800
 11
0.0000000000000001
 21
1.0
 31
0.0
 73
     1
 44
1.0
1001
ACAD
1000
MTEXTBEGIN
1070
    73
1070
     1
1070
    44
1040
1.0
1070
    74
1070
     0
1000
MTEXTEND
  0
POINT
  5
85B1
330
85A8
100
AcDbEntity
  8
DEFPOINTS
 62
     0
100
AcDbPoint
 10
3427.933136459587
 20
5863.314780538585
 30
0.0
  0
POINT
  5
85B2
330
85A8
100
AcDbEntity
  8
DEFPOINTS
 62
     0
100
AcDbPoint
 10
3427.933136459587
 20
5063.314780538586
 30
0.0
  0
POINT
  5
85B3
330
85A8
100
AcDbEntity
  8
DEFPOINTS
 62
     0
100
AcDbPoint
 10
3764.210222697242
 20
5063.314780538586
 30
0.0
  0
ENDBLK
  5
85AA
330
85A8
100
AcDbEntity
  8
0
100
AcDbBlockEnd
  0
BLOCK
  5
85B6
330
85B5
100
AcDbEntity
  8
0
100
AcDbBlockBegin
  2
*D36
 70
     1
 10
0.0
 20
0.0
 30
0.0
  3
*D36
  1

  0
LINE
  5
85B8
330
85B5
100
AcDbEntity
  8
3
 62
     0
370
    -2
100
AcDbLine
 10
1497.933136459589
 20
3331.733310273386
 30
0.0
 11
1497.933136459589
 21
4210.781760043944
 31
0.0
  0
LINE
  5
85B9
330
85B5
100
AcDbEntity
  8
3
 62
     0
370
    -2
100
AcDbLine
 10
2117.933136459589
 20
4015.320184905997
 30
0.0
 11
2117.933136459589
 21
4210.781760043944
 31
0.0
  0
LINE
  5
85BA
330
85B5
100
AcDbEntity
  8
3
 62
     0
370
    -2
100
AcDbLine
 10
1557.933136459588
 20
4180.781760043944
 30
0.0
 11
2057.933136459589
 21
4180.781760043944
 31
0.0
  0
INSERT
  5
85BB
330
85B5
100
AcDbEntity
  8
3
 62
     0
370
    -2
100
AcDbBlockReference
  2
_OPEN
 10
1497.933136459589
 20
4180.781760043944
 30
0.0
 41
60.0
 42
60.0
 43
60.0
 50
180.0
  0
INSERT
  5
85BC
330
85B5
100
AcDbEntity
  8
3
 62
     0
370
    -2
100
AcDbBlockReference
  2
_OPEN
 10
2117.933136459589
 20
4180.781760043944
 30
0.0
 41
60.0
 42
60.0
 43
60.0
  0
MTEXT
  5
85BD
330
85B5
100
AcDbEntity
  8
3
 62
     0
100
AcDbMText
 10
1807.933136459588
 20
4255.781760043944
 30
0.0
 40
90.0
 41
0.0
 71
     5
 72
     1
  1
\A1;620
 73
     1
 44
1.0
1001
ACAD
1000
MTEXTBEGIN
1070
    73
1070
     1
1070
    44
1040
1.0
1070
    74
1070
     0
1000
MTEXTEND
  0
POINT
  5
85BE
330
85B5
100
AcDbEntity
  8
DEFPOINTS
 62
     0
100
AcDbPoint
 10
1497.933136459589
 20
3301.733310273387
 30
0.0
  0
POINT
  5
85BF
330
85B5
100
AcDbEntity
  8
DEFPOINTS
 62
     0
100
AcDbPoint
 10
2117.933136459589
 20
3985.320184905996
 30
0.0
  0
POINT
  5
85C0
330
85B5
100
AcDbEntity
  8
DEFPOINTS
 62
     0
100
AcDbPoint
 10
2117.933136459589
 20
4180.781760043944
 30
0.0
  0
ENDBLK
  5
85B7
330
85B5
100
AcDbEntity
  8
0
100
AcDbBlockEnd
  0
BLOCK
  5
85C3
330
85C2
100
AcDbEntity
  8
0
100
AcDbBlockBegin
  2
*D37
 70
     1
 10
0.0
 20
0.0
 30
0.0
  3
*D37
  1

  0
LINE
  5
85C5
330
85C2
100
AcDbEntity
  8
3
 62
     0
370
    -2
100
AcDbLine
 10
2117.933136459589
 20
4015.320184905997
 30
0.0
 11
2117.933136459589
 21
4210.781760043944
 31
0.0
  0
LINE
  5
85C6
330
85C2
100
AcDbEntity
  8
3
 62
     0
370
    -2
100
AcDbLine
 10
2894.933136459589
 20
3258.233310273386
 30
0.0
 11
2894.933136459589
 21
4210.781760043944
 31
0.0
  0
LINE
  5
85C7
330
85C2
100
AcDbEntity
  8
3
 62
     0
370
    -2
100
AcDbLine
 10
2177.933136459589
 20
4180.781760043944
 30
0.0
 11
2834.933136459589
 21
4180.781760043944
 31
0.0
  0
INSERT
  5
85C8
330
85C2
100
AcDbEntity
  8
3
 62
     0
370
    -2
100
AcDbBlockReference
  2
_OPEN
 10
2117.933136459589
 20
4180.781760043944
 30
0.0
 41
60.0
 42
60.0
 43
60.0
 50
180.0
  0
INSERT
  5
85C9
330
85C2
100
AcDbEntity
  8
3
 62
     0
370
    -2
100
AcDbBlockReference
  2
_OPEN
 10
2894.933136459589
 20
4180.781760043944
 30
0.0
 41
60.0
 42
60.0
 43
60.0
  0
MTEXT
  5
85CA
330
85C2
100
AcDbEntity
  8
3
 62
     0
100
AcDbMText
 10
2506.433136459589
 20
4255.781760043944
 30
0.0
 40
90.0
 41
0.0
 71
     5
 72
     1
  1
\A1;777
 73
     1
 44
1.0
1001
ACAD
1000
MTEXTBEGIN
1070
    73
1070
     1
1070
    44
1040
1.0
1070
    74
1070
     0
1000
MTEXTEND
  0
POINT
  5
85CB
330
85C2
100
AcDbEntity
  8
DEFPOINTS
 62
     0
100
AcDbPoint
 10
2117.933136459589
 20
3985.320184905996
 30
0.0
  0
POINT
  5
85CC
330
85C2
100
AcDbEntity
  8
DEFPOINTS
 62
     0
100
AcDbPoint
 10
2894.933136459589
 20
3228.233310273387
 30
0.0
  0
POINT
  5
85CD
330
85C2
100
AcDbEntity
  8
DEFPOINTS
 62
     0
100
AcDbPoint
 10
2894.933136459589
 20
4180.781760043944
 30
0.0
  0
ENDBLK
  5
85C4
330
85C2
100
AcDbEntity
  8
0
100
AcDbBlockEnd
  0
BLOCK
  5
85D0
330
85CF
100
AcDbEntity
  8
0
100
AcDbBlockBegin
  2
*D38
 70
     1
 10
0.0
 20
0.0
 30
0.0
  3
*D38
  1

  0
LINE
  5
85D2
330
85CF
100
AcDbEntity
  8
3
 62
     0
370
    -2
100
AcDbLine
 10
3427.933136459587
 20
2325.233310273386
 30
0.0
 11
3427.933136459587
 21
4436.455486166673
 31
0.0
  0
LINE
  5
85D3
330
85CF
100
AcDbEntity
  8
3
 62
     0
370
    -2
100
AcDbLine
 10
1497.933136459589
 20
3331.733310273386
 30
0.0
 11
1497.933136459589
 21
4436.455486166673
 31
0.0
  0
LINE
  5
85D4
330
85CF
100
AcDbEntity
  8
3
 62
     0
370
    -2
100
AcDbLine
 10
3367.933136459587
 20
4406.455486166673
 30
0.0
 11
1557.933136459588
 21
4406.455486166673
 31
0.0
  0
INSERT
  5
85D5
330
85CF
100
AcDbEntity
  8
3
 62
     0
370
    -2
100
AcDbBlockReference
  2
_OPEN
 10
3427.933136459587
 20
4406.455486166673
 30
0.0
 41
60.0
 42
60.0
 43
60.0
  0
INSERT
  5
85D6
330
85CF
100
AcDbEntity
  8
3
 62
     0
370
    -2
100
AcDbBlockReference
  2
_OPEN
 10
1497.933136459589
 20
4406.455486166673
 30
0.0
 41
60.0
 42
60.0
 43
60.0
 50
180.0
  0
MTEXT
  5
85D7
330
85CF
100
AcDbEntity
  8
3
 62
     0
100
AcDbMText
 10
2462.933136459588
 20
4481.455486166672
 30
0.0
 40
90.0
 41
0.0
 71
     5
 72
     1
  1
\A1;1930
 73
     1
 44
1.0
1001
ACAD
1000
MTEXTBEGIN
1070
    73
1070
     1
1070
    44
1040
1.0
1070
    74
1070
     0
1000
MTEXTEND
  0
POINT
  5
85D8
330
85CF
100
AcDbEntity
  8
DEFPOINTS
 62
     0
100
AcDbPoint
 10
3427.933136459587
 20
2295.233310273386
 30
0.0
  0
POINT
  5
85D9
330
85CF
100
AcDbEntity
  8
DEFPOINTS
 62
     0
100
AcDbPoint
 10
1497.933136459589
 20
3301.733310273387
 30
0.0
  0
POINT
  5
85DA
330
85CF
100
AcDbEntity
  8
DEFPOINTS
 62
     0
100
AcDbPoint
 10
1497.933136459589
 20
4406.455486166673
 30
0.0
  0
ENDBLK
  5
85D1
330
85CF
100
AcDbEntity
  8
0
100
AcDbBlockEnd
  0
BLOCK
  5
85DD
330
85DC
100
AcDbEntity
  8
0
100
AcDbBlockBegin
  2
*D39
 70
     1
 10
0.0
 20
0.0
 30
0.0
  3
*D39
  1

  0
LINE
  5
85DF
330
85DC
100
AcDbEntity
  8
3
 62
     0
370
    -2
100
AcDbLine
 10
1557.933136459588
 20
5033.314780538585
 30
0.0
 11
1557.933136459588
 21
4622.692984301517
 31
0.0
  0
LINE
  5
85E0
330
85DC
100
AcDbEntity
  8
3
 62
     0
370
    -2
100
AcDbLine
 10
3427.933136459587
 20
5033.314780538586
 30
0.0
 11
3427.933136459587
 21
4622.692984301517
 31
0.0
  0
LINE
  5
85E1
330
85DC
100
AcDbEntity
  8
3
 62
     0
370
    -2
100
AcDbLine
 10
1617.933136459589
 20
4652.692984301516
 30
0.0
 11
3367.933136459587
 21
4652.692984301516
 31
0.0
  0
INSERT
  5
85E2
330
85DC
100
AcDbEntity
  8
3
 62
     0
370
    -2
100
AcDbBlockReference
  2
_OPEN
 10
1557.933136459588
 20
4652.692984301516
 30
0.0
 41
60.0
 42
60.0
 43
60.0
 50
180.0
  0
INSERT
  5
85E3
330
85DC
100
AcDbEntity
  8
3
 62
     0
370
    -2
100
AcDbBlockReference
  2
_OPEN
 10
3427.933136459587
 20
4652.692984301516
 30
0.0
 41
60.0
 42
60.0
 43
60.0
  0
MTEXT
  5
85E4
330
85DC
100
AcDbEntity
  8
3
 62
     0
100
AcDbMText
 10
2492.933136459588
 20
4727.692984301516
 30
0.0
 40
90.0
 41
0.0
 71
     5
 72
     1
  1
\A1;1870
 73
     1
 44
1.0
1001
ACAD
1000
MTEXTBEGIN
1070
    73
1070
     1
1070
    44
1040
1.0
1070
    74
1070
     0
1000
MTEXTEND
  0
POINT
  5
85E5
330
85DC
100
AcDbEntity
  8
DEFPOINTS
 62
     0
100
AcDbPoint
 10
1557.933136459588
 20
5063.314780538585
 30
0.0
  0
POINT
  5
85E6
330
85DC
100
AcDbEntity
  8
DEFPOINTS
 62
     0
100
AcDbPoint
 10
3427.933136459587
 20
5063.314780538586
 30
0.0
  0
POINT
  5
85E7
330
85DC
100
AcDbEntity
  8
DEFPOINTS
 62
     0
100
AcDbPoint
 10
3427.933136459587
 20
4652.692984301516
 30
0.0
  0
ENDBLK
  5
85DE
330
85DC
100
AcDbEntity
  8
0
100
AcDbBlockEnd
  0
BLOCK
  5
85EA
330
85E9
100
AcDbEntity
  8
0
100
AcDbBlockBegin
  2
*D40
 70
     1
 10
0.0
 20
0.0
 30
0.0
  3
*D40
  1

  0
LINE
  5
85EC
330
85E9
100
AcDbEntity
  8
3
 62
     0
370
    -2
100
AcDbLine
 10
1467.933136459589
 20
3259.233310273387
 30
0.0
 11
1318.318028016377
 21
3259.233310273387
 31
0.0
  0
LINE
  5
85ED
330
85E9
100
AcDbEntity
  8
3
 62
     0
370
    -2
100
AcDbLine
 10
1467.933136459589
 20
2334.233310273386
 30
0.0
 11
1318.318028016377
 21
2334.233310273386
 31
0.0
  0
LINE
  5
85EE
330
85E9
100
AcDbEntity
  8
3
 62
     0
370
    -2
100
AcDbLine
 10
1348.318028016377
 20
3199.233310273387
 30
0.0
 11
1348.318028016377
 21
2394.233310273386
 31
0.0
  0
INSERT
  5
85EF
330
85E9
100
AcDbEntity
  8
3
 62
     0
370
    -2
100
AcDbBlockReference
  2
_OPEN
 10
1348.318028016377
 20
3259.233310273387
 30
0.0
 41
60.0
 42
60.0
 43
60.0
 50
90.0
  0
INSERT
  5
85F0
330
85E9
100
AcDbEntity
  8
3
 62
     0
370
    -2
100
AcDbBlockReference
  2
_OPEN
 10
1348.318028016377
 20
2334.233310273386
 30
0.0
 41
60.0
 42
60.0
 43
60.0
 50
270.0
  0
MTEXT
  5
85F1
330
85E9
100
AcDbEntity
  8
3
 62
     0
100
AcDbMText
 10
1273.318028016376
 20
2796.733310273387
 30
0.0
 40
90.0
 41
0.0
 71
     5
 72
     1
  1
\A1;925
 11
0.0000000000000001
 21
1.0
 31
0.0
 73
     1
 44
1.0
1001
ACAD
1000
MTEXTBEGIN
1070
    73
1070
     1
1070
    44
1040
1.0
1070
    74
1070
     0
1000
MTEXTEND
  0
POINT
  5
85F2
330
85E9
100
AcDbEntity
  8
DEFPOINTS
 62
     0
100
AcDbPoint
 10
1497.933136459589
 20
3259.233310273387
 30
0.0
  0
POINT
  5
85F3
330
85E9
100
AcDbEntity
  8
DEFPOINTS
 62
     0
100
AcDbPoint
 10
1497.933136459589
 20
2334.233310273386
 30
0.0
  0
POINT
  5
85F4
330
85E9
100
AcDbEntity
  8
DEFPOINTS
 62
     0
100
AcDbPoint
 10
1348.318028016377
 20
2334.233310273386
 30
0.0
  0
ENDBLK
  5
85EB
330
85E9
100
AcDbEntity
  8
0
100
AcDbBlockEnd
  0
BLOCK
  5
85F7
330
85F6
100
AcDbEntity
  8
0
100
AcDbBlockBegin
  2
*D41
 70
     1
 10
0.0
 20
0.0
 30
0.0
  3
*D41
  1

  0
LINE
  5
85F9
330
85F6
100
AcDbEntity
  8
3
 62
     0
370
    -2
100
AcDbLine
 10
1431.677797681042
 20
3295.233310273387
 30
0.0
 11
1167.974727918515
 21
3295.233310273387
 31
0.0
  0
LINE
  5
85FA
330
85F6
100
AcDbEntity
  8
3
 62
     0
370
    -2
100
AcDbLine
 10
1467.933136459589
 20
2334.233310273386
 30
0.0
 11
1167.974727918515
 21
2334.233310273386
 31
0.0
  0
LINE
  5
85FB
330
85F6
100
AcDbEntity
  8
3
 62
     0
370
    -2
100
AcDbLine
 10
1197.974727918516
 20
3235.233310273387
 30
0.0
 11
1197.974727918515
 21
2394.233310273386
 31
0.0
  0
INSERT
  5
85FC
330
85F6
100
AcDbEntity
  8
3
 62
     0
370
    -2
100
AcDbBlockReference
  2
_OPEN
 10
1197.974727918516
 20
3295.233310273387
 30
0.0
 41
60.0
 42
60.0
 43
60.0
 50
90.0
  0
INSERT
  5
85FD
330
85F6
100
AcDbEntity
  8
3
 62
     0
370
    -2
100
AcDbBlockReference
  2
_OPEN
 10
1197.974727918515
 20
2334.233310273386
 30
0.0
 41
60.0
 42
60.0
 43
60.0
 50
270.0
  0
MTEXT
  5
85FE
330
85F6
100
AcDbEntity
  8
3
 62
     0
100
AcDbMText
 10
1122.974727918515
 20
2814.733310273387
 30
0.0
 40
90.0
 41
0.0
 71
     5
 72
     1
  1
\A1;961
 11
0.0000000000000001
 21
1.0
 31
0.0
 73
     1
 44
1.0
1001
ACAD
1000
MTEXTBEGIN
1070
    73
1070
     1
1070
    44
1040
1.0
1070
    74
1070
     0
1000
MTEXTEND
  0
POINT
  5
85FF
330
85F6
100
AcDbEntity
  8
DEFPOINTS
 62
     0
100
AcDbPoint
 10
1461.677797681042
 20
3295.233310273387
 30
0.0
  0
POINT
  5
8600
330
85F6
100
AcDbEntity
  8
DEFPOINTS
 62
     0
100
AcDbPoint
 10
1497.933136459589
 20
2334.233310273386
 30
0.0
  0
POINT
  5
8601
330
85F6
100
AcDbEntity
  8
DEFPOINTS
 62
     0
100
AcDbPoint
 10
1197.974727918515
 20
2334.233310273386
 30
0.0
  0
ENDBLK
  5
85F8
330
85F6
100
AcDbEntity
  8
0
100
AcDbBlockEnd
  0
BLOCK
  5
8604
330
8603
100
AcDbEntity
  8
0
100
AcDbBlockBegin
  2
*D42
 70
     1
 10
0.0
 20
0.0
 30
0.0
  3
*D42
  1

  0
LINE
  5
8606
330
8603
100
AcDbEntity
  8
3
 62
     0
370
    -2
100
AcDbLine
 10
1527.933136459587
 20
2195.233310273386
 30
0.0
 11
976.2491587345278
 21
2195.233310273386
 31
0.0
  0
LINE
  5
8607
330
8603
100
AcDbEntity
  8
3
 62
     0
370
    -2
100
AcDbLine
 10
1431.677797681042
 20
3295.233310273387
 30
0.0
 11
976.249158734528
 21
3295.233310273387
 31
0.0
  0
LINE
  5
8608
330
8603
100
AcDbEntity
  8
3
 62
     0
370
    -2
100
AcDbLine
 10
1006.249158734528
 20
2255.233310273387
 30
0.0
 11
1006.249158734528
 21
3235.233310273387
 31
0.0
  0
INSERT
  5
8609
330
8603
100
AcDbEntity
  8
3
 62
     0
370
    -2
100
AcDbBlockReference
  2
_OPEN
 10
1006.249158734528
 20
2195.233310273386
 30
0.0
 41
60.0
 42
60.0
 43
60.0
 50
270.0
  0
INSERT
  5
860A
330
8603
100
AcDbEntity
  8
3
 62
     0
370
    -2
100
AcDbBlockReference
  2
_OPEN
 10
1006.249158734528
 20
3295.233310273387
 30
0.0
 41
60.0
 42
60.0
 43
60.0
 50
90.0
  0
MTEXT
  5
860B
330
8603
100
AcDbEntity
  8
3
 62
     0
100
AcDbMText
 10
931.2491587345274
 20
2745.233310273387
 30
0.0
 40
90.0
 41
0.0
 71
     5
 72
     1
  1
\A1;1100
 11
0.0000000000000001
 21
1.0
 31
0.0
 73
     1
 44
1.0
1001
ACAD
1000
MTEXTBEGIN
1070
    73
1070
     1
1070
    44
1040
1.0
1070
    74
1070
     0
1000
MTEXTEND
  0
POINT
  5
860C
330
8603
100
AcDbEntity
  8
DEFPOINTS
 62
     0
100
AcDbPoint
 10
1557.933136459587
 20
2195.233310273386
 30
0.0
  0
POINT
  5
860D
330
8603
100
AcDbEntity
  8
DEFPOINTS
 62
     0
100
AcDbPoint
 10
1461.677797681042
 20
3295.233310273387
 30
0.0
  0
POINT
  5
860E
330
8603
100
AcDbEntity
  8
DEFPOINTS
 62
     0
100
AcDbPoint
 10
1006.249158734528
 20
3295.233310273387
 30
0.0
  0
ENDBLK
  5
8605
330
8603
100
AcDbEntity
  8
0
100
AcDbBlockEnd
  0
BLOCK
  5
8611
330
8610
100
AcDbEntity
  8
0
100
AcDbBlockBegin
  2
*D43
 70
     1
 10
0.0
 20
0.0
 30
0.0
  3
*D43
  1

  0
LINE
  5
8613
330
8610
100
AcDbEntity
  8
3
 62
     0
370
    -2
100
AcDbLine
 10
1431.677797681042
 20
3295.233310273387
 30
0.0
 11
976.249158734528
 21
3295.233310273387
 31
0.0
  0
LINE
  5
8614
330
8610
100
AcDbEntity
  8
3
 62
     0
370
    -2
100
AcDbLine
 10
2154.933136459588
 20
3938.233310273387
 30
0.0
 11
976.2491587345282
 21
3938.233310273387
 31
0.0
  0
LINE
  5
8615
330
8610
100
AcDbEntity
  8
3
 62
     0
370
    -2
100
AcDbLine
 10
1006.249158734528
 20
3355.233310273388
 30
0.0
 11
1006.249158734528
 21
3878.233310273387
 31
0.0
  0
INSERT
  5
8616
330
8610
100
AcDbEntity
  8
3
 62
     0
370
    -2
100
AcDbBlockReference
  2
_OPEN
 10
1006.249158734528
 20
3295.233310273387
 30
0.0
 41
60.0
 42
60.0
 43
60.0
 50
270.0
  0
INSERT
  5
8617
330
8610
100
AcDbEntity
  8
3
 62
     0
370
    -2
100
AcDbBlockReference
  2
_OPEN
 10
1006.249158734528
 20
3938.233310273387
 30
0.0
 41
60.0
 42
60.0
 43
60.0
 50
90.0
  0
MTEXT
  5
8618
330
8610
100
AcDbEntity
  8
3
 62
     0
100
AcDbMText
 10
931.2491587345276
 20
3616.733310273388
 30
0.0
 40
90.0
 41
0.0
 71
     5
 72
     1
  1
\A1;643
 11
0.0000000000000001
 21
1.0
 31
0.0
 73
     1
 44
1.0
1001
ACAD
1000
MTEXTBEGIN
1070
    73
1070
     1
1070
    44
1040
1.0
1070
    74
1070
     0
1000
MTEXTEND
  0
POINT
  5
8619
330
8610
100
AcDbEntity
  8
DEFPOINTS
 62
     0
100
AcDbPoint
 10
1461.677797681042
 20
3295.233310273387
 30
0.0
  0
POINT
  5
861A
330
8610
100
AcDbEntity
  8
DEFPOINTS
 62
     0
100
AcDbPoint
 10
2184.933136459588
 20
3938.233310273387
 30
0.0
  0
POINT
  5
861B
330
8610
100
AcDbEntity
  8
DEFPOINTS
 62
     0
100
AcDbPoint
 10
1006.249158734528
 20
3938.233310273387
 30
0.0
  0
ENDBLK
  5
8612
330
8610
100
AcDbEntity
  8
0
100
AcDbBlockEnd
  0
ENDSEC
  0
SECTION
  2
ENTITIES
  0
INSERT
  5
7C3E
330
8498
100
AcDbEntity
  8
0
100
AcDbBlockReference
  2
YA_N
 10
6.0
 20
5.0
 30
0.0
  0
LINE
  5
7C40
330
8498
100
AcDbEntity
  8
2
100
AcDbLine
 10
1461.677797681042
 20
3295.233310273387
 30
0.0
 11
2963.257891098281
 21
3295.233310273387
 31
0.0
  0
LINE
  5
7C41
330
8498
100
AcDbEntity
  8
2
100
AcDbLine
 10
2117.933136459589
 20
3985.320184905996
 30
0.0
 11
2117.933136459588
 21
2195.233310273386
 31
0.0
  0
ARC
  5
7C42
330
8498
100
AcDbEntity
  8
1
100
AcDbCircle
 10
2050.933136459589
 20
3228.233310273387
 30
0.0
 40
844.0
100
AcDbArc
 50
274.5531523872191
 51
4.553152387219013
  0
ARC
  5
7C43
330
8498
100
AcDbEntity
  8
1
100
AcDbCircle
 10
2184.933136459588
 20
3228.233310273387
 30
0.0
 40
710.0
100
AcDbArc
 50
5.41484170612945
 51
95.41484170612944
  0
ARC
  5
7C44
330
8498
100
AcDbEntity
  8
1
100
AcDbCircle
 10
2171.433136459589
 20
3348.733310273387
 30
0.0
 40
589.5
100
AcDbArc
 50
95.20703608834947
 51
185.2070360883495
  0
LINE
  5
7C45
330
8498
100
AcDbEntity
  8
1
100
AcDbLine
 10
1497.933136459589
 20
2291.733310273386
 30
0.0
 11
1497.933136459589
 21
3301.733310273387
 31
0.0
  0
LINE
  5
7C46
330
8498
100
AcDbEntity
  8
1
100
AcDbLine
 10
1497.933136459589
 20
3259.233310273387
 30
0.0
 11
1583.143458174751
 21
3259.233310273387
 31
0.0
  0
LINE
  5
7C47
330
8498
100
AcDbEntity
  8
1
100
AcDbLine
 10
1497.933136459589
 20
2334.233310273386
 30
0.0
 11
2117.933136459589
 21
2386.896873406421
 31
0.0
  0
LINE
  5
7C48
330
8498
100
AcDbEntity
  8
1
100
AcDbLine
 10
1497.933136459589
 20
2291.733310273386
 30
0.0
 11
1500.933136459589
 21
2291.733310273386
 31
0.0
  0
LINE
  5
7C49
330
8498
100
AcDbEntity
  8
1
100
AcDbLine
 10
1497.933136459589
 20
3301.733310273387
 30
0.0
 11
1500.933136459589
 21
3301.733310273387
 31
0.0
  0
LINE
  5
7C4A
330
8498
100
AcDbEntity
  8
1
100
AcDbLine
 10
1537.933136459589
 20
2337.630959507776
 30
0.0
 11
1537.933136459589
 21
3259.233310273387
 31
0.0
  0
LINE
  5
7C4B
330
8498
100
AcDbEntity
  8
1
100
AcDbLine
 10
1500.933136459589
 20
2291.733310273386
 30
0.0
 11
1500.933136459589
 21
3301.733310273387
 31
0.0
  0
LINE
  5
7C4C
330
8498
100
AcDbEntity
  8
1
100
AcDbLine
 10
3427.933136459587
 20
2295.233310273386
 30
0.0
 11
3427.933136459587
 21
2195.233310273386
 31
0.0
  0
LINE
  5
7C4D
330
8498
100
AcDbEntity
  8
1
100
AcDbLine
 10
1557.933136459588
 20
2295.233310273386
 30
0.0
 11
1557.933136459588
 21
2195.233310273386
 31
0.0
  0
LINE
  5
7C4E
330
8498
100
AcDbEntity
  8
1
100
AcDbLine
 10
3427.933136459587
 20
2195.233310273386
 30
0.0
 11
1557.933136459587
 21
2195.233310273386
 31
0.0
1001
ACAD
1000
ASC_BOUNDS
1002
{
1070
    19
1002
}
  0
LINE
  5
7C4F
330
8498
100
AcDbEntity
  8
1
100
AcDbLine
 10
3427.933136459587
 20
2295.233310273386
 30
0.0
 11
1557.933136459587
 21
2295.233310273386
 31
0.0
  0
LINE
  5
7C50
330
8498
100
AcDbEntity
  8
2
100
AcDbLine
 10
3177.93313645959
 20
2863.235801269489
 30
0.0
 11
3177.93313645959
 21
2195.233310273386
 31
0.0
  0
LINE
  5
7C51
330
8498
100
AcDbEntity
  8
2
100
AcDbLine
 10
3475.070023670042
 20
2570.233310273386
 30
0.0
 11
2963.090210005756
 21
2570.233310273386
 31
0.0
  0
LINE
  5
7C52
330
8498
100
AcDbEntity
  8
1
100
AcDbLine
 10
5660.451960278471
 20
3938.233310273387
 30
0.0
 11
5660.451960278471
 21
3331.233310273387
 31
0.0
  0
LINE
  5
7C53
330
8498
100
AcDbEntity
  8
1
100
AcDbLine
 10
4338.451960278461
 20
2195.233310273386
 30
0.0
 11
5713.45196027848
 21
2195.233310273386
 31
0.0
1001
ACAD
1000
ASC_BOUNDS
1002
{
1070
    19
1005
0
1005
0
1005
0
1005
0
1002
}
  0
LINE
  5
7C54
330
8498
100
AcDbEntity
  8
1
100
AcDbLine
 10
4338.451960278469
 20
2295.233310273386
 30
0.0
 11
5713.451960278469
 21
2295.233310273386
 31
0.0
  0
LINE
  5
7C55
330
8498
100
AcDbEntity
  8
1
100
AcDbLine
 10
4338.451960278469
 20
2295.233310273386
 30
0.0
 11
4338.451960278461
 21
2195.233310273386
 31
0.0
  0
LINE
  5
7C56
330
8498
100
AcDbEntity
  8
1
100
AcDbLine
 10
5713.451960278469
 20
2295.233310273386
 30
0.0
 11
5713.45196027848
 21
2195.233310273386
 31
0.0
  0
LINE
  5
7C57
330
8498
100
AcDbEntity
  8
1
100
AcDbLine
 10
5100.451960278469
 20
3938.233310273387
 30
0.0
 11
5660.451960278471
 21
3938.233310273387
 31
0.0
  0
LINE
  5
7C58
330
8498
100
AcDbEntity
  8
2
100
AcDbLine
 10
4157.872861632773
 20
3295.233310273387
 30
0.0
 11
5810.971608036208
 21
3295.233310273387
 31
0.0
  0
LINE
  5
7C59
330
8498
100
AcDbEntity
  8
1
100
AcDbLine
 10
5650.951960278469
 20
2195.233310273386
 30
0.0
 11
5713.45196027848
 21
2195.233310273386
 31
0.0
1001
ACAD
1000
ASC_BOUNDS
1002
{
1070
    19
1005
0
1005
0
1002
}
  0
LINE
  5
7C5A
330
8498
100
AcDbEntity
  8
2
100
AcDbLine
 10
5100.451960278469
 20
4110.45225150941
 30
0.0
 11
5100.451960278469
 21
2195.233310273386
 31
0.0
  0
POINT
  5
7C5B
330
8498
100
AcDbEntity
  8
1
100
AcDbPoint
 10
2891.764799587381
 20
3270.233310273387
 30
0.0
  0
INSERT
  5
7C5C
330
8498
100
AcDbEntity
  8
0
100
AcDbBlockReference
  2
YA_N
 10
-1638.667820090515
 20
-980.7401201518075
 30
0.0
 41
20.0
 42
20.0
 43
20.0
  0
INSERT
  5
7C5E
330
8498
100
AcDbEntity
  8
0
100
AcDbBlockReference
  2
YA_N
 10
-1552.816625123014
 20
-1070.405552057982
 30
0.0
 41
20.0
 42
20.0
 43
20.0
  0
ARC
  5
7C60
330
8498
100
AcDbEntity
  8
1
100
AcDbCircle
 10
3177.93313645959
 20
2570.233310273386
 30
0.0
 40
185.0
100
AcDbArc
 50
287.9452509999999
 51
252.054749
  0
LINE
  5
7C61
330
8498
100
AcDbEntity
  8
1
100
AcDbLine
 10
3120.933136459589
 20
2394.233310273386
 30
0.0
 11
3234.933136459589
 21
2394.233310273386
 31
0.0
  0
LINE
  5
7C62
330
8498
100
AcDbEntity
  8
1
100
AcDbLine
 10
3038.433136459589
 20
2414.374057273386
 30
0.0
 11
3038.433136459589
 21
2386.011264273385
 31
0.0
  0
LINE
  5
7C63
330
8498
100
AcDbEntity
  8
1
100
AcDbLine
 10
3015.933136459589
 20
2465.492343273385
 30
0.0
 11
3015.933136459589
 21
2390.233310273385
 31
0.0
  0
LINE
  5
7C64
330
8498
100
AcDbEntity
  8
1
100
AcDbLine
 10
3075.433136459589
 20
2395.381869273385
 30
0.0
 11
3084.939850459588
 21
2410.304477273386
 31
0.0
  0
LINE
  5
7C65
330
8498
100
AcDbEntity
  8
1
100
AcDbLine
 10
3031.183136459589
 20
2410.233310273386
 30
0.0
 11
3031.183136459589
 21
2390.233310273385
 31
0.0
  0
LINE
  5
7C66
330
8498
100
AcDbEntity
  8
1
100
AcDbLine
 10
3045.683136459589
 20
2410.233310273386
 30
0.0
 11
3045.683136459589
 21
2390.233310273385
 31
0.0
  0
LINE
  5
7C67
330
8498
100
AcDbEntity
  8
1
100
AcDbLine
 10
3075.433136459589
 20
2407.233310273386
 30
0.0
 11
3075.433136459589
 21
2390.233310273385
 31
0.0
  0
ARC
  5
7C68
330
8498
100
AcDbEntity
  8
1
100
AcDbCircle
 10
3177.93313645959
 20
2570.233310273386
 30
0.0
 40
195.000061
100
AcDbArc
 50
225.3736419999999
 51
232.072006
  0
LINE
  5
7C69
330
8498
100
AcDbEntity
  8
1
100
AcDbLine
 10
3072.433136459589
 20
2410.233310273386
 30
0.0
 11
3018.933136459589
 21
2410.233310273386
 31
0.0
  0
ARC
  5
7C6A
330
8498
100
AcDbEntity
  8
1
100
AcDbCircle
 10
3018.933136459589
 20
2407.233310273386
 30
0.0
 40
3.0
100
AcDbArc
 50
90.0
 51
180.0
  0
ARC
  5
7C6B
330
8498
100
AcDbEntity
  8
1
100
AcDbCircle
 10
3047.974213459589
 20
2438.568271273386
 30
0.0
 40
10.000001
100
AcDbArc
 50
133.8248439999999
 51
225.3731539999999
  0
LINE
  5
7C6C
330
8498
100
AcDbEntity
  8
1
100
AcDbLine
 10
3040.832688459589
 20
2446.029147273386
 30
0.0
 11
3038.547898459588
 21
2443.834445273386
 31
0.0
  0
LINE
  5
7C6D
330
8498
100
AcDbEntity
  8
1
100
AcDbLine
 10
3036.706696459589
 20
2450.733920273385
 30
0.0
 11
3034.421906459589
 21
2448.539218273385
 31
0.0
  0
ARC
  5
7C6E
330
8498
100
AcDbEntity
  8
1
100
AcDbCircle
 10
3036.500153459588
 20
2446.375766273385
 30
0.0
 40
2.999938999999999
100
AcDbArc
 50
133.849228
 51
221.211472
  0
ARC
  5
7C6F
330
8498
100
AcDbEntity
  8
1
100
AcDbCircle
 10
3177.933197459589
 20
2570.233310273386
 30
0.0
 40
191.0000149999999
100
AcDbArc
 50
221.209732
 51
221.2901459999999
  0
ARC
  5
7C70
330
8498
100
AcDbEntity
  8
1
100
AcDbCircle
 10
3036.674164459589
 20
2446.177279273385
 30
0.0
 40
2.999964999999999
100
AcDbArc
 50
221.290649
 51
308.651794
  0
LINE
  5
7C71
330
8498
100
AcDbEntity
  8
1
100
AcDbLine
 10
3067.109223459588
 20
2410.233310273386
 30
0.0
 11
3072.28897145959
 21
2418.363925273386
 31
0.0
  0
ARC
  5
7C72
330
8498
100
AcDbEntity
  8
1
100
AcDbCircle
 10
3064.21902545959
 20
2424.308261273385
 30
0.0
 40
9.999959
100
AcDbArc
 50
232.0721129999999
 51
323.7348329999999
  0
ARC
  5
7C73
330
8498
100
AcDbEntity
  8
1
100
AcDbCircle
 10
3072.433136459589
 20
2407.233310273386
 30
0.0
 40
3.0
100
AcDbArc
 50
0.0
 51
90.0
  0
LINE
  5
7C74
330
8498
100
AcDbEntity
  8
1
100
AcDbLine
 10
3015.933136459589
 20
2465.492343273385
 30
0.0
 11
3022.317108459589
 21
2470.190097273386
 31
0.0
  0
ARC
  5
7C75
330
8498
100
AcDbEntity
  8
1
100
AcDbCircle
 10
3021.543488459589
 20
2465.896029273386
 30
0.0
 40
3.000013999999998
100
AcDbArc
 50
126.349533
 51
213.7114109999999
  0
LINE
  5
7C76
330
8498
100
AcDbEntity
  8
1
100
AcDbLine
 10
3025.953400459588
 20
2464.748080273387
 30
0.0
 11
3023.24209645959
 21
2463.109164273385
 31
0.0
  0
ARC
  5
7C77
330
8498
100
AcDbEntity
  8
1
100
AcDbCircle
 10
3177.933197459589
 20
2570.233310273386
 30
0.0
 40
190.999969
100
AcDbArc
 50
213.709717
 51
213.790161
  0
ARC
  5
7C78
330
8498
100
AcDbEntity
  8
1
100
AcDbCircle
 10
3021.69015545959
 20
2465.676547273385
 30
0.0
 40
3.000036999999998
100
AcDbArc
 50
213.7896419999999
 51
301.151276
  0
LINE
  5
7C79
330
8498
100
AcDbEntity
  8
1
100
AcDbLine
 10
3280.433136459588
 20
2395.381869273385
 30
0.0
 11
3270.926422459588
 21
2410.304477273386
 31
0.0
  0
LINE
  5
7C7A
330
8498
100
AcDbEntity
  8
1
100
AcDbLine
 10
3324.683136459589
 20
2410.233310273386
 30
0.0
 11
3324.683136459589
 21
2390.233310273385
 31
0.0
  0
LINE
  5
7C7B
330
8498
100
AcDbEntity
  8
1
100
AcDbLine
 10
3310.18313645959
 20
2410.233310273386
 30
0.0
 11
3310.18313645959
 21
2390.233310273385
 31
0.0
  0
LINE
  5
7C7C
330
8498
100
AcDbEntity
  8
1
100
AcDbLine
 10
3317.43313645959
 20
2414.374057273386
 30
0.0
 11
3317.43313645959
 21
2386.011264273385
 31
0.0
  0
LINE
  5
7C7D
330
8498
100
AcDbEntity
  8
1
100
AcDbLine
 10
3280.433136459588
 20
2407.233310273386
 30
0.0
 11
3280.433136459588
 21
2390.233310273385
 31
0.0
  0
LINE
  5
7C7E
330
8498
100
AcDbEntity
  8
1
100
AcDbLine
 10
3339.93313645959
 20
2465.492343273385
 30
0.0
 11
3339.93313645959
 21
2390.233310273385
 31
0.0
  0
ARC
  5
7C7F
330
8498
100
AcDbEntity
  8
1
100
AcDbCircle
 10
3177.93313645959
 20
2570.233310273386
 30
0.0
 40
195.000046
100
AcDbArc
 50
307.9280089999999
 51
314.626373
  0
LINE
  5
7C80
330
8498
100
AcDbEntity
  8
1
100
AcDbLine
 10
3283.433136459589
 20
2410.233310273386
 30
0.0
 11
3336.933136459589
 21
2410.233310273386
 31
0.0
  0
ARC
  5
7C81
330
8498
100
AcDbEntity
  8
1
100
AcDbCircle
 10
3291.647248459588
 20
2424.308261273385
 30
0.0
 40
10.0
100
AcDbArc
 50
216.3789369999999
 51
307.927887
  0
LINE
  5
7C82
330
8498
100
AcDbEntity
  8
1
100
AcDbLine
 10
3288.757050459588
 20
2410.233310273386
 30
0.0
 11
3283.577301459589
 21
2418.363925273386
 31
0.0
  0
ARC
  5
7C83
330
8498
100
AcDbEntity
  8
1
100
AcDbCircle
 10
3283.433136459589
 20
2407.233310273386
 30
0.0
 40
3.0
100
AcDbArc
 50
90.0
 51
180.0
  0
ARC
  5
7C84
330
8498
100
AcDbEntity
  8
1
100
AcDbCircle
 10
3336.933136459589
 20
2407.233310273386
 30
0.0
 40
3.0
100
AcDbArc
 50
0.0
 51
90.0
  0
ARC
  5
7C85
330
8498
100
AcDbEntity
  8
1
100
AcDbCircle
 10
3307.892060459588
 20
2438.568271273386
 30
0.0
 40
9.999964
100
AcDbArc
 50
314.626862
 51
46.17515899999999
  0
LINE
  5
7C86
330
8498
100
AcDbEntity
  8
1
100
AcDbLine
 10
3315.033539459589
 20
2446.029086273385
 30
0.0
 11
3317.31832945959
 21
2443.834384273385
 31
0.0
  0
LINE
  5
7C87
330
8498
100
AcDbEntity
  8
1
100
AcDbLine
 10
3319.15957745959
 20
2450.733920273385
 30
0.0
 11
3321.444367459589
 21
2448.539218273385
 31
0.0
  0
ARC
  5
7C88
330
8498
100
AcDbEntity
  8
1
100
AcDbCircle
 10
3319.366120459588
 20
2446.375766273385
 30
0.0
 40
3.000064
100
AcDbArc
 50
318.7885129999999
 51
46.150757
  0
ARC
  5
7C89
330
8498
100
AcDbEntity
  8
1
100
AcDbCircle
 10
3177.933075459588
 20
2570.233310273386
 30
0.0
 40
191.0
100
AcDbArc
 50
318.709839
 51
318.790253
  0
ARC
  5
7C8A
330
8498
100
AcDbEntity
  8
1
100
AcDbCircle
 10
3319.192108459589
 20
2446.177279273385
 30
0.0
 40
3.000035
100
AcDbArc
 50
231.348206
 51
318.7093509999999
  0
ARC
  5
7C8B
330
8498
100
AcDbEntity
  8
1
100
AcDbCircle
 10
3334.32278545959
 20
2465.896029273386
 30
0.0
 40
2.999964999999999
100
AcDbArc
 50
326.287933
 51
53.64953599999999
  0
LINE
  5
7C8C
330
8498
100
AcDbEntity
  8
1
100
AcDbLine
 10
3329.91287345959
 20
2464.748080273387
 30
0.0
 11
3332.624176459589
 21
2463.109164273385
 31
0.0
  0
ARC
  5
7C8D
330
8498
100
AcDbEntity
  8
1
100
AcDbCircle
 10
3177.933075459588
 20
2570.233310273386
 30
0.0
 40
190.9999389999999
100
AcDbArc
 50
326.2098689999999
 51
326.2902829999999
  0
ARC
  5
7C8E
330
8498
100
AcDbEntity
  8
1
100
AcDbCircle
 10
3334.17617845959
 20
2465.676547273385
 30
0.0
 40
3.000027
100
AcDbArc
 50
238.846725
 51
326.209045
  0
LINE
  5
7C8F
330
8498
100
AcDbEntity
  8
1
100
AcDbLine
 10
3339.93313645959
 20
2465.492343273385
 30
0.0
 11
3333.549225459588
 21
2470.190097273386
 31
0.0
  0
LINE
  5
7C90
330
8498
100
AcDbEntity
  8
1
100
AcDbLine
 10
3402.933136459589
 20
2335.233310273386
 30
0.0
 11
2952.933136459589
 21
2335.233310273386
 31
0.0
  0
LINE
  5
7C91
330
8498
100
AcDbEntity
  8
1
100
AcDbLine
 10
3377.933136459589
 20
2335.233310273386
 30
0.0
 11
3377.933136459589
 21
2295.233310273386
 31
0.0
  0
LINE
  5
7C92
330
8498
100
AcDbEntity
  8
1
100
AcDbLine
 10
2977.933136459589
 20
2335.233310273386
 30
0.0
 11
2977.933136459589
 21
2295.233310273386
 31
0.0
  0
LINE
  5
7C93
330
8498
100
AcDbEntity
  8
1
100
AcDbLine
 10
3388.034674860711
 20
2390.233310273385
 30
0.0
 11
3247.93313645959
 21
2390.233310273385
 31
0.0
  0
LINE
  5
7C94
330
8498
100
AcDbEntity
  8
1
100
AcDbLine
 10
2952.933136459589
 20
2335.233310273386
 30
0.0
 11
2968.135453094101
 21
2390.233310273385
 31
0.0
  0
LINE
  5
7C95
330
8498
100
AcDbEntity
  8
1
100
AcDbLine
 10
3402.933136459589
 20
2335.233310273386
 30
0.0
 11
3388.034674860711
 21
2390.233310273385
 31
0.0
  0
LINE
  5
7C96
330
8498
100
AcDbEntity
  8
1
100
AcDbLine
 10
3247.93313645959
 20
2345.233310273385
 30
0.0
 11
3107.933136459589
 21
2345.233310273385
 31
0.0
  0
LINE
  5
7C97
330
8498
100
AcDbEntity
  8
1
100
AcDbLine
 10
3247.93313645959
 20
2380.233310273386
 30
0.0
 11
3107.933136459589
 21
2380.233310273386
 31
0.0
  0
LINE
  5
7C98
330
8498
100
AcDbEntity
  8
1
100
AcDbLine
 10
3247.93313645959
 20
2390.233310273385
 30
0.0
 11
3247.93313645959
 21
2380.233310273386
 31
0.0
  0
LINE
  5
7C99
330
8498
100
AcDbEntity
  8
1
100
AcDbLine
 10
3107.933136459589
 20
2390.233310273385
 30
0.0
 11
3107.933136459589
 21
2380.233310273386
 31
0.0
  0
LINE
  5
7C9A
330
8498
100
AcDbEntity
  8
1
100
AcDbLine
 10
3107.933136459589
 20
2390.233310273385
 30
0.0
 11
2968.135453094101
 21
2390.233310273385
 31
0.0
  0
LINE
  5
7C9B
330
8498
100
AcDbEntity
  8
1
100
AcDbLine
 10
3247.93313645959
 20
2345.233310273385
 30
0.0
 11
3247.93313645959
 21
2335.233310273386
 31
0.0
  0
LINE
  5
7C9C
330
8498
100
AcDbEntity
  8
1
100
AcDbLine
 10
3107.933136459589
 20
2345.233310273385
 30
0.0
 11
3107.933136459589
 21
2335.233310273386
 31
0.0
  0
POINT
  5
7CA6
330
8498
100
AcDbEntity
  8
1
100
AcDbPoint
 10
1557.933136459588
 20
2195.233310273386
 30
0.0
  0
CIRCLE
  5
7CA7
330
8498
100
AcDbEntity
  8
1
100
AcDbCircle
 10
3177.93313645959
 20
2570.233310273386
 30
0.0
 40
119.0
  0
LINE
  5
7CA8
330
8498
100
AcDbEntity
  8
1
100
AcDbLine
 10
5660.451960278471
 20
3331.233310273387
 30
0.0
 11
5660.451960278471
 21
2334.233310273386
 31
0.0
  0
LINE
  5
7CA9
330
8498
100
AcDbEntity
  8
1
100
AcDbLine
 10
4540.45196027847
 20
3938.233310273387
 30
0.0
 11
4540.45196027847
 21
3295.233310273387
 31
0.0
  0
LINE
  5
7CAA
330
8498
100
AcDbEntity
  8
1
100
AcDbLine
 10
5100.451960278467
 20
3938.233310273387
 30
0.0
 11
4540.45196027847
 21
3938.233310273387
 31
0.0
  0
LINE
  5
7CAB
330
8498
100
AcDbEntity
  8
1
100
AcDbLine
 10
4540.45196027847
 20
3295.233310273387
 30
0.0
 11
4540.45196027847
 21
2752.733310273387
 31
0.0
  0
LINE
  5
7CAC
330
8498
100
AcDbEntity
  8
1
100
AcDbLine
 10
4412.451960278469
 20
3269.433310273386
 30
0.0
 11
4488.15196027847
 21
3269.433310273386
 31
0.0
  0
LINE
  5
7CAD
330
8498
100
AcDbEntity
  8
1
100
AcDbLine
 10
4412.451960278469
 20
3119.433310273386
 30
0.0
 11
4488.15196027847
 21
3119.433310273386
 31
0.0
  0
LINE
  5
7CAE
330
8498
100
AcDbEntity
  8
1
100
AcDbLine
 10
4402.451960278469
 20
3259.433310273386
 30
0.0
 11
4402.451960278471
 21
3129.433310273386
 31
0.0
  0
LINE
  5
7CAF
330
8498
100
AcDbEntity
  8
1
100
AcDbLine
 10
4527.451960278468
 20
3269.433310273386
 30
0.0
 11
4527.451960278469
 21
3119.433310273386
 31
0.0
  0
ARC
  5
7CB0
330
8498
100
AcDbEntity
  8
1
100
AcDbCircle
 10
4412.451960278469
 20
3259.433310273386
 30
0.0
 40
10.0
100
AcDbArc
 50
90.0
 51
180.0000000000003
  0
ARC
  5
7CB1
330
8498
100
AcDbEntity
  8
1
100
AcDbCircle
 10
4412.451960278469
 20
3129.433310273386
 30
0.0
 40
10.0
100
AcDbArc
 50
180.0000000000003
 51
270.0
  0
LINE
  5
7CB2
330
8498
100
AcDbEntity
  8
1
100
AcDbLine
 10
4488.15196027847
 20
3119.433310273386
 30
0.0
 11
4527.451960278469
 21
3119.433310273386
 31
0.0
  0
LINE
  5
7CB3
330
8498
100
AcDbEntity
  8
1
100
AcDbLine
 10
4488.15196027847
 20
3269.433310273386
 30
0.0
 11
4527.451960278469
 21
3269.433310273386
 31
0.0
  0
LINE
  5
7CB4
330
8498
100
AcDbEntity
  8
1
100
AcDbLine
 10
5780.451960278468
 20
3255.733310273387
 30
0.0
 11
5780.451960278469
 21
3155.733310273387
 31
0.0
  0
LINE
  5
7CB5
330
8498
100
AcDbEntity
  8
1
100
AcDbLine
 10
5679.95196027847
 20
3265.733310273386
 30
0.0
 11
5679.95196027847
 21
3145.733310273387
 31
0.0
  0
LINE
  5
7CB6
330
8498
100
AcDbEntity
  8
1
100
AcDbLine
 10
5679.95196027847
 20
3265.733310273386
 30
0.0
 11
5712.751960278469
 21
3265.733310273386
 31
0.0
  0
LINE
  5
7CB7
330
8498
100
AcDbEntity
  8
1
100
AcDbLine
 10
5679.95196027847
 20
3145.733310273387
 30
0.0
 11
5712.751960278469
 21
3145.733310273387
 31
0.0
  0
ARC
  5
7CB8
330
8498
100
AcDbEntity
  8
1
100
AcDbCircle
 10
5770.451960278469
 20
3255.733310273387
 30
0.0
 40
10.0
100
AcDbArc
 50
0.0000000000003257
 51
90.0
  0
ARC
  5
7CB9
330
8498
100
AcDbEntity
  8
1
100
AcDbCircle
 10
5770.451960278469
 20
3155.733310273387
 30
0.0
 40
10.0
100
AcDbArc
 50
270.0
 51
0.0000000000003257
  0
LINE
  5
7CBA
330
8498
100
AcDbEntity
  8
1
100
AcDbLine
 10
5712.751960278469
 20
3145.733310273387
 30
0.0
 11
5770.451960278469
 21
3145.733310273387
 31
0.0
  0
LINE
  5
7CBB
330
8498
100
AcDbEntity
  8
1
100
AcDbLine
 10
5712.751960278469
 20
3265.733310273386
 30
0.0
 11
5770.451960278469
 21
3265.733310273386
 31
0.0
  0
LINE
  5
7CBC
330
8498
100
AcDbEntity
  8
1
100
AcDbLine
 10
4387.451960278469
 20
3325.233310273386
 30
0.0
 11
4387.451960278469
 21
3265.233310273386
 31
0.0
  0
LINE
  5
7CBD
330
8498
100
AcDbEntity
  8
1
100
AcDbLine
 10
4382.451960278469
 20
3322.733310273387
 30
0.0
 11
4387.451960278469
 21
3322.733310273387
 31
0.0
  0
LINE
  5
7CBE
330
8498
100
AcDbEntity
  8
1
100
AcDbLine
 10
4382.451960278469
 20
3267.733310273387
 30
0.0
 11
4387.451960278469
 21
3267.733310273387
 31
0.0
  0
LINE
  5
7CBF
330
8498
100
AcDbEntity
  8
1
100
AcDbLine
 10
4272.451960278471
 20
3498.433310273386
 30
0.0
 11
4272.451960278462
 21
2451.233310273386
 31
0.0
  0
LINE
  5
7CC0
330
8498
100
AcDbEntity
  8
1
100
AcDbLine
 10
4382.451960278471
 20
3498.433310273386
 30
0.0
 11
4382.451960278461
 21
2451.233310273386
 31
0.0
  0
LINE
  5
7CC1
330
8498
100
AcDbEntity
  8
2
100
AcDbLine
 10
4239.807867811138
 20
2570.233310273386
 30
0.0
 11
5012.747042523489
 21
2570.233310273386
 31
0.0
  0
LINE
  5
7CC2
330
8498
100
AcDbEntity
  8
1
100
AcDbLine
 10
4272.451960278466
 20
2689.233310273386
 30
0.0
 11
4382.451960278467
 21
2689.233310273386
 31
0.0
  0
LINE
  5
7CC3
330
8498
100
AcDbEntity
  8
1
100
AcDbLine
 10
4272.451960278464
 20
2451.233310273386
 30
0.0
 11
4382.451960278466
 21
2451.233310273386
 31
0.0
  0
LINE
  5
7CC4
330
8498
100
AcDbEntity
  8
1
100
AcDbLine
 10
4150.451960278467
 20
3575.233310273386
 30
0.0
 11
4150.451960278474
 21
2350.233310273386
 31
0.0
  0
LINE
  5
7CC5
330
8498
100
AcDbEntity
  8
1
100
AcDbLine
 10
4150.451960278473
 20
2350.233310273386
 30
0.0
 11
4402.451960278471
 21
2350.233310273386
 31
0.0
  0
LINE
  5
7CC6
330
8498
100
AcDbEntity
  8
1
100
AcDbLine
 10
4402.451960278464
 20
3575.233310273386
 30
0.0
 11
4402.451960278464
 21
3555.233310273387
 31
0.0
  0
LINE
  5
7CC7
330
8498
100
AcDbEntity
  8
1
100
AcDbLine
 10
4402.451960278471
 20
2370.233310273385
 30
0.0
 11
4402.451960278471
 21
2350.233310273386
 31
0.0
  0
POINT
  5
7CC8
330
8498
100
AcDbEntity
  8
1
100
AcDbPoint
 10
5780.451960278469
 20
3255.733310273387
 30
0.0
  0
LINE
  5
7CC9
330
8498
100
AcDbEntity
  8
2
100
AcDbLine
 10
3587.805063824493
 20
5825.314780538587
 30
0.0
 11
1444.571058746591
 21
5825.314780538585
 31
0.0
  0
LINE
  5
7CCA
330
8498
100
AcDbEntity
  8
2
100
AcDbLine
 10
2117.933136459587
 20
4824.056071784298
 30
0.0
 11
2117.933136459587
 21
6359.823163409912
 31
0.0
  0
INSERT
  5
7CCB
330
8498
100
AcDbEntity
  8
0
100
AcDbBlockReference
  2
YA_N
 10
1902.396177633552
 20
-2784.746590060132
 30
0.0
  0
LINE
  5
7CCD
330
8498
100
AcDbEntity
  8
1
100
AcDbLine
 10
5713.451960278469
 20
2200.764815344053
 30
0.0
 11
5713.451960278469
 21
2195.233310273386
 31
0.0
  0
LINE
  5
7CD3
330
8498
100
AcDbEntity
  8
1
100
AcDbLine
 10
4387.451960278469
 20
3325.233310273386
 30
0.0
 11
4540.45196027847
 21
3325.233310273386
 31
0.0
  0
LINE
  5
7CD4
330
8498
100
AcDbEntity
  8
1
100
AcDbLine
 10
4387.451960278469
 20
3265.233310273386
 30
0.0
 11
4404.305795536703
 21
3265.233310273386
 31
0.0
  0
POINT
  5
7CDC
330
8498
100
AcDbEntity
  8
1
100
AcDbPoint
 10
1557.933136459587
 20
2195.233310273386
 30
0.0
  0
ARC
  5
7CDD
330
8498
100
AcDbEntity
  8
1
100
AcDbCircle
 10
2117.933136459589
 20
3295.233310273387
 30
0.0
 40
536.0
100
AcDbArc
 50
180.0
 51
183.8511231264977
  0
CIRCLE
  5
7CDE
330
8498
100
AcDbEntity
  8
1
100
AcDbCircle
 10
2117.933136459589
 20
3295.233310273387
 30
0.0
 40
203.2
  0
ARC
  5
7CDF
330
8498
100
AcDbEntity
  8
1
100
AcDbCircle
 10
2117.933136459589
 20
3295.233310273387
 30
0.0
 40
280.0
100
AcDbArc
 50
52.10582818780475
 51
238.3072308858714
  0
ARC
  5
7CE0
330
8498
100
AcDbEntity
  8
1
100
AcDbCircle
 10
3177.93313645959
 20
2570.233310273386
 30
0.0
 40
220.0
100
AcDbArc
 50
238.3072308858714
 51
52.95145926358628
  0
LINE
  5
7CE1
330
8498
100
AcDbEntity
  8
1
100
AcDbLine
 10
4272.451960278471
 20
3498.433310273386
 30
0.0
 11
4382.451960278471
 21
3498.433310273386
 31
0.0
  0
LINE
  5
7CE2
330
8498
100
AcDbEntity
  8
1
100
AcDbLine
 10
4272.451960278466
 20
3092.033310273386
 30
0.0
 11
4382.451960278467
 21
3092.033310273386
 31
0.0
  0
LINE
  5
7CE3
330
8498
100
AcDbEntity
  8
1
100
AcDbLine
 10
4150.451960278467
 20
3575.233310273386
 30
0.0
 11
4402.451960278464
 21
3575.233310273386
 31
0.0
  0
LINE
  5
7CE8
330
8498
100
AcDbEntity
  8
1
100
AcDbLine
 10
2677.933136459587
 20
6438.314780538586
 30
0.0
 11
1557.933136459588
 21
6438.314780538584
 31
0.0
  0
LINE
  5
7CE9
330
8498
100
AcDbEntity
  8
1
100
AcDbLine
 10
3427.933136459587
 20
5063.314780538585
 30
0.0
 11
1557.933136459588
 21
5063.314780538585
 31
0.0
  0
LINE
  5
7CEA
330
8498
100
AcDbEntity
  8
1
100
AcDbLine
 10
1557.933136459587
 20
5063.314780538585
 30
0.0
 11
1557.933136459587
 21
5265.314780538585
 31
0.0
  0
LINE
  5
7CEB
330
8498
100
AcDbEntity
  8
1
100
AcDbLine
 10
2677.933136459587
 20
6385.314780538585
 30
0.0
 11
2677.933136459587
 21
6438.314780538584
 31
0.0
  0
LINE
  5
7CEC
330
8498
100
AcDbEntity
  8
1
100
AcDbLine
 10
3427.933136459587
 20
5063.314780538586
 30
0.0
 11
3427.933136459587
 21
5863.314780538586
 31
0.0
  0
LINE
  5
7CED
330
8498
100
AcDbEntity
  8
1
100
AcDbLine
 10
3427.933136459587
 20
5863.314780538585
 30
0.0
 11
2894.933136459587
 21
5863.314780538586
 31
0.0
  0
LINE
  5
7CEE
330
8498
100
AcDbEntity
  8
2
  6
CENTER
100
AcDbLine
 10
3177.933136459587
 20
4750.739240359737
 30
0.0
 11
3177.933136459587
 21
5655.413123104796
 31
0.0
  0
CIRCLE
  5
7CF5
330
8498
100
AcDbEntity
  8
1
100
AcDbCircle
 10
2117.933136459589
 20
3295.233310273387
 30
0.0
 40
475.0
  0
CIRCLE
  5
7CF6
330
8498
100
AcDbEntity
  8
1
100
AcDbCircle
 10
2117.933136459589
 20
3295.233310273387
 30
0.0
 40
515.0
  0
LINE
  5
7CF8
330
8498
100
AcDbEntity
  8
1
100
AcDbLine
 10
3397.933136459589
 20
4875.314780538587
 30
0.0
 11
1837.933136459589
 21
4875.314780538585
 31
0.0
  0
LINE
  5
7CF9
330
8498
100
AcDbEntity
  8
1
100
AcDbLine
 10
3397.933136459589
 20
5165.314780538587
 30
0.0
 11
1837.933136459589
 21
5165.314780538587
 31
0.0
  0
LINE
  5
7CFA
330
8498
100
AcDbEntity
  8
1
100
AcDbLine
 10
3296.933136459589
 20
5035.314780538588
 30
0.0
 11
3058.933136459589
 21
5035.314780538588
 31
0.0
  0
LINE
  5
7CFB
330
8498
100
AcDbEntity
  8
1
100
AcDbLine
 10
3296.933136459589
 20
5145.314780538587
 30
0.0
 11
3058.933136459589
 21
5145.314780538587
 31
0.0
  0
LINE
  5
7CFC
330
8498
100
AcDbEntity
  8
1
100
AcDbLine
 10
1837.933136459589
 20
4875.314780538585
 30
0.0
 11
1837.933136459589
 21
5165.314780538587
 31
0.0
  0
LINE
  5
7CFD
330
8498
100
AcDbEntity
  8
1
100
AcDbLine
 10
3397.933136459589
 20
4875.314780538587
 30
0.0
 11
3397.933136459589
 21
5165.314780538587
 31
0.0
  0
LINE
  5
7CFE
330
8498
100
AcDbEntity
  8
1
100
AcDbLine
 10
1914.733136459588
 20
5035.314780538585
 30
0.0
 11
1914.733136459588
 21
5145.314780538585
 31
0.0
  0
LINE
  5
7CFF
330
8498
100
AcDbEntity
  8
1
100
AcDbLine
 10
2321.133136459589
 20
5035.314780538585
 30
0.0
 11
2321.133136459589
 21
5145.314780538585
 31
0.0
  0
LINE
  5
7D00
330
8498
100
AcDbEntity
  8
1
100
AcDbLine
 10
3058.933136459589
 20
5035.314780538585
 30
0.0
 11
3058.933136459589
 21
5145.314780538587
 31
0.0
  0
LINE
  5
7D01
330
8498
100
AcDbEntity
  8
1
100
AcDbLine
 10
3296.933136459589
 20
5035.314780538588
 30
0.0
 11
3296.933136459589
 21
5145.314780538587
 31
0.0
  0
LINE
  5
7D02
330
8498
100
AcDbEntity
  8
1
100
AcDbLine
 10
2321.133136459589
 20
5145.314780538585
 30
0.0
 11
1914.733136459588
 21
5145.314780538585
 31
0.0
  0
LINE
  5
7D03
330
8498
100
AcDbEntity
  8
1
100
AcDbLine
 10
2321.133136459589
 20
5035.314780538586
 30
0.0
 11
1914.733136459588
 21
5035.314780538585
 31
0.0
  0
LINE
  5
7D04
330
8498
100
AcDbEntity
  8
1
100
AcDbLine
 10
1497.933136459587
 20
5225.314780538585
 30
0.0
 11
1497.933136459587
 21
6425.314780538585
 31
0.0
  0
LINE
  5
7D05
330
8498
100
AcDbEntity
  8
1
100
AcDbLine
 10
2894.933136459587
 20
5265.314780538585
 30
0.0
 11
2894.933136459587
 21
6385.314780538585
 31
0.0
  0
LINE
  5
7D06
330
8498
100
AcDbEntity
  8
1
100
AcDbLine
 10
2894.933136459587
 20
6385.314780538585
 30
0.0
 11
1497.933136459587
 21
6385.314780538585
 31
0.0
  0
LINE
  5
7D07
330
8498
100
AcDbEntity
  8
1
100
AcDbLine
 10
2894.933136459587
 20
5265.314780538585
 30
0.0
 11
1497.933136459587
 21
5265.314780538585
 31
0.0
  0
LINE
  5
7D08
330
8498
100
AcDbEntity
  8
1
100
AcDbLine
 10
3360.433136459587
 20
5711.814780538586
 30
0.0
 11
2995.433136459587
 21
5711.814780538588
 31
0.0
  0
LINE
  5
7D09
330
8498
100
AcDbEntity
  8
1
100
AcDbLine
 10
2995.433136459587
 20
5150.314780538587
 30
0.0
 11
2995.433136459587
 21
5711.814780538586
 31
0.0
  0
LINE
  5
7D0A
330
8498
100
AcDbEntity
  8
1
100
AcDbLine
 10
3360.433136459587
 20
5150.314780538587
 30
0.0
 11
3360.433136459587
 21
5711.814780538586
 31
0.0
  0
LINE
  5
7D0B
330
8498
100
AcDbEntity
  8
1
100
AcDbLine
 10
3360.433136459587
 20
5150.314780538587
 30
0.0
 11
2995.433136459587
 21
5150.314780538588
 31
0.0
  0
LINE
  5
7D0C
330
8498
100
AcDbEntity
  8
1
100
AcDbLine
 10
3153.933136459587
 20
5145.314780538587
 30
0.0
 11
3153.933136459587
 21
5150.314780538587
 31
0.0
  0
LINE
  5
7D0D
330
8498
100
AcDbEntity
  8
1
100
AcDbLine
 10
3201.933136459587
 20
5145.314780538587
 30
0.0
 11
3201.933136459587
 21
5150.314780538587
 31
0.0
  0
LINE
  5
7D0E
330
8498
100
AcDbEntity
  8
1
100
AcDbLine
 10
2087.933136459587
 20
5145.314780538585
 30
0.0
 11
2087.933136459587
 21
5265.314780538585
 31
0.0
  0
LINE
  5
7D0F
330
8498
100
AcDbEntity
  8
1
100
AcDbLine
 10
2147.933136459587
 20
5145.314780538585
 30
0.0
 11
2147.933136459587
 21
5265.314780538585
 31
0.0
  0
LINE
  5
7D10
330
8498
100
AcDbEntity
  8
1
100
AcDbLine
 10
4387.451960278466
 20
2752.733310273387
 30
0.0
 11
4948.951960278466
 21
2752.733310273387
 31
0.0
  0
LINE
  5
7D11
330
8498
100
AcDbEntity
  8
1
100
AcDbLine
 10
4387.451960278466
 20
2387.733310273388
 30
0.0
 11
4948.951960278466
 21
2387.733310273388
 31
0.0
  0
LINE
  5
7D12
330
8498
100
AcDbEntity
  8
1
100
AcDbLine
 10
4387.451960278466
 20
2752.733310273387
 30
0.0
 11
4387.451960278466
 21
2387.733310273388
 31
0.0
  0
LINE
  5
7D13
330
8498
100
AcDbEntity
  8
1
100
AcDbLine
 10
4382.451960278467
 20
2594.233310273386
 30
0.0
 11
4387.451960278466
 21
2594.233310273386
 31
0.0
  0
LINE
  5
7D14
330
8498
100
AcDbEntity
  8
1
100
AcDbLine
 10
4382.451960278467
 20
2546.233310273386
 30
0.0
 11
4387.451960278466
 21
2546.233310273386
 31
0.0
  0
LINE
  5
7D1B
330
8498
100
AcDbEntity
  8
1
100
AcDbLine
 10
1557.933136459587
 20
6385.314780538585
 30
0.0
 11
1557.933136459587
 21
6438.314780538584
 31
0.0
  0
LINE
  5
7D1C
330
8498
100
AcDbEntity
  8
1
100
AcDbLine
 10
2286.6307306002
 20
3518.708413430694
 30
0.0
 11
3310.481246141498
 21
2745.820891325557
 31
0.0
  0
LINE
  5
7D1D
330
8498
100
AcDbEntity
  8
1
100
AcDbLine
 10
1970.831140251339
 20
3056.987633058566
 30
0.0
 11
3062.35299658168
 21
2383.040278176027
 31
0.0
  0
LINE
  5
7D1E
330
8498
100
AcDbEntity
  8
1
100
AcDbLine
 10
2243.398395787174
 20
3455.072944600614
 30
0.0
 11
3251.409346400448
 21
2663.840182738642
 31
0.0
  0
LINE
  5
7D1F
330
8498
100
AcDbEntity
  8
1
100
AcDbLine
 10
2014.461245411044
 20
3120.351041981721
 30
0.0
 11
3117.336901052222
 21
2467.817021263995
 31
0.0
  0
LINE
  5
7D2B
330
8498
100
AcDbEntity
  8
1
100
AcDbLine
 10
1500.933136459587
 20
6425.314780538585
 30
0.0
 11
1497.933136459587
 21
6425.314780538585
 31
0.0
  0
LINE
  5
7D2C
330
8498
100
AcDbEntity
  8
1
100
AcDbLine
 10
1500.933136459587
 20
5225.314780538585
 30
0.0
 11
1497.933136459587
 21
5225.314780538585
 31
0.0
  0
LINE
  5
7D2D
330
8498
100
AcDbEntity
  8
1
100
AcDbLine
 10
1500.933136459587
 20
5225.314780538585
 30
0.0
 11
1500.933136459587
 21
6425.314780538585
 31
0.0
  0
LINE
  5
7D2E
330
8498
100
AcDbEntity
  8
1
100
AcDbLine
 10
4948.951960278466
 20
2752.733310273387
 30
0.0
 11
4948.951960278466
 21
2387.733310273388
 31
0.0
  0
LINE
  5
7D2F
330
8498
100
AcDbEntity
  8
1
100
AcDbLine
 10
4892.41021829445
 20
2387.733310273388
 30
0.0
 11
4892.41021829445
 21
2295.233310273386
 31
0.0
  0
LINE
  5
7D30
330
8498
100
AcDbEntity
  8
1
100
AcDbLine
 10
4466.356997918636
 20
2387.733310273388
 30
0.0
 11
4466.356997918636
 21
2295.233310273386
 31
0.0
  0
LINE
  5
7D31
330
8498
100
AcDbEntity
  8
1
100
AcDbLine
 10
4466.356997918636
 20
2335.233310273386
 30
0.0
 11
4892.41021829445
 21
2335.233310273386
 31
0.0
  0
LINE
  5
7F73
330
8498
100
AcDbEntity
  8
4
100
AcDbLine
 10
5550.0
 20
1500.0
 30
0.0
 11
5550.0
 21
900.0
 31
0.0
  0
LINE
  5
7F74
330
8498
100
AcDbEntity
  8
4
100
AcDbLine
 10
3450.0
 20
1500.0
 30
0.0
 11
3450.0
 21
900.0
 31
0.0
  0
LINE
  5
7F75
330
8498
100
AcDbEntity
  8
4
100
AcDbLine
 10
1950.0
 20
1500.0
 30
0.0
 11
1950.0
 21
900.0
 31
0.0
  0
LINE
  5
7F78
330
8498
100
AcDbEntity
  8
4
100
AcDbLine
 10
1950.0
 20
900.0
 30
0.0
 11
5550.0
 21
900.0
 31
0.0
  0
LINE
  5
7F79
330
8498
100
AcDbEntity
  8
4
100
AcDbLine
 10
1950.0
 20
1200.0
 30
0.0
 11
5550.0
 21
1200.0
 31
0.0
  0
TEXT
  5
7F7A
330
8498
100
AcDbEntity
  8
4
100
AcDbText
 10
2065.506242540704
 20
1294.629077599838
 30
0.0
 40
150.0
  1
機器名称
100
AcDbText
  0
TEXT
  5
7F7B
330
8498
100
AcDbEntity
  8
4
100
AcDbText
 10
2058.774318074392
 20
964.9354701960326
 30
0.0
 40
150.0
  1
機器型番
100
AcDbText
  0
TEXT
  5
7F7C
330
8498
100
AcDbEntity
  8
4
100
AcDbText
 10
3533.036236462995
 20
1267.715306872705
 30
0.0
 40
150.0
  1
ミツヤ多翼送風機
100
AcDbText
  0
TEXT
  5
7F7D
330
8498
100
AcDbEntity
  8
4
100
AcDbText
 10
3559.963486756442
 20
951.4787528398301
 30
0.0
 40
150.0
  1
MF#5 1/2-5
100
AcDbText
  0
TEXT
  5
7F7F
330
8498
100
AcDbEntity
  8
4
100
AcDbText
 10
2350.007139395115
 20
7150.286523997547
 30
0.0
 40
161.9999999999998
  1
床置ベット
100
AcDbText
  0
TEXT
  5
7F80
330
8498
100
AcDbEntity
  8
4
100
AcDbText
 10
948.5027799883393
 20
7601.642928597894
 30
0.0
 40
216.0
  1
遠心式両吸込両持多翼ファン
100
AcDbText
  0
LINE
  5
7F81
330
8498
100
AcDbEntity
  8
4
100
AcDbLine
 10
750.0
 20
7408.226262794413
 30
0.0
 11
5550.0
 21
7408.226262794413
 31
0.0
  0
LINE
  5
7F82
330
8498
100
AcDbEntity
  8
4
100
AcDbLine
 10
750.0
 20
8008.226262794414
 30
0.0
 11
5550.0
 21
8008.226262794414
 31
0.0
  0
LINE
  5
7F83
330
8498
100
AcDbEntity
  8
4
100
AcDbLine
 10
1950.0
 20
1500.0
 30
0.0
 11
5550.0
 21
1500.0
 31
0.0
  0
LINE
  5
7F84
330
8498
100
AcDbEntity
  8
4
100
AcDbLine
 10
750.0
 20
8008.226262794414
 30
0.0
 11
750.0
 21
7408.226262794413
 31
0.0
  0
TEXT
  5
7F85
330
8498
100
AcDbEntity
  8
4
100
AcDbText
 10
1042.430642667008
 20
7146.958432639029
 30
0.0
 40
161.9999999999998
  1
右回転左横向
100
AcDbText
  0
TEXT
  5
7F86
330
8498
100
AcDbEntity
  8
4
100
AcDbText
 10
4406.908677747869
 20
8118.183244485924
 30
0.0
 40
168.0
  1
No.
100
AcDbText
  0
TEXT
  5
7F87
330
8498
100
AcDbEntity
  8
4
100
AcDbText
 10
3933.888187800039
 20
7150.286523997547
 30
0.0
 40
161.9999999999998
  1
縮尺：1/30
100
AcDbText
  0
LINE
  5
7F88
330
8498
100
AcDbEntity
  8
4
100
AcDbLine
 10
5550.0
 20
8008.226262794414
 30
0.0
 11
5550.0
 21
7408.226262794413
 31
0.0
  0
LINE
  5
7F89
330
8498
100
AcDbEntity
  8
4
100
AcDbLine
 10
6300.0
 20
8850.0
 30
0.0
 11
6300.0
 21
8850.0
 31
0.0
  0
LINE
  5
7F8A
330
8498
100
AcDbEntity
  8
4
100
AcDbLine
 10
4321.852267079594
 20
8043.790749376205
 30
0.0
 11
4321.852267079594
 21
8359.956784649257
 31
0.0
  0
LINE
  5
7F8B
330
8498
100
AcDbEntity
  8
4
100
AcDbLine
 10
4321.852267079594
 20
8359.956784649257
 30
0.0
 11
5550.0
 21
8359.956784649257
 31
0.0
  0
LINE
  5
7F8C
330
8498
100
AcDbEntity
  8
4
100
AcDbLine
 10
5550.0
 20
8359.956784649257
 30
0.0
 11
5550.0
 21
8043.790749376205
 31
0.0
  0
LINE
  5
7F8D
330
8498
100
AcDbEntity
  8
4
100
AcDbLine
 10
5550.0
 20
8043.790749376205
 30
0.0
 11
4321.852267079594
 21
8043.790749376205
 31
0.0
  0
LINE
  5
7F8E
330
8498
100
AcDbEntity
  8
4
100
AcDbLine
 10
0.0
 20
0.0
 30
0.0
 11
0.0
 21
8850.0
 31
0.0
  0
LINE
  5
7F8F
330
8498
100
AcDbEntity
  8
4
100
AcDbLine
 10
0.0
 20
8850.0
 30
0.0
 11
6300.0
 21
8850.0
 31
0.0
  0
LINE
  5
7F90
330
8498
100
AcDbEntity
  8
4
100
AcDbLine
 10
6300.0
 20
8850.0
 30
0.0
 11
6300.0
 21
0.0
 31
0.0
  0
LINE
  5
7F91
330
8498
100
AcDbEntity
  8
4
100
AcDbLine
 10
6300.0
 20
0.0
 30
0.0
 11
0.0
 21
0.0
 31
0.0
  0
LINE
  5
8251
330
8498
100
AcDbEntity
  8
1
100
AcDbLine
 10
5660.451960278471
 20
2334.233310273386
 30
0.0
 11
4892.41021829445
 21
2334.233310273386
 31
0.0
  0
DIMENSION
  5
8277
330
8498
100
AcDbEntity
  8
3
100
AcDbDimension
  2
*D22
 10
2117.933136459588
 20
2011.448739188665
 30
0.0
 11
1837.933136459589
 21
2086.448739188665
 31
0.0
 71
     5
 42
-1.0
  3
Standard
100
AcDbAlignedDimension
 13
1557.933136459588
 23
2195.233310273386
 33
0.0
 14
2117.933136459588
 24
2195.233310273386
 34
0.0
100
AcDbRotatedDimension
1001
ACAD
1000
DSTYLE
1002
{
1070
   172
1070
     1
1070
    40
1040
30.0
1070
    42
1040
1.0
1070
   271
1070
     0
1070
   143
1040
0.039
1002
}
  0
DIMENSION
  5
8284
330
8498
100
AcDbEntity
  8
3
100
AcDbDimension
  2
*D23
 10
3427.933136459587
 20
2011.448739188665
 30
0.0
 11
2772.933136459588
 21
2086.448739188665
 31
0.0
 71
     5
 42
-1.0
  3
Standard
100
AcDbAlignedDimension
 13
2117.933136459588
 23
2195.233310273386
 33
0.0
 14
3427.933136459587
 24
2195.233310273386
 34
0.0
100
AcDbRotatedDimension
1001
ACAD
1000
DSTYLE
1002
{
1070
   172
1070
     1
1070
    40
1040
30.0
1070
    42
1040
1.0
1070
   271
1070
     0
1070
   143
1040
0.039
1002
}
  0
DIMENSION
  5
8291
330
8498
100
AcDbEntity
  8
3
100
AcDbDimension
  2
*D24
 10
5100.451960278469
 20
2011.448739188665
 30
0.0
 11
4719.451960278465
 21
2086.448739188665
 31
0.0
 71
     5
 42
-1.0
  3
Standard
100
AcDbAlignedDimension
 13
4338.451960278461
 23
2195.233310273386
 33
0.0
 14
5100.451960278469
 24
2195.233310273386
 34
0.0
100
AcDbRotatedDimension
1001
ACAD
1000
DSTYLE
1002
{
1070
   172
1070
     1
1070
    40
1040
30.0
1070
    42
1040
1.0
1070
   271
1070
     0
1070
   143
1040
0.039
1002
}
  0
DIMENSION
  5
829E
330
8498
100
AcDbEntity
  8
3
100
AcDbDimension
  2
*D25
 10
5713.45196027848
 20
2011.448739188665
 30
0.0
 11
5406.951960278473
 21
2086.448739188665
 31
0.0
 71
     5
 42
-1.0
  3
Standard
100
AcDbAlignedDimension
 13
5100.451960278469
 23
2195.233310273386
 33
0.0
 14
5713.45196027848
 24
2195.233310273386
 34
0.0
100
AcDbRotatedDimension
1001
ACAD
1000
DSTYLE
1002
{
1070
   172
1070
     1
1070
    40
1040
30.0
1070
    42
1040
1.0
1070
   271
1070
     0
1070
   143
1040
0.039
1002
}
  0
DIMENSION
  5
82AB
330
8498
100
AcDbEntity
  8
3
100
AcDbDimension
  2
*D26
 10
809.2942118000244
 20
3938.233310273387
 30
0.0
 11
734.2942118000244
 21
3066.733310273387
 31
0.0
 71
     5
 42
-1.0
  3
Standard
100
AcDbAlignedDimension
 13
1557.933136459588
 23
2195.233310273386
 33
0.0
 14
2169.933136459589
 24
3938.233310273387
 34
0.0
 50
90.0
100
AcDbRotatedDimension
1001
ACAD
1000
DSTYLE
1002
{
1070
   172
1070
     1
1070
    40
1040
30.0
1070
    42
1040
1.0
1070
   271
1070
     0
1070
   143
1040
0.039
1002
}
  0
DIMENSION
  5
84DE
330
8498
100
AcDbEntity
  8
3
100
AcDbDimension
  2
*D27
 10
5100.451960278469
 20
4454.626208584919
 30
0.0
 11
4625.451960278468
 21
4553.197637156348
 31
0.0
 70
    32
  1
(<>)
 71
     5
 42
950.0000000000017
  3
IGA
100
AcDbAlignedDimension
 13
4150.451960278467
 23
3575.233310273386
 33
0.0
 14
5100.451960278469
 24
4284.797925133574
 34
0.0
100
AcDbRotatedDimension
1001
ACAD
1000
DSTYLE
1002
{
1070
    40
1040
30.0
1070
    42
1040
1.0
1070
   143
1040
0.039
1070
   172
1070
     1
1070
   271
1070
     4
1070
   272
1070
     4
1070
   279
1070
     0
1070
   284
1070
     0
1070
   285
1070
     0
1070
   286
1070
     0
1070
   341
1005
84AB
1070
   343
1005
84AB
1070
   344
1005
84AB
1002
}
  0
DIMENSION
  5
84EB
330
8498
100
AcDbEntity
  8
3
100
AcDbDimension
  2
*D28
 10
5780.451960278468
 20
4454.626208584919
 30
0.0
 11
5440.451960278469
 21
4553.197637156348
 31
0.0
 70
    32
  1
(<>)
 71
     5
 42
679.9999999999982
  3
IGA
100
AcDbAlignedDimension
 13
5100.451960278469
 23
4284.797925133574
 33
0.0
 14
5780.451960278468
 24
3255.733310273387
 34
0.0
100
AcDbRotatedDimension
1001
ACAD
1000
DSTYLE
1002
{
1070
    40
1040
30.0
1070
    42
1040
1.0
1070
   143
1040
0.039
1070
   172
1070
     1
1070
   271
1070
     4
1070
   272
1070
     4
1070
   279
1070
     1
1070
   284
1070
     0
1070
   285
1070
     0
1070
   286
1070
     0
1070
   341
1005
84AB
1070
   343
1005
84AB
1070
   344
1005
84AB
1002
}
  0
DIMENSION
  5
84F8
330
8498
100
AcDbEntity
  8
3
100
AcDbDimension
  2
*D29
 10
5660.451960278471
 20
4131.425263807012
 30
0.0
 11
5100.451960278469
 21
4206.425263807012
 31
0.0
 70
    32
 71
     5
 42
1120.000000000001
  3
IGA
100
AcDbAlignedDimension
 13
4540.45196027847
 23
3938.233310273387
 33
0.0
 14
5660.451960278471
 24
3938.233310273387
 34
0.0
100
AcDbRotatedDimension
1001
ACAD
1000
DSTYLE
1002
{
1070
    40
1040
30.0
1070
    42
1040
1.0
1070
   143
1040
0.039
1070
   172
1070
     1
1070
   271
1070
     4
1070
   272
1070
     4
1070
   279
1070
     0
1070
   284
1070
     0
1070
   285
1070
     0
1070
   286
1070
     0
1070
   341
1005
84AB
1070
   343
1005
84AB
1070
   344
1005
84AB
1002
}
  0
DIMENSION
  5
8509
330
8498
100
AcDbEntity
  8
3
100
AcDbDimension
  2
*D30
 10
5980.736962217211
 20
2820.233310273387
 30
0.0
 11
5905.736962217211
 21
3295.233310273388
 31
0.0
 70
    32
  1
\U+03C6<>
 71
     5
 42
950.0
  3
IGA
100
AcDbAlignedDimension
 13
5660.451960278471
 23
3770.233310273387
 33
0.0
 14
5660.451960278471
 24
2820.233310273387
 34
0.0
 50
90.0
100
AcDbRotatedDimension
1001
ACAD
1000
DSTYLE
1002
{
1070
    40
1040
30.0
1070
    42
1040
1.0
1070
   143
1040
0.039
1070
   172
1070
     1
1070
   271
1070
     4
1070
   272
1070
     4
1070
   279
1070
     0
1070
   284
1070
     0
1070
   285
1070
     0
1070
   286
1070
     0
1070
   341
1005
84AB
1070
   343
1005
84AB
1070
   344
1005
84AB
1002
}
  0
DIMENSION
  5
8580
330
8498
100
AcDbEntity
  8
3
100
AcDbDimension
  2
*D32
 10
1257.508914293172
 20
6438.314780538584
 30
0.0
 11
1182.508914293171
 21
5750.814780538585
 31
0.0
 70
    32
 71
     5
 42
1374.999999999999
  3
IGA
100
AcDbAlignedDimension
 13
1557.933136459588
 23
5063.314780538585
 33
0.0
 14
1557.933136459588
 24
6438.314780538584
 34
0.0
 50
90.0
100
AcDbRotatedDimension
1001
ACAD
1000
DSTYLE
1002
{
1070
    40
1040
30.0
1070
    42
1040
1.0
1070
   143
1040
0.039
1070
   172
1070
     1
1070
   271
1070
     4
1070
   272
1070
     4
1070
   279
1070
     0
1070
   284
1070
     0
1070
   285
1070
     0
1070
   286
1070
     0
1070
   341
1005
84AB
1070
   343
1005
84AB
1070
   344
1005
84AB
1002
}
  0
DIMENSION
  5
858D
330
8498
100
AcDbEntity
  8
3
100
AcDbDimension
  2
*D33
 10
2677.933136459587
 20
6740.329439043809
 30
0.0
 11
2117.933136459587
 21
6815.329439043809
 31
0.0
 70
    32
 71
     5
 42
1119.999999999999
  3
IGA
100
AcDbAlignedDimension
 13
1557.933136459587
 23
6438.314780538584
 33
0.0
 14
2677.933136459587
 24
6438.314780538586
 34
0.0
100
AcDbRotatedDimension
1001
ACAD
1000
DSTYLE
1002
{
1070
    40
1040
30.0
1070
    42
1040
1.0
1070
   143
1040
0.039
1070
   172
1070
     1
1070
   271
1070
     4
1070
   272
1070
     4
1070
   279
1070
     0
1070
   284
1070
     0
1070
   285
1070
     0
1070
   286
1070
     0
1070
   341
1005
84AB
1070
   343
1005
84AB
1070
   344
1005
84AB
1002
}
  0
DIMENSION
  5
859A
330
8498
100
AcDbEntity
  8
3
100
AcDbDimension
  2
*D34
 10
3427.933136459587
 20
6740.329439043809
 30
0.0
 11
3052.933136459587
 21
6815.329439043809
 31
0.0
 70
    32
 71
     5
 42
750.0
  3
IGA
100
AcDbAlignedDimension
 13
2677.933136459587
 23
6438.314780538586
 33
0.0
 14
3427.933136459587
 24
5863.314780538585
 34
0.0
100
AcDbRotatedDimension
1001
ACAD
1000
DSTYLE
1002
{
1070
    40
1040
30.0
1070
    42
1040
1.0
1070
   143
1040
0.039
1070
   172
1070
     1
1070
   271
1070
     4
1070
   272
1070
     4
1070
   279
1070
     1
1070
   284
1070
     0
1070
   285
1070
     0
1070
   286
1070
     0
1070
   341
1005
84AB
1070
   343
1005
84AB
1070
   344
1005
84AB
1002
}
  0
DIMENSION
  5
85A7
330
8498
100
AcDbEntity
  8
3
100
AcDbDimension
  2
*D35
 10
3764.210222697242
 20
5063.314780538586
 30
0.0
 11
3689.210222697241
 21
5463.314780538587
 31
0.0
 70
    32
 71
     5
 42
799.9999999999991
  3
IGA
100
AcDbAlignedDimension
 13
3427.933136459587
 23
5863.314780538585
 33
0.0
 14
3427.933136459587
 24
5063.314780538586
 34
0.0
 50
90.0
100
AcDbRotatedDimension
1001
ACAD
1000
DSTYLE
1002
{
1070
    40
1040
30.0
1070
    42
1040
1.0
1070
   143
1040
0.039
1070
   172
1070
     1
1070
   271
1070
     4
1070
   272
1070
     4
1070
   279
1070
     0
1070
   284
1070
     0
1070
   285
1070
     0
1070
   286
1070
     0
1070
   341
1005
84AB
1070
   343
1005
84AB
1070
   344
1005
84AB
1002
}
  0
DIMENSION
  5
85B4
330
8498
100
AcDbEntity
  8
3
100
AcDbDimension
  2
*D36
 10
2117.933136459589
 20
4180.781760043944
 30
0.0
 11
1807.933136459588
 21
4255.781760043944
 31
0.0
 70
    32
 71
     5
 42
620.0
  3
IGA
100
AcDbAlignedDimension
 13
1497.933136459589
 23
3301.733310273387
 33
0.0
 14
2117.933136459589
 24
3985.320184905996
 34
0.0
100
AcDbRotatedDimension
1001
ACAD
1000
DSTYLE
1002
{
1070
    40
1040
30.0
1070
    42
1040
1.0
1070
   143
1040
0.039
1070
   172
1070
     1
1070
   271
1070
     4
1070
   272
1070
     4
1070
   279
1070
     0
1070
   284
1070
     0
1070
   285
1070
     0
1070
   286
1070
     0
1070
   341
1005
84AB
1070
   343
1005
84AB
1070
   344
1005
84AB
1002
}
  0
DIMENSION
  5
85C1
330
8498
100
AcDbEntity
  8
3
100
AcDbDimension
  2
*D37
 10
2894.933136459589
 20
4180.781760043944
 30
0.0
 11
2506.433136459589
 21
4255.781760043944
 31
0.0
 70
    32
 71
     5
 42
777.0
  3
IGA
100
AcDbAlignedDimension
 13
2117.933136459589
 23
3985.320184905996
 33
0.0
 14
2894.933136459589
 24
3228.233310273387
 34
0.0
100
AcDbRotatedDimension
1001
ACAD
1000
DSTYLE
1002
{
1070
    40
1040
30.0
1070
    42
1040
1.0
1070
   143
1040
0.039
1070
   172
1070
     1
1070
   271
1070
     4
1070
   272
1070
     4
1070
   279
1070
     1
1070
   284
1070
     0
1070
   285
1070
     0
1070
   286
1070
     0
1070
   341
1005
84AB
1070
   343
1005
84AB
1070
   344
1005
84AB
1002
}
  0
DIMENSION
  5
85CE
330
8498
100
AcDbEntity
  8
3
100
AcDbDimension
  2
*D38
 10
1497.933136459589
 20
4406.455486166673
 30
0.0
 11
2462.933136459588
 21
4481.455486166672
 31
0.0
 70
    32
 71
     5
 42
1929.999999999998
  3
IGA
100
AcDbAlignedDimension
 13
3427.933136459587
 23
2295.233310273386
 33
0.0
 14
1497.933136459589
 24
3301.733310273387
 34
0.0
100
AcDbRotatedDimension
1001
ACAD
1000
DSTYLE
1002
{
1070
    40
1040
30.0
1070
    42
1040
1.0
1070
   143
1040
0.039
1070
   172
1070
     1
1070
   271
1070
     4
1070
   272
1070
     4
1070
   279
1070
     0
1070
   284
1070
     0
1070
   285
1070
     0
1070
   286
1070
     0
1070
   341
1005
84AB
1070
   343
1005
84AB
1070
   344
1005
84AB
1002
}
  0
DIMENSION
  5
85DB
330
8498
100
AcDbEntity
  8
3
100
AcDbDimension
  2
*D39
 10
3427.933136459587
 20
4652.692984301516
 30
0.0
 11
2492.933136459588
 21
4727.692984301516
 31
0.0
 70
    32
 71
     5
 42
1869.999999999998
  3
IGA
100
AcDbAlignedDimension
 13
1557.933136459588
 23
5063.314780538585
 33
0.0
 14
3427.933136459587
 24
5063.314780538586
 34
0.0
100
AcDbRotatedDimension
1001
ACAD
1000
DSTYLE
1002
{
1070
    40
1040
30.0
1070
    42
1040
1.0
1070
   143
1040
0.039
1070
   172
1070
     1
1070
   271
1070
     4
1070
   272
1070
     4
1070
   279
1070
     0
1070
   284
1070
     0
1070
   285
1070
     0
1070
   286
1070
     0
1070
   341
1005
84AB
1070
   343
1005
84AB
1070
   344
1005
84AB
1002
}
  0
DIMENSION
  5
85E8
330
8498
100
AcDbEntity
  8
3
100
AcDbDimension
  2
*D40
 10
1348.318028016377
 20
2334.233310273386
 30
0.0
 11
1273.318028016376
 21
2796.733310273387
 31
0.0
 70
    32
 71
     5
 42
925.0000000000008
  3
IGA
100
AcDbAlignedDimension
 13
1497.933136459589
 23
3259.233310273387
 33
0.0
 14
1497.933136459589
 24
2334.233310273386
 34
0.0
 50
90.0
100
AcDbRotatedDimension
1001
ACAD
1000
DSTYLE
1002
{
1070
    40
1040
30.0
1070
    42
1040
1.0
1070
   143
1040
0.039
1070
   172
1070
     1
1070
   271
1070
     4
1070
   272
1070
     4
1070
   279
1070
     0
1070
   284
1070
     0
1070
   285
1070
     0
1070
   286
1070
     0
1070
   341
1005
84AB
1070
   343
1005
84AB
1070
   344
1005
84AB
1002
}
  0
DIMENSION
  5
85F5
330
8498
100
AcDbEntity
  8
3
100
AcDbDimension
  2
*D41
 10
1197.974727918515
 20
2334.233310273386
 30
0.0
 11
1122.974727918515
 21
2814.733310273387
 31
0.0
 70
    32
 71
     5
 42
961.000000000001
  3
IGA
100
AcDbAlignedDimension
 13
1461.677797681042
 23
3295.233310273387
 33
0.0
 14
1497.933136459589
 24
2334.233310273386
 34
0.0
 50
90.0
100
AcDbRotatedDimension
1001
ACAD
1000
DSTYLE
1002
{
1070
    40
1040
30.0
1070
    42
1040
1.0
1070
   143
1040
0.039
1070
   172
1070
     1
1070
   271
1070
     4
1070
   272
1070
     4
1070
   279
1070
     0
1070
   284
1070
     0
1070
   285
1070
     0
1070
   286
1070
     0
1070
   341
1005
84AB
1070
   343
1005
84AB
1070
   344
1005
84AB
1002
}
  0
DIMENSION
  5
8602
330
8498
100
AcDbEntity
  8
3
100
AcDbDimension
  2
*D42
 10
1006.249158734528
 20
3295.233310273387
 30
0.0
 11
931.2491587345274
 21
2745.233310273387
 31
0.0
 70
    32
 71
     5
 42
1100.000000000001
  3
IGA
100
AcDbAlignedDimension
 13
1557.933136459587
 23
2195.233310273386
 33
0.0
 14
1461.677797681042
 24
3295.233310273387
 34
0.0
 50
90.0
100
AcDbRotatedDimension
1001
ACAD
1000
DSTYLE
1002
{
1070
    40
1040
30.0
1070
    42
1040
1.0
1070
   143
1040
0.039
1070
   172
1070
     1
1070
   271
1070
     4
1070
   272
1070
     4
1070
   279
1070
     0
1070
   284
1070
     0
1070
   285
1070
     0
1070
   286
1070
     0
1070
   341
1005
84AB
1070
   343
1005
84AB
1070
   344
1005
84AB
1002
}
  0
DIMENSION
  5
860F
330
8498
100
AcDbEntity
  8
3
100
AcDbDimension
  2
*D43
 10
1006.249158734528
 20
3938.233310273387
 30
0.0
 11
931.2491587345276
 21
3616.733310273388
 31
0.0
 70
    32
 71
     5
 42
642.9999999999995
  3
IGA
100
AcDbAlignedDimension
 13
1461.677797681042
 23
3295.233310273387
 33
0.0
 14
2184.933136459588
 24
3938.233310273387
 34
0.0
 50
90.0
100
AcDbRotatedDimension
1001
ACAD
1000
DSTYLE
1002
{
1070
    40
1040
30.0
1070
    42
1040
1.0
1070
   143
1040
0.039
1070
   172
1070
     1
1070
   271
1070
     4
1070
   272
1070
     4
1070
   279
1070
     1
1070
   284
1070
     0
1070
   285
1070
     0
1070
   286
1070
     0
1070
   341
1005
84AB
1070
   343
1005
84AB
1070
   344
1005
84AB
1002
}
  0
ENDSEC
  0
SECTION
  2
OBJECTS
  0
DICTIONARY
  5
8435
330
0
100
AcDbDictionary
281
     1
  3
ACAD_CIP_PREVIOUS_PRODUCT_INFO
350
84DD
  3
ACAD_COLOR
350
848B
  3
ACAD_DETAILVIEWSTYLE
350
8492
  3
ACAD_GROUP
350
8436
  3
ACAD_LAYOUT
350
848A
  3
ACAD_MATERIAL
350
8439
  3
ACAD_MLEADERSTYLE
350
848E
  3
ACAD_MLINESTYLE
350
8487
  3
ACAD_PLOTSETTINGS
350
8489
  3
ACAD_PLOTSTYLENAME
350
8437
  3
ACAD_SCALELIST
350
846B
  3
ACAD_SECTIONVIEWSTYLE
350
8490
  3
ACAD_TABLESTYLE
350
848C
  3
ACAD_VISUALSTYLE
350
8452
  3
ACDB_RECOMPOSE_DATA
350
8633
  3
AcDbVariableDictionary
350
8626
  3
DWGPROPS
350
8634
  0
DICTIONARY
  5
861C
330
847D
100
AcDbDictionary
280
     1
281
     1
  3
ADSK_XREC_LAYER_RECONCILED
360
861D
  0
DICTIONARY
  5
861E
330
849C
100
AcDbDictionary
280
     1
281
     1
  3
ADSK_XREC_LAYER_RECONCILED
360
861F
  0
DICTIONARY
  5
8620
330
849F
100
AcDbDictionary
280
     1
281
     1
  3
ADSK_XREC_LAYER_RECONCILED
360
8621
  0
DICTIONARY
  5
8622
330
84A0
100
AcDbDictionary
280
     1
281
     1
  3
ADSK_XREC_LAYER_RECONCILED
360
8623
  0
DICTIONARY
  5
8624
330
84A1
100
AcDbDictionary
280
     1
281
     1
  3
ADSK_XREC_LAYER_RECONCILED
360
8625
  0
DICTIONARY
  5
8506
330
8498
100
AcDbDictionary
280
     1
281
     1
  3
ACAD_SORTENTS
360
8507
  0
XRECORD
  5
84DD
102
{ACAD_REACTORS
330
8435
102
}
330
8435
100
AcDbXrecord
280
     1
300
ACDLT
300
2015
300
INVLTS_F_S
  0
DICTIONARY
  5
848B
102
{ACAD_REACTORS
330
8435
102
}
330
8435
100
AcDbDictionary
281
     1
  0
DICTIONARY
  5
8492
102
{ACAD_REACTORS
330
8435
102
}
330
8435
100
AcDbDictionary
281
     1
  3
Imperial24
350
8493
  0
DICTIONARY
  5
8436
102
{ACAD_REACTORS
330
8435
102
}
330
8435
100
AcDbDictionary
281
     1
  0
DICTIONARY
  5
848A
102
{ACAD_REACTORS
330
8435
102
}
330
8435
100
AcDbDictionary
281
     1
  3
Model
350
849B
  3
レイアウト1
350
8497
  0
DICTIONARY
  5
8439
102
{ACAD_REACTORS
330
8435
102
}
330
8435
100
AcDbDictionary
281
     1
  3
ByBlock
350
8442
  3
ByLayer
350
843A
  3
Global
350
844A
  0
DICTIONARY
  5
848E
102
{ACAD_REACTORS
330
8435
102
}
330
8435
100
AcDbDictionary
281
     1
  3
Standard
350
848F
  0
DICTIONARY
  5
8487
102
{ACAD_REACTORS
330
8435
102
}
330
8435
100
AcDbDictionary
281
     1
  3
Standard
350
8488
  0
DICTIONARY
  5
8489
102
{ACAD_REACTORS
330
8435
102
}
330
8435
100
AcDbDictionary
281
     1
  0
ACDBDICTIONARYWDFLT
  5
8437
102
{ACAD_REACTORS
330
8435
102
}
330
8435
100
AcDbDictionary
281
     1
  3
Normal
350
8438
100
AcDbDictionaryWithDefault
340
8438
  0
DICTIONARY
  5
846B
102
{ACAD_REACTORS
330
8435
102
}
330
8435
100
AcDbDictionary
281
     1
  3
A0
350
846C
  3
A1
350
846D
  3
A2
350
846E
  3
A3
350
846F
  3
A4
350
8470
  3
A5
350
8471
  3
A6
350
8472
  3
A7
350
8473
  3
A8
350
8474
  3
A9
350
8475
  3
B0
350
8476
  3
B1
350
8477
  3
B2
350
8478
  3
B3
350
8479
  3
B4
350
847A
  3
B5
350
847B
  3
B6
350
847C
  0
DICTIONARY
  5
8490
102
{ACAD_REACTORS
330
8435
102
}
330
8435
100
AcDbDictionary
281
     1
  3
Imperial24
350
8491
  0
DICTIONARY
  5
848C
102
{ACAD_REACTORS
330
8435
102
}
330
8435
100
AcDbDictionary
281
     1
  3
Standard
350
848D
  0
DICTIONARY
  5
8452
102
{ACAD_REACTORS
330
8435
102
}
330
8435
100
AcDbDictionary
281
     1
  3
2dWireframe
350
8458
  3
Basic
350
8457
  3
Brighten
350
845E
  3
ColorChange
350
8462
  3
Conceptual
350
845B
  3
Dim
350
845D
  3
EdgeColorOff
350
846A
  3
Facepattern
350
8461
  3
Flat
350
8453
  3
FlatWithEdges
350
8454
  3
Gouraud
350
8455
  3
GouraudWithEdges
350
8456
  3
Hidden
350
845A
  3
JitterOff
350
8468
  3
Linepattern
350
8460
  3
OverhangOff
350
8469
  3
Realistic
350
845C
  3
Shaded
350
8467
  3
Shaded with edges
350
8466
  3
Shades of Gray
350
8463
  3
Sketchy
350
8464
  3
Thicken
350
845F
  3
Wireframe
350
8459
  3
X-Ray
350
8465
  0
XRECORD
  5
8633
102
{ACAD_REACTORS
330
8435
102
}
330
8435
100
AcDbXrecord
280
     1
 90
        1
330
848D
  0
DICTIONARY
  5
8626
102
{ACAD_REACTORS
330
8435
102
}
330
8435
100
AcDbDictionary
281
     1
  3
CANNOSCALE
350
862B
  3
CMLEADERSTYLE
350
8628
  3
CTABLESTYLE
350
8627
  3
CVIEWDETAILSTYLE
350
8629
  3
CVIEWSECTIONSTYLE
350
862A
  3
DIMASSOC
350
862E
  3
INDEXCTL
350
862D
  3
SORTENTS
350
862C
  3
XCLIPFRAME
350
862F
  0
XRECORD
  5
8634
102
{ACAD_REACTORS
330
8435
102
}
330
8435
100
AcDbXrecord
280
     1
  1
DWGPROPS COOKIE
  2

  3

  4

  6

  7

  8
yasukiyo.ogawa
  9

300
=
301
=
302
=
303
=
304
=
305
=
306
=
307
=
308
=
309
=
 40
0.0183329166666667
 41
2451389.487709028
 42
2460269.57356875
  1

 90
        0
  0
XRECORD
  5
861D
102
{ACAD_REACTORS
330
861C
102
}
330
861C
100
AcDbXrecord
280
     1
290
     1
  0
XRECORD
  5
861F
102
{ACAD_REACTORS
330
861E
102
}
330
861E
100
AcDbXrecord
280
     1
290
     1
  0
XRECORD
  5
8621
102
{ACAD_REACTORS
330
8620
102
}
330
8620
100
AcDbXrecord
280
     1
290
     1
  0
XRECORD
  5
8623
102
{ACAD_REACTORS
330
8622
102
}
330
8622
100
AcDbXrecord
280
     1
290
     1
  0
XRECORD
  5
8625
102
{ACAD_REACTORS
330
8624
102
}
330
8624
100
AcDbXrecord
280
     1
290
     1
  0
SORTENTSTABLE
  5
8507
102
{ACAD_REACTORS
330
8506
102
}
330
8506
100
AcDbSortentsTable
330
8498
331
7F84
  5
7F86
331
7F73
  5
7F75
331
7D10
  5
7D12
331
7C60
  5
7C62
331
7CFF
  5
7D01
331
7CEE
  5
7CF0
331
7CDD
  5
7CDF
331
7CBB
  5
7CBD
331
7C93
  5
7C95
331
7C82
  5
7C84
331
7C71
  5
7C73
331
7C4F
  5
7C4F
331
7C3E
  5
7C3E
331
7F85
  5
7F87
331
7F74
  5
7F78
331
7D2B
  5
7D2D
331
7D11
  5
7D13
331
7D00
  5
7D02
331
84F8
  5
8508
331
7CDE
  5
7CE0
331
7CCD
  5
7CD4
331
7CBC
  5
7CBE
331
7C94
  5
7C96
331
7C83
  5
7C85
331
7C72
  5
7C74
331
7C61
  5
7C63
331
7C50
  5
7C50
331
7F86
  5
7F88
331
7F75
  5
7F79
331
7D2C
  5
7D2E
331
7D12
  5
7D14
331
7D01
  5
7D03
331
7CBD
  5
7CBF
331
7C95
  5
7C97
331
7C84
  5
7C86
331
7C73
  5
7C75
331
7C62
  5
7C64
331
7CDF
  5
7CE1
331
7CA6
  5
7CA8
331
7C51
  5
7C51
331
7C40
  5
7C40
331
7F87
  5
7F89
331
7D2D
  5
7D2F
331
7D13
  5
7D1B
331
7D02
  5
7D04
331
7CE0
  5
7CE2
331
7CBE
  5
7CC0
331
7C96
  5
7C98
331
7C85
  5
7C87
331
7C74
  5
7C76
331
7C63
  5
7C65
331
7CA7
  5
7CA9
331
7C52
  5
7C52
331
7C41
  5
7C41
331
8251
  5
8284
331
7F88
  5
7F8A
331
7D2E
  5
7D30
331
7D14
  5
7D1C
331
7D03
  5
7D05
331
7CE1
  5
7CE3
331
7CA8
  5
7CAA
331
7CBF
  5
7CC1
331
7C97
  5
7C99
331
7C86
  5
7C88
331
7C75
  5
7C77
331
7C64
  5
7C66
331
7C53
  5
7C53
331
7C42
  5
7C42
331
7CC0
  5
7CC2
331
7C98
  5
7C9A
331
84DE
  5
84F8
331
7D04
  5
7D06
331
7CE2
  5
7CE8
331
7CA9
  5
7CAB
331
7F89
  5
7F8B
331
7F78
  5
7F7A
331
7D2F
  5
7D31
331
84EB
  5
8505
331
7C87
  5
7C89
331
7C76
  5
7C78
331
7C65
  5
7C67
331
7C54
  5
7C54
331
7C43
  5
7C43
331
7CB0
  5
7CB2
331
7C88
  5
7C8A
331
7CC1
  5
7CC3
331
7C99
  5
7C9B
331
7F8A
  5
7F8C
331
7F79
  5
7F7B
331
7D30
  5
7F73
331
7D05
  5
7D07
331
7CE3
  5
7CE9
331
7CAA
  5
7CAC
331
7C77
  5
7C79
331
7C66
  5
7C68
331
7C55
  5
7C55
331
7C44
  5
7C44
331
7CB1
  5
7CB3
331
7C89
  5
7C8B
331
7C78
  5
7C7A
331
7CC2
  5
7CC4
331
7C9A
  5
7C9C
331
7F8B
  5
7F8D
331
7F7A
  5
7F7C
331
7D31
  5
7F74
331
7D06
  5
7D08
331
7CF5
  5
7CF8
331
7CD3
  5
7CDC
331
7CAB
  5
7CAD
331
7C67
  5
7C69
331
7C56
  5
7C56
331
7C45
  5
7C45
331
7CB2
  5
7CB4
331
7C8A
  5
7C8C
331
7C79
  5
7C7B
331
7C68
  5
7C6A
331
7CC3
  5
7CC5
331
7C9B
  5
7CA1
331
82AB
  5
84EB
331
7D07
  5
7D09
331
7CF6
  5
7CF9
331
7CD4
  5
7CDD
331
7F8C
  5
7F8E
331
7F7B
  5
7F7D
331
7CAC
  5
7CAE
331
7C57
  5
7C57
331
7C46
  5
7C46
331
7CB3
  5
7CB5
331
7C8B
  5
7C8D
331
7C7A
  5
7C7C
331
7C69
  5
7C6B
331
7CC4
  5
7CC6
331
7C9C
  5
7CA2
331
7F8D
  5
7F8F
331
7F7C
  5
7F7F
331
7D08
  5
7D0A
331
7CAD
  5
7CAF
331
7C58
  5
7C58
331
7C47
  5
7C47
331
7CC5
  5
7CC7
331
7CB4
  5
7CB6
331
7C8C
  5
7C8E
331
7C7B
  5
7C7D
331
7C6A
  5
7C6C
331
7C59
  5
7C5B
331
7F8E
  5
7F90
331
7F7D
  5
7F80
331
7D09
  5
7D0B
331
7CF8
  5
7CFA
331
7CAE
  5
7CB0
331
7C48
  5
7C48
331
7CC6
  5
7CC8
331
7CB5
  5
7CB7
331
7C8D
  5
7C8F
331
7C7C
  5
7C7E
331
7C6B
  5
7C6D
331
7C5A
  5
7C5C
331
7F8F
  5
7F91
331
7D1B
  5
7D1D
331
7D0A
  5
7D0C
331
7CF9
  5
7CFB
331
7CE8
  5
7CEA
331
7CAF
  5
7CB1
331
7C49
  5
7C49
331
7F90
  5
8251
331
8284
  5
829E
331
7D0B
  5
7D0D
331
7CFA
  5
7CFC
331
7CE9
  5
7CEB
331
7CC7
  5
7CC9
331
7CB6
  5
7CB8
331
7C8E
  5
7C90
331
7C7D
  5
7C7F
331
7C6C
  5
7C6E
331
7C5B
  5
7C5E
331
829E
  5
84DE
331
7D1C
  5
7D1E
331
7F7F
  5
7F81
331
7C4A
  5
7C4A
331
7F91
  5
8277
331
7F80
  5
7F82
331
7D1D
  5
7D1F
331
7D0C
  5
7D0E
331
7CFB
  5
7CFD
331
7CEA
  5
7CEC
331
7CC8
  5
7CCA
331
7CB7
  5
7CB9
331
7C8F
  5
7C91
331
7C7E
  5
7C80
331
7C6D
  5
7C6F
331
7C5C
  5
7C60
331
7C4B
  5
7C4B
331
7F81
  5
7F83
331
7CB8
  5
7CBA
331
7C90
  5
7C92
331
7C7F
  5
7C81
331
7C6E
  5
7C70
331
7D1E
  5
7D20
331
7D0D
  5
7D0F
331
7CFC
  5
7CFE
331
7CEB
  5
7CED
331
7CC9
  5
7CCB
331
7C4C
  5
7C4C
331
7F82
  5
7F84
331
7CB9
  5
7CBB
331
7C91
  5
7C93
331
7C80
  5
7C82
331
7C6F
  5
7C71
331
7C5E
  5
7C61
331
7D1F
  5
7D21
331
7D0E
  5
7D10
331
7CFD
  5
7CFF
331
7CEC
  5
7CEE
331
7CCA
  5
7CCD
331
7C4D
  5
7C4D
331
8291
  5
82AB
331
7F83
  5
7F85
331
8277
  5
8291
331
7CFE
  5
7D00
331
7CED
  5
7CEF
331
7CDC
  5
7CDE
331
7CCB
  5
7CD3
331
7CBA
  5
7CBC
331
7C92
  5
7C94
331
7C81
  5
7C83
331
7C70
  5
7C72
331
7D0F
  5
7D11
331
7C4E
  5
7C4E
  0
ACDBDETAILVIEWSTYLE
  5
8493
102
{ACAD_XDICTIONARY
360
866C
102
}
102
{ACAD_REACTORS
330
8492
102
}
330
8492
100
AcDbModelDocViewStyle
 70
     0
  3
Imperial24
290
     0
100
AcDbDetailViewStyle
 70
     0
 71
     0
 90
        3
 71
     1
340
847E
 40
0.24
340
0
 40
0.24
300

 40
0.36
280
     3
 71
     2
340
8485
 90
       25
 71
     3
340
847E
 40
0.24
 90
        1
 40
0.75
 90
        1
300
%<\AcVar ViewType \f "%tc1">% %<\AcVar ViewDetailId>%\PSCALE %<\AcVar ViewScale \f "%sn">%
 71
     4
340
8485
 90
       25
340
8485
 90
       25
280
     0
  0
LAYOUT
  5
849B
102
{ACAD_XDICTIONARY
360
8670
102
}
102
{ACAD_REACTORS
330
848A
102
}
330
848A
100
AcDbPlotSettings
  1

  2
RICOH imagio MP W3600 RPCS
  4

  6

 40
0.0
 41
0.0
 42
0.0
 43
0.0
 44
0.0
 45
0.0
 46
0.0
 47
0.0
 48
0.0
 49
0.0
140
0.0
141
0.0
142
1.0
143
1.0
 70
  1712
 72
     0
 73
     0
 74
     0
  7

 75
     0
147
1.0
148
0.0
149
0.0
100
AcDbLayout
  1
Model
 70
     1
 71
     0
 10
0.0
 20
0.0
 11
12.0
 21
9.0
 12
0.0
 22
0.0
 32
0.0
 14
0.0
 24
0.0
 34
0.0
 15
0.0
 25
0.0
 35
0.0
146
0.0
 13
0.0
 23
0.0
 33
0.0
 16
1.0
 26
0.0
 36
0.0
 17
0.0
 27
1.0
 37
0.0
 76
     0
330
8498
331
849D
  0
LAYOUT
  5
8497
102
{ACAD_XDICTIONARY
360
866E
102
}
102
{ACAD_REACTORS
330
848A
102
}
330
848A
100
AcDbPlotSettings
  1

  2
RICOH imagio MP W3600 RPCS
  4

  6

 40
0.0
 41
0.0
 42
0.0
 43
0.0
 44
0.0
 45
0.0
 46
0.0
 47
0.0
 48
0.0
 49
0.0
140
0.0
141
0.0
142
1.0
143
1.0
 70
   688
 72
     0
 73
     0
 74
     5
  7

 75
    16
147
1.0
148
0.0
149
0.0
100
AcDbLayout
  1
レイアウト1
 70
     1
 71
     1
 10
0.0
 20
0.0
 11
12.0
 21
9.0
 12
0.0
 22
0.0
 32
0.0
 14
1.000000000000000E+20
 24
1.000000000000000E+20
 34
1.000000000000000E+20
 15
-1.000000000000000E+20
 25
-1.000000000000000E+20
 35
-1.000000000000000E+20
146
0.0
 13
0.0
 23
0.0
 33
0.0
 16
1.0
 26
0.0
 36
0.0
 17
0.0
 27
1.0
 37
0.0
 76
     0
330
8494
  0
MATERIAL
  5
8442
102
{ACAD_XDICTIONARY
360
8443
102
}
102
{ACAD_REACTORS
330
8439
102
}
330
8439
100
AcDbMaterial
  1
ByBlock
 72
     0
 43
0.0208333333333333
 43
0.0
 43
0.0
 43
0.0
 43
0.0
 43
0.0208333333333333
 43
0.0
 43
0.0
 43
0.0
 43
0.0
 43
1.0
 43
0.0
 43
0.0
 43
0.0
 43
0.0
 43
1.0
 77
     0
 47
0.0208333333333333
 47
0.0
 47
0.0
 47
0.0
 47
0.0
 47
0.0208333333333333
 47
0.0
 47
0.0
 47
0.0
 47
0.0
 47
1.0
 47
0.0
 47
0.0
 47
0.0
 47
0.0
 47
1.0
171
     0
 49
0.0208333333333333
 49
0.0
 49
0.0
 49
0.0
 49
0.0
 49
0.0208333333333333
 49
0.0
 49
0.0
 49
0.0
 49
0.0
 49
1.0
 49
0.0
 49
0.0
 49
0.0
 49
0.0
 49
1.0
175
     0
142
0.0208333333333333
142
0.0
142
0.0
142
0.0
142
0.0
142
0.0208333333333333
142
0.0
142
0.0
142
0.0
142
0.0
142
1.0
142
0.0
142
0.0
142
0.0
142
0.0
142
1.0
179
     0
144
0.0208333333333333
144
0.0
144
0.0
144
0.0
144
0.0
144
0.0208333333333333
144
0.0
144
0.0
144
0.0
144
0.0
144
1.0
144
0.0
144
0.0
144
0.0
144
0.0
144
1.0
147
0.0208333333333333
147
0.0
147
0.0
147
0.0
147
0.0
147
0.0208333333333333
147
0.0
147
0.0
147
0.0
147
0.0
147
1.0
147
0.0
147
0.0
147
0.0
147
0.0
147
1.0
  0
MATERIAL
  5
843A
102
{ACAD_XDICTIONARY
360
843B
102
}
102
{ACAD_REACTORS
330
8439
102
}
330
8439
100
AcDbMaterial
  1
ByLayer
 72
     0
 43
0.0208333333333333
 43
0.0
 43
0.0
 43
0.0
 43
0.0
 43
0.0208333333333333
 43
0.0
 43
0.0
 43
0.0
 43
0.0
 43
1.0
 43
0.0
 43
0.0
 43
0.0
 43
0.0
 43
1.0
 77
     0
 47
0.0208333333333333
 47
0.0
 47
0.0
 47
0.0
 47
0.0
 47
0.0208333333333333
 47
0.0
 47
0.0
 47
0.0
 47
0.0
 47
1.0
 47
0.0
 47
0.0
 47
0.0
 47
0.0
 47
1.0
171
     0
 49
0.0208333333333333
 49
0.0
 49
0.0
 49
0.0
 49
0.0
 49
0.0208333333333333
 49
0.0
 49
0.0
 49
0.0
 49
0.0
 49
1.0
 49
0.0
 49
0.0
 49
0.0
 49
0.0
 49
1.0
175
     0
142
0.0208333333333333
142
0.0
142
0.0
142
0.0
142
0.0
142
0.0208333333333333
142
0.0
142
0.0
142
0.0
142
0.0
142
1.0
142
0.0
142
0.0
142
0.0
142
0.0
142
1.0
179
     0
144
0.0208333333333333
144
0.0
144
0.0
144
0.0
144
0.0
144
0.0208333333333333
144
0.0
144
0.0
144
0.0
144
0.0
144
1.0
144
0.0
144
0.0
144
0.0
144
0.0
144
1.0
147
0.0208333333333333
147
0.0
147
0.0
147
0.0
147
0.0
147
0.0208333333333333
147
0.0
147
0.0
147
0.0
147
0.0
147
1.0
147
0.0
147
0.0
147
0.0
147
0.0
147
1.0
  0
MATERIAL
  5
844A
102
{ACAD_XDICTIONARY
360
844B
102
}
102
{ACAD_REACTORS
330
8439
102
}
330
8439
100
AcDbMaterial
  1
Global
 72
     0
 43
0.0208333333333333
 43
0.0
 43
0.0
 43
0.0
 43
0.0
 43
0.0208333333333333
 43
0.0
 43
0.0
 43
0.0
 43
0.0
 43
1.0
 43
0.0
 43
0.0
 43
0.0
 43
0.0
 43
1.0
 77
     0
 47
0.0208333333333333
 47
0.0
 47
0.0
 47
0.0
 47
0.0
 47
0.0208333333333333
 47
0.0
 47
0.0
 47
0.0
 47
0.0
 47
1.0
 47
0.0
 47
0.0
 47
0.0
 47
0.0
 47
1.0
171
     0
 49
0.0208333333333333
 49
0.0
 49
0.0
 49
0.0
 49
0.0
 49
0.0208333333333333
 49
0.0
 49
0.0
 49
0.0
 49
0.0
 49
1.0
 49
0.0
 49
0.0
 49
0.0
 49
0.0
 49
1.0
175
     0
142
0.0208333333333333
142
0.0
142
0.0
142
0.0
142
0.0
142
0.0208333333333333
142
0.0
142
0.0
142
0.0
142
0.0
142
1.0
142
0.0
142
0.0
142
0.0
142
0.0
142
1.0
179
     0
144
0.0208333333333333
144
0.0
144
0.0
144
0.0
144
0.0
144
0.0208333333333333
144
0.0
144
0.0
144
0.0
144
0.0
144
1.0
144
0.0
144
0.0
144
0.0
144
0.0
144
1.0
147
0.0208333333333333
147
0.0
147
0.0
147
0.0
147
0.0
147
0.0208333333333333
147
0.0
147
0.0
147
0.0
147
0.0
147
1.0
147
0.0
147
0.0
147
0.0
147
0.0
147
1.0
  0
MLEADERSTYLE
  5
848F
102
{ACAD_REACTORS
330
848E
102
}
330
848E
100
AcDbMLeaderStyle
170
     2
171
     1
172
     0
 90
        2
 40
0.0
 41
0.0
173
     1
 91
-1056964608
340
8483
 92
       -2
290
     1
 42
0.09
291
     1
 43
0.36
  3
Standard
 44
0.18
300

342
847E
174
     1
178
     6
175
     1
176
     0
 93
-1056964608
 45
0.18
292
     0
297
     0
 46
0.18
 94
-1056964608
 47
1.0
 49
1.0
140
1.0
293
     1
141
0.0
294
     1
177
     0
142
1.0
295
     0
296
     0
143
0.125
1001
ACAD_MLEADERVER
1070
     2
  0
MLINESTYLE
  5
8488
102
{ACAD_REACTORS
330
8487
102
}
330
8487
100
AcDbMlineStyle
  2
STANDARD
 70
     0
  3

 62
   256
 51
90.0
 52
90.0
 71
     2
 49
0.5
 62
   256
  6
BYLAYER
 49
-0.5
 62
   256
  6
BYLAYER
  0
ACDBPLACEHOLDER
  5
8438
102
{ACAD_REACTORS
330
8437
102
}
330
8437
  0
SCALE
  5
846C
102
{ACAD_REACTORS
330
846B
102
}
330
846B
100
AcDbScale
 70
     0
300
1:1
140
1.0
141
1.0
290
     1
  0
SCALE
  5
846D
102
{ACAD_REACTORS
330
846B
102
}
330
846B
100
AcDbScale
 70
     0
300
1/128" = 1'-0"
140
0.0078125
141
12.0
290
     0
  0
SCALE
  5
846E
102
{ACAD_REACTORS
330
846B
102
}
330
846B
100
AcDbScale
 70
     0
300
1/64" = 1'-0"
140
0.015625
141
12.0
290
     0
  0
SCALE
  5
846F
102
{ACAD_REACTORS
330
846B
102
}
330
846B
100
AcDbScale
 70
     0
300
1/32" = 1'-0"
140
0.03125
141
12.0
290
     0
  0
SCALE
  5
8470
102
{ACAD_REACTORS
330
846B
102
}
330
846B
100
AcDbScale
 70
     0
300
1/16" = 1'-0"
140
0.0625
141
12.0
290
     0
  0
SCALE
  5
8471
102
{ACAD_REACTORS
330
846B
102
}
330
846B
100
AcDbScale
 70
     0
300
3/32" = 1'-0"
140
0.09375
141
12.0
290
     0
  0
SCALE
  5
8472
102
{ACAD_REACTORS
330
846B
102
}
330
846B
100
AcDbScale
 70
     0
300
1/8" = 1'-0"
140
0.125
141
12.0
290
     0
  0
SCALE
  5
8473
102
{ACAD_REACTORS
330
846B
102
}
330
846B
100
AcDbScale
 70
     0
300
3/16" = 1'-0"
140
0.1875
141
12.0
290
     0
  0
SCALE
  5
8474
102
{ACAD_REACTORS
330
846B
102
}
330
846B
100
AcDbScale
 70
     0
300
1/4" = 1'-0"
140
0.25
141
12.0
290
     0
  0
SCALE
  5
8475
102
{ACAD_REACTORS
330
846B
102
}
330
846B
100
AcDbScale
 70
     0
300
3/8" = 1'-0"
140
0.375
141
12.0
290
     0
  0
SCALE
  5
8476
102
{ACAD_REACTORS
330
846B
102
}
330
846B
100
AcDbScale
 70
     0
300
1/2" = 1'-0"
140
0.5
141
12.0
290
     0
  0
SCALE
  5
8477
102
{ACAD_REACTORS
330
846B
102
}
330
846B
100
AcDbScale
 70
     0
300
3/4" = 1'-0"
140
0.75
141
12.0
290
     0
  0
SCALE
  5
8478
102
{ACAD_REACTORS
330
846B
102
}
330
846B
100
AcDbScale
 70
     0
300
1" = 1'-0"
140
1.0
141
12.0
290
     0
  0
SCALE
  5
8479
102
{ACAD_REACTORS
330
846B
102
}
330
846B
100
AcDbScale
 70
     0
300
1-1/2" = 1'-0"
140
1.5
141
12.0
290
     0
  0
SCALE
  5
847A
102
{ACAD_REACTORS
330
846B
102
}
330
846B
100
AcDbScale
 70
     0
300
3" = 1'-0"
140
3.0
141
12.0
290
     0
  0
SCALE
  5
847B
102
{ACAD_REACTORS
330
846B
102
}
330
846B
100
AcDbScale
 70
     0
300
6" = 1'-0"
140
6.0
141
12.0
290
     0
  0
SCALE
  5
847C
102
{ACAD_REACTORS
330
846B
102
}
330
846B
100
AcDbScale
 70
     0
300
1'-0" = 1'-0"
140
12.0
141
12.0
290
     0
  0
ACDBSECTIONVIEWSTYLE
  5
8491
102
{ACAD_XDICTIONARY
360
866A
102
}
102
{ACAD_REACTORS
330
8490
102
}
330
8490
100
AcDbModelDocViewStyle
 70
     0
  3
Imperial24
290
     0
100
AcDbSectionViewStyle
 70
     0
 71
     0
 90
       78
 71
     1
340
847E
 40
0.24
340
0
340
0
 40
0.24
300
I, O, Q, S, X, Z
 40
0.48
 90
        3
 40
0.18
 90
        1
 71
     2
340
8485
 90
       25
340
8485
 90
       50
 40
0.24
 40
0.0
 40
0.24
 71
     3
340
847E
 40
0.24
 90
        1
 40
0.75
 90
        1
300
%<\AcVar ViewType \f "%tc1">% %<\AcVar ViewSectionStartId>%-%<\AcVar ViewSectionEndId>%\PSCALE %<\AcVar ViewScale \f "%sn">%
 71
     4
300
ANSI31
 40
1.0
 90
        0
290
     0
290
     0
 90
        6
 40
0.0
 40
1.570796326794896
 40
0.2617993877991494
 40
1.308996938995747
 40
-0.2617993877991494
 40
1.832595714594046
  0
TABLESTYLE
  5
848D
102
{ACAD_XDICTIONARY
360
8631
102
}
102
{ACAD_REACTORS
330
848C
102
}
330
848C
100
AcDbTableStyle
  3
Standard
 70
     0
 71
     0
 40
0.06
 41
0.06
280
     0
281
     0
  7
STANDARD
140
0.18
170
     2
 62
     0
 63
     7
283
     0
274
    -2
284
     1
 64
     0
275
    -2
285
     1
 65
     0
276
    -2
286
     1
 66
     0
277
    -2
287
     1
 67
     0
278
    -2
288
     1
 68
     0
279
    -2
289
     1
 69
     0
  7
STANDARD
140
0.25
170
     5
 62
     0
 63
     7
283
     0
274
    -2
284
     1
 64
     0
275
    -2
285
     1
 65
     0
276
    -2
286
     1
 66
     0
277
    -2
287
     1
 67
     0
278
    -2
288
     1
 68
     0
279
    -2
289
     1
 69
     0
  7
STANDARD
140
0.18
170
     5
 62
     0
 63
     7
283
     0
274
    -2
284
     1
 64
     0
275
    -2
285
     1
 65
     0
276
    -2
286
     1
 66
     0
277
    -2
287
     1
 67
     0
278
    -2
288
     1
 68
     0
279
    -2
289
     1
 69
     0
  0
VISUALSTYLE
  5
8458
102
{ACAD_XDICTIONARY
360
8642
102
}
102
{ACAD_REACTORS
330
8452
102
}
330
8452
100
AcDbVisualStyle
  2
2dWireframe
 70
     4
 71
     0
 72
     2
 73
     0
 90
        0
 40
-0.6
 41
-30.0
 62
     5
 63
     7
 74
     1
 91
        4
 64
     7
 65
   257
 75
     1
175
     1
 42
1.0
 92
        0
 66
   257
 43
1.0
 76
     1
 77
     6
 78
     2
 67
     7
 79
     5
170
     0
171
     0
290
     0
174
     0
 93
        1
 44
0.0
173
     0
291
     0
 45
0.0
1001
ACAD
1000
AcDbSavedByObjectVersion
1070
     0
  0
VISUALSTYLE
  5
8457
102
{ACAD_XDICTIONARY
360
8640
102
}
102
{ACAD_REACTORS
330
8452
102
}
330
8452
100
AcDbVisualStyle
  2
Basic
 70
     7
 71
     1
 72
     0
 73
     1
 90
        0
 40
-0.6
 41
-30.0
 62
     5
 63
     7
 74
     0
 91
        4
 64
     7
 65
   257
 75
     1
175
     1
 42
1.0
 92
        8
 66
     7
 43
1.0
 76
     1
 77
     6
 78
     2
 67
     7
 79
     5
170
     0
171
     0
290
     0
174
     0
 93
        1
 44
0.0
173
     0
291
     1
 45
0.0
1001
ACAD
1000
AcDbSavedByObjectVersion
1070
     0
  0
VISUALSTYLE
  5
845E
102
{ACAD_XDICTIONARY
360
864E
102
}
102
{ACAD_REACTORS
330
8452
102
}
330
8452
100
AcDbVisualStyle
  2
Brighten
 70
    12
 71
     2
 72
     2
 73
     0
 90
        0
 40
-0.6
 41
-30.0
 62
     5
 63
     7
 74
     1
 91
        4
 64
     7
 65
   257
 75
     1
175
     1
 42
1.0
 92
        8
 66
     7
 43
1.0
 76
     1
 77
     6
 78
     2
 67
     7
 79
     5
170
     0
171
     0
290
     0
174
     0
 93
        1
 44
50.0
173
     0
291
     1
 45
0.0
1001
ACAD
1000
AcDbSavedByObjectVersion
1070
     0
  0
VISUALSTYLE
  5
8462
102
{ACAD_XDICTIONARY
360
8656
102
}
102
{ACAD_REACTORS
330
8452
102
}
330
8452
100
AcDbVisualStyle
  2
ColorChange
 70
    16
 71
     2
 72
     2
 73
     3
 90
        0
 40
-0.6
 41
-30.0
 62
     5
 63
     8
 74
     1
 91
        4
 64
     7
 65
   257
 75
     1
175
     1
 42
1.0
 92
        8
 66
     8
 43
1.0
 76
     1
 77
     6
 78
     2
 67
     7
 79
     5
170
     0
171
     0
290
     0
174
     0
 93
        1
 44
0.0
173
     0
291
     1
 45
0.0
1001
ACAD
1000
AcDbSavedByObjectVersion
1070
     0
  0
VISUALSTYLE
  5
845B
102
{ACAD_XDICTIONARY
360
8648
102
}
102
{ACAD_REACTORS
330
8452
102
}
330
8452
100
AcDbVisualStyle
  2
Conceptual
 70
     9
 71
     3
 72
     2
 73
     0
 90
        0
 40
-0.6
 41
-30.0
 62
     5
 63
     7
 74
     2
 91
        2
 64
     7
 65
   257
 75
     1
175
     1
 42
179.0
 92
        8
 66
     7
 43
1.0
 76
     1
 77
     6
 78
     2
 67
     7
 79
     3
170
     0
171
     0
290
     0
174
     0
 93
        1
 44
0.0
173
     0
291
     0
 45
0.0
1001
ACAD
1000
AcDbSavedByObjectVersion
1070
     0
  0
VISUALSTYLE
  5
845D
102
{ACAD_XDICTIONARY
360
864C
102
}
102
{ACAD_REACTORS
330
8452
102
}
330
8452
100
AcDbVisualStyle
  2
Dim
 70
    11
 71
     2
 72
     2
 73
     0
 90
        0
 40
-0.6
 41
-30.0
 62
     5
 63
     7
 74
     1
 91
        4
 64
     7
 65
   257
 75
     1
175
     1
 42
1.0
 92
        8
 66
     7
 43
1.0
 76
     1
 77
     6
 78
     2
 67
     7
 79
     5
170
     0
171
     0
290
     0
174
     0
 93
        1
 44
-50.0
173
     0
291
     1
 45
0.0
1001
ACAD
1000
AcDbSavedByObjectVersion
1070
     0
  0
VISUALSTYLE
  5
846A
102
{ACAD_XDICTIONARY
360
8666
102
}
102
{ACAD_REACTORS
330
8452
102
}
330
8452
100
AcDbVisualStyle
  2
EdgeColorOff
 70
    22
 71
     2
 72
     2
 73
     0
 90
        0
 40
-0.6
 41
-30.0
 62
     5
 63
     7
 74
     1
 91
        4
 64
     7
 65
   257
 75
     1
175
     1
 42
1.0
 92
        8
 66
     7
 43
1.0
 76
     1
 77
     6
 78
     2
 67
     7
 79
     5
170
     0
171
     0
290
     0
174
     0
 93
        1
 44
0.0
173
     0
291
     1
 45
0.0
1001
ACAD
1000
AcDbSavedByObjectVersion
1070
     0
  0
VISUALSTYLE
  5
8461
102
{ACAD_XDICTIONARY
360
8654
102
}
102
{ACAD_REACTORS
330
8452
102
}
330
8452
100
AcDbVisualStyle
  2
Facepattern
 70
    15
 71
     2
 72
     2
 73
     0
 90
        0
 40
-0.6
 41
-30.0
 62
     5
 63
     7
 74
     1
 91
        4
 64
     7
 65
   257
 75
     1
175
     1
 42
1.0
 92
        8
 66
     7
 43
1.0
 76
     1
 77
     6
 78
     2
 67
     7
 79
     5
170
     0
171
     0
290
     0
174
     0
 93
        1
 44
0.0
173
     0
291
     1
 45
0.0
1001
ACAD
1000
AcDbSavedByObjectVersion
1070
     0
  0
VISUALSTYLE
  5
8453
102
{ACAD_XDICTIONARY
360
8638
102
}
102
{ACAD_REACTORS
330
8452
102
}
330
8452
100
AcDbVisualStyle
  2
Flat
 70
     0
 71
     2
 72
     1
 73
     1
 90
        2
 40
-0.6
 41
30.0
 62
     5
 63
     7
 74
     0
 91
        0
 64
     7
 65
   257
 75
     1
175
     1
 42
1.0
 92
        8
 66
     7
 43
1.0
 76
     1
 77
     6
 78
     2
 67
     7
 79
     5
170
     0
171
     0
290
     0
174
     0
 93
       13
 44
0.0
173
     0
291
     1
 45
0.0
1001
ACAD
1000
AcDbSavedByObjectVersion
1070
     0
  0
VISUALSTYLE
  5
8454
102
{ACAD_XDICTIONARY
360
863A
102
}
102
{ACAD_REACTORS
330
8452
102
}
330
8452
100
AcDbVisualStyle
  2
FlatWithEdges
 70
     1
 71
     2
 72
     1
 73
     1
 90
        2
 40
-0.6
 41
30.0
 62
     5
 63
     7
 74
     1
 91
        0
 64
     7
 65
   257
 75
     1
175
     1
 42
1.0
 92
        0
 66
   257
 43
1.0
 76
     1
 77
     6
 78
     2
 67
     7
 79
     5
170
     0
171
     0
290
     0
174
     0
 93
       13
 44
0.0
173
     0
291
     1
 45
0.0
1001
ACAD
1000
AcDbSavedByObjectVersion
1070
     0
  0
VISUALSTYLE
  5
8455
102
{ACAD_XDICTIONARY
360
863C
102
}
102
{ACAD_REACTORS
330
8452
102
}
330
8452
100
AcDbVisualStyle
  2
Gouraud
 70
     2
 71
     2
 72
     2
 73
     1
 90
        2
 40
-0.6
 41
30.0
 62
     5
 63
     7
 74
     0
 91
        0
 64
     7
 65
   257
 75
     1
175
     1
 42
1.0
 92
        0
 66
     7
 43
1.0
 76
     1
 77
     6
 78
     2
 67
     7
 79
     5
170
     0
171
     0
290
     0
174
     0
 93
       13
 44
0.0
173
     0
291
     1
 45
0.0
1001
ACAD
1000
AcDbSavedByObjectVersion
1070
     0
  0
VISUALSTYLE
  5
8456
102
{ACAD_XDICTIONARY
360
863E
102
}
102
{ACAD_REACTORS
330
8452
102
}
330
8452
100
AcDbVisualStyle
  2
GouraudWithEdges
 70
     3
 71
     2
 72
     2
 73
     1
 90
        2
 40
-0.6
 41
30.0
 62
     5
 63
     7
 74
     1
 91
        0
 64
     7
 65
   257
 75
     1
175
     1
 42
1.0
 92
        0
 66
   257
 43
1.0
 76
     1
 77
     6
 78
     2
 67
     7
 79
     5
170
     0
171
     0
290
     0
174
     0
 93
       13
 44
0.0
173
     0
291
     1
 45
0.0
1001
ACAD
1000
AcDbSavedByObjectVersion
1070
     0
  0
VISUALSTYLE
  5
845A
102
{ACAD_XDICTIONARY
360
8646
102
}
102
{ACAD_REACTORS
330
8452
102
}
330
8452
100
AcDbVisualStyle
  2
Hidden
 70
     6
 71
     1
 72
     2
 73
     2
 90
        0
 40
-0.6
 41
-30.0
 62
     5
 63
     7
 74
     2
 91
        2
 64
     7
 65
   257
 75
     2
175
     1
 42
40.0
 92
        0
 66
   257
 43
1.0
 76
     1
 77
     6
 78
     2
 67
     7
 79
     3
170
     0
171
     0
290
     0
174
     0
 93
        1
 44
0.0
173
     0
291
     0
 45
0.0
1001
ACAD
1000
AcDbSavedByObjectVersion
1070
     0
  0
VISUALSTYLE
  5
8468
102
{ACAD_XDICTIONARY
360
8662
102
}
102
{ACAD_REACTORS
330
8452
102
}
330
8452
100
AcDbVisualStyle
  2
JitterOff
 70
    20
 71
     2
 72
     2
 73
     0
 90
        0
 40
-0.6
 41
-30.0
 62
     5
 63
     7
 74
     1
 91
        4
 64
     7
 65
   257
 75
     1
175
     1
 42
1.0
 92
       10
 66
     7
 43
1.0
 76
     1
 77
     6
 78
     2
 67
     7
 79
     5
170
     0
171
     0
290
     0
174
     0
 93
        1
 44
0.0
173
     0
291
     1
 45
0.0
1001
ACAD
1000
AcDbSavedByObjectVersion
1070
     0
  0
VISUALSTYLE
  5
8460
102
{ACAD_XDICTIONARY
360
8652
102
}
102
{ACAD_REACTORS
330
8452
102
}
330
8452
100
AcDbVisualStyle
  2
Linepattern
 70
    14
 71
     2
 72
     2
 73
     0
 90
        0
 40
-0.6
 41
-30.0
 62
     5
 63
     7
 74
     1
 91
        4
 64
     7
 65
   257
 75
     7
175
     7
 42
1.0
 92
        8
 66
     7
 43
1.0
 76
     1
 77
     6
 78
     2
 67
     7
 79
     5
170
     0
171
     0
290
     0
174
     0
 93
        1
 44
0.0
173
     0
291
     1
 45
0.0
1001
ACAD
1000
AcDbSavedByObjectVersion
1070
     0
  0
VISUALSTYLE
  5
8469
102
{ACAD_XDICTIONARY
360
8664
102
}
102
{ACAD_REACTORS
330
8452
102
}
330
8452
100
AcDbVisualStyle
  2
OverhangOff
 70
    21
 71
     2
 72
     2
 73
     0
 90
        0
 40
-0.6
 41
-30.0
 62
     5
 63
     7
 74
     1
 91
        4
 64
     7
 65
   257
 75
     1
175
     1
 42
1.0
 92
        9
 66
     7
 43
1.0
 76
     1
 77
     6
 78
     2
 67
     7
 79
     5
170
     0
171
     0
290
     0
174
     0
 93
        1
 44
0.0
173
     0
291
     1
 45
0.0
1001
ACAD
1000
AcDbSavedByObjectVersion
1070
     0
  0
VISUALSTYLE
  5
845C
102
{ACAD_XDICTIONARY
360
864A
102
}
102
{ACAD_REACTORS
330
8452
102
}
330
8452
100
AcDbVisualStyle
  2
Realistic
 70
     8
 71
     2
 72
     3
 73
     0
 90
        2
 40
-0.6
 41
30.0
 62
     5
 63
     7
 74
     0
 91
        0
 64
     7
 65
   257
 75
     1
175
     1
 42
1.0
 92
        8
 66
   257
 43
1.0
 76
     1
 77
     6
 78
     2
 67
     7
 79
     3
170
     0
171
     0
290
     0
174
     0
 93
       13
 44
0.0
173
     0
291
     0
 45
0.0
1001
ACAD
1000
AcDbSavedByObjectVersion
1070
     0
  0
VISUALSTYLE
  5
8467
102
{ACAD_XDICTIONARY
360
8660
102
}
102
{ACAD_REACTORS
330
8452
102
}
330
8452
100
AcDbVisualStyle
  2
Shaded
 70
    27
 71
     2
 72
     2
 73
     1
 90
        2
 40
-0.6
 41
30.0
 62
     5
 63
     7
 74
     0
 91
        4
 64
     7
 65
   257
 75
     1
175
     1
 42
1.0
 92
        8
 66
   257
 43
1.0
 76
     1
 77
     6
 78
     2
 67
     8
 79
     3
170
     0
171
     0
290
     0
174
     0
 93
        5
 44
0.0
173
     0
291
     0
 45
0.0
1001
ACAD
1000
AcDbSavedByObjectVersion
1070
     0
  0
VISUALSTYLE
  5
8466
102
{ACAD_XDICTIONARY
360
865E
102
}
102
{ACAD_REACTORS
330
8452
102
}
330
8452
100
AcDbVisualStyle
  2
Shaded with edges
 70
    26
 71
     2
 72
     2
 73
     1
 90
        2
 40
-0.6
 41
30.0
 62
     5
 63
     7
 74
     1
 91
       10
 64
     7
 65
   257
 75
     2
175
     1
 42
1.0
 92
        8
 66
   257
 43
1.0
 76
     1
 77
     6
 78
     2
 67
     7
 79
     3
170
     0
171
     0
290
     0
174
     0
 93
        5
 44
0.0
173
     0
291
     0
 45
0.0
1001
ACAD
1000
AcDbSavedByObjectVersion
1070
     0
  0
VISUALSTYLE
  5
8463
102
{ACAD_XDICTIONARY
360
8658
102
}
102
{ACAD_REACTORS
330
8452
102
}
330
8452
100
AcDbVisualStyle
  2
Shades of Gray
 70
    23
 71
     2
 72
     2
 73
     3
 90
        0
 40
-0.6
 41
-30.0
 62
     5
 63
     7
 74
     2
 91
        2
 64
     7
 65
     7
 75
     1
175
     1
 42
40.0
 92
        8
 66
     7
 43
1.0
 76
     1
 77
     6
 78
     2
 67
     7
 79
     3
170
     0
171
     0
290
     0
174
     0
 93
        1
 44
0.0
173
     0
291
     0
 45
0.0
1001
ACAD
1000
AcDbSavedByObjectVersion
1070
     0
  0
VISUALSTYLE
  5
8464
102
{ACAD_XDICTIONARY
360
865A
102
}
102
{ACAD_REACTORS
330
8452
102
}
330
8452
100
AcDbVisualStyle
  2
Sketchy
 70
    24
 71
     1
 72
     2
 73
     2
 90
        0
 40
-0.6
 41
-30.0
 62
     5
 63
     7
 74
     2
 91
        2
 64
     7
 65
     7
 75
     1
175
     1
 42
40.0
 92
       11
 66
     7
 43
1.0
 76
     1
 77
     6
 78
     2
 67
     7
 79
     6
170
     0
171
     0
290
     0
174
     0
 93
        1
 44
0.0
173
     0
291
     0
 45
0.0
1001
ACAD
1000
AcDbSavedByObjectVersion
1070
     0
  0
VISUALSTYLE
  5
845F
102
{ACAD_XDICTIONARY
360
8650
102
}
102
{ACAD_REACTORS
330
8452
102
}
330
8452
100
AcDbVisualStyle
  2
Thicken
 70
    13
 71
     2
 72
     2
 73
     0
 90
        0
 40
-0.6
 41
-30.0
 62
     5
 63
     7
 74
     1
 91
        4
 64
     7
 65
   257
 75
     1
175
     1
 42
1.0
 92
       12
 66
     7
 43
1.0
 76
     1
 77
     6
 78
     2
 67
     7
 79
     5
170
     0
171
     0
290
     0
174
     0
 93
        1
 44
0.0
173
     0
291
     1
 45
0.0
1001
ACAD
1000
AcDbSavedByObjectVersion
1070
     0
  0
VISUALSTYLE
  5
8459
102
{ACAD_XDICTIONARY
360
8644
102
}
102
{ACAD_REACTORS
330
8452
102
}
330
8452
100
AcDbVisualStyle
  2
Wireframe
 70
     5
 71
     0
 72
     2
 73
     0
 90
        0
 40
-0.6
 41
-30.0
 62
     5
 63
     7
 74
     1
 91
        4
 64
     7
 65
   257
 75
     1
175
     1
 42
1.0
 92
        0
 66
   257
 43
1.0
 76
     1
 77
     6
 78
     2
 67
     7
 79
     3
170
     0
171
     0
290
     0
174
     0
 93
        1
 44
0.0
173
     0
291
     0
 45
0.0
1001
ACAD
1000
AcDbSavedByObjectVersion
1070
     0
  0
VISUALSTYLE
  5
8465
102
{ACAD_XDICTIONARY
360
865C
102
}
102
{ACAD_REACTORS
330
8452
102
}
330
8452
100
AcDbVisualStyle
  2
X-Ray
 70
    25
 71
     2
 72
     2
 73
     1
 90
        1
 40
0.5
 41
-30.0
 62
     5
 63
     7
 74
     1
 91
        0
 64
     7
 65
   257
 75
     1
175
     1
 42
1.0
 92
        8
 66
     7
 43
1.0
 76
     1
 77
     6
 78
     2
 67
     7
 79
     3
170
     0
171
     0
290
     0
174
     0
 93
       13
 44
0.0
173
     0
291
     0
 45
0.0
1001
ACAD
1000
AcDbSavedByObjectVersion
1070
     0
  0
DICTIONARYVAR
  5
862B
102
{ACAD_REACTORS
330
8626
102
}
330
8626
100
DictionaryVariables
280
     0
  1
1:1
  0
DICTIONARYVAR
  5
8628
102
{ACAD_REACTORS
330
8626
102
}
330
8626
100
DictionaryVariables
280
     0
  1
STANDARD
  0
DICTIONARYVAR
  5
8627
102
{ACAD_REACTORS
330
8626
102
}
330
8626
100
DictionaryVariables
280
     0
  1
STANDARD
  0
DICTIONARYVAR
  5
8629
102
{ACAD_REACTORS
330
8626
102
}
330
8626
100
DictionaryVariables
280
     0
  1
Imperial24
  0
DICTIONARYVAR
  5
862A
102
{ACAD_REACTORS
330
8626
102
}
330
8626
100
DictionaryVariables
280
     0
  1
Imperial24
  0
DICTIONARYVAR
  5
862E
102
{ACAD_REACTORS
330
8626
102
}
330
8626
100
DictionaryVariables
280
     0
  1
1
  0
DICTIONARYVAR
  5
862D
102
{ACAD_REACTORS
330
8626
102
}
330
8626
100
DictionaryVariables
280
     0
  1
0
  0
DICTIONARYVAR
  5
862C
102
{ACAD_REACTORS
330
8626
102
}
330
8626
100
DictionaryVariables
280
     0
  1
127
  0
DICTIONARYVAR
  5
862F
102
{ACAD_REACTORS
330
8626
102
}
330
8626
100
DictionaryVariables
280
     0
  1
2
  0
DICTIONARY
  5
866C
330
8493
100
AcDbDictionary
280
     1
281
     1
  3
ACAD_XREC_ROUNDTRIP
360
866D
  0
DICTIONARY
  5
8670
330
849B
100
AcDbDictionary
280
     1
281
     1
  3
ACAD_XREC_ROUNDTRIP
360
8671
  0
DICTIONARY
  5
866E
330
8497
100
AcDbDictionary
280
     1
281
     1
  3
ACAD_XREC_ROUNDTRIP
360
866F
  0
DICTIONARY
  5
8443
330
8442
100
AcDbDictionary
280
     1
281
     1
  3
ACAD_XREC_ROUNDTRIP
360
8636
  3
BUMPTILE
360
8445
  3
DIFFUSETILE
360
8444
  3
OPACITYTILE
360
8448
  3
REFLECTIONTILE
360
8447
  3
REFRACTIONTILE
360
8449
  3
SPECULARTILE
360
8446
  0
DICTIONARY
  5
843B
330
843A
100
AcDbDictionary
280
     1
281
     1
  3
ACAD_XREC_ROUNDTRIP
360
8635
  3
BUMPTILE
360
843D
  3
DIFFUSETILE
360
843C
  3
OPACITYTILE
360
8440
  3
REFLECTIONTILE
360
843F
  3
REFRACTIONTILE
360
8441
  3
SPECULARTILE
360
843E
  0
DICTIONARY
  5
844B
330
844A
100
AcDbDictionary
280
     1
281
     1
  3
ACAD_XREC_ROUNDTRIP
360
8637
  3
BUMPTILE
360
844D
  3
DIFFUSETILE
360
844C
  3
OPACITYTILE
360
8450
  3
REFLECTIONTILE
360
844F
  3
REFRACTIONTILE
360
8451
  3
SPECULARTILE
360
844E
  0
DICTIONARY
  5
866A
330
8491
100
AcDbDictionary
280
     1
281
     1
  3
ACAD_XREC_ROUNDTRIP
360
866B
  0
DICTIONARY
  5
8631
330
848D
100
AcDbDictionary
280
     1
281
     1
  3
ACAD_ROUNDTRIP_2008_TABLESTYLE_CELLSTYLEMAP
360
8632
  3
ACAD_XREC_ROUNDTRIP
360
8668
  0
DICTIONARY
  5
8642
330
8458
100
AcDbDictionary
280
     1
281
     1
  3
ACAD_XREC_ROUNDTRIP
360
8643
  0
DICTIONARY
  5
8640
330
8457
100
AcDbDictionary
280
     1
281
     1
  3
ACAD_XREC_ROUNDTRIP
360
8641
  0
DICTIONARY
  5
864E
330
845E
100
AcDbDictionary
280
     1
281
     1
  3
ACAD_XREC_ROUNDTRIP
360
864F
  0
DICTIONARY
  5
8656
330
8462
100
AcDbDictionary
280
     1
281
     1
  3
ACAD_XREC_ROUNDTRIP
360
8657
  0
DICTIONARY
  5
8648
330
845B
100
AcDbDictionary
280
     1
281
     1
  3
ACAD_XREC_ROUNDTRIP
360
8649
  0
DICTIONARY
  5
864C
330
845D
100
AcDbDictionary
280
     1
281
     1
  3
ACAD_XREC_ROUNDTRIP
360
864D
  0
DICTIONARY
  5
8666
330
846A
100
AcDbDictionary
280
     1
281
     1
  3
ACAD_XREC_ROUNDTRIP
360
8667
  0
DICTIONARY
  5
8654
330
8461
100
AcDbDictionary
280
     1
281
     1
  3
ACAD_XREC_ROUNDTRIP
360
8655
  0
DICTIONARY
  5
8638
330
8453
100
AcDbDictionary
280
     1
281
     1
  3
ACAD_XREC_ROUNDTRIP
360
8639
  0
DICTIONARY
  5
863A
330
8454
100
AcDbDictionary
280
     1
281
     1
  3
ACAD_XREC_ROUNDTRIP
360
863B
  0
DICTIONARY
  5
863C
330
8455
100
AcDbDictionary
280
     1
281
     1
  3
ACAD_XREC_ROUNDTRIP
360
863D
  0
DICTIONARY
  5
863E
330
8456
100
AcDbDictionary
280
     1
281
     1
  3
ACAD_XREC_ROUNDTRIP
360
863F
  0
DICTIONARY
  5
8646
330
845A
100
AcDbDictionary
280
     1
281
     1
  3
ACAD_XREC_ROUNDTRIP
360
8647
  0
DICTIONARY
  5
8662
330
8468
100
AcDbDictionary
280
     1
281
     1
  3
ACAD_XREC_ROUNDTRIP
360
8663
  0
DICTIONARY
  5
8652
330
8460
100
AcDbDictionary
280
     1
281
     1
  3
ACAD_XREC_ROUNDTRIP
360
8653
  0
DICTIONARY
  5
8664
330
8469
100
AcDbDictionary
280
     1
281
     1
  3
ACAD_XREC_ROUNDTRIP
360
8665
  0
DICTIONARY
  5
864A
330
845C
100
AcDbDictionary
280
     1
281
     1
  3
ACAD_XREC_ROUNDTRIP
360
864B
  0
DICTIONARY
  5
8660
330
8467
100
AcDbDictionary
280
     1
281
     1
  3
ACAD_XREC_ROUNDTRIP
360
8661
  0
DICTIONARY
  5
865E
330
8466
100
AcDbDictionary
280
     1
281
     1
  3
ACAD_XREC_ROUNDTRIP
360
865F
  0
DICTIONARY
  5
8658
330
8463
100
AcDbDictionary
280
     1
281
     1
  3
ACAD_XREC_ROUNDTRIP
360
8659
  0
DICTIONARY
  5
865A
330
8464
100
AcDbDictionary
280
     1
281
     1
  3
ACAD_XREC_ROUNDTRIP
360
865B
  0
DICTIONARY
  5
8650
330
845F
100
AcDbDictionary
280
     1
281
     1
  3
ACAD_XREC_ROUNDTRIP
360
8651
  0
DICTIONARY
  5
8644
330
8459
100
AcDbDictionary
280
     1
281
     1
  3
ACAD_XREC_ROUNDTRIP
360
8645
  0
DICTIONARY
  5
865C
330
8465
100
AcDbDictionary
280
     1
281
     1
  3
ACAD_XREC_ROUNDTRIP
360
865D
  0
XRECORD
  5
866D
102
{ACAD_REACTORS
330
866C
102
}
330
866C
100
AcDbXrecord
280
     1
102
DISPLAYNAME
  1
Imperial24
102
FLAGS
 90
        0
  0
XRECORD
  5
8671
102
{ACAD_REACTORS
330
8670
102
}
330
8670
100
AcDbXrecord
280
     1
102
SHADEPLOT
 70
     0
102
SHADEPLOTRESLEVEL
 70
     2
102
SHADEPLOTCUSTOMDPI
 70
   300
  0
XRECORD
  5
866F
102
{ACAD_REACTORS
330
866E
102
}
330
866E
100
AcDbXrecord
280
     1
102
SHADEPLOT
 70
     0
102
SHADEPLOTRESLEVEL
 70
     2
102
SHADEPLOTCUSTOMDPI
 70
   300
  0
XRECORD
  5
8636
102
{ACAD_REACTORS
330
8443
102
}
330
8443
100
AcDbXrecord
280
     1
102
MATERIAL
148
0.0
149
0.0
149
0.0
 93
        0
 94
      127
282
     0
 72
     0
 77
     0
171
     0
175
     0
179
     0
273
     0
  0
XRECORD
  5
8445
102
{ACAD_REACTORS
330
8443
102
}
330
8443
100
AcDbXrecord
280
     1
270
     1
271
     1
  0
XRECORD
  5
8444
102
{ACAD_REACTORS
330
8443
102
}
330
8443
100
AcDbXrecord
280
     1
270
     1
271
     1
  0
XRECORD
  5
8448
102
{ACAD_REACTORS
330
8443
102
}
330
8443
100
AcDbXrecord
280
     1
270
     1
271
     1
  0
XRECORD
  5
8447
102
{ACAD_REACTORS
330
8443
102
}
330
8443
100
AcDbXrecord
280
     1
270
     1
271
     1
  0
XRECORD
  5
8449
102
{ACAD_REACTORS
330
8443
102
}
330
8443
100
AcDbXrecord
280
     1
270
     1
271
     1
  0
XRECORD
  5
8446
102
{ACAD_REACTORS
330
8443
102
}
330
8443
100
AcDbXrecord
280
     1
270
     1
271
     1
  0
XRECORD
  5
8635
102
{ACAD_REACTORS
330
843B
102
}
330
843B
100
AcDbXrecord
280
     1
102
MATERIAL
148
0.0
149
0.0
149
0.0
 93
        0
 94
      127
282
     0
 72
     0
 77
     0
171
     0
175
     0
179
     0
273
     0
  0
XRECORD
  5
843D
102
{ACAD_REACTORS
330
843B
102
}
330
843B
100
AcDbXrecord
280
     1
270
     1
271
     1
  0
XRECORD
  5
843C
102
{ACAD_REACTORS
330
843B
102
}
330
843B
100
AcDbXrecord
280
     1
270
     1
271
     1
  0
XRECORD
  5
8440
102
{ACAD_REACTORS
330
843B
102
}
330
843B
100
AcDbXrecord
280
     1
270
     1
271
     1
  0
XRECORD
  5
843F
102
{ACAD_REACTORS
330
843B
102
}
330
843B
100
AcDbXrecord
280
     1
270
     1
271
     1
  0
XRECORD
  5
8441
102
{ACAD_REACTORS
330
843B
102
}
330
843B
100
AcDbXrecord
280
     1
270
     1
271
     1
  0
XRECORD
  5
843E
102
{ACAD_REACTORS
330
843B
102
}
330
843B
100
AcDbXrecord
280
     1
270
     1
271
     1
  0
XRECORD
  5
8637
102
{ACAD_REACTORS
330
844B
102
}
330
844B
100
AcDbXrecord
280
     1
102
MATERIAL
148
0.0
149
0.0
149
0.0
 93
        0
 94
      127
282
     0
 72
     0
 77
     0
171
     0
175
     0
179
     0
273
     0
  0
XRECORD
  5
844D
102
{ACAD_REACTORS
330
844B
102
}
330
844B
100
AcDbXrecord
280
     1
270
     1
271
     1
  0
XRECORD
  5
844C
102
{ACAD_REACTORS
330
844B
102
}
330
844B
100
AcDbXrecord
280
     1
270
     1
271
     1
  0
XRECORD
  5
8450
102
{ACAD_REACTORS
330
844B
102
}
330
844B
100
AcDbXrecord
280
     1
270
     1
271
     1
  0
XRECORD
  5
844F
102
{ACAD_REACTORS
330
844B
102
}
330
844B
100
AcDbXrecord
280
     1
270
     1
271
     1
  0
XRECORD
  5
8451
102
{ACAD_REACTORS
330
844B
102
}
330
844B
100
AcDbXrecord
280
     1
270
     1
271
     1
  0
XRECORD
  5
844E
102
{ACAD_REACTORS
330
844B
102
}
330
844B
100
AcDbXrecord
280
     1
270
     1
271
     1
  0
XRECORD
  5
866B
102
{ACAD_REACTORS
330
866A
102
}
330
866A
100
AcDbXrecord
280
     1
102
DISPLAYNAME
  1
Imperial24
102
FLAGS
 90
        0
  0
CELLSTYLEMAP
  5
8632
102
{ACAD_REACTORS
330
8631
102
}
330
8631
100
AcDbCellStyleMap
 90
        3
300
CELLSTYLE
  1
TABLEFORMAT_BEGIN
 90
        5
170
     1
 91
        0
 92
    32768
 62
   257
 93
        1
300
CONTENTFORMAT
  1
CONTENTFORMAT_BEGIN
 90
        0
 91
        0
 92
      512
 93
        0
300

 40
0.0
140
1.0
 94
        5
 62
     0
340
847E
144
0.25
309
CONTENTFORMAT_END
171
     0
 94
        0
309
TABLEFORMAT_END
  1
CELLSTYLE_BEGIN
 90
        1
 91
        1
300
_TITLE
309
CELLSTYLE_END
300
CELLSTYLE
  1
TABLEFORMAT_BEGIN
 90
        5
170
     1
 91
        0
 92
        0
 62
   257
 93
        1
300
CONTENTFORMAT
  1
CONTENTFORMAT_BEGIN
 90
        0
 91
        0
 92
      512
 93
        0
300

 40
0.0
140
1.0
 94
        5
 62
     0
340
847E
144
0.18
309
CONTENTFORMAT_END
171
     0
 94
        0
309
TABLEFORMAT_END
  1
CELLSTYLE_BEGIN
 90
        2
 91
        1
300
_HEADER
309
CELLSTYLE_END
300
CELLSTYLE
  1
TABLEFORMAT_BEGIN
 90
        5
170
     1
 91
        0
 92
        0
 62
   257
 93
        1
300
CONTENTFORMAT
  1
CONTENTFORMAT_BEGIN
 90
        0
 91
        0
 92
      512
 93
        0
300

 40
0.0
140
1.0
 94
        2
 62
     0
340
847E
144
0.18
309
CONTENTFORMAT_END
171
     0
 94
        0
309
TABLEFORMAT_END
  1
CELLSTYLE_BEGIN
 90
        3
 91
        2
300
_DATA
309
CELLSTYLE_END
  0
XRECORD
  5
8668
102
{ACAD_REACTORS
330
8631
102
}
330
8631
100
AcDbXrecord
280
     1
102
ACAD_ROUNDTRIP_PRE2007_TABLESTYLE
 90
      512
 91
        0
  1

 92
      512
 93
        0
  2

 94
      512
 95
        0
  3

  0
XRECORD
  5
8643
102
{ACAD_REACTORS
330
8642
102
}
330
8642
100
AcDbXrecord
280
     1
102
RTVSPost2010Prop28
280
     1
102
RTVSPost2010PropOp28
 70
     1
102
RTVSPost2010Prop29
280
     1
102
RTVSPost2010PropOp29
 70
     1
102
RTVSPost2010Prop30
280
     0
102
RTVSPost2010PropOp30
 70
     1
102
RTVSPost2010Prop31
280
     0
102
RTVSPost2010PropOp31
 70
     1
102
RTVSPost2010Prop32
280
     0
102
RTVSPost2010PropOp32
 70
     1
102
RTVSPost2010Prop33
280
     0
102
RTVSPost2010PropOp33
 70
     1
102
RTVSPost2010Prop34
280
     0
102
RTVSPost2010PropOp34
 70
     1
102
RTVSPost2010Prop35
280
     0
102
RTVSPost2010PropOp35
 70
     1
102
RTVSPost2010Prop36
280
     0
102
RTVSPost2010PropOp36
 70
     1
102
RTVSPost2010Prop37
 90
       50
102
RTVSPost2010PropOp37
 70
     1
102
RTVSPost2010Prop38
140
0.0
102
RTVSPost2010PropOp38
 70
     1
102
RTVSPost2010Prop39
140
1.0
102
RTVSPost2010PropOp39
 70
     1
102
RTVSPost2010Prop40
 90
        0
102
RTVSPost2010PropOp40
 70
     1
102
RTVSPost2010Prop41ColorIndex
 90
       18
102
RTVSPost2010Prop41ColorRGB
 90
        0
102
RTVSPost2010PropOp41
 70
     1
102
RTVSPost2010Prop42
 90
       50
102
RTVSPost2010PropOp42
 70
     1
102
RTVSPost2010Prop43
 90
        3
102
RTVSPost2010PropOp43
 70
     1
102
RTVSPost2010Prop44ColorIndex
 90
        5
102
RTVSPost2010Prop44ColorRGB
 90
      255
102
RTVSPost2010PropOp44
 70
     1
102
RTVSPost2010Prop45
280
     0
102
RTVSPost2010PropOp45
 70
     1
102
RTVSPost2010Prop46
 90
       50
102
RTVSPost2010PropOp46
 70
     1
102
RTVSPost2010Prop47
 90
       50
102
RTVSPost2010PropOp47
 70
     1
102
RTVSPost2010Prop48
 90
       50
102
RTVSPost2010PropOp48
 70
     1
102
RTVSPost2010Prop49
280
     0
102
RTVSPost2010PropOp49
 70
     1
102
RTVSPost2010Prop50
 90
       50
102
RTVSPost2010PropOp50
 70
     1
102
RTVSPost2010Prop51ColorIndex
 90
      256
102
RTVSPost2010Prop51ColorRGB
 90
-16777216
102
RTVSPost2010PropOp51
 70
     0
102
RTVSPost2010Prop52
140
1.0
102
RTVSPost2010PropOp52
 70
     0
102
RTVSPost2010Prop53
 90
        2
102
RTVSPost2010PropOp53
 70
     1
102
RTVSPost2010Prop54
  1
strokes_ogs.tif
102
RTVSPost2010PropOp54
 70
     1
102
RTVSPost2010Prop55
280
     0
102
RTVSPost2010PropOp55
 70
     1
102
RTVSPost2010Prop56
140
1.0
102
RTVSPost2010PropOp56
 70
     1
102
RTVSPost2010Prop57
140
1.0
102
RTVSPost2010PropOp57
 70
     1
102
RTVSPropertyOp0
 70
     1
102
RTVSPropertyOp1
 70
     1
102
RTVSPropertyOp2
 70
     1
102
RTVSPropertyOp3
 70
     1
102
RTVSPropertyOp4
 70
     1
102
RTVSPropertyOp5
 70
     1
102
RTVSPropertyOp6
 70
     1
102
RTVSPropertyOp7
 70
     1
102
RTVSPropertyOp8
 70
     1
102
RTVSPropertyOp9
 70
     1
102
RTVSPropertyOp10
 70
     1
102
RTVSPropertyOp11
 70
     1
102
RTVSPropertyOp12
 70
     1
102
RTVSPropertyOp13
 70
     1
102
RTVSPropertyOp14
 70
     1
102
RTVSPropertyOp15
 70
     1
102
RTVSPropertyOp16
 70
     1
102
RTVSPropertyOp17
 70
     1
102
RTVSPropertyOp18
 70
     1
102
RTVSPropertyOp19
 70
     1
102
RTVSPropertyOp20
 70
     1
102
RTVSPropertyOp21
 70
     1
102
RTVSPropertyOp22
 70
     1
102
RTVSPropertyOp23
 70
     1
102
RTVSPropertyOp24
 70
     1
102
RTVSPropertyOp25
 70
     1
102
RTVSPropertyOp26
 70
     1
102
RTVSPropertyOp27
 70
     1
102
RTVSPropertyOp28
 70
     1
102
RTVSPropertyOp29
 70
     1
102
RTVSPropertyOp30
 70
     1
102
RTVSPropertyOp31
 70
     1
102
RTVSPropertyOp32
 70
     1
102
RTVSPropertyOp33
 70
     1
102
RTVSPropertyOp34
 70
     1
102
RTVSPropertyOp35
 70
     1
102
RTVSPropertyOp36
 70
     1
102
RTVSPropertyOp37
 70
     1
102
RTVSPropertyOp38
 70
     1
102
RTVSPropertyOp39
 70
     1
102
RTVSPropertyOp40
 70
     1
102
RTVSPropertyOp41
 70
     1
102
RTVSPropertyOp42
 70
     1
102
RTVSPropertyOp43
 70
     1
102
RTVSPropertyOp44
 70
     1
102
RTVSPropertyOp45
 70
     1
102
RTVSPropertyOp46
 70
     1
102
RTVSPropertyOp47
 70
     1
102
RTVSPropertyOp48
 70
     1
102
RTVSPropertyOp49
 70
     1
102
RTVSPropertyOp50
 70
     1
102
RTVSPropertyOp51
 70
     0
102
RTVSPropertyOp52
 70
     0
102
RTVSPropertyOp53
 70
     1
102
RTVSPropertyOp54
 70
     1
102
RTVSPropertyOp55
 70
     1
102
RTVSPropertyOp56
 70
     1
102
RTVSPropertyOp57
 70
     1
102
RTVSPropertyOp58
 70
     1
102
RTVSPropertyOp59
 70
     1
102
RTVSPropertyOp60
 70
     1
102
RTVSPropertyOp61
 70
     1
102
RTVSPropertyOp62
 70
     1
  0
XRECORD
  5
8641
102
{ACAD_REACTORS
330
8640
102
}
330
8640
100
AcDbXrecord
280
     1
102
RTVSPost2010Prop28
280
     0
102
RTVSPost2010PropOp28
 70
     1
102
RTVSPost2010Prop29
280
     1
102
RTVSPost2010PropOp29
 70
     1
102
RTVSPost2010Prop30
280
     1
102
RTVSPost2010PropOp30
 70
     1
102
RTVSPost2010Prop31
280
     0
102
RTVSPost2010PropOp31
 70
     1
102
RTVSPost2010Prop32
280
     0
102
RTVSPost2010PropOp32
 70
     1
102
RTVSPost2010Prop33
280
     0
102
RTVSPost2010PropOp33
 70
     1
102
RTVSPost2010Prop34
280
     0
102
RTVSPost2010PropOp34
 70
     1
102
RTVSPost2010Prop35
280
     0
102
RTVSPost2010PropOp35
 70
     1
102
RTVSPost2010Prop36
280
     0
102
RTVSPost2010PropOp36
 70
     1
102
RTVSPost2010Prop37
 90
       50
102
RTVSPost2010PropOp37
 70
     1
102
RTVSPost2010Prop38
140
0.0
102
RTVSPost2010PropOp38
 70
     1
102
RTVSPost2010Prop39
140
1.0
102
RTVSPost2010PropOp39
 70
     1
102
RTVSPost2010Prop40
 90
        0
102
RTVSPost2010PropOp40
 70
     1
102
RTVSPost2010Prop41ColorIndex
 90
       18
102
RTVSPost2010Prop41ColorRGB
 90
        0
102
RTVSPost2010PropOp41
 70
     1
102
RTVSPost2010Prop42
 90
       50
102
RTVSPost2010PropOp42
 70
     1
102
RTVSPost2010Prop43
 90
        3
102
RTVSPost2010PropOp43
 70
     1
102
RTVSPost2010Prop44ColorIndex
 90
        5
102
RTVSPost2010Prop44ColorRGB
 90
      255
102
RTVSPost2010PropOp44
 70
     1
102
RTVSPost2010Prop45
280
     0
102
RTVSPost2010PropOp45
 70
     1
102
RTVSPost2010Prop46
 90
       50
102
RTVSPost2010PropOp46
 70
     1
102
RTVSPost2010Prop47
 90
       50
102
RTVSPost2010PropOp47
 70
     1
102
RTVSPost2010Prop48
 90
       50
102
RTVSPost2010PropOp48
 70
     1
102
RTVSPost2010Prop49
280
     0
102
RTVSPost2010PropOp49
 70
     1
102
RTVSPost2010Prop50
 90
       50
102
RTVSPost2010PropOp50
 70
     1
102
RTVSPost2010Prop51ColorIndex
 90
      256
102
RTVSPost2010Prop51ColorRGB
 90
-16777216
102
RTVSPost2010PropOp51
 70
     0
102
RTVSPost2010Prop52
140
1.0
102
RTVSPost2010PropOp52
 70
     0
102
RTVSPost2010Prop53
 90
        2
102
RTVSPost2010PropOp53
 70
     1
102
RTVSPost2010Prop54
  1
strokes_ogs.tif
102
RTVSPost2010PropOp54
 70
     1
102
RTVSPost2010Prop55
280
     0
102
RTVSPost2010PropOp55
 70
     1
102
RTVSPost2010Prop56
140
1.0
102
RTVSPost2010PropOp56
 70
     1
102
RTVSPost2010Prop57
140
1.0
102
RTVSPost2010PropOp57
 70
     1
102
RTVSPropertyOp0
 70
     1
102
RTVSPropertyOp1
 70
     1
102
RTVSPropertyOp2
 70
     1
102
RTVSPropertyOp3
 70
     1
102
RTVSPropertyOp4
 70
     1
102
RTVSPropertyOp5
 70
     1
102
RTVSPropertyOp6
 70
     1
102
RTVSPropertyOp7
 70
     1
102
RTVSPropertyOp8
 70
     1
102
RTVSPropertyOp9
 70
     1
102
RTVSPropertyOp10
 70
     1
102
RTVSPropertyOp11
 70
     1
102
RTVSPropertyOp12
 70
     1
102
RTVSPropertyOp13
 70
     1
102
RTVSPropertyOp14
 70
     1
102
RTVSPropertyOp15
 70
     1
102
RTVSPropertyOp16
 70
     1
102
RTVSPropertyOp17
 70
     1
102
RTVSPropertyOp18
 70
     1
102
RTVSPropertyOp19
 70
     1
102
RTVSPropertyOp20
 70
     1
102
RTVSPropertyOp21
 70
     1
102
RTVSPropertyOp22
 70
     1
102
RTVSPropertyOp23
 70
     1
102
RTVSPropertyOp24
 70
     1
102
RTVSPropertyOp25
 70
     1
102
RTVSPropertyOp26
 70
     1
102
RTVSPropertyOp27
 70
     1
102
RTVSPropertyOp28
 70
     1
102
RTVSPropertyOp29
 70
     1
102
RTVSPropertyOp30
 70
     1
102
RTVSPropertyOp31
 70
     1
102
RTVSPropertyOp32
 70
     1
102
RTVSPropertyOp33
 70
     1
102
RTVSPropertyOp34
 70
     1
102
RTVSPropertyOp35
 70
     1
102
RTVSPropertyOp36
 70
     1
102
RTVSPropertyOp37
 70
     1
102
RTVSPropertyOp38
 70
     1
102
RTVSPropertyOp39
 70
     1
102
RTVSPropertyOp40
 70
     1
102
RTVSPropertyOp41
 70
     1
102
RTVSPropertyOp42
 70
     1
102
RTVSPropertyOp43
 70
     1
102
RTVSPropertyOp44
 70
     1
102
RTVSPropertyOp45
 70
     1
102
RTVSPropertyOp46
 70
     1
102
RTVSPropertyOp47
 70
     1
102
RTVSPropertyOp48
 70
     1
102
RTVSPropertyOp49
 70
     1
102
RTVSPropertyOp50
 70
     1
102
RTVSPropertyOp51
 70
     0
102
RTVSPropertyOp52
 70
     0
102
RTVSPropertyOp53
 70
     1
102
RTVSPropertyOp54
 70
     1
102
RTVSPropertyOp55
 70
     1
102
RTVSPropertyOp56
 70
     1
102
RTVSPropertyOp57
 70
     1
102
RTVSPropertyOp58
 70
     1
102
RTVSPropertyOp59
 70
     1
102
RTVSPropertyOp60
 70
     1
102
RTVSPropertyOp61
 70
     1
102
RTVSPropertyOp62
 70
     1
  0
XRECORD
  5
864F
102
{ACAD_REACTORS
330
864E
102
}
330
864E
100
AcDbXrecord
280
     1
102
RTVSPost2010Prop28
280
     0
102
RTVSPost2010PropOp28
 70
     1
102
RTVSPost2010Prop29
280
     1
102
RTVSPost2010PropOp29
 70
     1
102
RTVSPost2010Prop30
280
     1
102
RTVSPost2010PropOp30
 70
     1
102
RTVSPost2010Prop31
280
     0
102
RTVSPost2010PropOp31
 70
     1
102
RTVSPost2010Prop32
280
     0
102
RTVSPost2010PropOp32
 70
     1
102
RTVSPost2010Prop33
280
     0
102
RTVSPost2010PropOp33
 70
     1
102
RTVSPost2010Prop34
280
     0
102
RTVSPost2010PropOp34
 70
     1
102
RTVSPost2010Prop35
280
     0
102
RTVSPost2010PropOp35
 70
     1
102
RTVSPost2010Prop36
280
     0
102
RTVSPost2010PropOp36
 70
     1
102
RTVSPost2010Prop37
 90
       50
102
RTVSPost2010PropOp37
 70
     1
102
RTVSPost2010Prop38
140
0.0
102
RTVSPost2010PropOp38
 70
     1
102
RTVSPost2010Prop39
140
1.0
102
RTVSPost2010PropOp39
 70
     1
102
RTVSPost2010Prop40
 90
        0
102
RTVSPost2010PropOp40
 70
     1
102
RTVSPost2010Prop41ColorIndex
 90
       18
102
RTVSPost2010Prop41ColorRGB
 90
        0
102
RTVSPost2010PropOp41
 70
     1
102
RTVSPost2010Prop42
 90
       50
102
RTVSPost2010PropOp42
 70
     1
102
RTVSPost2010Prop43
 90
        3
102
RTVSPost2010PropOp43
 70
     1
102
RTVSPost2010Prop44ColorIndex
 90
        5
102
RTVSPost2010Prop44ColorRGB
 90
      255
102
RTVSPost2010PropOp44
 70
     1
102
RTVSPost2010Prop45
280
     0
102
RTVSPost2010PropOp45
 70
     1
102
RTVSPost2010Prop46
 90
       50
102
RTVSPost2010PropOp46
 70
     1
102
RTVSPost2010Prop47
 90
       50
102
RTVSPost2010PropOp47
 70
     1
102
RTVSPost2010Prop48
 90
       50
102
RTVSPost2010PropOp48
 70
     1
102
RTVSPost2010Prop49
280
     0
102
RTVSPost2010PropOp49
 70
     1
102
RTVSPost2010Prop50
 90
       50
102
RTVSPost2010PropOp50
 70
     1
102
RTVSPost2010Prop51ColorIndex
 90
      256
102
RTVSPost2010Prop51ColorRGB
 90
-16777216
102
RTVSPost2010PropOp51
 70
     0
102
RTVSPost2010Prop52
140
1.0
102
RTVSPost2010PropOp52
 70
     0
102
RTVSPost2010Prop53
 90
        2
102
RTVSPost2010PropOp53
 70
     1
102
RTVSPost2010Prop54
  1
strokes_ogs.tif
102
RTVSPost2010PropOp54
 70
     1
102
RTVSPost2010Prop55
280
     0
102
RTVSPost2010PropOp55
 70
     1
102
RTVSPost2010Prop56
140
1.0
102
RTVSPost2010PropOp56
 70
     1
102
RTVSPost2010Prop57
140
1.0
102
RTVSPost2010PropOp57
 70
     1
102
RTVSPropertyOp0
 70
     1
102
RTVSPropertyOp1
 70
     1
102
RTVSPropertyOp2
 70
     1
102
RTVSPropertyOp3
 70
     1
102
RTVSPropertyOp4
 70
     1
102
RTVSPropertyOp5
 70
     1
102
RTVSPropertyOp6
 70
     1
102
RTVSPropertyOp7
 70
     1
102
RTVSPropertyOp8
 70
     1
102
RTVSPropertyOp9
 70
     1
102
RTVSPropertyOp10
 70
     1
102
RTVSPropertyOp11
 70
     1
102
RTVSPropertyOp12
 70
     1
102
RTVSPropertyOp13
 70
     1
102
RTVSPropertyOp14
 70
     1
102
RTVSPropertyOp15
 70
     1
102
RTVSPropertyOp16
 70
     1
102
RTVSPropertyOp17
 70
     1
102
RTVSPropertyOp18
 70
     1
102
RTVSPropertyOp19
 70
     1
102
RTVSPropertyOp20
 70
     1
102
RTVSPropertyOp21
 70
     1
102
RTVSPropertyOp22
 70
     1
102
RTVSPropertyOp23
 70
     1
102
RTVSPropertyOp24
 70
     1
102
RTVSPropertyOp25
 70
     1
102
RTVSPropertyOp26
 70
     1
102
RTVSPropertyOp27
 70
     1
102
RTVSPropertyOp28
 70
     1
102
RTVSPropertyOp29
 70
     1
102
RTVSPropertyOp30
 70
     1
102
RTVSPropertyOp31
 70
     1
102
RTVSPropertyOp32
 70
     1
102
RTVSPropertyOp33
 70
     1
102
RTVSPropertyOp34
 70
     1
102
RTVSPropertyOp35
 70
     1
102
RTVSPropertyOp36
 70
     1
102
RTVSPropertyOp37
 70
     1
102
RTVSPropertyOp38
 70
     1
102
RTVSPropertyOp39
 70
     1
102
RTVSPropertyOp40
 70
     1
102
RTVSPropertyOp41
 70
     1
102
RTVSPropertyOp42
 70
     1
102
RTVSPropertyOp43
 70
     1
102
RTVSPropertyOp44
 70
     1
102
RTVSPropertyOp45
 70
     1
102
RTVSPropertyOp46
 70
     1
102
RTVSPropertyOp47
 70
     1
102
RTVSPropertyOp48
 70
     1
102
RTVSPropertyOp49
 70
     1
102
RTVSPropertyOp50
 70
     1
102
RTVSPropertyOp51
 70
     0
102
RTVSPropertyOp52
 70
     0
102
RTVSPropertyOp53
 70
     1
102
RTVSPropertyOp54
 70
     1
102
RTVSPropertyOp55
 70
     1
102
RTVSPropertyOp56
 70
     1
102
RTVSPropertyOp57
 70
     1
102
RTVSPropertyOp58
 70
     1
102
RTVSPropertyOp59
 70
     1
102
RTVSPropertyOp60
 70
     1
102
RTVSPropertyOp61
 70
     1
102
RTVSPropertyOp62
 70
     1
  0
XRECORD
  5
8657
102
{ACAD_REACTORS
330
8656
102
}
330
8656
100
AcDbXrecord
280
     1
102
RTVSPost2010Prop28
280
     0
102
RTVSPost2010PropOp28
 70
     1
102
RTVSPost2010Prop29
280
     1
102
RTVSPost2010PropOp29
 70
     1
102
RTVSPost2010Prop30
280
     1
102
RTVSPost2010PropOp30
 70
     1
102
RTVSPost2010Prop31
280
     0
102
RTVSPost2010PropOp31
 70
     1
102
RTVSPost2010Prop32
280
     0
102
RTVSPost2010PropOp32
 70
     1
102
RTVSPost2010Prop33
280
     0
102
RTVSPost2010PropOp33
 70
     1
102
RTVSPost2010Prop34
280
     0
102
RTVSPost2010PropOp34
 70
     1
102
RTVSPost2010Prop35
280
     0
102
RTVSPost2010PropOp35
 70
     1
102
RTVSPost2010Prop36
280
     0
102
RTVSPost2010PropOp36
 70
     1
102
RTVSPost2010Prop37
 90
       50
102
RTVSPost2010PropOp37
 70
     1
102
RTVSPost2010Prop38
140
0.0
102
RTVSPost2010PropOp38
 70
     1
102
RTVSPost2010Prop39
140
1.0
102
RTVSPost2010PropOp39
 70
     1
102
RTVSPost2010Prop40
 90
        0
102
RTVSPost2010PropOp40
 70
     1
102
RTVSPost2010Prop41ColorIndex
 90
       18
102
RTVSPost2010Prop41ColorRGB
 90
        0
102
RTVSPost2010PropOp41
 70
     1
102
RTVSPost2010Prop42
 90
       50
102
RTVSPost2010PropOp42
 70
     1
102
RTVSPost2010Prop43
 90
        3
102
RTVSPost2010PropOp43
 70
     1
102
RTVSPost2010Prop44ColorIndex
 90
        5
102
RTVSPost2010Prop44ColorRGB
 90
      255
102
RTVSPost2010PropOp44
 70
     1
102
RTVSPost2010Prop45
280
     0
102
RTVSPost2010PropOp45
 70
     1
102
RTVSPost2010Prop46
 90
       50
102
RTVSPost2010PropOp46
 70
     1
102
RTVSPost2010Prop47
 90
       50
102
RTVSPost2010PropOp47
 70
     1
102
RTVSPost2010Prop48
 90
       50
102
RTVSPost2010PropOp48
 70
     1
102
RTVSPost2010Prop49
280
     0
102
RTVSPost2010PropOp49
 70
     1
102
RTVSPost2010Prop50
 90
       50
102
RTVSPost2010PropOp50
 70
     1
102
RTVSPost2010Prop51ColorIndex
 90
      256
102
RTVSPost2010Prop51ColorRGB
 90
-16777216
102
RTVSPost2010PropOp51
 70
     0
102
RTVSPost2010Prop52
140
1.0
102
RTVSPost2010PropOp52
 70
     0
102
RTVSPost2010Prop53
 90
        2
102
RTVSPost2010PropOp53
 70
     1
102
RTVSPost2010Prop54
  1
strokes_ogs.tif
102
RTVSPost2010PropOp54
 70
     1
102
RTVSPost2010Prop55
280
     0
102
RTVSPost2010PropOp55
 70
     1
102
RTVSPost2010Prop56
140
1.0
102
RTVSPost2010PropOp56
 70
     1
102
RTVSPost2010Prop57
140
1.0
102
RTVSPost2010PropOp57
 70
     1
102
RTVSPropertyOp0
 70
     1
102
RTVSPropertyOp1
 70
     1
102
RTVSPropertyOp2
 70
     1
102
RTVSPropertyOp3
 70
     1
102
RTVSPropertyOp4
 70
     1
102
RTVSPropertyOp5
 70
     1
102
RTVSPropertyOp6
 70
     1
102
RTVSPropertyOp7
 70
     1
102
RTVSPropertyOp8
 70
     1
102
RTVSPropertyOp9
 70
     1
102
RTVSPropertyOp10
 70
     1
102
RTVSPropertyOp11
 70
     1
102
RTVSPropertyOp12
 70
     1
102
RTVSPropertyOp13
 70
     1
102
RTVSPropertyOp14
 70
     1
102
RTVSPropertyOp15
 70
     1
102
RTVSPropertyOp16
 70
     1
102
RTVSPropertyOp17
 70
     1
102
RTVSPropertyOp18
 70
     1
102
RTVSPropertyOp19
 70
     1
102
RTVSPropertyOp20
 70
     1
102
RTVSPropertyOp21
 70
     1
102
RTVSPropertyOp22
 70
     1
102
RTVSPropertyOp23
 70
     1
102
RTVSPropertyOp24
 70
     1
102
RTVSPropertyOp25
 70
     1
102
RTVSPropertyOp26
 70
     1
102
RTVSPropertyOp27
 70
     1
102
RTVSPropertyOp28
 70
     1
102
RTVSPropertyOp29
 70
     1
102
RTVSPropertyOp30
 70
     1
102
RTVSPropertyOp31
 70
     1
102
RTVSPropertyOp32
 70
     1
102
RTVSPropertyOp33
 70
     1
102
RTVSPropertyOp34
 70
     1
102
RTVSPropertyOp35
 70
     1
102
RTVSPropertyOp36
 70
     1
102
RTVSPropertyOp37
 70
     1
102
RTVSPropertyOp38
 70
     1
102
RTVSPropertyOp39
 70
     1
102
RTVSPropertyOp40
 70
     1
102
RTVSPropertyOp41
 70
     1
102
RTVSPropertyOp42
 70
     1
102
RTVSPropertyOp43
 70
     1
102
RTVSPropertyOp44
 70
     1
102
RTVSPropertyOp45
 70
     1
102
RTVSPropertyOp46
 70
     1
102
RTVSPropertyOp47
 70
     1
102
RTVSPropertyOp48
 70
     1
102
RTVSPropertyOp49
 70
     1
102
RTVSPropertyOp50
 70
     1
102
RTVSPropertyOp51
 70
     0
102
RTVSPropertyOp52
 70
     0
102
RTVSPropertyOp53
 70
     1
102
RTVSPropertyOp54
 70
     1
102
RTVSPropertyOp55
 70
     1
102
RTVSPropertyOp56
 70
     1
102
RTVSPropertyOp57
 70
     1
102
RTVSPropertyOp58
 70
     1
102
RTVSPropertyOp59
 70
     1
102
RTVSPropertyOp60
 70
     1
102
RTVSPropertyOp61
 70
     1
102
RTVSPropertyOp62
 70
     1
  0
XRECORD
  5
8649
102
{ACAD_REACTORS
330
8648
102
}
330
8648
100
AcDbXrecord
280
     1
102
RTVSPost2010Prop28
280
     0
102
RTVSPost2010PropOp28
 70
     1
102
RTVSPost2010Prop29
280
     1
102
RTVSPost2010PropOp29
 70
     1
102
RTVSPost2010Prop30
280
     1
102
RTVSPost2010PropOp30
 70
     1
102
RTVSPost2010Prop31
280
     0
102
RTVSPost2010PropOp31
 70
     1
102
RTVSPost2010Prop32
280
     0
102
RTVSPost2010PropOp32
 70
     1
102
RTVSPost2010Prop33
280
     0
102
RTVSPost2010PropOp33
 70
     1
102
RTVSPost2010Prop34
280
     0
102
RTVSPost2010PropOp34
 70
     1
102
RTVSPost2010Prop35
280
     0
102
RTVSPost2010PropOp35
 70
     1
102
RTVSPost2010Prop36
280
     0
102
RTVSPost2010PropOp36
 70
     1
102
RTVSPost2010Prop37
 90
       50
102
RTVSPost2010PropOp37
 70
     1
102
RTVSPost2010Prop38
140
0.0
102
RTVSPost2010PropOp38
 70
     1
102
RTVSPost2010Prop39
140
1.0
102
RTVSPost2010PropOp39
 70
     1
102
RTVSPost2010Prop40
 90
        0
102
RTVSPost2010PropOp40
 70
     1
102
RTVSPost2010Prop41ColorIndex
 90
       18
102
RTVSPost2010Prop41ColorRGB
 90
        0
102
RTVSPost2010PropOp41
 70
     1
102
RTVSPost2010Prop42
 90
       50
102
RTVSPost2010PropOp42
 70
     1
102
RTVSPost2010Prop43
 90
        3
102
RTVSPost2010PropOp43
 70
     1
102
RTVSPost2010Prop44ColorIndex
 90
        5
102
RTVSPost2010Prop44ColorRGB
 90
      255
102
RTVSPost2010PropOp44
 70
     1
102
RTVSPost2010Prop45
280
     0
102
RTVSPost2010PropOp45
 70
     1
102
RTVSPost2010Prop46
 90
       50
102
RTVSPost2010PropOp46
 70
     1
102
RTVSPost2010Prop47
 90
       50
102
RTVSPost2010PropOp47
 70
     1
102
RTVSPost2010Prop48
 90
       50
102
RTVSPost2010PropOp48
 70
     1
102
RTVSPost2010Prop49
280
     0
102
RTVSPost2010PropOp49
 70
     1
102
RTVSPost2010Prop50
 90
       50
102
RTVSPost2010PropOp50
 70
     1
102
RTVSPost2010Prop51ColorIndex
 90
      256
102
RTVSPost2010Prop51ColorRGB
 90
-16777216
102
RTVSPost2010PropOp51
 70
     0
102
RTVSPost2010Prop52
140
1.0
102
RTVSPost2010PropOp52
 70
     0
102
RTVSPost2010Prop53
 90
        2
102
RTVSPost2010PropOp53
 70
     1
102
RTVSPost2010Prop54
  1
strokes_ogs.tif
102
RTVSPost2010PropOp54
 70
     1
102
RTVSPost2010Prop55
280
     0
102
RTVSPost2010PropOp55
 70
     1
102
RTVSPost2010Prop56
140
1.0
102
RTVSPost2010PropOp56
 70
     1
102
RTVSPost2010Prop57
140
1.0
102
RTVSPost2010PropOp57
 70
     1
102
RTVSPropertyOp0
 70
     1
102
RTVSPropertyOp1
 70
     1
102
RTVSPropertyOp2
 70
     1
102
RTVSPropertyOp3
 70
     1
102
RTVSPropertyOp4
 70
     1
102
RTVSPropertyOp5
 70
     1
102
RTVSPropertyOp6
 70
     1
102
RTVSPropertyOp7
 70
     1
102
RTVSPropertyOp8
 70
     1
102
RTVSPropertyOp9
 70
     1
102
RTVSPropertyOp10
 70
     1
102
RTVSPropertyOp11
 70
     1
102
RTVSPropertyOp12
 70
     1
102
RTVSPropertyOp13
 70
     1
102
RTVSPropertyOp14
 70
     1
102
RTVSPropertyOp15
 70
     1
102
RTVSPropertyOp16
 70
     1
102
RTVSPropertyOp17
 70
     1
102
RTVSPropertyOp18
 70
     1
102
RTVSPropertyOp19
 70
     1
102
RTVSPropertyOp20
 70
     1
102
RTVSPropertyOp21
 70
     1
102
RTVSPropertyOp22
 70
     1
102
RTVSPropertyOp23
 70
     1
102
RTVSPropertyOp24
 70
     1
102
RTVSPropertyOp25
 70
     1
102
RTVSPropertyOp26
 70
     1
102
RTVSPropertyOp27
 70
     1
102
RTVSPropertyOp28
 70
     1
102
RTVSPropertyOp29
 70
     1
102
RTVSPropertyOp30
 70
     1
102
RTVSPropertyOp31
 70
     1
102
RTVSPropertyOp32
 70
     1
102
RTVSPropertyOp33
 70
     1
102
RTVSPropertyOp34
 70
     1
102
RTVSPropertyOp35
 70
     1
102
RTVSPropertyOp36
 70
     1
102
RTVSPropertyOp37
 70
     1
102
RTVSPropertyOp38
 70
     1
102
RTVSPropertyOp39
 70
     1
102
RTVSPropertyOp40
 70
     1
102
RTVSPropertyOp41
 70
     1
102
RTVSPropertyOp42
 70
     1
102
RTVSPropertyOp43
 70
     1
102
RTVSPropertyOp44
 70
     1
102
RTVSPropertyOp45
 70
     1
102
RTVSPropertyOp46
 70
     1
102
RTVSPropertyOp47
 70
     1
102
RTVSPropertyOp48
 70
     1
102
RTVSPropertyOp49
 70
     1
102
RTVSPropertyOp50
 70
     1
102
RTVSPropertyOp51
 70
     0
102
RTVSPropertyOp52
 70
     0
102
RTVSPropertyOp53
 70
     1
102
RTVSPropertyOp54
 70
     1
102
RTVSPropertyOp55
 70
     1
102
RTVSPropertyOp56
 70
     1
102
RTVSPropertyOp57
 70
     1
102
RTVSPropertyOp58
 70
     1
102
RTVSPropertyOp59
 70
     1
102
RTVSPropertyOp60
 70
     1
102
RTVSPropertyOp61
 70
     1
102
RTVSPropertyOp62
 70
     1
  0
XRECORD
  5
864D
102
{ACAD_REACTORS
330
864C
102
}
330
864C
100
AcDbXrecord
280
     1
102
RTVSPost2010Prop28
280
     0
102
RTVSPost2010PropOp28
 70
     1
102
RTVSPost2010Prop29
280
     1
102
RTVSPost2010PropOp29
 70
     1
102
RTVSPost2010Prop30
280
     1
102
RTVSPost2010PropOp30
 70
     1
102
RTVSPost2010Prop31
280
     0
102
RTVSPost2010PropOp31
 70
     1
102
RTVSPost2010Prop32
280
     0
102
RTVSPost2010PropOp32
 70
     1
102
RTVSPost2010Prop33
280
     0
102
RTVSPost2010PropOp33
 70
     1
102
RTVSPost2010Prop34
280
     0
102
RTVSPost2010PropOp34
 70
     1
102
RTVSPost2010Prop35
280
     0
102
RTVSPost2010PropOp35
 70
     1
102
RTVSPost2010Prop36
280
     0
102
RTVSPost2010PropOp36
 70
     1
102
RTVSPost2010Prop37
 90
       50
102
RTVSPost2010PropOp37
 70
     1
102
RTVSPost2010Prop38
140
0.0
102
RTVSPost2010PropOp38
 70
     1
102
RTVSPost2010Prop39
140
1.0
102
RTVSPost2010PropOp39
 70
     1
102
RTVSPost2010Prop40
 90
        0
102
RTVSPost2010PropOp40
 70
     1
102
RTVSPost2010Prop41ColorIndex
 90
       18
102
RTVSPost2010Prop41ColorRGB
 90
        0
102
RTVSPost2010PropOp41
 70
     1
102
RTVSPost2010Prop42
 90
       50
102
RTVSPost2010PropOp42
 70
     1
102
RTVSPost2010Prop43
 90
        3
102
RTVSPost2010PropOp43
 70
     1
102
RTVSPost2010Prop44ColorIndex
 90
        5
102
RTVSPost2010Prop44ColorRGB
 90
      255
102
RTVSPost2010PropOp44
 70
     1
102
RTVSPost2010Prop45
280
     0
102
RTVSPost2010PropOp45
 70
     1
102
RTVSPost2010Prop46
 90
       50
102
RTVSPost2010PropOp46
 70
     1
102
RTVSPost2010Prop47
 90
       50
102
RTVSPost2010PropOp47
 70
     1
102
RTVSPost2010Prop48
 90
       50
102
RTVSPost2010PropOp48
 70
     1
102
RTVSPost2010Prop49
280
     0
102
RTVSPost2010PropOp49
 70
     1
102
RTVSPost2010Prop50
 90
       50
102
RTVSPost2010PropOp50
 70
     1
102
RTVSPost2010Prop51ColorIndex
 90
      256
102
RTVSPost2010Prop51ColorRGB
 90
-16777216
102
RTVSPost2010PropOp51
 70
     0
102
RTVSPost2010Prop52
140
1.0
102
RTVSPost2010PropOp52
 70
     0
102
RTVSPost2010Prop53
 90
        2
102
RTVSPost2010PropOp53
 70
     1
102
RTVSPost2010Prop54
  1
strokes_ogs.tif
102
RTVSPost2010PropOp54
 70
     1
102
RTVSPost2010Prop55
280
     0
102
RTVSPost2010PropOp55
 70
     1
102
RTVSPost2010Prop56
140
1.0
102
RTVSPost2010PropOp56
 70
     1
102
RTVSPost2010Prop57
140
1.0
102
RTVSPost2010PropOp57
 70
     1
102
RTVSPropertyOp0
 70
     1
102
RTVSPropertyOp1
 70
     1
102
RTVSPropertyOp2
 70
     1
102
RTVSPropertyOp3
 70
     1
102
RTVSPropertyOp4
 70
     1
102
RTVSPropertyOp5
 70
     1
102
RTVSPropertyOp6
 70
     1
102
RTVSPropertyOp7
 70
     1
102
RTVSPropertyOp8
 70
     1
102
RTVSPropertyOp9
 70
     1
102
RTVSPropertyOp10
 70
     1
102
RTVSPropertyOp11
 70
     1
102
RTVSPropertyOp12
 70
     1
102
RTVSPropertyOp13
 70
     1
102
RTVSPropertyOp14
 70
     1
102
RTVSPropertyOp15
 70
     1
102
RTVSPropertyOp16
 70
     1
102
RTVSPropertyOp17
 70
     1
102
RTVSPropertyOp18
 70
     1
102
RTVSPropertyOp19
 70
     1
102
RTVSPropertyOp20
 70
     1
102
RTVSPropertyOp21
 70
     1
102
RTVSPropertyOp22
 70
     1
102
RTVSPropertyOp23
 70
     1
102
RTVSPropertyOp24
 70
     1
102
RTVSPropertyOp25
 70
     1
102
RTVSPropertyOp26
 70
     1
102
RTVSPropertyOp27
 70
     1
102
RTVSPropertyOp28
 70
     1
102
RTVSPropertyOp29
 70
     1
102
RTVSPropertyOp30
 70
     1
102
RTVSPropertyOp31
 70
     1
102
RTVSPropertyOp32
 70
     1
102
RTVSPropertyOp33
 70
     1
102
RTVSPropertyOp34
 70
     1
102
RTVSPropertyOp35
 70
     1
102
RTVSPropertyOp36
 70
     1
102
RTVSPropertyOp37
 70
     1
102
RTVSPropertyOp38
 70
     1
102
RTVSPropertyOp39
 70
     1
102
RTVSPropertyOp40
 70
     1
102
RTVSPropertyOp41
 70
     1
102
RTVSPropertyOp42
 70
     1
102
RTVSPropertyOp43
 70
     1
102
RTVSPropertyOp44
 70
     1
102
RTVSPropertyOp45
 70
     1
102
RTVSPropertyOp46
 70
     1
102
RTVSPropertyOp47
 70
     1
102
RTVSPropertyOp48
 70
     1
102
RTVSPropertyOp49
 70
     1
102
RTVSPropertyOp50
 70
     1
102
RTVSPropertyOp51
 70
     0
102
RTVSPropertyOp52
 70
     0
102
RTVSPropertyOp53
 70
     1
102
RTVSPropertyOp54
 70
     1
102
RTVSPropertyOp55
 70
     1
102
RTVSPropertyOp56
 70
     1
102
RTVSPropertyOp57
 70
     1
102
RTVSPropertyOp58
 70
     1
102
RTVSPropertyOp59
 70
     1
102
RTVSPropertyOp60
 70
     1
102
RTVSPropertyOp61
 70
     1
102
RTVSPropertyOp62
 70
     1
  0
XRECORD
  5
8667
102
{ACAD_REACTORS
330
8666
102
}
330
8666
100
AcDbXrecord
280
     1
102
RTVSPost2010Prop28
280
     0
102
RTVSPost2010PropOp28
 70
     1
102
RTVSPost2010Prop29
280
     1
102
RTVSPost2010PropOp29
 70
     1
102
RTVSPost2010Prop30
280
     1
102
RTVSPost2010PropOp30
 70
     1
102
RTVSPost2010Prop31
280
     0
102
RTVSPost2010PropOp31
 70
     1
102
RTVSPost2010Prop32
280
     0
102
RTVSPost2010PropOp32
 70
     1
102
RTVSPost2010Prop33
280
     0
102
RTVSPost2010PropOp33
 70
     1
102
RTVSPost2010Prop34
280
     0
102
RTVSPost2010PropOp34
 70
     1
102
RTVSPost2010Prop35
280
     0
102
RTVSPost2010PropOp35
 70
     1
102
RTVSPost2010Prop36
280
     0
102
RTVSPost2010PropOp36
 70
     1
102
RTVSPost2010Prop37
 90
       50
102
RTVSPost2010PropOp37
 70
     0
102
RTVSPost2010Prop38
140
0.0
102
RTVSPost2010PropOp38
 70
     0
102
RTVSPost2010Prop39
140
1.0
102
RTVSPost2010PropOp39
 70
     0
102
RTVSPost2010Prop40
 90
        0
102
RTVSPost2010PropOp40
 70
     0
102
RTVSPost2010Prop41ColorIndex
 90
       18
102
RTVSPost2010Prop41ColorRGB
 90
        0
102
RTVSPost2010PropOp41
 70
     0
102
RTVSPost2010Prop42
 90
       50
102
RTVSPost2010PropOp42
 70
     0
102
RTVSPost2010Prop43
 90
        3
102
RTVSPost2010PropOp43
 70
     0
102
RTVSPost2010Prop44ColorIndex
 90
        5
102
RTVSPost2010Prop44ColorRGB
 90
      255
102
RTVSPost2010PropOp44
 70
     0
102
RTVSPost2010Prop45
280
     0
102
RTVSPost2010PropOp45
 70
     1
102
RTVSPost2010Prop46
 90
       50
102
RTVSPost2010PropOp46
 70
     0
102
RTVSPost2010Prop47
 90
       50
102
RTVSPost2010PropOp47
 70
     0
102
RTVSPost2010Prop48
 90
       50
102
RTVSPost2010PropOp48
 70
     0
102
RTVSPost2010Prop49
280
     0
102
RTVSPost2010PropOp49
 70
     1
102
RTVSPost2010Prop50
 90
       50
102
RTVSPost2010PropOp50
 70
     0
102
RTVSPost2010Prop51ColorIndex
 90
      256
102
RTVSPost2010Prop51ColorRGB
 90
-16777216
102
RTVSPost2010PropOp51
 70
     0
102
RTVSPost2010Prop52
140
1.0
102
RTVSPost2010PropOp52
 70
     0
102
RTVSPost2010Prop53
 90
        2
102
RTVSPost2010PropOp53
 70
     0
102
RTVSPost2010Prop54
  1
strokes_ogs.tif
102
RTVSPost2010PropOp54
 70
     0
102
RTVSPost2010Prop55
280
     0
102
RTVSPost2010PropOp55
 70
     1
102
RTVSPost2010Prop56
140
1.0
102
RTVSPost2010PropOp56
 70
     0
102
RTVSPost2010Prop57
140
1.0
102
RTVSPost2010PropOp57
 70
     0
102
RTVSPropertyOp0
 70
     0
102
RTVSPropertyOp1
 70
     0
102
RTVSPropertyOp2
 70
     0
102
RTVSPropertyOp3
 70
     0
102
RTVSPropertyOp4
 70
     0
102
RTVSPropertyOp5
 70
     0
102
RTVSPropertyOp6
 70
     0
102
RTVSPropertyOp7
 70
     0
102
RTVSPropertyOp8
 70
     0
102
RTVSPropertyOp9
 70
     0
102
RTVSPropertyOp10
 70
     0
102
RTVSPropertyOp11
 70
     0
102
RTVSPropertyOp12
 70
     0
102
RTVSPropertyOp13
 70
     0
102
RTVSPropertyOp14
 70
     2
102
RTVSPropertyOp15
 70
     0
102
RTVSPropertyOp16
 70
     0
102
RTVSPropertyOp17
 70
     0
102
RTVSPropertyOp18
 70
     0
102
RTVSPropertyOp19
 70
     0
102
RTVSPropertyOp20
 70
     0
102
RTVSPropertyOp21
 70
     0
102
RTVSPropertyOp22
 70
     0
102
RTVSPropertyOp23
 70
     0
102
RTVSPropertyOp24
 70
     0
102
RTVSPropertyOp25
 70
     0
102
RTVSPropertyOp26
 70
     0
102
RTVSPropertyOp27
 70
     0
102
RTVSPropertyOp28
 70
     1
102
RTVSPropertyOp29
 70
     1
102
RTVSPropertyOp30
 70
     1
102
RTVSPropertyOp31
 70
     1
102
RTVSPropertyOp32
 70
     1
102
RTVSPropertyOp33
 70
     1
102
RTVSPropertyOp34
 70
     1
102
RTVSPropertyOp35
 70
     1
102
RTVSPropertyOp36
 70
     1
102
RTVSPropertyOp37
 70
     0
102
RTVSPropertyOp38
 70
     0
102
RTVSPropertyOp39
 70
     0
102
RTVSPropertyOp40
 70
     0
102
RTVSPropertyOp41
 70
     0
102
RTVSPropertyOp42
 70
     0
102
RTVSPropertyOp43
 70
     0
102
RTVSPropertyOp44
 70
     0
102
RTVSPropertyOp45
 70
     1
102
RTVSPropertyOp46
 70
     0
102
RTVSPropertyOp47
 70
     0
102
RTVSPropertyOp48
 70
     0
102
RTVSPropertyOp49
 70
     1
102
RTVSPropertyOp50
 70
     0
102
RTVSPropertyOp51
 70
     0
102
RTVSPropertyOp52
 70
     0
102
RTVSPropertyOp53
 70
     0
102
RTVSPropertyOp54
 70
     0
102
RTVSPropertyOp55
 70
     1
102
RTVSPropertyOp56
 70
     0
102
RTVSPropertyOp57
 70
     0
102
RTVSPropertyOp58
 70
     0
102
RTVSPropertyOp59
 70
     0
102
RTVSPropertyOp60
 70
     0
102
RTVSPropertyOp61
 70
     0
102
RTVSPropertyOp62
 70
     0
  0
XRECORD
  5
8655
102
{ACAD_REACTORS
330
8654
102
}
330
8654
100
AcDbXrecord
280
     1
102
RTVSPost2010Prop28
280
     0
102
RTVSPost2010PropOp28
 70
     1
102
RTVSPost2010Prop29
280
     1
102
RTVSPost2010PropOp29
 70
     1
102
RTVSPost2010Prop30
280
     1
102
RTVSPost2010PropOp30
 70
     1
102
RTVSPost2010Prop31
280
     0
102
RTVSPost2010PropOp31
 70
     1
102
RTVSPost2010Prop32
280
     0
102
RTVSPost2010PropOp32
 70
     1
102
RTVSPost2010Prop33
280
     0
102
RTVSPost2010PropOp33
 70
     1
102
RTVSPost2010Prop34
280
     0
102
RTVSPost2010PropOp34
 70
     1
102
RTVSPost2010Prop35
280
     0
102
RTVSPost2010PropOp35
 70
     1
102
RTVSPost2010Prop36
280
     0
102
RTVSPost2010PropOp36
 70
     1
102
RTVSPost2010Prop37
 90
       50
102
RTVSPost2010PropOp37
 70
     1
102
RTVSPost2010Prop38
140
0.0
102
RTVSPost2010PropOp38
 70
     1
102
RTVSPost2010Prop39
140
1.0
102
RTVSPost2010PropOp39
 70
     1
102
RTVSPost2010Prop40
 90
        0
102
RTVSPost2010PropOp40
 70
     1
102
RTVSPost2010Prop41ColorIndex
 90
       18
102
RTVSPost2010Prop41ColorRGB
 90
        0
102
RTVSPost2010PropOp41
 70
     1
102
RTVSPost2010Prop42
 90
       50
102
RTVSPost2010PropOp42
 70
     1
102
RTVSPost2010Prop43
 90
        3
102
RTVSPost2010PropOp43
 70
     1
102
RTVSPost2010Prop44ColorIndex
 90
        5
102
RTVSPost2010Prop44ColorRGB
 90
      255
102
RTVSPost2010PropOp44
 70
     1
102
RTVSPost2010Prop45
280
     0
102
RTVSPost2010PropOp45
 70
     1
102
RTVSPost2010Prop46
 90
       50
102
RTVSPost2010PropOp46
 70
     1
102
RTVSPost2010Prop47
 90
       50
102
RTVSPost2010PropOp47
 70
     1
102
RTVSPost2010Prop48
 90
       50
102
RTVSPost2010PropOp48
 70
     1
102
RTVSPost2010Prop49
280
     0
102
RTVSPost2010PropOp49
 70
     1
102
RTVSPost2010Prop50
 90
       50
102
RTVSPost2010PropOp50
 70
     1
102
RTVSPost2010Prop51ColorIndex
 90
      256
102
RTVSPost2010Prop51ColorRGB
 90
-16777216
102
RTVSPost2010PropOp51
 70
     0
102
RTVSPost2010Prop52
140
1.0
102
RTVSPost2010PropOp52
 70
     0
102
RTVSPost2010Prop53
 90
        2
102
RTVSPost2010PropOp53
 70
     1
102
RTVSPost2010Prop54
  1
strokes_ogs.tif
102
RTVSPost2010PropOp54
 70
     1
102
RTVSPost2010Prop55
280
     0
102
RTVSPost2010PropOp55
 70
     1
102
RTVSPost2010Prop56
140
1.0
102
RTVSPost2010PropOp56
 70
     1
102
RTVSPost2010Prop57
140
1.0
102
RTVSPost2010PropOp57
 70
     1
102
RTVSPropertyOp0
 70
     1
102
RTVSPropertyOp1
 70
     1
102
RTVSPropertyOp2
 70
     1
102
RTVSPropertyOp3
 70
     1
102
RTVSPropertyOp4
 70
     1
102
RTVSPropertyOp5
 70
     1
102
RTVSPropertyOp6
 70
     1
102
RTVSPropertyOp7
 70
     1
102
RTVSPropertyOp8
 70
     1
102
RTVSPropertyOp9
 70
     1
102
RTVSPropertyOp10
 70
     1
102
RTVSPropertyOp11
 70
     1
102
RTVSPropertyOp12
 70
     1
102
RTVSPropertyOp13
 70
     1
102
RTVSPropertyOp14
 70
     1
102
RTVSPropertyOp15
 70
     1
102
RTVSPropertyOp16
 70
     1
102
RTVSPropertyOp17
 70
     1
102
RTVSPropertyOp18
 70
     1
102
RTVSPropertyOp19
 70
     1
102
RTVSPropertyOp20
 70
     1
102
RTVSPropertyOp21
 70
     1
102
RTVSPropertyOp22
 70
     1
102
RTVSPropertyOp23
 70
     1
102
RTVSPropertyOp24
 70
     1
102
RTVSPropertyOp25
 70
     1
102
RTVSPropertyOp26
 70
     1
102
RTVSPropertyOp27
 70
     1
102
RTVSPropertyOp28
 70
     1
102
RTVSPropertyOp29
 70
     1
102
RTVSPropertyOp30
 70
     1
102
RTVSPropertyOp31
 70
     1
102
RTVSPropertyOp32
 70
     1
102
RTVSPropertyOp33
 70
     1
102
RTVSPropertyOp34
 70
     1
102
RTVSPropertyOp35
 70
     1
102
RTVSPropertyOp36
 70
     1
102
RTVSPropertyOp37
 70
     1
102
RTVSPropertyOp38
 70
     1
102
RTVSPropertyOp39
 70
     1
102
RTVSPropertyOp40
 70
     1
102
RTVSPropertyOp41
 70
     1
102
RTVSPropertyOp42
 70
     1
102
RTVSPropertyOp43
 70
     1
102
RTVSPropertyOp44
 70
     1
102
RTVSPropertyOp45
 70
     1
102
RTVSPropertyOp46
 70
     1
102
RTVSPropertyOp47
 70
     1
102
RTVSPropertyOp48
 70
     1
102
RTVSPropertyOp49
 70
     1
102
RTVSPropertyOp50
 70
     1
102
RTVSPropertyOp51
 70
     0
102
RTVSPropertyOp52
 70
     0
102
RTVSPropertyOp53
 70
     1
102
RTVSPropertyOp54
 70
     1
102
RTVSPropertyOp55
 70
     1
102
RTVSPropertyOp56
 70
     1
102
RTVSPropertyOp57
 70
     1
102
RTVSPropertyOp58
 70
     1
102
RTVSPropertyOp59
 70
     1
102
RTVSPropertyOp60
 70
     1
102
RTVSPropertyOp61
 70
     1
102
RTVSPropertyOp62
 70
     1
  0
XRECORD
  5
8639
102
{ACAD_REACTORS
330
8638
102
}
330
8638
100
AcDbXrecord
280
     1
102
RTVSPost2010Prop28
280
     0
102
RTVSPost2010PropOp28
 70
     1
102
RTVSPost2010Prop29
280
     1
102
RTVSPost2010PropOp29
 70
     1
102
RTVSPost2010Prop30
280
     1
102
RTVSPost2010PropOp30
 70
     1
102
RTVSPost2010Prop31
280
     0
102
RTVSPost2010PropOp31
 70
     1
102
RTVSPost2010Prop32
280
     0
102
RTVSPost2010PropOp32
 70
     1
102
RTVSPost2010Prop33
280
     0
102
RTVSPost2010PropOp33
 70
     1
102
RTVSPost2010Prop34
280
     0
102
RTVSPost2010PropOp34
 70
     1
102
RTVSPost2010Prop35
280
     0
102
RTVSPost2010PropOp35
 70
     1
102
RTVSPost2010Prop36
280
     0
102
RTVSPost2010PropOp36
 70
     1
102
RTVSPost2010Prop37
 90
       50
102
RTVSPost2010PropOp37
 70
     1
102
RTVSPost2010Prop38
140
0.0
102
RTVSPost2010PropOp38
 70
     1
102
RTVSPost2010Prop39
140
1.0
102
RTVSPost2010PropOp39
 70
     1
102
RTVSPost2010Prop40
 90
        0
102
RTVSPost2010PropOp40
 70
     1
102
RTVSPost2010Prop41ColorIndex
 90
       18
102
RTVSPost2010Prop41ColorRGB
 90
        0
102
RTVSPost2010PropOp41
 70
     1
102
RTVSPost2010Prop42
 90
       50
102
RTVSPost2010PropOp42
 70
     1
102
RTVSPost2010Prop43
 90
        3
102
RTVSPost2010PropOp43
 70
     1
102
RTVSPost2010Prop44ColorIndex
 90
        5
102
RTVSPost2010Prop44ColorRGB
 90
      255
102
RTVSPost2010PropOp44
 70
     1
102
RTVSPost2010Prop45
280
     0
102
RTVSPost2010PropOp45
 70
     1
102
RTVSPost2010Prop46
 90
       50
102
RTVSPost2010PropOp46
 70
     1
102
RTVSPost2010Prop47
 90
       50
102
RTVSPost2010PropOp47
 70
     1
102
RTVSPost2010Prop48
 90
       50
102
RTVSPost2010PropOp48
 70
     1
102
RTVSPost2010Prop49
280
     0
102
RTVSPost2010PropOp49
 70
     1
102
RTVSPost2010Prop50
 90
       50
102
RTVSPost2010PropOp50
 70
     1
102
RTVSPost2010Prop51ColorIndex
 90
      256
102
RTVSPost2010Prop51ColorRGB
 90
-16777216
102
RTVSPost2010PropOp51
 70
     0
102
RTVSPost2010Prop52
140
1.0
102
RTVSPost2010PropOp52
 70
     0
102
RTVSPost2010Prop53
 90
        2
102
RTVSPost2010PropOp53
 70
     1
102
RTVSPost2010Prop54
  1
strokes_ogs.tif
102
RTVSPost2010PropOp54
 70
     1
102
RTVSPost2010Prop55
280
     0
102
RTVSPost2010PropOp55
 70
     1
102
RTVSPost2010Prop56
140
1.0
102
RTVSPost2010PropOp56
 70
     1
102
RTVSPost2010Prop57
140
1.0
102
RTVSPost2010PropOp57
 70
     1
102
RTVSPropertyOp0
 70
     1
102
RTVSPropertyOp1
 70
     1
102
RTVSPropertyOp2
 70
     1
102
RTVSPropertyOp3
 70
     1
102
RTVSPropertyOp4
 70
     1
102
RTVSPropertyOp5
 70
     1
102
RTVSPropertyOp6
 70
     1
102
RTVSPropertyOp7
 70
     1
102
RTVSPropertyOp8
 70
     1
102
RTVSPropertyOp9
 70
     1
102
RTVSPropertyOp10
 70
     1
102
RTVSPropertyOp11
 70
     1
102
RTVSPropertyOp12
 70
     1
102
RTVSPropertyOp13
 70
     1
102
RTVSPropertyOp14
 70
     1
102
RTVSPropertyOp15
 70
     1
102
RTVSPropertyOp16
 70
     1
102
RTVSPropertyOp17
 70
     1
102
RTVSPropertyOp18
 70
     1
102
RTVSPropertyOp19
 70
     1
102
RTVSPropertyOp20
 70
     1
102
RTVSPropertyOp21
 70
     1
102
RTVSPropertyOp22
 70
     1
102
RTVSPropertyOp23
 70
     1
102
RTVSPropertyOp24
 70
     1
102
RTVSPropertyOp25
 70
     1
102
RTVSPropertyOp26
 70
     1
102
RTVSPropertyOp27
 70
     1
102
RTVSPropertyOp28
 70
     1
102
RTVSPropertyOp29
 70
     1
102
RTVSPropertyOp30
 70
     1
102
RTVSPropertyOp31
 70
     1
102
RTVSPropertyOp32
 70
     1
102
RTVSPropertyOp33
 70
     1
102
RTVSPropertyOp34
 70
     1
102
RTVSPropertyOp35
 70
     1
102
RTVSPropertyOp36
 70
     1
102
RTVSPropertyOp37
 70
     1
102
RTVSPropertyOp38
 70
     1
102
RTVSPropertyOp39
 70
     1
102
RTVSPropertyOp40
 70
     1
102
RTVSPropertyOp41
 70
     1
102
RTVSPropertyOp42
 70
     1
102
RTVSPropertyOp43
 70
     1
102
RTVSPropertyOp44
 70
     1
102
RTVSPropertyOp45
 70
     1
102
RTVSPropertyOp46
 70
     1
102
RTVSPropertyOp47
 70
     1
102
RTVSPropertyOp48
 70
     1
102
RTVSPropertyOp49
 70
     1
102
RTVSPropertyOp50
 70
     1
102
RTVSPropertyOp51
 70
     0
102
RTVSPropertyOp52
 70
     0
102
RTVSPropertyOp53
 70
     1
102
RTVSPropertyOp54
 70
     1
102
RTVSPropertyOp55
 70
     1
102
RTVSPropertyOp56
 70
     1
102
RTVSPropertyOp57
 70
     1
102
RTVSPropertyOp58
 70
     1
102
RTVSPropertyOp59
 70
     1
102
RTVSPropertyOp60
 70
     1
102
RTVSPropertyOp61
 70
     1
102
RTVSPropertyOp62
 70
     1
  0
XRECORD
  5
863B
102
{ACAD_REACTORS
330
863A
102
}
330
863A
100
AcDbXrecord
280
     1
102
RTVSPost2010Prop28
280
     0
102
RTVSPost2010PropOp28
 70
     1
102
RTVSPost2010Prop29
280
     1
102
RTVSPost2010PropOp29
 70
     1
102
RTVSPost2010Prop30
280
     1
102
RTVSPost2010PropOp30
 70
     1
102
RTVSPost2010Prop31
280
     0
102
RTVSPost2010PropOp31
 70
     1
102
RTVSPost2010Prop32
280
     0
102
RTVSPost2010PropOp32
 70
     1
102
RTVSPost2010Prop33
280
     0
102
RTVSPost2010PropOp33
 70
     1
102
RTVSPost2010Prop34
280
     0
102
RTVSPost2010PropOp34
 70
     1
102
RTVSPost2010Prop35
280
     0
102
RTVSPost2010PropOp35
 70
     1
102
RTVSPost2010Prop36
280
     0
102
RTVSPost2010PropOp36
 70
     1
102
RTVSPost2010Prop37
 90
       50
102
RTVSPost2010PropOp37
 70
     1
102
RTVSPost2010Prop38
140
0.0
102
RTVSPost2010PropOp38
 70
     1
102
RTVSPost2010Prop39
140
1.0
102
RTVSPost2010PropOp39
 70
     1
102
RTVSPost2010Prop40
 90
        0
102
RTVSPost2010PropOp40
 70
     1
102
RTVSPost2010Prop41ColorIndex
 90
       18
102
RTVSPost2010Prop41ColorRGB
 90
        0
102
RTVSPost2010PropOp41
 70
     1
102
RTVSPost2010Prop42
 90
       50
102
RTVSPost2010PropOp42
 70
     1
102
RTVSPost2010Prop43
 90
        3
102
RTVSPost2010PropOp43
 70
     1
102
RTVSPost2010Prop44ColorIndex
 90
        5
102
RTVSPost2010Prop44ColorRGB
 90
      255
102
RTVSPost2010PropOp44
 70
     1
102
RTVSPost2010Prop45
280
     0
102
RTVSPost2010PropOp45
 70
     1
102
RTVSPost2010Prop46
 90
       50
102
RTVSPost2010PropOp46
 70
     1
102
RTVSPost2010Prop47
 90
       50
102
RTVSPost2010PropOp47
 70
     1
102
RTVSPost2010Prop48
 90
       50
102
RTVSPost2010PropOp48
 70
     1
102
RTVSPost2010Prop49
280
     0
102
RTVSPost2010PropOp49
 70
     1
102
RTVSPost2010Prop50
 90
       50
102
RTVSPost2010PropOp50
 70
     1
102
RTVSPost2010Prop51ColorIndex
 90
      256
102
RTVSPost2010Prop51ColorRGB
 90
-16777216
102
RTVSPost2010PropOp51
 70
     0
102
RTVSPost2010Prop52
140
1.0
102
RTVSPost2010PropOp52
 70
     0
102
RTVSPost2010Prop53
 90
        2
102
RTVSPost2010PropOp53
 70
     1
102
RTVSPost2010Prop54
  1
strokes_ogs.tif
102
RTVSPost2010PropOp54
 70
     1
102
RTVSPost2010Prop55
280
     0
102
RTVSPost2010PropOp55
 70
     1
102
RTVSPost2010Prop56
140
1.0
102
RTVSPost2010PropOp56
 70
     1
102
RTVSPost2010Prop57
140
1.0
102
RTVSPost2010PropOp57
 70
     1
102
RTVSPropertyOp0
 70
     1
102
RTVSPropertyOp1
 70
     1
102
RTVSPropertyOp2
 70
     1
102
RTVSPropertyOp3
 70
     1
102
RTVSPropertyOp4
 70
     1
102
RTVSPropertyOp5
 70
     1
102
RTVSPropertyOp6
 70
     1
102
RTVSPropertyOp7
 70
     1
102
RTVSPropertyOp8
 70
     1
102
RTVSPropertyOp9
 70
     1
102
RTVSPropertyOp10
 70
     1
102
RTVSPropertyOp11
 70
     1
102
RTVSPropertyOp12
 70
     1
102
RTVSPropertyOp13
 70
     1
102
RTVSPropertyOp14
 70
     1
102
RTVSPropertyOp15
 70
     1
102
RTVSPropertyOp16
 70
     1
102
RTVSPropertyOp17
 70
     1
102
RTVSPropertyOp18
 70
     1
102
RTVSPropertyOp19
 70
     1
102
RTVSPropertyOp20
 70
     1
102
RTVSPropertyOp21
 70
     1
102
RTVSPropertyOp22
 70
     1
102
RTVSPropertyOp23
 70
     1
102
RTVSPropertyOp24
 70
     1
102
RTVSPropertyOp25
 70
     1
102
RTVSPropertyOp26
 70
     1
102
RTVSPropertyOp27
 70
     1
102
RTVSPropertyOp28
 70
     1
102
RTVSPropertyOp29
 70
     1
102
RTVSPropertyOp30
 70
     1
102
RTVSPropertyOp31
 70
     1
102
RTVSPropertyOp32
 70
     1
102
RTVSPropertyOp33
 70
     1
102
RTVSPropertyOp34
 70
     1
102
RTVSPropertyOp35
 70
     1
102
RTVSPropertyOp36
 70
     1
102
RTVSPropertyOp37
 70
     1
102
RTVSPropertyOp38
 70
     1
102
RTVSPropertyOp39
 70
     1
102
RTVSPropertyOp40
 70
     1
102
RTVSPropertyOp41
 70
     1
102
RTVSPropertyOp42
 70
     1
102
RTVSPropertyOp43
 70
     1
102
RTVSPropertyOp44
 70
     1
102
RTVSPropertyOp45
 70
     1
102
RTVSPropertyOp46
 70
     1
102
RTVSPropertyOp47
 70
     1
102
RTVSPropertyOp48
 70
     1
102
RTVSPropertyOp49
 70
     1
102
RTVSPropertyOp50
 70
     1
102
RTVSPropertyOp51
 70
     0
102
RTVSPropertyOp52
 70
     0
102
RTVSPropertyOp53
 70
     1
102
RTVSPropertyOp54
 70
     1
102
RTVSPropertyOp55
 70
     1
102
RTVSPropertyOp56
 70
     1
102
RTVSPropertyOp57
 70
     1
102
RTVSPropertyOp58
 70
     1
102
RTVSPropertyOp59
 70
     1
102
RTVSPropertyOp60
 70
     1
102
RTVSPropertyOp61
 70
     1
102
RTVSPropertyOp62
 70
     1
  0
XRECORD
  5
863D
102
{ACAD_REACTORS
330
863C
102
}
330
863C
100
AcDbXrecord
280
     1
102
RTVSPost2010Prop28
280
     0
102
RTVSPost2010PropOp28
 70
     1
102
RTVSPost2010Prop29
280
     1
102
RTVSPost2010PropOp29
 70
     1
102
RTVSPost2010Prop30
280
     1
102
RTVSPost2010PropOp30
 70
     1
102
RTVSPost2010Prop31
280
     0
102
RTVSPost2010PropOp31
 70
     1
102
RTVSPost2010Prop32
280
     0
102
RTVSPost2010PropOp32
 70
     1
102
RTVSPost2010Prop33
280
     0
102
RTVSPost2010PropOp33
 70
     1
102
RTVSPost2010Prop34
280
     0
102
RTVSPost2010PropOp34
 70
     1
102
RTVSPost2010Prop35
280
     0
102
RTVSPost2010PropOp35
 70
     1
102
RTVSPost2010Prop36
280
     0
102
RTVSPost2010PropOp36
 70
     1
102
RTVSPost2010Prop37
 90
       50
102
RTVSPost2010PropOp37
 70
     1
102
RTVSPost2010Prop38
140
0.0
102
RTVSPost2010PropOp38
 70
     1
102
RTVSPost2010Prop39
140
1.0
102
RTVSPost2010PropOp39
 70
     1
102
RTVSPost2010Prop40
 90
        0
102
RTVSPost2010PropOp40
 70
     1
102
RTVSPost2010Prop41ColorIndex
 90
       18
102
RTVSPost2010Prop41ColorRGB
 90
        0
102
RTVSPost2010PropOp41
 70
     1
102
RTVSPost2010Prop42
 90
       50
102
RTVSPost2010PropOp42
 70
     1
102
RTVSPost2010Prop43
 90
        3
102
RTVSPost2010PropOp43
 70
     1
102
RTVSPost2010Prop44ColorIndex
 90
        5
102
RTVSPost2010Prop44ColorRGB
 90
      255
102
RTVSPost2010PropOp44
 70
     1
102
RTVSPost2010Prop45
280
     0
102
RTVSPost2010PropOp45
 70
     1
102
RTVSPost2010Prop46
 90
       50
102
RTVSPost2010PropOp46
 70
     1
102
RTVSPost2010Prop47
 90
       50
102
RTVSPost2010PropOp47
 70
     1
102
RTVSPost2010Prop48
 90
       50
102
RTVSPost2010PropOp48
 70
     1
102
RTVSPost2010Prop49
280
     0
102
RTVSPost2010PropOp49
 70
     1
102
RTVSPost2010Prop50
 90
       50
102
RTVSPost2010PropOp50
 70
     1
102
RTVSPost2010Prop51ColorIndex
 90
      256
102
RTVSPost2010Prop51ColorRGB
 90
-16777216
102
RTVSPost2010PropOp51
 70
     0
102
RTVSPost2010Prop52
140
1.0
102
RTVSPost2010PropOp52
 70
     0
102
RTVSPost2010Prop53
 90
        2
102
RTVSPost2010PropOp53
 70
     1
102
RTVSPost2010Prop54
  1
strokes_ogs.tif
102
RTVSPost2010PropOp54
 70
     1
102
RTVSPost2010Prop55
280
     0
102
RTVSPost2010PropOp55
 70
     1
102
RTVSPost2010Prop56
140
1.0
102
RTVSPost2010PropOp56
 70
     1
102
RTVSPost2010Prop57
140
1.0
102
RTVSPost2010PropOp57
 70
     1
102
RTVSPropertyOp0
 70
     1
102
RTVSPropertyOp1
 70
     1
102
RTVSPropertyOp2
 70
     1
102
RTVSPropertyOp3
 70
     1
102
RTVSPropertyOp4
 70
     1
102
RTVSPropertyOp5
 70
     1
102
RTVSPropertyOp6
 70
     1
102
RTVSPropertyOp7
 70
     1
102
RTVSPropertyOp8
 70
     1
102
RTVSPropertyOp9
 70
     1
102
RTVSPropertyOp10
 70
     1
102
RTVSPropertyOp11
 70
     1
102
RTVSPropertyOp12
 70
     1
102
RTVSPropertyOp13
 70
     1
102
RTVSPropertyOp14
 70
     1
102
RTVSPropertyOp15
 70
     1
102
RTVSPropertyOp16
 70
     1
102
RTVSPropertyOp17
 70
     1
102
RTVSPropertyOp18
 70
     1
102
RTVSPropertyOp19
 70
     1
102
RTVSPropertyOp20
 70
     1
102
RTVSPropertyOp21
 70
     1
102
RTVSPropertyOp22
 70
     1
102
RTVSPropertyOp23
 70
     1
102
RTVSPropertyOp24
 70
     1
102
RTVSPropertyOp25
 70
     1
102
RTVSPropertyOp26
 70
     1
102
RTVSPropertyOp27
 70
     1
102
RTVSPropertyOp28
 70
     1
102
RTVSPropertyOp29
 70
     1
102
RTVSPropertyOp30
 70
     1
102
RTVSPropertyOp31
 70
     1
102
RTVSPropertyOp32
 70
     1
102
RTVSPropertyOp33
 70
     1
102
RTVSPropertyOp34
 70
     1
102
RTVSPropertyOp35
 70
     1
102
RTVSPropertyOp36
 70
     1
102
RTVSPropertyOp37
 70
     1
102
RTVSPropertyOp38
 70
     1
102
RTVSPropertyOp39
 70
     1
102
RTVSPropertyOp40
 70
     1
102
RTVSPropertyOp41
 70
     1
102
RTVSPropertyOp42
 70
     1
102
RTVSPropertyOp43
 70
     1
102
RTVSPropertyOp44
 70
     1
102
RTVSPropertyOp45
 70
     1
102
RTVSPropertyOp46
 70
     1
102
RTVSPropertyOp47
 70
     1
102
RTVSPropertyOp48
 70
     1
102
RTVSPropertyOp49
 70
     1
102
RTVSPropertyOp50
 70
     1
102
RTVSPropertyOp51
 70
     0
102
RTVSPropertyOp52
 70
     0
102
RTVSPropertyOp53
 70
     1
102
RTVSPropertyOp54
 70
     1
102
RTVSPropertyOp55
 70
     1
102
RTVSPropertyOp56
 70
     1
102
RTVSPropertyOp57
 70
     1
102
RTVSPropertyOp58
 70
     1
102
RTVSPropertyOp59
 70
     1
102
RTVSPropertyOp60
 70
     1
102
RTVSPropertyOp61
 70
     1
102
RTVSPropertyOp62
 70
     1
  0
XRECORD
  5
863F
102
{ACAD_REACTORS
330
863E
102
}
330
863E
100
AcDbXrecord
280
     1
102
RTVSPost2010Prop28
280
     0
102
RTVSPost2010PropOp28
 70
     1
102
RTVSPost2010Prop29
280
     1
102
RTVSPost2010PropOp29
 70
     1
102
RTVSPost2010Prop30
280
     1
102
RTVSPost2010PropOp30
 70
     1
102
RTVSPost2010Prop31
280
     0
102
RTVSPost2010PropOp31
 70
     1
102
RTVSPost2010Prop32
280
     0
102
RTVSPost2010PropOp32
 70
     1
102
RTVSPost2010Prop33
280
     0
102
RTVSPost2010PropOp33
 70
     1
102
RTVSPost2010Prop34
280
     0
102
RTVSPost2010PropOp34
 70
     1
102
RTVSPost2010Prop35
280
     0
102
RTVSPost2010PropOp35
 70
     1
102
RTVSPost2010Prop36
280
     0
102
RTVSPost2010PropOp36
 70
     1
102
RTVSPost2010Prop37
 90
       50
102
RTVSPost2010PropOp37
 70
     1
102
RTVSPost2010Prop38
140
0.0
102
RTVSPost2010PropOp38
 70
     1
102
RTVSPost2010Prop39
140
1.0
102
RTVSPost2010PropOp39
 70
     1
102
RTVSPost2010Prop40
 90
        0
102
RTVSPost2010PropOp40
 70
     1
102
RTVSPost2010Prop41ColorIndex
 90
       18
102
RTVSPost2010Prop41ColorRGB
 90
        0
102
RTVSPost2010PropOp41
 70
     1
102
RTVSPost2010Prop42
 90
       50
102
RTVSPost2010PropOp42
 70
     1
102
RTVSPost2010Prop43
 90
        3
102
RTVSPost2010PropOp43
 70
     1
102
RTVSPost2010Prop44ColorIndex
 90
        5
102
RTVSPost2010Prop44ColorRGB
 90
      255
102
RTVSPost2010PropOp44
 70
     1
102
RTVSPost2010Prop45
280
     0
102
RTVSPost2010PropOp45
 70
     1
102
RTVSPost2010Prop46
 90
       50
102
RTVSPost2010PropOp46
 70
     1
102
RTVSPost2010Prop47
 90
       50
102
RTVSPost2010PropOp47
 70
     1
102
RTVSPost2010Prop48
 90
       50
102
RTVSPost2010PropOp48
 70
     1
102
RTVSPost2010Prop49
280
     0
102
RTVSPost2010PropOp49
 70
     1
102
RTVSPost2010Prop50
 90
       50
102
RTVSPost2010PropOp50
 70
     1
102
RTVSPost2010Prop51ColorIndex
 90
      256
102
RTVSPost2010Prop51ColorRGB
 90
-16777216
102
RTVSPost2010PropOp51
 70
     0
102
RTVSPost2010Prop52
140
1.0
102
RTVSPost2010PropOp52
 70
     0
102
RTVSPost2010Prop53
 90
        2
102
RTVSPost2010PropOp53
 70
     1
102
RTVSPost2010Prop54
  1
strokes_ogs.tif
102
RTVSPost2010PropOp54
 70
     1
102
RTVSPost2010Prop55
280
     0
102
RTVSPost2010PropOp55
 70
     1
102
RTVSPost2010Prop56
140
1.0
102
RTVSPost2010PropOp56
 70
     1
102
RTVSPost2010Prop57
140
1.0
102
RTVSPost2010PropOp57
 70
     1
102
RTVSPropertyOp0
 70
     1
102
RTVSPropertyOp1
 70
     1
102
RTVSPropertyOp2
 70
     1
102
RTVSPropertyOp3
 70
     1
102
RTVSPropertyOp4
 70
     1
102
RTVSPropertyOp5
 70
     1
102
RTVSPropertyOp6
 70
     1
102
RTVSPropertyOp7
 70
     1
102
RTVSPropertyOp8
 70
     1
102
RTVSPropertyOp9
 70
     1
102
RTVSPropertyOp10
 70
     1
102
RTVSPropertyOp11
 70
     1
102
RTVSPropertyOp12
 70
     1
102
RTVSPropertyOp13
 70
     1
102
RTVSPropertyOp14
 70
     1
102
RTVSPropertyOp15
 70
     1
102
RTVSPropertyOp16
 70
     1
102
RTVSPropertyOp17
 70
     1
102
RTVSPropertyOp18
 70
     1
102
RTVSPropertyOp19
 70
     1
102
RTVSPropertyOp20
 70
     1
102
RTVSPropertyOp21
 70
     1
102
RTVSPropertyOp22
 70
     1
102
RTVSPropertyOp23
 70
     1
102
RTVSPropertyOp24
 70
     1
102
RTVSPropertyOp25
 70
     1
102
RTVSPropertyOp26
 70
     1
102
RTVSPropertyOp27
 70
     1
102
RTVSPropertyOp28
 70
     1
102
RTVSPropertyOp29
 70
     1
102
RTVSPropertyOp30
 70
     1
102
RTVSPropertyOp31
 70
     1
102
RTVSPropertyOp32
 70
     1
102
RTVSPropertyOp33
 70
     1
102
RTVSPropertyOp34
 70
     1
102
RTVSPropertyOp35
 70
     1
102
RTVSPropertyOp36
 70
     1
102
RTVSPropertyOp37
 70
     1
102
RTVSPropertyOp38
 70
     1
102
RTVSPropertyOp39
 70
     1
102
RTVSPropertyOp40
 70
     1
102
RTVSPropertyOp41
 70
     1
102
RTVSPropertyOp42
 70
     1
102
RTVSPropertyOp43
 70
     1
102
RTVSPropertyOp44
 70
     1
102
RTVSPropertyOp45
 70
     1
102
RTVSPropertyOp46
 70
     1
102
RTVSPropertyOp47
 70
     1
102
RTVSPropertyOp48
 70
     1
102
RTVSPropertyOp49
 70
     1
102
RTVSPropertyOp50
 70
     1
102
RTVSPropertyOp51
 70
     0
102
RTVSPropertyOp52
 70
     0
102
RTVSPropertyOp53
 70
     1
102
RTVSPropertyOp54
 70
     1
102
RTVSPropertyOp55
 70
     1
102
RTVSPropertyOp56
 70
     1
102
RTVSPropertyOp57
 70
     1
102
RTVSPropertyOp58
 70
     1
102
RTVSPropertyOp59
 70
     1
102
RTVSPropertyOp60
 70
     1
102
RTVSPropertyOp61
 70
     1
102
RTVSPropertyOp62
 70
     1
  0
XRECORD
  5
8647
102
{ACAD_REACTORS
330
8646
102
}
330
8646
100
AcDbXrecord
280
     1
102
RTVSPost2010Prop28
280
     0
102
RTVSPost2010PropOp28
 70
     1
102
RTVSPost2010Prop29
280
     1
102
RTVSPost2010PropOp29
 70
     1
102
RTVSPost2010Prop30
280
     1
102
RTVSPost2010PropOp30
 70
     1
102
RTVSPost2010Prop31
280
     0
102
RTVSPost2010PropOp31
 70
     1
102
RTVSPost2010Prop32
280
     0
102
RTVSPost2010PropOp32
 70
     1
102
RTVSPost2010Prop33
280
     0
102
RTVSPost2010PropOp33
 70
     1
102
RTVSPost2010Prop34
280
     0
102
RTVSPost2010PropOp34
 70
     1
102
RTVSPost2010Prop35
280
     0
102
RTVSPost2010PropOp35
 70
     1
102
RTVSPost2010Prop36
280
     0
102
RTVSPost2010PropOp36
 70
     1
102
RTVSPost2010Prop37
 90
       50
102
RTVSPost2010PropOp37
 70
     1
102
RTVSPost2010Prop38
140
0.0
102
RTVSPost2010PropOp38
 70
     1
102
RTVSPost2010Prop39
140
1.0
102
RTVSPost2010PropOp39
 70
     1
102
RTVSPost2010Prop40
 90
        0
102
RTVSPost2010PropOp40
 70
     1
102
RTVSPost2010Prop41ColorIndex
 90
       18
102
RTVSPost2010Prop41ColorRGB
 90
        0
102
RTVSPost2010PropOp41
 70
     1
102
RTVSPost2010Prop42
 90
       50
102
RTVSPost2010PropOp42
 70
     1
102
RTVSPost2010Prop43
 90
        3
102
RTVSPost2010PropOp43
 70
     1
102
RTVSPost2010Prop44ColorIndex
 90
        5
102
RTVSPost2010Prop44ColorRGB
 90
      255
102
RTVSPost2010PropOp44
 70
     1
102
RTVSPost2010Prop45
280
     0
102
RTVSPost2010PropOp45
 70
     1
102
RTVSPost2010Prop46
 90
       50
102
RTVSPost2010PropOp46
 70
     1
102
RTVSPost2010Prop47
 90
       50
102
RTVSPost2010PropOp47
 70
     1
102
RTVSPost2010Prop48
 90
       50
102
RTVSPost2010PropOp48
 70
     1
102
RTVSPost2010Prop49
280
     0
102
RTVSPost2010PropOp49
 70
     1
102
RTVSPost2010Prop50
 90
       50
102
RTVSPost2010PropOp50
 70
     1
102
RTVSPost2010Prop51ColorIndex
 90
      256
102
RTVSPost2010Prop51ColorRGB
 90
-16777216
102
RTVSPost2010PropOp51
 70
     0
102
RTVSPost2010Prop52
140
1.0
102
RTVSPost2010PropOp52
 70
     0
102
RTVSPost2010Prop53
 90
        2
102
RTVSPost2010PropOp53
 70
     1
102
RTVSPost2010Prop54
  1
strokes_ogs.tif
102
RTVSPost2010PropOp54
 70
     1
102
RTVSPost2010Prop55
280
     0
102
RTVSPost2010PropOp55
 70
     1
102
RTVSPost2010Prop56
140
1.0
102
RTVSPost2010PropOp56
 70
     1
102
RTVSPost2010Prop57
140
1.0
102
RTVSPost2010PropOp57
 70
     1
102
RTVSPropertyOp0
 70
     1
102
RTVSPropertyOp1
 70
     1
102
RTVSPropertyOp2
 70
     1
102
RTVSPropertyOp3
 70
     1
102
RTVSPropertyOp4
 70
     1
102
RTVSPropertyOp5
 70
     1
102
RTVSPropertyOp6
 70
     1
102
RTVSPropertyOp7
 70
     1
102
RTVSPropertyOp8
 70
     1
102
RTVSPropertyOp9
 70
     1
102
RTVSPropertyOp10
 70
     1
102
RTVSPropertyOp11
 70
     1
102
RTVSPropertyOp12
 70
     1
102
RTVSPropertyOp13
 70
     1
102
RTVSPropertyOp14
 70
     1
102
RTVSPropertyOp15
 70
     1
102
RTVSPropertyOp16
 70
     1
102
RTVSPropertyOp17
 70
     1
102
RTVSPropertyOp18
 70
     1
102
RTVSPropertyOp19
 70
     1
102
RTVSPropertyOp20
 70
     1
102
RTVSPropertyOp21
 70
     1
102
RTVSPropertyOp22
 70
     1
102
RTVSPropertyOp23
 70
     1
102
RTVSPropertyOp24
 70
     1
102
RTVSPropertyOp25
 70
     1
102
RTVSPropertyOp26
 70
     1
102
RTVSPropertyOp27
 70
     1
102
RTVSPropertyOp28
 70
     1
102
RTVSPropertyOp29
 70
     1
102
RTVSPropertyOp30
 70
     1
102
RTVSPropertyOp31
 70
     1
102
RTVSPropertyOp32
 70
     1
102
RTVSPropertyOp33
 70
     1
102
RTVSPropertyOp34
 70
     1
102
RTVSPropertyOp35
 70
     1
102
RTVSPropertyOp36
 70
     1
102
RTVSPropertyOp37
 70
     1
102
RTVSPropertyOp38
 70
     1
102
RTVSPropertyOp39
 70
     1
102
RTVSPropertyOp40
 70
     1
102
RTVSPropertyOp41
 70
     1
102
RTVSPropertyOp42
 70
     1
102
RTVSPropertyOp43
 70
     1
102
RTVSPropertyOp44
 70
     1
102
RTVSPropertyOp45
 70
     1
102
RTVSPropertyOp46
 70
     1
102
RTVSPropertyOp47
 70
     1
102
RTVSPropertyOp48
 70
     1
102
RTVSPropertyOp49
 70
     1
102
RTVSPropertyOp50
 70
     1
102
RTVSPropertyOp51
 70
     0
102
RTVSPropertyOp52
 70
     0
102
RTVSPropertyOp53
 70
     1
102
RTVSPropertyOp54
 70
     1
102
RTVSPropertyOp55
 70
     1
102
RTVSPropertyOp56
 70
     1
102
RTVSPropertyOp57
 70
     1
102
RTVSPropertyOp58
 70
     1
102
RTVSPropertyOp59
 70
     1
102
RTVSPropertyOp60
 70
     1
102
RTVSPropertyOp61
 70
     1
102
RTVSPropertyOp62
 70
     1
  0
XRECORD
  5
8663
102
{ACAD_REACTORS
330
8662
102
}
330
8662
100
AcDbXrecord
280
     1
102
RTVSPost2010Prop28
280
     0
102
RTVSPost2010PropOp28
 70
     1
102
RTVSPost2010Prop29
280
     1
102
RTVSPost2010PropOp29
 70
     1
102
RTVSPost2010Prop30
280
     1
102
RTVSPost2010PropOp30
 70
     1
102
RTVSPost2010Prop31
280
     0
102
RTVSPost2010PropOp31
 70
     1
102
RTVSPost2010Prop32
280
     0
102
RTVSPost2010PropOp32
 70
     1
102
RTVSPost2010Prop33
280
     0
102
RTVSPost2010PropOp33
 70
     1
102
RTVSPost2010Prop34
280
     0
102
RTVSPost2010PropOp34
 70
     1
102
RTVSPost2010Prop35
280
     0
102
RTVSPost2010PropOp35
 70
     1
102
RTVSPost2010Prop36
280
     0
102
RTVSPost2010PropOp36
 70
     1
102
RTVSPost2010Prop37
 90
       50
102
RTVSPost2010PropOp37
 70
     0
102
RTVSPost2010Prop38
140
0.0
102
RTVSPost2010PropOp38
 70
     0
102
RTVSPost2010Prop39
140
1.0
102
RTVSPost2010PropOp39
 70
     0
102
RTVSPost2010Prop40
 90
        0
102
RTVSPost2010PropOp40
 70
     0
102
RTVSPost2010Prop41ColorIndex
 90
       18
102
RTVSPost2010Prop41ColorRGB
 90
        0
102
RTVSPost2010PropOp41
 70
     0
102
RTVSPost2010Prop42
 90
       50
102
RTVSPost2010PropOp42
 70
     0
102
RTVSPost2010Prop43
 90
        3
102
RTVSPost2010PropOp43
 70
     0
102
RTVSPost2010Prop44ColorIndex
 90
        5
102
RTVSPost2010Prop44ColorRGB
 90
      255
102
RTVSPost2010PropOp44
 70
     0
102
RTVSPost2010Prop45
280
     0
102
RTVSPost2010PropOp45
 70
     1
102
RTVSPost2010Prop46
 90
       50
102
RTVSPost2010PropOp46
 70
     0
102
RTVSPost2010Prop47
 90
       50
102
RTVSPost2010PropOp47
 70
     0
102
RTVSPost2010Prop48
 90
       50
102
RTVSPost2010PropOp48
 70
     0
102
RTVSPost2010Prop49
280
     0
102
RTVSPost2010PropOp49
 70
     1
102
RTVSPost2010Prop50
 90
       50
102
RTVSPost2010PropOp50
 70
     0
102
RTVSPost2010Prop51ColorIndex
 90
      256
102
RTVSPost2010Prop51ColorRGB
 90
-16777216
102
RTVSPost2010PropOp51
 70
     0
102
RTVSPost2010Prop52
140
1.0
102
RTVSPost2010PropOp52
 70
     0
102
RTVSPost2010Prop53
 90
        2
102
RTVSPost2010PropOp53
 70
     0
102
RTVSPost2010Prop54
  1
strokes_ogs.tif
102
RTVSPost2010PropOp54
 70
     0
102
RTVSPost2010Prop55
280
     0
102
RTVSPost2010PropOp55
 70
     1
102
RTVSPost2010Prop56
140
1.0
102
RTVSPost2010PropOp56
 70
     0
102
RTVSPost2010Prop57
140
1.0
102
RTVSPost2010PropOp57
 70
     0
102
RTVSPropertyOp0
 70
     0
102
RTVSPropertyOp1
 70
     0
102
RTVSPropertyOp2
 70
     0
102
RTVSPropertyOp3
 70
     0
102
RTVSPropertyOp4
 70
     0
102
RTVSPropertyOp5
 70
     0
102
RTVSPropertyOp6
 70
     0
102
RTVSPropertyOp7
 70
     0
102
RTVSPropertyOp8
 70
     0
102
RTVSPropertyOp9
 70
     0
102
RTVSPropertyOp10
 70
     0
102
RTVSPropertyOp11
 70
     0
102
RTVSPropertyOp12
 70
     0
102
RTVSPropertyOp13
 70
     0
102
RTVSPropertyOp14
 70
     2
102
RTVSPropertyOp15
 70
     0
102
RTVSPropertyOp16
 70
     0
102
RTVSPropertyOp17
 70
     0
102
RTVSPropertyOp18
 70
     0
102
RTVSPropertyOp19
 70
     0
102
RTVSPropertyOp20
 70
     0
102
RTVSPropertyOp21
 70
     0
102
RTVSPropertyOp22
 70
     0
102
RTVSPropertyOp23
 70
     0
102
RTVSPropertyOp24
 70
     0
102
RTVSPropertyOp25
 70
     0
102
RTVSPropertyOp26
 70
     0
102
RTVSPropertyOp27
 70
     0
102
RTVSPropertyOp28
 70
     1
102
RTVSPropertyOp29
 70
     1
102
RTVSPropertyOp30
 70
     1
102
RTVSPropertyOp31
 70
     1
102
RTVSPropertyOp32
 70
     1
102
RTVSPropertyOp33
 70
     1
102
RTVSPropertyOp34
 70
     1
102
RTVSPropertyOp35
 70
     1
102
RTVSPropertyOp36
 70
     1
102
RTVSPropertyOp37
 70
     0
102
RTVSPropertyOp38
 70
     0
102
RTVSPropertyOp39
 70
     0
102
RTVSPropertyOp40
 70
     0
102
RTVSPropertyOp41
 70
     0
102
RTVSPropertyOp42
 70
     0
102
RTVSPropertyOp43
 70
     0
102
RTVSPropertyOp44
 70
     0
102
RTVSPropertyOp45
 70
     1
102
RTVSPropertyOp46
 70
     0
102
RTVSPropertyOp47
 70
     0
102
RTVSPropertyOp48
 70
     0
102
RTVSPropertyOp49
 70
     1
102
RTVSPropertyOp50
 70
     0
102
RTVSPropertyOp51
 70
     0
102
RTVSPropertyOp52
 70
     0
102
RTVSPropertyOp53
 70
     0
102
RTVSPropertyOp54
 70
     0
102
RTVSPropertyOp55
 70
     1
102
RTVSPropertyOp56
 70
     0
102
RTVSPropertyOp57
 70
     0
102
RTVSPropertyOp58
 70
     0
102
RTVSPropertyOp59
 70
     0
102
RTVSPropertyOp60
 70
     0
102
RTVSPropertyOp61
 70
     0
102
RTVSPropertyOp62
 70
     0
  0
XRECORD
  5
8653
102
{ACAD_REACTORS
330
8652
102
}
330
8652
100
AcDbXrecord
280
     1
102
RTVSPost2010Prop28
280
     0
102
RTVSPost2010PropOp28
 70
     1
102
RTVSPost2010Prop29
280
     1
102
RTVSPost2010PropOp29
 70
     1
102
RTVSPost2010Prop30
280
     1
102
RTVSPost2010PropOp30
 70
     1
102
RTVSPost2010Prop31
280
     0
102
RTVSPost2010PropOp31
 70
     1
102
RTVSPost2010Prop32
280
     0
102
RTVSPost2010PropOp32
 70
     1
102
RTVSPost2010Prop33
280
     0
102
RTVSPost2010PropOp33
 70
     1
102
RTVSPost2010Prop34
280
     0
102
RTVSPost2010PropOp34
 70
     1
102
RTVSPost2010Prop35
280
     0
102
RTVSPost2010PropOp35
 70
     1
102
RTVSPost2010Prop36
280
     0
102
RTVSPost2010PropOp36
 70
     1
102
RTVSPost2010Prop37
 90
       50
102
RTVSPost2010PropOp37
 70
     1
102
RTVSPost2010Prop38
140
0.0
102
RTVSPost2010PropOp38
 70
     1
102
RTVSPost2010Prop39
140
1.0
102
RTVSPost2010PropOp39
 70
     1
102
RTVSPost2010Prop40
 90
        0
102
RTVSPost2010PropOp40
 70
     1
102
RTVSPost2010Prop41ColorIndex
 90
       18
102
RTVSPost2010Prop41ColorRGB
 90
        0
102
RTVSPost2010PropOp41
 70
     1
102
RTVSPost2010Prop42
 90
       50
102
RTVSPost2010PropOp42
 70
     1
102
RTVSPost2010Prop43
 90
        3
102
RTVSPost2010PropOp43
 70
     1
102
RTVSPost2010Prop44ColorIndex
 90
        5
102
RTVSPost2010Prop44ColorRGB
 90
      255
102
RTVSPost2010PropOp44
 70
     1
102
RTVSPost2010Prop45
280
     0
102
RTVSPost2010PropOp45
 70
     1
102
RTVSPost2010Prop46
 90
       50
102
RTVSPost2010PropOp46
 70
     1
102
RTVSPost2010Prop47
 90
       50
102
RTVSPost2010PropOp47
 70
     1
102
RTVSPost2010Prop48
 90
       50
102
RTVSPost2010PropOp48
 70
     1
102
RTVSPost2010Prop49
280
     0
102
RTVSPost2010PropOp49
 70
     1
102
RTVSPost2010Prop50
 90
       50
102
RTVSPost2010PropOp50
 70
     1
102
RTVSPost2010Prop51ColorIndex
 90
      256
102
RTVSPost2010Prop51ColorRGB
 90
-16777216
102
RTVSPost2010PropOp51
 70
     0
102
RTVSPost2010Prop52
140
1.0
102
RTVSPost2010PropOp52
 70
     0
102
RTVSPost2010Prop53
 90
        2
102
RTVSPost2010PropOp53
 70
     1
102
RTVSPost2010Prop54
  1
strokes_ogs.tif
102
RTVSPost2010PropOp54
 70
     1
102
RTVSPost2010Prop55
280
     0
102
RTVSPost2010PropOp55
 70
     1
102
RTVSPost2010Prop56
140
1.0
102
RTVSPost2010PropOp56
 70
     1
102
RTVSPost2010Prop57
140
1.0
102
RTVSPost2010PropOp57
 70
     1
102
RTVSPropertyOp0
 70
     1
102
RTVSPropertyOp1
 70
     1
102
RTVSPropertyOp2
 70
     1
102
RTVSPropertyOp3
 70
     1
102
RTVSPropertyOp4
 70
     1
102
RTVSPropertyOp5
 70
     1
102
RTVSPropertyOp6
 70
     1
102
RTVSPropertyOp7
 70
     1
102
RTVSPropertyOp8
 70
     1
102
RTVSPropertyOp9
 70
     1
102
RTVSPropertyOp10
 70
     1
102
RTVSPropertyOp11
 70
     1
102
RTVSPropertyOp12
 70
     1
102
RTVSPropertyOp13
 70
     1
102
RTVSPropertyOp14
 70
     1
102
RTVSPropertyOp15
 70
     1
102
RTVSPropertyOp16
 70
     1
102
RTVSPropertyOp17
 70
     1
102
RTVSPropertyOp18
 70
     1
102
RTVSPropertyOp19
 70
     1
102
RTVSPropertyOp20
 70
     1
102
RTVSPropertyOp21
 70
     1
102
RTVSPropertyOp22
 70
     1
102
RTVSPropertyOp23
 70
     1
102
RTVSPropertyOp24
 70
     1
102
RTVSPropertyOp25
 70
     1
102
RTVSPropertyOp26
 70
     1
102
RTVSPropertyOp27
 70
     1
102
RTVSPropertyOp28
 70
     1
102
RTVSPropertyOp29
 70
     1
102
RTVSPropertyOp30
 70
     1
102
RTVSPropertyOp31
 70
     1
102
RTVSPropertyOp32
 70
     1
102
RTVSPropertyOp33
 70
     1
102
RTVSPropertyOp34
 70
     1
102
RTVSPropertyOp35
 70
     1
102
RTVSPropertyOp36
 70
     1
102
RTVSPropertyOp37
 70
     1
102
RTVSPropertyOp38
 70
     1
102
RTVSPropertyOp39
 70
     1
102
RTVSPropertyOp40
 70
     1
102
RTVSPropertyOp41
 70
     1
102
RTVSPropertyOp42
 70
     1
102
RTVSPropertyOp43
 70
     1
102
RTVSPropertyOp44
 70
     1
102
RTVSPropertyOp45
 70
     1
102
RTVSPropertyOp46
 70
     1
102
RTVSPropertyOp47
 70
     1
102
RTVSPropertyOp48
 70
     1
102
RTVSPropertyOp49
 70
     1
102
RTVSPropertyOp50
 70
     1
102
RTVSPropertyOp51
 70
     0
102
RTVSPropertyOp52
 70
     0
102
RTVSPropertyOp53
 70
     1
102
RTVSPropertyOp54
 70
     1
102
RTVSPropertyOp55
 70
     1
102
RTVSPropertyOp56
 70
     1
102
RTVSPropertyOp57
 70
     1
102
RTVSPropertyOp58
 70
     1
102
RTVSPropertyOp59
 70
     1
102
RTVSPropertyOp60
 70
     1
102
RTVSPropertyOp61
 70
     1
102
RTVSPropertyOp62
 70
     1
  0
XRECORD
  5
8665
102
{ACAD_REACTORS
330
8664
102
}
330
8664
100
AcDbXrecord
280
     1
102
RTVSPost2010Prop28
280
     0
102
RTVSPost2010PropOp28
 70
     1
102
RTVSPost2010Prop29
280
     1
102
RTVSPost2010PropOp29
 70
     1
102
RTVSPost2010Prop30
280
     1
102
RTVSPost2010PropOp30
 70
     1
102
RTVSPost2010Prop31
280
     0
102
RTVSPost2010PropOp31
 70
     1
102
RTVSPost2010Prop32
280
     0
102
RTVSPost2010PropOp32
 70
     1
102
RTVSPost2010Prop33
280
     0
102
RTVSPost2010PropOp33
 70
     1
102
RTVSPost2010Prop34
280
     0
102
RTVSPost2010PropOp34
 70
     1
102
RTVSPost2010Prop35
280
     0
102
RTVSPost2010PropOp35
 70
     1
102
RTVSPost2010Prop36
280
     0
102
RTVSPost2010PropOp36
 70
     1
102
RTVSPost2010Prop37
 90
       50
102
RTVSPost2010PropOp37
 70
     0
102
RTVSPost2010Prop38
140
0.0
102
RTVSPost2010PropOp38
 70
     0
102
RTVSPost2010Prop39
140
1.0
102
RTVSPost2010PropOp39
 70
     0
102
RTVSPost2010Prop40
 90
        0
102
RTVSPost2010PropOp40
 70
     0
102
RTVSPost2010Prop41ColorIndex
 90
       18
102
RTVSPost2010Prop41ColorRGB
 90
        0
102
RTVSPost2010PropOp41
 70
     0
102
RTVSPost2010Prop42
 90
       50
102
RTVSPost2010PropOp42
 70
     0
102
RTVSPost2010Prop43
 90
        3
102
RTVSPost2010PropOp43
 70
     0
102
RTVSPost2010Prop44ColorIndex
 90
        5
102
RTVSPost2010Prop44ColorRGB
 90
      255
102
RTVSPost2010PropOp44
 70
     0
102
RTVSPost2010Prop45
280
     0
102
RTVSPost2010PropOp45
 70
     1
102
RTVSPost2010Prop46
 90
       50
102
RTVSPost2010PropOp46
 70
     0
102
RTVSPost2010Prop47
 90
       50
102
RTVSPost2010PropOp47
 70
     0
102
RTVSPost2010Prop48
 90
       50
102
RTVSPost2010PropOp48
 70
     0
102
RTVSPost2010Prop49
280
     0
102
RTVSPost2010PropOp49
 70
     1
102
RTVSPost2010Prop50
 90
       50
102
RTVSPost2010PropOp50
 70
     0
102
RTVSPost2010Prop51ColorIndex
 90
      256
102
RTVSPost2010Prop51ColorRGB
 90
-16777216
102
RTVSPost2010PropOp51
 70
     0
102
RTVSPost2010Prop52
140
1.0
102
RTVSPost2010PropOp52
 70
     0
102
RTVSPost2010Prop53
 90
        2
102
RTVSPost2010PropOp53
 70
     0
102
RTVSPost2010Prop54
  1
strokes_ogs.tif
102
RTVSPost2010PropOp54
 70
     0
102
RTVSPost2010Prop55
280
     0
102
RTVSPost2010PropOp55
 70
     1
102
RTVSPost2010Prop56
140
1.0
102
RTVSPost2010PropOp56
 70
     0
102
RTVSPost2010Prop57
140
1.0
102
RTVSPost2010PropOp57
 70
     0
102
RTVSPropertyOp0
 70
     0
102
RTVSPropertyOp1
 70
     0
102
RTVSPropertyOp2
 70
     0
102
RTVSPropertyOp3
 70
     0
102
RTVSPropertyOp4
 70
     0
102
RTVSPropertyOp5
 70
     0
102
RTVSPropertyOp6
 70
     0
102
RTVSPropertyOp7
 70
     0
102
RTVSPropertyOp8
 70
     0
102
RTVSPropertyOp9
 70
     0
102
RTVSPropertyOp10
 70
     0
102
RTVSPropertyOp11
 70
     0
102
RTVSPropertyOp12
 70
     0
102
RTVSPropertyOp13
 70
     0
102
RTVSPropertyOp14
 70
     2
102
RTVSPropertyOp15
 70
     0
102
RTVSPropertyOp16
 70
     0
102
RTVSPropertyOp17
 70
     0
102
RTVSPropertyOp18
 70
     0
102
RTVSPropertyOp19
 70
     0
102
RTVSPropertyOp20
 70
     0
102
RTVSPropertyOp21
 70
     0
102
RTVSPropertyOp22
 70
     0
102
RTVSPropertyOp23
 70
     0
102
RTVSPropertyOp24
 70
     0
102
RTVSPropertyOp25
 70
     0
102
RTVSPropertyOp26
 70
     0
102
RTVSPropertyOp27
 70
     0
102
RTVSPropertyOp28
 70
     1
102
RTVSPropertyOp29
 70
     1
102
RTVSPropertyOp30
 70
     1
102
RTVSPropertyOp31
 70
     1
102
RTVSPropertyOp32
 70
     1
102
RTVSPropertyOp33
 70
     1
102
RTVSPropertyOp34
 70
     1
102
RTVSPropertyOp35
 70
     1
102
RTVSPropertyOp36
 70
     1
102
RTVSPropertyOp37
 70
     0
102
RTVSPropertyOp38
 70
     0
102
RTVSPropertyOp39
 70
     0
102
RTVSPropertyOp40
 70
     0
102
RTVSPropertyOp41
 70
     0
102
RTVSPropertyOp42
 70
     0
102
RTVSPropertyOp43
 70
     0
102
RTVSPropertyOp44
 70
     0
102
RTVSPropertyOp45
 70
     1
102
RTVSPropertyOp46
 70
     0
102
RTVSPropertyOp47
 70
     0
102
RTVSPropertyOp48
 70
     0
102
RTVSPropertyOp49
 70
     1
102
RTVSPropertyOp50
 70
     0
102
RTVSPropertyOp51
 70
     0
102
RTVSPropertyOp52
 70
     0
102
RTVSPropertyOp53
 70
     0
102
RTVSPropertyOp54
 70
     0
102
RTVSPropertyOp55
 70
     1
102
RTVSPropertyOp56
 70
     0
102
RTVSPropertyOp57
 70
     0
102
RTVSPropertyOp58
 70
     0
102
RTVSPropertyOp59
 70
     0
102
RTVSPropertyOp60
 70
     0
102
RTVSPropertyOp61
 70
     0
102
RTVSPropertyOp62
 70
     0
  0
XRECORD
  5
864B
102
{ACAD_REACTORS
330
864A
102
}
330
864A
100
AcDbXrecord
280
     1
102
RTVSPost2010Prop28
280
     0
102
RTVSPost2010PropOp28
 70
     1
102
RTVSPost2010Prop29
280
     1
102
RTVSPost2010PropOp29
 70
     1
102
RTVSPost2010Prop30
280
     1
102
RTVSPost2010PropOp30
 70
     1
102
RTVSPost2010Prop31
280
     0
102
RTVSPost2010PropOp31
 70
     1
102
RTVSPost2010Prop32
280
     0
102
RTVSPost2010PropOp32
 70
     1
102
RTVSPost2010Prop33
280
     0
102
RTVSPost2010PropOp33
 70
     1
102
RTVSPost2010Prop34
280
     0
102
RTVSPost2010PropOp34
 70
     1
102
RTVSPost2010Prop35
280
     0
102
RTVSPost2010PropOp35
 70
     1
102
RTVSPost2010Prop36
280
     0
102
RTVSPost2010PropOp36
 70
     1
102
RTVSPost2010Prop37
 90
       50
102
RTVSPost2010PropOp37
 70
     1
102
RTVSPost2010Prop38
140
0.0
102
RTVSPost2010PropOp38
 70
     1
102
RTVSPost2010Prop39
140
1.0
102
RTVSPost2010PropOp39
 70
     1
102
RTVSPost2010Prop40
 90
        0
102
RTVSPost2010PropOp40
 70
     1
102
RTVSPost2010Prop41ColorIndex
 90
       18
102
RTVSPost2010Prop41ColorRGB
 90
        0
102
RTVSPost2010PropOp41
 70
     1
102
RTVSPost2010Prop42
 90
       50
102
RTVSPost2010PropOp42
 70
     1
102
RTVSPost2010Prop43
 90
        3
102
RTVSPost2010PropOp43
 70
     1
102
RTVSPost2010Prop44ColorIndex
 90
        5
102
RTVSPost2010Prop44ColorRGB
 90
      255
102
RTVSPost2010PropOp44
 70
     1
102
RTVSPost2010Prop45
280
     0
102
RTVSPost2010PropOp45
 70
     1
102
RTVSPost2010Prop46
 90
       50
102
RTVSPost2010PropOp46
 70
     1
102
RTVSPost2010Prop47
 90
       50
102
RTVSPost2010PropOp47
 70
     1
102
RTVSPost2010Prop48
 90
       50
102
RTVSPost2010PropOp48
 70
     1
102
RTVSPost2010Prop49
280
     0
102
RTVSPost2010PropOp49
 70
     1
102
RTVSPost2010Prop50
 90
       50
102
RTVSPost2010PropOp50
 70
     1
102
RTVSPost2010Prop51ColorIndex
 90
      256
102
RTVSPost2010Prop51ColorRGB
 90
-16777216
102
RTVSPost2010PropOp51
 70
     0
102
RTVSPost2010Prop52
140
1.0
102
RTVSPost2010PropOp52
 70
     0
102
RTVSPost2010Prop53
 90
        2
102
RTVSPost2010PropOp53
 70
     1
102
RTVSPost2010Prop54
  1
strokes_ogs.tif
102
RTVSPost2010PropOp54
 70
     1
102
RTVSPost2010Prop55
280
     0
102
RTVSPost2010PropOp55
 70
     1
102
RTVSPost2010Prop56
140
1.0
102
RTVSPost2010PropOp56
 70
     1
102
RTVSPost2010Prop57
140
1.0
102
RTVSPost2010PropOp57
 70
     1
102
RTVSPropertyOp0
 70
     1
102
RTVSPropertyOp1
 70
     1
102
RTVSPropertyOp2
 70
     1
102
RTVSPropertyOp3
 70
     1
102
RTVSPropertyOp4
 70
     1
102
RTVSPropertyOp5
 70
     1
102
RTVSPropertyOp6
 70
     1
102
RTVSPropertyOp7
 70
     1
102
RTVSPropertyOp8
 70
     1
102
RTVSPropertyOp9
 70
     1
102
RTVSPropertyOp10
 70
     1
102
RTVSPropertyOp11
 70
     1
102
RTVSPropertyOp12
 70
     1
102
RTVSPropertyOp13
 70
     1
102
RTVSPropertyOp14
 70
     1
102
RTVSPropertyOp15
 70
     1
102
RTVSPropertyOp16
 70
     1
102
RTVSPropertyOp17
 70
     1
102
RTVSPropertyOp18
 70
     1
102
RTVSPropertyOp19
 70
     1
102
RTVSPropertyOp20
 70
     1
102
RTVSPropertyOp21
 70
     1
102
RTVSPropertyOp22
 70
     1
102
RTVSPropertyOp23
 70
     1
102
RTVSPropertyOp24
 70
     1
102
RTVSPropertyOp25
 70
     1
102
RTVSPropertyOp26
 70
     1
102
RTVSPropertyOp27
 70
     1
102
RTVSPropertyOp28
 70
     1
102
RTVSPropertyOp29
 70
     1
102
RTVSPropertyOp30
 70
     1
102
RTVSPropertyOp31
 70
     1
102
RTVSPropertyOp32
 70
     1
102
RTVSPropertyOp33
 70
     1
102
RTVSPropertyOp34
 70
     1
102
RTVSPropertyOp35
 70
     1
102
RTVSPropertyOp36
 70
     1
102
RTVSPropertyOp37
 70
     1
102
RTVSPropertyOp38
 70
     1
102
RTVSPropertyOp39
 70
     1
102
RTVSPropertyOp40
 70
     1
102
RTVSPropertyOp41
 70
     1
102
RTVSPropertyOp42
 70
     1
102
RTVSPropertyOp43
 70
     1
102
RTVSPropertyOp44
 70
     1
102
RTVSPropertyOp45
 70
     1
102
RTVSPropertyOp46
 70
     1
102
RTVSPropertyOp47
 70
     1
102
RTVSPropertyOp48
 70
     1
102
RTVSPropertyOp49
 70
     1
102
RTVSPropertyOp50
 70
     1
102
RTVSPropertyOp51
 70
     0
102
RTVSPropertyOp52
 70
     0
102
RTVSPropertyOp53
 70
     1
102
RTVSPropertyOp54
 70
     1
102
RTVSPropertyOp55
 70
     1
102
RTVSPropertyOp56
 70
     1
102
RTVSPropertyOp57
 70
     1
102
RTVSPropertyOp58
 70
     1
102
RTVSPropertyOp59
 70
     1
102
RTVSPropertyOp60
 70
     1
102
RTVSPropertyOp61
 70
     1
102
RTVSPropertyOp62
 70
     1
  0
XRECORD
  5
8661
102
{ACAD_REACTORS
330
8660
102
}
330
8660
100
AcDbXrecord
280
     1
102
RTVSPost2010Prop28
280
     0
102
RTVSPost2010PropOp28
 70
     1
102
RTVSPost2010Prop29
280
     1
102
RTVSPost2010PropOp29
 70
     1
102
RTVSPost2010Prop30
280
     1
102
RTVSPost2010PropOp30
 70
     1
102
RTVSPost2010Prop31
280
     0
102
RTVSPost2010PropOp31
 70
     1
102
RTVSPost2010Prop32
280
     0
102
RTVSPost2010PropOp32
 70
     1
102
RTVSPost2010Prop33
280
     0
102
RTVSPost2010PropOp33
 70
     1
102
RTVSPost2010Prop34
280
     0
102
RTVSPost2010PropOp34
 70
     1
102
RTVSPost2010Prop35
280
     0
102
RTVSPost2010PropOp35
 70
     1
102
RTVSPost2010Prop36
280
     0
102
RTVSPost2010PropOp36
 70
     1
102
RTVSPost2010Prop37
 90
       50
102
RTVSPost2010PropOp37
 70
     1
102
RTVSPost2010Prop38
140
0.0
102
RTVSPost2010PropOp38
 70
     1
102
RTVSPost2010Prop39
140
1.0
102
RTVSPost2010PropOp39
 70
     1
102
RTVSPost2010Prop40
 90
        0
102
RTVSPost2010PropOp40
 70
     1
102
RTVSPost2010Prop41ColorIndex
 90
       18
102
RTVSPost2010Prop41ColorRGB
 90
        0
102
RTVSPost2010PropOp41
 70
     1
102
RTVSPost2010Prop42
 90
       50
102
RTVSPost2010PropOp42
 70
     1
102
RTVSPost2010Prop43
 90
        3
102
RTVSPost2010PropOp43
 70
     1
102
RTVSPost2010Prop44ColorIndex
 90
        5
102
RTVSPost2010Prop44ColorRGB
 90
      255
102
RTVSPost2010PropOp44
 70
     1
102
RTVSPost2010Prop45
280
     0
102
RTVSPost2010PropOp45
 70
     1
102
RTVSPost2010Prop46
 90
       50
102
RTVSPost2010PropOp46
 70
     1
102
RTVSPost2010Prop47
 90
       50
102
RTVSPost2010PropOp47
 70
     1
102
RTVSPost2010Prop48
 90
       50
102
RTVSPost2010PropOp48
 70
     1
102
RTVSPost2010Prop49
280
     0
102
RTVSPost2010PropOp49
 70
     1
102
RTVSPost2010Prop50
 90
       50
102
RTVSPost2010PropOp50
 70
     1
102
RTVSPost2010Prop51ColorIndex
 90
      256
102
RTVSPost2010Prop51ColorRGB
 90
-16777216
102
RTVSPost2010PropOp51
 70
     0
102
RTVSPost2010Prop52
140
1.0
102
RTVSPost2010PropOp52
 70
     0
102
RTVSPost2010Prop53
 90
        2
102
RTVSPost2010PropOp53
 70
     1
102
RTVSPost2010Prop54
  1
strokes_ogs.tif
102
RTVSPost2010PropOp54
 70
     1
102
RTVSPost2010Prop55
280
     0
102
RTVSPost2010PropOp55
 70
     1
102
RTVSPost2010Prop56
140
1.0
102
RTVSPost2010PropOp56
 70
     1
102
RTVSPost2010Prop57
140
1.0
102
RTVSPost2010PropOp57
 70
     1
102
RTVSPropertyOp0
 70
     1
102
RTVSPropertyOp1
 70
     1
102
RTVSPropertyOp2
 70
     1
102
RTVSPropertyOp3
 70
     1
102
RTVSPropertyOp4
 70
     1
102
RTVSPropertyOp5
 70
     1
102
RTVSPropertyOp6
 70
     1
102
RTVSPropertyOp7
 70
     1
102
RTVSPropertyOp8
 70
     1
102
RTVSPropertyOp9
 70
     1
102
RTVSPropertyOp10
 70
     1
102
RTVSPropertyOp11
 70
     1
102
RTVSPropertyOp12
 70
     1
102
RTVSPropertyOp13
 70
     1
102
RTVSPropertyOp14
 70
     1
102
RTVSPropertyOp15
 70
     1
102
RTVSPropertyOp16
 70
     1
102
RTVSPropertyOp17
 70
     1
102
RTVSPropertyOp18
 70
     1
102
RTVSPropertyOp19
 70
     1
102
RTVSPropertyOp20
 70
     1
102
RTVSPropertyOp21
 70
     1
102
RTVSPropertyOp22
 70
     1
102
RTVSPropertyOp23
 70
     1
102
RTVSPropertyOp24
 70
     1
102
RTVSPropertyOp25
 70
     1
102
RTVSPropertyOp26
 70
     1
102
RTVSPropertyOp27
 70
     1
102
RTVSPropertyOp28
 70
     1
102
RTVSPropertyOp29
 70
     1
102
RTVSPropertyOp30
 70
     1
102
RTVSPropertyOp31
 70
     1
102
RTVSPropertyOp32
 70
     1
102
RTVSPropertyOp33
 70
     1
102
RTVSPropertyOp34
 70
     1
102
RTVSPropertyOp35
 70
     1
102
RTVSPropertyOp36
 70
     1
102
RTVSPropertyOp37
 70
     1
102
RTVSPropertyOp38
 70
     1
102
RTVSPropertyOp39
 70
     1
102
RTVSPropertyOp40
 70
     1
102
RTVSPropertyOp41
 70
     1
102
RTVSPropertyOp42
 70
     1
102
RTVSPropertyOp43
 70
     1
102
RTVSPropertyOp44
 70
     1
102
RTVSPropertyOp45
 70
     1
102
RTVSPropertyOp46
 70
     1
102
RTVSPropertyOp47
 70
     1
102
RTVSPropertyOp48
 70
     1
102
RTVSPropertyOp49
 70
     1
102
RTVSPropertyOp50
 70
     1
102
RTVSPropertyOp51
 70
     0
102
RTVSPropertyOp52
 70
     0
102
RTVSPropertyOp53
 70
     1
102
RTVSPropertyOp54
 70
     1
102
RTVSPropertyOp55
 70
     1
102
RTVSPropertyOp56
 70
     1
102
RTVSPropertyOp57
 70
     1
102
RTVSPropertyOp58
 70
     1
102
RTVSPropertyOp59
 70
     1
102
RTVSPropertyOp60
 70
     1
102
RTVSPropertyOp61
 70
     1
102
RTVSPropertyOp62
 70
     1
  0
XRECORD
  5
865F
102
{ACAD_REACTORS
330
865E
102
}
330
865E
100
AcDbXrecord
280
     1
102
RTVSPost2010Prop28
280
     0
102
RTVSPost2010PropOp28
 70
     1
102
RTVSPost2010Prop29
280
     1
102
RTVSPost2010PropOp29
 70
     1
102
RTVSPost2010Prop30
280
     1
102
RTVSPost2010PropOp30
 70
     1
102
RTVSPost2010Prop31
280
     0
102
RTVSPost2010PropOp31
 70
     1
102
RTVSPost2010Prop32
280
     0
102
RTVSPost2010PropOp32
 70
     1
102
RTVSPost2010Prop33
280
     0
102
RTVSPost2010PropOp33
 70
     1
102
RTVSPost2010Prop34
280
     0
102
RTVSPost2010PropOp34
 70
     1
102
RTVSPost2010Prop35
280
     0
102
RTVSPost2010PropOp35
 70
     1
102
RTVSPost2010Prop36
280
     0
102
RTVSPost2010PropOp36
 70
     1
102
RTVSPost2010Prop37
 90
       50
102
RTVSPost2010PropOp37
 70
     1
102
RTVSPost2010Prop38
140
0.0
102
RTVSPost2010PropOp38
 70
     1
102
RTVSPost2010Prop39
140
1.0
102
RTVSPost2010PropOp39
 70
     1
102
RTVSPost2010Prop40
 90
        0
102
RTVSPost2010PropOp40
 70
     1
102
RTVSPost2010Prop41ColorIndex
 90
       18
102
RTVSPost2010Prop41ColorRGB
 90
        0
102
RTVSPost2010PropOp41
 70
     1
102
RTVSPost2010Prop42
 90
       50
102
RTVSPost2010PropOp42
 70
     1
102
RTVSPost2010Prop43
 90
        3
102
RTVSPost2010PropOp43
 70
     1
102
RTVSPost2010Prop44ColorIndex
 90
        5
102
RTVSPost2010Prop44ColorRGB
 90
      255
102
RTVSPost2010PropOp44
 70
     1
102
RTVSPost2010Prop45
280
     0
102
RTVSPost2010PropOp45
 70
     1
102
RTVSPost2010Prop46
 90
       50
102
RTVSPost2010PropOp46
 70
     1
102
RTVSPost2010Prop47
 90
       50
102
RTVSPost2010PropOp47
 70
     1
102
RTVSPost2010Prop48
 90
       50
102
RTVSPost2010PropOp48
 70
     1
102
RTVSPost2010Prop49
280
     0
102
RTVSPost2010PropOp49
 70
     1
102
RTVSPost2010Prop50
 90
       50
102
RTVSPost2010PropOp50
 70
     1
102
RTVSPost2010Prop51ColorIndex
 90
      256
102
RTVSPost2010Prop51ColorRGB
 90
-16777216
102
RTVSPost2010PropOp51
 70
     0
102
RTVSPost2010Prop52
140
1.0
102
RTVSPost2010PropOp52
 70
     0
102
RTVSPost2010Prop53
 90
        2
102
RTVSPost2010PropOp53
 70
     1
102
RTVSPost2010Prop54
  1
strokes_ogs.tif
102
RTVSPost2010PropOp54
 70
     1
102
RTVSPost2010Prop55
280
     0
102
RTVSPost2010PropOp55
 70
     1
102
RTVSPost2010Prop56
140
1.0
102
RTVSPost2010PropOp56
 70
     1
102
RTVSPost2010Prop57
140
1.0
102
RTVSPost2010PropOp57
 70
     1
102
RTVSPropertyOp0
 70
     1
102
RTVSPropertyOp1
 70
     1
102
RTVSPropertyOp2
 70
     1
102
RTVSPropertyOp3
 70
     1
102
RTVSPropertyOp4
 70
     1
102
RTVSPropertyOp5
 70
     1
102
RTVSPropertyOp6
 70
     1
102
RTVSPropertyOp7
 70
     1
102
RTVSPropertyOp8
 70
     1
102
RTVSPropertyOp9
 70
     1
102
RTVSPropertyOp10
 70
     1
102
RTVSPropertyOp11
 70
     1
102
RTVSPropertyOp12
 70
     1
102
RTVSPropertyOp13
 70
     1
102
RTVSPropertyOp14
 70
     1
102
RTVSPropertyOp15
 70
     1
102
RTVSPropertyOp16
 70
     1
102
RTVSPropertyOp17
 70
     1
102
RTVSPropertyOp18
 70
     1
102
RTVSPropertyOp19
 70
     1
102
RTVSPropertyOp20
 70
     1
102
RTVSPropertyOp21
 70
     1
102
RTVSPropertyOp22
 70
     1
102
RTVSPropertyOp23
 70
     1
102
RTVSPropertyOp24
 70
     1
102
RTVSPropertyOp25
 70
     1
102
RTVSPropertyOp26
 70
     1
102
RTVSPropertyOp27
 70
     1
102
RTVSPropertyOp28
 70
     1
102
RTVSPropertyOp29
 70
     1
102
RTVSPropertyOp30
 70
     1
102
RTVSPropertyOp31
 70
     1
102
RTVSPropertyOp32
 70
     1
102
RTVSPropertyOp33
 70
     1
102
RTVSPropertyOp34
 70
     1
102
RTVSPropertyOp35
 70
     1
102
RTVSPropertyOp36
 70
     1
102
RTVSPropertyOp37
 70
     1
102
RTVSPropertyOp38
 70
     1
102
RTVSPropertyOp39
 70
     1
102
RTVSPropertyOp40
 70
     1
102
RTVSPropertyOp41
 70
     1
102
RTVSPropertyOp42
 70
     1
102
RTVSPropertyOp43
 70
     1
102
RTVSPropertyOp44
 70
     1
102
RTVSPropertyOp45
 70
     1
102
RTVSPropertyOp46
 70
     1
102
RTVSPropertyOp47
 70
     1
102
RTVSPropertyOp48
 70
     1
102
RTVSPropertyOp49
 70
     1
102
RTVSPropertyOp50
 70
     1
102
RTVSPropertyOp51
 70
     0
102
RTVSPropertyOp52
 70
     0
102
RTVSPropertyOp53
 70
     1
102
RTVSPropertyOp54
 70
     1
102
RTVSPropertyOp55
 70
     1
102
RTVSPropertyOp56
 70
     1
102
RTVSPropertyOp57
 70
     1
102
RTVSPropertyOp58
 70
     1
102
RTVSPropertyOp59
 70
     1
102
RTVSPropertyOp60
 70
     1
102
RTVSPropertyOp61
 70
     1
102
RTVSPropertyOp62
 70
     1
  0
XRECORD
  5
8659
102
{ACAD_REACTORS
330
8658
102
}
330
8658
100
AcDbXrecord
280
     1
102
RTVSPost2010Prop28
280
     0
102
RTVSPost2010PropOp28
 70
     1
102
RTVSPost2010Prop29
280
     1
102
RTVSPost2010PropOp29
 70
     1
102
RTVSPost2010Prop30
280
     1
102
RTVSPost2010PropOp30
 70
     1
102
RTVSPost2010Prop31
280
     0
102
RTVSPost2010PropOp31
 70
     1
102
RTVSPost2010Prop32
280
     0
102
RTVSPost2010PropOp32
 70
     1
102
RTVSPost2010Prop33
280
     0
102
RTVSPost2010PropOp33
 70
     1
102
RTVSPost2010Prop34
280
     0
102
RTVSPost2010PropOp34
 70
     1
102
RTVSPost2010Prop35
280
     0
102
RTVSPost2010PropOp35
 70
     1
102
RTVSPost2010Prop36
280
     0
102
RTVSPost2010PropOp36
 70
     1
102
RTVSPost2010Prop37
 90
       50
102
RTVSPost2010PropOp37
 70
     1
102
RTVSPost2010Prop38
140
0.0
102
RTVSPost2010PropOp38
 70
     1
102
RTVSPost2010Prop39
140
1.0
102
RTVSPost2010PropOp39
 70
     1
102
RTVSPost2010Prop40
 90
        0
102
RTVSPost2010PropOp40
 70
     1
102
RTVSPost2010Prop41ColorIndex
 90
       18
102
RTVSPost2010Prop41ColorRGB
 90
        0
102
RTVSPost2010PropOp41
 70
     1
102
RTVSPost2010Prop42
 90
       50
102
RTVSPost2010PropOp42
 70
     1
102
RTVSPost2010Prop43
 90
        3
102
RTVSPost2010PropOp43
 70
     1
102
RTVSPost2010Prop44ColorIndex
 90
        5
102
RTVSPost2010Prop44ColorRGB
 90
      255
102
RTVSPost2010PropOp44
 70
     1
102
RTVSPost2010Prop45
280
     0
102
RTVSPost2010PropOp45
 70
     1
102
RTVSPost2010Prop46
 90
       50
102
RTVSPost2010PropOp46
 70
     1
102
RTVSPost2010Prop47
 90
       50
102
RTVSPost2010PropOp47
 70
     1
102
RTVSPost2010Prop48
 90
       50
102
RTVSPost2010PropOp48
 70
     1
102
RTVSPost2010Prop49
280
     0
102
RTVSPost2010PropOp49
 70
     1
102
RTVSPost2010Prop50
 90
       50
102
RTVSPost2010PropOp50
 70
     1
102
RTVSPost2010Prop51ColorIndex
 90
      256
102
RTVSPost2010Prop51ColorRGB
 90
-16777216
102
RTVSPost2010PropOp51
 70
     0
102
RTVSPost2010Prop52
140
1.0
102
RTVSPost2010PropOp52
 70
     0
102
RTVSPost2010Prop53
 90
        2
102
RTVSPost2010PropOp53
 70
     1
102
RTVSPost2010Prop54
  1
strokes_ogs.tif
102
RTVSPost2010PropOp54
 70
     1
102
RTVSPost2010Prop55
280
     0
102
RTVSPost2010PropOp55
 70
     1
102
RTVSPost2010Prop56
140
1.0
102
RTVSPost2010PropOp56
 70
     1
102
RTVSPost2010Prop57
140
1.0
102
RTVSPost2010PropOp57
 70
     1
102
RTVSPropertyOp0
 70
     1
102
RTVSPropertyOp1
 70
     1
102
RTVSPropertyOp2
 70
     1
102
RTVSPropertyOp3
 70
     1
102
RTVSPropertyOp4
 70
     1
102
RTVSPropertyOp5
 70
     1
102
RTVSPropertyOp6
 70
     1
102
RTVSPropertyOp7
 70
     1
102
RTVSPropertyOp8
 70
     1
102
RTVSPropertyOp9
 70
     1
102
RTVSPropertyOp10
 70
     1
102
RTVSPropertyOp11
 70
     1
102
RTVSPropertyOp12
 70
     1
102
RTVSPropertyOp13
 70
     1
102
RTVSPropertyOp14
 70
     1
102
RTVSPropertyOp15
 70
     1
102
RTVSPropertyOp16
 70
     1
102
RTVSPropertyOp17
 70
     1
102
RTVSPropertyOp18
 70
     1
102
RTVSPropertyOp19
 70
     1
102
RTVSPropertyOp20
 70
     1
102
RTVSPropertyOp21
 70
     1
102
RTVSPropertyOp22
 70
     1
102
RTVSPropertyOp23
 70
     1
102
RTVSPropertyOp24
 70
     1
102
RTVSPropertyOp25
 70
     1
102
RTVSPropertyOp26
 70
     1
102
RTVSPropertyOp27
 70
     1
102
RTVSPropertyOp28
 70
     1
102
RTVSPropertyOp29
 70
     1
102
RTVSPropertyOp30
 70
     1
102
RTVSPropertyOp31
 70
     1
102
RTVSPropertyOp32
 70
     1
102
RTVSPropertyOp33
 70
     1
102
RTVSPropertyOp34
 70
     1
102
RTVSPropertyOp35
 70
     1
102
RTVSPropertyOp36
 70
     1
102
RTVSPropertyOp37
 70
     1
102
RTVSPropertyOp38
 70
     1
102
RTVSPropertyOp39
 70
     1
102
RTVSPropertyOp40
 70
     1
102
RTVSPropertyOp41
 70
     1
102
RTVSPropertyOp42
 70
     1
102
RTVSPropertyOp43
 70
     1
102
RTVSPropertyOp44
 70
     1
102
RTVSPropertyOp45
 70
     1
102
RTVSPropertyOp46
 70
     1
102
RTVSPropertyOp47
 70
     1
102
RTVSPropertyOp48
 70
     1
102
RTVSPropertyOp49
 70
     1
102
RTVSPropertyOp50
 70
     1
102
RTVSPropertyOp51
 70
     0
102
RTVSPropertyOp52
 70
     0
102
RTVSPropertyOp53
 70
     1
102
RTVSPropertyOp54
 70
     1
102
RTVSPropertyOp55
 70
     1
102
RTVSPropertyOp56
 70
     1
102
RTVSPropertyOp57
 70
     1
102
RTVSPropertyOp58
 70
     1
102
RTVSPropertyOp59
 70
     1
102
RTVSPropertyOp60
 70
     1
102
RTVSPropertyOp61
 70
     1
102
RTVSPropertyOp62
 70
     1
  0
XRECORD
  5
865B
102
{ACAD_REACTORS
330
865A
102
}
330
865A
100
AcDbXrecord
280
     1
102
RTVSPost2010Prop28
280
     0
102
RTVSPost2010PropOp28
 70
     1
102
RTVSPost2010Prop29
280
     1
102
RTVSPost2010PropOp29
 70
     1
102
RTVSPost2010Prop30
280
     1
102
RTVSPost2010PropOp30
 70
     1
102
RTVSPost2010Prop31
280
     0
102
RTVSPost2010PropOp31
 70
     1
102
RTVSPost2010Prop32
280
     0
102
RTVSPost2010PropOp32
 70
     1
102
RTVSPost2010Prop33
280
     0
102
RTVSPost2010PropOp33
 70
     1
102
RTVSPost2010Prop34
280
     0
102
RTVSPost2010PropOp34
 70
     1
102
RTVSPost2010Prop35
280
     0
102
RTVSPost2010PropOp35
 70
     1
102
RTVSPost2010Prop36
280
     0
102
RTVSPost2010PropOp36
 70
     1
102
RTVSPost2010Prop37
 90
       50
102
RTVSPost2010PropOp37
 70
     1
102
RTVSPost2010Prop38
140
0.0
102
RTVSPost2010PropOp38
 70
     1
102
RTVSPost2010Prop39
140
1.0
102
RTVSPost2010PropOp39
 70
     1
102
RTVSPost2010Prop40
 90
        0
102
RTVSPost2010PropOp40
 70
     1
102
RTVSPost2010Prop41ColorIndex
 90
       18
102
RTVSPost2010Prop41ColorRGB
 90
        0
102
RTVSPost2010PropOp41
 70
     1
102
RTVSPost2010Prop42
 90
       50
102
RTVSPost2010PropOp42
 70
     1
102
RTVSPost2010Prop43
 90
        3
102
RTVSPost2010PropOp43
 70
     1
102
RTVSPost2010Prop44ColorIndex
 90
        5
102
RTVSPost2010Prop44ColorRGB
 90
      255
102
RTVSPost2010PropOp44
 70
     1
102
RTVSPost2010Prop45
280
     0
102
RTVSPost2010PropOp45
 70
     1
102
RTVSPost2010Prop46
 90
       50
102
RTVSPost2010PropOp46
 70
     1
102
RTVSPost2010Prop47
 90
       50
102
RTVSPost2010PropOp47
 70
     1
102
RTVSPost2010Prop48
 90
       50
102
RTVSPost2010PropOp48
 70
     1
102
RTVSPost2010Prop49
280
     0
102
RTVSPost2010PropOp49
 70
     1
102
RTVSPost2010Prop50
 90
       50
102
RTVSPost2010PropOp50
 70
     1
102
RTVSPost2010Prop51ColorIndex
 90
      256
102
RTVSPost2010Prop51ColorRGB
 90
-16777216
102
RTVSPost2010PropOp51
 70
     0
102
RTVSPost2010Prop52
140
1.0
102
RTVSPost2010PropOp52
 70
     0
102
RTVSPost2010Prop53
 90
        2
102
RTVSPost2010PropOp53
 70
     1
102
RTVSPost2010Prop54
  1
strokes_ogs.tif
102
RTVSPost2010PropOp54
 70
     1
102
RTVSPost2010Prop55
280
     0
102
RTVSPost2010PropOp55
 70
     1
102
RTVSPost2010Prop56
140
1.0
102
RTVSPost2010PropOp56
 70
     1
102
RTVSPost2010Prop57
140
1.0
102
RTVSPost2010PropOp57
 70
     1
102
RTVSPropertyOp0
 70
     1
102
RTVSPropertyOp1
 70
     1
102
RTVSPropertyOp2
 70
     1
102
RTVSPropertyOp3
 70
     1
102
RTVSPropertyOp4
 70
     1
102
RTVSPropertyOp5
 70
     1
102
RTVSPropertyOp6
 70
     1
102
RTVSPropertyOp7
 70
     1
102
RTVSPropertyOp8
 70
     1
102
RTVSPropertyOp9
 70
     1
102
RTVSPropertyOp10
 70
     1
102
RTVSPropertyOp11
 70
     1
102
RTVSPropertyOp12
 70
     1
102
RTVSPropertyOp13
 70
     1
102
RTVSPropertyOp14
 70
     1
102
RTVSPropertyOp15
 70
     1
102
RTVSPropertyOp16
 70
     1
102
RTVSPropertyOp17
 70
     1
102
RTVSPropertyOp18
 70
     1
102
RTVSPropertyOp19
 70
     1
102
RTVSPropertyOp20
 70
     1
102
RTVSPropertyOp21
 70
     1
102
RTVSPropertyOp22
 70
     1
102
RTVSPropertyOp23
 70
     1
102
RTVSPropertyOp24
 70
     1
102
RTVSPropertyOp25
 70
     1
102
RTVSPropertyOp26
 70
     1
102
RTVSPropertyOp27
 70
     1
102
RTVSPropertyOp28
 70
     1
102
RTVSPropertyOp29
 70
     1
102
RTVSPropertyOp30
 70
     1
102
RTVSPropertyOp31
 70
     1
102
RTVSPropertyOp32
 70
     1
102
RTVSPropertyOp33
 70
     1
102
RTVSPropertyOp34
 70
     1
102
RTVSPropertyOp35
 70
     1
102
RTVSPropertyOp36
 70
     1
102
RTVSPropertyOp37
 70
     1
102
RTVSPropertyOp38
 70
     1
102
RTVSPropertyOp39
 70
     1
102
RTVSPropertyOp40
 70
     1
102
RTVSPropertyOp41
 70
     1
102
RTVSPropertyOp42
 70
     1
102
RTVSPropertyOp43
 70
     1
102
RTVSPropertyOp44
 70
     1
102
RTVSPropertyOp45
 70
     1
102
RTVSPropertyOp46
 70
     1
102
RTVSPropertyOp47
 70
     1
102
RTVSPropertyOp48
 70
     1
102
RTVSPropertyOp49
 70
     1
102
RTVSPropertyOp50
 70
     1
102
RTVSPropertyOp51
 70
     0
102
RTVSPropertyOp52
 70
     0
102
RTVSPropertyOp53
 70
     1
102
RTVSPropertyOp54
 70
     1
102
RTVSPropertyOp55
 70
     1
102
RTVSPropertyOp56
 70
     1
102
RTVSPropertyOp57
 70
     1
102
RTVSPropertyOp58
 70
     1
102
RTVSPropertyOp59
 70
     1
102
RTVSPropertyOp60
 70
     1
102
RTVSPropertyOp61
 70
     1
102
RTVSPropertyOp62
 70
     1
  0
XRECORD
  5
8651
102
{ACAD_REACTORS
330
8650
102
}
330
8650
100
AcDbXrecord
280
     1
102
RTVSPost2010Prop28
280
     0
102
RTVSPost2010PropOp28
 70
     1
102
RTVSPost2010Prop29
280
     1
102
RTVSPost2010PropOp29
 70
     1
102
RTVSPost2010Prop30
280
     1
102
RTVSPost2010PropOp30
 70
     1
102
RTVSPost2010Prop31
280
     0
102
RTVSPost2010PropOp31
 70
     1
102
RTVSPost2010Prop32
280
     0
102
RTVSPost2010PropOp32
 70
     1
102
RTVSPost2010Prop33
280
     0
102
RTVSPost2010PropOp33
 70
     1
102
RTVSPost2010Prop34
280
     0
102
RTVSPost2010PropOp34
 70
     1
102
RTVSPost2010Prop35
280
     0
102
RTVSPost2010PropOp35
 70
     1
102
RTVSPost2010Prop36
280
     0
102
RTVSPost2010PropOp36
 70
     1
102
RTVSPost2010Prop37
 90
       50
102
RTVSPost2010PropOp37
 70
     1
102
RTVSPost2010Prop38
140
0.0
102
RTVSPost2010PropOp38
 70
     1
102
RTVSPost2010Prop39
140
1.0
102
RTVSPost2010PropOp39
 70
     1
102
RTVSPost2010Prop40
 90
        0
102
RTVSPost2010PropOp40
 70
     1
102
RTVSPost2010Prop41ColorIndex
 90
       18
102
RTVSPost2010Prop41ColorRGB
 90
        0
102
RTVSPost2010PropOp41
 70
     1
102
RTVSPost2010Prop42
 90
       50
102
RTVSPost2010PropOp42
 70
     1
102
RTVSPost2010Prop43
 90
        3
102
RTVSPost2010PropOp43
 70
     1
102
RTVSPost2010Prop44ColorIndex
 90
        5
102
RTVSPost2010Prop44ColorRGB
 90
      255
102
RTVSPost2010PropOp44
 70
     1
102
RTVSPost2010Prop45
280
     0
102
RTVSPost2010PropOp45
 70
     1
102
RTVSPost2010Prop46
 90
       50
102
RTVSPost2010PropOp46
 70
     1
102
RTVSPost2010Prop47
 90
       50
102
RTVSPost2010PropOp47
 70
     1
102
RTVSPost2010Prop48
 90
       50
102
RTVSPost2010PropOp48
 70
     1
102
RTVSPost2010Prop49
280
     0
102
RTVSPost2010PropOp49
 70
     1
102
RTVSPost2010Prop50
 90
       50
102
RTVSPost2010PropOp50
 70
     1
102
RTVSPost2010Prop51ColorIndex
 90
      256
102
RTVSPost2010Prop51ColorRGB
 90
-16777216
102
RTVSPost2010PropOp51
 70
     0
102
RTVSPost2010Prop52
140
1.0
102
RTVSPost2010PropOp52
 70
     0
102
RTVSPost2010Prop53
 90
        2
102
RTVSPost2010PropOp53
 70
     1
102
RTVSPost2010Prop54
  1
strokes_ogs.tif
102
RTVSPost2010PropOp54
 70
     1
102
RTVSPost2010Prop55
280
     0
102
RTVSPost2010PropOp55
 70
     1
102
RTVSPost2010Prop56
140
1.0
102
RTVSPost2010PropOp56
 70
     1
102
RTVSPost2010Prop57
140
1.0
102
RTVSPost2010PropOp57
 70
     1
102
RTVSPropertyOp0
 70
     1
102
RTVSPropertyOp1
 70
     1
102
RTVSPropertyOp2
 70
     1
102
RTVSPropertyOp3
 70
     1
102
RTVSPropertyOp4
 70
     1
102
RTVSPropertyOp5
 70
     1
102
RTVSPropertyOp6
 70
     1
102
RTVSPropertyOp7
 70
     1
102
RTVSPropertyOp8
 70
     1
102
RTVSPropertyOp9
 70
     1
102
RTVSPropertyOp10
 70
     1
102
RTVSPropertyOp11
 70
     1
102
RTVSPropertyOp12
 70
     1
102
RTVSPropertyOp13
 70
     1
102
RTVSPropertyOp14
 70
     1
102
RTVSPropertyOp15
 70
     1
102
RTVSPropertyOp16
 70
     1
102
RTVSPropertyOp17
 70
     1
102
RTVSPropertyOp18
 70
     1
102
RTVSPropertyOp19
 70
     1
102
RTVSPropertyOp20
 70
     1
102
RTVSPropertyOp21
 70
     1
102
RTVSPropertyOp22
 70
     1
102
RTVSPropertyOp23
 70
     1
102
RTVSPropertyOp24
 70
     1
102
RTVSPropertyOp25
 70
     1
102
RTVSPropertyOp26
 70
     1
102
RTVSPropertyOp27
 70
     1
102
RTVSPropertyOp28
 70
     1
102
RTVSPropertyOp29
 70
     1
102
RTVSPropertyOp30
 70
     1
102
RTVSPropertyOp31
 70
     1
102
RTVSPropertyOp32
 70
     1
102
RTVSPropertyOp33
 70
     1
102
RTVSPropertyOp34
 70
     1
102
RTVSPropertyOp35
 70
     1
102
RTVSPropertyOp36
 70
     1
102
RTVSPropertyOp37
 70
     1
102
RTVSPropertyOp38
 70
     1
102
RTVSPropertyOp39
 70
     1
102
RTVSPropertyOp40
 70
     1
102
RTVSPropertyOp41
 70
     1
102
RTVSPropertyOp42
 70
     1
102
RTVSPropertyOp43
 70
     1
102
RTVSPropertyOp44
 70
     1
102
RTVSPropertyOp45
 70
     1
102
RTVSPropertyOp46
 70
     1
102
RTVSPropertyOp47
 70
     1
102
RTVSPropertyOp48
 70
     1
102
RTVSPropertyOp49
 70
     1
102
RTVSPropertyOp50
 70
     1
102
RTVSPropertyOp51
 70
     0
102
RTVSPropertyOp52
 70
     0
102
RTVSPropertyOp53
 70
     1
102
RTVSPropertyOp54
 70
     1
102
RTVSPropertyOp55
 70
     1
102
RTVSPropertyOp56
 70
     1
102
RTVSPropertyOp57
 70
     1
102
RTVSPropertyOp58
 70
     1
102
RTVSPropertyOp59
 70
     1
102
RTVSPropertyOp60
 70
     1
102
RTVSPropertyOp61
 70
     1
102
RTVSPropertyOp62
 70
     1
  0
XRECORD
  5
8645
102
{ACAD_REACTORS
330
8644
102
}
330
8644
100
AcDbXrecord
280
     1
102
RTVSPost2010Prop28
280
     0
102
RTVSPost2010PropOp28
 70
     1
102
RTVSPost2010Prop29
280
     1
102
RTVSPost2010PropOp29
 70
     1
102
RTVSPost2010Prop30
280
     1
102
RTVSPost2010PropOp30
 70
     1
102
RTVSPost2010Prop31
280
     0
102
RTVSPost2010PropOp31
 70
     1
102
RTVSPost2010Prop32
280
     0
102
RTVSPost2010PropOp32
 70
     1
102
RTVSPost2010Prop33
280
     0
102
RTVSPost2010PropOp33
 70
     1
102
RTVSPost2010Prop34
280
     0
102
RTVSPost2010PropOp34
 70
     1
102
RTVSPost2010Prop35
280
     0
102
RTVSPost2010PropOp35
 70
     1
102
RTVSPost2010Prop36
280
     0
102
RTVSPost2010PropOp36
 70
     1
102
RTVSPost2010Prop37
 90
       50
102
RTVSPost2010PropOp37
 70
     1
102
RTVSPost2010Prop38
140
0.0
102
RTVSPost2010PropOp38
 70
     1
102
RTVSPost2010Prop39
140
1.0
102
RTVSPost2010PropOp39
 70
     1
102
RTVSPost2010Prop40
 90
        0
102
RTVSPost2010PropOp40
 70
     1
102
RTVSPost2010Prop41ColorIndex
 90
       18
102
RTVSPost2010Prop41ColorRGB
 90
        0
102
RTVSPost2010PropOp41
 70
     1
102
RTVSPost2010Prop42
 90
       50
102
RTVSPost2010PropOp42
 70
     1
102
RTVSPost2010Prop43
 90
        3
102
RTVSPost2010PropOp43
 70
     1
102
RTVSPost2010Prop44ColorIndex
 90
        5
102
RTVSPost2010Prop44ColorRGB
 90
      255
102
RTVSPost2010PropOp44
 70
     1
102
RTVSPost2010Prop45
280
     0
102
RTVSPost2010PropOp45
 70
     1
102
RTVSPost2010Prop46
 90
       50
102
RTVSPost2010PropOp46
 70
     1
102
RTVSPost2010Prop47
 90
       50
102
RTVSPost2010PropOp47
 70
     1
102
RTVSPost2010Prop48
 90
       50
102
RTVSPost2010PropOp48
 70
     1
102
RTVSPost2010Prop49
280
     0
102
RTVSPost2010PropOp49
 70
     1
102
RTVSPost2010Prop50
 90
       50
102
RTVSPost2010PropOp50
 70
     1
102
RTVSPost2010Prop51ColorIndex
 90
      256
102
RTVSPost2010Prop51ColorRGB
 90
-16777216
102
RTVSPost2010PropOp51
 70
     0
102
RTVSPost2010Prop52
140
1.0
102
RTVSPost2010PropOp52
 70
     0
102
RTVSPost2010Prop53
 90
        2
102
RTVSPost2010PropOp53
 70
     1
102
RTVSPost2010Prop54
  1
strokes_ogs.tif
102
RTVSPost2010PropOp54
 70
     1
102
RTVSPost2010Prop55
280
     0
102
RTVSPost2010PropOp55
 70
     1
102
RTVSPost2010Prop56
140
1.0
102
RTVSPost2010PropOp56
 70
     1
102
RTVSPost2010Prop57
140
1.0
102
RTVSPost2010PropOp57
 70
     1
102
RTVSPropertyOp0
 70
     1
102
RTVSPropertyOp1
 70
     1
102
RTVSPropertyOp2
 70
     1
102
RTVSPropertyOp3
 70
     1
102
RTVSPropertyOp4
 70
     1
102
RTVSPropertyOp5
 70
     1
102
RTVSPropertyOp6
 70
     1
102
RTVSPropertyOp7
 70
     1
102
RTVSPropertyOp8
 70
     1
102
RTVSPropertyOp9
 70
     1
102
RTVSPropertyOp10
 70
     1
102
RTVSPropertyOp11
 70
     1
102
RTVSPropertyOp12
 70
     1
102
RTVSPropertyOp13
 70
     1
102
RTVSPropertyOp14
 70
     1
102
RTVSPropertyOp15
 70
     1
102
RTVSPropertyOp16
 70
     1
102
RTVSPropertyOp17
 70
     1
102
RTVSPropertyOp18
 70
     1
102
RTVSPropertyOp19
 70
     1
102
RTVSPropertyOp20
 70
     1
102
RTVSPropertyOp21
 70
     1
102
RTVSPropertyOp22
 70
     1
102
RTVSPropertyOp23
 70
     1
102
RTVSPropertyOp24
 70
     1
102
RTVSPropertyOp25
 70
     1
102
RTVSPropertyOp26
 70
     1
102
RTVSPropertyOp27
 70
     1
102
RTVSPropertyOp28
 70
     1
102
RTVSPropertyOp29
 70
     1
102
RTVSPropertyOp30
 70
     1
102
RTVSPropertyOp31
 70
     1
102
RTVSPropertyOp32
 70
     1
102
RTVSPropertyOp33
 70
     1
102
RTVSPropertyOp34
 70
     1
102
RTVSPropertyOp35
 70
     1
102
RTVSPropertyOp36
 70
     1
102
RTVSPropertyOp37
 70
     1
102
RTVSPropertyOp38
 70
     1
102
RTVSPropertyOp39
 70
     1
102
RTVSPropertyOp40
 70
     1
102
RTVSPropertyOp41
 70
     1
102
RTVSPropertyOp42
 70
     1
102
RTVSPropertyOp43
 70
     1
102
RTVSPropertyOp44
 70
     1
102
RTVSPropertyOp45
 70
     1
102
RTVSPropertyOp46
 70
     1
102
RTVSPropertyOp47
 70
     1
102
RTVSPropertyOp48
 70
     1
102
RTVSPropertyOp49
 70
     1
102
RTVSPropertyOp50
 70
     1
102
RTVSPropertyOp51
 70
     0
102
RTVSPropertyOp52
 70
     0
102
RTVSPropertyOp53
 70
     1
102
RTVSPropertyOp54
 70
     1
102
RTVSPropertyOp55
 70
     1
102
RTVSPropertyOp56
 70
     1
102
RTVSPropertyOp57
 70
     1
102
RTVSPropertyOp58
 70
     1
102
RTVSPropertyOp59
 70
     1
102
RTVSPropertyOp60
 70
     1
102
RTVSPropertyOp61
 70
     1
102
RTVSPropertyOp62
 70
     1
  0
XRECORD
  5
865D
102
{ACAD_REACTORS
330
865C
102
}
330
865C
100
AcDbXrecord
280
     1
102
RTVSPost2010Prop28
280
     0
102
RTVSPost2010PropOp28
 70
     1
102
RTVSPost2010Prop29
280
     1
102
RTVSPost2010PropOp29
 70
     1
102
RTVSPost2010Prop30
280
     1
102
RTVSPost2010PropOp30
 70
     1
102
RTVSPost2010Prop31
280
     0
102
RTVSPost2010PropOp31
 70
     1
102
RTVSPost2010Prop32
280
     0
102
RTVSPost2010PropOp32
 70
     1
102
RTVSPost2010Prop33
280
     0
102
RTVSPost2010PropOp33
 70
     1
102
RTVSPost2010Prop34
280
     0
102
RTVSPost2010PropOp34
 70
     1
102
RTVSPost2010Prop35
280
     0
102
RTVSPost2010PropOp35
 70
     1
102
RTVSPost2010Prop36
280
     0
102
RTVSPost2010PropOp36
 70
     1
102
RTVSPost2010Prop37
 90
       50
102
RTVSPost2010PropOp37
 70
     1
102
RTVSPost2010Prop38
140
0.0
102
RTVSPost2010PropOp38
 70
     1
102
RTVSPost2010Prop39
140
1.0
102
RTVSPost2010PropOp39
 70
     1
102
RTVSPost2010Prop40
 90
        0
102
RTVSPost2010PropOp40
 70
     1
102
RTVSPost2010Prop41ColorIndex
 90
       18
102
RTVSPost2010Prop41ColorRGB
 90
        0
102
RTVSPost2010PropOp41
 70
     1
102
RTVSPost2010Prop42
 90
       50
102
RTVSPost2010PropOp42
 70
     1
102
RTVSPost2010Prop43
 90
        3
102
RTVSPost2010PropOp43
 70
     1
102
RTVSPost2010Prop44ColorIndex
 90
        5
102
RTVSPost2010Prop44ColorRGB
 90
      255
102
RTVSPost2010PropOp44
 70
     1
102
RTVSPost2010Prop45
280
     0
102
RTVSPost2010PropOp45
 70
     1
102
RTVSPost2010Prop46
 90
       50
102
RTVSPost2010PropOp46
 70
     1
102
RTVSPost2010Prop47
 90
       50
102
RTVSPost2010PropOp47
 70
     1
102
RTVSPost2010Prop48
 90
       50
102
RTVSPost2010PropOp48
 70
     1
102
RTVSPost2010Prop49
280
     0
102
RTVSPost2010PropOp49
 70
     1
102
RTVSPost2010Prop50
 90
       50
102
RTVSPost2010PropOp50
 70
     1
102
RTVSPost2010Prop51ColorIndex
 90
      256
102
RTVSPost2010Prop51ColorRGB
 90
-16777216
102
RTVSPost2010PropOp51
 70
     0
102
RTVSPost2010Prop52
140
1.0
102
RTVSPost2010PropOp52
 70
     0
102
RTVSPost2010Prop53
 90
        2
102
RTVSPost2010PropOp53
 70
     1
102
RTVSPost2010Prop54
  1
strokes_ogs.tif
102
RTVSPost2010PropOp54
 70
     1
102
RTVSPost2010Prop55
280
     0
102
RTVSPost2010PropOp55
 70
     1
102
RTVSPost2010Prop56
140
1.0
102
RTVSPost2010PropOp56
 70
     1
102
RTVSPost2010Prop57
140
1.0
102
RTVSPost2010PropOp57
 70
     1
102
RTVSPropertyOp0
 70
     1
102
RTVSPropertyOp1
 70
     1
102
RTVSPropertyOp2
 70
     1
102
RTVSPropertyOp3
 70
     1
102
RTVSPropertyOp4
 70
     1
102
RTVSPropertyOp5
 70
     1
102
RTVSPropertyOp6
 70
     1
102
RTVSPropertyOp7
 70
     1
102
RTVSPropertyOp8
 70
     1
102
RTVSPropertyOp9
 70
     1
102
RTVSPropertyOp10
 70
     1
102
RTVSPropertyOp11
 70
     1
102
RTVSPropertyOp12
 70
     1
102
RTVSPropertyOp13
 70
     1
102
RTVSPropertyOp14
 70
     1
102
RTVSPropertyOp15
 70
     1
102
RTVSPropertyOp16
 70
     1
102
RTVSPropertyOp17
 70
     1
102
RTVSPropertyOp18
 70
     1
102
RTVSPropertyOp19
 70
     1
102
RTVSPropertyOp20
 70
     1
102
RTVSPropertyOp21
 70
     1
102
RTVSPropertyOp22
 70
     1
102
RTVSPropertyOp23
 70
     1
102
RTVSPropertyOp24
 70
     1
102
RTVSPropertyOp25
 70
     1
102
RTVSPropertyOp26
 70
     1
102
RTVSPropertyOp27
 70
     1
102
RTVSPropertyOp28
 70
     1
102
RTVSPropertyOp29
 70
     1
102
RTVSPropertyOp30
 70
     1
102
RTVSPropertyOp31
 70
     1
102
RTVSPropertyOp32
 70
     1
102
RTVSPropertyOp33
 70
     1
102
RTVSPropertyOp34
 70
     1
102
RTVSPropertyOp35
 70
     1
102
RTVSPropertyOp36
 70
     1
102
RTVSPropertyOp37
 70
     1
102
RTVSPropertyOp38
 70
     1
102
RTVSPropertyOp39
 70
     1
102
RTVSPropertyOp40
 70
     1
102
RTVSPropertyOp41
 70
     1
102
RTVSPropertyOp42
 70
     1
102
RTVSPropertyOp43
 70
     1
102
RTVSPropertyOp44
 70
     1
102
RTVSPropertyOp45
 70
     1
102
RTVSPropertyOp46
 70
     1
102
RTVSPropertyOp47
 70
     1
102
RTVSPropertyOp48
 70
     1
102
RTVSPropertyOp49
 70
     1
102
RTVSPropertyOp50
 70
     1
102
RTVSPropertyOp51
 70
     0
102
RTVSPropertyOp52
 70
     0
102
RTVSPropertyOp53
 70
     1
102
RTVSPropertyOp54
 70
     1
102
RTVSPropertyOp55
 70
     1
102
RTVSPropertyOp56
 70
     1
102
RTVSPropertyOp57
 70
     1
102
RTVSPropertyOp58
 70
     1
102
RTVSPropertyOp59
 70
     1
102
RTVSPropertyOp60
 70
     1
102
RTVSPropertyOp61
 70
     1
102
RTVSPropertyOp62
 70
     1
  0
ENDSEC
  0
EOF
