  0
SECTION
  2
HEADER
  9
$ACADVER
  1
AC1015
  9
$ACADMAINTVER
 70
    20
  9
$DWGCODEPAGE
  3
ANSI_932
  9
$INSBASE
 10
0.0
 20
0.0
 30
0.0
  9
$EXTMIN
 10
-0.1922460740788665
 20
-0.2700599612071528
 30
-0.0015258207003583
  9
$EXTMAX
 10
6300.192275410744
 20
8850.270101172235
 30
0.0000000349246037
  9
$LIMMIN
 10
0.0
 20
0.0
  9
$LIMMAX
 10
297.0
 20
210.0
  9
$ORTHOMODE
 70
     1
  9
$REGENMODE
 70
     1
  9
$FILLMODE
 70
     0
  9
$QTEXTMODE
 70
     0
  9
$MIRRTEXT
 70
     1
  9
$LTSCALE
 40
100.0
  9
$ATTMODE
 70
     1
  9
$TEXTSIZE
 40
180.0
  9
$TRACEWID
 40
0.05
  9
$TEXTSTYLE
  7
STANDARD
  9
$CLAYER
  8
3
  9
$CELTYPE
  6
ByLayer
  9
$CECOLOR
 62
   256
  9
$CELTSCALE
 40
1.0
  9
$DISPSILH
 70
     0
  9
$DIMSCALE
 40
30.0
  9
$DIMASZ
 40
2.0
  9
$DIMEXO
 40
1.0
  9
$DIMDLI
 40
10.0
  9
$DIMRND
 40
0.0
  9
$DIMDLE
 40
0.0
  9
$DIMEXE
 40
1.0
  9
$DIMTP
 40
1.0
  9
$DIMTM
 40
1.0
  9
$DIMTXT
 40
3.0
  9
$DIMCEN
 40
0.0
  9
$DIMTSZ
 40
0.0
  9
$DIMTOL
 70
     0
  9
$DIMLIM
 70
     0
  9
$DIMTIH
 70
     0
  9
$DIMTOH
 70
     0
  9
$DIMSE1
 70
     0
  9
$DIMSE2
 70
     0
  9
$DIMTAD
 70
     1
  9
$DIMZIN
 70
     8
  9
$DIMBLK
  1

  9
$DIMASO
 70
     1
  9
$DIMSHO
 70
     1
  9
$DIMPOST
  1

  9
$DIMAPOST
  1

  9
$DIMALT
 70
     0
  9
$DIMALTD
 70
     2
  9
$DIMALTF
 40
0.039
  9
$DIMLFAC
 40
1.0
  9
$DIMTOFL
 70
     1
  9
$DIMTVP
 40
0.0
  9
$DIMTIX
 70
     0
  9
$DIMSOXD
 70
     0
  9
$DIMSAH
 70
     1
  9
$DIMBLK1
  1
OPEN
  9
$DIMBLK2
  1
OPEN
  9
$DIMSTYLE
  2
IGA
  9
$DIMCLRD
 70
     0
  9
$DIMCLRE
 70
     0
  9
$DIMCLRT
 70
     0
  9
$DIMTFAC
 40
10.0
  9
$DIMGAP
 40
1.0
  9
$DIMJUST
 70
     0
  9
$DIMSD1
 70
     0
  9
$DIMSD2
 70
     0
  9
$DIMTOLJ
 70
     1
  9
$DIMTZIN
 70
     0
  9
$DIMALTZ
 70
     0
  9
$DIMALTTZ
 70
     0
  9
$DIMUPT
 70
     0
  9
$DIMDEC
 70
     4
  9
$DIMTDEC
 70
     4
  9
$DIMALTU
 70
     2
  9
$DIMALTTD
 70
     2
  9
$DIMTXSTY
  7
STANDARD
  9
$DIMAUNIT
 70
     0
  9
$DIMADEC
 70
     0
  9
$DIMALTRND
 40
0.0
  9
$DIMAZIN
 70
     0
  9
$DIMDSEP
 70
    46
  9
$DIMATFIT
 70
     3
  9
$DIMFRAC
 70
     0
  9
$DIMLDRBLK
  1
OPEN
  9
$DIMLUNIT
 70
     2
  9
$DIMLWD
 70
    -2
  9
$DIMLWE
 70
    -2
  9
$DIMTMOVE
 70
     0
  9
$LUNITS
 70
     2
  9
$LUPREC
 70
     3
  9
$SKETCHINC
 40
0.1
  9
$FILLETRAD
 40
50.0
  9
$AUNITS
 70
     0
  9
$AUPREC
 70
     0
  9
$MENU
  1
acad
  9
$ELEVATION
 40
0.0
  9
$PELEVATION
 40
0.0
  9
$THICKNESS
 40
0.0
  9
$LIMCHECK
 70
     0
  9
$CHAMFERA
 40
0.5
  9
$CHAMFERB
 40
0.5
  9
$CHAMFERC
 40
0.0
  9
$CHAMFERD
 40
0.0
  9
$SKPOLY
 70
     0
  9
$TDCREATE
 40
2451389.482040394
  9
$TDUCREATE
 40
2451389.107040394
  9
$TDUPDATE
 40
2460269.568658472
  9
$TDUUPDATE
 40
2460269.193658472
  9
$TDINDWG
 40
0.0185228472
  9
$TDUSRTIMER
 40
0.0185225810
  9
$USRTIMER
 70
     1
  9
$ANGBASE
 50
0.0
  9
$ANGDIR
 70
     0
  9
$PDMODE
 70
     0
  9
$PDSIZE
 40
0.0
  9
$PLINEWID
 40
0.0
  9
$SPLFRAME
 70
     0
  9
$SPLINETYPE
 70
     6
  9
$SPLINESEGS
 70
     8
  9
$HANDSEED
  5
85D7
  9
$SURFTAB1
 70
     6
  9
$SURFTAB2
 70
     6
  9
$SURFTYPE
 70
     6
  9
$SURFU
 70
     6
  9
$SURFV
 70
     6
  9
$UCSBASE
  2

  9
$UCSNAME
  2

  9
$UCSORG
 10
0.0
 20
0.0
 30
0.0
  9
$UCSXDIR
 10
1.0
 20
0.0
 30
0.0
  9
$UCSYDIR
 10
0.0
 20
1.0
 30
0.0
  9
$UCSORTHOREF
  2

  9
$UCSORTHOVIEW
 70
     0
  9
$UCSORGTOP
 10
0.0
 20
0.0
 30
0.0
  9
$UCSORGBOTTOM
 10
0.0
 20
0.0
 30
0.0
  9
$UCSORGLEFT
 10
0.0
 20
0.0
 30
0.0
  9
$UCSORGRIGHT
 10
0.0
 20
0.0
 30
0.0
  9
$UCSORGFRONT
 10
0.0
 20
0.0
 30
0.0
  9
$UCSORGBACK
 10
0.0
 20
0.0
 30
0.0
  9
$PUCSBASE
  2

  9
$PUCSNAME
  2

  9
$PUCSORG
 10
0.0
 20
0.0
 30
0.0
  9
$PUCSXDIR
 10
1.0
 20
0.0
 30
0.0
  9
$PUCSYDIR
 10
0.0
 20
1.0
 30
0.0
  9
$PUCSORTHOREF
  2

  9
$PUCSORTHOVIEW
 70
     0
  9
$PUCSORGTOP
 10
0.0
 20
0.0
 30
0.0
  9
$PUCSORGBOTTOM
 10
0.0
 20
0.0
 30
0.0
  9
$PUCSORGLEFT
 10
0.0
 20
0.0
 30
0.0
  9
$PUCSORGRIGHT
 10
0.0
 20
0.0
 30
0.0
  9
$PUCSORGFRONT
 10
0.0
 20
0.0
 30
0.0
  9
$PUCSORGBACK
 10
0.0
 20
0.0
 30
0.0
  9
$USERI1
 70
     0
  9
$USERI2
 70
     0
  9
$USERI3
 70
     0
  9
$USERI4
 70
     0
  9
$USERI5
 70
     0
  9
$USERR1
 40
0.0
  9
$USERR2
 40
0.0
  9
$USERR3
 40
0.0
  9
$USERR4
 40
0.0
  9
$USERR5
 40
0.0
  9
$WORLDVIEW
 70
     1
  9
$SHADEDGE
 70
     3
  9
$SHADEDIF
 70
    70
  9
$TILEMODE
 70
     1
  9
$MAXACTVP
 70
    16
  9
$PINSBASE
 10
0.0
 20
0.0
 30
0.0
  9
$PLIMCHECK
 70
     0
  9
$PEXTMIN
 10
1.000000000000000E+20
 20
1.000000000000000E+20
 30
1.000000000000000E+20
  9
$PEXTMAX
 10
-1.000000000000000E+20
 20
-1.000000000000000E+20
 30
-1.000000000000000E+20
  9
$PLIMMIN
 10
0.0
 20
0.0
  9
$PLIMMAX
 10
12.0
 20
9.0
  9
$UNITMODE
 70
     0
  9
$VISRETAIN
 70
     0
  9
$PLINEGEN
 70
     0
  9
$PSLTSCALE
 70
     1
  9
$TREEDEPTH
 70
  3020
  9
$CMLSTYLE
  2
Standard
  9
$CMLJUST
 70
     0
  9
$CMLSCALE
 40
1.0
  9
$PROXYGRAPHICS
 70
     1
  9
$MEASUREMENT
 70
     0
  9
$CELWEIGHT
370
    -1
  9
$ENDCAPS
280
     0
  9
$JOINSTYLE
280
     0
  9
$LWDISPLAY
290
     0
  9
$INSUNITS
 70
     0
  9
$HYPERLINKBASE
  1

  9
$STYLESHEET
  1

  9
$XEDIT
290
     1
  9
$CEPSNTYPE
380
     0
  9
$PSTYLEMODE
290
     1
  9
$FINGERPRINTGUID
  2
{C4110BF5-3263-4ED0-A293-3ED3C2D71303}
  9
$VERSIONGUID
  2
{669BCF44-0771-472A-B42C-1251C7BD96A2}
  9
$EXTNAMES
290
     1
  9
$PSVPSCALE
 40
0.0
  9
$OLESTARTUP
290
     0
  0
ENDSEC
  0
SECTION
  2
CLASSES
  0
CLASS
  1
ACDBDICTIONARYWDFLT
  2
AcDbDictionaryWithDefault
  3
ObjectDBX Classes
 90
        0
280
     0
281
     0
  0
CLASS
  1
MATERIAL
  2
AcDbMaterial
  3
ObjectDBX Classes
 90
     1153
280
     0
281
     0
  0
CLASS
  1
VISUALSTYLE
  2
AcDbVisualStyle
  3
ObjectDBX Classes
 90
     4095
280
     0
281
     0
  0
CLASS
  1
SCALE
  2
AcDbScale
  3
ObjectDBX Classes
 90
     1153
280
     0
281
     0
  0
CLASS
  1
TABLESTYLE
  2
AcDbTableStyle
  3
ObjectDBX Classes
 90
     4095
280
     0
281
     0
  0
CLASS
  1
MLEADERSTYLE
  2
AcDbMLeaderStyle
  3
ACDB_MLEADERSTYLE_CLASS
 90
     4095
280
     0
281
     0
  0
CLASS
  1
ACDBSECTIONVIEWSTYLE
  2
AcDbSectionViewStyle
  3
ObjectDBX Classes
 90
     1025
280
     0
281
     0
  0
CLASS
  1
ACDBDETAILVIEWSTYLE
  2
AcDbDetailViewStyle
  3
ObjectDBX Classes
 90
     1025
280
     0
281
     0
  0
CLASS
  1
SORTENTSTABLE
  2
AcDbSortentsTable
  3
ObjectDBX Classes
 90
        0
280
     0
281
     0
  0
CLASS
  1
DICTIONARYVAR
  2
AcDbDictionaryVar
  3
ObjectDBX Classes
 90
        0
280
     0
281
     0
  0
CLASS
  1
CELLSTYLEMAP
  2
AcDbCellStyleMap
  3
ObjectDBX Classes
 90
     1152
280
     0
281
     0
  0
CLASS
  1
ACDBPLACEHOLDER
  2
AcDbPlaceHolder
  3
ObjectDBX Classes
 90
        0
280
     0
281
     0
  0
CLASS
  1
LAYOUT
  2
AcDbLayout
  3
ObjectDBX Classes
 90
        0
280
     0
281
     0
  0
ENDSEC
  0
SECTION
  2
TABLES
  0
TABLE
  2
VPORT
  5
83B4
330
0
100
AcDbSymbolTable
 70
     1
  0
VPORT
  5
8420
330
83B4
100
AcDbSymbolTableRecord
100
AcDbViewportTableRecord
  2
*ACTIVE
 70
     0
 10
0.0
 20
0.0
 11
1.0
 21
1.0
 12
3140.483744837628
 22
4425.000030987248
 13
0.0
 23
0.0
 14
10.0
 24
10.0
 15
10.0
 25
10.0
 16
0.0
 26
0.0
 36
1.0
 17
0.0
 27
0.0
 37
0.0
 40
8907.213849456239
 41
2.050213675213675
 42
50.0
 43
0.0
 44
0.0
 50
0.0
 51
0.0
 71
     0
 72
   100
 73
     1
 74
     0
 75
     0
 76
     0
 77
     0
 78
     0
281
     0
 65
     1
110
0.0
120
0.0
130
0.0
111
1.0
121
0.0
131
0.0
112
0.0
122
1.0
132
0.0
 79
     0
146
0.0
1001
ACAD_NAV_VCDISPLAY
1070
     3
  0
ENDTAB
  0
TABLE
  2
LTYPE
  5
83B1
330
0
100
AcDbSymbolTable
 70
     3
  0
LTYPE
  5
8406
330
83B1
100
AcDbSymbolTableRecord
100
AcDbLinetypeTableRecord
  2
ByBlock
 70
     0
  3

 72
    65
 73
     0
 40
0.0
  0
LTYPE
  5
8407
330
83B1
100
AcDbSymbolTableRecord
100
AcDbLinetypeTableRecord
  2
ByLayer
 70
     0
  3

 72
    65
 73
     0
 40
0.0
  0
LTYPE
  5
8408
330
83B1
100
AcDbSymbolTableRecord
100
AcDbLinetypeTableRecord
  2
CONTINUOUS
 70
     0
  3
Solid line
 72
    65
 73
     0
 40
0.0
  0
LTYPE
  5
8421
330
83B1
100
AcDbSymbolTableRecord
100
AcDbLinetypeTableRecord
  2
CENTER
 70
     0
  3
____ _ ____ _ ____ _ ____ _ ____ _ ____ _ ____ 
 72
    65
 73
     4
 40
2.0
 49
1.25
 74
     0
 49
-0.25
 74
     0
 49
0.25
 74
     0
 49
-0.25
 74
     0
  0
ENDTAB
  0
TABLE
  2
LAYER
  5
83AE
330
0
100
AcDbSymbolTable
 70
     6
  0
LAYER
  5
8400
102
{ACAD_XDICTIONARY
360
8581
102
}
330
83AE
100
AcDbSymbolTableRecord
100
AcDbLayerTableRecord
  2
0
 70
     0
 62
     7
  6
CONTINUOUS
370
    -3
390
83BB
  0
LAYER
  5
841F
102
{ACAD_XDICTIONARY
360
8583
102
}
330
83AE
100
AcDbSymbolTableRecord
100
AcDbLayerTableRecord
  2
3
 70
     0
 62
     2
  6
CONTINUOUS
370
    -3
390
83BB
  0
LAYER
  5
8422
102
{ACAD_XDICTIONARY
360
8585
102
}
330
83AE
100
AcDbSymbolTableRecord
100
AcDbLayerTableRecord
  2
2
 70
     0
 62
     3
  6
CENTER
370
    -3
390
83BB
  0
LAYER
  5
8423
102
{ACAD_XDICTIONARY
360
8587
102
}
330
83AE
100
AcDbSymbolTableRecord
100
AcDbLayerTableRecord
  2
1
 70
     0
 62
     4
  6
CONTINUOUS
370
    -3
390
83BB
  0
LAYER
  5
8424
102
{ACAD_XDICTIONARY
360
8589
102
}
330
83AE
100
AcDbSymbolTableRecord
100
AcDbLayerTableRecord
  2
4
 70
     0
 62
     7
  6
CONTINUOUS
370
    -3
390
83BB
  0
LAYER
  5
8425
330
83AE
100
AcDbSymbolTableRecord
100
AcDbLayerTableRecord
  2
DEFPOINTS
 70
     0
 62
     7
  6
CONTINUOUS
290
     0
370
    -3
390
83BB
  0
ENDTAB
  0
TABLE
  2
STYLE
  5
83AF
330
0
100
AcDbSymbolTable
 70
     2
  0
STYLE
  5
8401
330
83AF
100
AcDbSymbolTableRecord
100
AcDbTextStyleTableRecord
  2
STANDARD
 70
     0
 40
0.0
 41
1.0
 50
0.0
 71
     0
 42
180.0
  3
simplex.shx
  4
extfont.shx
  0
STYLE
  5
8405
330
83AF
100
AcDbSymbolTableRecord
100
AcDbTextStyleTableRecord
  2
Annotative
 70
     0
 40
0.0
 41
1.0
 50
0.0
 71
     0
 42
0.2
  3
txt
  4

1001
AcadAnnotative
1000
AnnotativeData
1002
{
1070
     1
1070
     1
1002
}
  0
ENDTAB
  0
TABLE
  2
VIEW
  5
83B2
330
0
100
AcDbSymbolTable
 70
     0
  0
ENDTAB
  0
TABLE
  2
UCS
  5
83B3
330
0
100
AcDbSymbolTable
 70
     0
  0
ENDTAB
  0
TABLE
  2
APPID
  5
83B5
330
0
100
AcDbSymbolTable
 70
     6
  0
APPID
  5
8402
330
83B5
100
AcDbSymbolTableRecord
100
AcDbRegAppTableRecord
  2
ACAD
 70
     0
  0
APPID
  5
8409
330
83B5
100
AcDbSymbolTableRecord
100
AcDbRegAppTableRecord
  2
AcadAnnotative
 70
     0
  0
APPID
  5
8495
330
83B5
100
AcDbSymbolTableRecord
100
AcDbRegAppTableRecord
  2
AcadAnnoMonitorAlertIconDisabled
 70
     0
  0
APPID
  5
8496
330
83B5
100
AcDbSymbolTableRecord
100
AcDbRegAppTableRecord
  2
ACAD_EXEMPT_FROM_CAD_STANDARDS
 70
     0
  0
APPID
  5
8595
330
83B5
100
AcDbSymbolTableRecord
100
AcDbRegAppTableRecord
  2
ACAD_NAV_VCDISPLAY
 70
     0
  0
APPID
  5
85CE
330
83B5
100
AcDbSymbolTableRecord
100
AcDbRegAppTableRecord
  2
ACAD_MLEADERVER
 70
     0
  0
ENDTAB
  0
TABLE
  2
DIMSTYLE
  5
83B6
330
0
100
AcDbSymbolTable
 70
     3
100
AcDbDimStyleTable
 71
     1
340
8426
  0
DIMSTYLE
105
8403
102
{ACAD_REACTORS
330
8220
330
822D
330
823A
330
8247
330
8254
102
}
330
83B6
100
AcDbSymbolTableRecord
100
AcDbDimStyleTableRecord
  2
Standard
 70
     0
340
8401
  0
DIMSTYLE
105
8404
330
83B6
100
AcDbSymbolTableRecord
100
AcDbDimStyleTableRecord
  2
Annotative
 70
     0
340
8401
1001
AcadAnnotative
1000
AnnotativeData
1002
{
1070
     1
1070
     1
1002
}
  0
DIMSTYLE
105
8426
102
{ACAD_REACTORS
330
845D
330
846A
330
8477
330
8488
330
84FF
330
850C
330
8519
330
8526
330
8533
330
8540
330
854D
330
855A
330
8567
330
8574
102
}
330
83B6
100
AcDbSymbolTableRecord
100
AcDbDimStyleTableRecord
  2
IGA
 70
     0
 40
2.0
 41
2.0
 42
0.5
 43
10.0
 44
1.0
 47
1.0
 48
1.0
 73
     0
 74
     0
 77
     1
 78
     8
140
3.0
141
0.0
143
0.03937
146
10.0
147
1.0
173
     1
271
     3
272
     3
279
     2
284
     8
285
     8
286
     8
340
8401
  0
ENDTAB
  0
TABLE
  2
BLOCK_RECORD
  5
83AD
330
0
100
AcDbSymbolTable
 70
    40
  0
BLOCK_RECORD
  5
841B
102
{ACAD_XDICTIONARY
360
8485
102
}
330
83AD
100
AcDbSymbolTableRecord
100
AcDbBlockTableRecord
  2
*Model_Space
340
841E
  0
BLOCK_RECORD
  5
8417
330
83AD
100
AcDbSymbolTableRecord
100
AcDbBlockTableRecord
  2
*Paper_Space
340
841A
  0
BLOCK_RECORD
  5
842A
330
83AD
100
AcDbSymbolTableRecord
100
AcDbBlockTableRecord
  2
$MODEL_SPACE
340
0
  0
BLOCK_RECORD
  5
842C
330
83AD
100
AcDbSymbolTableRecord
100
AcDbBlockTableRecord
  2
$PAPER_SPACE
340
0
  0
BLOCK_RECORD
  5
842E
330
83AD
100
AcDbSymbolTableRecord
100
AcDbBlockTableRecord
  2
_OPEN
340
0
102
{BLKREFS
331
8356
331
8357
331
835F
331
8360
331
8368
331
8369
331
8320
331
8321
331
8329
331
832A
331
8332
331
8333
331
833B
331
833C
331
8344
331
8345
331
834D
331
834E
331
8371
331
8372
331
837A
331
837B
331
8383
331
8384
331
838C
331
838D
331
8395
331
8396
331
853A
331
853B
331
8547
331
8548
331
8554
331
8555
331
8561
331
8562
331
856E
331
856F
331
857B
331
857C
331
84E3
331
84E4
331
84EC
331
84ED
331
8506
331
8507
331
8513
331
8514
331
8520
331
8521
331
852D
331
852E
331
8219
331
821A
331
8226
331
8227
331
8233
331
8234
331
8240
331
8241
331
824D
331
824E
331
847E
331
847F
331
84A4
331
84A5
102
}
  0
BLOCK_RECORD
  5
8430
330
83AD
100
AcDbSymbolTableRecord
100
AcDbBlockTableRecord
  2
YA_N
340
0
102
{BLKREFS
331
7C21
331
7C3F
331
7C41
331
7CAE
102
}
  0
BLOCK_RECORD
  5
8432
330
83AD
100
AcDbSymbolTableRecord
100
AcDbBlockTableRecord
  2
*D4
340
0
  0
BLOCK_RECORD
  5
8434
330
83AD
100
AcDbSymbolTableRecord
100
AcDbBlockTableRecord
  2
*D5
340
0
  0
BLOCK_RECORD
  5
8436
330
83AD
100
AcDbSymbolTableRecord
100
AcDbBlockTableRecord
  2
*D6
340
0
  0
BLOCK_RECORD
  5
8438
330
83AD
100
AcDbSymbolTableRecord
100
AcDbBlockTableRecord
  2
*D7
340
0
  0
BLOCK_RECORD
  5
843A
330
83AD
100
AcDbSymbolTableRecord
100
AcDbBlockTableRecord
  2
*D8
340
0
  0
BLOCK_RECORD
  5
843C
330
83AD
100
AcDbSymbolTableRecord
100
AcDbBlockTableRecord
  2
*D9
340
0
  0
BLOCK_RECORD
  5
843E
330
83AD
100
AcDbSymbolTableRecord
100
AcDbBlockTableRecord
  2
*D10
340
0
  0
BLOCK_RECORD
  5
8440
330
83AD
100
AcDbSymbolTableRecord
100
AcDbBlockTableRecord
  2
*D11
340
0
  0
BLOCK_RECORD
  5
8442
330
83AD
100
AcDbSymbolTableRecord
100
AcDbBlockTableRecord
  2
*D12
340
0
  0
BLOCK_RECORD
  5
8444
330
83AD
100
AcDbSymbolTableRecord
100
AcDbBlockTableRecord
  2
*D13
340
0
  0
BLOCK_RECORD
  5
8446
330
83AD
100
AcDbSymbolTableRecord
100
AcDbBlockTableRecord
  2
*D14
340
0
  0
BLOCK_RECORD
  5
8448
330
83AD
100
AcDbSymbolTableRecord
100
AcDbBlockTableRecord
  2
*D15
340
0
  0
BLOCK_RECORD
  5
844A
330
83AD
100
AcDbSymbolTableRecord
100
AcDbBlockTableRecord
  2
*D16
340
0
  0
BLOCK_RECORD
  5
844C
330
83AD
100
AcDbSymbolTableRecord
100
AcDbBlockTableRecord
  2
*D17
340
0
  0
BLOCK_RECORD
  5
844E
330
83AD
100
AcDbSymbolTableRecord
100
AcDbBlockTableRecord
  2
_DOT
340
0
  0
BLOCK_RECORD
  5
8450
330
83AD
100
AcDbSymbolTableRecord
100
AcDbBlockTableRecord
  2
_NONE
340
0
  0
BLOCK_RECORD
  5
8452
330
83AD
100
AcDbSymbolTableRecord
100
AcDbBlockTableRecord
  2
*D20
340
0
  0
BLOCK_RECORD
  5
8454
330
83AD
100
AcDbSymbolTableRecord
100
AcDbBlockTableRecord
  2
*D21
340
0
  0
BLOCK_RECORD
  5
8456
330
83AD
100
AcDbSymbolTableRecord
100
AcDbBlockTableRecord
  2
*D22
340
0
  0
BLOCK_RECORD
  5
8458
330
83AD
100
AcDbSymbolTableRecord
100
AcDbBlockTableRecord
  2
*D23
340
0
  0
BLOCK_RECORD
  5
845A
330
83AD
100
AcDbSymbolTableRecord
100
AcDbBlockTableRecord
  2
*D24
340
0
  0
BLOCK_RECORD
  5
845E
330
83AD
100
AcDbSymbolTableRecord
100
AcDbBlockTableRecord
  2
*D25
340
0
  0
BLOCK_RECORD
  5
846B
330
83AD
100
AcDbSymbolTableRecord
100
AcDbBlockTableRecord
  2
*D26
340
0
  0
BLOCK_RECORD
  5
8478
330
83AD
100
AcDbSymbolTableRecord
100
AcDbBlockTableRecord
  2
*D27
340
0
  0
BLOCK_RECORD
  5
8489
330
83AD
100
AcDbSymbolTableRecord
100
AcDbBlockTableRecord
  2
*D28
340
0
  0
BLOCK_RECORD
  5
84F2
330
83AD
100
AcDbSymbolTableRecord
100
AcDbBlockTableRecord
  2
*D29
340
0
  0
BLOCK_RECORD
  5
8500
330
83AD
100
AcDbSymbolTableRecord
100
AcDbBlockTableRecord
  2
*D30
340
0
  0
BLOCK_RECORD
  5
850D
330
83AD
100
AcDbSymbolTableRecord
100
AcDbBlockTableRecord
  2
*D31
340
0
  0
BLOCK_RECORD
  5
851A
330
83AD
100
AcDbSymbolTableRecord
100
AcDbBlockTableRecord
  2
*D32
340
0
  0
BLOCK_RECORD
  5
8527
330
83AD
100
AcDbSymbolTableRecord
100
AcDbBlockTableRecord
  2
*D33
340
0
  0
BLOCK_RECORD
  5
8534
330
83AD
100
AcDbSymbolTableRecord
100
AcDbBlockTableRecord
  2
*D34
340
0
  0
BLOCK_RECORD
  5
8541
330
83AD
100
AcDbSymbolTableRecord
100
AcDbBlockTableRecord
  2
*D35
340
0
  0
BLOCK_RECORD
  5
854E
330
83AD
100
AcDbSymbolTableRecord
100
AcDbBlockTableRecord
  2
*D36
340
0
  0
BLOCK_RECORD
  5
855B
330
83AD
100
AcDbSymbolTableRecord
100
AcDbBlockTableRecord
  2
*D37
340
0
  0
BLOCK_RECORD
  5
8568
330
83AD
100
AcDbSymbolTableRecord
100
AcDbBlockTableRecord
  2
*D38
340
0
  0
BLOCK_RECORD
  5
8575
330
83AD
100
AcDbSymbolTableRecord
100
AcDbBlockTableRecord
  2
*D39
340
0
  0
ENDTAB
  0
ENDSEC
  0
SECTION
  2
BLOCKS
  0
BLOCK
  5
841C
330
841B
100
AcDbEntity
  8
0
100
AcDbBlockBegin
  2
*Model_Space
 70
     0
 10
0.0
 20
0.0
 30
0.0
  3
*Model_Space
  1

  0
ENDBLK
  5
841D
330
841B
100
AcDbEntity
  8
0
100
AcDbBlockEnd
  0
BLOCK
  5
8418
330
8417
100
AcDbEntity
 67
     1
  8
0
100
AcDbBlockBegin
  2
*Paper_Space
 70
     0
 10
0.0
 20
0.0
 30
0.0
  3
*Paper_Space
  1

  0
ENDBLK
  5
8419
330
8417
100
AcDbEntity
 67
     1
  8
0
100
AcDbBlockEnd
  0
BLOCK
  5
842B
330
842A
100
AcDbEntity
  8
0
100
AcDbBlockBegin
  2
$MODEL_SPACE
 70
     0
 10
0.0
 20
0.0
 30
0.0
  3
$MODEL_SPACE
  1

  0
ENDBLK
  5
1B
330
842A
100
AcDbEntity
  8
0
100
AcDbBlockEnd
  0
BLOCK
  5
842D
330
842C
100
AcDbEntity
  8
0
100
AcDbBlockBegin
  2
$PAPER_SPACE
 70
     0
 10
0.0
 20
0.0
 30
0.0
  3
$PAPER_SPACE
  1

  0
ENDBLK
  5
18
330
842C
100
AcDbEntity
  8
0
100
AcDbBlockEnd
  0
BLOCK
  5
842F
330
842E
100
AcDbEntity
  8
0
100
AcDbBlockBegin
  2
_OPEN
 70
     0
 10
0.0
 20
0.0
 30
0.0
  3
_OPEN
  1

  0
LINE
  5
79FD
330
842E
100
AcDbEntity
  8
0
  6
ByBlock
 62
     0
100
AcDbLine
 10
-1.0
 20
0.1666666666666666
 30
0.0
 11
0.0
 21
0.0
 31
0.0
  0
LINE
  5
79FE
330
842E
100
AcDbEntity
  8
0
  6
ByBlock
 62
     0
100
AcDbLine
 10
0.0
 20
0.0
 30
0.0
 11
-1.0
 21
-0.1666666666666666
 31
0.0
  0
LINE
  5
79FF
330
842E
100
AcDbEntity
  8
0
  6
ByBlock
 62
     0
100
AcDbLine
 10
0.0
 20
0.0
 30
0.0
 11
-1.0
 21
0.0
 31
0.0
  0
ENDBLK
  5
7A01
330
842E
100
AcDbEntity
  8
0
100
AcDbBlockEnd
  0
BLOCK
  5
8431
330
8430
100
AcDbEntity
  8
0
100
AcDbBlockBegin
  2
YA_N
 70
     0
 10
0.0
 20
0.0
 30
0.0
  3
YA_N
  1

  0
ENDBLK
  5
7A0C
330
8430
100
AcDbEntity
  8
0
100
AcDbBlockEnd
  0
BLOCK
  5
8433
330
8432
100
AcDbEntity
  8
0
100
AcDbBlockBegin
  2
*D4
 70
     1
 10
0.0
 20
0.0
 30
0.0
  3
*D4
  1

  0
LINE
  5
831D
330
8432
100
AcDbEntity
  8
3
 62
     0
100
AcDbLine
 10
1216.494202334008
 20
3706.978022216087
 30
0.0
 11
1216.494202334008
 21
3871.593130659299
 31
0.0
  0
LINE
  5
831E
330
8432
100
AcDbEntity
  8
3
 62
     0
100
AcDbLine
 10
2141.494202334008
 20
3706.978022216087
 30
0.0
 11
2141.494202334008
 21
3871.593130659299
 31
0.0
  0
LINE
  5
831F
330
8432
100
AcDbEntity
  8
3
 62
     0
100
AcDbLine
 10
1276.494202334008
 20
3841.593130659299
 30
0.0
 11
2081.494202334007
 21
3841.593130659299
 31
0.0
  0
INSERT
  5
8320
330
8432
100
AcDbEntity
  8
3
 62
     0
100
AcDbBlockReference
  2
_OPEN
 10
1216.494202334008
 20
3841.593130659299
 30
0.0
 41
60.0
 42
60.0
 43
60.0
 50
180.0
  0
INSERT
  5
8321
330
8432
100
AcDbEntity
  8
3
 62
     0
100
AcDbBlockReference
  2
_OPEN
 10
2141.494202334008
 20
3841.593130659299
 30
0.0
 41
60.0
 42
60.0
 43
60.0
  0
TEXT
  5
839E
330
8432
100
AcDbEntity
  8
3
 62
     0
100
AcDbText
 10
1498.99
 20
3757.29
 30
0.0
 40
90.0
  1
925
100
AcDbText
  0
POINT
  5
8323
330
8432
100
AcDbEntity
  8
DEFPOINTS
 62
     0
100
AcDbPoint
 10
1216.494202334008
 20
3691.978022216089
 30
0.0
  0
POINT
  5
8324
330
8432
100
AcDbEntity
  8
DEFPOINTS
 62
     0
100
AcDbPoint
 10
2141.494202334008
 20
3691.978022216089
 30
0.0
  0
POINT
  5
8325
330
8432
100
AcDbEntity
  8
DEFPOINTS
 62
     0
100
AcDbPoint
 10
2141.494202334008
 20
3841.593130659299
 30
0.0
  0
ENDBLK
  5
8139
330
8432
100
AcDbEntity
  8
0
100
AcDbBlockEnd
  0
BLOCK
  5
8435
330
8434
100
AcDbEntity
  8
0
100
AcDbBlockBegin
  2
*D5
 70
     1
 10
0.0
 20
0.0
 30
0.0
  3
*D5
  1

  0
LINE
  5
8326
330
8434
100
AcDbEntity
  8
3
 62
     0
100
AcDbLine
 10
1216.494202334008
 20
3706.978022216087
 30
0.0
 11
1216.494202334008
 21
4021.936430757161
 31
0.0
  0
LINE
  5
8327
330
8434
100
AcDbEntity
  8
3
 62
     0
100
AcDbLine
 10
2177.494202334008
 20
3743.233360994635
 30
0.0
 11
2177.494202334008
 21
4021.936430757161
 31
0.0
  0
LINE
  5
8328
330
8434
100
AcDbEntity
  8
3
 62
     0
100
AcDbLine
 10
1276.494202334008
 20
3991.936430757161
 30
0.0
 11
2117.494202334007
 21
3991.936430757161
 31
0.0
  0
INSERT
  5
8329
330
8434
100
AcDbEntity
  8
3
 62
     0
100
AcDbBlockReference
  2
_OPEN
 10
1216.494202334008
 20
3991.936430757161
 30
0.0
 41
60.0
 42
60.0
 43
60.0
 50
180.0
  0
INSERT
  5
832A
330
8434
100
AcDbEntity
  8
3
 62
     0
100
AcDbBlockReference
  2
_OPEN
 10
2177.494202334008
 20
3991.936430757161
 30
0.0
 41
60.0
 42
60.0
 43
60.0
  0
TEXT
  5
839F
330
8434
100
AcDbEntity
  8
3
 62
     0
100
AcDbText
 10
1516.99
 20
3907.64
 30
0.0
 40
90.0
  1
961
100
AcDbText
  0
POINT
  5
832C
330
8434
100
AcDbEntity
  8
DEFPOINTS
 62
     0
100
AcDbPoint
 10
1216.494202334008
 20
3691.978022216089
 30
0.0
  0
POINT
  5
832D
330
8434
100
AcDbEntity
  8
DEFPOINTS
 62
     0
100
AcDbPoint
 10
2177.494202334008
 20
3728.233360994634
 30
0.0
  0
POINT
  5
832E
330
8434
100
AcDbEntity
  8
DEFPOINTS
 62
     0
100
AcDbPoint
 10
2177.494202334008
 20
3991.936430757161
 30
0.0
  0
ENDBLK
  5
812E
330
8434
100
AcDbEntity
  8
0
100
AcDbBlockEnd
  0
BLOCK
  5
8437
330
8436
100
AcDbEntity
  8
0
100
AcDbBlockBegin
  2
*D6
 70
     1
 10
0.0
 20
0.0
 30
0.0
  3
*D6
  1

  0
LINE
  5
832F
330
8436
100
AcDbEntity
  8
3
 62
     0
100
AcDbLine
 10
4424.653931325547
 20
3676.436606431396
 30
0.0
 11
4424.653931325547
 21
3873.854893949089
 31
0.0
  0
LINE
  5
8330
330
8436
100
AcDbEntity
  8
3
 62
     0
100
AcDbLine
 10
5544.653931325547
 20
3679.479999769124
 30
0.0
 11
5544.653931325547
 21
3873.854893949089
 31
0.0
  0
LINE
  5
8331
330
8436
100
AcDbEntity
  8
3
 62
     0
100
AcDbLine
 10
4484.653931325547
 20
3843.854893949089
 30
0.0
 11
5484.653931325547
 21
3843.854893949089
 31
0.0
  0
INSERT
  5
8332
330
8436
100
AcDbEntity
  8
3
 62
     0
100
AcDbBlockReference
  2
_OPEN
 10
4424.653931325547
 20
3843.854893949089
 30
0.0
 41
60.0
 42
60.0
 43
60.0
 50
180.0
  0
INSERT
  5
8333
330
8436
100
AcDbEntity
  8
3
 62
     0
100
AcDbBlockReference
  2
_OPEN
 10
5544.653931325547
 20
3843.854893949089
 30
0.0
 41
60.0
 42
60.0
 43
60.0
  0
TEXT
  5
83A0
330
8436
100
AcDbEntity
  8
3
 62
     0
100
AcDbText
 10
4804.649999999999
 20
3759.55
 30
0.0
 40
90.0
  1
1120
100
AcDbText
  0
POINT
  5
8335
330
8436
100
AcDbEntity
  8
DEFPOINTS
 62
     0
100
AcDbPoint
 10
4424.653931325547
 20
3661.436606431396
 30
0.0
  0
POINT
  5
8336
330
8436
100
AcDbEntity
  8
DEFPOINTS
 62
     0
100
AcDbPoint
 10
5544.653931325547
 20
3664.479999769124
 30
0.0
  0
POINT
  5
8337
330
8436
100
AcDbEntity
  8
DEFPOINTS
 62
     0
100
AcDbPoint
 10
5544.653931325547
 20
3843.854893949089
 30
0.0
  0
ENDBLK
  5
80F7
330
8436
100
AcDbEntity
  8
0
100
AcDbBlockEnd
  0
BLOCK
  5
8439
330
8438
100
AcDbEntity
  8
0
100
AcDbBlockBegin
  2
*D7
 70
     1
 10
0.0
 20
0.0
 30
0.0
  3
*D7
  1

  0
LINE
  5
8338
330
8438
100
AcDbEntity
  8
3
 62
     0
100
AcDbLine
 10
4086.653931325545
 20
3366.978022216089
 30
0.0
 11
4086.653931325545
 21
4063.408500703403
 31
0.0
  0
LINE
  5
8339
330
8438
100
AcDbEntity
  8
3
 62
     0
100
AcDbLine
 10
4984.653931325547
 20
4003.869590203787
 30
0.0
 11
4984.653931325547
 21
4063.408500703403
 31
0.0
  0
LINE
  5
833A
330
8438
100
AcDbEntity
  8
3
 62
     0
100
AcDbLine
 10
4146.653931325545
 20
4033.408500703401
 30
0.0
 11
4924.653931325547
 21
4033.408500703401
 31
0.0
  0
INSERT
  5
833B
330
8438
100
AcDbEntity
  8
3
 62
     0
100
AcDbBlockReference
  2
_OPEN
 10
4086.653931325545
 20
4033.408500703401
 30
0.0
 41
60.0
 42
60.0
 43
60.0
 50
180.0
  0
INSERT
  5
833C
330
8438
100
AcDbEntity
  8
3
 62
     0
100
AcDbBlockReference
  2
_OPEN
 10
4984.653931325547
 20
4033.408500703401
 30
0.0
 41
60.0
 42
60.0
 43
60.0
  0
TEXT
  5
83A1
330
8438
100
AcDbEntity
  8
3
 62
     0
100
AcDbText
 10
4355.649999999999
 20
4024.11
 30
0.0
 40
90.0
  1
MAX
100
AcDbText
  0
TEXT
  5
83A2
330
8438
100
AcDbEntity
  8
3
 62
     0
100
AcDbText
 10
4355.649999999999
 20
3907.11
 30
0.0
 40
90.0
  1
920
100
AcDbText
  0
POINT
  5
833E
330
8438
100
AcDbEntity
  8
DEFPOINTS
 62
     0
100
AcDbPoint
 10
4086.653931325545
 20
3351.978022216088
 30
0.0
  0
POINT
  5
833F
330
8438
100
AcDbEntity
  8
DEFPOINTS
 62
     0
100
AcDbPoint
 10
4984.653931325547
 20
3988.869590203789
 30
0.0
  0
POINT
  5
8340
330
8438
100
AcDbEntity
  8
DEFPOINTS
 62
     0
100
AcDbPoint
 10
4984.653931325547
 20
4033.408500703401
 30
0.0
  0
ENDBLK
  5
80EC
330
8438
100
AcDbEntity
  8
0
100
AcDbBlockEnd
  0
BLOCK
  5
843B
330
843A
100
AcDbEntity
  8
0
100
AcDbBlockBegin
  2
*D8
 70
     1
 10
0.0
 20
0.0
 30
0.0
  3
*D8
  1

  0
LINE
  5
8341
330
843A
100
AcDbEntity
  8
3
 62
     0
100
AcDbLine
 10
4984.653931325547
 20
3978.732107357336
 30
0.0
 11
4984.653931325547
 21
4063.408500703403
 31
0.0
  0
LINE
  5
8342
330
843A
100
AcDbEntity
  8
3
 62
     0
100
AcDbLine
 10
5654.153931325545
 20
3047.478022216088
 30
0.0
 11
5654.153931325545
 21
4063.408500703403
 31
0.0
  0
LINE
  5
8343
330
843A
100
AcDbEntity
  8
3
 62
     0
100
AcDbLine
 10
5044.653931325547
 20
4033.408500703401
 30
0.0
 11
5594.153931325545
 21
4033.408500703401
 31
0.0
  0
INSERT
  5
8344
330
843A
100
AcDbEntity
  8
3
 62
     0
100
AcDbBlockReference
  2
_OPEN
 10
4984.653931325547
 20
4033.408500703401
 30
0.0
 41
60.0
 42
60.0
 43
60.0
 50
180.0
  0
INSERT
  5
8345
330
843A
100
AcDbEntity
  8
3
 62
     0
100
AcDbBlockReference
  2
_OPEN
 10
5654.153931325545
 20
4033.408500703401
 30
0.0
 41
60.0
 42
60.0
 43
60.0
  0
TEXT
  5
83A3
330
843A
100
AcDbEntity
  8
3
 62
     0
100
AcDbText
 10
5139.4
 20
3972.68
 30
0.0
 40
90.0
  1
(680)
100
AcDbText
  0
POINT
  5
8347
330
843A
100
AcDbEntity
  8
DEFPOINTS
 62
     0
100
AcDbPoint
 10
4984.653931325547
 20
3963.732107357337
 30
0.0
  0
POINT
  5
8348
330
843A
100
AcDbEntity
  8
DEFPOINTS
 62
     0
100
AcDbPoint
 10
5654.153931325545
 20
3032.478022216089
 30
0.0
  0
POINT
  5
8349
330
843A
100
AcDbEntity
  8
DEFPOINTS
 62
     0
100
AcDbPoint
 10
5654.153931325545
 20
4033.408500703401
 30
0.0
  0
ENDBLK
  5
80E1
330
843A
100
AcDbEntity
  8
0
100
AcDbBlockEnd
  0
BLOCK
  5
843D
330
843C
100
AcDbEntity
  8
0
100
AcDbBlockBegin
  2
*D9
 70
     1
 10
0.0
 20
0.0
 30
0.0
  3
*D9
  1

  0
LINE
  5
834A
330
843C
100
AcDbEntity
  8
3
 62
     0
100
AcDbLine
 10
867.4942023340097
 20
5556.676946236008
 30
0.0
 11
867.4942023340097
 21
6448.691604741229
 31
0.0
  0
LINE
  5
834B
330
843C
100
AcDbEntity
  8
3
 62
     0
100
AcDbLine
 10
1617.49420233401
 20
6131.676946236007
 30
0.0
 11
1617.49420233401
 21
6448.691604741229
 31
0.0
  0
LINE
  5
834C
330
843C
100
AcDbEntity
  8
3
 62
     0
100
AcDbLine
 10
927.4942023340098
 20
6418.691604741228
 30
0.0
 11
1557.49420233401
 21
6418.691604741228
 31
0.0
  0
INSERT
  5
834D
330
843C
100
AcDbEntity
  8
3
 62
     0
100
AcDbBlockReference
  2
_OPEN
 10
867.4942023340097
 20
6418.691604741228
 30
0.0
 41
60.0
 42
60.0
 43
60.0
 50
180.0
  0
INSERT
  5
834E
330
843C
100
AcDbEntity
  8
3
 62
     0
100
AcDbBlockReference
  2
_OPEN
 10
1617.49420233401
 20
6418.691604741228
 30
0.0
 41
60.0
 42
60.0
 43
60.0
  0
TEXT
  5
83A4
330
843C
100
AcDbEntity
  8
3
 62
     0
100
AcDbText
 10
1062.49
 20
6334.39
 30
0.0
 40
90.0
  1
750
100
AcDbText
  0
POINT
  5
8350
330
843C
100
AcDbEntity
  8
DEFPOINTS
 62
     0
100
AcDbPoint
 10
867.4942023340097
 20
5541.676946236008
 30
0.0
  0
POINT
  5
8351
330
843C
100
AcDbEntity
  8
DEFPOINTS
 62
     0
100
AcDbPoint
 10
1617.49420233401
 20
6116.676946236007
 30
0.0
  0
POINT
  5
8352
330
843C
100
AcDbEntity
  8
DEFPOINTS
 62
     0
100
AcDbPoint
 10
1617.49420233401
 20
6418.691604741228
 30
0.0
  0
ENDBLK
  5
80D6
330
843C
100
AcDbEntity
  8
0
100
AcDbBlockEnd
  0
BLOCK
  5
843F
330
843E
100
AcDbEntity
  8
0
100
AcDbBlockBegin
  2
*D10
 70
     1
 10
0.0
 20
0.0
 30
0.0
  3
*D10
  1

  0
LINE
  5
8353
330
843E
100
AcDbEntity
  8
3
 62
     0
100
AcDbLine
 10
1617.49420233401
 20
6131.676946236007
 30
0.0
 11
1617.49420233401
 21
6448.691604741229
 31
0.0
  0
LINE
  5
8354
330
843E
100
AcDbEntity
  8
3
 62
     0
100
AcDbLine
 10
2737.494202334008
 20
6131.676946236006
 30
0.0
 11
2737.494202334008
 21
6448.691604741229
 31
0.0
  0
LINE
  5
8355
330
843E
100
AcDbEntity
  8
3
 62
     0
100
AcDbLine
 10
1677.49420233401
 20
6418.691604741228
 30
0.0
 11
2677.494202334009
 21
6418.691604741228
 31
0.0
  0
INSERT
  5
8356
330
843E
100
AcDbEntity
  8
3
 62
     0
100
AcDbBlockReference
  2
_OPEN
 10
1617.49420233401
 20
6418.691604741228
 30
0.0
 41
60.0
 42
60.0
 43
60.0
 50
180.0
  0
INSERT
  5
8357
330
843E
100
AcDbEntity
  8
3
 62
     0
100
AcDbBlockReference
  2
_OPEN
 10
2737.494202334008
 20
6418.691604741228
 30
0.0
 41
60.0
 42
60.0
 43
60.0
  0
TEXT
  5
83A5
330
843E
100
AcDbEntity
  8
3
 62
     0
100
AcDbText
 10
1997.49
 20
6334.39
 30
0.0
 40
90.0
  1
1120
100
AcDbText
  0
POINT
  5
8359
330
843E
100
AcDbEntity
  8
DEFPOINTS
 62
     0
100
AcDbPoint
 10
1617.49420233401
 20
6116.676946236007
 30
0.0
  0
POINT
  5
835A
330
843E
100
AcDbEntity
  8
DEFPOINTS
 62
     0
100
AcDbPoint
 10
2737.494202334008
 20
6116.676946236006
 30
0.0
  0
POINT
  5
835B
330
843E
100
AcDbEntity
  8
DEFPOINTS
 62
     0
100
AcDbPoint
 10
2737.494202334008
 20
6418.691604741228
 30
0.0
  0
ENDBLK
  5
80CB
330
843E
100
AcDbEntity
  8
0
100
AcDbBlockEnd
  0
BLOCK
  5
8441
330
8440
100
AcDbEntity
  8
0
100
AcDbBlockBegin
  2
*D11
 70
     1
 10
0.0
 20
0.0
 30
0.0
  3
*D11
  1

  0
LINE
  5
835C
330
8440
100
AcDbEntity
  8
3
 62
     0
100
AcDbLine
 10
2752.494202334009
 20
6116.676946236006
 30
0.0
 11
3067.918424500427
 21
6116.676946236006
 31
0.0
  0
LINE
  5
835D
330
8440
100
AcDbEntity
  8
3
 62
     0
100
AcDbLine
 10
2752.494202334009
 20
4741.676946236006
 30
0.0
 11
3067.918424500425
 21
4741.676946236006
 31
0.0
  0
LINE
  5
835E
330
8440
100
AcDbEntity
  8
3
 62
     0
100
AcDbLine
 10
3037.918424500425
 20
6056.676946236006
 30
0.0
 11
3037.918424500425
 21
4801.676946236006
 31
0.0
  0
INSERT
  5
835F
330
8440
100
AcDbEntity
  8
3
 62
     0
100
AcDbBlockReference
  2
_OPEN
 10
3037.918424500425
 20
6116.676946236006
 30
0.0
 41
60.0
 42
60.0
 43
60.0
 50
90.0
  0
INSERT
  5
8360
330
8440
100
AcDbEntity
  8
3
 62
     0
100
AcDbBlockReference
  2
_OPEN
 10
3037.918424500425
 20
4741.676946236006
 30
0.0
 41
60.0
 42
60.0
 43
60.0
 50
270.0
  0
TEXT
  5
83A6
330
8440
100
AcDbEntity
  8
3
 62
     0
100
AcDbText
 10
2782.92
 20
5269.88
 30
0.0
 40
90.0
  1
1375
100
AcDbText
  0
POINT
  5
8362
330
8440
100
AcDbEntity
  8
DEFPOINTS
 62
     0
100
AcDbPoint
 10
2737.494202334008
 20
6116.676946236006
 30
0.0
  0
POINT
  5
8363
330
8440
100
AcDbEntity
  8
DEFPOINTS
 62
     0
100
AcDbPoint
 10
2737.49420233401
 20
4741.676946236006
 30
0.0
  0
POINT
  5
8364
330
8440
100
AcDbEntity
  8
DEFPOINTS
 62
     0
100
AcDbPoint
 10
3037.918424500425
 20
4741.676946236006
 30
0.0
  0
ENDBLK
  5
80C0
330
8440
100
AcDbEntity
  8
0
100
AcDbBlockEnd
  0
BLOCK
  5
8443
330
8442
100
AcDbEntity
  8
0
100
AcDbBlockBegin
  2
*D12
 70
     1
 10
0.0
 20
0.0
 30
0.0
  3
*D12
  1

  0
LINE
  5
8365
330
8442
100
AcDbEntity
  8
3
 62
     0
100
AcDbLine
 10
867.4942023340097
 20
4726.676946236006
 30
0.0
 11
867.4942023340097
 21
4404.529786753934
 31
0.0
  0
LINE
  5
8366
330
8442
100
AcDbEntity
  8
3
 62
     0
100
AcDbLine
 10
2737.49420233401
 20
4726.676946236006
 30
0.0
 11
2737.49420233401
 21
4404.529786753934
 31
0.0
  0
LINE
  5
8367
330
8442
100
AcDbEntity
  8
3
 62
     0
100
AcDbLine
 10
927.4942023340098
 20
4434.529786753933
 30
0.0
 11
2677.49420233401
 21
4434.529786753933
 31
0.0
  0
INSERT
  5
8368
330
8442
100
AcDbEntity
  8
3
 62
     0
100
AcDbBlockReference
  2
_OPEN
 10
867.4942023340097
 20
4434.529786753933
 30
0.0
 41
60.0
 42
60.0
 43
60.0
 50
180.0
  0
INSERT
  5
8369
330
8442
100
AcDbEntity
  8
3
 62
     0
100
AcDbBlockReference
  2
_OPEN
 10
2737.49420233401
 20
4434.529786753933
 30
0.0
 41
60.0
 42
60.0
 43
60.0
  0
TEXT
  5
83A7
330
8442
100
AcDbEntity
  8
3
 62
     0
100
AcDbText
 10
1622.49
 20
4350.229999999999
 30
0.0
 40
90.0
  1
1870
100
AcDbText
  0
POINT
  5
836B
330
8442
100
AcDbEntity
  8
DEFPOINTS
 62
     0
100
AcDbPoint
 10
867.4942023340097
 20
4741.676946236006
 30
0.0
  0
POINT
  5
836C
330
8442
100
AcDbEntity
  8
DEFPOINTS
 62
     0
100
AcDbPoint
 10
2737.49420233401
 20
4741.676946236006
 30
0.0
  0
POINT
  5
836D
330
8442
100
AcDbEntity
  8
DEFPOINTS
 62
     0
100
AcDbPoint
 10
2737.49420233401
 20
4434.529786753933
 30
0.0
  0
ENDBLK
  5
80B5
330
8442
100
AcDbEntity
  8
0
100
AcDbBlockEnd
  0
BLOCK
  5
8445
330
8444
100
AcDbEntity
  8
0
100
AcDbBlockBegin
  2
*D13
 70
     1
 10
0.0
 20
0.0
 30
0.0
  3
*D13
  1

  0
LINE
  5
836E
330
8444
100
AcDbEntity
  8
3
 62
     0
100
AcDbLine
 10
852.4942023340097
 20
5541.676946236008
 30
0.0
 11
647.6426948674745
 21
5541.676946236008
 31
0.0
  0
LINE
  5
836F
330
8444
100
AcDbEntity
  8
3
 62
     0
100
AcDbLine
 10
852.4942023340097
 20
4741.676946236006
 30
0.0
 11
647.6426948674743
 21
4741.676946236006
 31
0.0
  0
LINE
  5
8370
330
8444
100
AcDbEntity
  8
3
 62
     0
100
AcDbLine
 10
677.6426948674745
 20
5481.676946236007
 30
0.0
 11
677.6426948674743
 21
4801.676946236006
 31
0.0
  0
INSERT
  5
8371
330
8444
100
AcDbEntity
  8
3
 62
     0
100
AcDbBlockReference
  2
_OPEN
 10
677.6426948674745
 20
5541.676946236008
 30
0.0
 41
60.0
 42
60.0
 43
60.0
 50
90.0
  0
INSERT
  5
8372
330
8444
100
AcDbEntity
  8
3
 62
     0
100
AcDbBlockReference
  2
_OPEN
 10
677.6426948674743
 20
4741.676946236006
 30
0.0
 41
60.0
 42
60.0
 43
60.0
 50
270.0
  0
TEXT
  5
83A8
330
8444
100
AcDbEntity
  8
3
 62
     0
100
AcDbText
 10
422.643
 20
4982.38
 30
0.0
 40
90.0
  1
800
100
AcDbText
  0
POINT
  5
8374
330
8444
100
AcDbEntity
  8
DEFPOINTS
 62
     0
100
AcDbPoint
 10
867.4942023340097
 20
5541.676946236008
 30
0.0
  0
POINT
  5
8375
330
8444
100
AcDbEntity
  8
DEFPOINTS
 62
     0
100
AcDbPoint
 10
867.4942023340097
 20
4741.676946236006
 30
0.0
  0
POINT
  5
8376
330
8444
100
AcDbEntity
  8
DEFPOINTS
 62
     0
100
AcDbPoint
 10
677.6426948674743
 20
4741.676946236006
 30
0.0
  0
ENDBLK
  5
80AA
330
8444
100
AcDbEntity
  8
0
100
AcDbBlockEnd
  0
BLOCK
  5
8447
330
8446
100
AcDbEntity
  8
0
100
AcDbBlockBegin
  2
*D14
 70
     1
 10
0.0
 20
0.0
 30
0.0
  3
*D14
  1

  0
LINE
  5
8377
330
8446
100
AcDbEntity
  8
3
 62
     0
100
AcDbLine
 10
5565.153931325546
 20
2596.978022216088
 30
0.0
 11
5898.544925153682
 21
2596.978022216088
 31
0.0
  0
LINE
  5
8378
330
8446
100
AcDbEntity
  8
3
 62
     0
100
AcDbLine
 10
5565.153931325546
 20
3546.978022216087
 30
0.0
 11
5898.544925153682
 21
3546.978022216087
 31
0.0
  0
LINE
  5
8379
330
8446
100
AcDbEntity
  8
3
 62
     0
100
AcDbLine
 10
5868.544925153682
 20
2656.978022216088
 30
0.0
 11
5868.544925153682
 21
3486.978022216089
 31
0.0
  0
INSERT
  5
837A
330
8446
100
AcDbEntity
  8
3
 62
     0
100
AcDbBlockReference
  2
_OPEN
 10
5868.544925153682
 20
2596.978022216088
 30
0.0
 41
60.0
 42
60.0
 43
60.0
 50
270.0
  0
INSERT
  5
837B
330
8446
100
AcDbEntity
  8
3
 62
     0
100
AcDbBlockReference
  2
_OPEN
 10
5868.544925153682
 20
3546.978022216087
 30
0.0
 41
60.0
 42
60.0
 43
60.0
 50
90.0
  0
TEXT
  5
83A9
330
8446
100
AcDbEntity
  8
3
 62
     0
100
AcDbText
 10
5613.54
 20
2912.68
 30
0.0
 40
90.0
  1
\U+03C6950
100
AcDbText
  0
POINT
  5
837D
330
8446
100
AcDbEntity
  8
DEFPOINTS
 62
     0
100
AcDbPoint
 10
5550.153931325547
 20
2596.978022216088
 30
0.0
  0
POINT
  5
837E
330
8446
100
AcDbEntity
  8
DEFPOINTS
 62
     0
100
AcDbPoint
 10
5550.153931325547
 20
3546.978022216087
 30
0.0
  0
POINT
  5
837F
330
8446
100
AcDbEntity
  8
DEFPOINTS
 62
     0
100
AcDbPoint
 10
5868.544925153682
 20
3546.978022216087
 30
0.0
  0
ENDBLK
  5
809F
330
8446
100
AcDbEntity
  8
0
100
AcDbBlockEnd
  0
BLOCK
  5
8449
330
8448
100
AcDbEntity
  8
0
100
AcDbBlockBegin
  2
*D15
 70
     1
 10
0.0
 20
0.0
 30
0.0
  3
*D15
  1

  0
LINE
  5
8380
330
8448
100
AcDbEntity
  8
3
 62
     0
100
AcDbLine
 10
2198.994202334008
 20
3691.978022216089
 30
0.0
 11
3075.431187629272
 21
3691.978022216087
 31
0.0
  0
LINE
  5
8381
330
8448
100
AcDbEntity
  8
3
 62
     0
100
AcDbLine
 10
2848.749541112555
 20
3071.978022216089
 30
0.0
 11
3075.43118762927
 21
3071.978022216087
 31
0.0
  0
LINE
  5
8382
330
8448
100
AcDbEntity
  8
3
 62
     0
100
AcDbLine
 10
3045.431187629271
 20
3631.978022216089
 30
0.0
 11
3045.431187629271
 21
3131.978022216089
 31
0.0
  0
INSERT
  5
8383
330
8448
100
AcDbEntity
  8
3
 62
     0
100
AcDbBlockReference
  2
_OPEN
 10
3045.431187629271
 20
3691.978022216089
 30
0.0
 41
60.0
 42
60.0
 43
60.0
 50
90.0
  0
INSERT
  5
8384
330
8448
100
AcDbEntity
  8
3
 62
     0
100
AcDbBlockReference
  2
_OPEN
 10
3045.431187629271
 20
3071.978022216089
 30
0.0
 41
60.0
 42
60.0
 43
60.0
 50
270.0
  0
TEXT
  5
83AA
330
8448
100
AcDbEntity
  8
3
 62
     0
100
AcDbText
 10
2790.43
 20
3222.68
 30
0.0
 40
90.0
  1
620
100
AcDbText
  0
POINT
  5
8386
330
8448
100
AcDbEntity
  8
DEFPOINTS
 62
     0
100
AcDbPoint
 10
2183.994202334008
 20
3691.978022216089
 30
0.0
  0
POINT
  5
8387
330
8448
100
AcDbEntity
  8
DEFPOINTS
 62
     0
100
AcDbPoint
 10
2833.749541112554
 20
3071.978022216089
 30
0.0
  0
POINT
  5
8388
330
8448
100
AcDbEntity
  8
DEFPOINTS
 62
     0
100
AcDbPoint
 10
3045.431187629271
 20
3071.978022216089
 30
0.0
  0
ENDBLK
  5
8094
330
8448
100
AcDbEntity
  8
0
100
AcDbBlockEnd
  0
BLOCK
  5
844B
330
844A
100
AcDbEntity
  8
0
100
AcDbBlockBegin
  2
*D16
 70
     1
 10
0.0
 20
0.0
 30
0.0
  3
*D16
  1

  0
LINE
  5
8389
330
844A
100
AcDbEntity
  8
3
 62
     0
100
AcDbLine
 10
2848.749541112555
 20
3071.978022216089
 30
0.0
 11
3075.43118762927
 21
3071.978022216087
 31
0.0
  0
LINE
  5
838A
330
844A
100
AcDbEntity
  8
3
 62
     0
100
AcDbLine
 10
2752.494202334008
 20
2251.978022216087
 30
0.0
 11
3075.43118762927
 21
2251.978022216087
 31
0.0
  0
LINE
  5
838B
330
844A
100
AcDbEntity
  8
3
 62
     0
100
AcDbLine
 10
3045.431187629271
 20
3011.978022216089
 30
0.0
 11
3045.431187629271
 21
2311.978022216087
 31
0.0
  0
INSERT
  5
838C
330
844A
100
AcDbEntity
  8
3
 62
     0
100
AcDbBlockReference
  2
_OPEN
 10
3045.431187629271
 20
3071.978022216089
 30
0.0
 41
60.0
 42
60.0
 43
60.0
 50
90.0
  0
INSERT
  5
838D
330
844A
100
AcDbEntity
  8
3
 62
     0
100
AcDbBlockReference
  2
_OPEN
 10
3045.431187629271
 20
2251.978022216087
 30
0.0
 41
60.0
 42
60.0
 43
60.0
 50
270.0
  0
TEXT
  5
83AB
330
844A
100
AcDbEntity
  8
3
 62
     0
100
AcDbText
 10
2790.43
 20
2502.68
 30
0.0
 40
90.0
  1
820
100
AcDbText
  0
POINT
  5
838F
330
844A
100
AcDbEntity
  8
DEFPOINTS
 62
     0
100
AcDbPoint
 10
2833.749541112554
 20
3071.978022216089
 30
0.0
  0
POINT
  5
8390
330
844A
100
AcDbEntity
  8
DEFPOINTS
 62
     0
100
AcDbPoint
 10
2737.494202334008
 20
2251.978022216087
 30
0.0
  0
POINT
  5
8391
330
844A
100
AcDbEntity
  8
DEFPOINTS
 62
     0
100
AcDbPoint
 10
3045.431187629271
 20
2251.978022216087
 30
0.0
  0
ENDBLK
  5
8089
330
844A
100
AcDbEntity
  8
0
100
AcDbBlockEnd
  0
BLOCK
  5
844D
330
844C
100
AcDbEntity
  8
0
100
AcDbBlockBegin
  2
*D17
 70
     1
 10
0.0
 20
0.0
 30
0.0
  3
*D17
  1

  0
LINE
  5
8392
330
844C
100
AcDbEntity
  8
3
 62
     0
100
AcDbLine
 10
2177.494202334008
 20
3743.233360994635
 30
0.0
 11
2177.494202334008
 21
4021.936430757161
 31
0.0
  0
LINE
  5
8393
330
844C
100
AcDbEntity
  8
3
 62
     0
100
AcDbLine
 10
2820.494202334008
 20
3019.978022216089
 30
0.0
 11
2820.494202334008
 21
4021.936430757161
 31
0.0
  0
LINE
  5
8394
330
844C
100
AcDbEntity
  8
3
 62
     0
100
AcDbLine
 10
2237.494202334008
 20
3991.936430757161
 30
0.0
 11
2760.494202334009
 21
3991.936430757161
 31
0.0
  0
INSERT
  5
8395
330
844C
100
AcDbEntity
  8
3
 62
     0
100
AcDbBlockReference
  2
_OPEN
 10
2177.494202334008
 20
3991.936430757161
 30
0.0
 41
60.0
 42
60.0
 43
60.0
 50
180.0
  0
INSERT
  5
8396
330
844C
100
AcDbEntity
  8
3
 62
     0
100
AcDbBlockReference
  2
_OPEN
 10
2820.494202334008
 20
3991.936430757161
 30
0.0
 41
60.0
 42
60.0
 43
60.0
  0
TEXT
  5
83AC
330
844C
100
AcDbEntity
  8
3
 62
     0
100
AcDbText
 10
2318.99
 20
3907.64
 30
0.0
 40
90.0
  1
643
100
AcDbText
  0
POINT
  5
8398
330
844C
100
AcDbEntity
  8
DEFPOINTS
 62
     0
100
AcDbPoint
 10
2177.494202334008
 20
3728.233360994634
 30
0.0
  0
POINT
  5
8399
330
844C
100
AcDbEntity
  8
DEFPOINTS
 62
     0
100
AcDbPoint
 10
2820.494202334008
 20
3004.978022216088
 30
0.0
  0
POINT
  5
839A
330
844C
100
AcDbEntity
  8
DEFPOINTS
 62
     0
100
AcDbPoint
 10
2820.494202334008
 20
3991.936430757161
 30
0.0
  0
ENDBLK
  5
8059
330
844C
100
AcDbEntity
  8
0
100
AcDbBlockEnd
  0
BLOCK
  5
844F
330
844E
100
AcDbEntity
  8
0
100
AcDbBlockBegin
  2
_DOT
 70
     0
 10
0.0
 20
0.0
 30
0.0
  3
_DOT
  1

  0
LWPOLYLINE
  5
7FC1
330
844E
100
AcDbEntity
  8
0
  6
ByBlock
 62
     0
100
AcDbPolyline
 90
        2
 70
     1
 43
0.25
 10
-0.125
 20
0.0
 42
1.0
 10
0.125
 20
0.0
 42
1.0
  0
LINE
  5
7FC5
330
844E
100
AcDbEntity
  8
0
  6
ByBlock
 62
     0
100
AcDbLine
 10
-0.25
 20
0.0
 30
0.0
 11
-1.0
 21
0.0
 31
0.0
  0
ENDBLK
  5
7FA4
330
844E
100
AcDbEntity
  8
0
100
AcDbBlockEnd
  0
BLOCK
  5
8451
330
8450
100
AcDbEntity
  8
0
100
AcDbBlockBegin
  2
_NONE
 70
     0
 10
0.0
 20
0.0
 30
0.0
  3
_NONE
  1

  0
CIRCLE
  5
81C6
330
8450
100
AcDbEntity
  8
0
  6
ByBlock
 62
     0
100
AcDbCircle
 10
0.0
 20
0.0
 30
0.0
 40
0.25
  0
ENDBLK
  5
81C7
330
8450
100
AcDbEntity
  8
0
100
AcDbBlockEnd
  0
BLOCK
  5
8453
330
8452
100
AcDbEntity
  8
0
100
AcDbBlockBegin
  2
*D20
 70
     1
 10
0.0
 20
0.0
 30
0.0
  3
*D20
  1

  0
LINE
  5
8216
330
8452
100
AcDbEntity
  8
0
  6
ByBlock
 62
     0
100
AcDbLine
 10
867.4942023340097
 20
2221.978022216088
 30
0.0
 11
867.4942023340097
 21
2001.911805266888
 31
0.0
  0
LINE
  5
8217
330
8452
100
AcDbEntity
  8
0
  6
ByBlock
 62
     0
100
AcDbLine
 10
2177.494202334008
 20
2221.978022216088
 30
0.0
 11
2177.494202334008
 21
2001.911805266888
 31
0.0
  0
LINE
  5
8218
330
8452
100
AcDbEntity
  8
0
  6
ByBlock
 62
     0
100
AcDbLine
 10
927.4942023340098
 20
2031.911805266889
 30
0.0
 11
2117.494202334007
 21
2031.911805266889
 31
0.0
  0
INSERT
  5
8219
330
8452
100
AcDbEntity
  8
0
  6
ByBlock
 62
     0
100
AcDbBlockReference
  2
_OPEN
 10
867.4942023340097
 20
2031.911805266889
 30
0.0
 41
60.0
 42
60.0
 43
60.0
 50
180.0
  0
INSERT
  5
821A
330
8452
100
AcDbEntity
  8
0
  6
ByBlock
 62
     0
100
AcDbBlockReference
  2
_OPEN
 10
2177.494202334008
 20
2031.911805266889
 30
0.0
 41
60.0
 42
60.0
 43
60.0
  0
TEXT
  5
821B
330
8452
100
AcDbEntity
  8
3
 62
     0
100
AcDbText
 10
1381.065630905437
 20
2061.911805266889
 30
0.0
 40
90.0
  1
1310
100
AcDbText
  0
POINT
  5
821C
330
8452
100
AcDbEntity
  8
DEFPOINTS
  6
ByBlock
 62
     0
100
AcDbPoint
 10
867.4942023340097
 20
2251.978022216087
 30
0.0
  0
POINT
  5
821D
330
8452
100
AcDbEntity
  8
DEFPOINTS
  6
ByBlock
 62
     0
100
AcDbPoint
 10
2177.494202334008
 20
2251.978022216087
 30
0.0
  0
POINT
  5
821E
330
8452
100
AcDbEntity
  8
DEFPOINTS
  6
ByBlock
 62
     0
100
AcDbPoint
 10
2177.494202334008
 20
2031.911805266889
 30
0.0
  0
ENDBLK
  5
821F
330
8452
100
AcDbEntity
  8
0
100
AcDbBlockEnd
  0
BLOCK
  5
8455
330
8454
100
AcDbEntity
  8
0
100
AcDbBlockBegin
  2
*D21
 70
     1
 10
0.0
 20
0.0
 30
0.0
  3
*D21
  1

  0
LINE
  5
8223
330
8454
100
AcDbEntity
  8
0
  6
ByBlock
 62
     0
100
AcDbLine
 10
2177.494202334008
 20
2221.978022216088
 30
0.0
 11
2177.494202334008
 21
2001.911805266888
 31
0.0
  0
LINE
  5
8224
330
8454
100
AcDbEntity
  8
0
  6
ByBlock
 62
     0
100
AcDbLine
 10
2737.494202334008
 20
2221.978022216088
 30
0.0
 11
2737.494202334008
 21
2001.911805266888
 31
0.0
  0
LINE
  5
8225
330
8454
100
AcDbEntity
  8
0
  6
ByBlock
 62
     0
100
AcDbLine
 10
2237.494202334008
 20
2031.911805266889
 30
0.0
 11
2677.494202334008
 21
2031.911805266889
 31
0.0
  0
INSERT
  5
8226
330
8454
100
AcDbEntity
  8
0
  6
ByBlock
 62
     0
100
AcDbBlockReference
  2
_OPEN
 10
2177.494202334008
 20
2031.911805266889
 30
0.0
 41
60.0
 42
60.0
 43
60.0
 50
180.0
  0
INSERT
  5
8227
330
8454
100
AcDbEntity
  8
0
  6
ByBlock
 62
     0
100
AcDbBlockReference
  2
_OPEN
 10
2737.494202334008
 20
2031.911805266889
 30
0.0
 41
60.0
 42
60.0
 43
60.0
  0
TEXT
  5
8228
330
8454
100
AcDbEntity
  8
3
 62
     0
100
AcDbText
 10
2341.779916619722
 20
2061.911805266889
 30
0.0
 40
90.0
  1
560
100
AcDbText
  0
POINT
  5
8229
330
8454
100
AcDbEntity
  8
DEFPOINTS
  6
ByBlock
 62
     0
100
AcDbPoint
 10
2177.494202334008
 20
2251.978022216087
 30
0.0
  0
POINT
  5
822A
330
8454
100
AcDbEntity
  8
DEFPOINTS
  6
ByBlock
 62
     0
100
AcDbPoint
 10
2737.494202334008
 20
2251.978022216087
 30
0.0
  0
POINT
  5
822B
330
8454
100
AcDbEntity
  8
DEFPOINTS
  6
ByBlock
 62
     0
100
AcDbPoint
 10
2737.494202334008
 20
2031.911805266889
 30
0.0
  0
ENDBLK
  5
822C
330
8454
100
AcDbEntity
  8
0
100
AcDbBlockEnd
  0
BLOCK
  5
8457
330
8456
100
AcDbEntity
  8
0
100
AcDbBlockBegin
  2
*D22
 70
     1
 10
0.0
 20
0.0
 30
0.0
  3
*D22
  1

  0
LINE
  5
8230
330
8456
100
AcDbEntity
  8
0
  6
ByBlock
 62
     0
100
AcDbLine
 10
4222.653931325537
 20
2221.978022216088
 30
0.0
 11
4222.653931325537
 21
2001.911805266888
 31
0.0
  0
LINE
  5
8231
330
8456
100
AcDbEntity
  8
0
  6
ByBlock
 62
     0
100
AcDbLine
 10
4984.653931325546
 20
2221.978022216088
 30
0.0
 11
4984.653931325546
 21
2001.911805266888
 31
0.0
  0
LINE
  5
8232
330
8456
100
AcDbEntity
  8
0
  6
ByBlock
 62
     0
100
AcDbLine
 10
4282.653931325538
 20
2031.911805266889
 30
0.0
 11
4924.653931325543
 21
2031.911805266889
 31
0.0
  0
INSERT
  5
8233
330
8456
100
AcDbEntity
  8
0
  6
ByBlock
 62
     0
100
AcDbBlockReference
  2
_OPEN
 10
4222.653931325537
 20
2031.911805266889
 30
0.0
 41
60.0
 42
60.0
 43
60.0
 50
180.0
  0
INSERT
  5
8234
330
8456
100
AcDbEntity
  8
0
  6
ByBlock
 62
     0
100
AcDbBlockReference
  2
_OPEN
 10
4984.653931325546
 20
2031.911805266889
 30
0.0
 41
60.0
 42
60.0
 43
60.0
  0
TEXT
  5
8235
330
8456
100
AcDbEntity
  8
3
 62
     0
100
AcDbText
 10
4487.939645611256
 20
2061.911805266889
 30
0.0
 40
90.0
  1
762
100
AcDbText
  0
POINT
  5
8236
330
8456
100
AcDbEntity
  8
DEFPOINTS
  6
ByBlock
 62
     0
100
AcDbPoint
 10
4222.653931325537
 20
2251.978022216087
 30
0.0
  0
POINT
  5
8237
330
8456
100
AcDbEntity
  8
DEFPOINTS
  6
ByBlock
 62
     0
100
AcDbPoint
 10
4984.653931325546
 20
2251.978022216087
 30
0.0
  0
POINT
  5
8238
330
8456
100
AcDbEntity
  8
DEFPOINTS
  6
ByBlock
 62
     0
100
AcDbPoint
 10
4984.653931325546
 20
2031.911805266889
 30
0.0
  0
ENDBLK
  5
8239
330
8456
100
AcDbEntity
  8
0
100
AcDbBlockEnd
  0
BLOCK
  5
8459
330
8458
100
AcDbEntity
  8
0
100
AcDbBlockBegin
  2
*D23
 70
     1
 10
0.0
 20
0.0
 30
0.0
  3
*D23
  1

  0
LINE
  5
823D
330
8458
100
AcDbEntity
  8
0
  6
ByBlock
 62
     0
100
AcDbLine
 10
4984.653931325546
 20
2221.978022216088
 30
0.0
 11
4984.653931325546
 21
2001.911805266888
 31
0.0
  0
LINE
  5
823E
330
8458
100
AcDbEntity
  8
0
  6
ByBlock
 62
     0
100
AcDbLine
 10
5597.653931325547
 20
2221.978022216088
 30
0.0
 11
5597.653931325547
 21
2001.911805266888
 31
0.0
  0
LINE
  5
823F
330
8458
100
AcDbEntity
  8
0
  6
ByBlock
 62
     0
100
AcDbLine
 10
5044.653931325544
 20
2031.911805266889
 30
0.0
 11
5537.653931325547
 21
2031.911805266889
 31
0.0
  0
INSERT
  5
8240
330
8458
100
AcDbEntity
  8
0
  6
ByBlock
 62
     0
100
AcDbBlockReference
  2
_OPEN
 10
4984.653931325546
 20
2031.911805266889
 30
0.0
 41
60.0
 42
60.0
 43
60.0
 50
180.0
  0
INSERT
  5
8241
330
8458
100
AcDbEntity
  8
0
  6
ByBlock
 62
     0
100
AcDbBlockReference
  2
_OPEN
 10
5597.653931325547
 20
2031.911805266889
 30
0.0
 41
60.0
 42
60.0
 43
60.0
  0
TEXT
  5
8242
330
8458
100
AcDbEntity
  8
3
 62
     0
100
AcDbText
 10
5184.011074182688
 20
2061.911805266889
 30
0.0
 40
90.0
  1
613
100
AcDbText
  0
POINT
  5
8243
330
8458
100
AcDbEntity
  8
DEFPOINTS
  6
ByBlock
 62
     0
100
AcDbPoint
 10
4984.653931325546
 20
2251.978022216087
 30
0.0
  0
POINT
  5
8244
330
8458
100
AcDbEntity
  8
DEFPOINTS
  6
ByBlock
 62
     0
100
AcDbPoint
 10
5597.653931325547
 20
2251.978022216087
 30
0.0
  0
POINT
  5
8245
330
8458
100
AcDbEntity
  8
DEFPOINTS
  6
ByBlock
 62
     0
100
AcDbPoint
 10
5597.653931325547
 20
2031.911805266889
 30
0.0
  0
ENDBLK
  5
8246
330
8458
100
AcDbEntity
  8
0
100
AcDbBlockEnd
  0
BLOCK
  5
845B
330
845A
100
AcDbEntity
  8
0
100
AcDbBlockBegin
  2
*D24
 70
     1
 10
0.0
 20
0.0
 30
0.0
  3
*D24
  1

  0
LINE
  5
824A
330
845A
100
AcDbEntity
  8
0
  6
ByBlock
 62
     0
100
AcDbLine
 10
2767.494202334008
 20
2251.978022216087
 30
0.0
 11
3290.840562617505
 21
2251.978022216087
 31
0.0
  0
LINE
  5
824B
330
845A
100
AcDbEntity
  8
0
  6
ByBlock
 62
     0
100
AcDbLine
 10
2228.994202334008
 20
3691.978022216089
 30
0.0
 11
3290.840562617505
 21
3691.978022216089
 31
0.0
  0
LINE
  5
824C
330
845A
100
AcDbEntity
  8
0
  6
ByBlock
 62
     0
100
AcDbLine
 10
3260.840562617504
 20
2311.978022216087
 30
0.0
 11
3260.840562617504
 21
3631.978022216089
 31
0.0
  0
INSERT
  5
824D
330
845A
100
AcDbEntity
  8
0
  6
ByBlock
 62
     0
100
AcDbBlockReference
  2
_OPEN
 10
3260.840562617504
 20
2251.978022216087
 30
0.0
 41
60.0
 42
60.0
 43
60.0
 50
270.0
  0
INSERT
  5
824E
330
845A
100
AcDbEntity
  8
0
  6
ByBlock
 62
     0
100
AcDbBlockReference
  2
_OPEN
 10
3260.840562617504
 20
3691.978022216089
 30
0.0
 41
60.0
 42
60.0
 43
60.0
 50
90.0
  0
TEXT
  5
824F
330
845A
100
AcDbEntity
  8
3
 62
     0
100
AcDbText
 10
3230.840562617505
 20
2821.978022216089
 30
0.0
 40
90.0
  1
1440
 50
90.0
100
AcDbText
  0
POINT
  5
8250
330
845A
100
AcDbEntity
  8
DEFPOINTS
  6
ByBlock
 62
     0
100
AcDbPoint
 10
2737.494202334008
 20
2251.978022216087
 30
0.0
  0
POINT
  5
8251
330
845A
100
AcDbEntity
  8
DEFPOINTS
  6
ByBlock
 62
     0
100
AcDbPoint
 10
2198.994202334008
 20
3691.978022216089
 30
0.0
  0
POINT
  5
8252
330
845A
100
AcDbEntity
  8
DEFPOINTS
  6
ByBlock
 62
     0
100
AcDbPoint
 10
3260.840562617504
 20
3691.978022216089
 30
0.0
  0
ENDBLK
  5
8253
330
845A
100
AcDbEntity
  8
0
100
AcDbBlockEnd
  0
BLOCK
  5
845F
330
845E
100
AcDbEntity
  8
0
100
AcDbBlockBegin
  2
*D25
 70
     1
 10
0.0
 20
0.0
 30
0.0
  3
*D25
  1

  0
LINE
  5
84E0
330
845E
100
AcDbEntity
  8
3
 62
     0
370
    -2
100
AcDbLine
 10
4034.653931325545
 20
3381.978022216089
 30
0.0
 11
4034.653931325545
 21
4071.500908817681
 31
0.0
  0
LINE
  5
84E1
330
845E
100
AcDbEntity
  8
3
 62
     0
370
    -2
100
AcDbLine
 10
4984.653931325548
 20
4013.761056152547
 30
0.0
 11
4984.653931325548
 21
4071.500908817681
 31
0.0
  0
LINE
  5
84E2
330
845E
100
AcDbEntity
  8
3
 62
     0
370
    -2
100
AcDbLine
 10
4094.653931325544
 20
4041.50090881768
 30
0.0
 11
4924.653931325548
 21
4041.50090881768
 31
0.0
  0
INSERT
  5
84E3
330
845E
100
AcDbEntity
  8
3
 62
     0
370
    -2
100
AcDbBlockReference
  2
_OPEN
 10
4034.653931325545
 20
4041.50090881768
 30
0.0
 41
60.0
 42
60.0
 43
60.0
 50
180.0
  0
INSERT
  5
84E4
330
845E
100
AcDbEntity
  8
3
 62
     0
370
    -2
100
AcDbBlockReference
  2
_OPEN
 10
4984.653931325548
 20
4041.50090881768
 30
0.0
 41
60.0
 42
60.0
 43
60.0
  0
MTEXT
  5
84E5
330
845E
100
AcDbEntity
  8
3
 62
     0
100
AcDbMText
 10
4509.653931325546
 20
4140.072337389109
 30
0.0
 40
90.0
 41
0.0
 71
     5
 72
     1
  1
\A1;(950)
 73
     1
 44
1.0
1001
ACAD
1000
MTEXTBEGIN
1070
    73
1070
     1
1070
    44
1040
1.0
1070
    74
1070
     0
1000
MTEXTEND
  0
POINT
  5
84E6
330
845E
100
AcDbEntity
  8
DEFPOINTS
 62
     0
100
AcDbPoint
 10
4034.653931325545
 20
3351.978022216088
 30
0.0
  0
POINT
  5
84E7
330
845E
100
AcDbEntity
  8
DEFPOINTS
 62
     0
100
AcDbPoint
 10
4984.653931325548
 20
3983.761056152547
 30
0.0
  0
POINT
  5
84E8
330
845E
100
AcDbEntity
  8
DEFPOINTS
 62
     0
100
AcDbPoint
 10
4984.653931325548
 20
4041.50090881768
 30
0.0
  0
ENDBLK
  5
8460
330
845E
100
AcDbEntity
  8
0
100
AcDbBlockEnd
  0
BLOCK
  5
846C
330
846B
100
AcDbEntity
  8
0
100
AcDbBlockBegin
  2
*D26
 70
     1
 10
0.0
 20
0.0
 30
0.0
  3
*D26
  1

  0
LINE
  5
84E9
330
846B
100
AcDbEntity
  8
3
 62
     0
370
    -2
100
AcDbLine
 10
4984.653931325548
 20
4013.761056152547
 30
0.0
 11
4984.653931325548
 21
4071.500908817681
 31
0.0
  0
LINE
  5
84EA
330
846B
100
AcDbEntity
  8
3
 62
     0
370
    -2
100
AcDbLine
 10
5664.653931325545
 20
3062.478022216089
 30
0.0
 11
5664.653931325545
 21
4071.500908817681
 31
0.0
  0
LINE
  5
84EB
330
846B
100
AcDbEntity
  8
3
 62
     0
370
    -2
100
AcDbLine
 10
5044.653931325548
 20
4041.50090881768
 30
0.0
 11
5604.653931325544
 21
4041.50090881768
 31
0.0
  0
INSERT
  5
84EC
330
846B
100
AcDbEntity
  8
3
 62
     0
370
    -2
100
AcDbBlockReference
  2
_OPEN
 10
4984.653931325548
 20
4041.50090881768
 30
0.0
 41
60.0
 42
60.0
 43
60.0
 50
180.0
  0
INSERT
  5
84ED
330
846B
100
AcDbEntity
  8
3
 62
     0
370
    -2
100
AcDbBlockReference
  2
_OPEN
 10
5664.653931325545
 20
4041.50090881768
 30
0.0
 41
60.0
 42
60.0
 43
60.0
  0
MTEXT
  5
84EE
330
846B
100
AcDbEntity
  8
3
 62
     0
100
AcDbMText
 10
5324.653931325546
 20
4140.072337389109
 30
0.0
 40
90.0
 41
0.0
 71
     5
 72
     1
  1
\A1;(680)
 73
     1
 44
1.0
1001
ACAD
1000
MTEXTBEGIN
1070
    73
1070
     1
1070
    44
1040
1.0
1070
    74
1070
     0
1000
MTEXTEND
  0
POINT
  5
84EF
330
846B
100
AcDbEntity
  8
DEFPOINTS
 62
     0
100
AcDbPoint
 10
4984.653931325548
 20
3983.761056152547
 30
0.0
  0
POINT
  5
84F0
330
846B
100
AcDbEntity
  8
DEFPOINTS
 62
     0
100
AcDbPoint
 10
5664.653931325545
 20
3032.478022216089
 30
0.0
  0
POINT
  5
84F1
330
846B
100
AcDbEntity
  8
DEFPOINTS
 62
     0
100
AcDbPoint
 10
5664.653931325545
 20
4041.50090881768
 30
0.0
  0
ENDBLK
  5
846D
330
846B
100
AcDbEntity
  8
0
100
AcDbBlockEnd
  0
BLOCK
  5
8479
330
8478
100
AcDbEntity
  8
0
100
AcDbBlockBegin
  2
*D27
 70
     1
 10
0.0
 20
0.0
 30
0.0
  3
*D27
  1

  0
LINE
  5
847B
330
8478
100
AcDbEntity
  8
3
 62
     0
370
    -2
100
AcDbLine
 10
4424.653931325547
 20
3721.978022216088
 30
0.0
 11
4424.653931325547
 21
3893.761056152547
 31
0.0
  0
LINE
  5
847C
330
8478
100
AcDbEntity
  8
3
 62
     0
370
    -2
100
AcDbLine
 10
5544.653931325547
 20
3721.978022216088
 30
0.0
 11
5544.653931325547
 21
3893.761056152547
 31
0.0
  0
LINE
  5
847D
330
8478
100
AcDbEntity
  8
3
 62
     0
370
    -2
100
AcDbLine
 10
4484.653931325547
 20
3863.761056152547
 30
0.0
 11
5484.653931325547
 21
3863.761056152547
 31
0.0
  0
INSERT
  5
847E
330
8478
100
AcDbEntity
  8
3
 62
     0
370
    -2
100
AcDbBlockReference
  2
_OPEN
 10
4424.653931325547
 20
3863.761056152547
 30
0.0
 41
60.0
 42
60.0
 43
60.0
 50
180.0
  0
INSERT
  5
847F
330
8478
100
AcDbEntity
  8
3
 62
     0
370
    -2
100
AcDbBlockReference
  2
_OPEN
 10
5544.653931325547
 20
3863.761056152547
 30
0.0
 41
60.0
 42
60.0
 43
60.0
  0
MTEXT
  5
8480
330
8478
100
AcDbEntity
  8
3
 62
     0
100
AcDbMText
 10
4984.653931325547
 20
3938.761056152547
 30
0.0
 40
90.0
 41
0.0
 71
     5
 72
     1
  1
\A1;1120
 73
     1
 44
1.0
1001
ACAD
1000
MTEXTBEGIN
1070
    73
1070
     1
1070
    44
1040
1.0
1070
    74
1070
     0
1000
MTEXTEND
  0
POINT
  5
8481
330
8478
100
AcDbEntity
  8
DEFPOINTS
 62
     0
100
AcDbPoint
 10
4424.653931325547
 20
3691.978022216089
 30
0.0
  0
POINT
  5
8482
330
8478
100
AcDbEntity
  8
DEFPOINTS
 62
     0
100
AcDbPoint
 10
5544.653931325547
 20
3691.978022216089
 30
0.0
  0
POINT
  5
8483
330
8478
100
AcDbEntity
  8
DEFPOINTS
 62
     0
100
AcDbPoint
 10
5544.653931325547
 20
3863.761056152547
 30
0.0
  0
ENDBLK
  5
847A
330
8478
100
AcDbEntity
  8
0
100
AcDbBlockEnd
  0
BLOCK
  5
848A
330
8489
100
AcDbEntity
  8
0
100
AcDbBlockBegin
  2
*D28
 70
     1
 10
0.0
 20
0.0
 30
0.0
  3
*D28
  1

  0
LINE
  5
84A1
330
8489
100
AcDbEntity
  8
3
 62
     0
370
    -2
100
AcDbLine
 10
5574.653931325547
 20
3546.978022216089
 30
0.0
 11
5957.465754604665
 21
3546.978022216089
 31
0.0
  0
LINE
  5
84A2
330
8489
100
AcDbEntity
  8
3
 62
     0
370
    -2
100
AcDbLine
 10
5574.653931325547
 20
2596.978022216088
 30
0.0
 11
5957.465754604665
 21
2596.978022216088
 31
0.0
  0
LINE
  5
84A3
330
8489
100
AcDbEntity
  8
3
 62
     0
370
    -2
100
AcDbLine
 10
5927.465754604665
 20
3486.978022216089
 30
0.0
 11
5927.465754604665
 21
2656.978022216089
 31
0.0
  0
INSERT
  5
84A4
330
8489
100
AcDbEntity
  8
3
 62
     0
370
    -2
100
AcDbBlockReference
  2
_OPEN
 10
5927.465754604665
 20
3546.978022216089
 30
0.0
 41
60.0
 42
60.0
 43
60.0
 50
90.0
  0
INSERT
  5
84A5
330
8489
100
AcDbEntity
  8
3
 62
     0
370
    -2
100
AcDbBlockReference
  2
_OPEN
 10
5927.465754604665
 20
2596.978022216088
 30
0.0
 41
60.0
 42
60.0
 43
60.0
 50
270.0
  0
MTEXT
  5
84A6
330
8489
100
AcDbEntity
  8
3
 62
     0
100
AcDbMText
 10
5852.465754604665
 20
3071.978022216089
 30
0.0
 40
90.0
 41
0.0
 71
     5
 72
     1
  1
\A1;\U+03C6950
 11
0.0000000000000001
 21
1.0
 31
0.0
 73
     1
 44
1.0
1001
ACAD
1000
MTEXTBEGIN
1070
    73
1070
     1
1070
    44
1040
1.0
1070
    74
1070
     0
1000
MTEXTEND
  0
POINT
  5
84A7
330
8489
100
AcDbEntity
  8
DEFPOINTS
 62
     0
100
AcDbPoint
 10
5544.653931325547
 20
3546.978022216089
 30
0.0
  0
POINT
  5
84A8
330
8489
100
AcDbEntity
  8
DEFPOINTS
 62
     0
100
AcDbPoint
 10
5544.653931325547
 20
2596.978022216088
 30
0.0
  0
POINT
  5
84A9
330
8489
100
AcDbEntity
  8
DEFPOINTS
 62
     0
100
AcDbPoint
 10
5927.465754604665
 20
2596.978022216088
 30
0.0
  0
ENDBLK
  5
848B
330
8489
100
AcDbEntity
  8
0
100
AcDbBlockEnd
  0
BLOCK
  5
84F3
330
84F2
100
AcDbEntity
  8
0
100
AcDbBlockBegin
  2
*D29
 70
     1
 10
0.0
 20
0.0
 30
0.0
  3
*D29
  1

  0
LINE
  5
84F5
330
84F2
100
AcDbEntity
  8
3
 62
     0
370
    -2
100
AcDbLine
 10
867.4942023340097
 20
4739.801946236005
 30
0.0
 11
867.4942023340097
 21
4339.129786753933
 31
0.0
  0
LINE
  5
84F6
330
84F2
100
AcDbEntity
  8
3
 62
     0
370
    -2
100
AcDbLine
 10
2737.49420233401
 20
4739.801946236005
 30
0.0
 11
2737.49420233401
 21
4339.129786753933
 31
0.0
  0
LINE
  5
84F7
330
84F2
100
AcDbEntity
  8
3
 62
     0
370
    -2
100
AcDbLine
 10
872.8942023340097
 20
4344.529786753933
 30
0.0
 11
1790.79420233401
 21
4344.529786753933
 31
0.0
  0
LINE
  5
84F8
330
84F2
100
AcDbEntity
  8
3
 62
     0
370
    -2
100
AcDbLine
 10
2732.09420233401
 20
4344.529786753933
 30
0.0
 11
1814.19420233401
 21
4344.529786753933
 31
0.0
  0
SOLID
  5
84F9
330
84F2
100
AcDbEntity
  8
3
 62
     0
100
AcDbTrace
 10
872.8942023340097
 20
4345.429786753932
 30
0.0
 11
872.8942023340097
 21
4343.629786753933
 31
0.0
 12
867.4942023340097
 22
4344.529786753933
 32
0.0
 13
867.4942023340097
 23
4344.529786753933
 33
0.0
  0
SOLID
  5
84FA
330
84F2
100
AcDbEntity
  8
3
 62
     0
100
AcDbTrace
 10
2732.09420233401
 20
4345.429786753932
 30
0.0
 11
2732.09420233401
 21
4343.629786753933
 31
0.0
 12
2737.49420233401
 22
4344.529786753933
 32
0.0
 13
2737.49420233401
 23
4344.529786753933
 33
0.0
  0
MTEXT
  5
84FB
330
84F2
100
AcDbEntity
  8
3
 62
     0
100
AcDbMText
 10
1802.49420233401
 20
4344.529786753933
 30
0.0
 40
5.399999999999999
 41
0.0
 71
     5
 72
     1
  1
\A1;1870
 73
     1
 44
1.0
1001
ACAD
1000
MTEXTBEGIN
1070
    73
1070
     1
1070
    44
1040
1.0
1070
    74
1070
     0
1000
MTEXTEND
  0
POINT
  5
84FC
330
84F2
100
AcDbEntity
  8
DEFPOINTS
 62
     0
100
AcDbPoint
 10
867.4942023340097
 20
4741.676946236006
 30
0.0
  0
POINT
  5
84FD
330
84F2
100
AcDbEntity
  8
DEFPOINTS
 62
     0
100
AcDbPoint
 10
2737.49420233401
 20
4741.676946236006
 30
0.0
  0
POINT
  5
84FE
330
84F2
100
AcDbEntity
  8
DEFPOINTS
 62
     0
100
AcDbPoint
 10
2737.49420233401
 20
4344.529786753933
 30
0.0
  0
ENDBLK
  5
84F4
330
84F2
100
AcDbEntity
  8
0
100
AcDbBlockEnd
  0
BLOCK
  5
8501
330
8500
100
AcDbEntity
  8
0
100
AcDbBlockBegin
  2
*D30
 70
     1
 10
0.0
 20
0.0
 30
0.0
  3
*D30
  1

  0
LINE
  5
8503
330
8500
100
AcDbEntity
  8
3
 62
     0
370
    -2
100
AcDbLine
 10
867.494202334009
 20
4711.676946236006
 30
0.0
 11
867.494202334009
 21
4314.529786753933
 31
0.0
  0
LINE
  5
8504
330
8500
100
AcDbEntity
  8
3
 62
     0
370
    -2
100
AcDbLine
 10
2737.494202334008
 20
4711.676946236006
 30
0.0
 11
2737.494202334008
 21
4314.529786753933
 31
0.0
  0
LINE
  5
8505
330
8500
100
AcDbEntity
  8
3
 62
     0
370
    -2
100
AcDbLine
 10
927.494202334009
 20
4344.529786753933
 30
0.0
 11
2677.494202334008
 21
4344.529786753933
 31
0.0
  0
INSERT
  5
8506
330
8500
100
AcDbEntity
  8
3
 62
     0
370
    -2
100
AcDbBlockReference
  2
_OPEN
 10
867.494202334009
 20
4344.529786753933
 30
0.0
 41
60.0
 42
60.0
 43
60.0
 50
180.0
  0
INSERT
  5
8507
330
8500
100
AcDbEntity
  8
3
 62
     0
370
    -2
100
AcDbBlockReference
  2
_OPEN
 10
2737.494202334008
 20
4344.529786753933
 30
0.0
 41
60.0
 42
60.0
 43
60.0
  0
MTEXT
  5
8508
330
8500
100
AcDbEntity
  8
3
 62
     0
100
AcDbMText
 10
1802.494202334008
 20
4419.529786753932
 30
0.0
 40
90.0
 41
0.0
 71
     5
 72
     1
  1
\A1;1870
 73
     1
 44
1.0
1001
ACAD
1000
MTEXTBEGIN
1070
    73
1070
     1
1070
    44
1040
1.0
1070
    74
1070
     0
1000
MTEXTEND
  0
POINT
  5
8509
330
8500
100
AcDbEntity
  8
DEFPOINTS
 62
     0
100
AcDbPoint
 10
867.494202334009
 20
4741.676946236006
 30
0.0
  0
POINT
  5
850A
330
8500
100
AcDbEntity
  8
DEFPOINTS
 62
     0
100
AcDbPoint
 10
2737.494202334008
 20
4741.676946236006
 30
0.0
  0
POINT
  5
850B
330
8500
100
AcDbEntity
  8
DEFPOINTS
 62
     0
100
AcDbPoint
 10
2737.494202334008
 20
4344.529786753933
 30
0.0
  0
ENDBLK
  5
8502
330
8500
100
AcDbEntity
  8
0
100
AcDbBlockEnd
  0
BLOCK
  5
850E
330
850D
100
AcDbEntity
  8
0
100
AcDbBlockBegin
  2
*D31
 70
     1
 10
0.0
 20
0.0
 30
0.0
  3
*D31
  1

  0
LINE
  5
8510
330
850D
100
AcDbEntity
  8
3
 62
     0
370
    -2
100
AcDbLine
 10
2767.494202334008
 20
4741.676946236006
 30
0.0
 11
3067.918424500425
 21
4741.676946236006
 31
0.0
  0
LINE
  5
8511
330
850D
100
AcDbEntity
  8
3
 62
     0
370
    -2
100
AcDbLine
 10
2767.494202334008
 20
6116.676946236006
 30
0.0
 11
3067.918424500425
 21
6116.676946236006
 31
0.0
  0
LINE
  5
8512
330
850D
100
AcDbEntity
  8
3
 62
     0
370
    -2
100
AcDbLine
 10
3037.918424500424
 20
4801.676946236006
 30
0.0
 11
3037.918424500425
 21
6056.676946236006
 31
0.0
  0
INSERT
  5
8513
330
850D
100
AcDbEntity
  8
3
 62
     0
370
    -2
100
AcDbBlockReference
  2
_OPEN
 10
3037.918424500424
 20
4741.676946236006
 30
0.0
 41
60.0
 42
60.0
 43
60.0
 50
270.0
  0
INSERT
  5
8514
330
850D
100
AcDbEntity
  8
3
 62
     0
370
    -2
100
AcDbBlockReference
  2
_OPEN
 10
3037.918424500425
 20
6116.676946236006
 30
0.0
 41
60.0
 42
60.0
 43
60.0
 50
90.0
  0
MTEXT
  5
8515
330
850D
100
AcDbEntity
  8
3
 62
     0
100
AcDbMText
 10
2962.918424500424
 20
5429.176946236007
 30
0.0
 40
90.0
 41
0.0
 71
     5
 72
     1
  1
\A1;1375
 11
0.0000000000000001
 21
1.0
 31
0.0
 73
     1
 44
1.0
1001
ACAD
1000
MTEXTBEGIN
1070
    73
1070
     1
1070
    44
1040
1.0
1070
    74
1070
     0
1000
MTEXTEND
  0
POINT
  5
8516
330
850D
100
AcDbEntity
  8
DEFPOINTS
 62
     0
100
AcDbPoint
 10
2737.494202334008
 20
4741.676946236006
 30
0.0
  0
POINT
  5
8517
330
850D
100
AcDbEntity
  8
DEFPOINTS
 62
     0
100
AcDbPoint
 10
2737.494202334008
 20
6116.676946236006
 30
0.0
  0
POINT
  5
8518
330
850D
100
AcDbEntity
  8
DEFPOINTS
 62
     0
100
AcDbPoint
 10
3037.918424500425
 20
6116.676946236006
 30
0.0
  0
ENDBLK
  5
850F
330
850D
100
AcDbEntity
  8
0
100
AcDbBlockEnd
  0
BLOCK
  5
851B
330
851A
100
AcDbEntity
  8
0
100
AcDbBlockBegin
  2
*D32
 70
     1
 10
0.0
 20
0.0
 30
0.0
  3
*D32
  1

  0
LINE
  5
851D
330
851A
100
AcDbEntity
  8
3
 62
     0
370
    -2
100
AcDbLine
 10
2737.49420233401
 20
6146.676946236006
 30
0.0
 11
2737.49420233401
 21
6448.691604741227
 31
0.0
  0
LINE
  5
851E
330
851A
100
AcDbEntity
  8
3
 62
     0
370
    -2
100
AcDbLine
 10
1617.49420233401
 20
6146.676946236006
 30
0.0
 11
1617.49420233401
 21
6448.691604741227
 31
0.0
  0
LINE
  5
851F
330
851A
100
AcDbEntity
  8
3
 62
     0
370
    -2
100
AcDbLine
 10
2677.49420233401
 20
6418.691604741228
 30
0.0
 11
1677.49420233401
 21
6418.691604741228
 31
0.0
  0
INSERT
  5
8520
330
851A
100
AcDbEntity
  8
3
 62
     0
370
    -2
100
AcDbBlockReference
  2
_OPEN
 10
2737.49420233401
 20
6418.691604741228
 30
0.0
 41
60.0
 42
60.0
 43
60.0
  0
INSERT
  5
8521
330
851A
100
AcDbEntity
  8
3
 62
     0
370
    -2
100
AcDbBlockReference
  2
_OPEN
 10
1617.49420233401
 20
6418.691604741228
 30
0.0
 41
60.0
 42
60.0
 43
60.0
 50
180.0
  0
MTEXT
  5
8522
330
851A
100
AcDbEntity
  8
3
 62
     0
100
AcDbMText
 10
2177.49420233401
 20
6493.691604741228
 30
0.0
 40
90.0
 41
0.0
 71
     5
 72
     1
  1
\A1;1120
 73
     1
 44
1.0
1001
ACAD
1000
MTEXTBEGIN
1070
    73
1070
     1
1070
    44
1040
1.0
1070
    74
1070
     0
1000
MTEXTEND
  0
POINT
  5
8523
330
851A
100
AcDbEntity
  8
DEFPOINTS
 62
     0
100
AcDbPoint
 10
2737.49420233401
 20
6116.676946236006
 30
0.0
  0
POINT
  5
8524
330
851A
100
AcDbEntity
  8
DEFPOINTS
 62
     0
100
AcDbPoint
 10
1617.49420233401
 20
6116.676946236006
 30
0.0
  0
POINT
  5
8525
330
851A
100
AcDbEntity
  8
DEFPOINTS
 62
     0
100
AcDbPoint
 10
1617.49420233401
 20
6418.691604741228
 30
0.0
  0
ENDBLK
  5
851C
330
851A
100
AcDbEntity
  8
0
100
AcDbBlockEnd
  0
BLOCK
  5
8528
330
8527
100
AcDbEntity
  8
0
100
AcDbBlockBegin
  2
*D33
 70
     1
 10
0.0
 20
0.0
 30
0.0
  3
*D33
  1

  0
LINE
  5
852A
330
8527
100
AcDbEntity
  8
3
 62
     0
370
    -2
100
AcDbLine
 10
1617.49420233401
 20
6146.676946236006
 30
0.0
 11
1617.49420233401
 21
6448.691604741227
 31
0.0
  0
LINE
  5
852B
330
8527
100
AcDbEntity
  8
3
 62
     0
370
    -2
100
AcDbLine
 10
867.4942023340097
 20
5571.676946236008
 30
0.0
 11
867.4942023340097
 21
6448.691604741227
 31
0.0
  0
LINE
  5
852C
330
8527
100
AcDbEntity
  8
3
 62
     0
370
    -2
100
AcDbLine
 10
1557.49420233401
 20
6418.691604741228
 30
0.0
 11
927.4942023340097
 21
6418.691604741228
 31
0.0
  0
INSERT
  5
852D
330
8527
100
AcDbEntity
  8
3
 62
     0
370
    -2
100
AcDbBlockReference
  2
_OPEN
 10
1617.49420233401
 20
6418.691604741228
 30
0.0
 41
60.0
 42
60.0
 43
60.0
  0
INSERT
  5
852E
330
8527
100
AcDbEntity
  8
3
 62
     0
370
    -2
100
AcDbBlockReference
  2
_OPEN
 10
867.4942023340097
 20
6418.691604741228
 30
0.0
 41
60.0
 42
60.0
 43
60.0
 50
180.0
  0
MTEXT
  5
852F
330
8527
100
AcDbEntity
  8
3
 62
     0
100
AcDbMText
 10
1242.49420233401
 20
6493.691604741228
 30
0.0
 40
90.0
 41
0.0
 71
     5
 72
     1
  1
\A1;750
 73
     1
 44
1.0
1001
ACAD
1000
MTEXTBEGIN
1070
    73
1070
     1
1070
    44
1040
1.0
1070
    74
1070
     0
1000
MTEXTEND
  0
POINT
  5
8530
330
8527
100
AcDbEntity
  8
DEFPOINTS
 62
     0
100
AcDbPoint
 10
1617.49420233401
 20
6116.676946236006
 30
0.0
  0
POINT
  5
8531
330
8527
100
AcDbEntity
  8
DEFPOINTS
 62
     0
100
AcDbPoint
 10
867.4942023340097
 20
5541.676946236008
 30
0.0
  0
POINT
  5
8532
330
8527
100
AcDbEntity
  8
DEFPOINTS
 62
     0
100
AcDbPoint
 10
867.4942023340097
 20
6418.691604741228
 30
0.0
  0
ENDBLK
  5
8529
330
8527
100
AcDbEntity
  8
0
100
AcDbBlockEnd
  0
BLOCK
  5
8535
330
8534
100
AcDbEntity
  8
0
100
AcDbBlockBegin
  2
*D34
 70
     1
 10
0.0
 20
0.0
 30
0.0
  3
*D34
  1

  0
LINE
  5
8537
330
8534
100
AcDbEntity
  8
3
 62
     0
370
    -2
100
AcDbLine
 10
837.4942023340089
 20
4741.676946236006
 30
0.0
 11
647.6426948674743
 21
4741.676946236006
 31
0.0
  0
LINE
  5
8538
330
8534
100
AcDbEntity
  8
3
 62
     0
370
    -2
100
AcDbLine
 10
837.4942023340096
 20
5541.676946236008
 30
0.0
 11
647.6426948674745
 21
5541.676946236008
 31
0.0
  0
LINE
  5
8539
330
8534
100
AcDbEntity
  8
3
 62
     0
370
    -2
100
AcDbLine
 10
677.6426948674743
 20
4801.676946236006
 30
0.0
 11
677.6426948674745
 21
5481.676946236007
 31
0.0
  0
INSERT
  5
853A
330
8534
100
AcDbEntity
  8
3
 62
     0
370
    -2
100
AcDbBlockReference
  2
_OPEN
 10
677.6426948674743
 20
4741.676946236006
 30
0.0
 41
60.0
 42
60.0
 43
60.0
 50
270.0
  0
INSERT
  5
853B
330
8534
100
AcDbEntity
  8
3
 62
     0
370
    -2
100
AcDbBlockReference
  2
_OPEN
 10
677.6426948674745
 20
5541.676946236008
 30
0.0
 41
60.0
 42
60.0
 43
60.0
 50
90.0
  0
MTEXT
  5
853C
330
8534
100
AcDbEntity
  8
3
 62
     0
100
AcDbMText
 10
602.6426948674736
 20
5141.676946236007
 30
0.0
 40
90.0
 41
0.0
 71
     5
 72
     1
  1
\A1;800
 11
0.0000000000000001
 21
1.0
 31
0.0
 73
     1
 44
1.0
1001
ACAD
1000
MTEXTBEGIN
1070
    73
1070
     1
1070
    44
1040
1.0
1070
    74
1070
     0
1000
MTEXTEND
  0
POINT
  5
853D
330
8534
100
AcDbEntity
  8
DEFPOINTS
 62
     0
100
AcDbPoint
 10
867.494202334009
 20
4741.676946236006
 30
0.0
  0
POINT
  5
853E
330
8534
100
AcDbEntity
  8
DEFPOINTS
 62
     0
100
AcDbPoint
 10
867.4942023340097
 20
5541.676946236008
 30
0.0
  0
POINT
  5
853F
330
8534
100
AcDbEntity
  8
DEFPOINTS
 62
     0
100
AcDbPoint
 10
677.6426948674745
 20
5541.676946236008
 30
0.0
  0
ENDBLK
  5
8536
330
8534
100
AcDbEntity
  8
0
100
AcDbBlockEnd
  0
BLOCK
  5
8542
330
8541
100
AcDbEntity
  8
0
100
AcDbBlockBegin
  2
*D35
 70
     1
 10
0.0
 20
0.0
 30
0.0
  3
*D35
  1

  0
LINE
  5
8544
330
8541
100
AcDbEntity
  8
3
 62
     0
370
    -2
100
AcDbLine
 10
1216.494202334008
 20
3721.978022216088
 30
0.0
 11
1216.494202334008
 21
3871.593130659299
 31
0.0
  0
LINE
  5
8545
330
8541
100
AcDbEntity
  8
3
 62
     0
370
    -2
100
AcDbLine
 10
2141.494202334008
 20
3721.978022216088
 30
0.0
 11
2141.494202334008
 21
3871.593130659299
 31
0.0
  0
LINE
  5
8546
330
8541
100
AcDbEntity
  8
3
 62
     0
370
    -2
100
AcDbLine
 10
1276.494202334008
 20
3841.593130659299
 30
0.0
 11
2081.494202334008
 21
3841.593130659299
 31
0.0
  0
INSERT
  5
8547
330
8541
100
AcDbEntity
  8
3
 62
     0
370
    -2
100
AcDbBlockReference
  2
_OPEN
 10
1216.494202334008
 20
3841.593130659299
 30
0.0
 41
60.0
 42
60.0
 43
60.0
 50
180.0
  0
INSERT
  5
8548
330
8541
100
AcDbEntity
  8
3
 62
     0
370
    -2
100
AcDbBlockReference
  2
_OPEN
 10
2141.494202334008
 20
3841.593130659299
 30
0.0
 41
60.0
 42
60.0
 43
60.0
  0
MTEXT
  5
8549
330
8541
100
AcDbEntity
  8
3
 62
     0
100
AcDbMText
 10
1678.994202334008
 20
3916.593130659299
 30
0.0
 40
90.0
 41
0.0
 71
     5
 72
     1
  1
\A1;925
 73
     1
 44
1.0
1001
ACAD
1000
MTEXTBEGIN
1070
    73
1070
     1
1070
    44
1040
1.0
1070
    74
1070
     0
1000
MTEXTEND
  0
POINT
  5
854A
330
8541
100
AcDbEntity
  8
DEFPOINTS
 62
     0
100
AcDbPoint
 10
1216.494202334008
 20
3691.978022216089
 30
0.0
  0
POINT
  5
854B
330
8541
100
AcDbEntity
  8
DEFPOINTS
 62
     0
100
AcDbPoint
 10
2141.494202334008
 20
3691.978022216089
 30
0.0
  0
POINT
  5
854C
330
8541
100
AcDbEntity
  8
DEFPOINTS
 62
     0
100
AcDbPoint
 10
2141.494202334008
 20
3841.593130659299
 30
0.0
  0
ENDBLK
  5
8543
330
8541
100
AcDbEntity
  8
0
100
AcDbBlockEnd
  0
BLOCK
  5
854F
330
854E
100
AcDbEntity
  8
0
100
AcDbBlockBegin
  2
*D36
 70
     1
 10
0.0
 20
0.0
 30
0.0
  3
*D36
  1

  0
LINE
  5
8551
330
854E
100
AcDbEntity
  8
3
 62
     0
370
    -2
100
AcDbLine
 10
1216.494202334008
 20
3721.978022216088
 30
0.0
 11
1216.494202334008
 21
4021.936430757161
 31
0.0
  0
LINE
  5
8552
330
854E
100
AcDbEntity
  8
3
 62
     0
370
    -2
100
AcDbLine
 10
2177.494202334008
 20
3744.062890704765
 30
0.0
 11
2177.494202334008
 21
4021.936430757161
 31
0.0
  0
LINE
  5
8553
330
854E
100
AcDbEntity
  8
3
 62
     0
370
    -2
100
AcDbLine
 10
1276.494202334008
 20
3991.936430757161
 30
0.0
 11
2117.494202334007
 21
3991.936430757161
 31
0.0
  0
INSERT
  5
8554
330
854E
100
AcDbEntity
  8
3
 62
     0
370
    -2
100
AcDbBlockReference
  2
_OPEN
 10
1216.494202334008
 20
3991.936430757161
 30
0.0
 41
60.0
 42
60.0
 43
60.0
 50
180.0
  0
INSERT
  5
8555
330
854E
100
AcDbEntity
  8
3
 62
     0
370
    -2
100
AcDbBlockReference
  2
_OPEN
 10
2177.494202334008
 20
3991.936430757161
 30
0.0
 41
60.0
 42
60.0
 43
60.0
  0
MTEXT
  5
8556
330
854E
100
AcDbEntity
  8
3
 62
     0
100
AcDbMText
 10
1696.994202334008
 20
4066.936430757161
 30
0.0
 40
90.0
 41
0.0
 71
     5
 72
     1
  1
\A1;961
 73
     1
 44
1.0
1001
ACAD
1000
MTEXTBEGIN
1070
    73
1070
     1
1070
    44
1040
1.0
1070
    74
1070
     0
1000
MTEXTEND
  0
POINT
  5
8557
330
854E
100
AcDbEntity
  8
DEFPOINTS
 62
     0
100
AcDbPoint
 10
1216.494202334008
 20
3691.978022216089
 30
0.0
  0
POINT
  5
8558
330
854E
100
AcDbEntity
  8
DEFPOINTS
 62
     0
100
AcDbPoint
 10
2177.494202334008
 20
3714.062890704765
 30
0.0
  0
POINT
  5
8559
330
854E
100
AcDbEntity
  8
DEFPOINTS
 62
     0
100
AcDbPoint
 10
2177.494202334008
 20
3991.936430757161
 30
0.0
  0
ENDBLK
  5
8550
330
854E
100
AcDbEntity
  8
0
100
AcDbBlockEnd
  0
BLOCK
  5
855C
330
855B
100
AcDbEntity
  8
0
100
AcDbBlockBegin
  2
*D37
 70
     1
 10
0.0
 20
0.0
 30
0.0
  3
*D37
  1

  0
LINE
  5
855E
330
855B
100
AcDbEntity
  8
3
 62
     0
370
    -2
100
AcDbLine
 10
2177.494202334008
 20
3744.062890704765
 30
0.0
 11
2177.494202334008
 21
4021.936430757161
 31
0.0
  0
LINE
  5
855F
330
855B
100
AcDbEntity
  8
3
 62
     0
370
    -2
100
AcDbLine
 10
2820.494202334008
 20
3034.978022216089
 30
0.0
 11
2820.494202334008
 21
4021.936430757161
 31
0.0
  0
LINE
  5
8560
330
855B
100
AcDbEntity
  8
3
 62
     0
370
    -2
100
AcDbLine
 10
2237.494202334008
 20
3991.936430757161
 30
0.0
 11
2760.494202334008
 21
3991.936430757161
 31
0.0
  0
INSERT
  5
8561
330
855B
100
AcDbEntity
  8
3
 62
     0
370
    -2
100
AcDbBlockReference
  2
_OPEN
 10
2177.494202334008
 20
3991.936430757161
 30
0.0
 41
60.0
 42
60.0
 43
60.0
 50
180.0
  0
INSERT
  5
8562
330
855B
100
AcDbEntity
  8
3
 62
     0
370
    -2
100
AcDbBlockReference
  2
_OPEN
 10
2820.494202334008
 20
3991.936430757161
 30
0.0
 41
60.0
 42
60.0
 43
60.0
  0
MTEXT
  5
8563
330
855B
100
AcDbEntity
  8
3
 62
     0
100
AcDbMText
 10
2498.994202334008
 20
4066.936430757161
 30
0.0
 40
90.0
 41
0.0
 71
     5
 72
     1
  1
\A1;643
 73
     1
 44
1.0
1001
ACAD
1000
MTEXTBEGIN
1070
    73
1070
     1
1070
    44
1040
1.0
1070
    74
1070
     0
1000
MTEXTEND
  0
POINT
  5
8564
330
855B
100
AcDbEntity
  8
DEFPOINTS
 62
     0
100
AcDbPoint
 10
2177.494202334008
 20
3714.062890704765
 30
0.0
  0
POINT
  5
8565
330
855B
100
AcDbEntity
  8
DEFPOINTS
 62
     0
100
AcDbPoint
 10
2820.494202334008
 20
3004.978022216088
 30
0.0
  0
POINT
  5
8566
330
855B
100
AcDbEntity
  8
DEFPOINTS
 62
     0
100
AcDbPoint
 10
2820.494202334008
 20
3991.936430757161
 30
0.0
  0
ENDBLK
  5
855D
330
855B
100
AcDbEntity
  8
0
100
AcDbBlockEnd
  0
BLOCK
  5
8569
330
8568
100
AcDbEntity
  8
0
100
AcDbBlockBegin
  2
*D38
 70
     1
 10
0.0
 20
0.0
 30
0.0
  3
*D38
  1

  0
LINE
  5
856B
330
8568
100
AcDbEntity
  8
3
 62
     0
370
    -2
100
AcDbLine
 10
2213.994202334008
 20
3691.978022216089
 30
0.0
 11
3075.431187629272
 21
3691.978022216088
 31
0.0
  0
LINE
  5
856C
330
8568
100
AcDbEntity
  8
3
 62
     0
370
    -2
100
AcDbLine
 10
2863.749541112554
 20
3071.978022216089
 30
0.0
 11
3075.431187629272
 21
3071.978022216088
 31
0.0
  0
LINE
  5
856D
330
8568
100
AcDbEntity
  8
3
 62
     0
370
    -2
100
AcDbLine
 10
3045.431187629272
 20
3631.978022216089
 30
0.0
 11
3045.431187629272
 21
3131.978022216089
 31
0.0
  0
INSERT
  5
856E
330
8568
100
AcDbEntity
  8
3
 62
     0
370
    -2
100
AcDbBlockReference
  2
_OPEN
 10
3045.431187629272
 20
3691.978022216089
 30
0.0
 41
60.0
 42
60.0
 43
60.0
 50
90.0
  0
INSERT
  5
856F
330
8568
100
AcDbEntity
  8
3
 62
     0
370
    -2
100
AcDbBlockReference
  2
_OPEN
 10
3045.431187629271
 20
3071.978022216089
 30
0.0
 41
60.0
 42
60.0
 43
60.0
 50
270.0
  0
MTEXT
  5
8570
330
8568
100
AcDbEntity
  8
3
 62
     0
100
AcDbMText
 10
2970.431187629271
 20
3381.978022216089
 30
0.0
 40
90.0
 41
0.0
 71
     5
 72
     1
  1
\A1;620
 11
0.0000000000000001
 21
1.0
 31
0.0
 73
     1
 44
1.0
1001
ACAD
1000
MTEXTBEGIN
1070
    73
1070
     1
1070
    44
1040
1.0
1070
    74
1070
     0
1000
MTEXTEND
  0
POINT
  5
8571
330
8568
100
AcDbEntity
  8
DEFPOINTS
 62
     0
100
AcDbPoint
 10
2183.994202334008
 20
3691.978022216089
 30
0.0
  0
POINT
  5
8572
330
8568
100
AcDbEntity
  8
DEFPOINTS
 62
     0
100
AcDbPoint
 10
2833.749541112554
 20
3071.978022216089
 30
0.0
  0
POINT
  5
8573
330
8568
100
AcDbEntity
  8
DEFPOINTS
 62
     0
100
AcDbPoint
 10
3045.431187629271
 20
3071.978022216089
 30
0.0
  0
ENDBLK
  5
856A
330
8568
100
AcDbEntity
  8
0
100
AcDbBlockEnd
  0
BLOCK
  5
8576
330
8575
100
AcDbEntity
  8
0
100
AcDbBlockBegin
  2
*D39
 70
     1
 10
0.0
 20
0.0
 30
0.0
  3
*D39
  1

  0
LINE
  5
8578
330
8575
100
AcDbEntity
  8
3
 62
     0
370
    -2
100
AcDbLine
 10
2863.749541112554
 20
3071.978022216089
 30
0.0
 11
3075.431187629272
 21
3071.978022216088
 31
0.0
  0
LINE
  5
8579
330
8575
100
AcDbEntity
  8
3
 62
     0
370
    -2
100
AcDbLine
 10
2767.49420233401
 20
2251.978022216087
 30
0.0
 11
3075.431187629272
 21
2251.978022216087
 31
0.0
  0
LINE
  5
857A
330
8575
100
AcDbEntity
  8
3
 62
     0
370
    -2
100
AcDbLine
 10
3045.431187629271
 20
3011.978022216089
 30
0.0
 11
3045.431187629271
 21
2311.978022216087
 31
0.0
  0
INSERT
  5
857B
330
8575
100
AcDbEntity
  8
3
 62
     0
370
    -2
100
AcDbBlockReference
  2
_OPEN
 10
3045.431187629271
 20
3071.978022216089
 30
0.0
 41
60.0
 42
60.0
 43
60.0
 50
90.0
  0
INSERT
  5
857C
330
8575
100
AcDbEntity
  8
3
 62
     0
370
    -2
100
AcDbBlockReference
  2
_OPEN
 10
3045.431187629271
 20
2251.978022216087
 30
0.0
 41
60.0
 42
60.0
 43
60.0
 50
270.0
  0
MTEXT
  5
857D
330
8575
100
AcDbEntity
  8
3
 62
     0
100
AcDbMText
 10
2970.431187629271
 20
2661.978022216088
 30
0.0
 40
90.0
 41
0.0
 71
     5
 72
     1
  1
\A1;820
 11
0.0000000000000001
 21
1.0
 31
0.0
 73
     1
 44
1.0
1001
ACAD
1000
MTEXTBEGIN
1070
    73
1070
     1
1070
    44
1040
1.0
1070
    74
1070
     0
1000
MTEXTEND
  0
POINT
  5
857E
330
8575
100
AcDbEntity
  8
DEFPOINTS
 62
     0
100
AcDbPoint
 10
2833.749541112554
 20
3071.978022216089
 30
0.0
  0
POINT
  5
857F
330
8575
100
AcDbEntity
  8
DEFPOINTS
 62
     0
100
AcDbPoint
 10
2737.49420233401
 20
2251.978022216087
 30
0.0
  0
POINT
  5
8580
330
8575
100
AcDbEntity
  8
DEFPOINTS
 62
     0
100
AcDbPoint
 10
3045.431187629271
 20
2251.978022216087
 30
0.0
  0
ENDBLK
  5
8577
330
8575
100
AcDbEntity
  8
0
100
AcDbBlockEnd
  0
ENDSEC
  0
SECTION
  2
ENTITIES
  0
INSERT
  5
7C21
330
841B
100
AcDbEntity
  8
0
100
AcDbBlockReference
  2
YA_N
 10
6.0
 20
5.0
 30
0.0
  0
LINE
  5
7C23
330
841B
100
AcDbEntity
  8
2
100
AcDbLine
 10
2833.749541112554
 20
3071.978022216089
 30
0.0
 11
1127.482955132567
 21
3071.978022216089
 31
0.0
  0
LINE
  5
7C24
330
841B
100
AcDbEntity
  8
2
100
AcDbLine
 10
2177.494202334008
 20
3714.062890704765
 30
0.0
 11
2177.494202334008
 21
2251.978022216087
 31
0.0
  0
ARC
  5
7C25
330
841B
100
AcDbEntity
  8
1
100
AcDbCircle
 10
2110.494202334008
 20
3138.978022216088
 30
0.0
 40
844.0
100
AcDbArc
 50
184.553152387219
 51
248.8222963603614
  0
ARC
  5
7C26
330
841B
100
AcDbEntity
  8
1
100
AcDbCircle
 10
2110.494202334008
 20
3004.978022216088
 30
0.0
 40
710.0
100
AcDbArc
 50
293.1150645561642
 51
5.414841706129411
  0
ARC
  5
7C27
330
841B
100
AcDbEntity
  8
1
100
AcDbCircle
 10
2230.994202334008
 20
3018.478022216088
 30
0.0
 40
589.5
100
AcDbArc
 50
5.207036088349488
 51
95.20703608834947
  0
LINE
  5
7C28
330
841B
100
AcDbEntity
  8
1
100
AcDbLine
 10
1173.994202334008
 20
3691.978022216089
 30
0.0
 11
2183.994202334008
 21
3691.978022216089
 31
0.0
  0
LINE
  5
7C29
330
841B
100
AcDbEntity
  8
1
100
AcDbLine
 10
2141.494202334008
 20
3691.978022216089
 30
0.0
 11
2141.494202334008
 21
3606.767700500926
 31
0.0
  0
LINE
  5
7C2A
330
841B
100
AcDbEntity
  8
1
100
AcDbLine
 10
1216.494202334008
 20
3691.978022216089
 30
0.0
 11
1269.157765467043
 21
3071.978022216089
 31
0.0
  0
LINE
  5
7C2B
330
841B
100
AcDbEntity
  8
1
100
AcDbLine
 10
1173.994202334008
 20
3691.978022216089
 30
0.0
 11
1173.994202334008
 21
3688.978022216089
 31
0.0
  0
LINE
  5
7C2C
330
841B
100
AcDbEntity
  8
1
100
AcDbLine
 10
2183.994202334008
 20
3691.978022216089
 30
0.0
 11
2183.994202334008
 21
3688.978022216089
 31
0.0
  0
LINE
  5
7C2D
330
841B
100
AcDbEntity
  8
1
100
AcDbLine
 10
1219.891851568398
 20
3651.978022216088
 30
0.0
 11
2141.494202334008
 21
3651.978022216088
 31
0.0
  0
LINE
  5
7C2E
330
841B
100
AcDbEntity
  8
1
100
AcDbLine
 10
1173.994202334008
 20
3688.978022216089
 30
0.0
 11
2183.994202334008
 21
3688.978022216089
 31
0.0
  0
LINE
  5
7C2F
330
841B
100
AcDbEntity
  8
1
100
AcDbLine
 10
867.4942023340097
 20
2351.978022216087
 30
0.0
 11
867.4942023340097
 21
2251.978022216087
 31
0.0
  0
LINE
  5
7C30
330
841B
100
AcDbEntity
  8
1
100
AcDbLine
 10
2737.494202334008
 20
2351.978022216087
 30
0.0
 11
2737.494202334008
 21
2251.978022216087
 31
0.0
  0
LINE
  5
7C31
330
841B
100
AcDbEntity
  8
1
100
AcDbLine
 10
867.4942023340097
 20
2251.978022216087
 30
0.0
 11
2737.49420233401
 21
2251.978022216087
 31
0.0
1001
ACAD
1000
ASC_BOUNDS
1002
{
1070
    19
1002
}
  0
LINE
  5
7C32
330
841B
100
AcDbEntity
  8
1
100
AcDbLine
 10
867.4942023340097
 20
2351.978022216087
 30
0.0
 11
2737.49420233401
 21
2351.978022216087
 31
0.0
  0
LINE
  5
7C33
330
841B
100
AcDbEntity
  8
2
100
AcDbLine
 10
1117.494202334008
 20
2919.980513212191
 30
0.0
 11
1117.494202334008
 21
2251.978022216087
 31
0.0
  0
LINE
  5
7C34
330
841B
100
AcDbEntity
  8
2
100
AcDbLine
 10
756.5582342084135
 20
2626.978022216087
 30
0.0
 11
1332.337128787841
 21
2626.978022216087
 31
0.0
  0
LINE
  5
7C35
330
841B
100
AcDbEntity
  8
1
100
AcDbLine
 10
5544.653931325547
 20
3691.978022216089
 30
0.0
 11
5544.653931325547
 21
3107.978022216089
 31
0.0
  0
LINE
  5
7C36
330
841B
100
AcDbEntity
  8
1
100
AcDbLine
 10
4222.653931325537
 20
2251.978022216087
 30
0.0
 11
5597.653931325556
 21
2251.978022216087
 31
0.0
1001
ACAD
1000
ASC_BOUNDS
1002
{
1070
    19
1005
0
1005
0
1005
0
1005
0
1002
}
  0
LINE
  5
7C37
330
841B
100
AcDbEntity
  8
1
100
AcDbLine
 10
4222.653931325547
 20
2351.978022216087
 30
0.0
 11
5597.653931325547
 21
2351.978022216087
 31
0.0
  0
LINE
  5
7C38
330
841B
100
AcDbEntity
  8
1
100
AcDbLine
 10
4222.653931325547
 20
2351.978022216087
 30
0.0
 11
4222.653931325537
 21
2251.978022216087
 31
0.0
  0
LINE
  5
7C39
330
841B
100
AcDbEntity
  8
1
100
AcDbLine
 10
5597.653931325547
 20
2351.978022216087
 30
0.0
 11
5597.653931325556
 21
2251.978022216087
 31
0.0
  0
LINE
  5
7C3A
330
841B
100
AcDbEntity
  8
1
100
AcDbLine
 10
4984.653931325548
 20
3691.978022216089
 30
0.0
 11
5584.653931325547
 21
3691.978022216089
 31
0.0
  0
LINE
  5
7C3B
330
841B
100
AcDbEntity
  8
2
100
AcDbLine
 10
4042.074832679849
 20
3071.978022216089
 30
0.0
 11
5695.173579083284
 21
3071.978022216089
 31
0.0
  0
LINE
  5
7C3C
330
841B
100
AcDbEntity
  8
1
100
AcDbLine
 10
5535.153931325547
 20
2251.978022216087
 30
0.0
 11
5597.653931325556
 21
2251.978022216087
 31
0.0
1001
ACAD
1000
ASC_BOUNDS
1002
{
1070
    19
1005
0
1005
0
1002
}
  0
LINE
  5
7C3D
330
841B
100
AcDbEntity
  8
2
100
AcDbLine
 10
4984.653931325548
 20
3822.881881651485
 30
0.0
 11
4984.653931325546
 21
2251.978022216087
 31
0.0
  0
INSERT
  5
7C3F
330
841B
100
AcDbEntity
  8
0
100
AcDbBlockReference
  2
YA_N
 10
-1638.667820090515
 20
-980.7401201518075
 30
0.0
 41
20.0
 42
20.0
 43
20.0
  0
INSERT
  5
7C41
330
841B
100
AcDbEntity
  8
0
100
AcDbBlockReference
  2
YA_N
 10
-1552.816625123014
 20
-1070.405552057982
 30
0.0
 41
20.0
 42
20.0
 43
20.0
  0
ARC
  5
7C43
330
841B
100
AcDbEntity
  8
1
100
AcDbCircle
 10
1117.494202334008
 20
2626.978022216087
 30
0.0
 40
185.0
100
AcDbArc
 50
287.9452509999999
 51
252.054749
  0
LINE
  5
7C44
330
841B
100
AcDbEntity
  8
1
100
AcDbLine
 10
1174.494202334008
 20
2450.978022216087
 30
0.0
 11
1060.494202334008
 21
2450.978022216087
 31
0.0
  0
LINE
  5
7C46
330
841B
100
AcDbEntity
  8
1
100
AcDbLine
 10
1279.494202334008
 20
2522.237055216087
 30
0.0
 11
1279.494202334008
 21
2446.978022216087
 31
0.0
  0
LINE
  5
7C47
330
841B
100
AcDbEntity
  8
1
100
AcDbLine
 10
1219.994202334008
 20
2452.126581216087
 30
0.0
 11
1210.487488334009
 21
2467.049189216087
 31
0.0
  0
LINE
  5
7C4A
330
841B
100
AcDbEntity
  8
1
100
AcDbLine
 10
1219.994202334008
 20
2463.978022216088
 30
0.0
 11
1219.994202334008
 21
2446.978022216087
 31
0.0
  0
LINE
  5
7C4C
330
841B
100
AcDbEntity
  8
1
100
AcDbLine
 10
1222.994202334008
 20
2466.978022216087
 30
0.0
 11
1276.494202334008
 21
2466.978022216087
 31
0.0
  0
ARC
  5
7C4D
330
841B
100
AcDbEntity
  8
1
100
AcDbCircle
 10
1276.494202334008
 20
2463.978022216088
 30
0.0
 40
3.0
100
AcDbArc
 50
0.0
 51
90.0
  0
LINE
  5
7C54
330
841B
100
AcDbEntity
  8
1
100
AcDbLine
 10
1228.318115334008
 20
2466.978022216087
 30
0.0
 11
1223.138367334007
 21
2475.108637216087
 31
0.0
  0
ARC
  5
7C56
330
841B
100
AcDbEntity
  8
1
100
AcDbCircle
 10
1222.994202334008
 20
2463.978022216088
 30
0.0
 40
3.0
100
AcDbArc
 50
90.0
 51
180.0
  0
LINE
  5
7C57
330
841B
100
AcDbEntity
  8
1
100
AcDbLine
 10
1279.494202334008
 20
2522.237055216087
 30
0.0
 11
1273.110230334008
 21
2526.934809216087
 31
0.0
  0
LINE
  5
7C5C
330
841B
100
AcDbEntity
  8
1
100
AcDbLine
 10
1014.994202334008
 20
2452.126581216087
 30
0.0
 11
1024.500916334009
 21
2467.049189216087
 31
0.0
  0
LINE
  5
7C60
330
841B
100
AcDbEntity
  8
1
100
AcDbLine
 10
1014.994202334008
 20
2463.978022216088
 30
0.0
 11
1014.994202334008
 21
2446.978022216087
 31
0.0
  0
LINE
  5
7C61
330
841B
100
AcDbEntity
  8
1
100
AcDbLine
 10
955.494202334008
 20
2522.237055216087
 30
0.0
 11
955.494202334008
 21
2446.978022216087
 31
0.0
  0
LINE
  5
7C63
330
841B
100
AcDbEntity
  8
1
100
AcDbLine
 10
1011.994202334008
 20
2466.978022216087
 30
0.0
 11
958.4942023340079
 21
2466.978022216087
 31
0.0
  0
LINE
  5
7C65
330
841B
100
AcDbEntity
  8
1
100
AcDbLine
 10
1006.670288334008
 20
2466.978022216087
 30
0.0
 11
1011.850037334008
 21
2475.108637216087
 31
0.0
  0
ARC
  5
7C66
330
841B
100
AcDbEntity
  8
1
100
AcDbCircle
 10
1011.994202334008
 20
2463.978022216088
 30
0.0
 40
3.0
100
AcDbArc
 50
0.0
 51
90.0
  0
ARC
  5
7C67
330
841B
100
AcDbEntity
  8
1
100
AcDbCircle
 10
958.4942023340079
 20
2463.978022216088
 30
0.0
 40
3.0
100
AcDbArc
 50
90.0
 51
180.0
  0
LINE
  5
7C72
330
841B
100
AcDbEntity
  8
1
100
AcDbLine
 10
955.494202334008
 20
2522.237055216087
 30
0.0
 11
961.8781133340089
 21
2526.934809216087
 31
0.0
  0
LINE
  5
7C73
330
841B
100
AcDbEntity
  8
1
100
AcDbLine
 10
892.4942023340081
 20
2391.978022216088
 30
0.0
 11
1342.494202334008
 21
2391.978022216088
 31
0.0
  0
LINE
  5
7C74
330
841B
100
AcDbEntity
  8
1
100
AcDbLine
 10
917.4942023340079
 20
2391.978022216088
 30
0.0
 11
917.4942023340079
 21
2351.978022216087
 31
0.0
  0
LINE
  5
7C75
330
841B
100
AcDbEntity
  8
1
100
AcDbLine
 10
1317.494202334008
 20
2391.978022216088
 30
0.0
 11
1317.494202334008
 21
2351.978022216087
 31
0.0
  0
LINE
  5
7C76
330
841B
100
AcDbEntity
  8
1
100
AcDbLine
 10
907.3926639328856
 20
2446.978022216087
 30
0.0
 11
1047.494202334008
 21
2446.978022216087
 31
0.0
  0
LINE
  5
7C77
330
841B
100
AcDbEntity
  8
1
100
AcDbLine
 10
1342.494202334008
 20
2391.978022216088
 30
0.0
 11
1327.291885699496
 21
2446.978022216087
 31
0.0
  0
LINE
  5
7C78
330
841B
100
AcDbEntity
  8
1
100
AcDbLine
 10
892.4942023340081
 20
2391.978022216088
 30
0.0
 11
907.3926639328856
 21
2446.978022216087
 31
0.0
  0
LINE
  5
7C7A
330
841B
100
AcDbEntity
  8
1
100
AcDbLine
 10
1047.494202334008
 20
2436.978022216087
 30
0.0
 11
1187.494202334008
 21
2436.978022216087
 31
0.0
  0
LINE
  5
7C7B
330
841B
100
AcDbEntity
  8
1
100
AcDbLine
 10
1047.494202334008
 20
2446.978022216087
 30
0.0
 11
1047.494202334008
 21
2436.978022216087
 31
0.0
  0
LINE
  5
7C7C
330
841B
100
AcDbEntity
  8
1
100
AcDbLine
 10
1187.494202334008
 20
2446.978022216087
 30
0.0
 11
1187.494202334008
 21
2436.978022216087
 31
0.0
  0
LINE
  5
7C7D
330
841B
100
AcDbEntity
  8
1
100
AcDbLine
 10
1187.494202334008
 20
2446.978022216087
 30
0.0
 11
1327.291885699496
 21
2446.978022216087
 31
0.0
  0
POINT
  5
7C89
330
841B
100
AcDbEntity
  8
1
100
AcDbPoint
 10
2737.494202334008
 20
2251.978022216087
 30
0.0
  0
CIRCLE
  5
7C8A
330
841B
100
AcDbEntity
  8
1
100
AcDbCircle
 10
1117.494202334008
 20
2626.978022216087
 30
0.0
 40
119.0
  0
LINE
  5
7C8B
330
841B
100
AcDbEntity
  8
1
100
AcDbLine
 10
5544.653931325547
 20
3107.978022216087
 30
0.0
 11
5544.653931325547
 21
2351.978022216087
 31
0.0
  0
LINE
  5
7C8C
330
841B
100
AcDbEntity
  8
1
100
AcDbLine
 10
4424.653931325547
 20
3691.978022216089
 30
0.0
 11
4424.653931325547
 21
3071.978022216089
 31
0.0
  0
LINE
  5
7C8D
330
841B
100
AcDbEntity
  8
1
100
AcDbLine
 10
4984.653931325546
 20
3691.978022216089
 30
0.0
 11
4384.653931325545
 21
3691.978022216089
 31
0.0
  0
LINE
  5
7C8E
330
841B
100
AcDbEntity
  8
1
100
AcDbLine
 10
4424.653931325547
 20
3071.978022216089
 30
0.0
 11
4424.653931325547
 21
2351.978022216087
 31
0.0
  0
LINE
  5
7C8F
330
841B
100
AcDbEntity
  8
1
100
AcDbLine
 10
4296.653931325547
 20
3046.178022216087
 30
0.0
 11
4372.353931325545
 21
3046.178022216087
 31
0.0
  0
LINE
  5
7C90
330
841B
100
AcDbEntity
  8
1
100
AcDbLine
 10
4296.653931325548
 20
2896.178022216087
 30
0.0
 11
4372.353931325545
 21
2896.178022216087
 31
0.0
  0
LINE
  5
7C91
330
841B
100
AcDbEntity
  8
1
100
AcDbLine
 10
4286.653931325547
 20
3036.178022216089
 30
0.0
 11
4286.653931325548
 21
2906.178022216087
 31
0.0
  0
LINE
  5
7C92
330
841B
100
AcDbEntity
  8
1
100
AcDbLine
 10
4411.653931325544
 20
3046.178022216087
 30
0.0
 11
4411.653931325547
 21
2896.178022216087
 31
0.0
  0
ARC
  5
7C93
330
841B
100
AcDbEntity
  8
1
100
AcDbCircle
 10
4296.653931325547
 20
3036.178022216089
 30
0.0
 40
10.0
100
AcDbArc
 50
90.0
 51
180.0000000000003
  0
ARC
  5
7C94
330
841B
100
AcDbEntity
  8
1
100
AcDbCircle
 10
4296.653931325548
 20
2906.178022216087
 30
0.0
 40
10.0
100
AcDbArc
 50
180.0000000000003
 51
270.0
  0
LINE
  5
7C95
330
841B
100
AcDbEntity
  8
1
100
AcDbLine
 10
4372.353931325545
 20
2896.178022216087
 30
0.0
 11
4411.653931325547
 21
2896.178022216087
 31
0.0
  0
LINE
  5
7C96
330
841B
100
AcDbEntity
  8
1
100
AcDbLine
 10
4372.353931325545
 20
3046.178022216087
 30
0.0
 11
4411.653931325547
 21
3046.178022216087
 31
0.0
  0
LINE
  5
7C97
330
841B
100
AcDbEntity
  8
1
100
AcDbLine
 10
5664.653931325545
 20
3032.478022216089
 30
0.0
 11
5664.653931325545
 21
2932.478022216089
 31
0.0
  0
LINE
  5
7C98
330
841B
100
AcDbEntity
  8
1
100
AcDbLine
 10
5564.153931325547
 20
3042.478022216088
 30
0.0
 11
5564.153931325547
 21
2922.478022216088
 31
0.0
  0
LINE
  5
7C99
330
841B
100
AcDbEntity
  8
1
100
AcDbLine
 10
5564.153931325547
 20
3042.478022216088
 30
0.0
 11
5596.953931325547
 21
3042.478022216088
 31
0.0
  0
LINE
  5
7C9A
330
841B
100
AcDbEntity
  8
1
100
AcDbLine
 10
5564.153931325547
 20
2922.478022216088
 30
0.0
 11
5596.953931325547
 21
2922.478022216088
 31
0.0
  0
ARC
  5
7C9B
330
841B
100
AcDbEntity
  8
1
100
AcDbCircle
 10
5654.653931325545
 20
3032.478022216089
 30
0.0
 40
10.0
100
AcDbArc
 50
0.0000000000003257
 51
90.0
  0
ARC
  5
7C9C
330
841B
100
AcDbEntity
  8
1
100
AcDbCircle
 10
5654.653931325545
 20
2932.478022216089
 30
0.0
 40
10.0
100
AcDbArc
 50
270.0
 51
0.0000000000003257
  0
LINE
  5
7C9D
330
841B
100
AcDbEntity
  8
1
100
AcDbLine
 10
5596.953931325547
 20
2922.478022216088
 30
0.0
 11
5654.653931325545
 21
2922.478022216088
 31
0.0
  0
LINE
  5
7C9E
330
841B
100
AcDbEntity
  8
1
100
AcDbLine
 10
5596.953931325547
 20
3042.478022216088
 30
0.0
 11
5654.653931325545
 21
3042.478022216088
 31
0.0
  0
LINE
  5
7C9F
330
841B
100
AcDbEntity
  8
1
100
AcDbLine
 10
4271.653931325547
 20
3101.978022216087
 30
0.0
 11
4271.653931325547
 21
3041.978022216089
 31
0.0
  0
LINE
  5
7CA0
330
841B
100
AcDbEntity
  8
1
100
AcDbLine
 10
4266.653931325547
 20
3099.478022216088
 30
0.0
 11
4271.653931325547
 21
3099.478022216088
 31
0.0
  0
LINE
  5
7CA1
330
841B
100
AcDbEntity
  8
1
100
AcDbLine
 10
4266.653931325547
 20
3044.478022216089
 30
0.0
 11
4271.653931325547
 21
3044.478022216089
 31
0.0
  0
LINE
  5
7CA2
330
841B
100
AcDbEntity
  8
1
100
AcDbLine
 10
4156.653931325549
 20
3275.178022216088
 30
0.0
 11
4156.653931325542
 21
2507.978022216088
 31
0.0
  0
LINE
  5
7CA3
330
841B
100
AcDbEntity
  8
1
100
AcDbLine
 10
4266.653931325548
 20
3275.178022216088
 30
0.0
 11
4266.653931325541
 21
2507.978022216088
 31
0.0
  0
LINE
  5
7CA4
330
841B
100
AcDbEntity
  8
2
100
AcDbLine
 10
4124.009838858214
 20
2626.978022216087
 30
0.0
 11
4627.841449216972
 21
2626.978022216087
 31
0.0
  0
LINE
  5
7CA5
330
841B
100
AcDbEntity
  8
1
100
AcDbLine
 10
4156.653931325545
 20
2745.978022216088
 30
0.0
 11
4266.653931325545
 21
2745.978022216088
 31
0.0
  0
LINE
  5
7CA6
330
841B
100
AcDbEntity
  8
1
100
AcDbLine
 10
4156.653931325543
 20
2507.978022216088
 30
0.0
 11
4266.653931325543
 21
2507.978022216088
 31
0.0
  0
LINE
  5
7CA7
330
841B
100
AcDbEntity
  8
1
100
AcDbLine
 10
4034.653931325545
 20
3351.978022216088
 30
0.0
 11
4034.653931325549
 21
2406.978022216087
 31
0.0
  0
LINE
  5
7CA8
330
841B
100
AcDbEntity
  8
1
100
AcDbLine
 10
4034.653931325549
 20
2406.978022216087
 30
0.0
 11
4286.653931325551
 21
2406.978022216087
 31
0.0
  0
LINE
  5
7CA9
330
841B
100
AcDbEntity
  8
1
100
AcDbLine
 10
4286.653931325541
 20
3351.978022216088
 30
0.0
 11
4286.653931325544
 21
3331.978022216087
 31
0.0
  0
LINE
  5
7CAA
330
841B
100
AcDbEntity
  8
1
100
AcDbLine
 10
4286.653931325548
 20
2426.978022216087
 30
0.0
 11
4286.653931325548
 21
2406.978022216089
 31
0.0
  0
POINT
  5
7CAB
330
841B
100
AcDbEntity
  8
1
100
AcDbPoint
 10
5664.653931325545
 20
3032.478022216089
 30
0.0
  0
LINE
  5
7CAC
330
841B
100
AcDbEntity
  8
2
100
AcDbLine
 10
806.2577694881399
 20
5503.676946236007
 30
0.0
 11
2850.856280047006
 21
5503.676946236006
 31
0.0
  0
LINE
  5
7CAD
330
841B
100
AcDbEntity
  8
2
100
AcDbLine
 10
2177.494202334008
 20
4502.418237481719
 30
0.0
 11
2177.494202334008
 21
6038.185329107333
 31
0.0
  0
INSERT
  5
7CAE
330
841B
100
AcDbEntity
  8
0
100
AcDbBlockReference
  2
YA_N
 10
1902.396177633552
 20
-2784.746590060132
 30
0.0
  0
LINE
  5
7CB0
330
841B
100
AcDbEntity
  8
1
100
AcDbLine
 10
5597.653931325547
 20
2257.509527286754
 30
0.0
 11
5597.653931325547
 21
2251.978022216087
 31
0.0
  0
LINE
  5
7CB6
330
841B
100
AcDbEntity
  8
1
100
AcDbLine
 10
4271.653931325547
 20
3101.978022216087
 30
0.0
 11
4424.653931325547
 21
3101.978022216087
 31
0.0
  0
LINE
  5
7CB7
330
841B
100
AcDbEntity
  8
1
100
AcDbLine
 10
4271.653931325547
 20
3041.978022216089
 30
0.0
 11
4288.507766583779
 21
3041.978022216089
 31
0.0
  0
POINT
  5
7CBF
330
841B
100
AcDbEntity
  8
1
100
AcDbPoint
 10
2737.49420233401
 20
2251.978022216087
 30
0.0
  0
ARC
  5
7CC0
330
841B
100
AcDbEntity
  8
1
100
AcDbCircle
 10
2177.494202334008
 20
3071.978022216089
 30
0.0
 40
536.0
100
AcDbArc
 50
90.0
 51
93.85112312649772
  0
CIRCLE
  5
7CC1
330
841B
100
AcDbEntity
  8
1
100
AcDbCircle
 10
2177.494202334008
 20
3071.978022216089
 30
0.0
 40
203.2
  0
ARC
  5
7CC2
330
841B
100
AcDbEntity
  8
1
100
AcDbCircle
 10
2177.494202334008
 20
3071.978022216089
 30
0.0
 40
280.0
100
AcDbArc
 50
282.9341812137518
 51
109.1706668005613
  0
ARC
  5
7CC3
330
841B
100
AcDbEntity
  8
1
100
AcDbCircle
 10
1117.494202334008
 20
2626.978022216087
 30
0.0
 40
220.0
100
AcDbArc
 50
109.1706668005613
 51
282.9341812137518
  0
LINE
  5
7CC4
330
841B
100
AcDbEntity
  8
1
100
AcDbLine
 10
2106.563130054561
 20
3262.396043908593
 30
0.0
 11
1075.954844060119
 21
2738.492513266324
 31
0.0
  0
LINE
  5
7CC5
330
841B
100
AcDbEntity
  8
1
100
AcDbLine
 10
2218.611640338309
 20
2872.98154915196
 30
0.0
 11
1141.573804314874
 21
2510.439733364556
 31
0.0
  0
LINE
  5
7CC6
330
841B
100
AcDbEntity
  8
1
100
AcDbLine
 10
2240.167048692558
 20
2799.082228314244
 30
0.0
 11
1166.737153044297
 21
2412.559898436067
 31
0.0
  0
LINE
  5
7CC7
330
841B
100
AcDbEntity
  8
1
100
AcDbLine
 10
4156.653931325549
 20
3275.178022216088
 30
0.0
 11
4266.653931325548
 21
3275.178022216088
 31
0.0
  0
LINE
  5
7CC8
330
841B
100
AcDbEntity
  8
1
100
AcDbLine
 10
4156.653931325545
 20
2868.778022216088
 30
0.0
 11
4266.653931325545
 21
2868.778022216088
 31
0.0
  0
LINE
  5
7CC9
330
841B
100
AcDbEntity
  8
1
100
AcDbLine
 10
4034.653931325545
 20
3351.978022216088
 30
0.0
 11
4286.653931325541
 21
3351.978022216088
 31
0.0
  0
LINE
  5
7CCE
330
841B
100
AcDbEntity
  8
1
100
AcDbLine
 10
1617.49420233401
 20
6116.676946236007
 30
0.0
 11
2737.494202334008
 21
6116.676946236006
 31
0.0
  0
LINE
  5
7CCF
330
841B
100
AcDbEntity
  8
1
100
AcDbLine
 10
867.4942023340097
 20
4741.676946236006
 30
0.0
 11
2737.494202334008
 21
4741.676946236006
 31
0.0
  0
LINE
  5
7CD0
330
841B
100
AcDbEntity
  8
1
100
AcDbLine
 10
2737.49420233401
 20
4741.676946236006
 30
0.0
 11
2737.49420233401
 21
4943.676946236006
 31
0.0
  0
LINE
  5
7CD1
330
841B
100
AcDbEntity
  8
1
100
AcDbLine
 10
1617.49420233401
 20
6063.676946236006
 30
0.0
 11
1617.49420233401
 21
6116.676946236006
 31
0.0
  0
LINE
  5
7CD2
330
841B
100
AcDbEntity
  8
1
100
AcDbLine
 10
867.494202334009
 20
4741.676946236007
 30
0.0
 11
867.4942023340097
 21
5541.676946236008
 31
0.0
  0
LINE
  5
7CD3
330
841B
100
AcDbEntity
  8
1
100
AcDbLine
 10
867.4942023340097
 20
5541.676946236006
 30
0.0
 11
1216.494202334009
 21
5541.676946236007
 31
0.0
  0
LINE
  5
7CD4
330
841B
100
AcDbEntity
  8
2
100
AcDbLine
 10
1117.494202334009
 20
4429.101406057159
 30
0.0
 11
1117.494202334009
 21
5333.775288802218
 31
0.0
  0
CIRCLE
  5
7CDB
330
841B
100
AcDbEntity
  8
1
100
AcDbCircle
 10
2177.494202334008
 20
3071.978022216089
 30
0.0
 40
475.0
  0
CIRCLE
  5
7CDC
330
841B
100
AcDbEntity
  8
1
100
AcDbCircle
 10
2177.494202334008
 20
3071.978022216089
 30
0.0
 40
515.0
  0
LINE
  5
7CDD
330
841B
100
AcDbEntity
  8
1
100
AcDbLine
 10
2085.546928769047
 20
3336.450513950049
 30
0.0
 11
1045.249915961539
 21
2834.777837149914
 31
0.0
  0
LINE
  5
7CDF
330
841B
100
AcDbEntity
  8
1
100
AcDbLine
 10
897.4942023340082
 20
4553.676946236007
 30
0.0
 11
2457.494202334008
 21
4553.676946236006
 31
0.0
  0
LINE
  5
7CE0
330
841B
100
AcDbEntity
  8
1
100
AcDbLine
 10
897.4942023340082
 20
4843.676946236008
 30
0.0
 11
2457.494202334008
 21
4843.676946236006
 31
0.0
  0
LINE
  5
7CE1
330
841B
100
AcDbEntity
  8
1
100
AcDbLine
 10
998.494202334008
 20
4713.676946236008
 30
0.0
 11
1236.494202334008
 21
4713.676946236008
 31
0.0
  0
LINE
  5
7CE2
330
841B
100
AcDbEntity
  8
1
100
AcDbLine
 10
998.494202334008
 20
4823.676946236008
 30
0.0
 11
1236.494202334008
 21
4823.676946236008
 31
0.0
  0
LINE
  5
7CE3
330
841B
100
AcDbEntity
  8
1
100
AcDbLine
 10
2457.494202334008
 20
4553.676946236006
 30
0.0
 11
2457.494202334008
 21
4843.676946236006
 31
0.0
  0
LINE
  5
7CE4
330
841B
100
AcDbEntity
  8
1
100
AcDbLine
 10
897.4942023340082
 20
4553.676946236007
 30
0.0
 11
897.4942023340082
 21
4843.676946236008
 31
0.0
  0
LINE
  5
7CE5
330
841B
100
AcDbEntity
  8
1
100
AcDbLine
 10
2380.694202334008
 20
4713.676946236006
 30
0.0
 11
2380.694202334008
 21
4823.676946236006
 31
0.0
  0
LINE
  5
7CE6
330
841B
100
AcDbEntity
  8
1
100
AcDbLine
 10
1974.294202334007
 20
4713.676946236006
 30
0.0
 11
1974.294202334007
 21
4823.676946236006
 31
0.0
  0
LINE
  5
7CE7
330
841B
100
AcDbEntity
  8
1
100
AcDbLine
 10
1236.494202334008
 20
4713.676946236006
 30
0.0
 11
1236.494202334008
 21
4823.676946236008
 31
0.0
  0
LINE
  5
7CE8
330
841B
100
AcDbEntity
  8
1
100
AcDbLine
 10
998.494202334008
 20
4713.676946236008
 30
0.0
 11
998.494202334008
 21
4823.676946236008
 31
0.0
  0
LINE
  5
7CE9
330
841B
100
AcDbEntity
  8
1
100
AcDbLine
 10
1974.294202334007
 20
4823.676946236006
 30
0.0
 11
2380.694202334008
 21
4823.676946236006
 31
0.0
  0
LINE
  5
7CEA
330
841B
100
AcDbEntity
  8
1
100
AcDbLine
 10
1974.294202334007
 20
4713.676946236007
 30
0.0
 11
2380.694202334008
 21
4713.676946236006
 31
0.0
  0
LINE
  5
7CEB
330
841B
100
AcDbEntity
  8
1
100
AcDbLine
 10
1216.494202334009
 20
6063.676946236006
 30
0.0
 11
2820.494202334009
 21
6063.676946236006
 31
0.0
  0
LINE
  5
7CEC
330
841B
100
AcDbEntity
  8
1
100
AcDbLine
 10
1216.494202334009
 20
4943.676946236006
 30
0.0
 11
2820.494202334009
 21
4943.676946236006
 31
0.0
  0
LINE
  5
7CED
330
841B
100
AcDbEntity
  8
1
100
AcDbLine
 10
934.9942023340089
 20
5390.176946236008
 30
0.0
 11
1216.494202334009
 21
5390.176946236008
 31
0.0
  0
LINE
  5
7CEE
330
841B
100
AcDbEntity
  8
1
100
AcDbLine
 10
1299.99420233401
 20
4828.676946236008
 30
0.0
 11
1299.99420233401
 21
4943.676946236006
 31
0.0
  0
LINE
  5
7CEF
330
841B
100
AcDbEntity
  8
1
100
AcDbLine
 10
934.9942023340098
 20
4828.676946236008
 30
0.0
 11
934.9942023340098
 21
5390.176946236008
 31
0.0
  0
LINE
  5
7CF0
330
841B
100
AcDbEntity
  8
1
100
AcDbLine
 10
934.9942023340098
 20
4828.676946236008
 30
0.0
 11
1299.99420233401
 21
4828.676946236009
 31
0.0
  0
LINE
  5
7CF1
330
841B
100
AcDbEntity
  8
1
100
AcDbLine
 10
1141.494202334009
 20
4823.676946236008
 30
0.0
 11
1141.494202334009
 21
4828.676946236008
 31
0.0
  0
LINE
  5
7CF2
330
841B
100
AcDbEntity
  8
1
100
AcDbLine
 10
1093.494202334009
 20
4823.676946236008
 30
0.0
 11
1093.494202334009
 21
4828.676946236008
 31
0.0
  0
LINE
  5
7CF3
330
841B
100
AcDbEntity
  8
1
100
AcDbLine
 10
2207.49420233401
 20
4823.676946236006
 30
0.0
 11
2207.49420233401
 21
4943.676946236006
 31
0.0
  0
LINE
  5
7CF4
330
841B
100
AcDbEntity
  8
1
100
AcDbLine
 10
2147.49420233401
 20
4823.676946236006
 30
0.0
 11
2147.49420233401
 21
4943.676946236006
 31
0.0
  0
LINE
  5
7CF5
330
841B
100
AcDbEntity
  8
1
100
AcDbLine
 10
4271.653931325545
 20
2809.478022216089
 30
0.0
 11
4424.653931325547
 21
2809.478022216089
 31
0.0
  0
LINE
  5
7CF6
330
841B
100
AcDbEntity
  8
1
100
AcDbLine
 10
4271.653931325545
 20
2444.478022216088
 30
0.0
 11
4424.653931325547
 21
2444.478022216089
 31
0.0
  0
LINE
  5
7CF7
330
841B
100
AcDbEntity
  8
1
100
AcDbLine
 10
4271.653931325545
 20
2809.478022216089
 30
0.0
 11
4271.653931325545
 21
2444.478022216088
 31
0.0
  0
LINE
  5
7CF8
330
841B
100
AcDbEntity
  8
1
100
AcDbLine
 10
4266.653931325545
 20
2650.978022216088
 30
0.0
 11
4271.653931325545
 21
2650.978022216088
 31
0.0
  0
LINE
  5
7CF9
330
841B
100
AcDbEntity
  8
1
100
AcDbLine
 10
4266.653931325545
 20
2602.978022216088
 30
0.0
 11
4271.653931325545
 21
2602.978022216088
 31
0.0
  0
LINE
  5
7D05
330
841B
100
AcDbEntity
  8
1
100
AcDbLine
 10
4384.653931325547
 20
3691.978022216089
 30
0.0
 11
4384.653931325547
 21
3688.978022216089
 31
0.0
  0
LINE
  5
7D06
330
841B
100
AcDbEntity
  8
1
100
AcDbLine
 10
5584.653931325547
 20
3691.978022216089
 30
0.0
 11
5584.653931325547
 21
3688.978022216089
 31
0.0
  0
LINE
  5
7D07
330
841B
100
AcDbEntity
  8
1
100
AcDbLine
 10
4984.653931325546
 20
3688.978022216089
 30
0.0
 11
4384.653931325545
 21
3688.978022216089
 31
0.0
  0
LINE
  5
7D08
330
841B
100
AcDbEntity
  8
1
100
AcDbLine
 10
4984.653931325548
 20
3688.978022216089
 30
0.0
 11
5584.653931325547
 21
3688.978022216089
 31
0.0
  0
LINE
  5
7D09
330
841B
100
AcDbEntity
  8
1
100
AcDbLine
 10
1216.494202334009
 20
4943.676946236006
 30
0.0
 11
1216.494202334009
 21
6063.676946236006
 31
0.0
  0
LINE
  5
7D0B
330
841B
100
AcDbEntity
  8
1
100
AcDbLine
 10
2820.494202334009
 20
4943.676946236006
 30
0.0
 11
2820.49420233401
 21
6063.676946236006
 31
0.0
  0
LINE
  5
7D0C
330
841B
100
AcDbEntity
  8
1
100
AcDbLine
 10
2737.49420233401
 20
6063.676946236006
 30
0.0
 11
2737.49420233401
 21
6116.676946236006
 31
0.0
  0
LINE
  5
7D0D
330
841B
100
AcDbEntity
  8
1
100
AcDbLine
 10
2141.49420233401
 20
4943.676946236006
 30
0.0
 11
2141.49420233401
 21
6063.676946236006
 31
0.0
  0
LINE
  5
7D0E
330
841B
100
AcDbEntity
  8
1
100
AcDbLine
 10
2141.49420233401
 20
6063.676946236006
 30
0.0
 11
1216.494202334009
 21
4943.676946236006
 31
0.0
  0
LINE
  5
7D0F
330
841B
100
AcDbEntity
  8
1
100
AcDbLine
 10
1216.494202334009
 20
6063.676946236006
 30
0.0
 11
2141.49420233401
 21
4943.676946236006
 31
0.0
  0
LINE
  5
7F23
330
841B
100
AcDbEntity
  8
4
100
AcDbLine
 10
5550.0
 20
1500.0
 30
0.0
 11
5550.0
 21
900.0
 31
0.0
  0
LINE
  5
7F24
330
841B
100
AcDbEntity
  8
4
100
AcDbLine
 10
3450.0
 20
1500.0
 30
0.0
 11
3450.0
 21
900.0
 31
0.0
  0
LINE
  5
7F25
330
841B
100
AcDbEntity
  8
4
100
AcDbLine
 10
1950.0
 20
1500.0
 30
0.0
 11
1950.0
 21
900.0
 31
0.0
  0
LINE
  5
7F28
330
841B
100
AcDbEntity
  8
4
100
AcDbLine
 10
1950.0
 20
900.0
 30
0.0
 11
5550.0
 21
900.0
 31
0.0
  0
LINE
  5
7F29
330
841B
100
AcDbEntity
  8
4
100
AcDbLine
 10
1950.0
 20
1200.0
 30
0.0
 11
5550.0
 21
1200.0
 31
0.0
  0
TEXT
  5
7F2A
330
841B
100
AcDbEntity
  8
4
100
AcDbText
 10
2065.506242540704
 20
1294.629077599838
 30
0.0
 40
150.0
  1
機器名称
100
AcDbText
  0
TEXT
  5
7F2B
330
841B
100
AcDbEntity
  8
4
100
AcDbText
 10
2058.774318074392
 20
964.9354701960326
 30
0.0
 40
150.0
  1
機器型番
100
AcDbText
  0
TEXT
  5
7F2C
330
841B
100
AcDbEntity
  8
4
100
AcDbText
 10
3533.036236462995
 20
1267.715306872705
 30
0.0
 40
150.0
  1
ミツヤ多翼送風機
100
AcDbText
  0
TEXT
  5
7F2D
330
841B
100
AcDbEntity
  8
4
100
AcDbText
 10
3559.963486756442
 20
951.4787528398301
 30
0.0
 40
150.0
  1
MF#5 1/2-5
100
AcDbText
  0
TEXT
  5
7F2F
330
841B
100
AcDbEntity
  8
4
100
AcDbText
 10
2381.689741412352
 20
7150.286523997547
 30
0.0
 40
161.9999999999998
  1
床置ベット
100
AcDbText
  0
TEXT
  5
7F30
330
841B
100
AcDbEntity
  8
4
100
AcDbText
 10
948.5027799883393
 20
7601.642928597894
 30
0.0
 40
216.0
  1
遠心式両吸込両持多翼ファン
100
AcDbText
  0
LINE
  5
7F31
330
841B
100
AcDbEntity
  8
4
100
AcDbLine
 10
750.0
 20
7408.226262794413
 30
0.0
 11
5550.0
 21
7408.226262794413
 31
0.0
  0
LINE
  5
7F32
330
841B
100
AcDbEntity
  8
4
100
AcDbLine
 10
750.0
 20
8008.226262794414
 30
0.0
 11
5550.0
 21
8008.226262794414
 31
0.0
  0
LINE
  5
7F33
330
841B
100
AcDbEntity
  8
4
100
AcDbLine
 10
1950.0
 20
1500.0
 30
0.0
 11
5550.0
 21
1500.0
 31
0.0
  0
LINE
  5
7F34
330
841B
100
AcDbEntity
  8
4
100
AcDbLine
 10
750.0
 20
8008.226262794414
 30
0.0
 11
750.0
 21
7408.226262794413
 31
0.0
  0
TEXT
  5
7F35
330
841B
100
AcDbEntity
  8
4
100
AcDbText
 10
1074.113244684245
 20
7146.958432639029
 30
0.0
 40
161.9999999999998
  1
右回転上向
100
AcDbText
  0
TEXT
  5
7F36
330
841B
100
AcDbEntity
  8
4
100
AcDbText
 10
4406.908677747869
 20
8118.183244485924
 30
0.0
 40
168.0
  1
No.
100
AcDbText
  0
TEXT
  5
7F37
330
841B
100
AcDbEntity
  8
4
100
AcDbText
 10
3933.888187800039
 20
7150.286523997547
 30
0.0
 40
161.9999999999998
  1
縮尺：1/30
100
AcDbText
  0
LINE
  5
7F38
330
841B
100
AcDbEntity
  8
4
100
AcDbLine
 10
5550.0
 20
8008.226262794414
 30
0.0
 11
5550.0
 21
7408.226262794413
 31
0.0
  0
LINE
  5
7F39
330
841B
100
AcDbEntity
  8
4
100
AcDbLine
 10
6300.0
 20
8850.0
 30
0.0
 11
6300.0
 21
8850.0
 31
0.0
  0
LINE
  5
7F3A
330
841B
100
AcDbEntity
  8
4
100
AcDbLine
 10
4321.852267079594
 20
8043.790749376205
 30
0.0
 11
4321.852267079594
 21
8359.956784649257
 31
0.0
  0
LINE
  5
7F3B
330
841B
100
AcDbEntity
  8
4
100
AcDbLine
 10
4321.852267079594
 20
8359.956784649257
 30
0.0
 11
5550.0
 21
8359.956784649257
 31
0.0
  0
LINE
  5
7F3C
330
841B
100
AcDbEntity
  8
4
100
AcDbLine
 10
5550.0
 20
8359.956784649257
 30
0.0
 11
5550.0
 21
8043.790749376205
 31
0.0
  0
LINE
  5
7F3D
330
841B
100
AcDbEntity
  8
4
100
AcDbLine
 10
5550.0
 20
8043.790749376205
 30
0.0
 11
4321.852267079594
 21
8043.790749376205
 31
0.0
  0
LINE
  5
7F3E
330
841B
100
AcDbEntity
  8
4
100
AcDbLine
 10
0.0
 20
0.0
 30
0.0
 11
0.0
 21
8850.0
 31
0.0
  0
LINE
  5
7F3F
330
841B
100
AcDbEntity
  8
4
100
AcDbLine
 10
0.0
 20
8850.0
 30
0.0
 11
6300.0
 21
8850.0
 31
0.0
  0
LINE
  5
7F40
330
841B
100
AcDbEntity
  8
4
100
AcDbLine
 10
6300.0
 20
8850.0
 30
0.0
 11
6300.0
 21
0.0
 31
0.0
  0
LINE
  5
7F41
330
841B
100
AcDbEntity
  8
4
100
AcDbLine
 10
6300.0
 20
0.0
 30
0.0
 11
0.0
 21
0.0
 31
0.0
  0
DIMENSION
  5
8220
330
841B
100
AcDbEntity
  8
3
100
AcDbDimension
  2
*D20
 10
2177.494202334008
 20
2031.911805266889
 30
0.0
 11
1522.494202334009
 21
2106.911805266889
 31
0.0
 71
     5
 42
-1.0
  3
Standard
100
AcDbAlignedDimension
 13
867.4942023340097
 23
2251.978022216087
 33
0.0
 14
2177.494202334008
 24
2251.978022216087
 34
0.0
100
AcDbRotatedDimension
1001
ACAD
1000
DSTYLE
1002
{
1070
   172
1070
     1
1070
    40
1040
30.0
1070
    42
1040
1.0
1070
   271
1070
     0
1070
   143
1040
0.039
1002
}
  0
DIMENSION
  5
822D
330
841B
100
AcDbEntity
  8
3
100
AcDbDimension
  2
*D21
 10
2737.494202334008
 20
2031.911805266889
 30
0.0
 11
2457.494202334008
 21
2106.911805266889
 31
0.0
 71
     5
 42
-1.0
  3
Standard
100
AcDbAlignedDimension
 13
2177.494202334008
 23
2251.978022216087
 33
0.0
 14
2737.494202334008
 24
2251.978022216087
 34
0.0
100
AcDbRotatedDimension
1001
ACAD
1000
DSTYLE
1002
{
1070
   172
1070
     1
1070
    40
1040
30.0
1070
    42
1040
1.0
1070
   271
1070
     0
1070
   143
1040
0.039
1002
}
  0
DIMENSION
  5
823A
330
841B
100
AcDbEntity
  8
3
100
AcDbDimension
  2
*D22
 10
4984.653931325546
 20
2031.911805266889
 30
0.0
 11
4603.653931325541
 21
2106.911805266889
 31
0.0
 71
     5
 42
-1.0
  3
Standard
100
AcDbAlignedDimension
 13
4222.653931325537
 23
2251.978022216087
 33
0.0
 14
4984.653931325546
 24
2251.978022216087
 34
0.0
100
AcDbRotatedDimension
1001
ACAD
1000
DSTYLE
1002
{
1070
   172
1070
     1
1070
    40
1040
30.0
1070
    42
1040
1.0
1070
   271
1070
     0
1070
   143
1040
0.039
1002
}
  0
DIMENSION
  5
8247
330
841B
100
AcDbEntity
  8
3
100
AcDbDimension
  2
*D23
 10
5597.653931325547
 20
2031.911805266889
 30
0.0
 11
5291.153931325546
 21
2106.911805266889
 31
0.0
 71
     5
 42
-1.0
  3
Standard
100
AcDbAlignedDimension
 13
4984.653931325546
 23
2251.978022216087
 33
0.0
 14
5597.653931325547
 24
2251.978022216087
 34
0.0
100
AcDbRotatedDimension
1001
ACAD
1000
DSTYLE
1002
{
1070
   172
1070
     1
1070
    40
1040
30.0
1070
    42
1040
1.0
1070
   271
1070
     0
1070
   143
1040
0.039
1002
}
  0
DIMENSION
  5
8254
330
841B
100
AcDbEntity
  8
3
100
AcDbDimension
  2
*D24
 10
3260.840562617504
 20
3691.978022216089
 30
0.0
 11
3185.840562617505
 21
2971.978022216088
 31
0.0
 71
     5
 42
-1.0
  3
Standard
100
AcDbAlignedDimension
 13
2737.494202334008
 23
2251.978022216087
 33
0.0
 14
2198.994202334008
 24
3691.978022216089
 34
0.0
 50
90.0
100
AcDbRotatedDimension
1001
ACAD
1000
DSTYLE
1002
{
1070
   172
1070
     1
1070
    40
1040
30.0
1070
    42
1040
1.0
1070
   271
1070
     0
1070
   143
1040
0.039
1002
}
  0
DIMENSION
  5
845D
330
841B
100
AcDbEntity
  8
3
100
AcDbDimension
  2
*D25
 10
4984.653931325548
 20
4041.50090881768
 30
0.0
 11
4509.653931325546
 21
4140.072337389109
 31
0.0
 70
    32
  1
(<>)
 71
     5
 42
950.0000000000031
  3
IGA
100
AcDbAlignedDimension
 13
4034.653931325545
 23
3351.978022216088
 33
0.0
 14
4984.653931325548
 24
3983.761056152547
 34
0.0
100
AcDbRotatedDimension
1001
ACAD
1000
DSTYLE
1002
{
1070
    40
1040
30.0
1070
    42
1040
1.0
1070
   143
1040
0.039
1070
   172
1070
     1
1070
   271
1070
     4
1070
   272
1070
     4
1070
   279
1070
     0
1070
   284
1070
     0
1070
   285
1070
     0
1070
   286
1070
     0
1070
   341
1005
842E
1070
   343
1005
842E
1070
   344
1005
842E
1002
}
  0
DIMENSION
  5
846A
330
841B
100
AcDbEntity
  8
3
100
AcDbDimension
  2
*D26
 10
5664.653931325545
 20
4041.50090881768
 30
0.0
 11
5324.653931325546
 21
4140.072337389109
 31
0.0
 70
    32
  1
(<>)
 71
     5
 42
679.9999999999963
  3
IGA
100
AcDbAlignedDimension
 13
4984.653931325548
 23
3983.761056152547
 33
0.0
 14
5664.653931325545
 24
3032.478022216089
 34
0.0
100
AcDbRotatedDimension
1001
ACAD
1000
DSTYLE
1002
{
1070
    40
1040
30.0
1070
    42
1040
1.0
1070
   143
1040
0.039
1070
   172
1070
     1
1070
   271
1070
     4
1070
   272
1070
     4
1070
   279
1070
     1
1070
   284
1070
     0
1070
   285
1070
     0
1070
   286
1070
     0
1070
   341
1005
842E
1070
   343
1005
842E
1070
   344
1005
842E
1002
}
  0
DIMENSION
  5
8477
330
841B
100
AcDbEntity
  8
3
100
AcDbDimension
  2
*D27
 10
5544.653931325547
 20
3863.761056152547
 30
0.0
 11
4984.653931325547
 21
3938.761056152547
 31
0.0
 70
    32
 71
     5
 42
1120.0
  3
IGA
100
AcDbAlignedDimension
 13
4424.653931325547
 23
3691.978022216089
 33
0.0
 14
5544.653931325547
 24
3691.978022216089
 34
0.0
100
AcDbRotatedDimension
1001
ACAD
1000
DSTYLE
1002
{
1070
    40
1040
30.0
1070
    42
1040
1.0
1070
   143
1040
0.039
1070
   172
1070
     1
1070
   271
1070
     4
1070
   272
1070
     4
1070
   279
1070
     0
1070
   284
1070
     0
1070
   285
1070
     0
1070
   286
1070
     0
1070
   341
1005
842E
1070
   343
1005
842E
1070
   344
1005
842E
1002
}
  0
DIMENSION
  5
8488
330
841B
100
AcDbEntity
  8
3
100
AcDbDimension
  2
*D28
 10
5927.465754604665
 20
2596.978022216088
 30
0.0
 11
5852.465754604665
 21
3071.978022216089
 31
0.0
 70
    32
  1
\U+03C6<>
 71
     5
 42
950.0
  3
IGA
100
AcDbAlignedDimension
 13
5544.653931325547
 23
3546.978022216089
 33
0.0
 14
5544.653931325547
 24
2596.978022216088
 34
0.0
 50
90.0
100
AcDbRotatedDimension
1001
ACAD
1000
DSTYLE
1002
{
1070
    40
1040
30.0
1070
    42
1040
1.0
1070
   143
1040
0.039
1070
   172
1070
     1
1070
   271
1070
     4
1070
   272
1070
     4
1070
   279
1070
     0
1070
   284
1070
     0
1070
   285
1070
     0
1070
   286
1070
     0
1070
   341
1005
842E
1070
   343
1005
842E
1070
   344
1005
842E
1002
}
  0
DIMENSION
  5
84FF
330
841B
100
AcDbEntity
  8
3
100
AcDbDimension
  2
*D30
 10
2737.494202334008
 20
4344.529786753933
 30
0.0
 11
1802.494202334008
 21
4419.529786753932
 31
0.0
 70
    32
 71
     5
 42
1869.999999999998
  3
IGA
100
AcDbAlignedDimension
 13
867.494202334009
 23
4741.676946236006
 33
0.0
 14
2737.494202334008
 24
4741.676946236006
 34
0.0
100
AcDbRotatedDimension
1001
ACAD
1000
DSTYLE
1002
{
1070
    40
1040
30.0
1070
    42
1040
1.0
1070
   143
1040
0.039
1070
   172
1070
     1
1070
   271
1070
     4
1070
   272
1070
     4
1070
   279
1070
     0
1070
   284
1070
     0
1070
   285
1070
     0
1070
   286
1070
     0
1070
   341
1005
842E
1070
   343
1005
842E
1070
   344
1005
842E
1002
}
  0
DIMENSION
  5
850C
330
841B
100
AcDbEntity
  8
3
100
AcDbDimension
  2
*D31
 10
3037.918424500425
 20
6116.676946236006
 30
0.0
 11
2962.918424500424
 21
5429.176946236007
 31
0.0
 70
    32
 71
     5
 42
1375.0
  3
IGA
100
AcDbAlignedDimension
 13
2737.494202334008
 23
4741.676946236006
 33
0.0
 14
2737.494202334008
 24
6116.676946236006
 34
0.0
 50
90.0
100
AcDbRotatedDimension
1001
ACAD
1000
DSTYLE
1002
{
1070
    40
1040
30.0
1070
    42
1040
1.0
1070
   143
1040
0.039
1070
   172
1070
     1
1070
   271
1070
     4
1070
   272
1070
     4
1070
   279
1070
     0
1070
   284
1070
     0
1070
   285
1070
     0
1070
   286
1070
     0
1070
   341
1005
842E
1070
   343
1005
842E
1070
   344
1005
842E
1002
}
  0
DIMENSION
  5
8519
330
841B
100
AcDbEntity
  8
3
100
AcDbDimension
  2
*D32
 10
1617.49420233401
 20
6418.691604741228
 30
0.0
 11
2177.49420233401
 21
6493.691604741228
 31
0.0
 70
    32
 71
     5
 42
1120.0
  3
IGA
100
AcDbAlignedDimension
 13
2737.49420233401
 23
6116.676946236006
 33
0.0
 14
1617.49420233401
 24
6116.676946236006
 34
0.0
100
AcDbRotatedDimension
1001
ACAD
1000
DSTYLE
1002
{
1070
    40
1040
30.0
1070
    42
1040
1.0
1070
   143
1040
0.039
1070
   172
1070
     1
1070
   271
1070
     4
1070
   272
1070
     4
1070
   279
1070
     0
1070
   284
1070
     0
1070
   285
1070
     0
1070
   286
1070
     0
1070
   341
1005
842E
1070
   343
1005
842E
1070
   344
1005
842E
1002
}
  0
DIMENSION
  5
8526
330
841B
100
AcDbEntity
  8
3
100
AcDbDimension
  2
*D33
 10
867.4942023340097
 20
6418.691604741228
 30
0.0
 11
1242.49420233401
 21
6493.691604741228
 31
0.0
 70
    32
 71
     5
 42
750.0000000000002
  3
IGA
100
AcDbAlignedDimension
 13
1617.49420233401
 23
6116.676946236006
 33
0.0
 14
867.4942023340097
 24
5541.676946236008
 34
0.0
100
AcDbRotatedDimension
1001
ACAD
1000
DSTYLE
1002
{
1070
    40
1040
30.0
1070
    42
1040
1.0
1070
   143
1040
0.039
1070
   172
1070
     1
1070
   271
1070
     4
1070
   272
1070
     4
1070
   279
1070
     1
1070
   284
1070
     0
1070
   285
1070
     0
1070
   286
1070
     0
1070
   341
1005
842E
1070
   343
1005
842E
1070
   344
1005
842E
1002
}
  0
DIMENSION
  5
8533
330
841B
100
AcDbEntity
  8
3
100
AcDbDimension
  2
*D34
 10
677.6426948674745
 20
5541.676946236008
 30
0.0
 11
602.6426948674736
 21
5141.676946236007
 31
0.0
 70
    32
 71
     5
 42
800.0000000000017
  3
IGA
100
AcDbAlignedDimension
 13
867.494202334009
 23
4741.676946236006
 33
0.0
 14
867.4942023340097
 24
5541.676946236008
 34
0.0
 50
90.0
100
AcDbRotatedDimension
1001
ACAD
1000
DSTYLE
1002
{
1070
    40
1040
30.0
1070
    42
1040
1.0
1070
   143
1040
0.039
1070
   172
1070
     1
1070
   271
1070
     4
1070
   272
1070
     4
1070
   279
1070
     0
1070
   284
1070
     0
1070
   285
1070
     0
1070
   286
1070
     0
1070
   341
1005
842E
1070
   343
1005
842E
1070
   344
1005
842E
1002
}
  0
DIMENSION
  5
8540
330
841B
100
AcDbEntity
  8
3
100
AcDbDimension
  2
*D35
 10
2141.494202334008
 20
3841.593130659299
 30
0.0
 11
1678.994202334008
 21
3916.593130659299
 31
0.0
 70
    32
 71
     5
 42
924.9999999999998
  3
IGA
100
AcDbAlignedDimension
 13
1216.494202334008
 23
3691.978022216089
 33
0.0
 14
2141.494202334008
 24
3691.978022216089
 34
0.0
100
AcDbRotatedDimension
1001
ACAD
1000
DSTYLE
1002
{
1070
    40
1040
30.0
1070
    42
1040
1.0
1070
   143
1040
0.039
1070
   172
1070
     1
1070
   271
1070
     4
1070
   272
1070
     4
1070
   279
1070
     0
1070
   284
1070
     0
1070
   285
1070
     0
1070
   286
1070
     0
1070
   341
1005
842E
1070
   343
1005
842E
1070
   344
1005
842E
1002
}
  0
DIMENSION
  5
854D
330
841B
100
AcDbEntity
  8
3
100
AcDbDimension
  2
*D36
 10
2177.494202334008
 20
3991.936430757161
 30
0.0
 11
1696.994202334008
 21
4066.936430757161
 31
0.0
 70
    32
 71
     5
 42
960.9999999999997
  3
IGA
100
AcDbAlignedDimension
 13
1216.494202334008
 23
3691.978022216089
 33
0.0
 14
2177.494202334008
 24
3714.062890704765
 34
0.0
100
AcDbRotatedDimension
1001
ACAD
1000
DSTYLE
1002
{
1070
    40
1040
30.0
1070
    42
1040
1.0
1070
   143
1040
0.039
1070
   172
1070
     1
1070
   271
1070
     4
1070
   272
1070
     4
1070
   279
1070
     0
1070
   284
1070
     0
1070
   285
1070
     0
1070
   286
1070
     0
1070
   341
1005
842E
1070
   343
1005
842E
1070
   344
1005
842E
1002
}
  0
DIMENSION
  5
855A
330
841B
100
AcDbEntity
  8
3
100
AcDbDimension
  2
*D37
 10
2820.494202334008
 20
3991.936430757161
 30
0.0
 11
2498.994202334008
 21
4066.936430757161
 31
0.0
 70
    32
 71
     5
 42
643.0
  3
IGA
100
AcDbAlignedDimension
 13
2177.494202334008
 23
3714.062890704765
 33
0.0
 14
2820.494202334008
 24
3004.978022216088
 34
0.0
100
AcDbRotatedDimension
1001
ACAD
1000
DSTYLE
1002
{
1070
    40
1040
30.0
1070
    42
1040
1.0
1070
   143
1040
0.039
1070
   172
1070
     1
1070
   271
1070
     4
1070
   272
1070
     4
1070
   279
1070
     1
1070
   284
1070
     0
1070
   285
1070
     0
1070
   286
1070
     0
1070
   341
1005
842E
1070
   343
1005
842E
1070
   344
1005
842E
1002
}
  0
DIMENSION
  5
8567
330
841B
100
AcDbEntity
  8
3
100
AcDbDimension
  2
*D38
 10
3045.431187629271
 20
3071.978022216089
 30
0.0
 11
2970.431187629271
 21
3381.978022216089
 31
0.0
 70
    32
 71
     5
 42
620.0
  3
IGA
100
AcDbAlignedDimension
 13
2183.994202334008
 23
3691.978022216089
 33
0.0
 14
2833.749541112554
 24
3071.978022216089
 34
0.0
 50
90.0
100
AcDbRotatedDimension
1001
ACAD
1000
DSTYLE
1002
{
1070
    40
1040
30.0
1070
    42
1040
1.0
1070
   143
1040
0.039
1070
   172
1070
     1
1070
   271
1070
     4
1070
   272
1070
     4
1070
   279
1070
     0
1070
   284
1070
     0
1070
   285
1070
     0
1070
   286
1070
     0
1070
   341
1005
842E
1070
   343
1005
842E
1070
   344
1005
842E
1002
}
  0
DIMENSION
  5
8574
330
841B
100
AcDbEntity
  8
3
100
AcDbDimension
  2
*D39
 10
3045.431187629271
 20
2251.978022216087
 30
0.0
 11
2970.431187629271
 21
2661.978022216088
 31
0.0
 70
    32
 71
     5
 42
820.0000000000013
  3
IGA
100
AcDbAlignedDimension
 13
2833.749541112554
 23
3071.978022216089
 33
0.0
 14
2737.49420233401
 24
2251.978022216087
 34
0.0
 50
90.0
100
AcDbRotatedDimension
1001
ACAD
1000
DSTYLE
1002
{
1070
    40
1040
30.0
1070
    42
1040
1.0
1070
   143
1040
0.039
1070
   172
1070
     1
1070
   271
1070
     4
1070
   272
1070
     4
1070
   279
1070
     1
1070
   284
1070
     0
1070
   285
1070
     0
1070
   286
1070
     0
1070
   341
1005
842E
1070
   343
1005
842E
1070
   344
1005
842E
1002
}
  0
ENDSEC
  0
SECTION
  2
OBJECTS
  0
DICTIONARY
  5
83B8
330
0
100
AcDbDictionary
281
     1
  3
ACAD_CIP_PREVIOUS_PRODUCT_INFO
350
845C
  3
ACAD_COLOR
350
840E
  3
ACAD_DETAILVIEWSTYLE
350
8415
  3
ACAD_GROUP
350
83B9
  3
ACAD_LAYOUT
350
840D
  3
ACAD_MATERIAL
350
83BC
  3
ACAD_MLEADERSTYLE
350
8411
  3
ACAD_MLINESTYLE
350
840A
  3
ACAD_PLOTSETTINGS
350
840C
  3
ACAD_PLOTSTYLENAME
350
83BA
  3
ACAD_SCALELIST
350
83EE
  3
ACAD_SECTIONVIEWSTYLE
350
8413
  3
ACAD_TABLESTYLE
350
840F
  3
ACAD_VISUALSTYLE
350
83D5
  3
ACDB_RECOMPOSE_DATA
350
8598
  3
AcDbVariableDictionary
350
858B
  3
DWGPROPS
350
8599
  0
DICTIONARY
  5
8581
330
8400
100
AcDbDictionary
280
     1
281
     1
  3
ADSK_XREC_LAYER_RECONCILED
360
8582
  0
DICTIONARY
  5
8583
330
841F
100
AcDbDictionary
280
     1
281
     1
  3
ADSK_XREC_LAYER_RECONCILED
360
8584
  0
DICTIONARY
  5
8585
330
8422
100
AcDbDictionary
280
     1
281
     1
  3
ADSK_XREC_LAYER_RECONCILED
360
8586
  0
DICTIONARY
  5
8587
330
8423
100
AcDbDictionary
280
     1
281
     1
  3
ADSK_XREC_LAYER_RECONCILED
360
8588
  0
DICTIONARY
  5
8589
330
8424
100
AcDbDictionary
280
     1
281
     1
  3
ADSK_XREC_LAYER_RECONCILED
360
858A
  0
DICTIONARY
  5
8485
330
841B
100
AcDbDictionary
280
     1
281
     1
  3
ACAD_SORTENTS
360
8486
  0
XRECORD
  5
845C
102
{ACAD_REACTORS
330
83B8
102
}
330
83B8
100
AcDbXrecord
280
     1
300
ACDLT
300
2015
300
INVLTS_F_S
  0
DICTIONARY
  5
840E
102
{ACAD_REACTORS
330
83B8
102
}
330
83B8
100
AcDbDictionary
281
     1
  0
DICTIONARY
  5
8415
102
{ACAD_REACTORS
330
83B8
102
}
330
83B8
100
AcDbDictionary
281
     1
  3
Imperial24
350
8416
  0
DICTIONARY
  5
83B9
102
{ACAD_REACTORS
330
83B8
102
}
330
83B8
100
AcDbDictionary
281
     1
  0
DICTIONARY
  5
840D
102
{ACAD_REACTORS
330
83B8
102
}
330
83B8
100
AcDbDictionary
281
     1
  3
Model
350
841E
  3
レイアウト1
350
841A
  0
DICTIONARY
  5
83BC
102
{ACAD_REACTORS
330
83B8
102
}
330
83B8
100
AcDbDictionary
281
     1
  3
ByBlock
350
83C5
  3
ByLayer
350
83BD
  3
Global
350
83CD
  0
DICTIONARY
  5
8411
102
{ACAD_REACTORS
330
83B8
102
}
330
83B8
100
AcDbDictionary
281
     1
  3
Standard
350
8412
  0
DICTIONARY
  5
840A
102
{ACAD_REACTORS
330
83B8
102
}
330
83B8
100
AcDbDictionary
281
     1
  3
Standard
350
840B
  0
DICTIONARY
  5
840C
102
{ACAD_REACTORS
330
83B8
102
}
330
83B8
100
AcDbDictionary
281
     1
  0
ACDBDICTIONARYWDFLT
  5
83BA
102
{ACAD_REACTORS
330
83B8
102
}
330
83B8
100
AcDbDictionary
281
     1
  3
Normal
350
83BB
100
AcDbDictionaryWithDefault
340
83BB
  0
DICTIONARY
  5
83EE
102
{ACAD_REACTORS
330
83B8
102
}
330
83B8
100
AcDbDictionary
281
     1
  3
A0
350
83EF
  3
A1
350
83F0
  3
A2
350
83F1
  3
A3
350
83F2
  3
A4
350
83F3
  3
A5
350
83F4
  3
A6
350
83F5
  3
A7
350
83F6
  3
A8
350
83F7
  3
A9
350
83F8
  3
B0
350
83F9
  3
B1
350
83FA
  3
B2
350
83FB
  3
B3
350
83FC
  3
B4
350
83FD
  3
B5
350
83FE
  3
B6
350
83FF
  0
DICTIONARY
  5
8413
102
{ACAD_REACTORS
330
83B8
102
}
330
83B8
100
AcDbDictionary
281
     1
  3
Imperial24
350
8414
  0
DICTIONARY
  5
840F
102
{ACAD_REACTORS
330
83B8
102
}
330
83B8
100
AcDbDictionary
281
     1
  3
Standard
350
8410
  0
DICTIONARY
  5
83D5
102
{ACAD_REACTORS
330
83B8
102
}
330
83B8
100
AcDbDictionary
281
     1
  3
2dWireframe
350
83DB
  3
Basic
350
83DA
  3
Brighten
350
83E1
  3
ColorChange
350
83E5
  3
Conceptual
350
83DE
  3
Dim
350
83E0
  3
EdgeColorOff
350
83ED
  3
Facepattern
350
83E4
  3
Flat
350
83D6
  3
FlatWithEdges
350
83D7
  3
Gouraud
350
83D8
  3
GouraudWithEdges
350
83D9
  3
Hidden
350
83DD
  3
JitterOff
350
83EB
  3
Linepattern
350
83E3
  3
OverhangOff
350
83EC
  3
Realistic
350
83DF
  3
Shaded
350
83EA
  3
Shaded with edges
350
83E9
  3
Shades of Gray
350
83E6
  3
Sketchy
350
83E7
  3
Thicken
350
83E2
  3
Wireframe
350
83DC
  3
X-Ray
350
83E8
  0
XRECORD
  5
8598
102
{ACAD_REACTORS
330
83B8
102
}
330
83B8
100
AcDbXrecord
280
     1
 90
        1
330
8410
  0
DICTIONARY
  5
858B
102
{ACAD_REACTORS
330
83B8
102
}
330
83B8
100
AcDbDictionary
281
     1
  3
CANNOSCALE
350
8590
  3
CMLEADERSTYLE
350
858D
  3
CTABLESTYLE
350
858C
  3
CVIEWDETAILSTYLE
350
858E
  3
CVIEWSECTIONSTYLE
350
858F
  3
DIMASSOC
350
8593
  3
INDEXCTL
350
8592
  3
SORTENTS
350
8591
  3
XCLIPFRAME
350
8594
  0
XRECORD
  5
8599
102
{ACAD_REACTORS
330
83B8
102
}
330
83B8
100
AcDbXrecord
280
     1
  1
DWGPROPS COOKIE
  2

  3

  4

  6

  7

  8
yasukiyo.ogawa
  9

300
=
301
=
302
=
303
=
304
=
305
=
306
=
307
=
308
=
309
=
 40
0.0185220023148148
 41
2451389.482040394
 42
2460269.568658472
  1

 90
        0
  0
XRECORD
  5
8582
102
{ACAD_REACTORS
330
8581
102
}
330
8581
100
AcDbXrecord
280
     1
290
     1
  0
XRECORD
  5
8584
102
{ACAD_REACTORS
330
8583
102
}
330
8583
100
AcDbXrecord
280
     1
290
     1
  0
XRECORD
  5
8586
102
{ACAD_REACTORS
330
8585
102
}
330
8585
100
AcDbXrecord
280
     1
290
     1
  0
XRECORD
  5
8588
102
{ACAD_REACTORS
330
8587
102
}
330
8587
100
AcDbXrecord
280
     1
290
     1
  0
XRECORD
  5
858A
102
{ACAD_REACTORS
330
8589
102
}
330
8589
100
AcDbXrecord
280
     1
290
     1
  0
SORTENTSTABLE
  5
8486
102
{ACAD_REACTORS
330
8485
102
}
330
8485
100
AcDbSortentsTable
330
841B
331
7F36
  5
7F38
331
7D0C
  5
7D0E
331
7CEA
  5
7CEC
331
7CC8
  5
7CCE
331
7CB7
  5
7CC0
331
7CA6
  5
7CA8
331
7C9D
  5
7C9F
331
7C8C
  5
7C8E
331
7C7B
  5
7C7D
331
7C2F
  5
7C2F
331
7F37
  5
7F39
331
7D0D
  5
7D0F
331
7CEB
  5
7CED
331
7CC9
  5
7CCF
331
7CA7
  5
7CA9
331
7C9E
  5
7CA0
331
7C8D
  5
7C8F
331
7C7C
  5
7C84
331
7C63
  5
7C66
331
7C41
  5
7C44
331
7C30
  5
7C30
331
7F38
  5
7F3A
331
8254
  5
846A
331
823A
  5
8254
331
7D0E
  5
7F23
331
7CEC
  5
7CEE
331
7CDB
  5
7CDD
331
7CA8
  5
7CAA
331
7C9F
  5
7CA1
331
7C8E
  5
7C90
331
7C7D
  5
7C85
331
7C31
  5
7C31
331
7F28
  5
7F2A
331
7F39
  5
7F3B
331
7C54
  5
7C57
331
7C43
  5
7C46
331
7D0F
  5
7F24
331
7CED
  5
7CEF
331
7CDC
  5
7CDF
331
7CA9
  5
7CAB
331
7C8F
  5
7C91
331
7C65
  5
7C67
331
7C32
  5
7C32
331
7C21
  5
7C21
331
7F3A
  5
7F3C
331
7F29
  5
7F2B
331
7CEE
  5
7CF0
331
7CDD
  5
7CE0
331
7CAA
  5
7CAC
331
7C90
  5
7C92
331
7C66
  5
7C72
331
7C44
  5
7C47
331
7C33
  5
7C33
331
7F2A
  5
7F2C
331
7F3B
  5
7F3D
331
7CEF
  5
7CF1
331
7CAB
  5
7CAD
331
7C91
  5
7C93
331
7C67
  5
7C73
331
7C56
  5
7C5C
331
7C34
  5
7C34
331
7C23
  5
7C23
331
7F2B
  5
7F2D
331
7CF0
  5
7CF2
331
822D
  5
8247
331
7F3C
  5
7F3E
331
8247
  5
845D
331
7C46
  5
7C4A
331
7C57
  5
7C60
331
7CDF
  5
7CE1
331
7CCE
  5
7CD0
331
7CAC
  5
7CAE
331
7C92
  5
7C94
331
7C35
  5
7C35
331
7C24
  5
7C24
331
7F2C
  5
7F2F
331
7F23
  5
7F25
331
7CF1
  5
7CF3
331
7CE0
  5
7CE2
331
7F3D
  5
7F3F
331
8477
  5
8487
331
7C47
  5
7C4C
331
7CCF
  5
7CD1
331
7CAD
  5
7CB0
331
7C93
  5
7C95
331
7C36
  5
7C36
331
7C25
  5
7C25
331
7F2D
  5
7F30
331
7F24
  5
7F28
331
7CF2
  5
7CF4
331
7CE1
  5
7CE3
331
7CD0
  5
7CD2
331
7F3E
  5
7F40
331
7CBF
  5
7CC1
331
7CAE
  5
7CB6
331
7C94
  5
7C96
331
7C72
  5
7C74
331
7C37
  5
7C37
331
7C26
  5
7C26
331
7F25
  5
7F29
331
7CF3
  5
7CF5
331
7CE2
  5
7CE4
331
7CD1
  5
7CD3
331
7CC0
  5
7CC2
331
7F3F
  5
7F41
331
7C95
  5
7C97
331
7C73
  5
7C75
331
7C38
  5
7C38
331
7C27
  5
7C27
331
8220
  5
823A
331
7F2F
  5
7F31
331
7D05
  5
7D07
331
7CF4
  5
7CF6
331
7CE3
  5
7CE5
331
7CD2
  5
7CD4
331
7CC1
  5
7CC3
331
7CB0
  5
7CB7
331
7F40
  5
8220
331
7C96
  5
7C98
331
7C74
  5
7C76
331
7C4A
  5
7C4D
331
7C39
  5
7C39
331
7C28
  5
7C28
331
7F30
  5
7F32
331
7D06
  5
7D08
331
7CF5
  5
7CF7
331
7CE4
  5
7CE6
331
7CD3
  5
7CD5
331
7CC2
  5
7CC4
331
7CA0
  5
7CA2
331
7F41
  5
822D
331
846A
  5
8484
331
7C97
  5
7C99
331
7C75
  5
7C77
331
7C5C
  5
7C61
331
7C3A
  5
7C3A
331
7C29
  5
7C29
331
7F31
  5
7F33
331
7D07
  5
7D09
331
7CF6
  5
7CF8
331
7CE5
  5
7CE7
331
7CD4
  5
7CD6
331
7CC3
  5
7CC5
331
7CA1
  5
7CA3
331
7C98
  5
7C9A
331
7C76
  5
7C78
331
7C4C
  5
7C54
331
7C3B
  5
7C3B
331
7C2A
  5
7C2A
331
7F32
  5
7F34
331
7D08
  5
7D0A
331
7CF7
  5
7CF9
331
7CE6
  5
7CE8
331
7CC4
  5
7CC6
331
7CA2
  5
7CA4
331
7C99
  5
7C9B
331
845D
  5
8477
331
7C3C
  5
7C3F
331
7C77
  5
7C7A
331
7C4D
  5
7C56
331
7C2B
  5
7C2B
331
7F33
  5
7F35
331
7D09
  5
7D0B
331
7CF8
  5
7D00
331
7CE7
  5
7CE9
331
7CC5
  5
7CC7
331
7CA3
  5
7CA5
331
7C9A
  5
7C9C
331
7C89
  5
7C8B
331
7C78
  5
7C7B
331
7C3D
  5
7C41
331
7C2C
  5
7C2C
331
7F34
  5
7F36
331
7CF9
  5
7D01
331
7CE8
  5
7CEA
331
7CC6
  5
7CC8
331
7CA4
  5
7CA6
331
7C9B
  5
7C9D
331
7C8A
  5
7C8C
331
7C60
  5
7C63
331
7C2D
  5
7C2D
331
7F35
  5
7F37
331
7D0B
  5
7D0D
331
7CE9
  5
7CEB
331
7CC7
  5
7CC9
331
7CB6
  5
7CBF
331
7CA5
  5
7CA7
331
7C9C
  5
7C9E
331
7C8B
  5
7C8D
331
7C7A
  5
7C7C
331
7C61
  5
7C65
331
7C3F
  5
7C43
331
7C2E
  5
7C2E
  0
ACDBDETAILVIEWSTYLE
  5
8416
102
{ACAD_XDICTIONARY
360
85D1
102
}
102
{ACAD_REACTORS
330
8415
102
}
330
8415
100
AcDbModelDocViewStyle
 70
     0
  3
Imperial24
290
     0
100
AcDbDetailViewStyle
 70
     0
 71
     0
 90
        3
 71
     1
340
8401
 40
0.24
340
0
 40
0.24
300

 40
0.36
280
     3
 71
     2
340
8408
 90
       25
 71
     3
340
8401
 40
0.24
 90
        1
 40
0.75
 90
        1
300
%<\AcVar ViewType \f "%tc1">% %<\AcVar ViewDetailId>%\PSCALE %<\AcVar ViewScale \f "%sn">%
 71
     4
340
8408
 90
       25
340
8408
 90
       25
280
     0
  0
LAYOUT
  5
841E
102
{ACAD_XDICTIONARY
360
85D5
102
}
102
{ACAD_REACTORS
330
840D
102
}
330
840D
100
AcDbPlotSettings
  1

  2
RICOH imagio MP W3600 RPCS
  4

  6

 40
0.0
 41
0.0
 42
0.0
 43
0.0
 44
0.0
 45
0.0
 46
0.0
 47
0.0
 48
0.0
 49
0.0
140
0.0
141
0.0
142
1.0
143
1.0
 70
  1712
 72
     0
 73
     0
 74
     0
  7

 75
     0
147
1.0
148
0.0
149
0.0
100
AcDbLayout
  1
Model
 70
     1
 71
     0
 10
0.0
 20
0.0
 11
12.0
 21
9.0
 12
0.0
 22
0.0
 32
0.0
 14
0.0
 24
0.0
 34
0.0
 15
0.0
 25
0.0
 35
0.0
146
0.0
 13
0.0
 23
0.0
 33
0.0
 16
1.0
 26
0.0
 36
0.0
 17
0.0
 27
1.0
 37
0.0
 76
     0
330
841B
331
8420
  0
LAYOUT
  5
841A
102
{ACAD_XDICTIONARY
360
85D3
102
}
102
{ACAD_REACTORS
330
840D
102
}
330
840D
100
AcDbPlotSettings
  1

  2
RICOH imagio MP W3600 RPCS
  4

  6

 40
0.0
 41
0.0
 42
0.0
 43
0.0
 44
0.0
 45
0.0
 46
0.0
 47
0.0
 48
0.0
 49
0.0
140
0.0
141
0.0
142
1.0
143
1.0
 70
   688
 72
     0
 73
     0
 74
     5
  7

 75
    16
147
1.0
148
0.0
149
0.0
100
AcDbLayout
  1
レイアウト1
 70
     1
 71
     1
 10
0.0
 20
0.0
 11
12.0
 21
9.0
 12
0.0
 22
0.0
 32
0.0
 14
1.000000000000000E+20
 24
1.000000000000000E+20
 34
1.000000000000000E+20
 15
-1.000000000000000E+20
 25
-1.000000000000000E+20
 35
-1.000000000000000E+20
146
0.0
 13
0.0
 23
0.0
 33
0.0
 16
1.0
 26
0.0
 36
0.0
 17
0.0
 27
1.0
 37
0.0
 76
     0
330
8417
  0
MATERIAL
  5
83C5
102
{ACAD_XDICTIONARY
360
83C6
102
}
102
{ACAD_REACTORS
330
83BC
102
}
330
83BC
100
AcDbMaterial
  1
ByBlock
 72
     0
 43
0.0208333333333333
 43
0.0
 43
0.0
 43
0.0
 43
0.0
 43
0.0208333333333333
 43
0.0
 43
0.0
 43
0.0
 43
0.0
 43
1.0
 43
0.0
 43
0.0
 43
0.0
 43
0.0
 43
1.0
 77
     0
 47
0.0208333333333333
 47
0.0
 47
0.0
 47
0.0
 47
0.0
 47
0.0208333333333333
 47
0.0
 47
0.0
 47
0.0
 47
0.0
 47
1.0
 47
0.0
 47
0.0
 47
0.0
 47
0.0
 47
1.0
171
     0
 49
0.0208333333333333
 49
0.0
 49
0.0
 49
0.0
 49
0.0
 49
0.0208333333333333
 49
0.0
 49
0.0
 49
0.0
 49
0.0
 49
1.0
 49
0.0
 49
0.0
 49
0.0
 49
0.0
 49
1.0
175
     0
142
0.0208333333333333
142
0.0
142
0.0
142
0.0
142
0.0
142
0.0208333333333333
142
0.0
142
0.0
142
0.0
142
0.0
142
1.0
142
0.0
142
0.0
142
0.0
142
0.0
142
1.0
179
     0
144
0.0208333333333333
144
0.0
144
0.0
144
0.0
144
0.0
144
0.0208333333333333
144
0.0
144
0.0
144
0.0
144
0.0
144
1.0
144
0.0
144
0.0
144
0.0
144
0.0
144
1.0
147
0.0208333333333333
147
0.0
147
0.0
147
0.0
147
0.0
147
0.0208333333333333
147
0.0
147
0.0
147
0.0
147
0.0
147
1.0
147
0.0
147
0.0
147
0.0
147
0.0
147
1.0
  0
MATERIAL
  5
83BD
102
{ACAD_XDICTIONARY
360
83BE
102
}
102
{ACAD_REACTORS
330
83BC
102
}
330
83BC
100
AcDbMaterial
  1
ByLayer
 72
     0
 43
0.0208333333333333
 43
0.0
 43
0.0
 43
0.0
 43
0.0
 43
0.0208333333333333
 43
0.0
 43
0.0
 43
0.0
 43
0.0
 43
1.0
 43
0.0
 43
0.0
 43
0.0
 43
0.0
 43
1.0
 77
     0
 47
0.0208333333333333
 47
0.0
 47
0.0
 47
0.0
 47
0.0
 47
0.0208333333333333
 47
0.0
 47
0.0
 47
0.0
 47
0.0
 47
1.0
 47
0.0
 47
0.0
 47
0.0
 47
0.0
 47
1.0
171
     0
 49
0.0208333333333333
 49
0.0
 49
0.0
 49
0.0
 49
0.0
 49
0.0208333333333333
 49
0.0
 49
0.0
 49
0.0
 49
0.0
 49
1.0
 49
0.0
 49
0.0
 49
0.0
 49
0.0
 49
1.0
175
     0
142
0.0208333333333333
142
0.0
142
0.0
142
0.0
142
0.0
142
0.0208333333333333
142
0.0
142
0.0
142
0.0
142
0.0
142
1.0
142
0.0
142
0.0
142
0.0
142
0.0
142
1.0
179
     0
144
0.0208333333333333
144
0.0
144
0.0
144
0.0
144
0.0
144
0.0208333333333333
144
0.0
144
0.0
144
0.0
144
0.0
144
1.0
144
0.0
144
0.0
144
0.0
144
0.0
144
1.0
147
0.0208333333333333
147
0.0
147
0.0
147
0.0
147
0.0
147
0.0208333333333333
147
0.0
147
0.0
147
0.0
147
0.0
147
1.0
147
0.0
147
0.0
147
0.0
147
0.0
147
1.0
  0
MATERIAL
  5
83CD
102
{ACAD_XDICTIONARY
360
83CE
102
}
102
{ACAD_REACTORS
330
83BC
102
}
330
83BC
100
AcDbMaterial
  1
Global
 72
     0
 43
0.0208333333333333
 43
0.0
 43
0.0
 43
0.0
 43
0.0
 43
0.0208333333333333
 43
0.0
 43
0.0
 43
0.0
 43
0.0
 43
1.0
 43
0.0
 43
0.0
 43
0.0
 43
0.0
 43
1.0
 77
     0
 47
0.0208333333333333
 47
0.0
 47
0.0
 47
0.0
 47
0.0
 47
0.0208333333333333
 47
0.0
 47
0.0
 47
0.0
 47
0.0
 47
1.0
 47
0.0
 47
0.0
 47
0.0
 47
0.0
 47
1.0
171
     0
 49
0.0208333333333333
 49
0.0
 49
0.0
 49
0.0
 49
0.0
 49
0.0208333333333333
 49
0.0
 49
0.0
 49
0.0
 49
0.0
 49
1.0
 49
0.0
 49
0.0
 49
0.0
 49
0.0
 49
1.0
175
     0
142
0.0208333333333333
142
0.0
142
0.0
142
0.0
142
0.0
142
0.0208333333333333
142
0.0
142
0.0
142
0.0
142
0.0
142
1.0
142
0.0
142
0.0
142
0.0
142
0.0
142
1.0
179
     0
144
0.0208333333333333
144
0.0
144
0.0
144
0.0
144
0.0
144
0.0208333333333333
144
0.0
144
0.0
144
0.0
144
0.0
144
1.0
144
0.0
144
0.0
144
0.0
144
0.0
144
1.0
147
0.0208333333333333
147
0.0
147
0.0
147
0.0
147
0.0
147
0.0208333333333333
147
0.0
147
0.0
147
0.0
147
0.0
147
1.0
147
0.0
147
0.0
147
0.0
147
0.0
147
1.0
  0
MLEADERSTYLE
  5
8412
102
{ACAD_REACTORS
330
8411
102
}
330
8411
100
AcDbMLeaderStyle
170
     2
171
     1
172
     0
 90
        2
 40
0.0
 41
0.0
173
     1
 91
-1056964608
340
8406
 92
       -2
290
     1
 42
0.09
291
     1
 43
0.36
  3
Standard
 44
0.18
300

342
8401
174
     1
178
     6
175
     1
176
     0
 93
-1056964608
 45
0.18
292
     0
297
     0
 46
0.18
 94
-1056964608
 47
1.0
 49
1.0
140
1.0
293
     1
141
0.0
294
     1
177
     0
142
1.0
295
     0
296
     0
143
0.125
1001
ACAD_MLEADERVER
1070
     2
  0
MLINESTYLE
  5
840B
102
{ACAD_REACTORS
330
840A
102
}
330
840A
100
AcDbMlineStyle
  2
STANDARD
 70
     0
  3

 62
   256
 51
90.0
 52
90.0
 71
     2
 49
0.5
 62
   256
  6
BYLAYER
 49
-0.5
 62
   256
  6
BYLAYER
  0
ACDBPLACEHOLDER
  5
83BB
102
{ACAD_REACTORS
330
83BA
102
}
330
83BA
  0
SCALE
  5
83EF
102
{ACAD_REACTORS
330
83EE
102
}
330
83EE
100
AcDbScale
 70
     0
300
1:1
140
1.0
141
1.0
290
     1
  0
SCALE
  5
83F0
102
{ACAD_REACTORS
330
83EE
102
}
330
83EE
100
AcDbScale
 70
     0
300
1/128" = 1'-0"
140
0.0078125
141
12.0
290
     0
  0
SCALE
  5
83F1
102
{ACAD_REACTORS
330
83EE
102
}
330
83EE
100
AcDbScale
 70
     0
300
1/64" = 1'-0"
140
0.015625
141
12.0
290
     0
  0
SCALE
  5
83F2
102
{ACAD_REACTORS
330
83EE
102
}
330
83EE
100
AcDbScale
 70
     0
300
1/32" = 1'-0"
140
0.03125
141
12.0
290
     0
  0
SCALE
  5
83F3
102
{ACAD_REACTORS
330
83EE
102
}
330
83EE
100
AcDbScale
 70
     0
300
1/16" = 1'-0"
140
0.0625
141
12.0
290
     0
  0
SCALE
  5
83F4
102
{ACAD_REACTORS
330
83EE
102
}
330
83EE
100
AcDbScale
 70
     0
300
3/32" = 1'-0"
140
0.09375
141
12.0
290
     0
  0
SCALE
  5
83F5
102
{ACAD_REACTORS
330
83EE
102
}
330
83EE
100
AcDbScale
 70
     0
300
1/8" = 1'-0"
140
0.125
141
12.0
290
     0
  0
SCALE
  5
83F6
102
{ACAD_REACTORS
330
83EE
102
}
330
83EE
100
AcDbScale
 70
     0
300
3/16" = 1'-0"
140
0.1875
141
12.0
290
     0
  0
SCALE
  5
83F7
102
{ACAD_REACTORS
330
83EE
102
}
330
83EE
100
AcDbScale
 70
     0
300
1/4" = 1'-0"
140
0.25
141
12.0
290
     0
  0
SCALE
  5
83F8
102
{ACAD_REACTORS
330
83EE
102
}
330
83EE
100
AcDbScale
 70
     0
300
3/8" = 1'-0"
140
0.375
141
12.0
290
     0
  0
SCALE
  5
83F9
102
{ACAD_REACTORS
330
83EE
102
}
330
83EE
100
AcDbScale
 70
     0
300
1/2" = 1'-0"
140
0.5
141
12.0
290
     0
  0
SCALE
  5
83FA
102
{ACAD_REACTORS
330
83EE
102
}
330
83EE
100
AcDbScale
 70
     0
300
3/4" = 1'-0"
140
0.75
141
12.0
290
     0
  0
SCALE
  5
83FB
102
{ACAD_REACTORS
330
83EE
102
}
330
83EE
100
AcDbScale
 70
     0
300
1" = 1'-0"
140
1.0
141
12.0
290
     0
  0
SCALE
  5
83FC
102
{ACAD_REACTORS
330
83EE
102
}
330
83EE
100
AcDbScale
 70
     0
300
1-1/2" = 1'-0"
140
1.5
141
12.0
290
     0
  0
SCALE
  5
83FD
102
{ACAD_REACTORS
330
83EE
102
}
330
83EE
100
AcDbScale
 70
     0
300
3" = 1'-0"
140
3.0
141
12.0
290
     0
  0
SCALE
  5
83FE
102
{ACAD_REACTORS
330
83EE
102
}
330
83EE
100
AcDbScale
 70
     0
300
6" = 1'-0"
140
6.0
141
12.0
290
     0
  0
SCALE
  5
83FF
102
{ACAD_REACTORS
330
83EE
102
}
330
83EE
100
AcDbScale
 70
     0
300
1'-0" = 1'-0"
140
12.0
141
12.0
290
     0
  0
ACDBSECTIONVIEWSTYLE
  5
8414
102
{ACAD_XDICTIONARY
360
85CF
102
}
102
{ACAD_REACTORS
330
8413
102
}
330
8413
100
AcDbModelDocViewStyle
 70
     0
  3
Imperial24
290
     0
100
AcDbSectionViewStyle
 70
     0
 71
     0
 90
       78
 71
     1
340
8401
 40
0.24
340
0
340
0
 40
0.24
300
I, O, Q, S, X, Z
 40
0.48
 90
        3
 40
0.18
 90
        1
 71
     2
340
8408
 90
       25
340
8408
 90
       50
 40
0.24
 40
0.0
 40
0.24
 71
     3
340
8401
 40
0.24
 90
        1
 40
0.75
 90
        1
300
%<\AcVar ViewType \f "%tc1">% %<\AcVar ViewSectionStartId>%-%<\AcVar ViewSectionEndId>%\PSCALE %<\AcVar ViewScale \f "%sn">%
 71
     4
300
ANSI31
 40
1.0
 90
        0
290
     0
290
     0
 90
        6
 40
0.0
 40
1.570796326794896
 40
0.2617993877991494
 40
1.308996938995747
 40
-0.2617993877991494
 40
1.832595714594046
  0
TABLESTYLE
  5
8410
102
{ACAD_XDICTIONARY
360
8596
102
}
102
{ACAD_REACTORS
330
840F
102
}
330
840F
100
AcDbTableStyle
  3
Standard
 70
     0
 71
     0
 40
0.06
 41
0.06
280
     0
281
     0
  7
STANDARD
140
0.18
170
     2
 62
     0
 63
     7
283
     0
274
    -2
284
     1
 64
     0
275
    -2
285
     1
 65
     0
276
    -2
286
     1
 66
     0
277
    -2
287
     1
 67
     0
278
    -2
288
     1
 68
     0
279
    -2
289
     1
 69
     0
  7
STANDARD
140
0.25
170
     5
 62
     0
 63
     7
283
     0
274
    -2
284
     1
 64
     0
275
    -2
285
     1
 65
     0
276
    -2
286
     1
 66
     0
277
    -2
287
     1
 67
     0
278
    -2
288
     1
 68
     0
279
    -2
289
     1
 69
     0
  7
STANDARD
140
0.18
170
     5
 62
     0
 63
     7
283
     0
274
    -2
284
     1
 64
     0
275
    -2
285
     1
 65
     0
276
    -2
286
     1
 66
     0
277
    -2
287
     1
 67
     0
278
    -2
288
     1
 68
     0
279
    -2
289
     1
 69
     0
  0
VISUALSTYLE
  5
83DB
102
{ACAD_XDICTIONARY
360
85A7
102
}
102
{ACAD_REACTORS
330
83D5
102
}
330
83D5
100
AcDbVisualStyle
  2
2dWireframe
 70
     4
 71
     0
 72
     2
 73
     0
 90
        0
 40
-0.6
 41
-30.0
 62
     5
 63
     7
 74
     1
 91
        4
 64
     7
 65
   257
 75
     1
175
     1
 42
1.0
 92
        0
 66
   257
 43
1.0
 76
     1
 77
     6
 78
     2
 67
     7
 79
     5
170
     0
171
     0
290
     0
174
     0
 93
        1
 44
0.0
173
     0
291
     0
 45
0.0
1001
ACAD
1000
AcDbSavedByObjectVersion
1070
     0
  0
VISUALSTYLE
  5
83DA
102
{ACAD_XDICTIONARY
360
85A5
102
}
102
{ACAD_REACTORS
330
83D5
102
}
330
83D5
100
AcDbVisualStyle
  2
Basic
 70
     7
 71
     1
 72
     0
 73
     1
 90
        0
 40
-0.6
 41
-30.0
 62
     5
 63
     7
 74
     0
 91
        4
 64
     7
 65
   257
 75
     1
175
     1
 42
1.0
 92
        8
 66
     7
 43
1.0
 76
     1
 77
     6
 78
     2
 67
     7
 79
     5
170
     0
171
     0
290
     0
174
     0
 93
        1
 44
0.0
173
     0
291
     1
 45
0.0
1001
ACAD
1000
AcDbSavedByObjectVersion
1070
     0
  0
VISUALSTYLE
  5
83E1
102
{ACAD_XDICTIONARY
360
85B3
102
}
102
{ACAD_REACTORS
330
83D5
102
}
330
83D5
100
AcDbVisualStyle
  2
Brighten
 70
    12
 71
     2
 72
     2
 73
     0
 90
        0
 40
-0.6
 41
-30.0
 62
     5
 63
     7
 74
     1
 91
        4
 64
     7
 65
   257
 75
     1
175
     1
 42
1.0
 92
        8
 66
     7
 43
1.0
 76
     1
 77
     6
 78
     2
 67
     7
 79
     5
170
     0
171
     0
290
     0
174
     0
 93
        1
 44
50.0
173
     0
291
     1
 45
0.0
1001
ACAD
1000
AcDbSavedByObjectVersion
1070
     0
  0
VISUALSTYLE
  5
83E5
102
{ACAD_XDICTIONARY
360
85BB
102
}
102
{ACAD_REACTORS
330
83D5
102
}
330
83D5
100
AcDbVisualStyle
  2
ColorChange
 70
    16
 71
     2
 72
     2
 73
     3
 90
        0
 40
-0.6
 41
-30.0
 62
     5
 63
     8
 74
     1
 91
        4
 64
     7
 65
   257
 75
     1
175
     1
 42
1.0
 92
        8
 66
     8
 43
1.0
 76
     1
 77
     6
 78
     2
 67
     7
 79
     5
170
     0
171
     0
290
     0
174
     0
 93
        1
 44
0.0
173
     0
291
     1
 45
0.0
1001
ACAD
1000
AcDbSavedByObjectVersion
1070
     0
  0
VISUALSTYLE
  5
83DE
102
{ACAD_XDICTIONARY
360
85AD
102
}
102
{ACAD_REACTORS
330
83D5
102
}
330
83D5
100
AcDbVisualStyle
  2
Conceptual
 70
     9
 71
     3
 72
     2
 73
     0
 90
        0
 40
-0.6
 41
-30.0
 62
     5
 63
     7
 74
     2
 91
        2
 64
     7
 65
   257
 75
     1
175
     1
 42
179.0
 92
        8
 66
     7
 43
1.0
 76
     1
 77
     6
 78
     2
 67
     7
 79
     3
170
     0
171
     0
290
     0
174
     0
 93
        1
 44
0.0
173
     0
291
     0
 45
0.0
1001
ACAD
1000
AcDbSavedByObjectVersion
1070
     0
  0
VISUALSTYLE
  5
83E0
102
{ACAD_XDICTIONARY
360
85B1
102
}
102
{ACAD_REACTORS
330
83D5
102
}
330
83D5
100
AcDbVisualStyle
  2
Dim
 70
    11
 71
     2
 72
     2
 73
     0
 90
        0
 40
-0.6
 41
-30.0
 62
     5
 63
     7
 74
     1
 91
        4
 64
     7
 65
   257
 75
     1
175
     1
 42
1.0
 92
        8
 66
     7
 43
1.0
 76
     1
 77
     6
 78
     2
 67
     7
 79
     5
170
     0
171
     0
290
     0
174
     0
 93
        1
 44
-50.0
173
     0
291
     1
 45
0.0
1001
ACAD
1000
AcDbSavedByObjectVersion
1070
     0
  0
VISUALSTYLE
  5
83ED
102
{ACAD_XDICTIONARY
360
85CB
102
}
102
{ACAD_REACTORS
330
83D5
102
}
330
83D5
100
AcDbVisualStyle
  2
EdgeColorOff
 70
    22
 71
     2
 72
     2
 73
     0
 90
        0
 40
-0.6
 41
-30.0
 62
     5
 63
     7
 74
     1
 91
        4
 64
     7
 65
   257
 75
     1
175
     1
 42
1.0
 92
        8
 66
     7
 43
1.0
 76
     1
 77
     6
 78
     2
 67
     7
 79
     5
170
     0
171
     0
290
     0
174
     0
 93
        1
 44
0.0
173
     0
291
     1
 45
0.0
1001
ACAD
1000
AcDbSavedByObjectVersion
1070
     0
  0
VISUALSTYLE
  5
83E4
102
{ACAD_XDICTIONARY
360
85B9
102
}
102
{ACAD_REACTORS
330
83D5
102
}
330
83D5
100
AcDbVisualStyle
  2
Facepattern
 70
    15
 71
     2
 72
     2
 73
     0
 90
        0
 40
-0.6
 41
-30.0
 62
     5
 63
     7
 74
     1
 91
        4
 64
     7
 65
   257
 75
     1
175
     1
 42
1.0
 92
        8
 66
     7
 43
1.0
 76
     1
 77
     6
 78
     2
 67
     7
 79
     5
170
     0
171
     0
290
     0
174
     0
 93
        1
 44
0.0
173
     0
291
     1
 45
0.0
1001
ACAD
1000
AcDbSavedByObjectVersion
1070
     0
  0
VISUALSTYLE
  5
83D6
102
{ACAD_XDICTIONARY
360
859D
102
}
102
{ACAD_REACTORS
330
83D5
102
}
330
83D5
100
AcDbVisualStyle
  2
Flat
 70
     0
 71
     2
 72
     1
 73
     1
 90
        2
 40
-0.6
 41
30.0
 62
     5
 63
     7
 74
     0
 91
        0
 64
     7
 65
   257
 75
     1
175
     1
 42
1.0
 92
        8
 66
     7
 43
1.0
 76
     1
 77
     6
 78
     2
 67
     7
 79
     5
170
     0
171
     0
290
     0
174
     0
 93
       13
 44
0.0
173
     0
291
     1
 45
0.0
1001
ACAD
1000
AcDbSavedByObjectVersion
1070
     0
  0
VISUALSTYLE
  5
83D7
102
{ACAD_XDICTIONARY
360
859F
102
}
102
{ACAD_REACTORS
330
83D5
102
}
330
83D5
100
AcDbVisualStyle
  2
FlatWithEdges
 70
     1
 71
     2
 72
     1
 73
     1
 90
        2
 40
-0.6
 41
30.0
 62
     5
 63
     7
 74
     1
 91
        0
 64
     7
 65
   257
 75
     1
175
     1
 42
1.0
 92
        0
 66
   257
 43
1.0
 76
     1
 77
     6
 78
     2
 67
     7
 79
     5
170
     0
171
     0
290
     0
174
     0
 93
       13
 44
0.0
173
     0
291
     1
 45
0.0
1001
ACAD
1000
AcDbSavedByObjectVersion
1070
     0
  0
VISUALSTYLE
  5
83D8
102
{ACAD_XDICTIONARY
360
85A1
102
}
102
{ACAD_REACTORS
330
83D5
102
}
330
83D5
100
AcDbVisualStyle
  2
Gouraud
 70
     2
 71
     2
 72
     2
 73
     1
 90
        2
 40
-0.6
 41
30.0
 62
     5
 63
     7
 74
     0
 91
        0
 64
     7
 65
   257
 75
     1
175
     1
 42
1.0
 92
        0
 66
     7
 43
1.0
 76
     1
 77
     6
 78
     2
 67
     7
 79
     5
170
     0
171
     0
290
     0
174
     0
 93
       13
 44
0.0
173
     0
291
     1
 45
0.0
1001
ACAD
1000
AcDbSavedByObjectVersion
1070
     0
  0
VISUALSTYLE
  5
83D9
102
{ACAD_XDICTIONARY
360
85A3
102
}
102
{ACAD_REACTORS
330
83D5
102
}
330
83D5
100
AcDbVisualStyle
  2
GouraudWithEdges
 70
     3
 71
     2
 72
     2
 73
     1
 90
        2
 40
-0.6
 41
30.0
 62
     5
 63
     7
 74
     1
 91
        0
 64
     7
 65
   257
 75
     1
175
     1
 42
1.0
 92
        0
 66
   257
 43
1.0
 76
     1
 77
     6
 78
     2
 67
     7
 79
     5
170
     0
171
     0
290
     0
174
     0
 93
       13
 44
0.0
173
     0
291
     1
 45
0.0
1001
ACAD
1000
AcDbSavedByObjectVersion
1070
     0
  0
VISUALSTYLE
  5
83DD
102
{ACAD_XDICTIONARY
360
85AB
102
}
102
{ACAD_REACTORS
330
83D5
102
}
330
83D5
100
AcDbVisualStyle
  2
Hidden
 70
     6
 71
     1
 72
     2
 73
     2
 90
        0
 40
-0.6
 41
-30.0
 62
     5
 63
     7
 74
     2
 91
        2
 64
     7
 65
   257
 75
     2
175
     1
 42
40.0
 92
        0
 66
   257
 43
1.0
 76
     1
 77
     6
 78
     2
 67
     7
 79
     3
170
     0
171
     0
290
     0
174
     0
 93
        1
 44
0.0
173
     0
291
     0
 45
0.0
1001
ACAD
1000
AcDbSavedByObjectVersion
1070
     0
  0
VISUALSTYLE
  5
83EB
102
{ACAD_XDICTIONARY
360
85C7
102
}
102
{ACAD_REACTORS
330
83D5
102
}
330
83D5
100
AcDbVisualStyle
  2
JitterOff
 70
    20
 71
     2
 72
     2
 73
     0
 90
        0
 40
-0.6
 41
-30.0
 62
     5
 63
     7
 74
     1
 91
        4
 64
     7
 65
   257
 75
     1
175
     1
 42
1.0
 92
       10
 66
     7
 43
1.0
 76
     1
 77
     6
 78
     2
 67
     7
 79
     5
170
     0
171
     0
290
     0
174
     0
 93
        1
 44
0.0
173
     0
291
     1
 45
0.0
1001
ACAD
1000
AcDbSavedByObjectVersion
1070
     0
  0
VISUALSTYLE
  5
83E3
102
{ACAD_XDICTIONARY
360
85B7
102
}
102
{ACAD_REACTORS
330
83D5
102
}
330
83D5
100
AcDbVisualStyle
  2
Linepattern
 70
    14
 71
     2
 72
     2
 73
     0
 90
        0
 40
-0.6
 41
-30.0
 62
     5
 63
     7
 74
     1
 91
        4
 64
     7
 65
   257
 75
     7
175
     7
 42
1.0
 92
        8
 66
     7
 43
1.0
 76
     1
 77
     6
 78
     2
 67
     7
 79
     5
170
     0
171
     0
290
     0
174
     0
 93
        1
 44
0.0
173
     0
291
     1
 45
0.0
1001
ACAD
1000
AcDbSavedByObjectVersion
1070
     0
  0
VISUALSTYLE
  5
83EC
102
{ACAD_XDICTIONARY
360
85C9
102
}
102
{ACAD_REACTORS
330
83D5
102
}
330
83D5
100
AcDbVisualStyle
  2
OverhangOff
 70
    21
 71
     2
 72
     2
 73
     0
 90
        0
 40
-0.6
 41
-30.0
 62
     5
 63
     7
 74
     1
 91
        4
 64
     7
 65
   257
 75
     1
175
     1
 42
1.0
 92
        9
 66
     7
 43
1.0
 76
     1
 77
     6
 78
     2
 67
     7
 79
     5
170
     0
171
     0
290
     0
174
     0
 93
        1
 44
0.0
173
     0
291
     1
 45
0.0
1001
ACAD
1000
AcDbSavedByObjectVersion
1070
     0
  0
VISUALSTYLE
  5
83DF
102
{ACAD_XDICTIONARY
360
85AF
102
}
102
{ACAD_REACTORS
330
83D5
102
}
330
83D5
100
AcDbVisualStyle
  2
Realistic
 70
     8
 71
     2
 72
     3
 73
     0
 90
        2
 40
-0.6
 41
30.0
 62
     5
 63
     7
 74
     0
 91
        0
 64
     7
 65
   257
 75
     1
175
     1
 42
1.0
 92
        8
 66
   257
 43
1.0
 76
     1
 77
     6
 78
     2
 67
     7
 79
     3
170
     0
171
     0
290
     0
174
     0
 93
       13
 44
0.0
173
     0
291
     0
 45
0.0
1001
ACAD
1000
AcDbSavedByObjectVersion
1070
     0
  0
VISUALSTYLE
  5
83EA
102
{ACAD_XDICTIONARY
360
85C5
102
}
102
{ACAD_REACTORS
330
83D5
102
}
330
83D5
100
AcDbVisualStyle
  2
Shaded
 70
    27
 71
     2
 72
     2
 73
     1
 90
        2
 40
-0.6
 41
30.0
 62
     5
 63
     7
 74
     0
 91
        4
 64
     7
 65
   257
 75
     1
175
     1
 42
1.0
 92
        8
 66
   257
 43
1.0
 76
     1
 77
     6
 78
     2
 67
     8
 79
     3
170
     0
171
     0
290
     0
174
     0
 93
        5
 44
0.0
173
     0
291
     0
 45
0.0
1001
ACAD
1000
AcDbSavedByObjectVersion
1070
     0
  0
VISUALSTYLE
  5
83E9
102
{ACAD_XDICTIONARY
360
85C3
102
}
102
{ACAD_REACTORS
330
83D5
102
}
330
83D5
100
AcDbVisualStyle
  2
Shaded with edges
 70
    26
 71
     2
 72
     2
 73
     1
 90
        2
 40
-0.6
 41
30.0
 62
     5
 63
     7
 74
     1
 91
       10
 64
     7
 65
   257
 75
     2
175
     1
 42
1.0
 92
        8
 66
   257
 43
1.0
 76
     1
 77
     6
 78
     2
 67
     7
 79
     3
170
     0
171
     0
290
     0
174
     0
 93
        5
 44
0.0
173
     0
291
     0
 45
0.0
1001
ACAD
1000
AcDbSavedByObjectVersion
1070
     0
  0
VISUALSTYLE
  5
83E6
102
{ACAD_XDICTIONARY
360
85BD
102
}
102
{ACAD_REACTORS
330
83D5
102
}
330
83D5
100
AcDbVisualStyle
  2
Shades of Gray
 70
    23
 71
     2
 72
     2
 73
     3
 90
        0
 40
-0.6
 41
-30.0
 62
     5
 63
     7
 74
     2
 91
        2
 64
     7
 65
     7
 75
     1
175
     1
 42
40.0
 92
        8
 66
     7
 43
1.0
 76
     1
 77
     6
 78
     2
 67
     7
 79
     3
170
     0
171
     0
290
     0
174
     0
 93
        1
 44
0.0
173
     0
291
     0
 45
0.0
1001
ACAD
1000
AcDbSavedByObjectVersion
1070
     0
  0
VISUALSTYLE
  5
83E7
102
{ACAD_XDICTIONARY
360
85BF
102
}
102
{ACAD_REACTORS
330
83D5
102
}
330
83D5
100
AcDbVisualStyle
  2
Sketchy
 70
    24
 71
     1
 72
     2
 73
     2
 90
        0
 40
-0.6
 41
-30.0
 62
     5
 63
     7
 74
     2
 91
        2
 64
     7
 65
     7
 75
     1
175
     1
 42
40.0
 92
       11
 66
     7
 43
1.0
 76
     1
 77
     6
 78
     2
 67
     7
 79
     6
170
     0
171
     0
290
     0
174
     0
 93
        1
 44
0.0
173
     0
291
     0
 45
0.0
1001
ACAD
1000
AcDbSavedByObjectVersion
1070
     0
  0
VISUALSTYLE
  5
83E2
102
{ACAD_XDICTIONARY
360
85B5
102
}
102
{ACAD_REACTORS
330
83D5
102
}
330
83D5
100
AcDbVisualStyle
  2
Thicken
 70
    13
 71
     2
 72
     2
 73
     0
 90
        0
 40
-0.6
 41
-30.0
 62
     5
 63
     7
 74
     1
 91
        4
 64
     7
 65
   257
 75
     1
175
     1
 42
1.0
 92
       12
 66
     7
 43
1.0
 76
     1
 77
     6
 78
     2
 67
     7
 79
     5
170
     0
171
     0
290
     0
174
     0
 93
        1
 44
0.0
173
     0
291
     1
 45
0.0
1001
ACAD
1000
AcDbSavedByObjectVersion
1070
     0
  0
VISUALSTYLE
  5
83DC
102
{ACAD_XDICTIONARY
360
85A9
102
}
102
{ACAD_REACTORS
330
83D5
102
}
330
83D5
100
AcDbVisualStyle
  2
Wireframe
 70
     5
 71
     0
 72
     2
 73
     0
 90
        0
 40
-0.6
 41
-30.0
 62
     5
 63
     7
 74
     1
 91
        4
 64
     7
 65
   257
 75
     1
175
     1
 42
1.0
 92
        0
 66
   257
 43
1.0
 76
     1
 77
     6
 78
     2
 67
     7
 79
     3
170
     0
171
     0
290
     0
174
     0
 93
        1
 44
0.0
173
     0
291
     0
 45
0.0
1001
ACAD
1000
AcDbSavedByObjectVersion
1070
     0
  0
VISUALSTYLE
  5
83E8
102
{ACAD_XDICTIONARY
360
85C1
102
}
102
{ACAD_REACTORS
330
83D5
102
}
330
83D5
100
AcDbVisualStyle
  2
X-Ray
 70
    25
 71
     2
 72
     2
 73
     1
 90
        1
 40
0.5
 41
-30.0
 62
     5
 63
     7
 74
     1
 91
        0
 64
     7
 65
   257
 75
     1
175
     1
 42
1.0
 92
        8
 66
     7
 43
1.0
 76
     1
 77
     6
 78
     2
 67
     7
 79
     3
170
     0
171
     0
290
     0
174
     0
 93
       13
 44
0.0
173
     0
291
     0
 45
0.0
1001
ACAD
1000
AcDbSavedByObjectVersion
1070
     0
  0
DICTIONARYVAR
  5
8590
102
{ACAD_REACTORS
330
858B
102
}
330
858B
100
DictionaryVariables
280
     0
  1
1:1
  0
DICTIONARYVAR
  5
858D
102
{ACAD_REACTORS
330
858B
102
}
330
858B
100
DictionaryVariables
280
     0
  1
STANDARD
  0
DICTIONARYVAR
  5
858C
102
{ACAD_REACTORS
330
858B
102
}
330
858B
100
DictionaryVariables
280
     0
  1
STANDARD
  0
DICTIONARYVAR
  5
858E
102
{ACAD_REACTORS
330
858B
102
}
330
858B
100
DictionaryVariables
280
     0
  1
Imperial24
  0
DICTIONARYVAR
  5
858F
102
{ACAD_REACTORS
330
858B
102
}
330
858B
100
DictionaryVariables
280
     0
  1
Imperial24
  0
DICTIONARYVAR
  5
8593
102
{ACAD_REACTORS
330
858B
102
}
330
858B
100
DictionaryVariables
280
     0
  1
1
  0
DICTIONARYVAR
  5
8592
102
{ACAD_REACTORS
330
858B
102
}
330
858B
100
DictionaryVariables
280
     0
  1
0
  0
DICTIONARYVAR
  5
8591
102
{ACAD_REACTORS
330
858B
102
}
330
858B
100
DictionaryVariables
280
     0
  1
127
  0
DICTIONARYVAR
  5
8594
102
{ACAD_REACTORS
330
858B
102
}
330
858B
100
DictionaryVariables
280
     0
  1
2
  0
DICTIONARY
  5
85D1
330
8416
100
AcDbDictionary
280
     1
281
     1
  3
ACAD_XREC_ROUNDTRIP
360
85D2
  0
DICTIONARY
  5
85D5
330
841E
100
AcDbDictionary
280
     1
281
     1
  3
ACAD_XREC_ROUNDTRIP
360
85D6
  0
DICTIONARY
  5
85D3
330
841A
100
AcDbDictionary
280
     1
281
     1
  3
ACAD_XREC_ROUNDTRIP
360
85D4
  0
DICTIONARY
  5
83C6
330
83C5
100
AcDbDictionary
280
     1
281
     1
  3
ACAD_XREC_ROUNDTRIP
360
859B
  3
BUMPTILE
360
83C8
  3
DIFFUSETILE
360
83C7
  3
OPACITYTILE
360
83CB
  3
REFLECTIONTILE
360
83CA
  3
REFRACTIONTILE
360
83CC
  3
SPECULARTILE
360
83C9
  0
DICTIONARY
  5
83BE
330
83BD
100
AcDbDictionary
280
     1
281
     1
  3
ACAD_XREC_ROUNDTRIP
360
859A
  3
BUMPTILE
360
83C0
  3
DIFFUSETILE
360
83BF
  3
OPACITYTILE
360
83C3
  3
REFLECTIONTILE
360
83C2
  3
REFRACTIONTILE
360
83C4
  3
SPECULARTILE
360
83C1
  0
DICTIONARY
  5
83CE
330
83CD
100
AcDbDictionary
280
     1
281
     1
  3
ACAD_XREC_ROUNDTRIP
360
859C
  3
BUMPTILE
360
83D0
  3
DIFFUSETILE
360
83CF
  3
OPACITYTILE
360
83D3
  3
REFLECTIONTILE
360
83D2
  3
REFRACTIONTILE
360
83D4
  3
SPECULARTILE
360
83D1
  0
DICTIONARY
  5
85CF
330
8414
100
AcDbDictionary
280
     1
281
     1
  3
ACAD_XREC_ROUNDTRIP
360
85D0
  0
DICTIONARY
  5
8596
330
8410
100
AcDbDictionary
280
     1
281
     1
  3
ACAD_ROUNDTRIP_2008_TABLESTYLE_CELLSTYLEMAP
360
8597
  3
ACAD_XREC_ROUNDTRIP
360
85CD
  0
DICTIONARY
  5
85A7
330
83DB
100
AcDbDictionary
280
     1
281
     1
  3
ACAD_XREC_ROUNDTRIP
360
85A8
  0
DICTIONARY
  5
85A5
330
83DA
100
AcDbDictionary
280
     1
281
     1
  3
ACAD_XREC_ROUNDTRIP
360
85A6
  0
DICTIONARY
  5
85B3
330
83E1
100
AcDbDictionary
280
     1
281
     1
  3
ACAD_XREC_ROUNDTRIP
360
85B4
  0
DICTIONARY
  5
85BB
330
83E5
100
AcDbDictionary
280
     1
281
     1
  3
ACAD_XREC_ROUNDTRIP
360
85BC
  0
DICTIONARY
  5
85AD
330
83DE
100
AcDbDictionary
280
     1
281
     1
  3
ACAD_XREC_ROUNDTRIP
360
85AE
  0
DICTIONARY
  5
85B1
330
83E0
100
AcDbDictionary
280
     1
281
     1
  3
ACAD_XREC_ROUNDTRIP
360
85B2
  0
DICTIONARY
  5
85CB
330
83ED
100
AcDbDictionary
280
     1
281
     1
  3
ACAD_XREC_ROUNDTRIP
360
85CC
  0
DICTIONARY
  5
85B9
330
83E4
100
AcDbDictionary
280
     1
281
     1
  3
ACAD_XREC_ROUNDTRIP
360
85BA
  0
DICTIONARY
  5
859D
330
83D6
100
AcDbDictionary
280
     1
281
     1
  3
ACAD_XREC_ROUNDTRIP
360
859E
  0
DICTIONARY
  5
859F
330
83D7
100
AcDbDictionary
280
     1
281
     1
  3
ACAD_XREC_ROUNDTRIP
360
85A0
  0
DICTIONARY
  5
85A1
330
83D8
100
AcDbDictionary
280
     1
281
     1
  3
ACAD_XREC_ROUNDTRIP
360
85A2
  0
DICTIONARY
  5
85A3
330
83D9
100
AcDbDictionary
280
     1
281
     1
  3
ACAD_XREC_ROUNDTRIP
360
85A4
  0
DICTIONARY
  5
85AB
330
83DD
100
AcDbDictionary
280
     1
281
     1
  3
ACAD_XREC_ROUNDTRIP
360
85AC
  0
DICTIONARY
  5
85C7
330
83EB
100
AcDbDictionary
280
     1
281
     1
  3
ACAD_XREC_ROUNDTRIP
360
85C8
  0
DICTIONARY
  5
85B7
330
83E3
100
AcDbDictionary
280
     1
281
     1
  3
ACAD_XREC_ROUNDTRIP
360
85B8
  0
DICTIONARY
  5
85C9
330
83EC
100
AcDbDictionary
280
     1
281
     1
  3
ACAD_XREC_ROUNDTRIP
360
85CA
  0
DICTIONARY
  5
85AF
330
83DF
100
AcDbDictionary
280
     1
281
     1
  3
ACAD_XREC_ROUNDTRIP
360
85B0
  0
DICTIONARY
  5
85C5
330
83EA
100
AcDbDictionary
280
     1
281
     1
  3
ACAD_XREC_ROUNDTRIP
360
85C6
  0
DICTIONARY
  5
85C3
330
83E9
100
AcDbDictionary
280
     1
281
     1
  3
ACAD_XREC_ROUNDTRIP
360
85C4
  0
DICTIONARY
  5
85BD
330
83E6
100
AcDbDictionary
280
     1
281
     1
  3
ACAD_XREC_ROUNDTRIP
360
85BE
  0
DICTIONARY
  5
85BF
330
83E7
100
AcDbDictionary
280
     1
281
     1
  3
ACAD_XREC_ROUNDTRIP
360
85C0
  0
DICTIONARY
  5
85B5
330
83E2
100
AcDbDictionary
280
     1
281
     1
  3
ACAD_XREC_ROUNDTRIP
360
85B6
  0
DICTIONARY
  5
85A9
330
83DC
100
AcDbDictionary
280
     1
281
     1
  3
ACAD_XREC_ROUNDTRIP
360
85AA
  0
DICTIONARY
  5
85C1
330
83E8
100
AcDbDictionary
280
     1
281
     1
  3
ACAD_XREC_ROUNDTRIP
360
85C2
  0
XRECORD
  5
85D2
102
{ACAD_REACTORS
330
85D1
102
}
330
85D1
100
AcDbXrecord
280
     1
102
DISPLAYNAME
  1
Imperial24
102
FLAGS
 90
        0
  0
XRECORD
  5
85D6
102
{ACAD_REACTORS
330
85D5
102
}
330
85D5
100
AcDbXrecord
280
     1
102
SHADEPLOT
 70
     0
102
SHADEPLOTRESLEVEL
 70
     2
102
SHADEPLOTCUSTOMDPI
 70
   300
  0
XRECORD
  5
85D4
102
{ACAD_REACTORS
330
85D3
102
}
330
85D3
100
AcDbXrecord
280
     1
102
SHADEPLOT
 70
     0
102
SHADEPLOTRESLEVEL
 70
     2
102
SHADEPLOTCUSTOMDPI
 70
   300
  0
XRECORD
  5
859B
102
{ACAD_REACTORS
330
83C6
102
}
330
83C6
100
AcDbXrecord
280
     1
102
MATERIAL
148
0.0
149
0.0
149
0.0
 93
        0
 94
      127
282
     0
 72
     0
 77
     0
171
     0
175
     0
179
     0
273
     0
  0
XRECORD
  5
83C8
102
{ACAD_REACTORS
330
83C6
102
}
330
83C6
100
AcDbXrecord
280
     1
270
     1
271
     1
  0
XRECORD
  5
83C7
102
{ACAD_REACTORS
330
83C6
102
}
330
83C6
100
AcDbXrecord
280
     1
270
     1
271
     1
  0
XRECORD
  5
83CB
102
{ACAD_REACTORS
330
83C6
102
}
330
83C6
100
AcDbXrecord
280
     1
270
     1
271
     1
  0
XRECORD
  5
83CA
102
{ACAD_REACTORS
330
83C6
102
}
330
83C6
100
AcDbXrecord
280
     1
270
     1
271
     1
  0
XRECORD
  5
83CC
102
{ACAD_REACTORS
330
83C6
102
}
330
83C6
100
AcDbXrecord
280
     1
270
     1
271
     1
  0
XRECORD
  5
83C9
102
{ACAD_REACTORS
330
83C6
102
}
330
83C6
100
AcDbXrecord
280
     1
270
     1
271
     1
  0
XRECORD
  5
859A
102
{ACAD_REACTORS
330
83BE
102
}
330
83BE
100
AcDbXrecord
280
     1
102
MATERIAL
148
0.0
149
0.0
149
0.0
 93
        0
 94
      127
282
     0
 72
     0
 77
     0
171
     0
175
     0
179
     0
273
     0
  0
XRECORD
  5
83C0
102
{ACAD_REACTORS
330
83BE
102
}
330
83BE
100
AcDbXrecord
280
     1
270
     1
271
     1
  0
XRECORD
  5
83BF
102
{ACAD_REACTORS
330
83BE
102
}
330
83BE
100
AcDbXrecord
280
     1
270
     1
271
     1
  0
XRECORD
  5
83C3
102
{ACAD_REACTORS
330
83BE
102
}
330
83BE
100
AcDbXrecord
280
     1
270
     1
271
     1
  0
XRECORD
  5
83C2
102
{ACAD_REACTORS
330
83BE
102
}
330
83BE
100
AcDbXrecord
280
     1
270
     1
271
     1
  0
XRECORD
  5
83C4
102
{ACAD_REACTORS
330
83BE
102
}
330
83BE
100
AcDbXrecord
280
     1
270
     1
271
     1
  0
XRECORD
  5
83C1
102
{ACAD_REACTORS
330
83BE
102
}
330
83BE
100
AcDbXrecord
280
     1
270
     1
271
     1
  0
XRECORD
  5
859C
102
{ACAD_REACTORS
330
83CE
102
}
330
83CE
100
AcDbXrecord
280
     1
102
MATERIAL
148
0.0
149
0.0
149
0.0
 93
        0
 94
      127
282
     0
 72
     0
 77
     0
171
     0
175
     0
179
     0
273
     0
  0
XRECORD
  5
83D0
102
{ACAD_REACTORS
330
83CE
102
}
330
83CE
100
AcDbXrecord
280
     1
270
     1
271
     1
  0
XRECORD
  5
83CF
102
{ACAD_REACTORS
330
83CE
102
}
330
83CE
100
AcDbXrecord
280
     1
270
     1
271
     1
  0
XRECORD
  5
83D3
102
{ACAD_REACTORS
330
83CE
102
}
330
83CE
100
AcDbXrecord
280
     1
270
     1
271
     1
  0
XRECORD
  5
83D2
102
{ACAD_REACTORS
330
83CE
102
}
330
83CE
100
AcDbXrecord
280
     1
270
     1
271
     1
  0
XRECORD
  5
83D4
102
{ACAD_REACTORS
330
83CE
102
}
330
83CE
100
AcDbXrecord
280
     1
270
     1
271
     1
  0
XRECORD
  5
83D1
102
{ACAD_REACTORS
330
83CE
102
}
330
83CE
100
AcDbXrecord
280
     1
270
     1
271
     1
  0
XRECORD
  5
85D0
102
{ACAD_REACTORS
330
85CF
102
}
330
85CF
100
AcDbXrecord
280
     1
102
DISPLAYNAME
  1
Imperial24
102
FLAGS
 90
        0
  0
CELLSTYLEMAP
  5
8597
102
{ACAD_REACTORS
330
8596
102
}
330
8596
100
AcDbCellStyleMap
 90
        3
300
CELLSTYLE
  1
TABLEFORMAT_BEGIN
 90
        5
170
     1
 91
        0
 92
    32768
 62
   257
 93
        1
300
CONTENTFORMAT
  1
CONTENTFORMAT_BEGIN
 90
        0
 91
        0
 92
      512
 93
        0
300

 40
0.0
140
1.0
 94
        5
 62
     0
340
8401
144
0.25
309
CONTENTFORMAT_END
171
     0
 94
        0
309
TABLEFORMAT_END
  1
CELLSTYLE_BEGIN
 90
        1
 91
        1
300
_TITLE
309
CELLSTYLE_END
300
CELLSTYLE
  1
TABLEFORMAT_BEGIN
 90
        5
170
     1
 91
        0
 92
        0
 62
   257
 93
        1
300
CONTENTFORMAT
  1
CONTENTFORMAT_BEGIN
 90
        0
 91
        0
 92
      512
 93
        0
300

 40
0.0
140
1.0
 94
        5
 62
     0
340
8401
144
0.18
309
CONTENTFORMAT_END
171
     0
 94
        0
309
TABLEFORMAT_END
  1
CELLSTYLE_BEGIN
 90
        2
 91
        1
300
_HEADER
309
CELLSTYLE_END
300
CELLSTYLE
  1
TABLEFORMAT_BEGIN
 90
        5
170
     1
 91
        0
 92
        0
 62
   257
 93
        1
300
CONTENTFORMAT
  1
CONTENTFORMAT_BEGIN
 90
        0
 91
        0
 92
      512
 93
        0
300

 40
0.0
140
1.0
 94
        2
 62
     0
340
8401
144
0.18
309
CONTENTFORMAT_END
171
     0
 94
        0
309
TABLEFORMAT_END
  1
CELLSTYLE_BEGIN
 90
        3
 91
        2
300
_DATA
309
CELLSTYLE_END
  0
XRECORD
  5
85CD
102
{ACAD_REACTORS
330
8596
102
}
330
8596
100
AcDbXrecord
280
     1
102
ACAD_ROUNDTRIP_PRE2007_TABLESTYLE
 90
      512
 91
        0
  1

 92
      512
 93
        0
  2

 94
      512
 95
        0
  3

  0
XRECORD
  5
85A8
102
{ACAD_REACTORS
330
85A7
102
}
330
85A7
100
AcDbXrecord
280
     1
102
RTVSPost2010Prop28
280
     1
102
RTVSPost2010PropOp28
 70
     1
102
RTVSPost2010Prop29
280
     1
102
RTVSPost2010PropOp29
 70
     1
102
RTVSPost2010Prop30
280
     0
102
RTVSPost2010PropOp30
 70
     1
102
RTVSPost2010Prop31
280
     0
102
RTVSPost2010PropOp31
 70
     1
102
RTVSPost2010Prop32
280
     0
102
RTVSPost2010PropOp32
 70
     1
102
RTVSPost2010Prop33
280
     0
102
RTVSPost2010PropOp33
 70
     1
102
RTVSPost2010Prop34
280
     0
102
RTVSPost2010PropOp34
 70
     1
102
RTVSPost2010Prop35
280
     0
102
RTVSPost2010PropOp35
 70
     1
102
RTVSPost2010Prop36
280
     0
102
RTVSPost2010PropOp36
 70
     1
102
RTVSPost2010Prop37
 90
       50
102
RTVSPost2010PropOp37
 70
     1
102
RTVSPost2010Prop38
140
0.0
102
RTVSPost2010PropOp38
 70
     1
102
RTVSPost2010Prop39
140
1.0
102
RTVSPost2010PropOp39
 70
     1
102
RTVSPost2010Prop40
 90
        0
102
RTVSPost2010PropOp40
 70
     1
102
RTVSPost2010Prop41ColorIndex
 90
       18
102
RTVSPost2010Prop41ColorRGB
 90
        0
102
RTVSPost2010PropOp41
 70
     1
102
RTVSPost2010Prop42
 90
       50
102
RTVSPost2010PropOp42
 70
     1
102
RTVSPost2010Prop43
 90
        3
102
RTVSPost2010PropOp43
 70
     1
102
RTVSPost2010Prop44ColorIndex
 90
        5
102
RTVSPost2010Prop44ColorRGB
 90
      255
102
RTVSPost2010PropOp44
 70
     1
102
RTVSPost2010Prop45
280
     0
102
RTVSPost2010PropOp45
 70
     1
102
RTVSPost2010Prop46
 90
       50
102
RTVSPost2010PropOp46
 70
     1
102
RTVSPost2010Prop47
 90
       50
102
RTVSPost2010PropOp47
 70
     1
102
RTVSPost2010Prop48
 90
       50
102
RTVSPost2010PropOp48
 70
     1
102
RTVSPost2010Prop49
280
     0
102
RTVSPost2010PropOp49
 70
     1
102
RTVSPost2010Prop50
 90
       50
102
RTVSPost2010PropOp50
 70
     1
102
RTVSPost2010Prop51ColorIndex
 90
      256
102
RTVSPost2010Prop51ColorRGB
 90
-16777216
102
RTVSPost2010PropOp51
 70
     0
102
RTVSPost2010Prop52
140
1.0
102
RTVSPost2010PropOp52
 70
     0
102
RTVSPost2010Prop53
 90
        2
102
RTVSPost2010PropOp53
 70
     1
102
RTVSPost2010Prop54
  1
strokes_ogs.tif
102
RTVSPost2010PropOp54
 70
     1
102
RTVSPost2010Prop55
280
     0
102
RTVSPost2010PropOp55
 70
     1
102
RTVSPost2010Prop56
140
1.0
102
RTVSPost2010PropOp56
 70
     1
102
RTVSPost2010Prop57
140
1.0
102
RTVSPost2010PropOp57
 70
     1
102
RTVSPropertyOp0
 70
     1
102
RTVSPropertyOp1
 70
     1
102
RTVSPropertyOp2
 70
     1
102
RTVSPropertyOp3
 70
     1
102
RTVSPropertyOp4
 70
     1
102
RTVSPropertyOp5
 70
     1
102
RTVSPropertyOp6
 70
     1
102
RTVSPropertyOp7
 70
     1
102
RTVSPropertyOp8
 70
     1
102
RTVSPropertyOp9
 70
     1
102
RTVSPropertyOp10
 70
     1
102
RTVSPropertyOp11
 70
     1
102
RTVSPropertyOp12
 70
     1
102
RTVSPropertyOp13
 70
     1
102
RTVSPropertyOp14
 70
     1
102
RTVSPropertyOp15
 70
     1
102
RTVSPropertyOp16
 70
     1
102
RTVSPropertyOp17
 70
     1
102
RTVSPropertyOp18
 70
     1
102
RTVSPropertyOp19
 70
     1
102
RTVSPropertyOp20
 70
     1
102
RTVSPropertyOp21
 70
     1
102
RTVSPropertyOp22
 70
     1
102
RTVSPropertyOp23
 70
     1
102
RTVSPropertyOp24
 70
     1
102
RTVSPropertyOp25
 70
     1
102
RTVSPropertyOp26
 70
     1
102
RTVSPropertyOp27
 70
     1
102
RTVSPropertyOp28
 70
     1
102
RTVSPropertyOp29
 70
     1
102
RTVSPropertyOp30
 70
     1
102
RTVSPropertyOp31
 70
     1
102
RTVSPropertyOp32
 70
     1
102
RTVSPropertyOp33
 70
     1
102
RTVSPropertyOp34
 70
     1
102
RTVSPropertyOp35
 70
     1
102
RTVSPropertyOp36
 70
     1
102
RTVSPropertyOp37
 70
     1
102
RTVSPropertyOp38
 70
     1
102
RTVSPropertyOp39
 70
     1
102
RTVSPropertyOp40
 70
     1
102
RTVSPropertyOp41
 70
     1
102
RTVSPropertyOp42
 70
     1
102
RTVSPropertyOp43
 70
     1
102
RTVSPropertyOp44
 70
     1
102
RTVSPropertyOp45
 70
     1
102
RTVSPropertyOp46
 70
     1
102
RTVSPropertyOp47
 70
     1
102
RTVSPropertyOp48
 70
     1
102
RTVSPropertyOp49
 70
     1
102
RTVSPropertyOp50
 70
     1
102
RTVSPropertyOp51
 70
     0
102
RTVSPropertyOp52
 70
     0
102
RTVSPropertyOp53
 70
     1
102
RTVSPropertyOp54
 70
     1
102
RTVSPropertyOp55
 70
     1
102
RTVSPropertyOp56
 70
     1
102
RTVSPropertyOp57
 70
     1
102
RTVSPropertyOp58
 70
     1
102
RTVSPropertyOp59
 70
     1
102
RTVSPropertyOp60
 70
     1
102
RTVSPropertyOp61
 70
     1
102
RTVSPropertyOp62
 70
     1
  0
XRECORD
  5
85A6
102
{ACAD_REACTORS
330
85A5
102
}
330
85A5
100
AcDbXrecord
280
     1
102
RTVSPost2010Prop28
280
     0
102
RTVSPost2010PropOp28
 70
     1
102
RTVSPost2010Prop29
280
     1
102
RTVSPost2010PropOp29
 70
     1
102
RTVSPost2010Prop30
280
     1
102
RTVSPost2010PropOp30
 70
     1
102
RTVSPost2010Prop31
280
     0
102
RTVSPost2010PropOp31
 70
     1
102
RTVSPost2010Prop32
280
     0
102
RTVSPost2010PropOp32
 70
     1
102
RTVSPost2010Prop33
280
     0
102
RTVSPost2010PropOp33
 70
     1
102
RTVSPost2010Prop34
280
     0
102
RTVSPost2010PropOp34
 70
     1
102
RTVSPost2010Prop35
280
     0
102
RTVSPost2010PropOp35
 70
     1
102
RTVSPost2010Prop36
280
     0
102
RTVSPost2010PropOp36
 70
     1
102
RTVSPost2010Prop37
 90
       50
102
RTVSPost2010PropOp37
 70
     1
102
RTVSPost2010Prop38
140
0.0
102
RTVSPost2010PropOp38
 70
     1
102
RTVSPost2010Prop39
140
1.0
102
RTVSPost2010PropOp39
 70
     1
102
RTVSPost2010Prop40
 90
        0
102
RTVSPost2010PropOp40
 70
     1
102
RTVSPost2010Prop41ColorIndex
 90
       18
102
RTVSPost2010Prop41ColorRGB
 90
        0
102
RTVSPost2010PropOp41
 70
     1
102
RTVSPost2010Prop42
 90
       50
102
RTVSPost2010PropOp42
 70
     1
102
RTVSPost2010Prop43
 90
        3
102
RTVSPost2010PropOp43
 70
     1
102
RTVSPost2010Prop44ColorIndex
 90
        5
102
RTVSPost2010Prop44ColorRGB
 90
      255
102
RTVSPost2010PropOp44
 70
     1
102
RTVSPost2010Prop45
280
     0
102
RTVSPost2010PropOp45
 70
     1
102
RTVSPost2010Prop46
 90
       50
102
RTVSPost2010PropOp46
 70
     1
102
RTVSPost2010Prop47
 90
       50
102
RTVSPost2010PropOp47
 70
     1
102
RTVSPost2010Prop48
 90
       50
102
RTVSPost2010PropOp48
 70
     1
102
RTVSPost2010Prop49
280
     0
102
RTVSPost2010PropOp49
 70
     1
102
RTVSPost2010Prop50
 90
       50
102
RTVSPost2010PropOp50
 70
     1
102
RTVSPost2010Prop51ColorIndex
 90
      256
102
RTVSPost2010Prop51ColorRGB
 90
-16777216
102
RTVSPost2010PropOp51
 70
     0
102
RTVSPost2010Prop52
140
1.0
102
RTVSPost2010PropOp52
 70
     0
102
RTVSPost2010Prop53
 90
        2
102
RTVSPost2010PropOp53
 70
     1
102
RTVSPost2010Prop54
  1
strokes_ogs.tif
102
RTVSPost2010PropOp54
 70
     1
102
RTVSPost2010Prop55
280
     0
102
RTVSPost2010PropOp55
 70
     1
102
RTVSPost2010Prop56
140
1.0
102
RTVSPost2010PropOp56
 70
     1
102
RTVSPost2010Prop57
140
1.0
102
RTVSPost2010PropOp57
 70
     1
102
RTVSPropertyOp0
 70
     1
102
RTVSPropertyOp1
 70
     1
102
RTVSPropertyOp2
 70
     1
102
RTVSPropertyOp3
 70
     1
102
RTVSPropertyOp4
 70
     1
102
RTVSPropertyOp5
 70
     1
102
RTVSPropertyOp6
 70
     1
102
RTVSPropertyOp7
 70
     1
102
RTVSPropertyOp8
 70
     1
102
RTVSPropertyOp9
 70
     1
102
RTVSPropertyOp10
 70
     1
102
RTVSPropertyOp11
 70
     1
102
RTVSPropertyOp12
 70
     1
102
RTVSPropertyOp13
 70
     1
102
RTVSPropertyOp14
 70
     1
102
RTVSPropertyOp15
 70
     1
102
RTVSPropertyOp16
 70
     1
102
RTVSPropertyOp17
 70
     1
102
RTVSPropertyOp18
 70
     1
102
RTVSPropertyOp19
 70
     1
102
RTVSPropertyOp20
 70
     1
102
RTVSPropertyOp21
 70
     1
102
RTVSPropertyOp22
 70
     1
102
RTVSPropertyOp23
 70
     1
102
RTVSPropertyOp24
 70
     1
102
RTVSPropertyOp25
 70
     1
102
RTVSPropertyOp26
 70
     1
102
RTVSPropertyOp27
 70
     1
102
RTVSPropertyOp28
 70
     1
102
RTVSPropertyOp29
 70
     1
102
RTVSPropertyOp30
 70
     1
102
RTVSPropertyOp31
 70
     1
102
RTVSPropertyOp32
 70
     1
102
RTVSPropertyOp33
 70
     1
102
RTVSPropertyOp34
 70
     1
102
RTVSPropertyOp35
 70
     1
102
RTVSPropertyOp36
 70
     1
102
RTVSPropertyOp37
 70
     1
102
RTVSPropertyOp38
 70
     1
102
RTVSPropertyOp39
 70
     1
102
RTVSPropertyOp40
 70
     1
102
RTVSPropertyOp41
 70
     1
102
RTVSPropertyOp42
 70
     1
102
RTVSPropertyOp43
 70
     1
102
RTVSPropertyOp44
 70
     1
102
RTVSPropertyOp45
 70
     1
102
RTVSPropertyOp46
 70
     1
102
RTVSPropertyOp47
 70
     1
102
RTVSPropertyOp48
 70
     1
102
RTVSPropertyOp49
 70
     1
102
RTVSPropertyOp50
 70
     1
102
RTVSPropertyOp51
 70
     0
102
RTVSPropertyOp52
 70
     0
102
RTVSPropertyOp53
 70
     1
102
RTVSPropertyOp54
 70
     1
102
RTVSPropertyOp55
 70
     1
102
RTVSPropertyOp56
 70
     1
102
RTVSPropertyOp57
 70
     1
102
RTVSPropertyOp58
 70
     1
102
RTVSPropertyOp59
 70
     1
102
RTVSPropertyOp60
 70
     1
102
RTVSPropertyOp61
 70
     1
102
RTVSPropertyOp62
 70
     1
  0
XRECORD
  5
85B4
102
{ACAD_REACTORS
330
85B3
102
}
330
85B3
100
AcDbXrecord
280
     1
102
RTVSPost2010Prop28
280
     0
102
RTVSPost2010PropOp28
 70
     1
102
RTVSPost2010Prop29
280
     1
102
RTVSPost2010PropOp29
 70
     1
102
RTVSPost2010Prop30
280
     1
102
RTVSPost2010PropOp30
 70
     1
102
RTVSPost2010Prop31
280
     0
102
RTVSPost2010PropOp31
 70
     1
102
RTVSPost2010Prop32
280
     0
102
RTVSPost2010PropOp32
 70
     1
102
RTVSPost2010Prop33
280
     0
102
RTVSPost2010PropOp33
 70
     1
102
RTVSPost2010Prop34
280
     0
102
RTVSPost2010PropOp34
 70
     1
102
RTVSPost2010Prop35
280
     0
102
RTVSPost2010PropOp35
 70
     1
102
RTVSPost2010Prop36
280
     0
102
RTVSPost2010PropOp36
 70
     1
102
RTVSPost2010Prop37
 90
       50
102
RTVSPost2010PropOp37
 70
     1
102
RTVSPost2010Prop38
140
0.0
102
RTVSPost2010PropOp38
 70
     1
102
RTVSPost2010Prop39
140
1.0
102
RTVSPost2010PropOp39
 70
     1
102
RTVSPost2010Prop40
 90
        0
102
RTVSPost2010PropOp40
 70
     1
102
RTVSPost2010Prop41ColorIndex
 90
       18
102
RTVSPost2010Prop41ColorRGB
 90
        0
102
RTVSPost2010PropOp41
 70
     1
102
RTVSPost2010Prop42
 90
       50
102
RTVSPost2010PropOp42
 70
     1
102
RTVSPost2010Prop43
 90
        3
102
RTVSPost2010PropOp43
 70
     1
102
RTVSPost2010Prop44ColorIndex
 90
        5
102
RTVSPost2010Prop44ColorRGB
 90
      255
102
RTVSPost2010PropOp44
 70
     1
102
RTVSPost2010Prop45
280
     0
102
RTVSPost2010PropOp45
 70
     1
102
RTVSPost2010Prop46
 90
       50
102
RTVSPost2010PropOp46
 70
     1
102
RTVSPost2010Prop47
 90
       50
102
RTVSPost2010PropOp47
 70
     1
102
RTVSPost2010Prop48
 90
       50
102
RTVSPost2010PropOp48
 70
     1
102
RTVSPost2010Prop49
280
     0
102
RTVSPost2010PropOp49
 70
     1
102
RTVSPost2010Prop50
 90
       50
102
RTVSPost2010PropOp50
 70
     1
102
RTVSPost2010Prop51ColorIndex
 90
      256
102
RTVSPost2010Prop51ColorRGB
 90
-16777216
102
RTVSPost2010PropOp51
 70
     0
102
RTVSPost2010Prop52
140
1.0
102
RTVSPost2010PropOp52
 70
     0
102
RTVSPost2010Prop53
 90
        2
102
RTVSPost2010PropOp53
 70
     1
102
RTVSPost2010Prop54
  1
strokes_ogs.tif
102
RTVSPost2010PropOp54
 70
     1
102
RTVSPost2010Prop55
280
     0
102
RTVSPost2010PropOp55
 70
     1
102
RTVSPost2010Prop56
140
1.0
102
RTVSPost2010PropOp56
 70
     1
102
RTVSPost2010Prop57
140
1.0
102
RTVSPost2010PropOp57
 70
     1
102
RTVSPropertyOp0
 70
     1
102
RTVSPropertyOp1
 70
     1
102
RTVSPropertyOp2
 70
     1
102
RTVSPropertyOp3
 70
     1
102
RTVSPropertyOp4
 70
     1
102
RTVSPropertyOp5
 70
     1
102
RTVSPropertyOp6
 70
     1
102
RTVSPropertyOp7
 70
     1
102
RTVSPropertyOp8
 70
     1
102
RTVSPropertyOp9
 70
     1
102
RTVSPropertyOp10
 70
     1
102
RTVSPropertyOp11
 70
     1
102
RTVSPropertyOp12
 70
     1
102
RTVSPropertyOp13
 70
     1
102
RTVSPropertyOp14
 70
     1
102
RTVSPropertyOp15
 70
     1
102
RTVSPropertyOp16
 70
     1
102
RTVSPropertyOp17
 70
     1
102
RTVSPropertyOp18
 70
     1
102
RTVSPropertyOp19
 70
     1
102
RTVSPropertyOp20
 70
     1
102
RTVSPropertyOp21
 70
     1
102
RTVSPropertyOp22
 70
     1
102
RTVSPropertyOp23
 70
     1
102
RTVSPropertyOp24
 70
     1
102
RTVSPropertyOp25
 70
     1
102
RTVSPropertyOp26
 70
     1
102
RTVSPropertyOp27
 70
     1
102
RTVSPropertyOp28
 70
     1
102
RTVSPropertyOp29
 70
     1
102
RTVSPropertyOp30
 70
     1
102
RTVSPropertyOp31
 70
     1
102
RTVSPropertyOp32
 70
     1
102
RTVSPropertyOp33
 70
     1
102
RTVSPropertyOp34
 70
     1
102
RTVSPropertyOp35
 70
     1
102
RTVSPropertyOp36
 70
     1
102
RTVSPropertyOp37
 70
     1
102
RTVSPropertyOp38
 70
     1
102
RTVSPropertyOp39
 70
     1
102
RTVSPropertyOp40
 70
     1
102
RTVSPropertyOp41
 70
     1
102
RTVSPropertyOp42
 70
     1
102
RTVSPropertyOp43
 70
     1
102
RTVSPropertyOp44
 70
     1
102
RTVSPropertyOp45
 70
     1
102
RTVSPropertyOp46
 70
     1
102
RTVSPropertyOp47
 70
     1
102
RTVSPropertyOp48
 70
     1
102
RTVSPropertyOp49
 70
     1
102
RTVSPropertyOp50
 70
     1
102
RTVSPropertyOp51
 70
     0
102
RTVSPropertyOp52
 70
     0
102
RTVSPropertyOp53
 70
     1
102
RTVSPropertyOp54
 70
     1
102
RTVSPropertyOp55
 70
     1
102
RTVSPropertyOp56
 70
     1
102
RTVSPropertyOp57
 70
     1
102
RTVSPropertyOp58
 70
     1
102
RTVSPropertyOp59
 70
     1
102
RTVSPropertyOp60
 70
     1
102
RTVSPropertyOp61
 70
     1
102
RTVSPropertyOp62
 70
     1
  0
XRECORD
  5
85BC
102
{ACAD_REACTORS
330
85BB
102
}
330
85BB
100
AcDbXrecord
280
     1
102
RTVSPost2010Prop28
280
     0
102
RTVSPost2010PropOp28
 70
     1
102
RTVSPost2010Prop29
280
     1
102
RTVSPost2010PropOp29
 70
     1
102
RTVSPost2010Prop30
280
     1
102
RTVSPost2010PropOp30
 70
     1
102
RTVSPost2010Prop31
280
     0
102
RTVSPost2010PropOp31
 70
     1
102
RTVSPost2010Prop32
280
     0
102
RTVSPost2010PropOp32
 70
     1
102
RTVSPost2010Prop33
280
     0
102
RTVSPost2010PropOp33
 70
     1
102
RTVSPost2010Prop34
280
     0
102
RTVSPost2010PropOp34
 70
     1
102
RTVSPost2010Prop35
280
     0
102
RTVSPost2010PropOp35
 70
     1
102
RTVSPost2010Prop36
280
     0
102
RTVSPost2010PropOp36
 70
     1
102
RTVSPost2010Prop37
 90
       50
102
RTVSPost2010PropOp37
 70
     1
102
RTVSPost2010Prop38
140
0.0
102
RTVSPost2010PropOp38
 70
     1
102
RTVSPost2010Prop39
140
1.0
102
RTVSPost2010PropOp39
 70
     1
102
RTVSPost2010Prop40
 90
        0
102
RTVSPost2010PropOp40
 70
     1
102
RTVSPost2010Prop41ColorIndex
 90
       18
102
RTVSPost2010Prop41ColorRGB
 90
        0
102
RTVSPost2010PropOp41
 70
     1
102
RTVSPost2010Prop42
 90
       50
102
RTVSPost2010PropOp42
 70
     1
102
RTVSPost2010Prop43
 90
        3
102
RTVSPost2010PropOp43
 70
     1
102
RTVSPost2010Prop44ColorIndex
 90
        5
102
RTVSPost2010Prop44ColorRGB
 90
      255
102
RTVSPost2010PropOp44
 70
     1
102
RTVSPost2010Prop45
280
     0
102
RTVSPost2010PropOp45
 70
     1
102
RTVSPost2010Prop46
 90
       50
102
RTVSPost2010PropOp46
 70
     1
102
RTVSPost2010Prop47
 90
       50
102
RTVSPost2010PropOp47
 70
     1
102
RTVSPost2010Prop48
 90
       50
102
RTVSPost2010PropOp48
 70
     1
102
RTVSPost2010Prop49
280
     0
102
RTVSPost2010PropOp49
 70
     1
102
RTVSPost2010Prop50
 90
       50
102
RTVSPost2010PropOp50
 70
     1
102
RTVSPost2010Prop51ColorIndex
 90
      256
102
RTVSPost2010Prop51ColorRGB
 90
-16777216
102
RTVSPost2010PropOp51
 70
     0
102
RTVSPost2010Prop52
140
1.0
102
RTVSPost2010PropOp52
 70
     0
102
RTVSPost2010Prop53
 90
        2
102
RTVSPost2010PropOp53
 70
     1
102
RTVSPost2010Prop54
  1
strokes_ogs.tif
102
RTVSPost2010PropOp54
 70
     1
102
RTVSPost2010Prop55
280
     0
102
RTVSPost2010PropOp55
 70
     1
102
RTVSPost2010Prop56
140
1.0
102
RTVSPost2010PropOp56
 70
     1
102
RTVSPost2010Prop57
140
1.0
102
RTVSPost2010PropOp57
 70
     1
102
RTVSPropertyOp0
 70
     1
102
RTVSPropertyOp1
 70
     1
102
RTVSPropertyOp2
 70
     1
102
RTVSPropertyOp3
 70
     1
102
RTVSPropertyOp4
 70
     1
102
RTVSPropertyOp5
 70
     1
102
RTVSPropertyOp6
 70
     1
102
RTVSPropertyOp7
 70
     1
102
RTVSPropertyOp8
 70
     1
102
RTVSPropertyOp9
 70
     1
102
RTVSPropertyOp10
 70
     1
102
RTVSPropertyOp11
 70
     1
102
RTVSPropertyOp12
 70
     1
102
RTVSPropertyOp13
 70
     1
102
RTVSPropertyOp14
 70
     1
102
RTVSPropertyOp15
 70
     1
102
RTVSPropertyOp16
 70
     1
102
RTVSPropertyOp17
 70
     1
102
RTVSPropertyOp18
 70
     1
102
RTVSPropertyOp19
 70
     1
102
RTVSPropertyOp20
 70
     1
102
RTVSPropertyOp21
 70
     1
102
RTVSPropertyOp22
 70
     1
102
RTVSPropertyOp23
 70
     1
102
RTVSPropertyOp24
 70
     1
102
RTVSPropertyOp25
 70
     1
102
RTVSPropertyOp26
 70
     1
102
RTVSPropertyOp27
 70
     1
102
RTVSPropertyOp28
 70
     1
102
RTVSPropertyOp29
 70
     1
102
RTVSPropertyOp30
 70
     1
102
RTVSPropertyOp31
 70
     1
102
RTVSPropertyOp32
 70
     1
102
RTVSPropertyOp33
 70
     1
102
RTVSPropertyOp34
 70
     1
102
RTVSPropertyOp35
 70
     1
102
RTVSPropertyOp36
 70
     1
102
RTVSPropertyOp37
 70
     1
102
RTVSPropertyOp38
 70
     1
102
RTVSPropertyOp39
 70
     1
102
RTVSPropertyOp40
 70
     1
102
RTVSPropertyOp41
 70
     1
102
RTVSPropertyOp42
 70
     1
102
RTVSPropertyOp43
 70
     1
102
RTVSPropertyOp44
 70
     1
102
RTVSPropertyOp45
 70
     1
102
RTVSPropertyOp46
 70
     1
102
RTVSPropertyOp47
 70
     1
102
RTVSPropertyOp48
 70
     1
102
RTVSPropertyOp49
 70
     1
102
RTVSPropertyOp50
 70
     1
102
RTVSPropertyOp51
 70
     0
102
RTVSPropertyOp52
 70
     0
102
RTVSPropertyOp53
 70
     1
102
RTVSPropertyOp54
 70
     1
102
RTVSPropertyOp55
 70
     1
102
RTVSPropertyOp56
 70
     1
102
RTVSPropertyOp57
 70
     1
102
RTVSPropertyOp58
 70
     1
102
RTVSPropertyOp59
 70
     1
102
RTVSPropertyOp60
 70
     1
102
RTVSPropertyOp61
 70
     1
102
RTVSPropertyOp62
 70
     1
  0
XRECORD
  5
85AE
102
{ACAD_REACTORS
330
85AD
102
}
330
85AD
100
AcDbXrecord
280
     1
102
RTVSPost2010Prop28
280
     0
102
RTVSPost2010PropOp28
 70
     1
102
RTVSPost2010Prop29
280
     1
102
RTVSPost2010PropOp29
 70
     1
102
RTVSPost2010Prop30
280
     1
102
RTVSPost2010PropOp30
 70
     1
102
RTVSPost2010Prop31
280
     0
102
RTVSPost2010PropOp31
 70
     1
102
RTVSPost2010Prop32
280
     0
102
RTVSPost2010PropOp32
 70
     1
102
RTVSPost2010Prop33
280
     0
102
RTVSPost2010PropOp33
 70
     1
102
RTVSPost2010Prop34
280
     0
102
RTVSPost2010PropOp34
 70
     1
102
RTVSPost2010Prop35
280
     0
102
RTVSPost2010PropOp35
 70
     1
102
RTVSPost2010Prop36
280
     0
102
RTVSPost2010PropOp36
 70
     1
102
RTVSPost2010Prop37
 90
       50
102
RTVSPost2010PropOp37
 70
     1
102
RTVSPost2010Prop38
140
0.0
102
RTVSPost2010PropOp38
 70
     1
102
RTVSPost2010Prop39
140
1.0
102
RTVSPost2010PropOp39
 70
     1
102
RTVSPost2010Prop40
 90
        0
102
RTVSPost2010PropOp40
 70
     1
102
RTVSPost2010Prop41ColorIndex
 90
       18
102
RTVSPost2010Prop41ColorRGB
 90
        0
102
RTVSPost2010PropOp41
 70
     1
102
RTVSPost2010Prop42
 90
       50
102
RTVSPost2010PropOp42
 70
     1
102
RTVSPost2010Prop43
 90
        3
102
RTVSPost2010PropOp43
 70
     1
102
RTVSPost2010Prop44ColorIndex
 90
        5
102
RTVSPost2010Prop44ColorRGB
 90
      255
102
RTVSPost2010PropOp44
 70
     1
102
RTVSPost2010Prop45
280
     0
102
RTVSPost2010PropOp45
 70
     1
102
RTVSPost2010Prop46
 90
       50
102
RTVSPost2010PropOp46
 70
     1
102
RTVSPost2010Prop47
 90
       50
102
RTVSPost2010PropOp47
 70
     1
102
RTVSPost2010Prop48
 90
       50
102
RTVSPost2010PropOp48
 70
     1
102
RTVSPost2010Prop49
280
     0
102
RTVSPost2010PropOp49
 70
     1
102
RTVSPost2010Prop50
 90
       50
102
RTVSPost2010PropOp50
 70
     1
102
RTVSPost2010Prop51ColorIndex
 90
      256
102
RTVSPost2010Prop51ColorRGB
 90
-16777216
102
RTVSPost2010PropOp51
 70
     0
102
RTVSPost2010Prop52
140
1.0
102
RTVSPost2010PropOp52
 70
     0
102
RTVSPost2010Prop53
 90
        2
102
RTVSPost2010PropOp53
 70
     1
102
RTVSPost2010Prop54
  1
strokes_ogs.tif
102
RTVSPost2010PropOp54
 70
     1
102
RTVSPost2010Prop55
280
     0
102
RTVSPost2010PropOp55
 70
     1
102
RTVSPost2010Prop56
140
1.0
102
RTVSPost2010PropOp56
 70
     1
102
RTVSPost2010Prop57
140
1.0
102
RTVSPost2010PropOp57
 70
     1
102
RTVSPropertyOp0
 70
     1
102
RTVSPropertyOp1
 70
     1
102
RTVSPropertyOp2
 70
     1
102
RTVSPropertyOp3
 70
     1
102
RTVSPropertyOp4
 70
     1
102
RTVSPropertyOp5
 70
     1
102
RTVSPropertyOp6
 70
     1
102
RTVSPropertyOp7
 70
     1
102
RTVSPropertyOp8
 70
     1
102
RTVSPropertyOp9
 70
     1
102
RTVSPropertyOp10
 70
     1
102
RTVSPropertyOp11
 70
     1
102
RTVSPropertyOp12
 70
     1
102
RTVSPropertyOp13
 70
     1
102
RTVSPropertyOp14
 70
     1
102
RTVSPropertyOp15
 70
     1
102
RTVSPropertyOp16
 70
     1
102
RTVSPropertyOp17
 70
     1
102
RTVSPropertyOp18
 70
     1
102
RTVSPropertyOp19
 70
     1
102
RTVSPropertyOp20
 70
     1
102
RTVSPropertyOp21
 70
     1
102
RTVSPropertyOp22
 70
     1
102
RTVSPropertyOp23
 70
     1
102
RTVSPropertyOp24
 70
     1
102
RTVSPropertyOp25
 70
     1
102
RTVSPropertyOp26
 70
     1
102
RTVSPropertyOp27
 70
     1
102
RTVSPropertyOp28
 70
     1
102
RTVSPropertyOp29
 70
     1
102
RTVSPropertyOp30
 70
     1
102
RTVSPropertyOp31
 70
     1
102
RTVSPropertyOp32
 70
     1
102
RTVSPropertyOp33
 70
     1
102
RTVSPropertyOp34
 70
     1
102
RTVSPropertyOp35
 70
     1
102
RTVSPropertyOp36
 70
     1
102
RTVSPropertyOp37
 70
     1
102
RTVSPropertyOp38
 70
     1
102
RTVSPropertyOp39
 70
     1
102
RTVSPropertyOp40
 70
     1
102
RTVSPropertyOp41
 70
     1
102
RTVSPropertyOp42
 70
     1
102
RTVSPropertyOp43
 70
     1
102
RTVSPropertyOp44
 70
     1
102
RTVSPropertyOp45
 70
     1
102
RTVSPropertyOp46
 70
     1
102
RTVSPropertyOp47
 70
     1
102
RTVSPropertyOp48
 70
     1
102
RTVSPropertyOp49
 70
     1
102
RTVSPropertyOp50
 70
     1
102
RTVSPropertyOp51
 70
     0
102
RTVSPropertyOp52
 70
     0
102
RTVSPropertyOp53
 70
     1
102
RTVSPropertyOp54
 70
     1
102
RTVSPropertyOp55
 70
     1
102
RTVSPropertyOp56
 70
     1
102
RTVSPropertyOp57
 70
     1
102
RTVSPropertyOp58
 70
     1
102
RTVSPropertyOp59
 70
     1
102
RTVSPropertyOp60
 70
     1
102
RTVSPropertyOp61
 70
     1
102
RTVSPropertyOp62
 70
     1
  0
XRECORD
  5
85B2
102
{ACAD_REACTORS
330
85B1
102
}
330
85B1
100
AcDbXrecord
280
     1
102
RTVSPost2010Prop28
280
     0
102
RTVSPost2010PropOp28
 70
     1
102
RTVSPost2010Prop29
280
     1
102
RTVSPost2010PropOp29
 70
     1
102
RTVSPost2010Prop30
280
     1
102
RTVSPost2010PropOp30
 70
     1
102
RTVSPost2010Prop31
280
     0
102
RTVSPost2010PropOp31
 70
     1
102
RTVSPost2010Prop32
280
     0
102
RTVSPost2010PropOp32
 70
     1
102
RTVSPost2010Prop33
280
     0
102
RTVSPost2010PropOp33
 70
     1
102
RTVSPost2010Prop34
280
     0
102
RTVSPost2010PropOp34
 70
     1
102
RTVSPost2010Prop35
280
     0
102
RTVSPost2010PropOp35
 70
     1
102
RTVSPost2010Prop36
280
     0
102
RTVSPost2010PropOp36
 70
     1
102
RTVSPost2010Prop37
 90
       50
102
RTVSPost2010PropOp37
 70
     1
102
RTVSPost2010Prop38
140
0.0
102
RTVSPost2010PropOp38
 70
     1
102
RTVSPost2010Prop39
140
1.0
102
RTVSPost2010PropOp39
 70
     1
102
RTVSPost2010Prop40
 90
        0
102
RTVSPost2010PropOp40
 70
     1
102
RTVSPost2010Prop41ColorIndex
 90
       18
102
RTVSPost2010Prop41ColorRGB
 90
        0
102
RTVSPost2010PropOp41
 70
     1
102
RTVSPost2010Prop42
 90
       50
102
RTVSPost2010PropOp42
 70
     1
102
RTVSPost2010Prop43
 90
        3
102
RTVSPost2010PropOp43
 70
     1
102
RTVSPost2010Prop44ColorIndex
 90
        5
102
RTVSPost2010Prop44ColorRGB
 90
      255
102
RTVSPost2010PropOp44
 70
     1
102
RTVSPost2010Prop45
280
     0
102
RTVSPost2010PropOp45
 70
     1
102
RTVSPost2010Prop46
 90
       50
102
RTVSPost2010PropOp46
 70
     1
102
RTVSPost2010Prop47
 90
       50
102
RTVSPost2010PropOp47
 70
     1
102
RTVSPost2010Prop48
 90
       50
102
RTVSPost2010PropOp48
 70
     1
102
RTVSPost2010Prop49
280
     0
102
RTVSPost2010PropOp49
 70
     1
102
RTVSPost2010Prop50
 90
       50
102
RTVSPost2010PropOp50
 70
     1
102
RTVSPost2010Prop51ColorIndex
 90
      256
102
RTVSPost2010Prop51ColorRGB
 90
-16777216
102
RTVSPost2010PropOp51
 70
     0
102
RTVSPost2010Prop52
140
1.0
102
RTVSPost2010PropOp52
 70
     0
102
RTVSPost2010Prop53
 90
        2
102
RTVSPost2010PropOp53
 70
     1
102
RTVSPost2010Prop54
  1
strokes_ogs.tif
102
RTVSPost2010PropOp54
 70
     1
102
RTVSPost2010Prop55
280
     0
102
RTVSPost2010PropOp55
 70
     1
102
RTVSPost2010Prop56
140
1.0
102
RTVSPost2010PropOp56
 70
     1
102
RTVSPost2010Prop57
140
1.0
102
RTVSPost2010PropOp57
 70
     1
102
RTVSPropertyOp0
 70
     1
102
RTVSPropertyOp1
 70
     1
102
RTVSPropertyOp2
 70
     1
102
RTVSPropertyOp3
 70
     1
102
RTVSPropertyOp4
 70
     1
102
RTVSPropertyOp5
 70
     1
102
RTVSPropertyOp6
 70
     1
102
RTVSPropertyOp7
 70
     1
102
RTVSPropertyOp8
 70
     1
102
RTVSPropertyOp9
 70
     1
102
RTVSPropertyOp10
 70
     1
102
RTVSPropertyOp11
 70
     1
102
RTVSPropertyOp12
 70
     1
102
RTVSPropertyOp13
 70
     1
102
RTVSPropertyOp14
 70
     1
102
RTVSPropertyOp15
 70
     1
102
RTVSPropertyOp16
 70
     1
102
RTVSPropertyOp17
 70
     1
102
RTVSPropertyOp18
 70
     1
102
RTVSPropertyOp19
 70
     1
102
RTVSPropertyOp20
 70
     1
102
RTVSPropertyOp21
 70
     1
102
RTVSPropertyOp22
 70
     1
102
RTVSPropertyOp23
 70
     1
102
RTVSPropertyOp24
 70
     1
102
RTVSPropertyOp25
 70
     1
102
RTVSPropertyOp26
 70
     1
102
RTVSPropertyOp27
 70
     1
102
RTVSPropertyOp28
 70
     1
102
RTVSPropertyOp29
 70
     1
102
RTVSPropertyOp30
 70
     1
102
RTVSPropertyOp31
 70
     1
102
RTVSPropertyOp32
 70
     1
102
RTVSPropertyOp33
 70
     1
102
RTVSPropertyOp34
 70
     1
102
RTVSPropertyOp35
 70
     1
102
RTVSPropertyOp36
 70
     1
102
RTVSPropertyOp37
 70
     1
102
RTVSPropertyOp38
 70
     1
102
RTVSPropertyOp39
 70
     1
102
RTVSPropertyOp40
 70
     1
102
RTVSPropertyOp41
 70
     1
102
RTVSPropertyOp42
 70
     1
102
RTVSPropertyOp43
 70
     1
102
RTVSPropertyOp44
 70
     1
102
RTVSPropertyOp45
 70
     1
102
RTVSPropertyOp46
 70
     1
102
RTVSPropertyOp47
 70
     1
102
RTVSPropertyOp48
 70
     1
102
RTVSPropertyOp49
 70
     1
102
RTVSPropertyOp50
 70
     1
102
RTVSPropertyOp51
 70
     0
102
RTVSPropertyOp52
 70
     0
102
RTVSPropertyOp53
 70
     1
102
RTVSPropertyOp54
 70
     1
102
RTVSPropertyOp55
 70
     1
102
RTVSPropertyOp56
 70
     1
102
RTVSPropertyOp57
 70
     1
102
RTVSPropertyOp58
 70
     1
102
RTVSPropertyOp59
 70
     1
102
RTVSPropertyOp60
 70
     1
102
RTVSPropertyOp61
 70
     1
102
RTVSPropertyOp62
 70
     1
  0
XRECORD
  5
85CC
102
{ACAD_REACTORS
330
85CB
102
}
330
85CB
100
AcDbXrecord
280
     1
102
RTVSPost2010Prop28
280
     0
102
RTVSPost2010PropOp28
 70
     1
102
RTVSPost2010Prop29
280
     1
102
RTVSPost2010PropOp29
 70
     1
102
RTVSPost2010Prop30
280
     1
102
RTVSPost2010PropOp30
 70
     1
102
RTVSPost2010Prop31
280
     0
102
RTVSPost2010PropOp31
 70
     1
102
RTVSPost2010Prop32
280
     0
102
RTVSPost2010PropOp32
 70
     1
102
RTVSPost2010Prop33
280
     0
102
RTVSPost2010PropOp33
 70
     1
102
RTVSPost2010Prop34
280
     0
102
RTVSPost2010PropOp34
 70
     1
102
RTVSPost2010Prop35
280
     0
102
RTVSPost2010PropOp35
 70
     1
102
RTVSPost2010Prop36
280
     0
102
RTVSPost2010PropOp36
 70
     1
102
RTVSPost2010Prop37
 90
       50
102
RTVSPost2010PropOp37
 70
     0
102
RTVSPost2010Prop38
140
0.0
102
RTVSPost2010PropOp38
 70
     0
102
RTVSPost2010Prop39
140
1.0
102
RTVSPost2010PropOp39
 70
     0
102
RTVSPost2010Prop40
 90
        0
102
RTVSPost2010PropOp40
 70
     0
102
RTVSPost2010Prop41ColorIndex
 90
       18
102
RTVSPost2010Prop41ColorRGB
 90
        0
102
RTVSPost2010PropOp41
 70
     0
102
RTVSPost2010Prop42
 90
       50
102
RTVSPost2010PropOp42
 70
     0
102
RTVSPost2010Prop43
 90
        3
102
RTVSPost2010PropOp43
 70
     0
102
RTVSPost2010Prop44ColorIndex
 90
        5
102
RTVSPost2010Prop44ColorRGB
 90
      255
102
RTVSPost2010PropOp44
 70
     0
102
RTVSPost2010Prop45
280
     0
102
RTVSPost2010PropOp45
 70
     1
102
RTVSPost2010Prop46
 90
       50
102
RTVSPost2010PropOp46
 70
     0
102
RTVSPost2010Prop47
 90
       50
102
RTVSPost2010PropOp47
 70
     0
102
RTVSPost2010Prop48
 90
       50
102
RTVSPost2010PropOp48
 70
     0
102
RTVSPost2010Prop49
280
     0
102
RTVSPost2010PropOp49
 70
     1
102
RTVSPost2010Prop50
 90
       50
102
RTVSPost2010PropOp50
 70
     0
102
RTVSPost2010Prop51ColorIndex
 90
      256
102
RTVSPost2010Prop51ColorRGB
 90
-16777216
102
RTVSPost2010PropOp51
 70
     0
102
RTVSPost2010Prop52
140
1.0
102
RTVSPost2010PropOp52
 70
     0
102
RTVSPost2010Prop53
 90
        2
102
RTVSPost2010PropOp53
 70
     0
102
RTVSPost2010Prop54
  1
strokes_ogs.tif
102
RTVSPost2010PropOp54
 70
     0
102
RTVSPost2010Prop55
280
     0
102
RTVSPost2010PropOp55
 70
     1
102
RTVSPost2010Prop56
140
1.0
102
RTVSPost2010PropOp56
 70
     0
102
RTVSPost2010Prop57
140
1.0
102
RTVSPost2010PropOp57
 70
     0
102
RTVSPropertyOp0
 70
     0
102
RTVSPropertyOp1
 70
     0
102
RTVSPropertyOp2
 70
     0
102
RTVSPropertyOp3
 70
     0
102
RTVSPropertyOp4
 70
     0
102
RTVSPropertyOp5
 70
     0
102
RTVSPropertyOp6
 70
     0
102
RTVSPropertyOp7
 70
     0
102
RTVSPropertyOp8
 70
     0
102
RTVSPropertyOp9
 70
     0
102
RTVSPropertyOp10
 70
     0
102
RTVSPropertyOp11
 70
     0
102
RTVSPropertyOp12
 70
     0
102
RTVSPropertyOp13
 70
     0
102
RTVSPropertyOp14
 70
     2
102
RTVSPropertyOp15
 70
     0
102
RTVSPropertyOp16
 70
     0
102
RTVSPropertyOp17
 70
     0
102
RTVSPropertyOp18
 70
     0
102
RTVSPropertyOp19
 70
     0
102
RTVSPropertyOp20
 70
     0
102
RTVSPropertyOp21
 70
     0
102
RTVSPropertyOp22
 70
     0
102
RTVSPropertyOp23
 70
     0
102
RTVSPropertyOp24
 70
     0
102
RTVSPropertyOp25
 70
     0
102
RTVSPropertyOp26
 70
     0
102
RTVSPropertyOp27
 70
     0
102
RTVSPropertyOp28
 70
     1
102
RTVSPropertyOp29
 70
     1
102
RTVSPropertyOp30
 70
     1
102
RTVSPropertyOp31
 70
     1
102
RTVSPropertyOp32
 70
     1
102
RTVSPropertyOp33
 70
     1
102
RTVSPropertyOp34
 70
     1
102
RTVSPropertyOp35
 70
     1
102
RTVSPropertyOp36
 70
     1
102
RTVSPropertyOp37
 70
     0
102
RTVSPropertyOp38
 70
     0
102
RTVSPropertyOp39
 70
     0
102
RTVSPropertyOp40
 70
     0
102
RTVSPropertyOp41
 70
     0
102
RTVSPropertyOp42
 70
     0
102
RTVSPropertyOp43
 70
     0
102
RTVSPropertyOp44
 70
     0
102
RTVSPropertyOp45
 70
     1
102
RTVSPropertyOp46
 70
     0
102
RTVSPropertyOp47
 70
     0
102
RTVSPropertyOp48
 70
     0
102
RTVSPropertyOp49
 70
     1
102
RTVSPropertyOp50
 70
     0
102
RTVSPropertyOp51
 70
     0
102
RTVSPropertyOp52
 70
     0
102
RTVSPropertyOp53
 70
     0
102
RTVSPropertyOp54
 70
     0
102
RTVSPropertyOp55
 70
     1
102
RTVSPropertyOp56
 70
     0
102
RTVSPropertyOp57
 70
     0
102
RTVSPropertyOp58
 70
     0
102
RTVSPropertyOp59
 70
     0
102
RTVSPropertyOp60
 70
     0
102
RTVSPropertyOp61
 70
     0
102
RTVSPropertyOp62
 70
     0
  0
XRECORD
  5
85BA
102
{ACAD_REACTORS
330
85B9
102
}
330
85B9
100
AcDbXrecord
280
     1
102
RTVSPost2010Prop28
280
     0
102
RTVSPost2010PropOp28
 70
     1
102
RTVSPost2010Prop29
280
     1
102
RTVSPost2010PropOp29
 70
     1
102
RTVSPost2010Prop30
280
     1
102
RTVSPost2010PropOp30
 70
     1
102
RTVSPost2010Prop31
280
     0
102
RTVSPost2010PropOp31
 70
     1
102
RTVSPost2010Prop32
280
     0
102
RTVSPost2010PropOp32
 70
     1
102
RTVSPost2010Prop33
280
     0
102
RTVSPost2010PropOp33
 70
     1
102
RTVSPost2010Prop34
280
     0
102
RTVSPost2010PropOp34
 70
     1
102
RTVSPost2010Prop35
280
     0
102
RTVSPost2010PropOp35
 70
     1
102
RTVSPost2010Prop36
280
     0
102
RTVSPost2010PropOp36
 70
     1
102
RTVSPost2010Prop37
 90
       50
102
RTVSPost2010PropOp37
 70
     1
102
RTVSPost2010Prop38
140
0.0
102
RTVSPost2010PropOp38
 70
     1
102
RTVSPost2010Prop39
140
1.0
102
RTVSPost2010PropOp39
 70
     1
102
RTVSPost2010Prop40
 90
        0
102
RTVSPost2010PropOp40
 70
     1
102
RTVSPost2010Prop41ColorIndex
 90
       18
102
RTVSPost2010Prop41ColorRGB
 90
        0
102
RTVSPost2010PropOp41
 70
     1
102
RTVSPost2010Prop42
 90
       50
102
RTVSPost2010PropOp42
 70
     1
102
RTVSPost2010Prop43
 90
        3
102
RTVSPost2010PropOp43
 70
     1
102
RTVSPost2010Prop44ColorIndex
 90
        5
102
RTVSPost2010Prop44ColorRGB
 90
      255
102
RTVSPost2010PropOp44
 70
     1
102
RTVSPost2010Prop45
280
     0
102
RTVSPost2010PropOp45
 70
     1
102
RTVSPost2010Prop46
 90
       50
102
RTVSPost2010PropOp46
 70
     1
102
RTVSPost2010Prop47
 90
       50
102
RTVSPost2010PropOp47
 70
     1
102
RTVSPost2010Prop48
 90
       50
102
RTVSPost2010PropOp48
 70
     1
102
RTVSPost2010Prop49
280
     0
102
RTVSPost2010PropOp49
 70
     1
102
RTVSPost2010Prop50
 90
       50
102
RTVSPost2010PropOp50
 70
     1
102
RTVSPost2010Prop51ColorIndex
 90
      256
102
RTVSPost2010Prop51ColorRGB
 90
-16777216
102
RTVSPost2010PropOp51
 70
     0
102
RTVSPost2010Prop52
140
1.0
102
RTVSPost2010PropOp52
 70
     0
102
RTVSPost2010Prop53
 90
        2
102
RTVSPost2010PropOp53
 70
     1
102
RTVSPost2010Prop54
  1
strokes_ogs.tif
102
RTVSPost2010PropOp54
 70
     1
102
RTVSPost2010Prop55
280
     0
102
RTVSPost2010PropOp55
 70
     1
102
RTVSPost2010Prop56
140
1.0
102
RTVSPost2010PropOp56
 70
     1
102
RTVSPost2010Prop57
140
1.0
102
RTVSPost2010PropOp57
 70
     1
102
RTVSPropertyOp0
 70
     1
102
RTVSPropertyOp1
 70
     1
102
RTVSPropertyOp2
 70
     1
102
RTVSPropertyOp3
 70
     1
102
RTVSPropertyOp4
 70
     1
102
RTVSPropertyOp5
 70
     1
102
RTVSPropertyOp6
 70
     1
102
RTVSPropertyOp7
 70
     1
102
RTVSPropertyOp8
 70
     1
102
RTVSPropertyOp9
 70
     1
102
RTVSPropertyOp10
 70
     1
102
RTVSPropertyOp11
 70
     1
102
RTVSPropertyOp12
 70
     1
102
RTVSPropertyOp13
 70
     1
102
RTVSPropertyOp14
 70
     1
102
RTVSPropertyOp15
 70
     1
102
RTVSPropertyOp16
 70
     1
102
RTVSPropertyOp17
 70
     1
102
RTVSPropertyOp18
 70
     1
102
RTVSPropertyOp19
 70
     1
102
RTVSPropertyOp20
 70
     1
102
RTVSPropertyOp21
 70
     1
102
RTVSPropertyOp22
 70
     1
102
RTVSPropertyOp23
 70
     1
102
RTVSPropertyOp24
 70
     1
102
RTVSPropertyOp25
 70
     1
102
RTVSPropertyOp26
 70
     1
102
RTVSPropertyOp27
 70
     1
102
RTVSPropertyOp28
 70
     1
102
RTVSPropertyOp29
 70
     1
102
RTVSPropertyOp30
 70
     1
102
RTVSPropertyOp31
 70
     1
102
RTVSPropertyOp32
 70
     1
102
RTVSPropertyOp33
 70
     1
102
RTVSPropertyOp34
 70
     1
102
RTVSPropertyOp35
 70
     1
102
RTVSPropertyOp36
 70
     1
102
RTVSPropertyOp37
 70
     1
102
RTVSPropertyOp38
 70
     1
102
RTVSPropertyOp39
 70
     1
102
RTVSPropertyOp40
 70
     1
102
RTVSPropertyOp41
 70
     1
102
RTVSPropertyOp42
 70
     1
102
RTVSPropertyOp43
 70
     1
102
RTVSPropertyOp44
 70
     1
102
RTVSPropertyOp45
 70
     1
102
RTVSPropertyOp46
 70
     1
102
RTVSPropertyOp47
 70
     1
102
RTVSPropertyOp48
 70
     1
102
RTVSPropertyOp49
 70
     1
102
RTVSPropertyOp50
 70
     1
102
RTVSPropertyOp51
 70
     0
102
RTVSPropertyOp52
 70
     0
102
RTVSPropertyOp53
 70
     1
102
RTVSPropertyOp54
 70
     1
102
RTVSPropertyOp55
 70
     1
102
RTVSPropertyOp56
 70
     1
102
RTVSPropertyOp57
 70
     1
102
RTVSPropertyOp58
 70
     1
102
RTVSPropertyOp59
 70
     1
102
RTVSPropertyOp60
 70
     1
102
RTVSPropertyOp61
 70
     1
102
RTVSPropertyOp62
 70
     1
  0
XRECORD
  5
859E
102
{ACAD_REACTORS
330
859D
102
}
330
859D
100
AcDbXrecord
280
     1
102
RTVSPost2010Prop28
280
     0
102
RTVSPost2010PropOp28
 70
     1
102
RTVSPost2010Prop29
280
     1
102
RTVSPost2010PropOp29
 70
     1
102
RTVSPost2010Prop30
280
     1
102
RTVSPost2010PropOp30
 70
     1
102
RTVSPost2010Prop31
280
     0
102
RTVSPost2010PropOp31
 70
     1
102
RTVSPost2010Prop32
280
     0
102
RTVSPost2010PropOp32
 70
     1
102
RTVSPost2010Prop33
280
     0
102
RTVSPost2010PropOp33
 70
     1
102
RTVSPost2010Prop34
280
     0
102
RTVSPost2010PropOp34
 70
     1
102
RTVSPost2010Prop35
280
     0
102
RTVSPost2010PropOp35
 70
     1
102
RTVSPost2010Prop36
280
     0
102
RTVSPost2010PropOp36
 70
     1
102
RTVSPost2010Prop37
 90
       50
102
RTVSPost2010PropOp37
 70
     1
102
RTVSPost2010Prop38
140
0.0
102
RTVSPost2010PropOp38
 70
     1
102
RTVSPost2010Prop39
140
1.0
102
RTVSPost2010PropOp39
 70
     1
102
RTVSPost2010Prop40
 90
        0
102
RTVSPost2010PropOp40
 70
     1
102
RTVSPost2010Prop41ColorIndex
 90
       18
102
RTVSPost2010Prop41ColorRGB
 90
        0
102
RTVSPost2010PropOp41
 70
     1
102
RTVSPost2010Prop42
 90
       50
102
RTVSPost2010PropOp42
 70
     1
102
RTVSPost2010Prop43
 90
        3
102
RTVSPost2010PropOp43
 70
     1
102
RTVSPost2010Prop44ColorIndex
 90
        5
102
RTVSPost2010Prop44ColorRGB
 90
      255
102
RTVSPost2010PropOp44
 70
     1
102
RTVSPost2010Prop45
280
     0
102
RTVSPost2010PropOp45
 70
     1
102
RTVSPost2010Prop46
 90
       50
102
RTVSPost2010PropOp46
 70
     1
102
RTVSPost2010Prop47
 90
       50
102
RTVSPost2010PropOp47
 70
     1
102
RTVSPost2010Prop48
 90
       50
102
RTVSPost2010PropOp48
 70
     1
102
RTVSPost2010Prop49
280
     0
102
RTVSPost2010PropOp49
 70
     1
102
RTVSPost2010Prop50
 90
       50
102
RTVSPost2010PropOp50
 70
     1
102
RTVSPost2010Prop51ColorIndex
 90
      256
102
RTVSPost2010Prop51ColorRGB
 90
-16777216
102
RTVSPost2010PropOp51
 70
     0
102
RTVSPost2010Prop52
140
1.0
102
RTVSPost2010PropOp52
 70
     0
102
RTVSPost2010Prop53
 90
        2
102
RTVSPost2010PropOp53
 70
     1
102
RTVSPost2010Prop54
  1
strokes_ogs.tif
102
RTVSPost2010PropOp54
 70
     1
102
RTVSPost2010Prop55
280
     0
102
RTVSPost2010PropOp55
 70
     1
102
RTVSPost2010Prop56
140
1.0
102
RTVSPost2010PropOp56
 70
     1
102
RTVSPost2010Prop57
140
1.0
102
RTVSPost2010PropOp57
 70
     1
102
RTVSPropertyOp0
 70
     1
102
RTVSPropertyOp1
 70
     1
102
RTVSPropertyOp2
 70
     1
102
RTVSPropertyOp3
 70
     1
102
RTVSPropertyOp4
 70
     1
102
RTVSPropertyOp5
 70
     1
102
RTVSPropertyOp6
 70
     1
102
RTVSPropertyOp7
 70
     1
102
RTVSPropertyOp8
 70
     1
102
RTVSPropertyOp9
 70
     1
102
RTVSPropertyOp10
 70
     1
102
RTVSPropertyOp11
 70
     1
102
RTVSPropertyOp12
 70
     1
102
RTVSPropertyOp13
 70
     1
102
RTVSPropertyOp14
 70
     1
102
RTVSPropertyOp15
 70
     1
102
RTVSPropertyOp16
 70
     1
102
RTVSPropertyOp17
 70
     1
102
RTVSPropertyOp18
 70
     1
102
RTVSPropertyOp19
 70
     1
102
RTVSPropertyOp20
 70
     1
102
RTVSPropertyOp21
 70
     1
102
RTVSPropertyOp22
 70
     1
102
RTVSPropertyOp23
 70
     1
102
RTVSPropertyOp24
 70
     1
102
RTVSPropertyOp25
 70
     1
102
RTVSPropertyOp26
 70
     1
102
RTVSPropertyOp27
 70
     1
102
RTVSPropertyOp28
 70
     1
102
RTVSPropertyOp29
 70
     1
102
RTVSPropertyOp30
 70
     1
102
RTVSPropertyOp31
 70
     1
102
RTVSPropertyOp32
 70
     1
102
RTVSPropertyOp33
 70
     1
102
RTVSPropertyOp34
 70
     1
102
RTVSPropertyOp35
 70
     1
102
RTVSPropertyOp36
 70
     1
102
RTVSPropertyOp37
 70
     1
102
RTVSPropertyOp38
 70
     1
102
RTVSPropertyOp39
 70
     1
102
RTVSPropertyOp40
 70
     1
102
RTVSPropertyOp41
 70
     1
102
RTVSPropertyOp42
 70
     1
102
RTVSPropertyOp43
 70
     1
102
RTVSPropertyOp44
 70
     1
102
RTVSPropertyOp45
 70
     1
102
RTVSPropertyOp46
 70
     1
102
RTVSPropertyOp47
 70
     1
102
RTVSPropertyOp48
 70
     1
102
RTVSPropertyOp49
 70
     1
102
RTVSPropertyOp50
 70
     1
102
RTVSPropertyOp51
 70
     0
102
RTVSPropertyOp52
 70
     0
102
RTVSPropertyOp53
 70
     1
102
RTVSPropertyOp54
 70
     1
102
RTVSPropertyOp55
 70
     1
102
RTVSPropertyOp56
 70
     1
102
RTVSPropertyOp57
 70
     1
102
RTVSPropertyOp58
 70
     1
102
RTVSPropertyOp59
 70
     1
102
RTVSPropertyOp60
 70
     1
102
RTVSPropertyOp61
 70
     1
102
RTVSPropertyOp62
 70
     1
  0
XRECORD
  5
85A0
102
{ACAD_REACTORS
330
859F
102
}
330
859F
100
AcDbXrecord
280
     1
102
RTVSPost2010Prop28
280
     0
102
RTVSPost2010PropOp28
 70
     1
102
RTVSPost2010Prop29
280
     1
102
RTVSPost2010PropOp29
 70
     1
102
RTVSPost2010Prop30
280
     1
102
RTVSPost2010PropOp30
 70
     1
102
RTVSPost2010Prop31
280
     0
102
RTVSPost2010PropOp31
 70
     1
102
RTVSPost2010Prop32
280
     0
102
RTVSPost2010PropOp32
 70
     1
102
RTVSPost2010Prop33
280
     0
102
RTVSPost2010PropOp33
 70
     1
102
RTVSPost2010Prop34
280
     0
102
RTVSPost2010PropOp34
 70
     1
102
RTVSPost2010Prop35
280
     0
102
RTVSPost2010PropOp35
 70
     1
102
RTVSPost2010Prop36
280
     0
102
RTVSPost2010PropOp36
 70
     1
102
RTVSPost2010Prop37
 90
       50
102
RTVSPost2010PropOp37
 70
     1
102
RTVSPost2010Prop38
140
0.0
102
RTVSPost2010PropOp38
 70
     1
102
RTVSPost2010Prop39
140
1.0
102
RTVSPost2010PropOp39
 70
     1
102
RTVSPost2010Prop40
 90
        0
102
RTVSPost2010PropOp40
 70
     1
102
RTVSPost2010Prop41ColorIndex
 90
       18
102
RTVSPost2010Prop41ColorRGB
 90
        0
102
RTVSPost2010PropOp41
 70
     1
102
RTVSPost2010Prop42
 90
       50
102
RTVSPost2010PropOp42
 70
     1
102
RTVSPost2010Prop43
 90
        3
102
RTVSPost2010PropOp43
 70
     1
102
RTVSPost2010Prop44ColorIndex
 90
        5
102
RTVSPost2010Prop44ColorRGB
 90
      255
102
RTVSPost2010PropOp44
 70
     1
102
RTVSPost2010Prop45
280
     0
102
RTVSPost2010PropOp45
 70
     1
102
RTVSPost2010Prop46
 90
       50
102
RTVSPost2010PropOp46
 70
     1
102
RTVSPost2010Prop47
 90
       50
102
RTVSPost2010PropOp47
 70
     1
102
RTVSPost2010Prop48
 90
       50
102
RTVSPost2010PropOp48
 70
     1
102
RTVSPost2010Prop49
280
     0
102
RTVSPost2010PropOp49
 70
     1
102
RTVSPost2010Prop50
 90
       50
102
RTVSPost2010PropOp50
 70
     1
102
RTVSPost2010Prop51ColorIndex
 90
      256
102
RTVSPost2010Prop51ColorRGB
 90
-16777216
102
RTVSPost2010PropOp51
 70
     0
102
RTVSPost2010Prop52
140
1.0
102
RTVSPost2010PropOp52
 70
     0
102
RTVSPost2010Prop53
 90
        2
102
RTVSPost2010PropOp53
 70
     1
102
RTVSPost2010Prop54
  1
strokes_ogs.tif
102
RTVSPost2010PropOp54
 70
     1
102
RTVSPost2010Prop55
280
     0
102
RTVSPost2010PropOp55
 70
     1
102
RTVSPost2010Prop56
140
1.0
102
RTVSPost2010PropOp56
 70
     1
102
RTVSPost2010Prop57
140
1.0
102
RTVSPost2010PropOp57
 70
     1
102
RTVSPropertyOp0
 70
     1
102
RTVSPropertyOp1
 70
     1
102
RTVSPropertyOp2
 70
     1
102
RTVSPropertyOp3
 70
     1
102
RTVSPropertyOp4
 70
     1
102
RTVSPropertyOp5
 70
     1
102
RTVSPropertyOp6
 70
     1
102
RTVSPropertyOp7
 70
     1
102
RTVSPropertyOp8
 70
     1
102
RTVSPropertyOp9
 70
     1
102
RTVSPropertyOp10
 70
     1
102
RTVSPropertyOp11
 70
     1
102
RTVSPropertyOp12
 70
     1
102
RTVSPropertyOp13
 70
     1
102
RTVSPropertyOp14
 70
     1
102
RTVSPropertyOp15
 70
     1
102
RTVSPropertyOp16
 70
     1
102
RTVSPropertyOp17
 70
     1
102
RTVSPropertyOp18
 70
     1
102
RTVSPropertyOp19
 70
     1
102
RTVSPropertyOp20
 70
     1
102
RTVSPropertyOp21
 70
     1
102
RTVSPropertyOp22
 70
     1
102
RTVSPropertyOp23
 70
     1
102
RTVSPropertyOp24
 70
     1
102
RTVSPropertyOp25
 70
     1
102
RTVSPropertyOp26
 70
     1
102
RTVSPropertyOp27
 70
     1
102
RTVSPropertyOp28
 70
     1
102
RTVSPropertyOp29
 70
     1
102
RTVSPropertyOp30
 70
     1
102
RTVSPropertyOp31
 70
     1
102
RTVSPropertyOp32
 70
     1
102
RTVSPropertyOp33
 70
     1
102
RTVSPropertyOp34
 70
     1
102
RTVSPropertyOp35
 70
     1
102
RTVSPropertyOp36
 70
     1
102
RTVSPropertyOp37
 70
     1
102
RTVSPropertyOp38
 70
     1
102
RTVSPropertyOp39
 70
     1
102
RTVSPropertyOp40
 70
     1
102
RTVSPropertyOp41
 70
     1
102
RTVSPropertyOp42
 70
     1
102
RTVSPropertyOp43
 70
     1
102
RTVSPropertyOp44
 70
     1
102
RTVSPropertyOp45
 70
     1
102
RTVSPropertyOp46
 70
     1
102
RTVSPropertyOp47
 70
     1
102
RTVSPropertyOp48
 70
     1
102
RTVSPropertyOp49
 70
     1
102
RTVSPropertyOp50
 70
     1
102
RTVSPropertyOp51
 70
     0
102
RTVSPropertyOp52
 70
     0
102
RTVSPropertyOp53
 70
     1
102
RTVSPropertyOp54
 70
     1
102
RTVSPropertyOp55
 70
     1
102
RTVSPropertyOp56
 70
     1
102
RTVSPropertyOp57
 70
     1
102
RTVSPropertyOp58
 70
     1
102
RTVSPropertyOp59
 70
     1
102
RTVSPropertyOp60
 70
     1
102
RTVSPropertyOp61
 70
     1
102
RTVSPropertyOp62
 70
     1
  0
XRECORD
  5
85A2
102
{ACAD_REACTORS
330
85A1
102
}
330
85A1
100
AcDbXrecord
280
     1
102
RTVSPost2010Prop28
280
     0
102
RTVSPost2010PropOp28
 70
     1
102
RTVSPost2010Prop29
280
     1
102
RTVSPost2010PropOp29
 70
     1
102
RTVSPost2010Prop30
280
     1
102
RTVSPost2010PropOp30
 70
     1
102
RTVSPost2010Prop31
280
     0
102
RTVSPost2010PropOp31
 70
     1
102
RTVSPost2010Prop32
280
     0
102
RTVSPost2010PropOp32
 70
     1
102
RTVSPost2010Prop33
280
     0
102
RTVSPost2010PropOp33
 70
     1
102
RTVSPost2010Prop34
280
     0
102
RTVSPost2010PropOp34
 70
     1
102
RTVSPost2010Prop35
280
     0
102
RTVSPost2010PropOp35
 70
     1
102
RTVSPost2010Prop36
280
     0
102
RTVSPost2010PropOp36
 70
     1
102
RTVSPost2010Prop37
 90
       50
102
RTVSPost2010PropOp37
 70
     1
102
RTVSPost2010Prop38
140
0.0
102
RTVSPost2010PropOp38
 70
     1
102
RTVSPost2010Prop39
140
1.0
102
RTVSPost2010PropOp39
 70
     1
102
RTVSPost2010Prop40
 90
        0
102
RTVSPost2010PropOp40
 70
     1
102
RTVSPost2010Prop41ColorIndex
 90
       18
102
RTVSPost2010Prop41ColorRGB
 90
        0
102
RTVSPost2010PropOp41
 70
     1
102
RTVSPost2010Prop42
 90
       50
102
RTVSPost2010PropOp42
 70
     1
102
RTVSPost2010Prop43
 90
        3
102
RTVSPost2010PropOp43
 70
     1
102
RTVSPost2010Prop44ColorIndex
 90
        5
102
RTVSPost2010Prop44ColorRGB
 90
      255
102
RTVSPost2010PropOp44
 70
     1
102
RTVSPost2010Prop45
280
     0
102
RTVSPost2010PropOp45
 70
     1
102
RTVSPost2010Prop46
 90
       50
102
RTVSPost2010PropOp46
 70
     1
102
RTVSPost2010Prop47
 90
       50
102
RTVSPost2010PropOp47
 70
     1
102
RTVSPost2010Prop48
 90
       50
102
RTVSPost2010PropOp48
 70
     1
102
RTVSPost2010Prop49
280
     0
102
RTVSPost2010PropOp49
 70
     1
102
RTVSPost2010Prop50
 90
       50
102
RTVSPost2010PropOp50
 70
     1
102
RTVSPost2010Prop51ColorIndex
 90
      256
102
RTVSPost2010Prop51ColorRGB
 90
-16777216
102
RTVSPost2010PropOp51
 70
     0
102
RTVSPost2010Prop52
140
1.0
102
RTVSPost2010PropOp52
 70
     0
102
RTVSPost2010Prop53
 90
        2
102
RTVSPost2010PropOp53
 70
     1
102
RTVSPost2010Prop54
  1
strokes_ogs.tif
102
RTVSPost2010PropOp54
 70
     1
102
RTVSPost2010Prop55
280
     0
102
RTVSPost2010PropOp55
 70
     1
102
RTVSPost2010Prop56
140
1.0
102
RTVSPost2010PropOp56
 70
     1
102
RTVSPost2010Prop57
140
1.0
102
RTVSPost2010PropOp57
 70
     1
102
RTVSPropertyOp0
 70
     1
102
RTVSPropertyOp1
 70
     1
102
RTVSPropertyOp2
 70
     1
102
RTVSPropertyOp3
 70
     1
102
RTVSPropertyOp4
 70
     1
102
RTVSPropertyOp5
 70
     1
102
RTVSPropertyOp6
 70
     1
102
RTVSPropertyOp7
 70
     1
102
RTVSPropertyOp8
 70
     1
102
RTVSPropertyOp9
 70
     1
102
RTVSPropertyOp10
 70
     1
102
RTVSPropertyOp11
 70
     1
102
RTVSPropertyOp12
 70
     1
102
RTVSPropertyOp13
 70
     1
102
RTVSPropertyOp14
 70
     1
102
RTVSPropertyOp15
 70
     1
102
RTVSPropertyOp16
 70
     1
102
RTVSPropertyOp17
 70
     1
102
RTVSPropertyOp18
 70
     1
102
RTVSPropertyOp19
 70
     1
102
RTVSPropertyOp20
 70
     1
102
RTVSPropertyOp21
 70
     1
102
RTVSPropertyOp22
 70
     1
102
RTVSPropertyOp23
 70
     1
102
RTVSPropertyOp24
 70
     1
102
RTVSPropertyOp25
 70
     1
102
RTVSPropertyOp26
 70
     1
102
RTVSPropertyOp27
 70
     1
102
RTVSPropertyOp28
 70
     1
102
RTVSPropertyOp29
 70
     1
102
RTVSPropertyOp30
 70
     1
102
RTVSPropertyOp31
 70
     1
102
RTVSPropertyOp32
 70
     1
102
RTVSPropertyOp33
 70
     1
102
RTVSPropertyOp34
 70
     1
102
RTVSPropertyOp35
 70
     1
102
RTVSPropertyOp36
 70
     1
102
RTVSPropertyOp37
 70
     1
102
RTVSPropertyOp38
 70
     1
102
RTVSPropertyOp39
 70
     1
102
RTVSPropertyOp40
 70
     1
102
RTVSPropertyOp41
 70
     1
102
RTVSPropertyOp42
 70
     1
102
RTVSPropertyOp43
 70
     1
102
RTVSPropertyOp44
 70
     1
102
RTVSPropertyOp45
 70
     1
102
RTVSPropertyOp46
 70
     1
102
RTVSPropertyOp47
 70
     1
102
RTVSPropertyOp48
 70
     1
102
RTVSPropertyOp49
 70
     1
102
RTVSPropertyOp50
 70
     1
102
RTVSPropertyOp51
 70
     0
102
RTVSPropertyOp52
 70
     0
102
RTVSPropertyOp53
 70
     1
102
RTVSPropertyOp54
 70
     1
102
RTVSPropertyOp55
 70
     1
102
RTVSPropertyOp56
 70
     1
102
RTVSPropertyOp57
 70
     1
102
RTVSPropertyOp58
 70
     1
102
RTVSPropertyOp59
 70
     1
102
RTVSPropertyOp60
 70
     1
102
RTVSPropertyOp61
 70
     1
102
RTVSPropertyOp62
 70
     1
  0
XRECORD
  5
85A4
102
{ACAD_REACTORS
330
85A3
102
}
330
85A3
100
AcDbXrecord
280
     1
102
RTVSPost2010Prop28
280
     0
102
RTVSPost2010PropOp28
 70
     1
102
RTVSPost2010Prop29
280
     1
102
RTVSPost2010PropOp29
 70
     1
102
RTVSPost2010Prop30
280
     1
102
RTVSPost2010PropOp30
 70
     1
102
RTVSPost2010Prop31
280
     0
102
RTVSPost2010PropOp31
 70
     1
102
RTVSPost2010Prop32
280
     0
102
RTVSPost2010PropOp32
 70
     1
102
RTVSPost2010Prop33
280
     0
102
RTVSPost2010PropOp33
 70
     1
102
RTVSPost2010Prop34
280
     0
102
RTVSPost2010PropOp34
 70
     1
102
RTVSPost2010Prop35
280
     0
102
RTVSPost2010PropOp35
 70
     1
102
RTVSPost2010Prop36
280
     0
102
RTVSPost2010PropOp36
 70
     1
102
RTVSPost2010Prop37
 90
       50
102
RTVSPost2010PropOp37
 70
     1
102
RTVSPost2010Prop38
140
0.0
102
RTVSPost2010PropOp38
 70
     1
102
RTVSPost2010Prop39
140
1.0
102
RTVSPost2010PropOp39
 70
     1
102
RTVSPost2010Prop40
 90
        0
102
RTVSPost2010PropOp40
 70
     1
102
RTVSPost2010Prop41ColorIndex
 90
       18
102
RTVSPost2010Prop41ColorRGB
 90
        0
102
RTVSPost2010PropOp41
 70
     1
102
RTVSPost2010Prop42
 90
       50
102
RTVSPost2010PropOp42
 70
     1
102
RTVSPost2010Prop43
 90
        3
102
RTVSPost2010PropOp43
 70
     1
102
RTVSPost2010Prop44ColorIndex
 90
        5
102
RTVSPost2010Prop44ColorRGB
 90
      255
102
RTVSPost2010PropOp44
 70
     1
102
RTVSPost2010Prop45
280
     0
102
RTVSPost2010PropOp45
 70
     1
102
RTVSPost2010Prop46
 90
       50
102
RTVSPost2010PropOp46
 70
     1
102
RTVSPost2010Prop47
 90
       50
102
RTVSPost2010PropOp47
 70
     1
102
RTVSPost2010Prop48
 90
       50
102
RTVSPost2010PropOp48
 70
     1
102
RTVSPost2010Prop49
280
     0
102
RTVSPost2010PropOp49
 70
     1
102
RTVSPost2010Prop50
 90
       50
102
RTVSPost2010PropOp50
 70
     1
102
RTVSPost2010Prop51ColorIndex
 90
      256
102
RTVSPost2010Prop51ColorRGB
 90
-16777216
102
RTVSPost2010PropOp51
 70
     0
102
RTVSPost2010Prop52
140
1.0
102
RTVSPost2010PropOp52
 70
     0
102
RTVSPost2010Prop53
 90
        2
102
RTVSPost2010PropOp53
 70
     1
102
RTVSPost2010Prop54
  1
strokes_ogs.tif
102
RTVSPost2010PropOp54
 70
     1
102
RTVSPost2010Prop55
280
     0
102
RTVSPost2010PropOp55
 70
     1
102
RTVSPost2010Prop56
140
1.0
102
RTVSPost2010PropOp56
 70
     1
102
RTVSPost2010Prop57
140
1.0
102
RTVSPost2010PropOp57
 70
     1
102
RTVSPropertyOp0
 70
     1
102
RTVSPropertyOp1
 70
     1
102
RTVSPropertyOp2
 70
     1
102
RTVSPropertyOp3
 70
     1
102
RTVSPropertyOp4
 70
     1
102
RTVSPropertyOp5
 70
     1
102
RTVSPropertyOp6
 70
     1
102
RTVSPropertyOp7
 70
     1
102
RTVSPropertyOp8
 70
     1
102
RTVSPropertyOp9
 70
     1
102
RTVSPropertyOp10
 70
     1
102
RTVSPropertyOp11
 70
     1
102
RTVSPropertyOp12
 70
     1
102
RTVSPropertyOp13
 70
     1
102
RTVSPropertyOp14
 70
     1
102
RTVSPropertyOp15
 70
     1
102
RTVSPropertyOp16
 70
     1
102
RTVSPropertyOp17
 70
     1
102
RTVSPropertyOp18
 70
     1
102
RTVSPropertyOp19
 70
     1
102
RTVSPropertyOp20
 70
     1
102
RTVSPropertyOp21
 70
     1
102
RTVSPropertyOp22
 70
     1
102
RTVSPropertyOp23
 70
     1
102
RTVSPropertyOp24
 70
     1
102
RTVSPropertyOp25
 70
     1
102
RTVSPropertyOp26
 70
     1
102
RTVSPropertyOp27
 70
     1
102
RTVSPropertyOp28
 70
     1
102
RTVSPropertyOp29
 70
     1
102
RTVSPropertyOp30
 70
     1
102
RTVSPropertyOp31
 70
     1
102
RTVSPropertyOp32
 70
     1
102
RTVSPropertyOp33
 70
     1
102
RTVSPropertyOp34
 70
     1
102
RTVSPropertyOp35
 70
     1
102
RTVSPropertyOp36
 70
     1
102
RTVSPropertyOp37
 70
     1
102
RTVSPropertyOp38
 70
     1
102
RTVSPropertyOp39
 70
     1
102
RTVSPropertyOp40
 70
     1
102
RTVSPropertyOp41
 70
     1
102
RTVSPropertyOp42
 70
     1
102
RTVSPropertyOp43
 70
     1
102
RTVSPropertyOp44
 70
     1
102
RTVSPropertyOp45
 70
     1
102
RTVSPropertyOp46
 70
     1
102
RTVSPropertyOp47
 70
     1
102
RTVSPropertyOp48
 70
     1
102
RTVSPropertyOp49
 70
     1
102
RTVSPropertyOp50
 70
     1
102
RTVSPropertyOp51
 70
     0
102
RTVSPropertyOp52
 70
     0
102
RTVSPropertyOp53
 70
     1
102
RTVSPropertyOp54
 70
     1
102
RTVSPropertyOp55
 70
     1
102
RTVSPropertyOp56
 70
     1
102
RTVSPropertyOp57
 70
     1
102
RTVSPropertyOp58
 70
     1
102
RTVSPropertyOp59
 70
     1
102
RTVSPropertyOp60
 70
     1
102
RTVSPropertyOp61
 70
     1
102
RTVSPropertyOp62
 70
     1
  0
XRECORD
  5
85AC
102
{ACAD_REACTORS
330
85AB
102
}
330
85AB
100
AcDbXrecord
280
     1
102
RTVSPost2010Prop28
280
     0
102
RTVSPost2010PropOp28
 70
     1
102
RTVSPost2010Prop29
280
     1
102
RTVSPost2010PropOp29
 70
     1
102
RTVSPost2010Prop30
280
     1
102
RTVSPost2010PropOp30
 70
     1
102
RTVSPost2010Prop31
280
     0
102
RTVSPost2010PropOp31
 70
     1
102
RTVSPost2010Prop32
280
     0
102
RTVSPost2010PropOp32
 70
     1
102
RTVSPost2010Prop33
280
     0
102
RTVSPost2010PropOp33
 70
     1
102
RTVSPost2010Prop34
280
     0
102
RTVSPost2010PropOp34
 70
     1
102
RTVSPost2010Prop35
280
     0
102
RTVSPost2010PropOp35
 70
     1
102
RTVSPost2010Prop36
280
     0
102
RTVSPost2010PropOp36
 70
     1
102
RTVSPost2010Prop37
 90
       50
102
RTVSPost2010PropOp37
 70
     1
102
RTVSPost2010Prop38
140
0.0
102
RTVSPost2010PropOp38
 70
     1
102
RTVSPost2010Prop39
140
1.0
102
RTVSPost2010PropOp39
 70
     1
102
RTVSPost2010Prop40
 90
        0
102
RTVSPost2010PropOp40
 70
     1
102
RTVSPost2010Prop41ColorIndex
 90
       18
102
RTVSPost2010Prop41ColorRGB
 90
        0
102
RTVSPost2010PropOp41
 70
     1
102
RTVSPost2010Prop42
 90
       50
102
RTVSPost2010PropOp42
 70
     1
102
RTVSPost2010Prop43
 90
        3
102
RTVSPost2010PropOp43
 70
     1
102
RTVSPost2010Prop44ColorIndex
 90
        5
102
RTVSPost2010Prop44ColorRGB
 90
      255
102
RTVSPost2010PropOp44
 70
     1
102
RTVSPost2010Prop45
280
     0
102
RTVSPost2010PropOp45
 70
     1
102
RTVSPost2010Prop46
 90
       50
102
RTVSPost2010PropOp46
 70
     1
102
RTVSPost2010Prop47
 90
       50
102
RTVSPost2010PropOp47
 70
     1
102
RTVSPost2010Prop48
 90
       50
102
RTVSPost2010PropOp48
 70
     1
102
RTVSPost2010Prop49
280
     0
102
RTVSPost2010PropOp49
 70
     1
102
RTVSPost2010Prop50
 90
       50
102
RTVSPost2010PropOp50
 70
     1
102
RTVSPost2010Prop51ColorIndex
 90
      256
102
RTVSPost2010Prop51ColorRGB
 90
-16777216
102
RTVSPost2010PropOp51
 70
     0
102
RTVSPost2010Prop52
140
1.0
102
RTVSPost2010PropOp52
 70
     0
102
RTVSPost2010Prop53
 90
        2
102
RTVSPost2010PropOp53
 70
     1
102
RTVSPost2010Prop54
  1
strokes_ogs.tif
102
RTVSPost2010PropOp54
 70
     1
102
RTVSPost2010Prop55
280
     0
102
RTVSPost2010PropOp55
 70
     1
102
RTVSPost2010Prop56
140
1.0
102
RTVSPost2010PropOp56
 70
     1
102
RTVSPost2010Prop57
140
1.0
102
RTVSPost2010PropOp57
 70
     1
102
RTVSPropertyOp0
 70
     1
102
RTVSPropertyOp1
 70
     1
102
RTVSPropertyOp2
 70
     1
102
RTVSPropertyOp3
 70
     1
102
RTVSPropertyOp4
 70
     1
102
RTVSPropertyOp5
 70
     1
102
RTVSPropertyOp6
 70
     1
102
RTVSPropertyOp7
 70
     1
102
RTVSPropertyOp8
 70
     1
102
RTVSPropertyOp9
 70
     1
102
RTVSPropertyOp10
 70
     1
102
RTVSPropertyOp11
 70
     1
102
RTVSPropertyOp12
 70
     1
102
RTVSPropertyOp13
 70
     1
102
RTVSPropertyOp14
 70
     1
102
RTVSPropertyOp15
 70
     1
102
RTVSPropertyOp16
 70
     1
102
RTVSPropertyOp17
 70
     1
102
RTVSPropertyOp18
 70
     1
102
RTVSPropertyOp19
 70
     1
102
RTVSPropertyOp20
 70
     1
102
RTVSPropertyOp21
 70
     1
102
RTVSPropertyOp22
 70
     1
102
RTVSPropertyOp23
 70
     1
102
RTVSPropertyOp24
 70
     1
102
RTVSPropertyOp25
 70
     1
102
RTVSPropertyOp26
 70
     1
102
RTVSPropertyOp27
 70
     1
102
RTVSPropertyOp28
 70
     1
102
RTVSPropertyOp29
 70
     1
102
RTVSPropertyOp30
 70
     1
102
RTVSPropertyOp31
 70
     1
102
RTVSPropertyOp32
 70
     1
102
RTVSPropertyOp33
 70
     1
102
RTVSPropertyOp34
 70
     1
102
RTVSPropertyOp35
 70
     1
102
RTVSPropertyOp36
 70
     1
102
RTVSPropertyOp37
 70
     1
102
RTVSPropertyOp38
 70
     1
102
RTVSPropertyOp39
 70
     1
102
RTVSPropertyOp40
 70
     1
102
RTVSPropertyOp41
 70
     1
102
RTVSPropertyOp42
 70
     1
102
RTVSPropertyOp43
 70
     1
102
RTVSPropertyOp44
 70
     1
102
RTVSPropertyOp45
 70
     1
102
RTVSPropertyOp46
 70
     1
102
RTVSPropertyOp47
 70
     1
102
RTVSPropertyOp48
 70
     1
102
RTVSPropertyOp49
 70
     1
102
RTVSPropertyOp50
 70
     1
102
RTVSPropertyOp51
 70
     0
102
RTVSPropertyOp52
 70
     0
102
RTVSPropertyOp53
 70
     1
102
RTVSPropertyOp54
 70
     1
102
RTVSPropertyOp55
 70
     1
102
RTVSPropertyOp56
 70
     1
102
RTVSPropertyOp57
 70
     1
102
RTVSPropertyOp58
 70
     1
102
RTVSPropertyOp59
 70
     1
102
RTVSPropertyOp60
 70
     1
102
RTVSPropertyOp61
 70
     1
102
RTVSPropertyOp62
 70
     1
  0
XRECORD
  5
85C8
102
{ACAD_REACTORS
330
85C7
102
}
330
85C7
100
AcDbXrecord
280
     1
102
RTVSPost2010Prop28
280
     0
102
RTVSPost2010PropOp28
 70
     1
102
RTVSPost2010Prop29
280
     1
102
RTVSPost2010PropOp29
 70
     1
102
RTVSPost2010Prop30
280
     1
102
RTVSPost2010PropOp30
 70
     1
102
RTVSPost2010Prop31
280
     0
102
RTVSPost2010PropOp31
 70
     1
102
RTVSPost2010Prop32
280
     0
102
RTVSPost2010PropOp32
 70
     1
102
RTVSPost2010Prop33
280
     0
102
RTVSPost2010PropOp33
 70
     1
102
RTVSPost2010Prop34
280
     0
102
RTVSPost2010PropOp34
 70
     1
102
RTVSPost2010Prop35
280
     0
102
RTVSPost2010PropOp35
 70
     1
102
RTVSPost2010Prop36
280
     0
102
RTVSPost2010PropOp36
 70
     1
102
RTVSPost2010Prop37
 90
       50
102
RTVSPost2010PropOp37
 70
     0
102
RTVSPost2010Prop38
140
0.0
102
RTVSPost2010PropOp38
 70
     0
102
RTVSPost2010Prop39
140
1.0
102
RTVSPost2010PropOp39
 70
     0
102
RTVSPost2010Prop40
 90
        0
102
RTVSPost2010PropOp40
 70
     0
102
RTVSPost2010Prop41ColorIndex
 90
       18
102
RTVSPost2010Prop41ColorRGB
 90
        0
102
RTVSPost2010PropOp41
 70
     0
102
RTVSPost2010Prop42
 90
       50
102
RTVSPost2010PropOp42
 70
     0
102
RTVSPost2010Prop43
 90
        3
102
RTVSPost2010PropOp43
 70
     0
102
RTVSPost2010Prop44ColorIndex
 90
        5
102
RTVSPost2010Prop44ColorRGB
 90
      255
102
RTVSPost2010PropOp44
 70
     0
102
RTVSPost2010Prop45
280
     0
102
RTVSPost2010PropOp45
 70
     1
102
RTVSPost2010Prop46
 90
       50
102
RTVSPost2010PropOp46
 70
     0
102
RTVSPost2010Prop47
 90
       50
102
RTVSPost2010PropOp47
 70
     0
102
RTVSPost2010Prop48
 90
       50
102
RTVSPost2010PropOp48
 70
     0
102
RTVSPost2010Prop49
280
     0
102
RTVSPost2010PropOp49
 70
     1
102
RTVSPost2010Prop50
 90
       50
102
RTVSPost2010PropOp50
 70
     0
102
RTVSPost2010Prop51ColorIndex
 90
      256
102
RTVSPost2010Prop51ColorRGB
 90
-16777216
102
RTVSPost2010PropOp51
 70
     0
102
RTVSPost2010Prop52
140
1.0
102
RTVSPost2010PropOp52
 70
     0
102
RTVSPost2010Prop53
 90
        2
102
RTVSPost2010PropOp53
 70
     0
102
RTVSPost2010Prop54
  1
strokes_ogs.tif
102
RTVSPost2010PropOp54
 70
     0
102
RTVSPost2010Prop55
280
     0
102
RTVSPost2010PropOp55
 70
     1
102
RTVSPost2010Prop56
140
1.0
102
RTVSPost2010PropOp56
 70
     0
102
RTVSPost2010Prop57
140
1.0
102
RTVSPost2010PropOp57
 70
     0
102
RTVSPropertyOp0
 70
     0
102
RTVSPropertyOp1
 70
     0
102
RTVSPropertyOp2
 70
     0
102
RTVSPropertyOp3
 70
     0
102
RTVSPropertyOp4
 70
     0
102
RTVSPropertyOp5
 70
     0
102
RTVSPropertyOp6
 70
     0
102
RTVSPropertyOp7
 70
     0
102
RTVSPropertyOp8
 70
     0
102
RTVSPropertyOp9
 70
     0
102
RTVSPropertyOp10
 70
     0
102
RTVSPropertyOp11
 70
     0
102
RTVSPropertyOp12
 70
     0
102
RTVSPropertyOp13
 70
     0
102
RTVSPropertyOp14
 70
     2
102
RTVSPropertyOp15
 70
     0
102
RTVSPropertyOp16
 70
     0
102
RTVSPropertyOp17
 70
     0
102
RTVSPropertyOp18
 70
     0
102
RTVSPropertyOp19
 70
     0
102
RTVSPropertyOp20
 70
     0
102
RTVSPropertyOp21
 70
     0
102
RTVSPropertyOp22
 70
     0
102
RTVSPropertyOp23
 70
     0
102
RTVSPropertyOp24
 70
     0
102
RTVSPropertyOp25
 70
     0
102
RTVSPropertyOp26
 70
     0
102
RTVSPropertyOp27
 70
     0
102
RTVSPropertyOp28
 70
     1
102
RTVSPropertyOp29
 70
     1
102
RTVSPropertyOp30
 70
     1
102
RTVSPropertyOp31
 70
     1
102
RTVSPropertyOp32
 70
     1
102
RTVSPropertyOp33
 70
     1
102
RTVSPropertyOp34
 70
     1
102
RTVSPropertyOp35
 70
     1
102
RTVSPropertyOp36
 70
     1
102
RTVSPropertyOp37
 70
     0
102
RTVSPropertyOp38
 70
     0
102
RTVSPropertyOp39
 70
     0
102
RTVSPropertyOp40
 70
     0
102
RTVSPropertyOp41
 70
     0
102
RTVSPropertyOp42
 70
     0
102
RTVSPropertyOp43
 70
     0
102
RTVSPropertyOp44
 70
     0
102
RTVSPropertyOp45
 70
     1
102
RTVSPropertyOp46
 70
     0
102
RTVSPropertyOp47
 70
     0
102
RTVSPropertyOp48
 70
     0
102
RTVSPropertyOp49
 70
     1
102
RTVSPropertyOp50
 70
     0
102
RTVSPropertyOp51
 70
     0
102
RTVSPropertyOp52
 70
     0
102
RTVSPropertyOp53
 70
     0
102
RTVSPropertyOp54
 70
     0
102
RTVSPropertyOp55
 70
     1
102
RTVSPropertyOp56
 70
     0
102
RTVSPropertyOp57
 70
     0
102
RTVSPropertyOp58
 70
     0
102
RTVSPropertyOp59
 70
     0
102
RTVSPropertyOp60
 70
     0
102
RTVSPropertyOp61
 70
     0
102
RTVSPropertyOp62
 70
     0
  0
XRECORD
  5
85B8
102
{ACAD_REACTORS
330
85B7
102
}
330
85B7
100
AcDbXrecord
280
     1
102
RTVSPost2010Prop28
280
     0
102
RTVSPost2010PropOp28
 70
     1
102
RTVSPost2010Prop29
280
     1
102
RTVSPost2010PropOp29
 70
     1
102
RTVSPost2010Prop30
280
     1
102
RTVSPost2010PropOp30
 70
     1
102
RTVSPost2010Prop31
280
     0
102
RTVSPost2010PropOp31
 70
     1
102
RTVSPost2010Prop32
280
     0
102
RTVSPost2010PropOp32
 70
     1
102
RTVSPost2010Prop33
280
     0
102
RTVSPost2010PropOp33
 70
     1
102
RTVSPost2010Prop34
280
     0
102
RTVSPost2010PropOp34
 70
     1
102
RTVSPost2010Prop35
280
     0
102
RTVSPost2010PropOp35
 70
     1
102
RTVSPost2010Prop36
280
     0
102
RTVSPost2010PropOp36
 70
     1
102
RTVSPost2010Prop37
 90
       50
102
RTVSPost2010PropOp37
 70
     1
102
RTVSPost2010Prop38
140
0.0
102
RTVSPost2010PropOp38
 70
     1
102
RTVSPost2010Prop39
140
1.0
102
RTVSPost2010PropOp39
 70
     1
102
RTVSPost2010Prop40
 90
        0
102
RTVSPost2010PropOp40
 70
     1
102
RTVSPost2010Prop41ColorIndex
 90
       18
102
RTVSPost2010Prop41ColorRGB
 90
        0
102
RTVSPost2010PropOp41
 70
     1
102
RTVSPost2010Prop42
 90
       50
102
RTVSPost2010PropOp42
 70
     1
102
RTVSPost2010Prop43
 90
        3
102
RTVSPost2010PropOp43
 70
     1
102
RTVSPost2010Prop44ColorIndex
 90
        5
102
RTVSPost2010Prop44ColorRGB
 90
      255
102
RTVSPost2010PropOp44
 70
     1
102
RTVSPost2010Prop45
280
     0
102
RTVSPost2010PropOp45
 70
     1
102
RTVSPost2010Prop46
 90
       50
102
RTVSPost2010PropOp46
 70
     1
102
RTVSPost2010Prop47
 90
       50
102
RTVSPost2010PropOp47
 70
     1
102
RTVSPost2010Prop48
 90
       50
102
RTVSPost2010PropOp48
 70
     1
102
RTVSPost2010Prop49
280
     0
102
RTVSPost2010PropOp49
 70
     1
102
RTVSPost2010Prop50
 90
       50
102
RTVSPost2010PropOp50
 70
     1
102
RTVSPost2010Prop51ColorIndex
 90
      256
102
RTVSPost2010Prop51ColorRGB
 90
-16777216
102
RTVSPost2010PropOp51
 70
     0
102
RTVSPost2010Prop52
140
1.0
102
RTVSPost2010PropOp52
 70
     0
102
RTVSPost2010Prop53
 90
        2
102
RTVSPost2010PropOp53
 70
     1
102
RTVSPost2010Prop54
  1
strokes_ogs.tif
102
RTVSPost2010PropOp54
 70
     1
102
RTVSPost2010Prop55
280
     0
102
RTVSPost2010PropOp55
 70
     1
102
RTVSPost2010Prop56
140
1.0
102
RTVSPost2010PropOp56
 70
     1
102
RTVSPost2010Prop57
140
1.0
102
RTVSPost2010PropOp57
 70
     1
102
RTVSPropertyOp0
 70
     1
102
RTVSPropertyOp1
 70
     1
102
RTVSPropertyOp2
 70
     1
102
RTVSPropertyOp3
 70
     1
102
RTVSPropertyOp4
 70
     1
102
RTVSPropertyOp5
 70
     1
102
RTVSPropertyOp6
 70
     1
102
RTVSPropertyOp7
 70
     1
102
RTVSPropertyOp8
 70
     1
102
RTVSPropertyOp9
 70
     1
102
RTVSPropertyOp10
 70
     1
102
RTVSPropertyOp11
 70
     1
102
RTVSPropertyOp12
 70
     1
102
RTVSPropertyOp13
 70
     1
102
RTVSPropertyOp14
 70
     1
102
RTVSPropertyOp15
 70
     1
102
RTVSPropertyOp16
 70
     1
102
RTVSPropertyOp17
 70
     1
102
RTVSPropertyOp18
 70
     1
102
RTVSPropertyOp19
 70
     1
102
RTVSPropertyOp20
 70
     1
102
RTVSPropertyOp21
 70
     1
102
RTVSPropertyOp22
 70
     1
102
RTVSPropertyOp23
 70
     1
102
RTVSPropertyOp24
 70
     1
102
RTVSPropertyOp25
 70
     1
102
RTVSPropertyOp26
 70
     1
102
RTVSPropertyOp27
 70
     1
102
RTVSPropertyOp28
 70
     1
102
RTVSPropertyOp29
 70
     1
102
RTVSPropertyOp30
 70
     1
102
RTVSPropertyOp31
 70
     1
102
RTVSPropertyOp32
 70
     1
102
RTVSPropertyOp33
 70
     1
102
RTVSPropertyOp34
 70
     1
102
RTVSPropertyOp35
 70
     1
102
RTVSPropertyOp36
 70
     1
102
RTVSPropertyOp37
 70
     1
102
RTVSPropertyOp38
 70
     1
102
RTVSPropertyOp39
 70
     1
102
RTVSPropertyOp40
 70
     1
102
RTVSPropertyOp41
 70
     1
102
RTVSPropertyOp42
 70
     1
102
RTVSPropertyOp43
 70
     1
102
RTVSPropertyOp44
 70
     1
102
RTVSPropertyOp45
 70
     1
102
RTVSPropertyOp46
 70
     1
102
RTVSPropertyOp47
 70
     1
102
RTVSPropertyOp48
 70
     1
102
RTVSPropertyOp49
 70
     1
102
RTVSPropertyOp50
 70
     1
102
RTVSPropertyOp51
 70
     0
102
RTVSPropertyOp52
 70
     0
102
RTVSPropertyOp53
 70
     1
102
RTVSPropertyOp54
 70
     1
102
RTVSPropertyOp55
 70
     1
102
RTVSPropertyOp56
 70
     1
102
RTVSPropertyOp57
 70
     1
102
RTVSPropertyOp58
 70
     1
102
RTVSPropertyOp59
 70
     1
102
RTVSPropertyOp60
 70
     1
102
RTVSPropertyOp61
 70
     1
102
RTVSPropertyOp62
 70
     1
  0
XRECORD
  5
85CA
102
{ACAD_REACTORS
330
85C9
102
}
330
85C9
100
AcDbXrecord
280
     1
102
RTVSPost2010Prop28
280
     0
102
RTVSPost2010PropOp28
 70
     1
102
RTVSPost2010Prop29
280
     1
102
RTVSPost2010PropOp29
 70
     1
102
RTVSPost2010Prop30
280
     1
102
RTVSPost2010PropOp30
 70
     1
102
RTVSPost2010Prop31
280
     0
102
RTVSPost2010PropOp31
 70
     1
102
RTVSPost2010Prop32
280
     0
102
RTVSPost2010PropOp32
 70
     1
102
RTVSPost2010Prop33
280
     0
102
RTVSPost2010PropOp33
 70
     1
102
RTVSPost2010Prop34
280
     0
102
RTVSPost2010PropOp34
 70
     1
102
RTVSPost2010Prop35
280
     0
102
RTVSPost2010PropOp35
 70
     1
102
RTVSPost2010Prop36
280
     0
102
RTVSPost2010PropOp36
 70
     1
102
RTVSPost2010Prop37
 90
       50
102
RTVSPost2010PropOp37
 70
     0
102
RTVSPost2010Prop38
140
0.0
102
RTVSPost2010PropOp38
 70
     0
102
RTVSPost2010Prop39
140
1.0
102
RTVSPost2010PropOp39
 70
     0
102
RTVSPost2010Prop40
 90
        0
102
RTVSPost2010PropOp40
 70
     0
102
RTVSPost2010Prop41ColorIndex
 90
       18
102
RTVSPost2010Prop41ColorRGB
 90
        0
102
RTVSPost2010PropOp41
 70
     0
102
RTVSPost2010Prop42
 90
       50
102
RTVSPost2010PropOp42
 70
     0
102
RTVSPost2010Prop43
 90
        3
102
RTVSPost2010PropOp43
 70
     0
102
RTVSPost2010Prop44ColorIndex
 90
        5
102
RTVSPost2010Prop44ColorRGB
 90
      255
102
RTVSPost2010PropOp44
 70
     0
102
RTVSPost2010Prop45
280
     0
102
RTVSPost2010PropOp45
 70
     1
102
RTVSPost2010Prop46
 90
       50
102
RTVSPost2010PropOp46
 70
     0
102
RTVSPost2010Prop47
 90
       50
102
RTVSPost2010PropOp47
 70
     0
102
RTVSPost2010Prop48
 90
       50
102
RTVSPost2010PropOp48
 70
     0
102
RTVSPost2010Prop49
280
     0
102
RTVSPost2010PropOp49
 70
     1
102
RTVSPost2010Prop50
 90
       50
102
RTVSPost2010PropOp50
 70
     0
102
RTVSPost2010Prop51ColorIndex
 90
      256
102
RTVSPost2010Prop51ColorRGB
 90
-16777216
102
RTVSPost2010PropOp51
 70
     0
102
RTVSPost2010Prop52
140
1.0
102
RTVSPost2010PropOp52
 70
     0
102
RTVSPost2010Prop53
 90
        2
102
RTVSPost2010PropOp53
 70
     0
102
RTVSPost2010Prop54
  1
strokes_ogs.tif
102
RTVSPost2010PropOp54
 70
     0
102
RTVSPost2010Prop55
280
     0
102
RTVSPost2010PropOp55
 70
     1
102
RTVSPost2010Prop56
140
1.0
102
RTVSPost2010PropOp56
 70
     0
102
RTVSPost2010Prop57
140
1.0
102
RTVSPost2010PropOp57
 70
     0
102
RTVSPropertyOp0
 70
     0
102
RTVSPropertyOp1
 70
     0
102
RTVSPropertyOp2
 70
     0
102
RTVSPropertyOp3
 70
     0
102
RTVSPropertyOp4
 70
     0
102
RTVSPropertyOp5
 70
     0
102
RTVSPropertyOp6
 70
     0
102
RTVSPropertyOp7
 70
     0
102
RTVSPropertyOp8
 70
     0
102
RTVSPropertyOp9
 70
     0
102
RTVSPropertyOp10
 70
     0
102
RTVSPropertyOp11
 70
     0
102
RTVSPropertyOp12
 70
     0
102
RTVSPropertyOp13
 70
     0
102
RTVSPropertyOp14
 70
     2
102
RTVSPropertyOp15
 70
     0
102
RTVSPropertyOp16
 70
     0
102
RTVSPropertyOp17
 70
     0
102
RTVSPropertyOp18
 70
     0
102
RTVSPropertyOp19
 70
     0
102
RTVSPropertyOp20
 70
     0
102
RTVSPropertyOp21
 70
     0
102
RTVSPropertyOp22
 70
     0
102
RTVSPropertyOp23
 70
     0
102
RTVSPropertyOp24
 70
     0
102
RTVSPropertyOp25
 70
     0
102
RTVSPropertyOp26
 70
     0
102
RTVSPropertyOp27
 70
     0
102
RTVSPropertyOp28
 70
     1
102
RTVSPropertyOp29
 70
     1
102
RTVSPropertyOp30
 70
     1
102
RTVSPropertyOp31
 70
     1
102
RTVSPropertyOp32
 70
     1
102
RTVSPropertyOp33
 70
     1
102
RTVSPropertyOp34
 70
     1
102
RTVSPropertyOp35
 70
     1
102
RTVSPropertyOp36
 70
     1
102
RTVSPropertyOp37
 70
     0
102
RTVSPropertyOp38
 70
     0
102
RTVSPropertyOp39
 70
     0
102
RTVSPropertyOp40
 70
     0
102
RTVSPropertyOp41
 70
     0
102
RTVSPropertyOp42
 70
     0
102
RTVSPropertyOp43
 70
     0
102
RTVSPropertyOp44
 70
     0
102
RTVSPropertyOp45
 70
     1
102
RTVSPropertyOp46
 70
     0
102
RTVSPropertyOp47
 70
     0
102
RTVSPropertyOp48
 70
     0
102
RTVSPropertyOp49
 70
     1
102
RTVSPropertyOp50
 70
     0
102
RTVSPropertyOp51
 70
     0
102
RTVSPropertyOp52
 70
     0
102
RTVSPropertyOp53
 70
     0
102
RTVSPropertyOp54
 70
     0
102
RTVSPropertyOp55
 70
     1
102
RTVSPropertyOp56
 70
     0
102
RTVSPropertyOp57
 70
     0
102
RTVSPropertyOp58
 70
     0
102
RTVSPropertyOp59
 70
     0
102
RTVSPropertyOp60
 70
     0
102
RTVSPropertyOp61
 70
     0
102
RTVSPropertyOp62
 70
     0
  0
XRECORD
  5
85B0
102
{ACAD_REACTORS
330
85AF
102
}
330
85AF
100
AcDbXrecord
280
     1
102
RTVSPost2010Prop28
280
     0
102
RTVSPost2010PropOp28
 70
     1
102
RTVSPost2010Prop29
280
     1
102
RTVSPost2010PropOp29
 70
     1
102
RTVSPost2010Prop30
280
     1
102
RTVSPost2010PropOp30
 70
     1
102
RTVSPost2010Prop31
280
     0
102
RTVSPost2010PropOp31
 70
     1
102
RTVSPost2010Prop32
280
     0
102
RTVSPost2010PropOp32
 70
     1
102
RTVSPost2010Prop33
280
     0
102
RTVSPost2010PropOp33
 70
     1
102
RTVSPost2010Prop34
280
     0
102
RTVSPost2010PropOp34
 70
     1
102
RTVSPost2010Prop35
280
     0
102
RTVSPost2010PropOp35
 70
     1
102
RTVSPost2010Prop36
280
     0
102
RTVSPost2010PropOp36
 70
     1
102
RTVSPost2010Prop37
 90
       50
102
RTVSPost2010PropOp37
 70
     1
102
RTVSPost2010Prop38
140
0.0
102
RTVSPost2010PropOp38
 70
     1
102
RTVSPost2010Prop39
140
1.0
102
RTVSPost2010PropOp39
 70
     1
102
RTVSPost2010Prop40
 90
        0
102
RTVSPost2010PropOp40
 70
     1
102
RTVSPost2010Prop41ColorIndex
 90
       18
102
RTVSPost2010Prop41ColorRGB
 90
        0
102
RTVSPost2010PropOp41
 70
     1
102
RTVSPost2010Prop42
 90
       50
102
RTVSPost2010PropOp42
 70
     1
102
RTVSPost2010Prop43
 90
        3
102
RTVSPost2010PropOp43
 70
     1
102
RTVSPost2010Prop44ColorIndex
 90
        5
102
RTVSPost2010Prop44ColorRGB
 90
      255
102
RTVSPost2010PropOp44
 70
     1
102
RTVSPost2010Prop45
280
     0
102
RTVSPost2010PropOp45
 70
     1
102
RTVSPost2010Prop46
 90
       50
102
RTVSPost2010PropOp46
 70
     1
102
RTVSPost2010Prop47
 90
       50
102
RTVSPost2010PropOp47
 70
     1
102
RTVSPost2010Prop48
 90
       50
102
RTVSPost2010PropOp48
 70
     1
102
RTVSPost2010Prop49
280
     0
102
RTVSPost2010PropOp49
 70
     1
102
RTVSPost2010Prop50
 90
       50
102
RTVSPost2010PropOp50
 70
     1
102
RTVSPost2010Prop51ColorIndex
 90
      256
102
RTVSPost2010Prop51ColorRGB
 90
-16777216
102
RTVSPost2010PropOp51
 70
     0
102
RTVSPost2010Prop52
140
1.0
102
RTVSPost2010PropOp52
 70
     0
102
RTVSPost2010Prop53
 90
        2
102
RTVSPost2010PropOp53
 70
     1
102
RTVSPost2010Prop54
  1
strokes_ogs.tif
102
RTVSPost2010PropOp54
 70
     1
102
RTVSPost2010Prop55
280
     0
102
RTVSPost2010PropOp55
 70
     1
102
RTVSPost2010Prop56
140
1.0
102
RTVSPost2010PropOp56
 70
     1
102
RTVSPost2010Prop57
140
1.0
102
RTVSPost2010PropOp57
 70
     1
102
RTVSPropertyOp0
 70
     1
102
RTVSPropertyOp1
 70
     1
102
RTVSPropertyOp2
 70
     1
102
RTVSPropertyOp3
 70
     1
102
RTVSPropertyOp4
 70
     1
102
RTVSPropertyOp5
 70
     1
102
RTVSPropertyOp6
 70
     1
102
RTVSPropertyOp7
 70
     1
102
RTVSPropertyOp8
 70
     1
102
RTVSPropertyOp9
 70
     1
102
RTVSPropertyOp10
 70
     1
102
RTVSPropertyOp11
 70
     1
102
RTVSPropertyOp12
 70
     1
102
RTVSPropertyOp13
 70
     1
102
RTVSPropertyOp14
 70
     1
102
RTVSPropertyOp15
 70
     1
102
RTVSPropertyOp16
 70
     1
102
RTVSPropertyOp17
 70
     1
102
RTVSPropertyOp18
 70
     1
102
RTVSPropertyOp19
 70
     1
102
RTVSPropertyOp20
 70
     1
102
RTVSPropertyOp21
 70
     1
102
RTVSPropertyOp22
 70
     1
102
RTVSPropertyOp23
 70
     1
102
RTVSPropertyOp24
 70
     1
102
RTVSPropertyOp25
 70
     1
102
RTVSPropertyOp26
 70
     1
102
RTVSPropertyOp27
 70
     1
102
RTVSPropertyOp28
 70
     1
102
RTVSPropertyOp29
 70
     1
102
RTVSPropertyOp30
 70
     1
102
RTVSPropertyOp31
 70
     1
102
RTVSPropertyOp32
 70
     1
102
RTVSPropertyOp33
 70
     1
102
RTVSPropertyOp34
 70
     1
102
RTVSPropertyOp35
 70
     1
102
RTVSPropertyOp36
 70
     1
102
RTVSPropertyOp37
 70
     1
102
RTVSPropertyOp38
 70
     1
102
RTVSPropertyOp39
 70
     1
102
RTVSPropertyOp40
 70
     1
102
RTVSPropertyOp41
 70
     1
102
RTVSPropertyOp42
 70
     1
102
RTVSPropertyOp43
 70
     1
102
RTVSPropertyOp44
 70
     1
102
RTVSPropertyOp45
 70
     1
102
RTVSPropertyOp46
 70
     1
102
RTVSPropertyOp47
 70
     1
102
RTVSPropertyOp48
 70
     1
102
RTVSPropertyOp49
 70
     1
102
RTVSPropertyOp50
 70
     1
102
RTVSPropertyOp51
 70
     0
102
RTVSPropertyOp52
 70
     0
102
RTVSPropertyOp53
 70
     1
102
RTVSPropertyOp54
 70
     1
102
RTVSPropertyOp55
 70
     1
102
RTVSPropertyOp56
 70
     1
102
RTVSPropertyOp57
 70
     1
102
RTVSPropertyOp58
 70
     1
102
RTVSPropertyOp59
 70
     1
102
RTVSPropertyOp60
 70
     1
102
RTVSPropertyOp61
 70
     1
102
RTVSPropertyOp62
 70
     1
  0
XRECORD
  5
85C6
102
{ACAD_REACTORS
330
85C5
102
}
330
85C5
100
AcDbXrecord
280
     1
102
RTVSPost2010Prop28
280
     0
102
RTVSPost2010PropOp28
 70
     1
102
RTVSPost2010Prop29
280
     1
102
RTVSPost2010PropOp29
 70
     1
102
RTVSPost2010Prop30
280
     1
102
RTVSPost2010PropOp30
 70
     1
102
RTVSPost2010Prop31
280
     0
102
RTVSPost2010PropOp31
 70
     1
102
RTVSPost2010Prop32
280
     0
102
RTVSPost2010PropOp32
 70
     1
102
RTVSPost2010Prop33
280
     0
102
RTVSPost2010PropOp33
 70
     1
102
RTVSPost2010Prop34
280
     0
102
RTVSPost2010PropOp34
 70
     1
102
RTVSPost2010Prop35
280
     0
102
RTVSPost2010PropOp35
 70
     1
102
RTVSPost2010Prop36
280
     0
102
RTVSPost2010PropOp36
 70
     1
102
RTVSPost2010Prop37
 90
       50
102
RTVSPost2010PropOp37
 70
     1
102
RTVSPost2010Prop38
140
0.0
102
RTVSPost2010PropOp38
 70
     1
102
RTVSPost2010Prop39
140
1.0
102
RTVSPost2010PropOp39
 70
     1
102
RTVSPost2010Prop40
 90
        0
102
RTVSPost2010PropOp40
 70
     1
102
RTVSPost2010Prop41ColorIndex
 90
       18
102
RTVSPost2010Prop41ColorRGB
 90
        0
102
RTVSPost2010PropOp41
 70
     1
102
RTVSPost2010Prop42
 90
       50
102
RTVSPost2010PropOp42
 70
     1
102
RTVSPost2010Prop43
 90
        3
102
RTVSPost2010PropOp43
 70
     1
102
RTVSPost2010Prop44ColorIndex
 90
        5
102
RTVSPost2010Prop44ColorRGB
 90
      255
102
RTVSPost2010PropOp44
 70
     1
102
RTVSPost2010Prop45
280
     0
102
RTVSPost2010PropOp45
 70
     1
102
RTVSPost2010Prop46
 90
       50
102
RTVSPost2010PropOp46
 70
     1
102
RTVSPost2010Prop47
 90
       50
102
RTVSPost2010PropOp47
 70
     1
102
RTVSPost2010Prop48
 90
       50
102
RTVSPost2010PropOp48
 70
     1
102
RTVSPost2010Prop49
280
     0
102
RTVSPost2010PropOp49
 70
     1
102
RTVSPost2010Prop50
 90
       50
102
RTVSPost2010PropOp50
 70
     1
102
RTVSPost2010Prop51ColorIndex
 90
      256
102
RTVSPost2010Prop51ColorRGB
 90
-16777216
102
RTVSPost2010PropOp51
 70
     0
102
RTVSPost2010Prop52
140
1.0
102
RTVSPost2010PropOp52
 70
     0
102
RTVSPost2010Prop53
 90
        2
102
RTVSPost2010PropOp53
 70
     1
102
RTVSPost2010Prop54
  1
strokes_ogs.tif
102
RTVSPost2010PropOp54
 70
     1
102
RTVSPost2010Prop55
280
     0
102
RTVSPost2010PropOp55
 70
     1
102
RTVSPost2010Prop56
140
1.0
102
RTVSPost2010PropOp56
 70
     1
102
RTVSPost2010Prop57
140
1.0
102
RTVSPost2010PropOp57
 70
     1
102
RTVSPropertyOp0
 70
     1
102
RTVSPropertyOp1
 70
     1
102
RTVSPropertyOp2
 70
     1
102
RTVSPropertyOp3
 70
     1
102
RTVSPropertyOp4
 70
     1
102
RTVSPropertyOp5
 70
     1
102
RTVSPropertyOp6
 70
     1
102
RTVSPropertyOp7
 70
     1
102
RTVSPropertyOp8
 70
     1
102
RTVSPropertyOp9
 70
     1
102
RTVSPropertyOp10
 70
     1
102
RTVSPropertyOp11
 70
     1
102
RTVSPropertyOp12
 70
     1
102
RTVSPropertyOp13
 70
     1
102
RTVSPropertyOp14
 70
     1
102
RTVSPropertyOp15
 70
     1
102
RTVSPropertyOp16
 70
     1
102
RTVSPropertyOp17
 70
     1
102
RTVSPropertyOp18
 70
     1
102
RTVSPropertyOp19
 70
     1
102
RTVSPropertyOp20
 70
     1
102
RTVSPropertyOp21
 70
     1
102
RTVSPropertyOp22
 70
     1
102
RTVSPropertyOp23
 70
     1
102
RTVSPropertyOp24
 70
     1
102
RTVSPropertyOp25
 70
     1
102
RTVSPropertyOp26
 70
     1
102
RTVSPropertyOp27
 70
     1
102
RTVSPropertyOp28
 70
     1
102
RTVSPropertyOp29
 70
     1
102
RTVSPropertyOp30
 70
     1
102
RTVSPropertyOp31
 70
     1
102
RTVSPropertyOp32
 70
     1
102
RTVSPropertyOp33
 70
     1
102
RTVSPropertyOp34
 70
     1
102
RTVSPropertyOp35
 70
     1
102
RTVSPropertyOp36
 70
     1
102
RTVSPropertyOp37
 70
     1
102
RTVSPropertyOp38
 70
     1
102
RTVSPropertyOp39
 70
     1
102
RTVSPropertyOp40
 70
     1
102
RTVSPropertyOp41
 70
     1
102
RTVSPropertyOp42
 70
     1
102
RTVSPropertyOp43
 70
     1
102
RTVSPropertyOp44
 70
     1
102
RTVSPropertyOp45
 70
     1
102
RTVSPropertyOp46
 70
     1
102
RTVSPropertyOp47
 70
     1
102
RTVSPropertyOp48
 70
     1
102
RTVSPropertyOp49
 70
     1
102
RTVSPropertyOp50
 70
     1
102
RTVSPropertyOp51
 70
     0
102
RTVSPropertyOp52
 70
     0
102
RTVSPropertyOp53
 70
     1
102
RTVSPropertyOp54
 70
     1
102
RTVSPropertyOp55
 70
     1
102
RTVSPropertyOp56
 70
     1
102
RTVSPropertyOp57
 70
     1
102
RTVSPropertyOp58
 70
     1
102
RTVSPropertyOp59
 70
     1
102
RTVSPropertyOp60
 70
     1
102
RTVSPropertyOp61
 70
     1
102
RTVSPropertyOp62
 70
     1
  0
XRECORD
  5
85C4
102
{ACAD_REACTORS
330
85C3
102
}
330
85C3
100
AcDbXrecord
280
     1
102
RTVSPost2010Prop28
280
     0
102
RTVSPost2010PropOp28
 70
     1
102
RTVSPost2010Prop29
280
     1
102
RTVSPost2010PropOp29
 70
     1
102
RTVSPost2010Prop30
280
     1
102
RTVSPost2010PropOp30
 70
     1
102
RTVSPost2010Prop31
280
     0
102
RTVSPost2010PropOp31
 70
     1
102
RTVSPost2010Prop32
280
     0
102
RTVSPost2010PropOp32
 70
     1
102
RTVSPost2010Prop33
280
     0
102
RTVSPost2010PropOp33
 70
     1
102
RTVSPost2010Prop34
280
     0
102
RTVSPost2010PropOp34
 70
     1
102
RTVSPost2010Prop35
280
     0
102
RTVSPost2010PropOp35
 70
     1
102
RTVSPost2010Prop36
280
     0
102
RTVSPost2010PropOp36
 70
     1
102
RTVSPost2010Prop37
 90
       50
102
RTVSPost2010PropOp37
 70
     1
102
RTVSPost2010Prop38
140
0.0
102
RTVSPost2010PropOp38
 70
     1
102
RTVSPost2010Prop39
140
1.0
102
RTVSPost2010PropOp39
 70
     1
102
RTVSPost2010Prop40
 90
        0
102
RTVSPost2010PropOp40
 70
     1
102
RTVSPost2010Prop41ColorIndex
 90
       18
102
RTVSPost2010Prop41ColorRGB
 90
        0
102
RTVSPost2010PropOp41
 70
     1
102
RTVSPost2010Prop42
 90
       50
102
RTVSPost2010PropOp42
 70
     1
102
RTVSPost2010Prop43
 90
        3
102
RTVSPost2010PropOp43
 70
     1
102
RTVSPost2010Prop44ColorIndex
 90
        5
102
RTVSPost2010Prop44ColorRGB
 90
      255
102
RTVSPost2010PropOp44
 70
     1
102
RTVSPost2010Prop45
280
     0
102
RTVSPost2010PropOp45
 70
     1
102
RTVSPost2010Prop46
 90
       50
102
RTVSPost2010PropOp46
 70
     1
102
RTVSPost2010Prop47
 90
       50
102
RTVSPost2010PropOp47
 70
     1
102
RTVSPost2010Prop48
 90
       50
102
RTVSPost2010PropOp48
 70
     1
102
RTVSPost2010Prop49
280
     0
102
RTVSPost2010PropOp49
 70
     1
102
RTVSPost2010Prop50
 90
       50
102
RTVSPost2010PropOp50
 70
     1
102
RTVSPost2010Prop51ColorIndex
 90
      256
102
RTVSPost2010Prop51ColorRGB
 90
-16777216
102
RTVSPost2010PropOp51
 70
     0
102
RTVSPost2010Prop52
140
1.0
102
RTVSPost2010PropOp52
 70
     0
102
RTVSPost2010Prop53
 90
        2
102
RTVSPost2010PropOp53
 70
     1
102
RTVSPost2010Prop54
  1
strokes_ogs.tif
102
RTVSPost2010PropOp54
 70
     1
102
RTVSPost2010Prop55
280
     0
102
RTVSPost2010PropOp55
 70
     1
102
RTVSPost2010Prop56
140
1.0
102
RTVSPost2010PropOp56
 70
     1
102
RTVSPost2010Prop57
140
1.0
102
RTVSPost2010PropOp57
 70
     1
102
RTVSPropertyOp0
 70
     1
102
RTVSPropertyOp1
 70
     1
102
RTVSPropertyOp2
 70
     1
102
RTVSPropertyOp3
 70
     1
102
RTVSPropertyOp4
 70
     1
102
RTVSPropertyOp5
 70
     1
102
RTVSPropertyOp6
 70
     1
102
RTVSPropertyOp7
 70
     1
102
RTVSPropertyOp8
 70
     1
102
RTVSPropertyOp9
 70
     1
102
RTVSPropertyOp10
 70
     1
102
RTVSPropertyOp11
 70
     1
102
RTVSPropertyOp12
 70
     1
102
RTVSPropertyOp13
 70
     1
102
RTVSPropertyOp14
 70
     1
102
RTVSPropertyOp15
 70
     1
102
RTVSPropertyOp16
 70
     1
102
RTVSPropertyOp17
 70
     1
102
RTVSPropertyOp18
 70
     1
102
RTVSPropertyOp19
 70
     1
102
RTVSPropertyOp20
 70
     1
102
RTVSPropertyOp21
 70
     1
102
RTVSPropertyOp22
 70
     1
102
RTVSPropertyOp23
 70
     1
102
RTVSPropertyOp24
 70
     1
102
RTVSPropertyOp25
 70
     1
102
RTVSPropertyOp26
 70
     1
102
RTVSPropertyOp27
 70
     1
102
RTVSPropertyOp28
 70
     1
102
RTVSPropertyOp29
 70
     1
102
RTVSPropertyOp30
 70
     1
102
RTVSPropertyOp31
 70
     1
102
RTVSPropertyOp32
 70
     1
102
RTVSPropertyOp33
 70
     1
102
RTVSPropertyOp34
 70
     1
102
RTVSPropertyOp35
 70
     1
102
RTVSPropertyOp36
 70
     1
102
RTVSPropertyOp37
 70
     1
102
RTVSPropertyOp38
 70
     1
102
RTVSPropertyOp39
 70
     1
102
RTVSPropertyOp40
 70
     1
102
RTVSPropertyOp41
 70
     1
102
RTVSPropertyOp42
 70
     1
102
RTVSPropertyOp43
 70
     1
102
RTVSPropertyOp44
 70
     1
102
RTVSPropertyOp45
 70
     1
102
RTVSPropertyOp46
 70
     1
102
RTVSPropertyOp47
 70
     1
102
RTVSPropertyOp48
 70
     1
102
RTVSPropertyOp49
 70
     1
102
RTVSPropertyOp50
 70
     1
102
RTVSPropertyOp51
 70
     0
102
RTVSPropertyOp52
 70
     0
102
RTVSPropertyOp53
 70
     1
102
RTVSPropertyOp54
 70
     1
102
RTVSPropertyOp55
 70
     1
102
RTVSPropertyOp56
 70
     1
102
RTVSPropertyOp57
 70
     1
102
RTVSPropertyOp58
 70
     1
102
RTVSPropertyOp59
 70
     1
102
RTVSPropertyOp60
 70
     1
102
RTVSPropertyOp61
 70
     1
102
RTVSPropertyOp62
 70
     1
  0
XRECORD
  5
85BE
102
{ACAD_REACTORS
330
85BD
102
}
330
85BD
100
AcDbXrecord
280
     1
102
RTVSPost2010Prop28
280
     0
102
RTVSPost2010PropOp28
 70
     1
102
RTVSPost2010Prop29
280
     1
102
RTVSPost2010PropOp29
 70
     1
102
RTVSPost2010Prop30
280
     1
102
RTVSPost2010PropOp30
 70
     1
102
RTVSPost2010Prop31
280
     0
102
RTVSPost2010PropOp31
 70
     1
102
RTVSPost2010Prop32
280
     0
102
RTVSPost2010PropOp32
 70
     1
102
RTVSPost2010Prop33
280
     0
102
RTVSPost2010PropOp33
 70
     1
102
RTVSPost2010Prop34
280
     0
102
RTVSPost2010PropOp34
 70
     1
102
RTVSPost2010Prop35
280
     0
102
RTVSPost2010PropOp35
 70
     1
102
RTVSPost2010Prop36
280
     0
102
RTVSPost2010PropOp36
 70
     1
102
RTVSPost2010Prop37
 90
       50
102
RTVSPost2010PropOp37
 70
     1
102
RTVSPost2010Prop38
140
0.0
102
RTVSPost2010PropOp38
 70
     1
102
RTVSPost2010Prop39
140
1.0
102
RTVSPost2010PropOp39
 70
     1
102
RTVSPost2010Prop40
 90
        0
102
RTVSPost2010PropOp40
 70
     1
102
RTVSPost2010Prop41ColorIndex
 90
       18
102
RTVSPost2010Prop41ColorRGB
 90
        0
102
RTVSPost2010PropOp41
 70
     1
102
RTVSPost2010Prop42
 90
       50
102
RTVSPost2010PropOp42
 70
     1
102
RTVSPost2010Prop43
 90
        3
102
RTVSPost2010PropOp43
 70
     1
102
RTVSPost2010Prop44ColorIndex
 90
        5
102
RTVSPost2010Prop44ColorRGB
 90
      255
102
RTVSPost2010PropOp44
 70
     1
102
RTVSPost2010Prop45
280
     0
102
RTVSPost2010PropOp45
 70
     1
102
RTVSPost2010Prop46
 90
       50
102
RTVSPost2010PropOp46
 70
     1
102
RTVSPost2010Prop47
 90
       50
102
RTVSPost2010PropOp47
 70
     1
102
RTVSPost2010Prop48
 90
       50
102
RTVSPost2010PropOp48
 70
     1
102
RTVSPost2010Prop49
280
     0
102
RTVSPost2010PropOp49
 70
     1
102
RTVSPost2010Prop50
 90
       50
102
RTVSPost2010PropOp50
 70
     1
102
RTVSPost2010Prop51ColorIndex
 90
      256
102
RTVSPost2010Prop51ColorRGB
 90
-16777216
102
RTVSPost2010PropOp51
 70
     0
102
RTVSPost2010Prop52
140
1.0
102
RTVSPost2010PropOp52
 70
     0
102
RTVSPost2010Prop53
 90
        2
102
RTVSPost2010PropOp53
 70
     1
102
RTVSPost2010Prop54
  1
strokes_ogs.tif
102
RTVSPost2010PropOp54
 70
     1
102
RTVSPost2010Prop55
280
     0
102
RTVSPost2010PropOp55
 70
     1
102
RTVSPost2010Prop56
140
1.0
102
RTVSPost2010PropOp56
 70
     1
102
RTVSPost2010Prop57
140
1.0
102
RTVSPost2010PropOp57
 70
     1
102
RTVSPropertyOp0
 70
     1
102
RTVSPropertyOp1
 70
     1
102
RTVSPropertyOp2
 70
     1
102
RTVSPropertyOp3
 70
     1
102
RTVSPropertyOp4
 70
     1
102
RTVSPropertyOp5
 70
     1
102
RTVSPropertyOp6
 70
     1
102
RTVSPropertyOp7
 70
     1
102
RTVSPropertyOp8
 70
     1
102
RTVSPropertyOp9
 70
     1
102
RTVSPropertyOp10
 70
     1
102
RTVSPropertyOp11
 70
     1
102
RTVSPropertyOp12
 70
     1
102
RTVSPropertyOp13
 70
     1
102
RTVSPropertyOp14
 70
     1
102
RTVSPropertyOp15
 70
     1
102
RTVSPropertyOp16
 70
     1
102
RTVSPropertyOp17
 70
     1
102
RTVSPropertyOp18
 70
     1
102
RTVSPropertyOp19
 70
     1
102
RTVSPropertyOp20
 70
     1
102
RTVSPropertyOp21
 70
     1
102
RTVSPropertyOp22
 70
     1
102
RTVSPropertyOp23
 70
     1
102
RTVSPropertyOp24
 70
     1
102
RTVSPropertyOp25
 70
     1
102
RTVSPropertyOp26
 70
     1
102
RTVSPropertyOp27
 70
     1
102
RTVSPropertyOp28
 70
     1
102
RTVSPropertyOp29
 70
     1
102
RTVSPropertyOp30
 70
     1
102
RTVSPropertyOp31
 70
     1
102
RTVSPropertyOp32
 70
     1
102
RTVSPropertyOp33
 70
     1
102
RTVSPropertyOp34
 70
     1
102
RTVSPropertyOp35
 70
     1
102
RTVSPropertyOp36
 70
     1
102
RTVSPropertyOp37
 70
     1
102
RTVSPropertyOp38
 70
     1
102
RTVSPropertyOp39
 70
     1
102
RTVSPropertyOp40
 70
     1
102
RTVSPropertyOp41
 70
     1
102
RTVSPropertyOp42
 70
     1
102
RTVSPropertyOp43
 70
     1
102
RTVSPropertyOp44
 70
     1
102
RTVSPropertyOp45
 70
     1
102
RTVSPropertyOp46
 70
     1
102
RTVSPropertyOp47
 70
     1
102
RTVSPropertyOp48
 70
     1
102
RTVSPropertyOp49
 70
     1
102
RTVSPropertyOp50
 70
     1
102
RTVSPropertyOp51
 70
     0
102
RTVSPropertyOp52
 70
     0
102
RTVSPropertyOp53
 70
     1
102
RTVSPropertyOp54
 70
     1
102
RTVSPropertyOp55
 70
     1
102
RTVSPropertyOp56
 70
     1
102
RTVSPropertyOp57
 70
     1
102
RTVSPropertyOp58
 70
     1
102
RTVSPropertyOp59
 70
     1
102
RTVSPropertyOp60
 70
     1
102
RTVSPropertyOp61
 70
     1
102
RTVSPropertyOp62
 70
     1
  0
XRECORD
  5
85C0
102
{ACAD_REACTORS
330
85BF
102
}
330
85BF
100
AcDbXrecord
280
     1
102
RTVSPost2010Prop28
280
     0
102
RTVSPost2010PropOp28
 70
     1
102
RTVSPost2010Prop29
280
     1
102
RTVSPost2010PropOp29
 70
     1
102
RTVSPost2010Prop30
280
     1
102
RTVSPost2010PropOp30
 70
     1
102
RTVSPost2010Prop31
280
     0
102
RTVSPost2010PropOp31
 70
     1
102
RTVSPost2010Prop32
280
     0
102
RTVSPost2010PropOp32
 70
     1
102
RTVSPost2010Prop33
280
     0
102
RTVSPost2010PropOp33
 70
     1
102
RTVSPost2010Prop34
280
     0
102
RTVSPost2010PropOp34
 70
     1
102
RTVSPost2010Prop35
280
     0
102
RTVSPost2010PropOp35
 70
     1
102
RTVSPost2010Prop36
280
     0
102
RTVSPost2010PropOp36
 70
     1
102
RTVSPost2010Prop37
 90
       50
102
RTVSPost2010PropOp37
 70
     1
102
RTVSPost2010Prop38
140
0.0
102
RTVSPost2010PropOp38
 70
     1
102
RTVSPost2010Prop39
140
1.0
102
RTVSPost2010PropOp39
 70
     1
102
RTVSPost2010Prop40
 90
        0
102
RTVSPost2010PropOp40
 70
     1
102
RTVSPost2010Prop41ColorIndex
 90
       18
102
RTVSPost2010Prop41ColorRGB
 90
        0
102
RTVSPost2010PropOp41
 70
     1
102
RTVSPost2010Prop42
 90
       50
102
RTVSPost2010PropOp42
 70
     1
102
RTVSPost2010Prop43
 90
        3
102
RTVSPost2010PropOp43
 70
     1
102
RTVSPost2010Prop44ColorIndex
 90
        5
102
RTVSPost2010Prop44ColorRGB
 90
      255
102
RTVSPost2010PropOp44
 70
     1
102
RTVSPost2010Prop45
280
     0
102
RTVSPost2010PropOp45
 70
     1
102
RTVSPost2010Prop46
 90
       50
102
RTVSPost2010PropOp46
 70
     1
102
RTVSPost2010Prop47
 90
       50
102
RTVSPost2010PropOp47
 70
     1
102
RTVSPost2010Prop48
 90
       50
102
RTVSPost2010PropOp48
 70
     1
102
RTVSPost2010Prop49
280
     0
102
RTVSPost2010PropOp49
 70
     1
102
RTVSPost2010Prop50
 90
       50
102
RTVSPost2010PropOp50
 70
     1
102
RTVSPost2010Prop51ColorIndex
 90
      256
102
RTVSPost2010Prop51ColorRGB
 90
-16777216
102
RTVSPost2010PropOp51
 70
     0
102
RTVSPost2010Prop52
140
1.0
102
RTVSPost2010PropOp52
 70
     0
102
RTVSPost2010Prop53
 90
        2
102
RTVSPost2010PropOp53
 70
     1
102
RTVSPost2010Prop54
  1
strokes_ogs.tif
102
RTVSPost2010PropOp54
 70
     1
102
RTVSPost2010Prop55
280
     0
102
RTVSPost2010PropOp55
 70
     1
102
RTVSPost2010Prop56
140
1.0
102
RTVSPost2010PropOp56
 70
     1
102
RTVSPost2010Prop57
140
1.0
102
RTVSPost2010PropOp57
 70
     1
102
RTVSPropertyOp0
 70
     1
102
RTVSPropertyOp1
 70
     1
102
RTVSPropertyOp2
 70
     1
102
RTVSPropertyOp3
 70
     1
102
RTVSPropertyOp4
 70
     1
102
RTVSPropertyOp5
 70
     1
102
RTVSPropertyOp6
 70
     1
102
RTVSPropertyOp7
 70
     1
102
RTVSPropertyOp8
 70
     1
102
RTVSPropertyOp9
 70
     1
102
RTVSPropertyOp10
 70
     1
102
RTVSPropertyOp11
 70
     1
102
RTVSPropertyOp12
 70
     1
102
RTVSPropertyOp13
 70
     1
102
RTVSPropertyOp14
 70
     1
102
RTVSPropertyOp15
 70
     1
102
RTVSPropertyOp16
 70
     1
102
RTVSPropertyOp17
 70
     1
102
RTVSPropertyOp18
 70
     1
102
RTVSPropertyOp19
 70
     1
102
RTVSPropertyOp20
 70
     1
102
RTVSPropertyOp21
 70
     1
102
RTVSPropertyOp22
 70
     1
102
RTVSPropertyOp23
 70
     1
102
RTVSPropertyOp24
 70
     1
102
RTVSPropertyOp25
 70
     1
102
RTVSPropertyOp26
 70
     1
102
RTVSPropertyOp27
 70
     1
102
RTVSPropertyOp28
 70
     1
102
RTVSPropertyOp29
 70
     1
102
RTVSPropertyOp30
 70
     1
102
RTVSPropertyOp31
 70
     1
102
RTVSPropertyOp32
 70
     1
102
RTVSPropertyOp33
 70
     1
102
RTVSPropertyOp34
 70
     1
102
RTVSPropertyOp35
 70
     1
102
RTVSPropertyOp36
 70
     1
102
RTVSPropertyOp37
 70
     1
102
RTVSPropertyOp38
 70
     1
102
RTVSPropertyOp39
 70
     1
102
RTVSPropertyOp40
 70
     1
102
RTVSPropertyOp41
 70
     1
102
RTVSPropertyOp42
 70
     1
102
RTVSPropertyOp43
 70
     1
102
RTVSPropertyOp44
 70
     1
102
RTVSPropertyOp45
 70
     1
102
RTVSPropertyOp46
 70
     1
102
RTVSPropertyOp47
 70
     1
102
RTVSPropertyOp48
 70
     1
102
RTVSPropertyOp49
 70
     1
102
RTVSPropertyOp50
 70
     1
102
RTVSPropertyOp51
 70
     0
102
RTVSPropertyOp52
 70
     0
102
RTVSPropertyOp53
 70
     1
102
RTVSPropertyOp54
 70
     1
102
RTVSPropertyOp55
 70
     1
102
RTVSPropertyOp56
 70
     1
102
RTVSPropertyOp57
 70
     1
102
RTVSPropertyOp58
 70
     1
102
RTVSPropertyOp59
 70
     1
102
RTVSPropertyOp60
 70
     1
102
RTVSPropertyOp61
 70
     1
102
RTVSPropertyOp62
 70
     1
  0
XRECORD
  5
85B6
102
{ACAD_REACTORS
330
85B5
102
}
330
85B5
100
AcDbXrecord
280
     1
102
RTVSPost2010Prop28
280
     0
102
RTVSPost2010PropOp28
 70
     1
102
RTVSPost2010Prop29
280
     1
102
RTVSPost2010PropOp29
 70
     1
102
RTVSPost2010Prop30
280
     1
102
RTVSPost2010PropOp30
 70
     1
102
RTVSPost2010Prop31
280
     0
102
RTVSPost2010PropOp31
 70
     1
102
RTVSPost2010Prop32
280
     0
102
RTVSPost2010PropOp32
 70
     1
102
RTVSPost2010Prop33
280
     0
102
RTVSPost2010PropOp33
 70
     1
102
RTVSPost2010Prop34
280
     0
102
RTVSPost2010PropOp34
 70
     1
102
RTVSPost2010Prop35
280
     0
102
RTVSPost2010PropOp35
 70
     1
102
RTVSPost2010Prop36
280
     0
102
RTVSPost2010PropOp36
 70
     1
102
RTVSPost2010Prop37
 90
       50
102
RTVSPost2010PropOp37
 70
     1
102
RTVSPost2010Prop38
140
0.0
102
RTVSPost2010PropOp38
 70
     1
102
RTVSPost2010Prop39
140
1.0
102
RTVSPost2010PropOp39
 70
     1
102
RTVSPost2010Prop40
 90
        0
102
RTVSPost2010PropOp40
 70
     1
102
RTVSPost2010Prop41ColorIndex
 90
       18
102
RTVSPost2010Prop41ColorRGB
 90
        0
102
RTVSPost2010PropOp41
 70
     1
102
RTVSPost2010Prop42
 90
       50
102
RTVSPost2010PropOp42
 70
     1
102
RTVSPost2010Prop43
 90
        3
102
RTVSPost2010PropOp43
 70
     1
102
RTVSPost2010Prop44ColorIndex
 90
        5
102
RTVSPost2010Prop44ColorRGB
 90
      255
102
RTVSPost2010PropOp44
 70
     1
102
RTVSPost2010Prop45
280
     0
102
RTVSPost2010PropOp45
 70
     1
102
RTVSPost2010Prop46
 90
       50
102
RTVSPost2010PropOp46
 70
     1
102
RTVSPost2010Prop47
 90
       50
102
RTVSPost2010PropOp47
 70
     1
102
RTVSPost2010Prop48
 90
       50
102
RTVSPost2010PropOp48
 70
     1
102
RTVSPost2010Prop49
280
     0
102
RTVSPost2010PropOp49
 70
     1
102
RTVSPost2010Prop50
 90
       50
102
RTVSPost2010PropOp50
 70
     1
102
RTVSPost2010Prop51ColorIndex
 90
      256
102
RTVSPost2010Prop51ColorRGB
 90
-16777216
102
RTVSPost2010PropOp51
 70
     0
102
RTVSPost2010Prop52
140
1.0
102
RTVSPost2010PropOp52
 70
     0
102
RTVSPost2010Prop53
 90
        2
102
RTVSPost2010PropOp53
 70
     1
102
RTVSPost2010Prop54
  1
strokes_ogs.tif
102
RTVSPost2010PropOp54
 70
     1
102
RTVSPost2010Prop55
280
     0
102
RTVSPost2010PropOp55
 70
     1
102
RTVSPost2010Prop56
140
1.0
102
RTVSPost2010PropOp56
 70
     1
102
RTVSPost2010Prop57
140
1.0
102
RTVSPost2010PropOp57
 70
     1
102
RTVSPropertyOp0
 70
     1
102
RTVSPropertyOp1
 70
     1
102
RTVSPropertyOp2
 70
     1
102
RTVSPropertyOp3
 70
     1
102
RTVSPropertyOp4
 70
     1
102
RTVSPropertyOp5
 70
     1
102
RTVSPropertyOp6
 70
     1
102
RTVSPropertyOp7
 70
     1
102
RTVSPropertyOp8
 70
     1
102
RTVSPropertyOp9
 70
     1
102
RTVSPropertyOp10
 70
     1
102
RTVSPropertyOp11
 70
     1
102
RTVSPropertyOp12
 70
     1
102
RTVSPropertyOp13
 70
     1
102
RTVSPropertyOp14
 70
     1
102
RTVSPropertyOp15
 70
     1
102
RTVSPropertyOp16
 70
     1
102
RTVSPropertyOp17
 70
     1
102
RTVSPropertyOp18
 70
     1
102
RTVSPropertyOp19
 70
     1
102
RTVSPropertyOp20
 70
     1
102
RTVSPropertyOp21
 70
     1
102
RTVSPropertyOp22
 70
     1
102
RTVSPropertyOp23
 70
     1
102
RTVSPropertyOp24
 70
     1
102
RTVSPropertyOp25
 70
     1
102
RTVSPropertyOp26
 70
     1
102
RTVSPropertyOp27
 70
     1
102
RTVSPropertyOp28
 70
     1
102
RTVSPropertyOp29
 70
     1
102
RTVSPropertyOp30
 70
     1
102
RTVSPropertyOp31
 70
     1
102
RTVSPropertyOp32
 70
     1
102
RTVSPropertyOp33
 70
     1
102
RTVSPropertyOp34
 70
     1
102
RTVSPropertyOp35
 70
     1
102
RTVSPropertyOp36
 70
     1
102
RTVSPropertyOp37
 70
     1
102
RTVSPropertyOp38
 70
     1
102
RTVSPropertyOp39
 70
     1
102
RTVSPropertyOp40
 70
     1
102
RTVSPropertyOp41
 70
     1
102
RTVSPropertyOp42
 70
     1
102
RTVSPropertyOp43
 70
     1
102
RTVSPropertyOp44
 70
     1
102
RTVSPropertyOp45
 70
     1
102
RTVSPropertyOp46
 70
     1
102
RTVSPropertyOp47
 70
     1
102
RTVSPropertyOp48
 70
     1
102
RTVSPropertyOp49
 70
     1
102
RTVSPropertyOp50
 70
     1
102
RTVSPropertyOp51
 70
     0
102
RTVSPropertyOp52
 70
     0
102
RTVSPropertyOp53
 70
     1
102
RTVSPropertyOp54
 70
     1
102
RTVSPropertyOp55
 70
     1
102
RTVSPropertyOp56
 70
     1
102
RTVSPropertyOp57
 70
     1
102
RTVSPropertyOp58
 70
     1
102
RTVSPropertyOp59
 70
     1
102
RTVSPropertyOp60
 70
     1
102
RTVSPropertyOp61
 70
     1
102
RTVSPropertyOp62
 70
     1
  0
XRECORD
  5
85AA
102
{ACAD_REACTORS
330
85A9
102
}
330
85A9
100
AcDbXrecord
280
     1
102
RTVSPost2010Prop28
280
     0
102
RTVSPost2010PropOp28
 70
     1
102
RTVSPost2010Prop29
280
     1
102
RTVSPost2010PropOp29
 70
     1
102
RTVSPost2010Prop30
280
     1
102
RTVSPost2010PropOp30
 70
     1
102
RTVSPost2010Prop31
280
     0
102
RTVSPost2010PropOp31
 70
     1
102
RTVSPost2010Prop32
280
     0
102
RTVSPost2010PropOp32
 70
     1
102
RTVSPost2010Prop33
280
     0
102
RTVSPost2010PropOp33
 70
     1
102
RTVSPost2010Prop34
280
     0
102
RTVSPost2010PropOp34
 70
     1
102
RTVSPost2010Prop35
280
     0
102
RTVSPost2010PropOp35
 70
     1
102
RTVSPost2010Prop36
280
     0
102
RTVSPost2010PropOp36
 70
     1
102
RTVSPost2010Prop37
 90
       50
102
RTVSPost2010PropOp37
 70
     1
102
RTVSPost2010Prop38
140
0.0
102
RTVSPost2010PropOp38
 70
     1
102
RTVSPost2010Prop39
140
1.0
102
RTVSPost2010PropOp39
 70
     1
102
RTVSPost2010Prop40
 90
        0
102
RTVSPost2010PropOp40
 70
     1
102
RTVSPost2010Prop41ColorIndex
 90
       18
102
RTVSPost2010Prop41ColorRGB
 90
        0
102
RTVSPost2010PropOp41
 70
     1
102
RTVSPost2010Prop42
 90
       50
102
RTVSPost2010PropOp42
 70
     1
102
RTVSPost2010Prop43
 90
        3
102
RTVSPost2010PropOp43
 70
     1
102
RTVSPost2010Prop44ColorIndex
 90
        5
102
RTVSPost2010Prop44ColorRGB
 90
      255
102
RTVSPost2010PropOp44
 70
     1
102
RTVSPost2010Prop45
280
     0
102
RTVSPost2010PropOp45
 70
     1
102
RTVSPost2010Prop46
 90
       50
102
RTVSPost2010PropOp46
 70
     1
102
RTVSPost2010Prop47
 90
       50
102
RTVSPost2010PropOp47
 70
     1
102
RTVSPost2010Prop48
 90
       50
102
RTVSPost2010PropOp48
 70
     1
102
RTVSPost2010Prop49
280
     0
102
RTVSPost2010PropOp49
 70
     1
102
RTVSPost2010Prop50
 90
       50
102
RTVSPost2010PropOp50
 70
     1
102
RTVSPost2010Prop51ColorIndex
 90
      256
102
RTVSPost2010Prop51ColorRGB
 90
-16777216
102
RTVSPost2010PropOp51
 70
     0
102
RTVSPost2010Prop52
140
1.0
102
RTVSPost2010PropOp52
 70
     0
102
RTVSPost2010Prop53
 90
        2
102
RTVSPost2010PropOp53
 70
     1
102
RTVSPost2010Prop54
  1
strokes_ogs.tif
102
RTVSPost2010PropOp54
 70
     1
102
RTVSPost2010Prop55
280
     0
102
RTVSPost2010PropOp55
 70
     1
102
RTVSPost2010Prop56
140
1.0
102
RTVSPost2010PropOp56
 70
     1
102
RTVSPost2010Prop57
140
1.0
102
RTVSPost2010PropOp57
 70
     1
102
RTVSPropertyOp0
 70
     1
102
RTVSPropertyOp1
 70
     1
102
RTVSPropertyOp2
 70
     1
102
RTVSPropertyOp3
 70
     1
102
RTVSPropertyOp4
 70
     1
102
RTVSPropertyOp5
 70
     1
102
RTVSPropertyOp6
 70
     1
102
RTVSPropertyOp7
 70
     1
102
RTVSPropertyOp8
 70
     1
102
RTVSPropertyOp9
 70
     1
102
RTVSPropertyOp10
 70
     1
102
RTVSPropertyOp11
 70
     1
102
RTVSPropertyOp12
 70
     1
102
RTVSPropertyOp13
 70
     1
102
RTVSPropertyOp14
 70
     1
102
RTVSPropertyOp15
 70
     1
102
RTVSPropertyOp16
 70
     1
102
RTVSPropertyOp17
 70
     1
102
RTVSPropertyOp18
 70
     1
102
RTVSPropertyOp19
 70
     1
102
RTVSPropertyOp20
 70
     1
102
RTVSPropertyOp21
 70
     1
102
RTVSPropertyOp22
 70
     1
102
RTVSPropertyOp23
 70
     1
102
RTVSPropertyOp24
 70
     1
102
RTVSPropertyOp25
 70
     1
102
RTVSPropertyOp26
 70
     1
102
RTVSPropertyOp27
 70
     1
102
RTVSPropertyOp28
 70
     1
102
RTVSPropertyOp29
 70
     1
102
RTVSPropertyOp30
 70
     1
102
RTVSPropertyOp31
 70
     1
102
RTVSPropertyOp32
 70
     1
102
RTVSPropertyOp33
 70
     1
102
RTVSPropertyOp34
 70
     1
102
RTVSPropertyOp35
 70
     1
102
RTVSPropertyOp36
 70
     1
102
RTVSPropertyOp37
 70
     1
102
RTVSPropertyOp38
 70
     1
102
RTVSPropertyOp39
 70
     1
102
RTVSPropertyOp40
 70
     1
102
RTVSPropertyOp41
 70
     1
102
RTVSPropertyOp42
 70
     1
102
RTVSPropertyOp43
 70
     1
102
RTVSPropertyOp44
 70
     1
102
RTVSPropertyOp45
 70
     1
102
RTVSPropertyOp46
 70
     1
102
RTVSPropertyOp47
 70
     1
102
RTVSPropertyOp48
 70
     1
102
RTVSPropertyOp49
 70
     1
102
RTVSPropertyOp50
 70
     1
102
RTVSPropertyOp51
 70
     0
102
RTVSPropertyOp52
 70
     0
102
RTVSPropertyOp53
 70
     1
102
RTVSPropertyOp54
 70
     1
102
RTVSPropertyOp55
 70
     1
102
RTVSPropertyOp56
 70
     1
102
RTVSPropertyOp57
 70
     1
102
RTVSPropertyOp58
 70
     1
102
RTVSPropertyOp59
 70
     1
102
RTVSPropertyOp60
 70
     1
102
RTVSPropertyOp61
 70
     1
102
RTVSPropertyOp62
 70
     1
  0
XRECORD
  5
85C2
102
{ACAD_REACTORS
330
85C1
102
}
330
85C1
100
AcDbXrecord
280
     1
102
RTVSPost2010Prop28
280
     0
102
RTVSPost2010PropOp28
 70
     1
102
RTVSPost2010Prop29
280
     1
102
RTVSPost2010PropOp29
 70
     1
102
RTVSPost2010Prop30
280
     1
102
RTVSPost2010PropOp30
 70
     1
102
RTVSPost2010Prop31
280
     0
102
RTVSPost2010PropOp31
 70
     1
102
RTVSPost2010Prop32
280
     0
102
RTVSPost2010PropOp32
 70
     1
102
RTVSPost2010Prop33
280
     0
102
RTVSPost2010PropOp33
 70
     1
102
RTVSPost2010Prop34
280
     0
102
RTVSPost2010PropOp34
 70
     1
102
RTVSPost2010Prop35
280
     0
102
RTVSPost2010PropOp35
 70
     1
102
RTVSPost2010Prop36
280
     0
102
RTVSPost2010PropOp36
 70
     1
102
RTVSPost2010Prop37
 90
       50
102
RTVSPost2010PropOp37
 70
     1
102
RTVSPost2010Prop38
140
0.0
102
RTVSPost2010PropOp38
 70
     1
102
RTVSPost2010Prop39
140
1.0
102
RTVSPost2010PropOp39
 70
     1
102
RTVSPost2010Prop40
 90
        0
102
RTVSPost2010PropOp40
 70
     1
102
RTVSPost2010Prop41ColorIndex
 90
       18
102
RTVSPost2010Prop41ColorRGB
 90
        0
102
RTVSPost2010PropOp41
 70
     1
102
RTVSPost2010Prop42
 90
       50
102
RTVSPost2010PropOp42
 70
     1
102
RTVSPost2010Prop43
 90
        3
102
RTVSPost2010PropOp43
 70
     1
102
RTVSPost2010Prop44ColorIndex
 90
        5
102
RTVSPost2010Prop44ColorRGB
 90
      255
102
RTVSPost2010PropOp44
 70
     1
102
RTVSPost2010Prop45
280
     0
102
RTVSPost2010PropOp45
 70
     1
102
RTVSPost2010Prop46
 90
       50
102
RTVSPost2010PropOp46
 70
     1
102
RTVSPost2010Prop47
 90
       50
102
RTVSPost2010PropOp47
 70
     1
102
RTVSPost2010Prop48
 90
       50
102
RTVSPost2010PropOp48
 70
     1
102
RTVSPost2010Prop49
280
     0
102
RTVSPost2010PropOp49
 70
     1
102
RTVSPost2010Prop50
 90
       50
102
RTVSPost2010PropOp50
 70
     1
102
RTVSPost2010Prop51ColorIndex
 90
      256
102
RTVSPost2010Prop51ColorRGB
 90
-16777216
102
RTVSPost2010PropOp51
 70
     0
102
RTVSPost2010Prop52
140
1.0
102
RTVSPost2010PropOp52
 70
     0
102
RTVSPost2010Prop53
 90
        2
102
RTVSPost2010PropOp53
 70
     1
102
RTVSPost2010Prop54
  1
strokes_ogs.tif
102
RTVSPost2010PropOp54
 70
     1
102
RTVSPost2010Prop55
280
     0
102
RTVSPost2010PropOp55
 70
     1
102
RTVSPost2010Prop56
140
1.0
102
RTVSPost2010PropOp56
 70
     1
102
RTVSPost2010Prop57
140
1.0
102
RTVSPost2010PropOp57
 70
     1
102
RTVSPropertyOp0
 70
     1
102
RTVSPropertyOp1
 70
     1
102
RTVSPropertyOp2
 70
     1
102
RTVSPropertyOp3
 70
     1
102
RTVSPropertyOp4
 70
     1
102
RTVSPropertyOp5
 70
     1
102
RTVSPropertyOp6
 70
     1
102
RTVSPropertyOp7
 70
     1
102
RTVSPropertyOp8
 70
     1
102
RTVSPropertyOp9
 70
     1
102
RTVSPropertyOp10
 70
     1
102
RTVSPropertyOp11
 70
     1
102
RTVSPropertyOp12
 70
     1
102
RTVSPropertyOp13
 70
     1
102
RTVSPropertyOp14
 70
     1
102
RTVSPropertyOp15
 70
     1
102
RTVSPropertyOp16
 70
     1
102
RTVSPropertyOp17
 70
     1
102
RTVSPropertyOp18
 70
     1
102
RTVSPropertyOp19
 70
     1
102
RTVSPropertyOp20
 70
     1
102
RTVSPropertyOp21
 70
     1
102
RTVSPropertyOp22
 70
     1
102
RTVSPropertyOp23
 70
     1
102
RTVSPropertyOp24
 70
     1
102
RTVSPropertyOp25
 70
     1
102
RTVSPropertyOp26
 70
     1
102
RTVSPropertyOp27
 70
     1
102
RTVSPropertyOp28
 70
     1
102
RTVSPropertyOp29
 70
     1
102
RTVSPropertyOp30
 70
     1
102
RTVSPropertyOp31
 70
     1
102
RTVSPropertyOp32
 70
     1
102
RTVSPropertyOp33
 70
     1
102
RTVSPropertyOp34
 70
     1
102
RTVSPropertyOp35
 70
     1
102
RTVSPropertyOp36
 70
     1
102
RTVSPropertyOp37
 70
     1
102
RTVSPropertyOp38
 70
     1
102
RTVSPropertyOp39
 70
     1
102
RTVSPropertyOp40
 70
     1
102
RTVSPropertyOp41
 70
     1
102
RTVSPropertyOp42
 70
     1
102
RTVSPropertyOp43
 70
     1
102
RTVSPropertyOp44
 70
     1
102
RTVSPropertyOp45
 70
     1
102
RTVSPropertyOp46
 70
     1
102
RTVSPropertyOp47
 70
     1
102
RTVSPropertyOp48
 70
     1
102
RTVSPropertyOp49
 70
     1
102
RTVSPropertyOp50
 70
     1
102
RTVSPropertyOp51
 70
     0
102
RTVSPropertyOp52
 70
     0
102
RTVSPropertyOp53
 70
     1
102
RTVSPropertyOp54
 70
     1
102
RTVSPropertyOp55
 70
     1
102
RTVSPropertyOp56
 70
     1
102
RTVSPropertyOp57
 70
     1
102
RTVSPropertyOp58
 70
     1
102
RTVSPropertyOp59
 70
     1
102
RTVSPropertyOp60
 70
     1
102
RTVSPropertyOp61
 70
     1
102
RTVSPropertyOp62
 70
     1
  0
ENDSEC
  0
EOF
