  0
SECTION
  2
HEADER
  9
$ACADVER
  1
AC1015
  9
$ACADMAINTVER
 70
    20
  9
$DWGCODEPAGE
  3
ANSI_932
  9
$INSBASE
 10
0.0
 20
0.0
 30
0.0
  9
$EXTMIN
 10
-0.1922460740788665
 20
-0.2700599612071528
 30
-0.0015258207003583
  9
$EXTMAX
 10
6300.192275410744
 20
8850.270101172235
 30
0.0000000349246037
  9
$LIMMIN
 10
0.0
 20
0.0
  9
$LIMMAX
 10
297.0
 20
210.0
  9
$ORTHOMODE
 70
     1
  9
$REGENMODE
 70
     1
  9
$FILLMODE
 70
     0
  9
$QTEXTMODE
 70
     0
  9
$MIRRTEXT
 70
     1
  9
$LTSCALE
 40
100.0
  9
$ATTMODE
 70
     1
  9
$TEXTSIZE
 40
180.0
  9
$TRACEWID
 40
0.05
  9
$TEXTSTYLE
  7
STANDARD
  9
$CLAYER
  8
3
  9
$CELTYPE
  6
ByLayer
  9
$CECOLOR
 62
   256
  9
$CELTSCALE
 40
1.0
  9
$DISPSILH
 70
     0
  9
$DIMSCALE
 40
30.0
  9
$DIMASZ
 40
2.0
  9
$DIMEXO
 40
1.0
  9
$DIMDLI
 40
10.0
  9
$DIMRND
 40
0.0
  9
$DIMDLE
 40
0.0
  9
$DIMEXE
 40
1.0
  9
$DIMTP
 40
1.0
  9
$DIMTM
 40
1.0
  9
$DIMTXT
 40
3.0
  9
$DIMCEN
 40
0.0
  9
$DIMTSZ
 40
0.0
  9
$DIMTOL
 70
     0
  9
$DIMLIM
 70
     0
  9
$DIMTIH
 70
     0
  9
$DIMTOH
 70
     0
  9
$DIMSE1
 70
     0
  9
$DIMSE2
 70
     0
  9
$DIMTAD
 70
     1
  9
$DIMZIN
 70
     8
  9
$DIMBLK
  1

  9
$DIMASO
 70
     1
  9
$DIMSHO
 70
     1
  9
$DIMPOST
  1

  9
$DIMAPOST
  1

  9
$DIMALT
 70
     0
  9
$DIMALTD
 70
     2
  9
$DIMALTF
 40
0.039
  9
$DIMLFAC
 40
1.0
  9
$DIMTOFL
 70
     1
  9
$DIMTVP
 40
0.0
  9
$DIMTIX
 70
     0
  9
$DIMSOXD
 70
     0
  9
$DIMSAH
 70
     1
  9
$DIMBLK1
  1
OPEN
  9
$DIMBLK2
  1
OPEN
  9
$DIMSTYLE
  2
IGA
  9
$DIMCLRD
 70
     0
  9
$DIMCLRE
 70
     0
  9
$DIMCLRT
 70
     0
  9
$DIMTFAC
 40
10.0
  9
$DIMGAP
 40
1.0
  9
$DIMJUST
 70
     0
  9
$DIMSD1
 70
     0
  9
$DIMSD2
 70
     0
  9
$DIMTOLJ
 70
     1
  9
$DIMTZIN
 70
     0
  9
$DIMALTZ
 70
     0
  9
$DIMALTTZ
 70
     0
  9
$DIMUPT
 70
     0
  9
$DIMDEC
 70
     4
  9
$DIMTDEC
 70
     4
  9
$DIMALTU
 70
     2
  9
$DIMALTTD
 70
     2
  9
$DIMTXSTY
  7
STANDARD
  9
$DIMAUNIT
 70
     0
  9
$DIMADEC
 70
     0
  9
$DIMALTRND
 40
0.0
  9
$DIMAZIN
 70
     0
  9
$DIMDSEP
 70
    46
  9
$DIMATFIT
 70
     3
  9
$DIMFRAC
 70
     0
  9
$DIMLDRBLK
  1
OPEN
  9
$DIMLUNIT
 70
     2
  9
$DIMLWD
 70
    -2
  9
$DIMLWE
 70
    -2
  9
$DIMTMOVE
 70
     0
  9
$LUNITS
 70
     2
  9
$LUPREC
 70
     3
  9
$SKETCHINC
 40
0.1
  9
$FILLETRAD
 40
50.0
  9
$AUNITS
 70
     0
  9
$AUPREC
 70
     0
  9
$MENU
  1
acad
  9
$ELEVATION
 40
0.0
  9
$PELEVATION
 40
0.0
  9
$THICKNESS
 40
0.0
  9
$LIMCHECK
 70
     0
  9
$CHAMFERA
 40
0.5
  9
$CHAMFERB
 40
0.5
  9
$CHAMFERC
 40
0.0
  9
$CHAMFERD
 40
0.0
  9
$SKPOLY
 70
     0
  9
$TDCREATE
 40
2451389.471649768
  9
$TDUCREATE
 40
2451389.096649768
  9
$TDUPDATE
 40
2460269.565463669
  9
$TDUUPDATE
 40
2460269.190463669
  9
$TDINDWG
 40
0.0234961343
  9
$TDUSRTIMER
 40
0.0234958681
  9
$USRTIMER
 70
     1
  9
$ANGBASE
 50
0.0
  9
$ANGDIR
 70
     0
  9
$PDMODE
 70
     0
  9
$PDSIZE
 40
0.0
  9
$PLINEWID
 40
0.0
  9
$SPLFRAME
 70
     0
  9
$SPLINETYPE
 70
     6
  9
$SPLINESEGS
 70
     8
  9
$HANDSEED
  5
8699
  9
$SURFTAB1
 70
     6
  9
$SURFTAB2
 70
     6
  9
$SURFTYPE
 70
     6
  9
$SURFU
 70
     6
  9
$SURFV
 70
     6
  9
$UCSBASE
  2

  9
$UCSNAME
  2

  9
$UCSORG
 10
0.0
 20
0.0
 30
0.0
  9
$UCSXDIR
 10
1.0
 20
0.0
 30
0.0
  9
$UCSYDIR
 10
0.0
 20
1.0
 30
0.0
  9
$UCSORTHOREF
  2

  9
$UCSORTHOVIEW
 70
     0
  9
$UCSORGTOP
 10
0.0
 20
0.0
 30
0.0
  9
$UCSORGBOTTOM
 10
0.0
 20
0.0
 30
0.0
  9
$UCSORGLEFT
 10
0.0
 20
0.0
 30
0.0
  9
$UCSORGRIGHT
 10
0.0
 20
0.0
 30
0.0
  9
$UCSORGFRONT
 10
0.0
 20
0.0
 30
0.0
  9
$UCSORGBACK
 10
0.0
 20
0.0
 30
0.0
  9
$PUCSBASE
  2

  9
$PUCSNAME
  2

  9
$PUCSORG
 10
0.0
 20
0.0
 30
0.0
  9
$PUCSXDIR
 10
1.0
 20
0.0
 30
0.0
  9
$PUCSYDIR
 10
0.0
 20
1.0
 30
0.0
  9
$PUCSORTHOREF
  2

  9
$PUCSORTHOVIEW
 70
     0
  9
$PUCSORGTOP
 10
0.0
 20
0.0
 30
0.0
  9
$PUCSORGBOTTOM
 10
0.0
 20
0.0
 30
0.0
  9
$PUCSORGLEFT
 10
0.0
 20
0.0
 30
0.0
  9
$PUCSORGRIGHT
 10
0.0
 20
0.0
 30
0.0
  9
$PUCSORGFRONT
 10
0.0
 20
0.0
 30
0.0
  9
$PUCSORGBACK
 10
0.0
 20
0.0
 30
0.0
  9
$USERI1
 70
     0
  9
$USERI2
 70
     0
  9
$USERI3
 70
     0
  9
$USERI4
 70
     0
  9
$USERI5
 70
     0
  9
$USERR1
 40
0.0
  9
$USERR2
 40
0.0
  9
$USERR3
 40
0.0
  9
$USERR4
 40
0.0
  9
$USERR5
 40
0.0
  9
$WORLDVIEW
 70
     1
  9
$SHADEDGE
 70
     3
  9
$SHADEDIF
 70
    70
  9
$TILEMODE
 70
     1
  9
$MAXACTVP
 70
    16
  9
$PINSBASE
 10
0.0
 20
0.0
 30
0.0
  9
$PLIMCHECK
 70
     0
  9
$PEXTMIN
 10
1.000000000000000E+20
 20
1.000000000000000E+20
 30
1.000000000000000E+20
  9
$PEXTMAX
 10
-1.000000000000000E+20
 20
-1.000000000000000E+20
 30
-1.000000000000000E+20
  9
$PLIMMIN
 10
0.0
 20
0.0
  9
$PLIMMAX
 10
12.0
 20
9.0
  9
$UNITMODE
 70
     0
  9
$VISRETAIN
 70
     0
  9
$PLINEGEN
 70
     0
  9
$PSLTSCALE
 70
     1
  9
$TREEDEPTH
 70
  3020
  9
$CMLSTYLE
  2
Standard
  9
$CMLJUST
 70
     0
  9
$CMLSCALE
 40
1.0
  9
$PROXYGRAPHICS
 70
     1
  9
$MEASUREMENT
 70
     0
  9
$CELWEIGHT
370
    -1
  9
$ENDCAPS
280
     0
  9
$JOINSTYLE
280
     0
  9
$LWDISPLAY
290
     0
  9
$INSUNITS
 70
     0
  9
$HYPERLINKBASE
  1

  9
$STYLESHEET
  1

  9
$XEDIT
290
     1
  9
$CEPSNTYPE
380
     0
  9
$PSTYLEMODE
290
     1
  9
$FINGERPRINTGUID
  2
{CFDE83BE-3475-4AF8-B076-32B11C671725}
  9
$VERSIONGUID
  2
{07C0BD05-6808-4F12-A11A-16034D3C1F51}
  9
$EXTNAMES
290
     1
  9
$PSVPSCALE
 40
0.0
  9
$OLESTARTUP
290
     0
  0
ENDSEC
  0
SECTION
  2
CLASSES
  0
CLASS
  1
ACDBDICTIONARYWDFLT
  2
AcDbDictionaryWithDefault
  3
ObjectDBX Classes
 90
        0
280
     0
281
     0
  0
CLASS
  1
MATERIAL
  2
AcDbMaterial
  3
ObjectDBX Classes
 90
     1153
280
     0
281
     0
  0
CLASS
  1
VISUALSTYLE
  2
AcDbVisualStyle
  3
ObjectDBX Classes
 90
     4095
280
     0
281
     0
  0
CLASS
  1
SCALE
  2
AcDbScale
  3
ObjectDBX Classes
 90
     1153
280
     0
281
     0
  0
CLASS
  1
TABLESTYLE
  2
AcDbTableStyle
  3
ObjectDBX Classes
 90
     4095
280
     0
281
     0
  0
CLASS
  1
MLEADERSTYLE
  2
AcDbMLeaderStyle
  3
ACDB_MLEADERSTYLE_CLASS
 90
     4095
280
     0
281
     0
  0
CLASS
  1
ACDBSECTIONVIEWSTYLE
  2
AcDbSectionViewStyle
  3
ObjectDBX Classes
 90
     1025
280
     0
281
     0
  0
CLASS
  1
ACDBDETAILVIEWSTYLE
  2
AcDbDetailViewStyle
  3
ObjectDBX Classes
 90
     1025
280
     0
281
     0
  0
CLASS
  1
SORTENTSTABLE
  2
AcDbSortentsTable
  3
ObjectDBX Classes
 90
        0
280
     0
281
     0
  0
CLASS
  1
DICTIONARYVAR
  2
AcDbDictionaryVar
  3
ObjectDBX Classes
 90
        0
280
     0
281
     0
  0
CLASS
  1
CELLSTYLEMAP
  2
AcDbCellStyleMap
  3
ObjectDBX Classes
 90
     1152
280
     0
281
     0
  0
CLASS
  1
ACDBPLACEHOLDER
  2
AcDbPlaceHolder
  3
ObjectDBX Classes
 90
        0
280
     0
281
     0
  0
CLASS
  1
LAYOUT
  2
AcDbLayout
  3
ObjectDBX Classes
 90
        0
280
     0
281
     0
  0
ENDSEC
  0
SECTION
  2
TABLES
  0
TABLE
  2
VPORT
  5
845E
330
0
100
AcDbSymbolTable
 70
     1
  0
VPORT
  5
84CA
330
845E
100
AcDbSymbolTableRecord
100
AcDbViewportTableRecord
  2
*ACTIVE
 70
     0
 10
0.0
 20
0.0
 11
1.0
 21
1.0
 12
3150.000014668333
 22
4425.000020605514
 13
0.0
 23
0.0
 14
10.0
 24
10.0
 15
10.0
 25
10.0
 16
0.0
 26
0.0
 36
1.0
 17
0.0
 27
0.0
 37
0.0
 40
8907.213844128961
 41
2.050213675213675
 42
50.0
 43
0.0
 44
0.0
 50
0.0
 51
0.0
 71
     0
 72
   100
 73
     1
 74
     0
 75
     0
 76
     0
 77
     0
 78
     0
281
     0
 65
     1
110
0.0
120
0.0
130
0.0
111
1.0
121
0.0
131
0.0
112
0.0
122
1.0
132
0.0
 79
     0
146
0.0
1001
ACAD_NAV_VCDISPLAY
1070
     3
  0
ENDTAB
  0
TABLE
  2
LTYPE
  5
845B
330
0
100
AcDbSymbolTable
 70
     3
  0
LTYPE
  5
84B0
330
845B
100
AcDbSymbolTableRecord
100
AcDbLinetypeTableRecord
  2
ByBlock
 70
     0
  3

 72
    65
 73
     0
 40
0.0
  0
LTYPE
  5
84B1
330
845B
100
AcDbSymbolTableRecord
100
AcDbLinetypeTableRecord
  2
ByLayer
 70
     0
  3

 72
    65
 73
     0
 40
0.0
  0
LTYPE
  5
84B2
330
845B
100
AcDbSymbolTableRecord
100
AcDbLinetypeTableRecord
  2
CONTINUOUS
 70
     0
  3
Solid line
 72
    65
 73
     0
 40
0.0
  0
LTYPE
  5
84CB
330
845B
100
AcDbSymbolTableRecord
100
AcDbLinetypeTableRecord
  2
CENTER
 70
     0
  3
____ _ ____ _ ____ _ ____ _ ____ _ ____ _ ____ 
 72
    65
 73
     4
 40
2.0
 49
1.25
 74
     0
 49
-0.25
 74
     0
 49
0.25
 74
     0
 49
-0.25
 74
     0
  0
ENDTAB
  0
TABLE
  2
LAYER
  5
8458
330
0
100
AcDbSymbolTable
 70
     6
  0
LAYER
  5
84AA
102
{ACAD_XDICTIONARY
360
8643
102
}
330
8458
100
AcDbSymbolTableRecord
100
AcDbLayerTableRecord
  2
0
 70
     0
 62
     7
  6
CONTINUOUS
370
    -3
390
8465
  0
LAYER
  5
84C9
102
{ACAD_XDICTIONARY
360
8645
102
}
330
8458
100
AcDbSymbolTableRecord
100
AcDbLayerTableRecord
  2
3
 70
     0
 62
     2
  6
CONTINUOUS
370
    -3
390
8465
  0
LAYER
  5
84CC
102
{ACAD_XDICTIONARY
360
8647
102
}
330
8458
100
AcDbSymbolTableRecord
100
AcDbLayerTableRecord
  2
2
 70
     0
 62
     3
  6
CENTER
370
    -3
390
8465
  0
LAYER
  5
84CD
102
{ACAD_XDICTIONARY
360
8649
102
}
330
8458
100
AcDbSymbolTableRecord
100
AcDbLayerTableRecord
  2
1
 70
     0
 62
     4
  6
CONTINUOUS
370
    -3
390
8465
  0
LAYER
  5
84CE
102
{ACAD_XDICTIONARY
360
864B
102
}
330
8458
100
AcDbSymbolTableRecord
100
AcDbLayerTableRecord
  2
4
 70
     0
 62
     7
  6
CONTINUOUS
370
    -3
390
8465
  0
LAYER
  5
84CF
330
8458
100
AcDbSymbolTableRecord
100
AcDbLayerTableRecord
  2
DEFPOINTS
 70
     0
 62
     7
  6
CONTINUOUS
290
     0
370
    -3
390
8465
  0
ENDTAB
  0
TABLE
  2
STYLE
  5
8459
330
0
100
AcDbSymbolTable
 70
     2
  0
STYLE
  5
84AB
330
8459
100
AcDbSymbolTableRecord
100
AcDbTextStyleTableRecord
  2
STANDARD
 70
     0
 40
0.0
 41
1.0
 50
0.0
 71
     0
 42
180.0
  3
simplex.shx
  4
extfont.shx
  0
STYLE
  5
84AF
330
8459
100
AcDbSymbolTableRecord
100
AcDbTextStyleTableRecord
  2
Annotative
 70
     0
 40
0.0
 41
1.0
 50
0.0
 71
     0
 42
0.2
  3
txt
  4

1001
AcadAnnotative
1000
AnnotativeData
1002
{
1070
     1
1070
     1
1002
}
  0
ENDTAB
  0
TABLE
  2
VIEW
  5
845C
330
0
100
AcDbSymbolTable
 70
     0
  0
ENDTAB
  0
TABLE
  2
UCS
  5
845D
330
0
100
AcDbSymbolTable
 70
     0
  0
ENDTAB
  0
TABLE
  2
APPID
  5
845F
330
0
100
AcDbSymbolTable
 70
     6
  0
APPID
  5
84AC
330
845F
100
AcDbSymbolTableRecord
100
AcDbRegAppTableRecord
  2
ACAD
 70
     0
  0
APPID
  5
84B3
330
845F
100
AcDbSymbolTableRecord
100
AcDbRegAppTableRecord
  2
AcadAnnotative
 70
     0
  0
APPID
  5
8541
330
845F
100
AcDbSymbolTableRecord
100
AcDbRegAppTableRecord
  2
AcadAnnoMonitorAlertIconDisabled
 70
     0
  0
APPID
  5
8542
330
845F
100
AcDbSymbolTableRecord
100
AcDbRegAppTableRecord
  2
ACAD_EXEMPT_FROM_CAD_STANDARDS
 70
     0
  0
APPID
  5
8657
330
845F
100
AcDbSymbolTableRecord
100
AcDbRegAppTableRecord
  2
ACAD_NAV_VCDISPLAY
 70
     0
  0
APPID
  5
8690
330
845F
100
AcDbSymbolTableRecord
100
AcDbRegAppTableRecord
  2
ACAD_MLEADERVER
 70
     0
  0
ENDTAB
  0
TABLE
  2
DIMSTYLE
  5
8460
330
0
100
AcDbSymbolTable
 70
     3
100
AcDbDimStyleTable
 71
     1
340
84D0
  0
DIMSTYLE
105
84AD
102
{ACAD_REACTORS
330
82B7
330
82C4
330
82D1
330
82DE
330
82EB
102
}
330
8460
100
AcDbSymbolTableRecord
100
AcDbDimStyleTableRecord
  2
Standard
 70
     0
340
84AB
  0
DIMSTYLE
105
84AE
330
8460
100
AcDbSymbolTableRecord
100
AcDbDimStyleTableRecord
  2
Annotative
 70
     0
340
84AB
1001
AcadAnnotative
1000
AnnotativeData
1002
{
1070
     1
1070
     1
1002
}
  0
DIMSTYLE
105
84D0
102
{ACAD_REACTORS
330
8509
330
8516
330
8523
330
8534
330
8599
330
85A6
330
85B3
330
85C0
330
85CD
330
85DA
330
85E7
330
85F4
330
8601
330
860E
330
861B
102
}
330
8460
100
AcDbSymbolTableRecord
100
AcDbDimStyleTableRecord
  2
IGA
 70
     0
 40
2.0
 41
2.0
 42
0.5
 43
10.0
 44
1.0
 47
1.0
 48
1.0
 73
     0
 74
     0
 77
     1
 78
     8
140
3.0
141
0.0
143
0.03937
146
10.0
147
1.0
173
     1
271
     3
272
     3
279
     2
284
     8
285
     8
286
     8
340
84AB
  0
ENDTAB
  0
TABLE
  2
BLOCK_RECORD
  5
8457
330
0
100
AcDbSymbolTable
 70
    42
  0
BLOCK_RECORD
  5
84C5
102
{ACAD_XDICTIONARY
360
8531
102
}
330
8457
100
AcDbSymbolTableRecord
100
AcDbBlockTableRecord
  2
*Model_Space
340
84C8
  0
BLOCK_RECORD
  5
84C1
330
8457
100
AcDbSymbolTableRecord
100
AcDbBlockTableRecord
  2
*Paper_Space
340
84C4
  0
BLOCK_RECORD
  5
84D4
330
8457
100
AcDbSymbolTableRecord
100
AcDbBlockTableRecord
  2
$MODEL_SPACE
340
0
  0
BLOCK_RECORD
  5
84D6
330
8457
100
AcDbSymbolTableRecord
100
AcDbBlockTableRecord
  2
$PAPER_SPACE
340
0
  0
BLOCK_RECORD
  5
84D8
330
8457
100
AcDbSymbolTableRecord
100
AcDbBlockTableRecord
  2
_OPEN
340
0
102
{BLKREFS
331
83C0
331
83C1
331
83C9
331
83CA
331
83D2
331
83D3
331
83DB
331
83DC
331
83E4
331
83E5
331
83ED
331
83EE
331
8622
331
8623
331
862B
331
862C
331
863D
331
863E
331
83F6
331
83F7
331
83FF
331
8400
331
8408
331
8409
331
85EE
331
85EF
331
85FB
331
85FC
331
8608
331
8609
331
8615
331
8616
331
8411
331
8412
331
841A
331
841B
331
8423
331
8424
331
842C
331
842D
331
8435
331
8436
331
843E
331
843F
331
8586
331
8587
331
85A0
331
85A1
331
85AD
331
85AE
331
85BA
331
85BB
331
85C7
331
85C8
331
85D4
331
85D5
331
85E1
331
85E2
331
82B0
331
82B1
331
82BD
331
82BE
331
82CA
331
82CB
331
82D7
331
82D8
331
82E4
331
82E5
331
8510
331
8511
102
}
  0
BLOCK_RECORD
  5
84DA
330
8457
100
AcDbSymbolTableRecord
100
AcDbBlockTableRecord
  2
YA_N
340
0
102
{BLKREFS
331
7C31
331
7C4F
331
7C51
331
7CC1
102
}
  0
BLOCK_RECORD
  5
84DC
330
8457
100
AcDbSymbolTableRecord
100
AcDbBlockTableRecord
  2
*D4
340
0
  0
BLOCK_RECORD
  5
84DE
330
8457
100
AcDbSymbolTableRecord
100
AcDbBlockTableRecord
  2
*D5
340
0
  0
BLOCK_RECORD
  5
84E0
330
8457
100
AcDbSymbolTableRecord
100
AcDbBlockTableRecord
  2
*D6
340
0
  0
BLOCK_RECORD
  5
84E2
330
8457
100
AcDbSymbolTableRecord
100
AcDbBlockTableRecord
  2
*D7
340
0
  0
BLOCK_RECORD
  5
84E4
330
8457
100
AcDbSymbolTableRecord
100
AcDbBlockTableRecord
  2
*D8
340
0
  0
BLOCK_RECORD
  5
84E6
330
8457
100
AcDbSymbolTableRecord
100
AcDbBlockTableRecord
  2
*D9
340
0
  0
BLOCK_RECORD
  5
84E8
330
8457
100
AcDbSymbolTableRecord
100
AcDbBlockTableRecord
  2
*D10
340
0
  0
BLOCK_RECORD
  5
84EA
330
8457
100
AcDbSymbolTableRecord
100
AcDbBlockTableRecord
  2
*D11
340
0
  0
BLOCK_RECORD
  5
84EC
330
8457
100
AcDbSymbolTableRecord
100
AcDbBlockTableRecord
  2
*D12
340
0
  0
BLOCK_RECORD
  5
84EE
330
8457
100
AcDbSymbolTableRecord
100
AcDbBlockTableRecord
  2
*D13
340
0
  0
BLOCK_RECORD
  5
84F0
330
8457
100
AcDbSymbolTableRecord
100
AcDbBlockTableRecord
  2
*D14
340
0
  0
BLOCK_RECORD
  5
84F2
330
8457
100
AcDbSymbolTableRecord
100
AcDbBlockTableRecord
  2
*D15
340
0
  0
BLOCK_RECORD
  5
84F4
330
8457
100
AcDbSymbolTableRecord
100
AcDbBlockTableRecord
  2
*D16
340
0
  0
BLOCK_RECORD
  5
84F6
330
8457
100
AcDbSymbolTableRecord
100
AcDbBlockTableRecord
  2
*D17
340
0
  0
BLOCK_RECORD
  5
84F8
330
8457
100
AcDbSymbolTableRecord
100
AcDbBlockTableRecord
  2
*D18
340
0
  0
BLOCK_RECORD
  5
84FA
330
8457
100
AcDbSymbolTableRecord
100
AcDbBlockTableRecord
  2
_DOT
340
0
  0
BLOCK_RECORD
  5
84FC
330
8457
100
AcDbSymbolTableRecord
100
AcDbBlockTableRecord
  2
_NONE
340
0
  0
BLOCK_RECORD
  5
84FE
330
8457
100
AcDbSymbolTableRecord
100
AcDbBlockTableRecord
  2
*D21
340
0
  0
BLOCK_RECORD
  5
8500
330
8457
100
AcDbSymbolTableRecord
100
AcDbBlockTableRecord
  2
*D22
340
0
  0
BLOCK_RECORD
  5
8502
330
8457
100
AcDbSymbolTableRecord
100
AcDbBlockTableRecord
  2
*D23
340
0
  0
BLOCK_RECORD
  5
8504
330
8457
100
AcDbSymbolTableRecord
100
AcDbBlockTableRecord
  2
*D24
340
0
  0
BLOCK_RECORD
  5
8506
330
8457
100
AcDbSymbolTableRecord
100
AcDbBlockTableRecord
  2
*D25
340
0
  0
BLOCK_RECORD
  5
850A
330
8457
100
AcDbSymbolTableRecord
100
AcDbBlockTableRecord
  2
*D26
340
0
  0
BLOCK_RECORD
  5
8517
330
8457
100
AcDbSymbolTableRecord
100
AcDbBlockTableRecord
  2
*D27
340
0
  0
BLOCK_RECORD
  5
8524
330
8457
100
AcDbSymbolTableRecord
100
AcDbBlockTableRecord
  2
*D28
340
0
  0
BLOCK_RECORD
  5
8535
330
8457
100
AcDbSymbolTableRecord
100
AcDbBlockTableRecord
  2
*D29
340
0
  0
BLOCK_RECORD
  5
858C
330
8457
100
AcDbSymbolTableRecord
100
AcDbBlockTableRecord
  2
*D30
340
0
  0
BLOCK_RECORD
  5
859A
330
8457
100
AcDbSymbolTableRecord
100
AcDbBlockTableRecord
  2
*D31
340
0
  0
BLOCK_RECORD
  5
85A7
330
8457
100
AcDbSymbolTableRecord
100
AcDbBlockTableRecord
  2
*D32
340
0
  0
BLOCK_RECORD
  5
85B4
330
8457
100
AcDbSymbolTableRecord
100
AcDbBlockTableRecord
  2
*D33
340
0
  0
BLOCK_RECORD
  5
85C1
330
8457
100
AcDbSymbolTableRecord
100
AcDbBlockTableRecord
  2
*D34
340
0
  0
BLOCK_RECORD
  5
85CE
330
8457
100
AcDbSymbolTableRecord
100
AcDbBlockTableRecord
  2
*D35
340
0
  0
BLOCK_RECORD
  5
85DB
330
8457
100
AcDbSymbolTableRecord
100
AcDbBlockTableRecord
  2
*D36
340
0
  0
BLOCK_RECORD
  5
85E8
330
8457
100
AcDbSymbolTableRecord
100
AcDbBlockTableRecord
  2
*D37
340
0
  0
BLOCK_RECORD
  5
85F5
330
8457
100
AcDbSymbolTableRecord
100
AcDbBlockTableRecord
  2
*D38
340
0
  0
BLOCK_RECORD
  5
8602
330
8457
100
AcDbSymbolTableRecord
100
AcDbBlockTableRecord
  2
*D39
340
0
  0
BLOCK_RECORD
  5
860F
330
8457
100
AcDbSymbolTableRecord
100
AcDbBlockTableRecord
  2
*D40
340
0
  0
BLOCK_RECORD
  5
861C
330
8457
100
AcDbSymbolTableRecord
100
AcDbBlockTableRecord
  2
*D41
340
0
  0
ENDTAB
  0
ENDSEC
  0
SECTION
  2
BLOCKS
  0
BLOCK
  5
84C6
330
84C5
100
AcDbEntity
  8
0
100
AcDbBlockBegin
  2
*Model_Space
 70
     0
 10
0.0
 20
0.0
 30
0.0
  3
*Model_Space
  1

  0
ENDBLK
  5
84C7
330
84C5
100
AcDbEntity
  8
0
100
AcDbBlockEnd
  0
BLOCK
  5
84C2
330
84C1
100
AcDbEntity
 67
     1
  8
0
100
AcDbBlockBegin
  2
*Paper_Space
 70
     0
 10
0.0
 20
0.0
 30
0.0
  3
*Paper_Space
  1

  0
ENDBLK
  5
84C3
330
84C1
100
AcDbEntity
 67
     1
  8
0
100
AcDbBlockEnd
  0
BLOCK
  5
84D5
330
84D4
100
AcDbEntity
  8
0
100
AcDbBlockBegin
  2
$MODEL_SPACE
 70
     0
 10
0.0
 20
0.0
 30
0.0
  3
$MODEL_SPACE
  1

  0
ENDBLK
  5
1B
330
84D4
100
AcDbEntity
  8
0
100
AcDbBlockEnd
  0
BLOCK
  5
84D7
330
84D6
100
AcDbEntity
  8
0
100
AcDbBlockBegin
  2
$PAPER_SPACE
 70
     0
 10
0.0
 20
0.0
 30
0.0
  3
$PAPER_SPACE
  1

  0
ENDBLK
  5
18
330
84D6
100
AcDbEntity
  8
0
100
AcDbBlockEnd
  0
BLOCK
  5
84D9
330
84D8
100
AcDbEntity
  8
0
100
AcDbBlockBegin
  2
_OPEN
 70
     0
 10
0.0
 20
0.0
 30
0.0
  3
_OPEN
  1

  0
LINE
  5
79FD
330
84D8
100
AcDbEntity
  8
0
  6
ByBlock
 62
     0
100
AcDbLine
 10
-1.0
 20
0.1666666666666666
 30
0.0
 11
0.0
 21
0.0
 31
0.0
  0
LINE
  5
79FE
330
84D8
100
AcDbEntity
  8
0
  6
ByBlock
 62
     0
100
AcDbLine
 10
0.0
 20
0.0
 30
0.0
 11
-1.0
 21
-0.1666666666666666
 31
0.0
  0
LINE
  5
79FF
330
84D8
100
AcDbEntity
  8
0
  6
ByBlock
 62
     0
100
AcDbLine
 10
0.0
 20
0.0
 30
0.0
 11
-1.0
 21
0.0
 31
0.0
  0
ENDBLK
  5
7A01
330
84D8
100
AcDbEntity
  8
0
100
AcDbBlockEnd
  0
BLOCK
  5
84DB
330
84DA
100
AcDbEntity
  8
0
100
AcDbBlockBegin
  2
YA_N
 70
     0
 10
0.0
 20
0.0
 30
0.0
  3
YA_N
  1

  0
ENDBLK
  5
7A0C
330
84DA
100
AcDbEntity
  8
0
100
AcDbBlockEnd
  0
BLOCK
  5
84DD
330
84DC
100
AcDbEntity
  8
0
100
AcDbBlockBegin
  2
*D4
 70
     1
 10
0.0
 20
0.0
 30
0.0
  3
*D4
  1

  0
LINE
  5
83BD
330
84DC
100
AcDbEntity
  8
3
 62
     0
100
AcDbLine
 10
2790.942858765823
 20
3748.454481859345
 30
0.0
 11
2955.557967209033
 21
3748.454481859345
 31
0.0
  0
LINE
  5
83BE
330
84DC
100
AcDbEntity
  8
3
 62
     0
100
AcDbLine
 10
2790.942858765823
 20
2823.454481859346
 30
0.0
 11
2955.557967209033
 21
2823.454481859346
 31
0.0
  0
LINE
  5
83BF
330
84DC
100
AcDbEntity
  8
3
 62
     0
100
AcDbLine
 10
2925.557967209033
 20
3688.454481859346
 30
0.0
 11
2925.557967209033
 21
2883.454481859345
 31
0.0
  0
INSERT
  5
83C0
330
84DC
100
AcDbEntity
  8
3
 62
     0
100
AcDbBlockReference
  2
_OPEN
 10
2925.557967209033
 20
3748.454481859345
 30
0.0
 41
60.0
 42
60.0
 43
60.0
 50
90.0
  0
INSERT
  5
83C1
330
84DC
100
AcDbEntity
  8
3
 62
     0
100
AcDbBlockReference
  2
_OPEN
 10
2925.557967209033
 20
2823.454481859346
 30
0.0
 41
60.0
 42
60.0
 43
60.0
 50
270.0
  0
TEXT
  5
8447
330
84DC
100
AcDbEntity
  8
3
 62
     0
100
AcDbText
 10
2670.56
 20
3126.65
 30
0.0
 40
90.0
  1
925
100
AcDbText
  0
POINT
  5
83C3
330
84DC
100
AcDbEntity
  8
DEFPOINTS
 62
     0
100
AcDbPoint
 10
2775.942858765823
 20
3748.454481859345
 30
0.0
  0
POINT
  5
83C4
330
84DC
100
AcDbEntity
  8
DEFPOINTS
 62
     0
100
AcDbPoint
 10
2775.942858765823
 20
2823.454481859346
 30
0.0
  0
POINT
  5
83C5
330
84DC
100
AcDbEntity
  8
DEFPOINTS
 62
     0
100
AcDbPoint
 10
2925.557967209033
 20
2823.454481859346
 30
0.0
  0
ENDBLK
  5
81A0
330
84DC
100
AcDbEntity
  8
0
100
AcDbBlockEnd
  0
BLOCK
  5
84DF
330
84DE
100
AcDbEntity
  8
0
100
AcDbBlockBegin
  2
*D5
 70
     1
 10
0.0
 20
0.0
 30
0.0
  3
*D5
  1

  0
LINE
  5
83C6
330
84DE
100
AcDbEntity
  8
3
 62
     0
100
AcDbLine
 10
2790.942858765823
 20
3748.454481859345
 30
0.0
 11
3105.901267306895
 21
3748.454481859345
 31
0.0
  0
LINE
  5
83C7
330
84DE
100
AcDbEntity
  8
3
 62
     0
100
AcDbLine
 10
2827.198197544369
 20
2787.454481859346
 30
0.0
 11
3105.901267306895
 21
2787.454481859345
 31
0.0
  0
LINE
  5
83C8
330
84DE
100
AcDbEntity
  8
3
 62
     0
100
AcDbLine
 10
3075.901267306896
 20
3688.454481859345
 30
0.0
 11
3075.901267306895
 21
2847.454481859345
 31
0.0
  0
INSERT
  5
83C9
330
84DE
100
AcDbEntity
  8
3
 62
     0
100
AcDbBlockReference
  2
_OPEN
 10
3075.901267306896
 20
3748.454481859345
 30
0.0
 41
60.0
 42
60.0
 43
60.0
 50
90.0
  0
INSERT
  5
83CA
330
84DE
100
AcDbEntity
  8
3
 62
     0
100
AcDbBlockReference
  2
_OPEN
 10
3075.901267306895
 20
2787.454481859345
 30
0.0
 41
60.0
 42
60.0
 43
60.0
 50
270.0
  0
TEXT
  5
8448
330
84DE
100
AcDbEntity
  8
3
 62
     0
100
AcDbText
 10
2820.9
 20
3108.65
 30
0.0
 40
90.0
  1
961
100
AcDbText
  0
POINT
  5
83CC
330
84DE
100
AcDbEntity
  8
DEFPOINTS
 62
     0
100
AcDbPoint
 10
2775.942858765823
 20
3748.454481859345
 30
0.0
  0
POINT
  5
83CD
330
84DE
100
AcDbEntity
  8
DEFPOINTS
 62
     0
100
AcDbPoint
 10
2812.198197544368
 20
2787.454481859346
 30
0.0
  0
POINT
  5
83CE
330
84DE
100
AcDbEntity
  8
DEFPOINTS
 62
     0
100
AcDbPoint
 10
3075.901267306895
 20
2787.454481859345
 30
0.0
  0
ENDBLK
  5
81AB
330
84DE
100
AcDbEntity
  8
0
100
AcDbBlockEnd
  0
BLOCK
  5
84E1
330
84E0
100
AcDbEntity
  8
0
100
AcDbBlockBegin
  2
*D6
 70
     1
 10
0.0
 20
0.0
 30
0.0
  3
*D6
  1

  0
LINE
  5
83CF
330
84E0
100
AcDbEntity
  8
3
 62
     0
100
AcDbLine
 10
2827.198197544369
 20
2787.454481859346
 30
0.0
 11
3105.901267306895
 21
2787.454481859345
 31
0.0
  0
LINE
  5
83D0
330
84E0
100
AcDbEntity
  8
3
 62
     0
100
AcDbLine
 10
2730.942858765823
 20
2107.454481859345
 30
0.0
 11
3105.901267306895
 21
2107.454481859345
 31
0.0
  0
LINE
  5
83D1
330
84E0
100
AcDbEntity
  8
3
 62
     0
100
AcDbLine
 10
3075.901267306895
 20
2727.454481859345
 30
0.0
 11
3075.901267306895
 21
2167.454481859345
 31
0.0
  0
INSERT
  5
83D2
330
84E0
100
AcDbEntity
  8
3
 62
     0
100
AcDbBlockReference
  2
_OPEN
 10
3075.901267306895
 20
2787.454481859345
 30
0.0
 41
60.0
 42
60.0
 43
60.0
 50
90.0
  0
INSERT
  5
83D3
330
84E0
100
AcDbEntity
  8
3
 62
     0
100
AcDbBlockReference
  2
_OPEN
 10
3075.901267306895
 20
2107.454481859345
 30
0.0
 41
60.0
 42
60.0
 43
60.0
 50
270.0
  0
TEXT
  5
8449
330
84E0
100
AcDbEntity
  8
3
 62
     0
100
AcDbText
 10
2820.9
 20
2288.15
 30
0.0
 40
90.0
  1
680
100
AcDbText
  0
POINT
  5
83D5
330
84E0
100
AcDbEntity
  8
DEFPOINTS
 62
     0
100
AcDbPoint
 10
2812.198197544368
 20
2787.454481859346
 30
0.0
  0
POINT
  5
83D6
330
84E0
100
AcDbEntity
  8
DEFPOINTS
 62
     0
100
AcDbPoint
 10
2715.942858765824
 20
2107.454481859345
 30
0.0
  0
POINT
  5
83D7
330
84E0
100
AcDbEntity
  8
DEFPOINTS
 62
     0
100
AcDbPoint
 10
3075.901267306895
 20
2107.454481859345
 30
0.0
  0
ENDBLK
  5
81B6
330
84E0
100
AcDbEntity
  8
0
100
AcDbBlockEnd
  0
BLOCK
  5
84E3
330
84E2
100
AcDbEntity
  8
0
100
AcDbBlockBegin
  2
*D7
 70
     1
 10
0.0
 20
0.0
 30
0.0
  3
*D7
  1

  0
LINE
  5
83D8
330
84E2
100
AcDbEntity
  8
3
 62
     0
100
AcDbLine
 10
2775.942858765823
 20
3805.954481859346
 30
0.0
 11
2775.942858765823
 21
3971.848891574977
 31
0.0
  0
LINE
  5
83D9
330
84E2
100
AcDbEntity
  8
3
 62
     0
100
AcDbLine
 10
2155.942858765823
 20
3804.416924202904
 30
0.0
 11
2155.942858765823
 21
3971.848891574977
 31
0.0
  0
LINE
  5
83DA
330
84E2
100
AcDbEntity
  8
3
 62
     0
100
AcDbLine
 10
2715.942858765823
 20
3941.848891574977
 30
0.0
 11
2215.942858765822
 21
3941.848891574977
 31
0.0
  0
INSERT
  5
83DB
330
84E2
100
AcDbEntity
  8
3
 62
     0
100
AcDbBlockReference
  2
_OPEN
 10
2775.942858765823
 20
3941.848891574977
 30
0.0
 41
60.0
 42
60.0
 43
60.0
  0
INSERT
  5
83DC
330
84E2
100
AcDbEntity
  8
3
 62
     0
100
AcDbBlockReference
  2
_OPEN
 10
2155.942858765823
 20
3941.848891574977
 30
0.0
 41
60.0
 42
60.0
 43
60.0
 50
180.0
  0
TEXT
  5
844A
330
84E2
100
AcDbEntity
  8
3
 62
     0
100
AcDbText
 10
2285.94
 20
3857.550000000001
 30
0.0
 40
90.0
  1
620
100
AcDbText
  0
POINT
  5
83DE
330
84E2
100
AcDbEntity
  8
DEFPOINTS
 62
     0
100
AcDbPoint
 10
2775.942858765823
 20
3790.954481859346
 30
0.0
  0
POINT
  5
83DF
330
84E2
100
AcDbEntity
  8
DEFPOINTS
 62
     0
100
AcDbPoint
 10
2155.942858765823
 20
3789.416924202903
 30
0.0
  0
POINT
  5
83E0
330
84E2
100
AcDbEntity
  8
DEFPOINTS
 62
     0
100
AcDbPoint
 10
2155.942858765823
 20
3941.848891574977
 30
0.0
  0
ENDBLK
  5
818A
330
84E2
100
AcDbEntity
  8
0
100
AcDbBlockEnd
  0
BLOCK
  5
84E5
330
84E4
100
AcDbEntity
  8
0
100
AcDbBlockBegin
  2
*D8
 70
     1
 10
0.0
 20
0.0
 30
0.0
  3
*D8
  1

  0
LINE
  5
83E1
330
84E4
100
AcDbEntity
  8
3
 62
     0
100
AcDbLine
 10
2155.942858765823
 20
3804.416924202904
 30
0.0
 11
2155.942858765823
 21
3972.092091564402
 31
0.0
  0
LINE
  5
83E2
330
84E4
100
AcDbEntity
  8
3
 62
     0
100
AcDbLine
 10
1382.11119563803
 20
2802.454481859346
 30
0.0
 11
1382.11119563803
 21
3972.092091564402
 31
0.0
  0
LINE
  5
83E3
330
84E4
100
AcDbEntity
  8
3
 62
     0
100
AcDbLine
 10
2095.942858765823
 20
3942.092091564402
 30
0.0
 11
1442.11119563803
 21
3942.092091564402
 31
0.0
  0
INSERT
  5
83E4
330
84E4
100
AcDbEntity
  8
3
 62
     0
100
AcDbBlockReference
  2
_OPEN
 10
2155.942858765823
 20
3942.092091564402
 30
0.0
 41
60.0
 42
60.0
 43
60.0
  0
INSERT
  5
83E5
330
84E4
100
AcDbEntity
  8
3
 62
     0
100
AcDbBlockReference
  2
_OPEN
 10
1382.11119563803
 20
3942.092091564402
 30
0.0
 41
60.0
 42
60.0
 43
60.0
 50
180.0
  0
TEXT
  5
844B
330
84E4
100
AcDbEntity
  8
3
 62
     0
100
AcDbText
 10
1589.03
 20
3857.79
 30
0.0
 40
90.0
  1
777
100
AcDbText
  0
POINT
  5
83E7
330
84E4
100
AcDbEntity
  8
DEFPOINTS
 62
     0
100
AcDbPoint
 10
2155.942858765823
 20
3789.416924202903
 30
0.0
  0
POINT
  5
83E8
330
84E4
100
AcDbEntity
  8
DEFPOINTS
 62
     0
100
AcDbPoint
 10
1382.11119563803
 20
2787.454481859346
 30
0.0
  0
POINT
  5
83E9
330
84E4
100
AcDbEntity
  8
DEFPOINTS
 62
     0
100
AcDbPoint
 10
1382.11119563803
 20
3942.092091564402
 30
0.0
  0
ENDBLK
  5
817F
330
84E4
100
AcDbEntity
  8
0
100
AcDbBlockEnd
  0
BLOCK
  5
84E7
330
84E6
100
AcDbEntity
  8
0
100
AcDbBlockBegin
  2
*D9
 70
     1
 10
0.0
 20
0.0
 30
0.0
  3
*D9
  1

  0
LINE
  5
83EA
330
84E6
100
AcDbEntity
  8
3
 62
     0
100
AcDbLine
 10
4106.111918802633
 20
3732.913066074655
 30
0.0
 11
4106.111918802633
 21
3971.646435392973
 31
0.0
  0
LINE
  5
83EB
330
84E6
100
AcDbEntity
  8
3
 62
     0
100
AcDbLine
 10
5226.111918802633
 20
3735.956459412383
 30
0.0
 11
5226.111918802633
 21
3971.646435392973
 31
0.0
  0
LINE
  5
83EC
330
84E6
100
AcDbEntity
  8
3
 62
     0
100
AcDbLine
 10
4166.111918802633
 20
3941.646435392974
 30
0.0
 11
5166.111918802633
 21
3941.646435392974
 31
0.0
  0
INSERT
  5
83ED
330
84E6
100
AcDbEntity
  8
3
 62
     0
100
AcDbBlockReference
  2
_OPEN
 10
4106.111918802633
 20
3941.646435392974
 30
0.0
 41
60.0
 42
60.0
 43
60.0
 50
180.0
  0
INSERT
  5
83EE
330
84E6
100
AcDbEntity
  8
3
 62
     0
100
AcDbBlockReference
  2
_OPEN
 10
5226.111918802633
 20
3941.646435392974
 30
0.0
 41
60.0
 42
60.0
 43
60.0
  0
TEXT
  5
844C
330
84E6
100
AcDbEntity
  8
3
 62
     0
100
AcDbText
 10
4486.11
 20
3857.35
 30
0.0
 40
90.0
  1
1120
100
AcDbText
  0
POINT
  5
83F0
330
84E6
100
AcDbEntity
  8
DEFPOINTS
 62
     0
100
AcDbPoint
 10
4106.111918802633
 20
3717.913066074654
 30
0.0
  0
POINT
  5
83F1
330
84E6
100
AcDbEntity
  8
DEFPOINTS
 62
     0
100
AcDbPoint
 10
5226.111918802633
 20
3720.956459412383
 30
0.0
  0
POINT
  5
83F2
330
84E6
100
AcDbEntity
  8
DEFPOINTS
 62
     0
100
AcDbPoint
 10
5226.111918802633
 20
3941.646435392974
 30
0.0
  0
ENDBLK
  5
81E2
330
84E6
100
AcDbEntity
  8
0
100
AcDbBlockEnd
  0
BLOCK
  5
84E9
330
84E8
100
AcDbEntity
  8
0
100
AcDbBlockBegin
  2
*D10
 70
     1
 10
0.0
 20
0.0
 30
0.0
  3
*D10
  1

  0
LINE
  5
83F3
330
84E8
100
AcDbEntity
  8
3
 62
     0
100
AcDbLine
 10
3768.111918802631
 20
3082.454481859346
 30
0.0
 11
3768.111918802631
 21
4179.366356043397
 31
0.0
  0
LINE
  5
83F4
330
84E8
100
AcDbEntity
  8
3
 62
     0
100
AcDbLine
 10
4666.111918802633
 20
4087.237520526025
 30
0.0
 11
4666.111918802633
 21
4179.366356043397
 31
0.0
  0
LINE
  5
83F5
330
84E8
100
AcDbEntity
  8
3
 62
     0
100
AcDbLine
 10
3828.111918802632
 20
4149.366356043397
 30
0.0
 11
4606.111918802633
 21
4149.366356043397
 31
0.0
  0
INSERT
  5
83F6
330
84E8
100
AcDbEntity
  8
3
 62
     0
100
AcDbBlockReference
  2
_OPEN
 10
3768.111918802631
 20
4149.366356043397
 30
0.0
 41
60.0
 42
60.0
 43
60.0
 50
180.0
  0
INSERT
  5
83F7
330
84E8
100
AcDbEntity
  8
3
 62
     0
100
AcDbBlockReference
  2
_OPEN
 10
4666.111918802633
 20
4149.366356043397
 30
0.0
 41
60.0
 42
60.0
 43
60.0
  0
TEXT
  5
844D
330
84E8
100
AcDbEntity
  8
3
 62
     0
100
AcDbText
 10
4037.110000000001
 20
4140.07
 30
0.0
 40
90.0
  1
MAX
100
AcDbText
  0
TEXT
  5
844E
330
84E8
100
AcDbEntity
  8
3
 62
     0
100
AcDbText
 10
4037.110000000001
 20
4023.07
 30
0.0
 40
90.0
  1
920
100
AcDbText
  0
POINT
  5
83F9
330
84E8
100
AcDbEntity
  8
DEFPOINTS
 62
     0
100
AcDbPoint
 10
3768.111918802631
 20
3067.454481859346
 30
0.0
  0
POINT
  5
83FA
330
84E8
100
AcDbEntity
  8
DEFPOINTS
 62
     0
100
AcDbPoint
 10
4666.111918802633
 20
4072.237520526026
 30
0.0
  0
POINT
  5
83FB
330
84E8
100
AcDbEntity
  8
DEFPOINTS
 62
     0
100
AcDbPoint
 10
4666.111918802633
 20
4149.366356043397
 30
0.0
  0
ENDBLK
  5
81ED
330
84E8
100
AcDbEntity
  8
0
100
AcDbBlockEnd
  0
BLOCK
  5
84EB
330
84EA
100
AcDbEntity
  8
0
100
AcDbBlockBegin
  2
*D11
 70
     1
 10
0.0
 20
0.0
 30
0.0
  3
*D11
  1

  0
LINE
  5
83FC
330
84EA
100
AcDbEntity
  8
3
 62
     0
100
AcDbLine
 10
4666.111918802633
 20
4087.237520526025
 30
0.0
 11
4666.111918802633
 21
4179.366356043397
 31
0.0
  0
LINE
  5
83FD
330
84EA
100
AcDbEntity
  8
3
 62
     0
100
AcDbLine
 10
5335.611918802634
 20
2762.954481859345
 30
0.0
 11
5335.611918802634
 21
4179.366356043397
 31
0.0
  0
LINE
  5
83FE
330
84EA
100
AcDbEntity
  8
3
 62
     0
100
AcDbLine
 10
4726.111918802633
 20
4149.366356043397
 30
0.0
 11
5275.611918802631
 21
4149.366356043397
 31
0.0
  0
INSERT
  5
83FF
330
84EA
100
AcDbEntity
  8
3
 62
     0
100
AcDbBlockReference
  2
_OPEN
 10
4666.111918802633
 20
4149.366356043397
 30
0.0
 41
60.0
 42
60.0
 43
60.0
 50
180.0
  0
INSERT
  5
8400
330
84EA
100
AcDbEntity
  8
3
 62
     0
100
AcDbBlockReference
  2
_OPEN
 10
5335.611918802634
 20
4149.366356043397
 30
0.0
 41
60.0
 42
60.0
 43
60.0
  0
TEXT
  5
844F
330
84EA
100
AcDbEntity
  8
3
 62
     0
100
AcDbText
 10
4820.859999999999
 20
4088.64
 30
0.0
 40
90.0
  1
(680)
100
AcDbText
  0
POINT
  5
8402
330
84EA
100
AcDbEntity
  8
DEFPOINTS
 62
     0
100
AcDbPoint
 10
4666.111918802633
 20
4072.237520526026
 30
0.0
  0
POINT
  5
8403
330
84EA
100
AcDbEntity
  8
DEFPOINTS
 62
     0
100
AcDbPoint
 10
5335.611918802634
 20
2747.954481859345
 30
0.0
  0
POINT
  5
8404
330
84EA
100
AcDbEntity
  8
DEFPOINTS
 62
     0
100
AcDbPoint
 10
5335.611918802634
 20
4149.366356043397
 30
0.0
  0
ENDBLK
  5
81F8
330
84EA
100
AcDbEntity
  8
0
100
AcDbBlockEnd
  0
BLOCK
  5
84ED
330
84EC
100
AcDbEntity
  8
0
100
AcDbBlockBegin
  2
*D12
 70
     1
 10
0.0
 20
0.0
 30
0.0
  3
*D12
  1

  0
LINE
  5
8405
330
84EC
100
AcDbEntity
  8
3
 62
     0
100
AcDbLine
 10
845.9428587658239
 20
5620.453943093273
 30
0.0
 11
845.9428587658239
 21
6512.468601598492
 31
0.0
  0
LINE
  5
8406
330
84EC
100
AcDbEntity
  8
3
 62
     0
100
AcDbLine
 10
1595.942858765823
 20
6195.453943093272
 30
0.0
 11
1595.942858765823
 21
6512.468601598492
 31
0.0
  0
LINE
  5
8407
330
84EC
100
AcDbEntity
  8
3
 62
     0
100
AcDbLine
 10
905.942858765824
 20
6482.468601598494
 30
0.0
 11
1535.942858765823
 21
6482.468601598494
 31
0.0
  0
INSERT
  5
8408
330
84EC
100
AcDbEntity
  8
3
 62
     0
100
AcDbBlockReference
  2
_OPEN
 10
845.9428587658239
 20
6482.468601598494
 30
0.0
 41
60.0
 42
60.0
 43
60.0
 50
180.0
  0
INSERT
  5
8409
330
84EC
100
AcDbEntity
  8
3
 62
     0
100
AcDbBlockReference
  2
_OPEN
 10
1595.942858765823
 20
6482.468601598494
 30
0.0
 41
60.0
 42
60.0
 43
60.0
  0
TEXT
  5
8450
330
84EC
100
AcDbEntity
  8
3
 62
     0
100
AcDbText
 10
1040.94
 20
6398.17
 30
0.0
 40
90.0
  1
750
100
AcDbText
  0
POINT
  5
840B
330
84EC
100
AcDbEntity
  8
DEFPOINTS
 62
     0
100
AcDbPoint
 10
845.9428587658239
 20
5605.453943093273
 30
0.0
  0
POINT
  5
840C
330
84EC
100
AcDbEntity
  8
DEFPOINTS
 62
     0
100
AcDbPoint
 10
1595.942858765823
 20
6180.453943093272
 30
0.0
  0
POINT
  5
840D
330
84EC
100
AcDbEntity
  8
DEFPOINTS
 62
     0
100
AcDbPoint
 10
1595.942858765823
 20
6482.468601598494
 30
0.0
  0
ENDBLK
  5
8132
330
84EC
100
AcDbEntity
  8
0
100
AcDbBlockEnd
  0
BLOCK
  5
84EF
330
84EE
100
AcDbEntity
  8
0
100
AcDbBlockBegin
  2
*D13
 70
     1
 10
0.0
 20
0.0
 30
0.0
  3
*D13
  1

  0
LINE
  5
840E
330
84EE
100
AcDbEntity
  8
3
 62
     0
100
AcDbLine
 10
1595.942858765823
 20
6195.453943093272
 30
0.0
 11
1595.942858765823
 21
6512.468601598492
 31
0.0
  0
LINE
  5
840F
330
84EE
100
AcDbEntity
  8
3
 62
     0
100
AcDbLine
 10
2715.942858765823
 20
6195.453943093272
 30
0.0
 11
2715.942858765823
 21
6512.468601598492
 31
0.0
  0
LINE
  5
8410
330
84EE
100
AcDbEntity
  8
3
 62
     0
100
AcDbLine
 10
1655.942858765823
 20
6482.468601598494
 30
0.0
 11
2655.942858765823
 21
6482.468601598494
 31
0.0
  0
INSERT
  5
8411
330
84EE
100
AcDbEntity
  8
3
 62
     0
100
AcDbBlockReference
  2
_OPEN
 10
1595.942858765823
 20
6482.468601598494
 30
0.0
 41
60.0
 42
60.0
 43
60.0
 50
180.0
  0
INSERT
  5
8412
330
84EE
100
AcDbEntity
  8
3
 62
     0
100
AcDbBlockReference
  2
_OPEN
 10
2715.942858765823
 20
6482.468601598494
 30
0.0
 41
60.0
 42
60.0
 43
60.0
  0
TEXT
  5
8451
330
84EE
100
AcDbEntity
  8
3
 62
     0
100
AcDbText
 10
1975.94
 20
6398.17
 30
0.0
 40
90.0
  1
1120
100
AcDbText
  0
POINT
  5
8414
330
84EE
100
AcDbEntity
  8
DEFPOINTS
 62
     0
100
AcDbPoint
 10
1595.942858765823
 20
6180.453943093272
 30
0.0
  0
POINT
  5
8415
330
84EE
100
AcDbEntity
  8
DEFPOINTS
 62
     0
100
AcDbPoint
 10
2715.942858765823
 20
6180.453943093272
 30
0.0
  0
POINT
  5
8416
330
84EE
100
AcDbEntity
  8
DEFPOINTS
 62
     0
100
AcDbPoint
 10
2715.942858765823
 20
6482.468601598494
 30
0.0
  0
ENDBLK
  5
813D
330
84EE
100
AcDbEntity
  8
0
100
AcDbBlockEnd
  0
BLOCK
  5
84F1
330
84F0
100
AcDbEntity
  8
0
100
AcDbBlockBegin
  2
*D14
 70
     1
 10
0.0
 20
0.0
 30
0.0
  3
*D14
  1

  0
LINE
  5
8417
330
84F0
100
AcDbEntity
  8
3
 62
     0
100
AcDbLine
 10
2730.942858765823
 20
6180.453943093272
 30
0.0
 11
3046.36708093224
 21
6180.453943093272
 31
0.0
  0
LINE
  5
8418
330
84F0
100
AcDbEntity
  8
3
 62
     0
100
AcDbLine
 10
2730.942858765823
 20
4805.453943093271
 30
0.0
 11
3046.367080932239
 21
4805.453943093271
 31
0.0
  0
LINE
  5
8419
330
84F0
100
AcDbEntity
  8
3
 62
     0
100
AcDbLine
 10
3016.367080932239
 20
6120.453943093272
 30
0.0
 11
3016.367080932239
 21
4865.453943093271
 31
0.0
  0
INSERT
  5
841A
330
84F0
100
AcDbEntity
  8
3
 62
     0
100
AcDbBlockReference
  2
_OPEN
 10
3016.367080932239
 20
6180.453943093272
 30
0.0
 41
60.0
 42
60.0
 43
60.0
 50
90.0
  0
INSERT
  5
841B
330
84F0
100
AcDbEntity
  8
3
 62
     0
100
AcDbBlockReference
  2
_OPEN
 10
3016.367080932239
 20
4805.453943093271
 30
0.0
 41
60.0
 42
60.0
 43
60.0
 50
270.0
  0
TEXT
  5
8452
330
84F0
100
AcDbEntity
  8
3
 62
     0
100
AcDbText
 10
2761.37
 20
5333.65
 30
0.0
 40
90.0
  1
1375
100
AcDbText
  0
POINT
  5
841D
330
84F0
100
AcDbEntity
  8
DEFPOINTS
 62
     0
100
AcDbPoint
 10
2715.942858765823
 20
6180.453943093272
 30
0.0
  0
POINT
  5
841E
330
84F0
100
AcDbEntity
  8
DEFPOINTS
 62
     0
100
AcDbPoint
 10
2715.942858765823
 20
4805.453943093271
 30
0.0
  0
POINT
  5
841F
330
84F0
100
AcDbEntity
  8
DEFPOINTS
 62
     0
100
AcDbPoint
 10
3016.367080932239
 20
4805.453943093271
 30
0.0
  0
ENDBLK
  5
815E
330
84F0
100
AcDbEntity
  8
0
100
AcDbBlockEnd
  0
BLOCK
  5
84F3
330
84F2
100
AcDbEntity
  8
0
100
AcDbBlockBegin
  2
*D15
 70
     1
 10
0.0
 20
0.0
 30
0.0
  3
*D15
  1

  0
LINE
  5
8420
330
84F2
100
AcDbEntity
  8
3
 62
     0
100
AcDbLine
 10
845.9428587658239
 20
4790.453943093271
 30
0.0
 11
845.9428587658239
 21
4468.306783611199
 31
0.0
  0
LINE
  5
8421
330
84F2
100
AcDbEntity
  8
3
 62
     0
100
AcDbLine
 10
2715.942858765823
 20
4790.453943093271
 30
0.0
 11
2715.942858765823
 21
4468.306783611199
 31
0.0
  0
LINE
  5
8422
330
84F2
100
AcDbEntity
  8
3
 62
     0
100
AcDbLine
 10
905.942858765824
 20
4498.306783611197
 30
0.0
 11
2655.942858765823
 21
4498.306783611197
 31
0.0
  0
INSERT
  5
8423
330
84F2
100
AcDbEntity
  8
3
 62
     0
100
AcDbBlockReference
  2
_OPEN
 10
845.9428587658239
 20
4498.306783611197
 30
0.0
 41
60.0
 42
60.0
 43
60.0
 50
180.0
  0
INSERT
  5
8424
330
84F2
100
AcDbEntity
  8
3
 62
     0
100
AcDbBlockReference
  2
_OPEN
 10
2715.942858765823
 20
4498.306783611197
 30
0.0
 41
60.0
 42
60.0
 43
60.0
  0
TEXT
  5
8453
330
84F2
100
AcDbEntity
  8
3
 62
     0
100
AcDbText
 10
1600.94
 20
4414.01
 30
0.0
 40
90.0
  1
1870
100
AcDbText
  0
POINT
  5
8426
330
84F2
100
AcDbEntity
  8
DEFPOINTS
 62
     0
100
AcDbPoint
 10
845.9428587658239
 20
4805.453943093271
 30
0.0
  0
POINT
  5
8427
330
84F2
100
AcDbEntity
  8
DEFPOINTS
 62
     0
100
AcDbPoint
 10
2715.942858765823
 20
4805.453943093271
 30
0.0
  0
POINT
  5
8428
330
84F2
100
AcDbEntity
  8
DEFPOINTS
 62
     0
100
AcDbPoint
 10
2715.942858765823
 20
4498.306783611197
 30
0.0
  0
ENDBLK
  5
8153
330
84F2
100
AcDbEntity
  8
0
100
AcDbBlockEnd
  0
BLOCK
  5
84F5
330
84F4
100
AcDbEntity
  8
0
100
AcDbBlockBegin
  2
*D16
 70
     1
 10
0.0
 20
0.0
 30
0.0
  3
*D16
  1

  0
LINE
  5
8429
330
84F4
100
AcDbEntity
  8
3
 62
     0
100
AcDbLine
 10
830.942858765824
 20
5605.453943093273
 30
0.0
 11
626.0913512992849
 21
5605.453943093273
 31
0.0
  0
LINE
  5
842A
330
84F4
100
AcDbEntity
  8
3
 62
     0
100
AcDbLine
 10
830.942858765824
 20
4805.453943093271
 30
0.0
 11
626.0913512992847
 21
4805.453943093271
 31
0.0
  0
LINE
  5
842B
330
84F4
100
AcDbEntity
  8
3
 62
     0
100
AcDbLine
 10
656.0913512992849
 20
5545.453943093272
 30
0.0
 11
656.0913512992847
 21
4865.453943093271
 31
0.0
  0
INSERT
  5
842C
330
84F4
100
AcDbEntity
  8
3
 62
     0
100
AcDbBlockReference
  2
_OPEN
 10
656.0913512992849
 20
5605.453943093273
 30
0.0
 41
60.0
 42
60.0
 43
60.0
 50
90.0
  0
INSERT
  5
842D
330
84F4
100
AcDbEntity
  8
3
 62
     0
100
AcDbBlockReference
  2
_OPEN
 10
656.0913512992847
 20
4805.453943093271
 30
0.0
 41
60.0
 42
60.0
 43
60.0
 50
270.0
  0
TEXT
  5
8454
330
84F4
100
AcDbEntity
  8
3
 62
     0
100
AcDbText
 10
401.0909999999999
 20
5046.15
 30
0.0
 40
90.0
  1
800
100
AcDbText
  0
POINT
  5
842F
330
84F4
100
AcDbEntity
  8
DEFPOINTS
 62
     0
100
AcDbPoint
 10
845.9428587658239
 20
5605.453943093273
 30
0.0
  0
POINT
  5
8430
330
84F4
100
AcDbEntity
  8
DEFPOINTS
 62
     0
100
AcDbPoint
 10
845.9428587658239
 20
4805.453943093271
 30
0.0
  0
POINT
  5
8431
330
84F4
100
AcDbEntity
  8
DEFPOINTS
 62
     0
100
AcDbPoint
 10
656.0913512992847
 20
4805.453943093271
 30
0.0
  0
ENDBLK
  5
8148
330
84F4
100
AcDbEntity
  8
0
100
AcDbBlockEnd
  0
BLOCK
  5
84F7
330
84F6
100
AcDbEntity
  8
0
100
AcDbBlockBegin
  2
*D17
 70
     1
 10
0.0
 20
0.0
 30
0.0
  3
*D17
  1

  0
LINE
  5
8432
330
84F6
100
AcDbEntity
  8
3
 62
     0
100
AcDbLine
 10
5246.611918802633
 20
2312.454481859345
 30
0.0
 11
5580.002912630768
 21
2312.454481859345
 31
0.0
  0
LINE
  5
8433
330
84F6
100
AcDbEntity
  8
3
 62
     0
100
AcDbLine
 10
5246.611918802633
 20
3262.454481859345
 30
0.0
 11
5580.002912630768
 21
3262.454481859345
 31
0.0
  0
LINE
  5
8434
330
84F6
100
AcDbEntity
  8
3
 62
     0
100
AcDbLine
 10
5550.002912630768
 20
2372.454481859346
 30
0.0
 11
5550.002912630768
 21
3202.454481859347
 31
0.0
  0
INSERT
  5
8435
330
84F6
100
AcDbEntity
  8
3
 62
     0
100
AcDbBlockReference
  2
_OPEN
 10
5550.002912630768
 20
2312.454481859345
 30
0.0
 41
60.0
 42
60.0
 43
60.0
 50
270.0
  0
INSERT
  5
8436
330
84F6
100
AcDbEntity
  8
3
 62
     0
100
AcDbBlockReference
  2
_OPEN
 10
5550.002912630768
 20
3262.454481859345
 30
0.0
 41
60.0
 42
60.0
 43
60.0
 50
90.0
  0
TEXT
  5
8455
330
84F6
100
AcDbEntity
  8
3
 62
     0
100
AcDbText
 10
5295.0
 20
2628.15
 30
0.0
 40
90.0
  1
\U+03C6950
100
AcDbText
  0
POINT
  5
8438
330
84F6
100
AcDbEntity
  8
DEFPOINTS
 62
     0
100
AcDbPoint
 10
5231.611918802633
 20
2312.454481859345
 30
0.0
  0
POINT
  5
8439
330
84F6
100
AcDbEntity
  8
DEFPOINTS
 62
     0
100
AcDbPoint
 10
5231.611918802633
 20
3262.454481859345
 30
0.0
  0
POINT
  5
843A
330
84F6
100
AcDbEntity
  8
DEFPOINTS
 62
     0
100
AcDbPoint
 10
5550.002912630768
 20
3262.454481859345
 30
0.0
  0
ENDBLK
  5
8203
330
84F6
100
AcDbEntity
  8
0
100
AcDbBlockEnd
  0
BLOCK
  5
84F9
330
84F8
100
AcDbEntity
  8
0
100
AcDbBlockBegin
  2
*D18
 70
     1
 10
0.0
 20
0.0
 30
0.0
  3
*D18
  1

  0
LINE
  5
843B
330
84F8
100
AcDbEntity
  8
3
 62
     0
100
AcDbLine
 10
2775.942858765823
 20
3805.954481859346
 30
0.0
 11
2775.942858765823
 21
4167.110429238729
 31
0.0
  0
LINE
  5
843C
330
84F8
100
AcDbEntity
  8
3
 62
     0
100
AcDbLine
 10
845.9428587658239
 20
2222.454481859345
 30
0.0
 11
845.9428587658241
 21
4167.110429238729
 31
0.0
  0
LINE
  5
843D
330
84F8
100
AcDbEntity
  8
3
 62
     0
100
AcDbLine
 10
2715.942858765823
 20
4137.110429238729
 30
0.0
 11
905.942858765824
 21
4137.110429238729
 31
0.0
  0
INSERT
  5
843E
330
84F8
100
AcDbEntity
  8
3
 62
     0
100
AcDbBlockReference
  2
_OPEN
 10
2775.942858765823
 20
4137.110429238729
 30
0.0
 41
60.0
 42
60.0
 43
60.0
  0
INSERT
  5
843F
330
84F8
100
AcDbEntity
  8
3
 62
     0
100
AcDbBlockReference
  2
_OPEN
 10
845.9428587658241
 20
4137.110429238729
 30
0.0
 41
60.0
 42
60.0
 43
60.0
 50
180.0
  0
TEXT
  5
8456
330
84F8
100
AcDbEntity
  8
3
 62
     0
100
AcDbText
 10
1630.94
 20
4052.81
 30
0.0
 40
90.0
  1
1930
100
AcDbText
  0
POINT
  5
8441
330
84F8
100
AcDbEntity
  8
DEFPOINTS
 62
     0
100
AcDbPoint
 10
2775.942858765823
 20
3790.954481859346
 30
0.0
  0
POINT
  5
8442
330
84F8
100
AcDbEntity
  8
DEFPOINTS
 62
     0
100
AcDbPoint
 10
845.9428587658239
 20
2207.454481859345
 30
0.0
  0
POINT
  5
8443
330
84F8
100
AcDbEntity
  8
DEFPOINTS
 62
     0
100
AcDbPoint
 10
845.9428587658241
 20
4137.110429238729
 30
0.0
  0
ENDBLK
  5
8195
330
84F8
100
AcDbEntity
  8
0
100
AcDbBlockEnd
  0
BLOCK
  5
84FB
330
84FA
100
AcDbEntity
  8
0
100
AcDbBlockBegin
  2
_DOT
 70
     0
 10
0.0
 20
0.0
 30
0.0
  3
_DOT
  1

  0
LWPOLYLINE
  5
8019
330
84FA
100
AcDbEntity
  8
0
  6
ByBlock
 62
     0
100
AcDbPolyline
 90
        2
 70
     1
 43
0.25
 10
-0.125
 20
0.0
 42
1.0
 10
0.125
 20
0.0
 42
1.0
  0
LINE
  5
801D
330
84FA
100
AcDbEntity
  8
0
  6
ByBlock
 62
     0
100
AcDbLine
 10
-0.25
 20
0.0
 30
0.0
 11
-1.0
 21
0.0
 31
0.0
  0
ENDBLK
  5
7FEF
330
84FA
100
AcDbEntity
  8
0
100
AcDbBlockEnd
  0
BLOCK
  5
84FD
330
84FC
100
AcDbEntity
  8
0
100
AcDbBlockBegin
  2
_NONE
 70
     0
 10
0.0
 20
0.0
 30
0.0
  3
_NONE
  1

  0
CIRCLE
  5
8242
330
84FC
100
AcDbEntity
  8
0
  6
ByBlock
 62
     0
100
AcDbCircle
 10
0.0
 20
0.0
 30
0.0
 40
0.25
  0
ENDBLK
  5
8243
330
84FC
100
AcDbEntity
  8
0
100
AcDbBlockEnd
  0
BLOCK
  5
84FF
330
84FE
100
AcDbEntity
  8
0
100
AcDbBlockBegin
  2
*D21
 70
     1
 10
0.0
 20
0.0
 30
0.0
  3
*D21
  1

  0
LINE
  5
82AD
330
84FE
100
AcDbEntity
  8
0
  6
ByBlock
 62
     0
100
AcDbLine
 10
845.9428587658239
 20
2077.454481859346
 30
0.0
 11
845.9428587658239
 21
1881.55148623422
 31
0.0
  0
LINE
  5
82AE
330
84FE
100
AcDbEntity
  8
0
  6
ByBlock
 62
     0
100
AcDbLine
 10
2155.942858765823
 20
2077.454481859346
 30
0.0
 11
2155.942858765823
 21
1881.55148623422
 31
0.0
  0
LINE
  5
82AF
330
84FE
100
AcDbEntity
  8
0
  6
ByBlock
 62
     0
100
AcDbLine
 10
905.942858765824
 20
1911.55148623422
 30
0.0
 11
2095.942858765821
 21
1911.55148623422
 31
0.0
  0
INSERT
  5
82B0
330
84FE
100
AcDbEntity
  8
0
  6
ByBlock
 62
     0
100
AcDbBlockReference
  2
_OPEN
 10
845.9428587658239
 20
1911.55148623422
 30
0.0
 41
60.0
 42
60.0
 43
60.0
 50
180.0
  0
INSERT
  5
82B1
330
84FE
100
AcDbEntity
  8
0
  6
ByBlock
 62
     0
100
AcDbBlockReference
  2
_OPEN
 10
2155.942858765823
 20
1911.55148623422
 30
0.0
 41
60.0
 42
60.0
 43
60.0
  0
TEXT
  5
82B2
330
84FE
100
AcDbEntity
  8
3
 62
     0
100
AcDbText
 10
1359.514287337251
 20
1941.55148623422
 30
0.0
 40
90.0
  1
1310
100
AcDbText
  0
POINT
  5
82B3
330
84FE
100
AcDbEntity
  8
DEFPOINTS
  6
ByBlock
 62
     0
100
AcDbPoint
 10
845.9428587658239
 20
2107.454481859345
 30
0.0
  0
POINT
  5
82B4
330
84FE
100
AcDbEntity
  8
DEFPOINTS
  6
ByBlock
 62
     0
100
AcDbPoint
 10
2155.942858765823
 20
2107.454481859345
 30
0.0
  0
POINT
  5
82B5
330
84FE
100
AcDbEntity
  8
DEFPOINTS
  6
ByBlock
 62
     0
100
AcDbPoint
 10
2155.942858765823
 20
1911.55148623422
 30
0.0
  0
ENDBLK
  5
82B6
330
84FE
100
AcDbEntity
  8
0
100
AcDbBlockEnd
  0
BLOCK
  5
8501
330
8500
100
AcDbEntity
  8
0
100
AcDbBlockBegin
  2
*D22
 70
     1
 10
0.0
 20
0.0
 30
0.0
  3
*D22
  1

  0
LINE
  5
82BA
330
8500
100
AcDbEntity
  8
0
  6
ByBlock
 62
     0
100
AcDbLine
 10
2155.942858765823
 20
2077.454481859346
 30
0.0
 11
2155.942858765823
 21
1881.55148623422
 31
0.0
  0
LINE
  5
82BB
330
8500
100
AcDbEntity
  8
0
  6
ByBlock
 62
     0
100
AcDbLine
 10
2715.942858765823
 20
2077.454481859346
 30
0.0
 11
2715.942858765823
 21
1881.55148623422
 31
0.0
  0
LINE
  5
82BC
330
8500
100
AcDbEntity
  8
0
  6
ByBlock
 62
     0
100
AcDbLine
 10
2215.942858765822
 20
1911.55148623422
 30
0.0
 11
2655.942858765823
 21
1911.55148623422
 31
0.0
  0
INSERT
  5
82BD
330
8500
100
AcDbEntity
  8
0
  6
ByBlock
 62
     0
100
AcDbBlockReference
  2
_OPEN
 10
2155.942858765823
 20
1911.55148623422
 30
0.0
 41
60.0
 42
60.0
 43
60.0
 50
180.0
  0
INSERT
  5
82BE
330
8500
100
AcDbEntity
  8
0
  6
ByBlock
 62
     0
100
AcDbBlockReference
  2
_OPEN
 10
2715.942858765823
 20
1911.55148623422
 30
0.0
 41
60.0
 42
60.0
 43
60.0
  0
TEXT
  5
82BF
330
8500
100
AcDbEntity
  8
3
 62
     0
100
AcDbText
 10
2320.228573051536
 20
1941.55148623422
 30
0.0
 40
90.0
  1
560
100
AcDbText
  0
POINT
  5
82C0
330
8500
100
AcDbEntity
  8
DEFPOINTS
  6
ByBlock
 62
     0
100
AcDbPoint
 10
2155.942858765823
 20
2107.454481859345
 30
0.0
  0
POINT
  5
82C1
330
8500
100
AcDbEntity
  8
DEFPOINTS
  6
ByBlock
 62
     0
100
AcDbPoint
 10
2715.942858765823
 20
2107.454481859345
 30
0.0
  0
POINT
  5
82C2
330
8500
100
AcDbEntity
  8
DEFPOINTS
  6
ByBlock
 62
     0
100
AcDbPoint
 10
2715.942858765823
 20
1911.55148623422
 30
0.0
  0
ENDBLK
  5
82C3
330
8500
100
AcDbEntity
  8
0
100
AcDbBlockEnd
  0
BLOCK
  5
8503
330
8502
100
AcDbEntity
  8
0
100
AcDbBlockBegin
  2
*D23
 70
     1
 10
0.0
 20
0.0
 30
0.0
  3
*D23
  1

  0
LINE
  5
82C7
330
8502
100
AcDbEntity
  8
0
  6
ByBlock
 62
     0
100
AcDbLine
 10
3904.111918802625
 20
2077.454481859346
 30
0.0
 11
3904.111918802625
 21
1881.55148623422
 31
0.0
  0
LINE
  5
82C8
330
8502
100
AcDbEntity
  8
0
  6
ByBlock
 62
     0
100
AcDbLine
 10
4666.111918802631
 20
2077.454481859346
 30
0.0
 11
4666.111918802631
 21
1881.55148623422
 31
0.0
  0
LINE
  5
82C9
330
8502
100
AcDbEntity
  8
0
  6
ByBlock
 62
     0
100
AcDbLine
 10
3964.111918802625
 20
1911.55148623422
 30
0.0
 11
4606.111918802631
 21
1911.55148623422
 31
0.0
  0
INSERT
  5
82CA
330
8502
100
AcDbEntity
  8
0
  6
ByBlock
 62
     0
100
AcDbBlockReference
  2
_OPEN
 10
3904.111918802625
 20
1911.55148623422
 30
0.0
 41
60.0
 42
60.0
 43
60.0
 50
180.0
  0
INSERT
  5
82CB
330
8502
100
AcDbEntity
  8
0
  6
ByBlock
 62
     0
100
AcDbBlockReference
  2
_OPEN
 10
4666.111918802631
 20
1911.55148623422
 30
0.0
 41
60.0
 42
60.0
 43
60.0
  0
TEXT
  5
82CC
330
8502
100
AcDbEntity
  8
3
 62
     0
100
AcDbText
 10
4169.397633088344
 20
1941.55148623422
 30
0.0
 40
90.0
  1
762
100
AcDbText
  0
POINT
  5
82CD
330
8502
100
AcDbEntity
  8
DEFPOINTS
  6
ByBlock
 62
     0
100
AcDbPoint
 10
3904.111918802625
 20
2107.454481859345
 30
0.0
  0
POINT
  5
82CE
330
8502
100
AcDbEntity
  8
DEFPOINTS
  6
ByBlock
 62
     0
100
AcDbPoint
 10
4666.111918802631
 20
2107.454481859345
 30
0.0
  0
POINT
  5
82CF
330
8502
100
AcDbEntity
  8
DEFPOINTS
  6
ByBlock
 62
     0
100
AcDbPoint
 10
4666.111918802631
 20
1911.55148623422
 30
0.0
  0
ENDBLK
  5
82D0
330
8502
100
AcDbEntity
  8
0
100
AcDbBlockEnd
  0
BLOCK
  5
8505
330
8504
100
AcDbEntity
  8
0
100
AcDbBlockBegin
  2
*D24
 70
     1
 10
0.0
 20
0.0
 30
0.0
  3
*D24
  1

  0
LINE
  5
82D4
330
8504
100
AcDbEntity
  8
0
  6
ByBlock
 62
     0
100
AcDbLine
 10
4666.111918802631
 20
2077.454481859346
 30
0.0
 11
4666.111918802631
 21
1881.55148623422
 31
0.0
  0
LINE
  5
82D5
330
8504
100
AcDbEntity
  8
0
  6
ByBlock
 62
     0
100
AcDbLine
 10
5279.111918802634
 20
2077.454481859346
 30
0.0
 11
5279.111918802634
 21
1881.55148623422
 31
0.0
  0
LINE
  5
82D6
330
8504
100
AcDbEntity
  8
0
  6
ByBlock
 62
     0
100
AcDbLine
 10
4726.111918802631
 20
1911.55148623422
 30
0.0
 11
5219.111918802633
 21
1911.55148623422
 31
0.0
  0
INSERT
  5
82D7
330
8504
100
AcDbEntity
  8
0
  6
ByBlock
 62
     0
100
AcDbBlockReference
  2
_OPEN
 10
4666.111918802631
 20
1911.55148623422
 30
0.0
 41
60.0
 42
60.0
 43
60.0
 50
180.0
  0
INSERT
  5
82D8
330
8504
100
AcDbEntity
  8
0
  6
ByBlock
 62
     0
100
AcDbBlockReference
  2
_OPEN
 10
5279.111918802634
 20
1911.55148623422
 30
0.0
 41
60.0
 42
60.0
 43
60.0
  0
TEXT
  5
82D9
330
8504
100
AcDbEntity
  8
3
 62
     0
100
AcDbText
 10
4865.469061659776
 20
1941.55148623422
 30
0.0
 40
90.0
  1
613
100
AcDbText
  0
POINT
  5
82DA
330
8504
100
AcDbEntity
  8
DEFPOINTS
  6
ByBlock
 62
     0
100
AcDbPoint
 10
4666.111918802631
 20
2107.454481859345
 30
0.0
  0
POINT
  5
82DB
330
8504
100
AcDbEntity
  8
DEFPOINTS
  6
ByBlock
 62
     0
100
AcDbPoint
 10
5279.111918802634
 20
2107.454481859345
 30
0.0
  0
POINT
  5
82DC
330
8504
100
AcDbEntity
  8
DEFPOINTS
  6
ByBlock
 62
     0
100
AcDbPoint
 10
5279.111918802634
 20
1911.55148623422
 30
0.0
  0
ENDBLK
  5
82DD
330
8504
100
AcDbEntity
  8
0
100
AcDbBlockEnd
  0
BLOCK
  5
8507
330
8506
100
AcDbEntity
  8
0
100
AcDbBlockBegin
  2
*D25
 70
     1
 10
0.0
 20
0.0
 30
0.0
  3
*D25
  1

  0
LINE
  5
82E1
330
8506
100
AcDbEntity
  8
0
  6
ByBlock
 62
     0
100
AcDbLine
 10
2745.942858765823
 20
2107.454481859345
 30
0.0
 11
3273.638334642561
 21
2107.454481859345
 31
0.0
  0
LINE
  5
82E2
330
8506
100
AcDbEntity
  8
0
  6
ByBlock
 62
     0
100
AcDbLine
 10
2820.942858765823
 20
3748.454481859345
 30
0.0
 11
3273.638334642561
 21
3748.454481859345
 31
0.0
  0
LINE
  5
82E3
330
8506
100
AcDbEntity
  8
0
  6
ByBlock
 62
     0
100
AcDbLine
 10
3243.638334642561
 20
2167.454481859345
 30
0.0
 11
3243.638334642561
 21
3688.454481859346
 31
0.0
  0
INSERT
  5
82E4
330
8506
100
AcDbEntity
  8
0
  6
ByBlock
 62
     0
100
AcDbBlockReference
  2
_OPEN
 10
3243.638334642561
 20
2107.454481859345
 30
0.0
 41
60.0
 42
60.0
 43
60.0
 50
270.0
  0
INSERT
  5
82E5
330
8506
100
AcDbEntity
  8
0
  6
ByBlock
 62
     0
100
AcDbBlockReference
  2
_OPEN
 10
3243.638334642561
 20
3748.454481859345
 30
0.0
 41
60.0
 42
60.0
 43
60.0
 50
90.0
  0
TEXT
  5
82E6
330
8506
100
AcDbEntity
  8
3
 62
     0
100
AcDbText
 10
3213.638334642561
 20
2797.24019614506
 30
0.0
 40
90.0
  1
1641
 50
90.0
100
AcDbText
  0
POINT
  5
82E7
330
8506
100
AcDbEntity
  8
DEFPOINTS
  6
ByBlock
 62
     0
100
AcDbPoint
 10
2715.942858765823
 20
2107.454481859345
 30
0.0
  0
POINT
  5
82E8
330
8506
100
AcDbEntity
  8
DEFPOINTS
  6
ByBlock
 62
     0
100
AcDbPoint
 10
2790.942858765823
 20
3748.454481859345
 30
0.0
  0
POINT
  5
82E9
330
8506
100
AcDbEntity
  8
DEFPOINTS
  6
ByBlock
 62
     0
100
AcDbPoint
 10
3243.638334642561
 20
3748.454481859345
 30
0.0
  0
ENDBLK
  5
82EA
330
8506
100
AcDbEntity
  8
0
100
AcDbBlockEnd
  0
BLOCK
  5
850B
330
850A
100
AcDbEntity
  8
0
100
AcDbBlockBegin
  2
*D26
 70
     1
 10
0.0
 20
0.0
 30
0.0
  3
*D26
  1

  0
LINE
  5
850D
330
850A
100
AcDbEntity
  8
3
 62
     0
370
    -2
100
AcDbLine
 10
4106.111918802633
 20
3778.454481859345
 30
0.0
 11
4106.111918802633
 21
4024.011166092808
 31
0.0
  0
LINE
  5
850E
330
850A
100
AcDbEntity
  8
3
 62
     0
370
    -2
100
AcDbLine
 10
5226.111918802633
 20
3778.454481859345
 30
0.0
 11
5226.111918802633
 21
4024.011166092808
 31
0.0
  0
LINE
  5
850F
330
850A
100
AcDbEntity
  8
3
 62
     0
370
    -2
100
AcDbLine
 10
4166.111918802633
 20
3994.011166092809
 30
0.0
 11
5166.111918802633
 21
3994.011166092809
 31
0.0
  0
INSERT
  5
8510
330
850A
100
AcDbEntity
  8
3
 62
     0
370
    -2
100
AcDbBlockReference
  2
_OPEN
 10
4106.111918802633
 20
3994.011166092809
 30
0.0
 41
60.0
 42
60.0
 43
60.0
 50
180.0
  0
INSERT
  5
8511
330
850A
100
AcDbEntity
  8
3
 62
     0
370
    -2
100
AcDbBlockReference
  2
_OPEN
 10
5226.111918802633
 20
3994.011166092809
 30
0.0
 41
60.0
 42
60.0
 43
60.0
  0
MTEXT
  5
8512
330
850A
100
AcDbEntity
  8
3
 62
     0
100
AcDbMText
 10
4666.111918802633
 20
4069.011166092809
 30
0.0
 40
90.0
 41
0.0
 71
     5
 72
     1
  1
\A1;1120
 73
     1
 44
1.0
1001
ACAD
1000
MTEXTBEGIN
1070
    73
1070
     1
1070
    44
1040
1.0
1070
    74
1070
     0
1000
MTEXTEND
  0
POINT
  5
8513
330
850A
100
AcDbEntity
  8
DEFPOINTS
 62
     0
100
AcDbPoint
 10
4106.111918802633
 20
3748.454481859345
 30
0.0
  0
POINT
  5
8514
330
850A
100
AcDbEntity
  8
DEFPOINTS
 62
     0
100
AcDbPoint
 10
5226.111918802633
 20
3748.454481859345
 30
0.0
  0
POINT
  5
8515
330
850A
100
AcDbEntity
  8
DEFPOINTS
 62
     0
100
AcDbPoint
 10
5226.111918802633
 20
3994.011166092809
 30
0.0
  0
ENDBLK
  5
850C
330
850A
100
AcDbEntity
  8
0
100
AcDbBlockEnd
  0
BLOCK
  5
8518
330
8517
100
AcDbEntity
  8
0
100
AcDbBlockBegin
  2
*D27
 70
     1
 10
0.0
 20
0.0
 30
0.0
  3
*D27
  1

  0
LINE
  5
8583
330
8517
100
AcDbEntity
  8
3
 62
     0
370
    -2
100
AcDbLine
 10
3716.111918802631
 20
3097.454481859346
 30
0.0
 11
3716.111918802631
 21
4214.503592194971
 31
0.0
  0
LINE
  5
8584
330
8517
100
AcDbEntity
  8
3
 62
     0
370
    -2
100
AcDbLine
 10
4666.111918802633
 20
4144.011166092808
 30
0.0
 11
4666.111918802633
 21
4214.503592194971
 31
0.0
  0
LINE
  5
8585
330
8517
100
AcDbEntity
  8
3
 62
     0
370
    -2
100
AcDbLine
 10
3776.111918802631
 20
4184.50359219497
 30
0.0
 11
4606.111918802633
 21
4184.50359219497
 31
0.0
  0
INSERT
  5
8586
330
8517
100
AcDbEntity
  8
3
 62
     0
370
    -2
100
AcDbBlockReference
  2
_OPEN
 10
3716.111918802631
 20
4184.50359219497
 30
0.0
 41
60.0
 42
60.0
 43
60.0
 50
180.0
  0
INSERT
  5
8587
330
8517
100
AcDbEntity
  8
3
 62
     0
370
    -2
100
AcDbBlockReference
  2
_OPEN
 10
4666.111918802633
 20
4184.50359219497
 30
0.0
 41
60.0
 42
60.0
 43
60.0
  0
MTEXT
  5
8588
330
8517
100
AcDbEntity
  8
3
 62
     0
100
AcDbMText
 10
4191.111918802632
 20
4283.075020766399
 30
0.0
 40
90.0
 41
0.0
 71
     5
 72
     1
  1
\A1;(950)
 73
     1
 44
1.0
1001
ACAD
1000
MTEXTBEGIN
1070
    73
1070
     1
1070
    44
1040
1.0
1070
    74
1070
     0
1000
MTEXTEND
  0
POINT
  5
8589
330
8517
100
AcDbEntity
  8
DEFPOINTS
 62
     0
100
AcDbPoint
 10
3716.111918802631
 20
3067.454481859346
 30
0.0
  0
POINT
  5
858A
330
8517
100
AcDbEntity
  8
DEFPOINTS
 62
     0
100
AcDbPoint
 10
4666.111918802633
 20
4114.011166092808
 30
0.0
  0
POINT
  5
858B
330
8517
100
AcDbEntity
  8
DEFPOINTS
 62
     0
100
AcDbPoint
 10
4666.111918802633
 20
4184.50359219497
 30
0.0
  0
ENDBLK
  5
8519
330
8517
100
AcDbEntity
  8
0
100
AcDbBlockEnd
  0
BLOCK
  5
8525
330
8524
100
AcDbEntity
  8
0
100
AcDbBlockBegin
  2
*D28
 70
     1
 10
0.0
 20
0.0
 30
0.0
  3
*D28
  1

  0
LINE
  5
8628
330
8524
100
AcDbEntity
  8
3
 62
     0
370
    -2
100
AcDbLine
 10
4666.111918802633
 20
4144.011166092808
 30
0.0
 11
4666.111918802633
 21
4214.503592194971
 31
0.0
  0
LINE
  5
8629
330
8524
100
AcDbEntity
  8
3
 62
     0
370
    -2
100
AcDbLine
 10
5346.111918802631
 20
2777.954481859346
 30
0.0
 11
5346.111918802631
 21
4214.503592194971
 31
0.0
  0
LINE
  5
862A
330
8524
100
AcDbEntity
  8
3
 62
     0
370
    -2
100
AcDbLine
 10
4726.111918802633
 20
4184.50359219497
 30
0.0
 11
5286.111918802632
 21
4184.50359219497
 31
0.0
  0
INSERT
  5
862B
330
8524
100
AcDbEntity
  8
3
 62
     0
370
    -2
100
AcDbBlockReference
  2
_OPEN
 10
4666.111918802633
 20
4184.50359219497
 30
0.0
 41
60.0
 42
60.0
 43
60.0
 50
180.0
  0
INSERT
  5
862C
330
8524
100
AcDbEntity
  8
3
 62
     0
370
    -2
100
AcDbBlockReference
  2
_OPEN
 10
5346.111918802631
 20
4184.50359219497
 30
0.0
 41
60.0
 42
60.0
 43
60.0
  0
MTEXT
  5
862D
330
8524
100
AcDbEntity
  8
3
 62
     0
100
AcDbMText
 10
5006.111918802632
 20
4283.075020766399
 30
0.0
 40
90.0
 41
0.0
 71
     5
 72
     1
  1
\A1;(680)
 73
     1
 44
1.0
1001
ACAD
1000
MTEXTBEGIN
1070
    73
1070
     1
1070
    44
1040
1.0
1070
    74
1070
     0
1000
MTEXTEND
  0
POINT
  5
862E
330
8524
100
AcDbEntity
  8
DEFPOINTS
 62
     0
100
AcDbPoint
 10
4666.111918802633
 20
4114.011166092808
 30
0.0
  0
POINT
  5
862F
330
8524
100
AcDbEntity
  8
DEFPOINTS
 62
     0
100
AcDbPoint
 10
5346.111918802631
 20
2747.954481859345
 30
0.0
  0
POINT
  5
8630
330
8524
100
AcDbEntity
  8
DEFPOINTS
 62
     0
100
AcDbPoint
 10
5346.111918802631
 20
4184.50359219497
 30
0.0
  0
ENDBLK
  5
8526
330
8524
100
AcDbEntity
  8
0
100
AcDbBlockEnd
  0
BLOCK
  5
8536
330
8535
100
AcDbEntity
  8
0
100
AcDbBlockBegin
  2
*D29
 70
     1
 10
0.0
 20
0.0
 30
0.0
  3
*D29
  1

  0
LINE
  5
863A
330
8535
100
AcDbEntity
  8
3
 62
     0
370
    -2
100
AcDbLine
 10
5256.111918802633
 20
3262.454481859346
 30
0.0
 11
5568.869222431247
 21
3262.454481859346
 31
0.0
  0
LINE
  5
863B
330
8535
100
AcDbEntity
  8
3
 62
     0
370
    -2
100
AcDbLine
 10
5256.111918802633
 20
2312.454481859346
 30
0.0
 11
5568.869222431247
 21
2312.454481859346
 31
0.0
  0
LINE
  5
863C
330
8535
100
AcDbEntity
  8
3
 62
     0
370
    -2
100
AcDbLine
 10
5538.869222431247
 20
3202.454481859347
 30
0.0
 11
5538.869222431247
 21
2372.454481859346
 31
0.0
  0
INSERT
  5
863D
330
8535
100
AcDbEntity
  8
3
 62
     0
370
    -2
100
AcDbBlockReference
  2
_OPEN
 10
5538.869222431247
 20
3262.454481859346
 30
0.0
 41
60.0
 42
60.0
 43
60.0
 50
90.0
  0
INSERT
  5
863E
330
8535
100
AcDbEntity
  8
3
 62
     0
370
    -2
100
AcDbBlockReference
  2
_OPEN
 10
5538.869222431247
 20
2312.454481859346
 30
0.0
 41
60.0
 42
60.0
 43
60.0
 50
270.0
  0
MTEXT
  5
863F
330
8535
100
AcDbEntity
  8
3
 62
     0
100
AcDbMText
 10
5463.869222431246
 20
2787.454481859347
 30
0.0
 40
90.0
 41
0.0
 71
     5
 72
     1
  1
\A1;\U+03C6950
 11
0.0000000000000001
 21
1.0
 31
0.0
 73
     1
 44
1.0
1001
ACAD
1000
MTEXTBEGIN
1070
    73
1070
     1
1070
    44
1040
1.0
1070
    74
1070
     0
1000
MTEXTEND
  0
POINT
  5
8640
330
8535
100
AcDbEntity
  8
DEFPOINTS
 62
     0
100
AcDbPoint
 10
5226.111918802633
 20
3262.454481859346
 30
0.0
  0
POINT
  5
8641
330
8535
100
AcDbEntity
  8
DEFPOINTS
 62
     0
100
AcDbPoint
 10
5226.111918802633
 20
2312.454481859346
 30
0.0
  0
POINT
  5
8642
330
8535
100
AcDbEntity
  8
DEFPOINTS
 62
     0
100
AcDbPoint
 10
5538.869222431247
 20
2312.454481859346
 30
0.0
  0
ENDBLK
  5
8537
330
8535
100
AcDbEntity
  8
0
100
AcDbBlockEnd
  0
BLOCK
  5
858D
330
858C
100
AcDbEntity
  8
0
100
AcDbBlockBegin
  2
*D30
 70
     1
 10
0.0
 20
0.0
 30
0.0
  3
*D30
  1

  0
LINE
  5
858F
330
858C
100
AcDbEntity
  8
3
 62
     0
370
    -2
100
AcDbLine
 10
845.9428587658239
 20
4803.57894309327
 30
0.0
 11
845.9428587658239
 21
4402.906783611198
 31
0.0
  0
LINE
  5
8590
330
858C
100
AcDbEntity
  8
3
 62
     0
370
    -2
100
AcDbLine
 10
2715.942858765823
 20
4803.57894309327
 30
0.0
 11
2715.942858765823
 21
4402.906783611198
 31
0.0
  0
LINE
  5
8591
330
858C
100
AcDbEntity
  8
3
 62
     0
370
    -2
100
AcDbLine
 10
851.3428587658237
 20
4408.306783611197
 30
0.0
 11
1769.242858765823
 21
4408.306783611197
 31
0.0
  0
LINE
  5
8592
330
858C
100
AcDbEntity
  8
3
 62
     0
370
    -2
100
AcDbLine
 10
2710.542858765823
 20
4408.306783611197
 30
0.0
 11
1792.642858765823
 21
4408.306783611197
 31
0.0
  0
SOLID
  5
8593
330
858C
100
AcDbEntity
  8
3
 62
     0
100
AcDbTrace
 10
851.3428587658237
 20
4409.206783611197
 30
0.0
 11
851.3428587658237
 21
4407.406783611198
 31
0.0
 12
845.9428587658239
 22
4408.306783611197
 32
0.0
 13
845.9428587658239
 23
4408.306783611197
 33
0.0
  0
SOLID
  5
8594
330
858C
100
AcDbEntity
  8
3
 62
     0
100
AcDbTrace
 10
2710.542858765823
 20
4409.206783611197
 30
0.0
 11
2710.542858765823
 21
4407.406783611198
 31
0.0
 12
2715.942858765823
 22
4408.306783611197
 32
0.0
 13
2715.942858765823
 23
4408.306783611197
 33
0.0
  0
MTEXT
  5
8595
330
858C
100
AcDbEntity
  8
3
 62
     0
100
AcDbMText
 10
1780.942858765823
 20
4408.306783611197
 30
0.0
 40
5.399999999999999
 41
0.0
 71
     5
 72
     1
  1
\A1;1870
 73
     1
 44
1.0
1001
ACAD
1000
MTEXTBEGIN
1070
    73
1070
     1
1070
    44
1040
1.0
1070
    74
1070
     0
1000
MTEXTEND
  0
POINT
  5
8596
330
858C
100
AcDbEntity
  8
DEFPOINTS
 62
     0
100
AcDbPoint
 10
845.9428587658239
 20
4805.453943093271
 30
0.0
  0
POINT
  5
8597
330
858C
100
AcDbEntity
  8
DEFPOINTS
 62
     0
100
AcDbPoint
 10
2715.942858765823
 20
4805.453943093271
 30
0.0
  0
POINT
  5
8598
330
858C
100
AcDbEntity
  8
DEFPOINTS
 62
     0
100
AcDbPoint
 10
2715.942858765823
 20
4408.306783611197
 30
0.0
  0
ENDBLK
  5
858E
330
858C
100
AcDbEntity
  8
0
100
AcDbBlockEnd
  0
BLOCK
  5
859B
330
859A
100
AcDbEntity
  8
0
100
AcDbBlockBegin
  2
*D31
 70
     1
 10
0.0
 20
0.0
 30
0.0
  3
*D31
  1

  0
LINE
  5
859D
330
859A
100
AcDbEntity
  8
3
 62
     0
370
    -2
100
AcDbLine
 10
845.9428587658239
 20
5635.453943093273
 30
0.0
 11
845.9428587658239
 21
6399.351203603753
 31
0.0
  0
LINE
  5
859E
330
859A
100
AcDbEntity
  8
3
 62
     0
370
    -2
100
AcDbLine
 10
1595.942858765823
 20
6210.453943093272
 30
0.0
 11
1595.942858765823
 21
6399.351203603753
 31
0.0
  0
LINE
  5
859F
330
859A
100
AcDbEntity
  8
3
 62
     0
370
    -2
100
AcDbLine
 10
905.9428587658238
 20
6369.351203603754
 30
0.0
 11
1535.942858765823
 21
6369.351203603754
 31
0.0
  0
INSERT
  5
85A0
330
859A
100
AcDbEntity
  8
3
 62
     0
370
    -2
100
AcDbBlockReference
  2
_OPEN
 10
845.9428587658239
 20
6369.351203603754
 30
0.0
 41
60.0
 42
60.0
 43
60.0
 50
180.0
  0
INSERT
  5
85A1
330
859A
100
AcDbEntity
  8
3
 62
     0
370
    -2
100
AcDbBlockReference
  2
_OPEN
 10
1595.942858765823
 20
6369.351203603754
 30
0.0
 41
60.0
 42
60.0
 43
60.0
  0
MTEXT
  5
85A2
330
859A
100
AcDbEntity
  8
3
 62
     0
100
AcDbMText
 10
1220.942858765823
 20
6444.351203603753
 30
0.0
 40
90.0
 41
0.0
 71
     5
 72
     1
  1
\A1;750
 73
     1
 44
1.0
1001
ACAD
1000
MTEXTBEGIN
1070
    73
1070
     1
1070
    44
1040
1.0
1070
    74
1070
     0
1000
MTEXTEND
  0
POINT
  5
85A3
330
859A
100
AcDbEntity
  8
DEFPOINTS
 62
     0
100
AcDbPoint
 10
845.9428587658239
 20
5605.453943093273
 30
0.0
  0
POINT
  5
85A4
330
859A
100
AcDbEntity
  8
DEFPOINTS
 62
     0
100
AcDbPoint
 10
1595.942858765823
 20
6180.453943093272
 30
0.0
  0
POINT
  5
85A5
330
859A
100
AcDbEntity
  8
DEFPOINTS
 62
     0
100
AcDbPoint
 10
1595.942858765823
 20
6369.351203603754
 30
0.0
  0
ENDBLK
  5
859C
330
859A
100
AcDbEntity
  8
0
100
AcDbBlockEnd
  0
BLOCK
  5
85A8
330
85A7
100
AcDbEntity
  8
0
100
AcDbBlockBegin
  2
*D32
 70
     1
 10
0.0
 20
0.0
 30
0.0
  3
*D32
  1

  0
LINE
  5
85AA
330
85A7
100
AcDbEntity
  8
3
 62
     0
370
    -2
100
AcDbLine
 10
1595.942858765823
 20
6210.453943093272
 30
0.0
 11
1595.942858765823
 21
6399.351203603753
 31
0.0
  0
LINE
  5
85AB
330
85A7
100
AcDbEntity
  8
3
 62
     0
370
    -2
100
AcDbLine
 10
2715.942858765823
 20
6210.453943093272
 30
0.0
 11
2715.942858765823
 21
6399.351203603753
 31
0.0
  0
LINE
  5
85AC
330
85A7
100
AcDbEntity
  8
3
 62
     0
370
    -2
100
AcDbLine
 10
1655.942858765823
 20
6369.351203603754
 30
0.0
 11
2655.942858765823
 21
6369.351203603754
 31
0.0
  0
INSERT
  5
85AD
330
85A7
100
AcDbEntity
  8
3
 62
     0
370
    -2
100
AcDbBlockReference
  2
_OPEN
 10
1595.942858765823
 20
6369.351203603754
 30
0.0
 41
60.0
 42
60.0
 43
60.0
 50
180.0
  0
INSERT
  5
85AE
330
85A7
100
AcDbEntity
  8
3
 62
     0
370
    -2
100
AcDbBlockReference
  2
_OPEN
 10
2715.942858765823
 20
6369.351203603754
 30
0.0
 41
60.0
 42
60.0
 43
60.0
  0
MTEXT
  5
85AF
330
85A7
100
AcDbEntity
  8
3
 62
     0
100
AcDbMText
 10
2155.942858765823
 20
6444.351203603753
 30
0.0
 40
90.0
 41
0.0
 71
     5
 72
     1
  1
\A1;1120
 73
     1
 44
1.0
1001
ACAD
1000
MTEXTBEGIN
1070
    73
1070
     1
1070
    44
1040
1.0
1070
    74
1070
     0
1000
MTEXTEND
  0
POINT
  5
85B0
330
85A7
100
AcDbEntity
  8
DEFPOINTS
 62
     0
100
AcDbPoint
 10
1595.942858765823
 20
6180.453943093272
 30
0.0
  0
POINT
  5
85B1
330
85A7
100
AcDbEntity
  8
DEFPOINTS
 62
     0
100
AcDbPoint
 10
2715.942858765823
 20
6180.453943093272
 30
0.0
  0
POINT
  5
85B2
330
85A7
100
AcDbEntity
  8
DEFPOINTS
 62
     0
100
AcDbPoint
 10
2715.942858765823
 20
6369.351203603754
 30
0.0
  0
ENDBLK
  5
85A9
330
85A7
100
AcDbEntity
  8
0
100
AcDbBlockEnd
  0
BLOCK
  5
85B5
330
85B4
100
AcDbEntity
  8
0
100
AcDbBlockBegin
  2
*D33
 70
     1
 10
0.0
 20
0.0
 30
0.0
  3
*D33
  1

  0
LINE
  5
85B7
330
85B4
100
AcDbEntity
  8
3
 62
     0
370
    -2
100
AcDbLine
 10
2745.942858765823
 20
6180.453943093272
 30
0.0
 11
3095.518578294673
 21
6180.453943093272
 31
0.0
  0
LINE
  5
85B8
330
85B4
100
AcDbEntity
  8
3
 62
     0
370
    -2
100
AcDbLine
 10
2745.942858765823
 20
4805.453943093271
 30
0.0
 11
3095.518578294672
 21
4805.453943093271
 31
0.0
  0
LINE
  5
85B9
330
85B4
100
AcDbEntity
  8
3
 62
     0
370
    -2
100
AcDbLine
 10
3065.518578294673
 20
6120.453943093272
 30
0.0
 11
3065.518578294672
 21
4865.453943093271
 31
0.0
  0
INSERT
  5
85BA
330
85B4
100
AcDbEntity
  8
3
 62
     0
370
    -2
100
AcDbBlockReference
  2
_OPEN
 10
3065.518578294673
 20
6180.453943093272
 30
0.0
 41
60.0
 42
60.0
 43
60.0
 50
90.0
  0
INSERT
  5
85BB
330
85B4
100
AcDbEntity
  8
3
 62
     0
370
    -2
100
AcDbBlockReference
  2
_OPEN
 10
3065.518578294672
 20
4805.453943093271
 30
0.0
 41
60.0
 42
60.0
 43
60.0
 50
270.0
  0
MTEXT
  5
85BC
330
85B4
100
AcDbEntity
  8
3
 62
     0
100
AcDbMText
 10
2990.518578294672
 20
5492.953943093272
 30
0.0
 40
90.0
 41
0.0
 71
     5
 72
     1
  1
\A1;1375
 11
0.0000000000000001
 21
1.0
 31
0.0
 73
     1
 44
1.0
1001
ACAD
1000
MTEXTBEGIN
1070
    73
1070
     1
1070
    44
1040
1.0
1070
    74
1070
     0
1000
MTEXTEND
  0
POINT
  5
85BD
330
85B4
100
AcDbEntity
  8
DEFPOINTS
 62
     0
100
AcDbPoint
 10
2715.942858765823
 20
6180.453943093272
 30
0.0
  0
POINT
  5
85BE
330
85B4
100
AcDbEntity
  8
DEFPOINTS
 62
     0
100
AcDbPoint
 10
2715.942858765823
 20
4805.453943093271
 30
0.0
  0
POINT
  5
85BF
330
85B4
100
AcDbEntity
  8
DEFPOINTS
 62
     0
100
AcDbPoint
 10
3065.518578294672
 20
4805.453943093271
 30
0.0
  0
ENDBLK
  5
85B6
330
85B4
100
AcDbEntity
  8
0
100
AcDbBlockEnd
  0
BLOCK
  5
85C2
330
85C1
100
AcDbEntity
  8
0
100
AcDbBlockBegin
  2
*D34
 70
     1
 10
0.0
 20
0.0
 30
0.0
  3
*D34
  1

  0
LINE
  5
85C4
330
85C1
100
AcDbEntity
  8
3
 62
     0
370
    -2
100
AcDbLine
 10
845.942858765823
 20
4775.45394309327
 30
0.0
 11
845.942858765823
 21
4379.270515068969
 31
0.0
  0
LINE
  5
85C5
330
85C1
100
AcDbEntity
  8
3
 62
     0
370
    -2
100
AcDbLine
 10
2715.942858765823
 20
4775.45394309327
 30
0.0
 11
2715.942858765823
 21
4379.270515068969
 31
0.0
  0
LINE
  5
85C6
330
85C1
100
AcDbEntity
  8
3
 62
     0
370
    -2
100
AcDbLine
 10
905.942858765823
 20
4409.270515068969
 30
0.0
 11
2655.942858765823
 21
4409.270515068969
 31
0.0
  0
INSERT
  5
85C7
330
85C1
100
AcDbEntity
  8
3
 62
     0
370
    -2
100
AcDbBlockReference
  2
_OPEN
 10
845.942858765823
 20
4409.270515068969
 30
0.0
 41
60.0
 42
60.0
 43
60.0
 50
180.0
  0
INSERT
  5
85C8
330
85C1
100
AcDbEntity
  8
3
 62
     0
370
    -2
100
AcDbBlockReference
  2
_OPEN
 10
2715.942858765823
 20
4409.270515068969
 30
0.0
 41
60.0
 42
60.0
 43
60.0
  0
MTEXT
  5
85C9
330
85C1
100
AcDbEntity
  8
3
 62
     0
100
AcDbMText
 10
1780.942858765823
 20
4484.270515068969
 30
0.0
 40
90.0
 41
0.0
 71
     5
 72
     1
  1
\A1;1870
 73
     1
 44
1.0
1001
ACAD
1000
MTEXTBEGIN
1070
    73
1070
     1
1070
    44
1040
1.0
1070
    74
1070
     0
1000
MTEXTEND
  0
POINT
  5
85CA
330
85C1
100
AcDbEntity
  8
DEFPOINTS
 62
     0
100
AcDbPoint
 10
845.942858765823
 20
4805.453943093271
 30
0.0
  0
POINT
  5
85CB
330
85C1
100
AcDbEntity
  8
DEFPOINTS
 62
     0
100
AcDbPoint
 10
2715.942858765823
 20
4805.453943093271
 30
0.0
  0
POINT
  5
85CC
330
85C1
100
AcDbEntity
  8
DEFPOINTS
 62
     0
100
AcDbPoint
 10
2715.942858765823
 20
4409.270515068969
 30
0.0
  0
ENDBLK
  5
85C3
330
85C1
100
AcDbEntity
  8
0
100
AcDbBlockEnd
  0
BLOCK
  5
85CF
330
85CE
100
AcDbEntity
  8
0
100
AcDbBlockBegin
  2
*D35
 70
     1
 10
0.0
 20
0.0
 30
0.0
  3
*D35
  1

  0
LINE
  5
85D1
330
85CE
100
AcDbEntity
  8
3
 62
     0
370
    -2
100
AcDbLine
 10
815.9428587658229
 20
4805.453943093272
 30
0.0
 11
596.5959386067623
 21
4805.453943093272
 31
0.0
  0
LINE
  5
85D2
330
85CE
100
AcDbEntity
  8
3
 62
     0
370
    -2
100
AcDbLine
 10
815.9428587658238
 20
5605.453943093273
 30
0.0
 11
596.5959386067626
 21
5605.453943093273
 31
0.0
  0
LINE
  5
85D3
330
85CE
100
AcDbEntity
  8
3
 62
     0
370
    -2
100
AcDbLine
 10
626.5959386067625
 20
4865.453943093272
 30
0.0
 11
626.5959386067626
 21
5545.453943093272
 31
0.0
  0
INSERT
  5
85D4
330
85CE
100
AcDbEntity
  8
3
 62
     0
370
    -2
100
AcDbBlockReference
  2
_OPEN
 10
626.5959386067623
 20
4805.453943093272
 30
0.0
 41
60.0
 42
60.0
 43
60.0
 50
270.0
  0
INSERT
  5
85D5
330
85CE
100
AcDbEntity
  8
3
 62
     0
370
    -2
100
AcDbBlockReference
  2
_OPEN
 10
626.5959386067626
 20
5605.453943093273
 30
0.0
 41
60.0
 42
60.0
 43
60.0
 50
90.0
  0
MTEXT
  5
85D6
330
85CE
100
AcDbEntity
  8
3
 62
     0
100
AcDbMText
 10
551.5959386067617
 20
5205.453943093273
 30
0.0
 40
90.0
 41
0.0
 71
     5
 72
     1
  1
\A1;800
 11
0.0000000000000001
 21
1.0
 31
0.0
 73
     1
 44
1.0
1001
ACAD
1000
MTEXTBEGIN
1070
    73
1070
     1
1070
    44
1040
1.0
1070
    74
1070
     0
1000
MTEXTEND
  0
POINT
  5
85D7
330
85CE
100
AcDbEntity
  8
DEFPOINTS
 62
     0
100
AcDbPoint
 10
845.942858765823
 20
4805.453943093272
 30
0.0
  0
POINT
  5
85D8
330
85CE
100
AcDbEntity
  8
DEFPOINTS
 62
     0
100
AcDbPoint
 10
845.9428587658239
 20
5605.453943093273
 30
0.0
  0
POINT
  5
85D9
330
85CE
100
AcDbEntity
  8
DEFPOINTS
 62
     0
100
AcDbPoint
 10
626.5959386067626
 20
5605.453943093273
 30
0.0
  0
ENDBLK
  5
85D0
330
85CE
100
AcDbEntity
  8
0
100
AcDbBlockEnd
  0
BLOCK
  5
85DC
330
85DB
100
AcDbEntity
  8
0
100
AcDbBlockBegin
  2
*D36
 70
     1
 10
0.0
 20
0.0
 30
0.0
  3
*D36
  1

  0
LINE
  5
85DE
330
85DB
100
AcDbEntity
  8
3
 62
     0
370
    -2
100
AcDbLine
 10
2775.942858765823
 20
3820.954481859346
 30
0.0
 11
2775.942858765823
 21
3937.417695263248
 31
0.0
  0
LINE
  5
85DF
330
85DB
100
AcDbEntity
  8
3
 62
     0
370
    -2
100
AcDbLine
 10
2155.942858765823
 20
3819.416924202903
 30
0.0
 11
2155.942858765823
 21
3937.417695263248
 31
0.0
  0
LINE
  5
85E0
330
85DB
100
AcDbEntity
  8
3
 62
     0
370
    -2
100
AcDbLine
 10
2715.942858765823
 20
3907.417695263248
 30
0.0
 11
2215.942858765822
 21
3907.417695263248
 31
0.0
  0
INSERT
  5
85E1
330
85DB
100
AcDbEntity
  8
3
 62
     0
370
    -2
100
AcDbBlockReference
  2
_OPEN
 10
2775.942858765823
 20
3907.417695263248
 30
0.0
 41
60.0
 42
60.0
 43
60.0
  0
INSERT
  5
85E2
330
85DB
100
AcDbEntity
  8
3
 62
     0
370
    -2
100
AcDbBlockReference
  2
_OPEN
 10
2155.942858765823
 20
3907.417695263248
 30
0.0
 41
60.0
 42
60.0
 43
60.0
 50
180.0
  0
MTEXT
  5
85E3
330
85DB
100
AcDbEntity
  8
3
 62
     0
100
AcDbMText
 10
2465.942858765823
 20
3982.417695263248
 30
0.0
 40
90.0
 41
0.0
 71
     5
 72
     1
  1
\A1;620
 73
     1
 44
1.0
1001
ACAD
1000
MTEXTBEGIN
1070
    73
1070
     1
1070
    44
1040
1.0
1070
    74
1070
     0
1000
MTEXTEND
  0
POINT
  5
85E4
330
85DB
100
AcDbEntity
  8
DEFPOINTS
 62
     0
100
AcDbPoint
 10
2775.942858765823
 20
3790.954481859346
 30
0.0
  0
POINT
  5
85E5
330
85DB
100
AcDbEntity
  8
DEFPOINTS
 62
     0
100
AcDbPoint
 10
2155.942858765823
 20
3789.416924202903
 30
0.0
  0
POINT
  5
85E6
330
85DB
100
AcDbEntity
  8
DEFPOINTS
 62
     0
100
AcDbPoint
 10
2155.942858765823
 20
3907.417695263248
 30
0.0
  0
ENDBLK
  5
85DD
330
85DB
100
AcDbEntity
  8
0
100
AcDbBlockEnd
  0
BLOCK
  5
85E9
330
85E8
100
AcDbEntity
  8
0
100
AcDbBlockBegin
  2
*D37
 70
     1
 10
0.0
 20
0.0
 30
0.0
  3
*D37
  1

  0
LINE
  5
85EB
330
85E8
100
AcDbEntity
  8
3
 62
     0
370
    -2
100
AcDbLine
 10
2155.942858765823
 20
3819.416924202903
 30
0.0
 11
2155.942858765823
 21
3937.417695263248
 31
0.0
  0
LINE
  5
85EC
330
85E8
100
AcDbEntity
  8
3
 62
     0
370
    -2
100
AcDbLine
 10
1378.942858765823
 20
2884.454481859345
 30
0.0
 11
1378.942858765823
 21
3937.417695263248
 31
0.0
  0
LINE
  5
85ED
330
85E8
100
AcDbEntity
  8
3
 62
     0
370
    -2
100
AcDbLine
 10
2095.942858765823
 20
3907.417695263248
 30
0.0
 11
1438.942858765823
 21
3907.417695263248
 31
0.0
  0
INSERT
  5
85EE
330
85E8
100
AcDbEntity
  8
3
 62
     0
370
    -2
100
AcDbBlockReference
  2
_OPEN
 10
2155.942858765823
 20
3907.417695263248
 30
0.0
 41
60.0
 42
60.0
 43
60.0
  0
INSERT
  5
85EF
330
85E8
100
AcDbEntity
  8
3
 62
     0
370
    -2
100
AcDbBlockReference
  2
_OPEN
 10
1378.942858765823
 20
3907.417695263248
 30
0.0
 41
60.0
 42
60.0
 43
60.0
 50
180.0
  0
MTEXT
  5
85F0
330
85E8
100
AcDbEntity
  8
3
 62
     0
100
AcDbMText
 10
1767.442858765823
 20
3982.417695263248
 30
0.0
 40
90.0
 41
0.0
 71
     5
 72
     1
  1
\A1;777
 73
     1
 44
1.0
1001
ACAD
1000
MTEXTBEGIN
1070
    73
1070
     1
1070
    44
1040
1.0
1070
    74
1070
     0
1000
MTEXTEND
  0
POINT
  5
85F1
330
85E8
100
AcDbEntity
  8
DEFPOINTS
 62
     0
100
AcDbPoint
 10
2155.942858765823
 20
3789.416924202903
 30
0.0
  0
POINT
  5
85F2
330
85E8
100
AcDbEntity
  8
DEFPOINTS
 62
     0
100
AcDbPoint
 10
1378.942858765823
 20
2854.454481859345
 30
0.0
  0
POINT
  5
85F3
330
85E8
100
AcDbEntity
  8
DEFPOINTS
 62
     0
100
AcDbPoint
 10
1378.942858765823
 20
3907.417695263248
 30
0.0
  0
ENDBLK
  5
85EA
330
85E8
100
AcDbEntity
  8
0
100
AcDbBlockEnd
  0
BLOCK
  5
85F6
330
85F5
100
AcDbEntity
  8
0
100
AcDbBlockBegin
  2
*D38
 70
     1
 10
0.0
 20
0.0
 30
0.0
  3
*D38
  1

  0
LINE
  5
85F8
330
85F5
100
AcDbEntity
  8
3
 62
     0
370
    -2
100
AcDbLine
 10
2775.942858765823
 20
3820.954481859346
 30
0.0
 11
2775.942858765823
 21
4178.673329759662
 31
0.0
  0
LINE
  5
85F9
330
85F5
100
AcDbEntity
  8
3
 62
     0
370
    -2
100
AcDbLine
 10
845.9428587658239
 20
2237.454481859345
 30
0.0
 11
845.9428587658239
 21
4178.673329759662
 31
0.0
  0
LINE
  5
85FA
330
85F5
100
AcDbEntity
  8
3
 62
     0
370
    -2
100
AcDbLine
 10
2715.942858765823
 20
4148.673329759662
 30
0.0
 11
905.942858765824
 21
4148.673329759662
 31
0.0
  0
INSERT
  5
85FB
330
85F5
100
AcDbEntity
  8
3
 62
     0
370
    -2
100
AcDbBlockReference
  2
_OPEN
 10
2775.942858765823
 20
4148.673329759662
 30
0.0
 41
60.0
 42
60.0
 43
60.0
  0
INSERT
  5
85FC
330
85F5
100
AcDbEntity
  8
3
 62
     0
370
    -2
100
AcDbBlockReference
  2
_OPEN
 10
845.9428587658239
 20
4148.673329759662
 30
0.0
 41
60.0
 42
60.0
 43
60.0
 50
180.0
  0
MTEXT
  5
85FD
330
85F5
100
AcDbEntity
  8
3
 62
     0
100
AcDbMText
 10
1810.942858765823
 20
4223.673329759662
 30
0.0
 40
90.0
 41
0.0
 71
     5
 72
     1
  1
\A1;1930
 73
     1
 44
1.0
1001
ACAD
1000
MTEXTBEGIN
1070
    73
1070
     1
1070
    44
1040
1.0
1070
    74
1070
     0
1000
MTEXTEND
  0
POINT
  5
85FE
330
85F5
100
AcDbEntity
  8
DEFPOINTS
 62
     0
100
AcDbPoint
 10
2775.942858765823
 20
3790.954481859346
 30
0.0
  0
POINT
  5
85FF
330
85F5
100
AcDbEntity
  8
DEFPOINTS
 62
     0
100
AcDbPoint
 10
845.9428587658239
 20
2207.454481859345
 30
0.0
  0
POINT
  5
8600
330
85F5
100
AcDbEntity
  8
DEFPOINTS
 62
     0
100
AcDbPoint
 10
845.9428587658239
 20
4148.673329759662
 30
0.0
  0
ENDBLK
  5
85F7
330
85F5
100
AcDbEntity
  8
0
100
AcDbBlockEnd
  0
BLOCK
  5
8603
330
8602
100
AcDbEntity
  8
0
100
AcDbBlockBegin
  2
*D39
 70
     1
 10
0.0
 20
0.0
 30
0.0
  3
*D39
  1

  0
LINE
  5
8605
330
8602
100
AcDbEntity
  8
3
 62
     0
370
    -2
100
AcDbLine
 10
2805.942858765823
 20
3748.454481859345
 30
0.0
 11
2961.381211645021
 21
3748.454481859345
 31
0.0
  0
LINE
  5
8606
330
8602
100
AcDbEntity
  8
3
 62
     0
370
    -2
100
AcDbLine
 10
2805.942858765823
 20
2823.454481859346
 30
0.0
 11
2961.381211645021
 21
2823.454481859346
 31
0.0
  0
LINE
  5
8607
330
8602
100
AcDbEntity
  8
3
 62
     0
370
    -2
100
AcDbLine
 10
2931.381211645021
 20
3688.454481859345
 30
0.0
 11
2931.381211645021
 21
2883.454481859346
 31
0.0
  0
INSERT
  5
8608
330
8602
100
AcDbEntity
  8
3
 62
     0
370
    -2
100
AcDbBlockReference
  2
_OPEN
 10
2931.381211645021
 20
3748.454481859345
 30
0.0
 41
60.0
 42
60.0
 43
60.0
 50
90.0
  0
INSERT
  5
8609
330
8602
100
AcDbEntity
  8
3
 62
     0
370
    -2
100
AcDbBlockReference
  2
_OPEN
 10
2931.381211645021
 20
2823.454481859346
 30
0.0
 41
60.0
 42
60.0
 43
60.0
 50
270.0
  0
MTEXT
  5
860A
330
8602
100
AcDbEntity
  8
3
 62
     0
100
AcDbMText
 10
2856.38121164502
 20
3285.954481859346
 30
0.0
 40
90.0
 41
0.0
 71
     5
 72
     1
  1
\A1;925
 11
0.0000000000000001
 21
1.0
 31
0.0
 73
     1
 44
1.0
1001
ACAD
1000
MTEXTBEGIN
1070
    73
1070
     1
1070
    44
1040
1.0
1070
    74
1070
     0
1000
MTEXTEND
  0
POINT
  5
860B
330
8602
100
AcDbEntity
  8
DEFPOINTS
 62
     0
100
AcDbPoint
 10
2775.942858765823
 20
3748.454481859345
 30
0.0
  0
POINT
  5
860C
330
8602
100
AcDbEntity
  8
DEFPOINTS
 62
     0
100
AcDbPoint
 10
2775.942858765823
 20
2823.454481859346
 30
0.0
  0
POINT
  5
860D
330
8602
100
AcDbEntity
  8
DEFPOINTS
 62
     0
100
AcDbPoint
 10
2931.381211645021
 20
2823.454481859346
 30
0.0
  0
ENDBLK
  5
8604
330
8602
100
AcDbEntity
  8
0
100
AcDbBlockEnd
  0
BLOCK
  5
8610
330
860F
100
AcDbEntity
  8
0
100
AcDbBlockBegin
  2
*D40
 70
     1
 10
0.0
 20
0.0
 30
0.0
  3
*D40
  1

  0
LINE
  5
8612
330
860F
100
AcDbEntity
  8
3
 62
     0
370
    -2
100
AcDbLine
 10
2805.942858765823
 20
3748.454481859345
 30
0.0
 11
3113.201335235856
 21
3748.454481859345
 31
0.0
  0
LINE
  5
8613
330
860F
100
AcDbEntity
  8
3
 62
     0
370
    -2
100
AcDbLine
 10
2842.198197544368
 20
2787.454481859346
 30
0.0
 11
3113.201335235855
 21
2787.454481859346
 31
0.0
  0
LINE
  5
8614
330
860F
100
AcDbEntity
  8
3
 62
     0
370
    -2
100
AcDbLine
 10
3083.201335235856
 20
3688.454481859345
 30
0.0
 11
3083.201335235855
 21
2847.454481859346
 31
0.0
  0
INSERT
  5
8615
330
860F
100
AcDbEntity
  8
3
 62
     0
370
    -2
100
AcDbBlockReference
  2
_OPEN
 10
3083.201335235856
 20
3748.454481859345
 30
0.0
 41
60.0
 42
60.0
 43
60.0
 50
90.0
  0
INSERT
  5
8616
330
860F
100
AcDbEntity
  8
3
 62
     0
370
    -2
100
AcDbBlockReference
  2
_OPEN
 10
3083.201335235855
 20
2787.454481859346
 30
0.0
 41
60.0
 42
60.0
 43
60.0
 50
270.0
  0
MTEXT
  5
8617
330
860F
100
AcDbEntity
  8
3
 62
     0
100
AcDbMText
 10
3008.201335235855
 20
3267.954481859346
 30
0.0
 40
90.0
 41
0.0
 71
     5
 72
     1
  1
\A1;961
 11
0.0000000000000001
 21
1.0
 31
0.0
 73
     1
 44
1.0
1001
ACAD
1000
MTEXTBEGIN
1070
    73
1070
     1
1070
    44
1040
1.0
1070
    74
1070
     0
1000
MTEXTEND
  0
POINT
  5
8618
330
860F
100
AcDbEntity
  8
DEFPOINTS
 62
     0
100
AcDbPoint
 10
2775.942858765823
 20
3748.454481859345
 30
0.0
  0
POINT
  5
8619
330
860F
100
AcDbEntity
  8
DEFPOINTS
 62
     0
100
AcDbPoint
 10
2812.198197544368
 20
2787.454481859346
 30
0.0
  0
POINT
  5
861A
330
860F
100
AcDbEntity
  8
DEFPOINTS
 62
     0
100
AcDbPoint
 10
3083.201335235855
 20
2787.454481859346
 30
0.0
  0
ENDBLK
  5
8611
330
860F
100
AcDbEntity
  8
0
100
AcDbBlockEnd
  0
BLOCK
  5
861D
330
861C
100
AcDbEntity
  8
0
100
AcDbBlockBegin
  2
*D41
 70
     1
 10
0.0
 20
0.0
 30
0.0
  3
*D41
  1

  0
LINE
  5
861F
330
861C
100
AcDbEntity
  8
3
 62
     0
370
    -2
100
AcDbLine
 10
2842.198197544368
 20
2787.454481859346
 30
0.0
 11
3113.201335235855
 21
2787.454481859346
 31
0.0
  0
LINE
  5
8620
330
861C
100
AcDbEntity
  8
3
 62
     0
370
    -2
100
AcDbLine
 10
2745.942858765823
 20
2107.454481859345
 30
0.0
 11
3113.201335235855
 21
2107.454481859345
 31
0.0
  0
LINE
  5
8621
330
861C
100
AcDbEntity
  8
3
 62
     0
370
    -2
100
AcDbLine
 10
3083.201335235855
 20
2727.454481859346
 30
0.0
 11
3083.201335235855
 21
2167.454481859345
 31
0.0
  0
INSERT
  5
8622
330
861C
100
AcDbEntity
  8
3
 62
     0
370
    -2
100
AcDbBlockReference
  2
_OPEN
 10
3083.201335235855
 20
2787.454481859346
 30
0.0
 41
60.0
 42
60.0
 43
60.0
 50
90.0
  0
INSERT
  5
8623
330
861C
100
AcDbEntity
  8
3
 62
     0
370
    -2
100
AcDbBlockReference
  2
_OPEN
 10
3083.201335235855
 20
2107.454481859345
 30
0.0
 41
60.0
 42
60.0
 43
60.0
 50
270.0
  0
MTEXT
  5
8624
330
861C
100
AcDbEntity
  8
3
 62
     0
100
AcDbMText
 10
3008.201335235855
 20
2447.454481859346
 30
0.0
 40
90.0
 41
0.0
 71
     5
 72
     1
  1
\A1;680
 11
0.0000000000000001
 21
1.0
 31
0.0
 73
     1
 44
1.0
1001
ACAD
1000
MTEXTBEGIN
1070
    73
1070
     1
1070
    44
1040
1.0
1070
    74
1070
     0
1000
MTEXTEND
  0
POINT
  5
8625
330
861C
100
AcDbEntity
  8
DEFPOINTS
 62
     0
100
AcDbPoint
 10
2812.198197544368
 20
2787.454481859346
 30
0.0
  0
POINT
  5
8626
330
861C
100
AcDbEntity
  8
DEFPOINTS
 62
     0
100
AcDbPoint
 10
2715.942858765823
 20
2107.454481859345
 30
0.0
  0
POINT
  5
8627
330
861C
100
AcDbEntity
  8
DEFPOINTS
 62
     0
100
AcDbPoint
 10
3083.201335235855
 20
2107.454481859345
 30
0.0
  0
ENDBLK
  5
861E
330
861C
100
AcDbEntity
  8
0
100
AcDbBlockEnd
  0
ENDSEC
  0
SECTION
  2
ENTITIES
  0
INSERT
  5
7C31
330
84C5
100
AcDbEntity
  8
0
100
AcDbBlockReference
  2
YA_N
 10
6.0
 20
5.0
 30
0.0
  0
LINE
  5
7C33
330
84C5
100
AcDbEntity
  8
2
100
AcDbLine
 10
2812.198197544368
 20
2787.454481859346
 30
0.0
 11
1310.61810412713
 21
2787.454481859346
 31
0.0
  0
LINE
  5
7C34
330
84C5
100
AcDbEntity
  8
2
100
AcDbLine
 10
2155.942858765823
 20
3789.416924202903
 30
0.0
 11
2155.942858765823
 21
2107.454481859345
 31
0.0
  0
ARC
  5
7C35
330
84C5
100
AcDbEntity
  8
1
100
AcDbCircle
 10
2222.942858765823
 20
2854.454481859345
 30
0.0
 40
844.0
100
AcDbArc
 50
94.55315238721905
 51
184.553152387219
  0
ARC
  5
7C36
330
84C5
100
AcDbEntity
  8
1
100
AcDbCircle
 10
2088.942858765823
 20
2854.454481859345
 30
0.0
 40
710.0
100
AcDbArc
 50
185.4148417061294
 51
245.6811172079949
  0
ARC
  5
7C37
330
84C5
100
AcDbEntity
  8
1
100
AcDbCircle
 10
2102.442858765823
 20
2733.954481859345
 30
0.0
 40
589.5
100
AcDbArc
 50
296.730793849171
 51
5.207036088349489
  0
LINE
  5
7C38
330
84C5
100
AcDbEntity
  8
1
100
AcDbLine
 10
2775.942858765823
 20
3790.954481859346
 30
0.0
 11
2775.942858765823
 21
2780.954481859346
 31
0.0
  0
LINE
  5
7C39
330
84C5
100
AcDbEntity
  8
1
100
AcDbLine
 10
2775.942858765823
 20
2823.454481859346
 30
0.0
 11
2690.73253705066
 21
2823.454481859346
 31
0.0
  0
LINE
  5
7C3A
330
84C5
100
AcDbEntity
  8
1
100
AcDbLine
 10
2775.942858765823
 20
3748.454481859345
 30
0.0
 11
2155.942858765823
 21
3695.79091872631
 31
0.0
  0
LINE
  5
7C3B
330
84C5
100
AcDbEntity
  8
1
100
AcDbLine
 10
2775.942858765823
 20
3790.954481859346
 30
0.0
 11
2772.942858765823
 21
3790.954481859346
 31
0.0
  0
LINE
  5
7C3C
330
84C5
100
AcDbEntity
  8
1
100
AcDbLine
 10
2775.942858765823
 20
2780.954481859346
 30
0.0
 11
2772.942858765823
 21
2780.954481859346
 31
0.0
  0
LINE
  5
7C3D
330
84C5
100
AcDbEntity
  8
1
100
AcDbLine
 10
2735.942858765822
 20
3745.056832624956
 30
0.0
 11
2735.942858765822
 21
2823.454481859346
 31
0.0
  0
LINE
  5
7C3E
330
84C5
100
AcDbEntity
  8
1
100
AcDbLine
 10
2772.942858765823
 20
3790.954481859346
 30
0.0
 11
2772.942858765823
 21
2780.954481859346
 31
0.0
  0
LINE
  5
7C3F
330
84C5
100
AcDbEntity
  8
1
100
AcDbLine
 10
845.9428587658239
 20
2207.454481859345
 30
0.0
 11
845.9428587658239
 21
2107.454481859345
 31
0.0
  0
LINE
  5
7C40
330
84C5
100
AcDbEntity
  8
1
100
AcDbLine
 10
2715.942858765823
 20
2207.454481859346
 30
0.0
 11
2715.942858765823
 21
2107.454481859345
 31
0.0
  0
LINE
  5
7C41
330
84C5
100
AcDbEntity
  8
1
100
AcDbLine
 10
845.9428587658239
 20
2107.454481859345
 30
0.0
 11
2715.942858765824
 21
2107.454481859345
 31
0.0
1001
ACAD
1000
ASC_BOUNDS
1002
{
1070
    19
1002
}
  0
LINE
  5
7C42
330
84C5
100
AcDbEntity
  8
1
100
AcDbLine
 10
845.9428587658239
 20
2207.454481859345
 30
0.0
 11
2715.942858765824
 21
2207.454481859346
 31
0.0
  0
LINE
  5
7C43
330
84C5
100
AcDbEntity
  8
2
100
AcDbLine
 10
1095.942858765822
 20
2775.45697285545
 30
0.0
 11
1095.942858765822
 21
2107.454481859345
 31
0.0
  0
LINE
  5
7C44
330
84C5
100
AcDbEntity
  8
2
100
AcDbLine
 10
735.0068906402275
 20
2482.454481859345
 30
0.0
 11
1310.785785219655
 21
2482.454481859345
 31
0.0
  0
LINE
  5
7C45
330
84C5
100
AcDbEntity
  8
1
100
AcDbLine
 10
5226.111918802633
 20
3748.454481859345
 30
0.0
 11
5226.111918802633
 21
2823.454481859346
 31
0.0
  0
LINE
  5
7C46
330
84C5
100
AcDbEntity
  8
1
100
AcDbLine
 10
3904.111918802625
 20
2107.454481859345
 30
0.0
 11
5279.111918802642
 21
2107.454481859345
 31
0.0
1001
ACAD
1000
ASC_BOUNDS
1002
{
1070
    19
1005
0
1005
0
1005
0
1005
0
1002
}
  0
LINE
  5
7C47
330
84C5
100
AcDbEntity
  8
1
100
AcDbLine
 10
3904.111918802634
 20
2207.454481859346
 30
0.0
 11
5279.111918802634
 21
2207.454481859346
 31
0.0
  0
LINE
  5
7C48
330
84C5
100
AcDbEntity
  8
1
100
AcDbLine
 10
3904.111918802634
 20
2207.454481859346
 30
0.0
 11
3904.111918802625
 21
2107.454481859345
 31
0.0
  0
LINE
  5
7C49
330
84C5
100
AcDbEntity
  8
1
100
AcDbLine
 10
5279.111918802634
 20
2207.454481859346
 30
0.0
 11
5279.111918802642
 21
2107.454481859345
 31
0.0
  0
LINE
  5
7C4A
330
84C5
100
AcDbEntity
  8
1
100
AcDbLine
 10
4666.111918802633
 20
3748.454481859345
 30
0.0
 11
5226.111918802633
 21
3748.454481859345
 31
0.0
  0
LINE
  5
7C4B
330
84C5
100
AcDbEntity
  8
2
100
AcDbLine
 10
3723.532820156935
 20
2787.454481859346
 30
0.0
 11
5376.631566560369
 21
2787.454481859346
 31
0.0
  0
LINE
  5
7C4C
330
84C5
100
AcDbEntity
  8
1
100
AcDbLine
 10
5216.611918802634
 20
2107.454481859345
 30
0.0
 11
5279.111918802642
 21
2107.454481859345
 31
0.0
1001
ACAD
1000
ASC_BOUNDS
1002
{
1070
    19
1005
0
1005
0
1002
}
  0
LINE
  5
7C4D
330
84C5
100
AcDbEntity
  8
2
100
AcDbLine
 10
4666.111918802633
 20
3920.673423095367
 30
0.0
 11
4666.111918802631
 21
2107.454481859345
 31
0.0
  0
POINT
  5
7C4E
330
84C5
100
AcDbEntity
  8
1
100
AcDbPoint
 10
1382.11119563803
 20
2762.454481859346
 30
0.0
  0
INSERT
  5
7C4F
330
84C5
100
AcDbEntity
  8
0
100
AcDbBlockReference
  2
YA_N
 10
-1638.667820090515
 20
-980.7401201518075
 30
0.0
 41
20.0
 42
20.0
 43
20.0
  0
INSERT
  5
7C51
330
84C5
100
AcDbEntity
  8
0
100
AcDbBlockReference
  2
YA_N
 10
-1552.816625123014
 20
-1070.405552057982
 30
0.0
 41
20.0
 42
20.0
 43
20.0
  0
ARC
  5
7C53
330
84C5
100
AcDbEntity
  8
1
100
AcDbCircle
 10
1095.942858765822
 20
2482.454481859345
 30
0.0
 40
185.0
100
AcDbArc
 50
287.9452509999999
 51
252.054749
  0
LINE
  5
7C54
330
84C5
100
AcDbEntity
  8
1
100
AcDbLine
 10
1152.942858765822
 20
2306.454481859345
 30
0.0
 11
1038.942858765822
 21
2306.454481859345
 31
0.0
  0
LINE
  5
7C56
330
84C5
100
AcDbEntity
  8
1
100
AcDbLine
 10
1257.942858765822
 20
2377.713514859345
 30
0.0
 11
1257.942858765822
 21
2302.454481859345
 31
0.0
  0
LINE
  5
7C57
330
84C5
100
AcDbEntity
  8
1
100
AcDbLine
 10
1198.442858765822
 20
2307.603040859345
 30
0.0
 11
1188.936144765823
 21
2322.525648859345
 31
0.0
  0
LINE
  5
7C5A
330
84C5
100
AcDbEntity
  8
1
100
AcDbLine
 10
1198.442858765822
 20
2319.454481859345
 30
0.0
 11
1198.442858765822
 21
2302.454481859345
 31
0.0
  0
LINE
  5
7C5C
330
84C5
100
AcDbEntity
  8
1
100
AcDbLine
 10
1201.442858765822
 20
2322.454481859345
 30
0.0
 11
1254.942858765822
 21
2322.454481859345
 31
0.0
  0
ARC
  5
7C5D
330
84C5
100
AcDbEntity
  8
1
100
AcDbCircle
 10
1254.942858765822
 20
2319.454481859345
 30
0.0
 40
3.0
100
AcDbArc
 50
0.0
 51
90.0
  0
LINE
  5
7C64
330
84C5
100
AcDbEntity
  8
1
100
AcDbLine
 10
1206.766771765822
 20
2322.454481859345
 30
0.0
 11
1201.587023765822
 21
2330.585096859346
 31
0.0
  0
ARC
  5
7C66
330
84C5
100
AcDbEntity
  8
1
100
AcDbCircle
 10
1201.442858765822
 20
2319.454481859345
 30
0.0
 40
3.0
100
AcDbArc
 50
90.0
 51
180.0
  0
LINE
  5
7C67
330
84C5
100
AcDbEntity
  8
1
100
AcDbLine
 10
1257.942858765822
 20
2377.713514859345
 30
0.0
 11
1251.558886765822
 21
2382.411268859346
 31
0.0
  0
LINE
  5
7C6C
330
84C5
100
AcDbEntity
  8
1
100
AcDbLine
 10
993.4428587658221
 20
2307.603040859345
 30
0.0
 11
1002.949572765823
 21
2322.525648859345
 31
0.0
  0
LINE
  5
7C70
330
84C5
100
AcDbEntity
  8
1
100
AcDbLine
 10
993.4428587658221
 20
2319.454481859345
 30
0.0
 11
993.4428587658221
 21
2302.454481859345
 31
0.0
  0
LINE
  5
7C71
330
84C5
100
AcDbEntity
  8
1
100
AcDbLine
 10
933.9428587658222
 20
2377.713514859345
 30
0.0
 11
933.9428587658222
 21
2302.454481859345
 31
0.0
  0
LINE
  5
7C73
330
84C5
100
AcDbEntity
  8
1
100
AcDbLine
 10
990.4428587658221
 20
2322.454481859345
 30
0.0
 11
936.9428587658221
 21
2322.454481859345
 31
0.0
  0
LINE
  5
7C75
330
84C5
100
AcDbEntity
  8
1
100
AcDbLine
 10
985.1189447658224
 20
2322.454481859345
 30
0.0
 11
990.2986937658225
 21
2330.585096859346
 31
0.0
  0
ARC
  5
7C76
330
84C5
100
AcDbEntity
  8
1
100
AcDbCircle
 10
990.4428587658221
 20
2319.454481859345
 30
0.0
 40
3.0
100
AcDbArc
 50
0.0
 51
90.0
  0
ARC
  5
7C77
330
84C5
100
AcDbEntity
  8
1
100
AcDbCircle
 10
936.9428587658221
 20
2319.454481859345
 30
0.0
 40
3.0
100
AcDbArc
 50
90.0
 51
180.0
  0
LINE
  5
7C82
330
84C5
100
AcDbEntity
  8
1
100
AcDbLine
 10
933.9428587658222
 20
2377.713514859345
 30
0.0
 11
940.3267697658227
 21
2382.411268859346
 31
0.0
  0
LINE
  5
7C83
330
84C5
100
AcDbEntity
  8
1
100
AcDbLine
 10
870.9428587658221
 20
2247.454481859346
 30
0.0
 11
1320.942858765822
 21
2247.454481859346
 31
0.0
  0
LINE
  5
7C84
330
84C5
100
AcDbEntity
  8
1
100
AcDbLine
 10
895.9428587658221
 20
2247.454481859346
 30
0.0
 11
895.9428587658221
 21
2207.454481859346
 31
0.0
  0
LINE
  5
7C85
330
84C5
100
AcDbEntity
  8
1
100
AcDbLine
 10
1295.942858765822
 20
2247.454481859346
 30
0.0
 11
1295.942858765822
 21
2207.454481859346
 31
0.0
  0
LINE
  5
7C86
330
84C5
100
AcDbEntity
  8
1
100
AcDbLine
 10
885.8413203646994
 20
2302.454481859345
 30
0.0
 11
1025.942858765822
 21
2302.454481859345
 31
0.0
  0
LINE
  5
7C87
330
84C5
100
AcDbEntity
  8
1
100
AcDbLine
 10
1320.942858765822
 20
2247.454481859346
 30
0.0
 11
1305.74054213131
 21
2302.454481859345
 31
0.0
  0
LINE
  5
7C88
330
84C5
100
AcDbEntity
  8
1
100
AcDbLine
 10
870.9428587658221
 20
2247.454481859346
 30
0.0
 11
885.8413203646994
 21
2302.454481859345
 31
0.0
  0
LINE
  5
7C8A
330
84C5
100
AcDbEntity
  8
1
100
AcDbLine
 10
1025.942858765822
 20
2292.454481859345
 30
0.0
 11
1165.942858765822
 21
2292.454481859345
 31
0.0
  0
LINE
  5
7C8B
330
84C5
100
AcDbEntity
  8
1
100
AcDbLine
 10
1025.942858765822
 20
2302.454481859345
 30
0.0
 11
1025.942858765822
 21
2292.454481859345
 31
0.0
  0
LINE
  5
7C8C
330
84C5
100
AcDbEntity
  8
1
100
AcDbLine
 10
1165.942858765822
 20
2302.454481859345
 30
0.0
 11
1165.942858765822
 21
2292.454481859345
 31
0.0
  0
LINE
  5
7C8D
330
84C5
100
AcDbEntity
  8
1
100
AcDbLine
 10
1165.942858765822
 20
2302.454481859345
 30
0.0
 11
1305.74054213131
 21
2302.454481859345
 31
0.0
  0
POINT
  5
7C9A
330
84C5
100
AcDbEntity
  8
1
100
AcDbPoint
 10
2715.942858765823
 20
2107.454481859345
 30
0.0
  0
CIRCLE
  5
7C9D
330
84C5
100
AcDbEntity
  8
1
100
AcDbCircle
 10
1095.942858765822
 20
2482.454481859345
 30
0.0
 40
119.0
  0
LINE
  5
7C9E
330
84C5
100
AcDbEntity
  8
1
100
AcDbLine
 10
5226.111918802633
 20
2823.454481859345
 30
0.0
 11
5226.111918802633
 21
2207.454481859346
 31
0.0
  0
LINE
  5
7C9F
330
84C5
100
AcDbEntity
  8
1
100
AcDbLine
 10
4106.111918802633
 20
3748.454481859345
 30
0.0
 11
4106.111918802633
 21
2787.454481859346
 31
0.0
  0
LINE
  5
7CA0
330
84C5
100
AcDbEntity
  8
1
100
AcDbLine
 10
4666.111918802631
 20
3748.454481859345
 30
0.0
 11
4106.111918802633
 21
3748.454481859345
 31
0.0
  0
LINE
  5
7CA1
330
84C5
100
AcDbEntity
  8
1
100
AcDbLine
 10
4106.111918802633
 20
2787.454481859346
 30
0.0
 11
4106.111918802633
 21
2207.454481859346
 31
0.0
  0
LINE
  5
7CA2
330
84C5
100
AcDbEntity
  8
1
100
AcDbLine
 10
3978.111918802633
 20
2761.654481859345
 30
0.0
 11
4053.811918802634
 21
2761.654481859345
 31
0.0
  0
LINE
  5
7CA3
330
84C5
100
AcDbEntity
  8
1
100
AcDbLine
 10
3978.111918802634
 20
2611.654481859345
 30
0.0
 11
4053.811918802634
 21
2611.654481859345
 31
0.0
  0
LINE
  5
7CA4
330
84C5
100
AcDbEntity
  8
1
100
AcDbLine
 10
3968.111918802634
 20
2751.654481859346
 30
0.0
 11
3968.111918802634
 21
2621.654481859347
 31
0.0
  0
LINE
  5
7CA5
330
84C5
100
AcDbEntity
  8
1
100
AcDbLine
 10
4093.111918802632
 20
2761.654481859345
 30
0.0
 11
4093.111918802633
 21
2611.654481859345
 31
0.0
  0
ARC
  5
7CA6
330
84C5
100
AcDbEntity
  8
1
100
AcDbCircle
 10
3978.111918802633
 20
2751.654481859346
 30
0.0
 40
10.0
100
AcDbArc
 50
90.0
 51
180.0000000000003
  0
ARC
  5
7CA7
330
84C5
100
AcDbEntity
  8
1
100
AcDbCircle
 10
3978.111918802634
 20
2621.654481859347
 30
0.0
 40
10.0
100
AcDbArc
 50
180.0000000000003
 51
270.0
  0
LINE
  5
7CA8
330
84C5
100
AcDbEntity
  8
1
100
AcDbLine
 10
4053.811918802634
 20
2611.654481859345
 30
0.0
 11
4093.111918802633
 21
2611.654481859345
 31
0.0
  0
LINE
  5
7CA9
330
84C5
100
AcDbEntity
  8
1
100
AcDbLine
 10
4053.811918802634
 20
2761.654481859345
 30
0.0
 11
4093.111918802633
 21
2761.654481859345
 31
0.0
  0
LINE
  5
7CAA
330
84C5
100
AcDbEntity
  8
1
100
AcDbLine
 10
5346.111918802631
 20
2747.954481859345
 30
0.0
 11
5346.111918802633
 21
2647.954481859346
 31
0.0
  0
LINE
  5
7CAB
330
84C5
100
AcDbEntity
  8
1
100
AcDbLine
 10
5245.611918802634
 20
2757.954481859345
 30
0.0
 11
5245.611918802634
 21
2637.954481859345
 31
0.0
  0
LINE
  5
7CAC
330
84C5
100
AcDbEntity
  8
1
100
AcDbLine
 10
5245.611918802634
 20
2757.954481859345
 30
0.0
 11
5278.411918802632
 21
2757.954481859345
 31
0.0
  0
LINE
  5
7CAD
330
84C5
100
AcDbEntity
  8
1
100
AcDbLine
 10
5245.611918802634
 20
2637.954481859345
 30
0.0
 11
5278.411918802632
 21
2637.954481859345
 31
0.0
  0
ARC
  5
7CAE
330
84C5
100
AcDbEntity
  8
1
100
AcDbCircle
 10
5336.111918802632
 20
2747.954481859345
 30
0.0
 40
10.0
100
AcDbArc
 50
0.0000000000003257
 51
90.0
  0
ARC
  5
7CAF
330
84C5
100
AcDbEntity
  8
1
100
AcDbCircle
 10
5336.111918802632
 20
2647.954481859346
 30
0.0
 40
10.0
100
AcDbArc
 50
270.0
 51
0.0000000000003257
  0
LINE
  5
7CB0
330
84C5
100
AcDbEntity
  8
1
100
AcDbLine
 10
5278.411918802632
 20
2637.954481859345
 30
0.0
 11
5336.111918802632
 21
2637.954481859345
 31
0.0
  0
LINE
  5
7CB1
330
84C5
100
AcDbEntity
  8
1
100
AcDbLine
 10
5278.411918802632
 20
2757.954481859345
 30
0.0
 11
5336.111918802632
 21
2757.954481859345
 31
0.0
  0
LINE
  5
7CB2
330
84C5
100
AcDbEntity
  8
1
100
AcDbLine
 10
3953.111918802633
 20
2817.454481859346
 30
0.0
 11
3953.111918802633
 21
2757.454481859346
 31
0.0
  0
LINE
  5
7CB3
330
84C5
100
AcDbEntity
  8
1
100
AcDbLine
 10
3948.111918802633
 20
2814.954481859345
 30
0.0
 11
3953.111918802633
 21
2814.954481859345
 31
0.0
  0
LINE
  5
7CB4
330
84C5
100
AcDbEntity
  8
1
100
AcDbLine
 10
3948.111918802633
 20
2759.954481859345
 30
0.0
 11
3953.111918802633
 21
2759.954481859345
 31
0.0
  0
LINE
  5
7CB5
330
84C5
100
AcDbEntity
  8
1
100
AcDbLine
 10
3838.111918802635
 20
2990.654481859345
 30
0.0
 11
3838.11191880263
 21
2363.454481859345
 31
0.0
  0
LINE
  5
7CB6
330
84C5
100
AcDbEntity
  8
1
100
AcDbLine
 10
3948.111918802634
 20
2990.654481859345
 30
0.0
 11
3948.111918802629
 21
2363.454481859345
 31
0.0
  0
LINE
  5
7CB7
330
84C5
100
AcDbEntity
  8
2
100
AcDbLine
 10
3805.467826335302
 20
2482.454481859345
 30
0.0
 11
4309.299436694057
 21
2482.454481859345
 31
0.0
  0
LINE
  5
7CB8
330
84C5
100
AcDbEntity
  8
1
100
AcDbLine
 10
3838.111918802632
 20
2601.454481859346
 30
0.0
 11
3948.111918802631
 21
2601.454481859346
 31
0.0
  0
LINE
  5
7CB9
330
84C5
100
AcDbEntity
  8
1
100
AcDbLine
 10
3838.11191880263
 20
2363.454481859345
 30
0.0
 11
3948.111918802629
 21
2363.454481859345
 31
0.0
  0
LINE
  5
7CBA
330
84C5
100
AcDbEntity
  8
1
100
AcDbLine
 10
3716.111918802631
 20
3067.454481859346
 30
0.0
 11
3716.111918802636
 21
2262.454481859345
 31
0.0
  0
LINE
  5
7CBB
330
84C5
100
AcDbEntity
  8
1
100
AcDbLine
 10
3716.111918802635
 20
2262.454481859345
 30
0.0
 11
3968.111918802637
 21
2262.454481859345
 31
0.0
  0
LINE
  5
7CBC
330
84C5
100
AcDbEntity
  8
1
100
AcDbLine
 10
3968.111918802629
 20
3067.454481859346
 30
0.0
 11
3968.111918802629
 21
3047.454481859345
 31
0.0
  0
LINE
  5
7CBD
330
84C5
100
AcDbEntity
  8
1
100
AcDbLine
 10
3968.111918802635
 20
2282.454481859346
 30
0.0
 11
3968.111918802635
 21
2262.454481859345
 31
0.0
  0
POINT
  5
7CBE
330
84C5
100
AcDbEntity
  8
1
100
AcDbPoint
 10
5346.111918802633
 20
2747.954481859345
 30
0.0
  0
LINE
  5
7CBF
330
84C5
100
AcDbEntity
  8
2
100
AcDbLine
 10
796.9601303210039
 20
5567.453943093272
 30
0.0
 11
2829.30493647882
 21
5567.453943093272
 31
0.0
  0
LINE
  5
7CC0
330
84C5
100
AcDbEntity
  8
2
100
AcDbLine
 10
2155.942858765824
 20
4566.195234338984
 30
0.0
 11
2155.942858765824
 21
6101.962325964599
 31
0.0
  0
INSERT
  5
7CC1
330
84C5
100
AcDbEntity
  8
0
100
AcDbBlockReference
  2
YA_N
 10
1902.396177633552
 20
-2784.746590060132
 30
0.0
  0
LINE
  5
7CC3
330
84C5
100
AcDbEntity
  8
1
100
AcDbLine
 10
5279.111918802634
 20
2112.985986930012
 30
0.0
 11
5279.111918802634
 21
2107.454481859345
 31
0.0
  0
LINE
  5
7CC9
330
84C5
100
AcDbEntity
  8
1
100
AcDbLine
 10
3953.111918802633
 20
2817.454481859346
 30
0.0
 11
4106.111918802633
 21
2817.454481859346
 31
0.0
  0
LINE
  5
7CCA
330
84C5
100
AcDbEntity
  8
1
100
AcDbLine
 10
3953.111918802633
 20
2757.454481859346
 30
0.0
 11
3969.965754060867
 21
2757.454481859346
 31
0.0
  0
POINT
  5
7CD2
330
84C5
100
AcDbEntity
  8
1
100
AcDbPoint
 10
2715.942858765824
 20
2107.454481859345
 30
0.0
  0
ARC
  5
7CD3
330
84C5
100
AcDbEntity
  8
1
100
AcDbCircle
 10
2155.942858765823
 20
2787.454481859346
 30
0.0
 40
536.0
100
AcDbArc
 50
0.0
 51
3.851123126497708
  0
CIRCLE
  5
7CD4
330
84C5
100
AcDbEntity
  8
1
100
AcDbCircle
 10
2155.942858765823
 20
2787.454481859346
 30
0.0
 40
203.2
  0
ARC
  5
7CD5
330
84C5
100
AcDbEntity
  8
1
100
AcDbCircle
 10
2155.942858765823
 20
2787.454481859346
 30
0.0
 40
280.0
100
AcDbArc
 50
282.9341812137518
 51
109.1706668005613
  0
ARC
  5
7CD6
330
84C5
100
AcDbEntity
  8
1
100
AcDbCircle
 10
1095.942858765822
 20
2482.454481859345
 30
0.0
 40
220.0
100
AcDbArc
 50
109.1706668005613
 51
282.9341812137518
  0
LINE
  5
7CD7
330
84C5
100
AcDbEntity
  8
1
100
AcDbLine
 10
2085.011786486374
 20
2977.872503551852
 30
0.0
 11
1054.403500491933
 21
2593.968972909583
 31
0.0
  0
LINE
  5
7CD8
330
84C5
100
AcDbEntity
  8
1
100
AcDbLine
 10
2197.060296770123
 20
2588.458008795217
 30
0.0
 11
1120.022460746687
 21
2365.916193007814
 31
0.0
  0
LINE
  5
7CD9
330
84C5
100
AcDbEntity
  8
1
100
AcDbLine
 10
2218.615705124372
 20
2514.558687957502
 30
0.0
 11
1145.185809476111
 21
2268.036358079325
 31
0.0
  0
LINE
  5
7CDA
330
84C5
100
AcDbEntity
  8
1
100
AcDbLine
 10
3838.111918802635
 20
2990.654481859345
 30
0.0
 11
3948.111918802634
 21
2990.654481859345
 31
0.0
  0
LINE
  5
7CDB
330
84C5
100
AcDbEntity
  8
1
100
AcDbLine
 10
3838.111918802632
 20
2584.254481859346
 30
0.0
 11
3948.111918802631
 21
2584.254481859346
 31
0.0
  0
LINE
  5
7CDC
330
84C5
100
AcDbEntity
  8
1
100
AcDbLine
 10
3716.111918802631
 20
3067.454481859346
 30
0.0
 11
3968.111918802629
 21
3067.454481859346
 31
0.0
  0
LINE
  5
7CE1
330
84C5
100
AcDbEntity
  8
1
100
AcDbLine
 10
1595.942858765823
 20
6180.453943093272
 30
0.0
 11
2715.942858765823
 21
6180.453943093272
 31
0.0
  0
LINE
  5
7CE2
330
84C5
100
AcDbEntity
  8
1
100
AcDbLine
 10
845.9428587658239
 20
4805.453943093271
 30
0.0
 11
2715.942858765823
 21
4805.453943093271
 31
0.0
  0
LINE
  5
7CE3
330
84C5
100
AcDbEntity
  8
1
100
AcDbLine
 10
2715.942858765823
 20
4805.453943093271
 30
0.0
 11
2715.942858765823
 21
5007.45394309327
 31
0.0
  0
LINE
  5
7CE4
330
84C5
100
AcDbEntity
  8
1
100
AcDbLine
 10
1595.942858765823
 20
6127.453943093271
 30
0.0
 11
1595.942858765823
 21
6180.453943093272
 31
0.0
  0
LINE
  5
7CE5
330
84C5
100
AcDbEntity
  8
1
100
AcDbLine
 10
845.942858765823
 20
4805.453943093272
 30
0.0
 11
845.9428587658239
 21
5605.453943093273
 31
0.0
  0
LINE
  5
7CE6
330
84C5
100
AcDbEntity
  8
1
100
AcDbLine
 10
845.9428587658239
 20
5605.453943093272
 30
0.0
 11
1378.942858765823
 21
5605.453943093272
 31
0.0
  0
LINE
  5
7CE7
330
84C5
100
AcDbEntity
  8
2
100
AcDbLine
 10
1095.942858765823
 20
4492.878402914423
 30
0.0
 11
1095.942858765823
 21
5397.552285659481
 31
0.0
  0
CIRCLE
  5
7CEE
330
84C5
100
AcDbEntity
  8
1
100
AcDbCircle
 10
2155.942858765823
 20
2787.454481859346
 30
0.0
 40
475.0
  0
CIRCLE
  5
7CEF
330
84C5
100
AcDbEntity
  8
1
100
AcDbCircle
 10
2155.942858765823
 20
2787.454481859346
 30
0.0
 40
515.0
  0
LINE
  5
7CF0
330
84C5
100
AcDbEntity
  8
1
100
AcDbLine
 10
2063.995585200861
 20
3051.926973593307
 30
0.0
 11
1023.698572393353
 21
2690.254296793173
 31
0.0
  0
LINE
  5
7CF6
330
84C5
100
AcDbEntity
  8
1
100
AcDbLine
 10
875.9428587658222
 20
4617.453943093272
 30
0.0
 11
2435.942858765823
 21
4617.453943093271
 31
0.0
  0
LINE
  5
7CF7
330
84C5
100
AcDbEntity
  8
1
100
AcDbLine
 10
875.9428587658222
 20
4907.453943093273
 30
0.0
 11
2435.942858765823
 21
4907.453943093271
 31
0.0
  0
LINE
  5
7CF8
330
84C5
100
AcDbEntity
  8
1
100
AcDbLine
 10
976.9428587658222
 20
4777.453943093273
 30
0.0
 11
1214.942858765822
 21
4777.453943093273
 31
0.0
  0
LINE
  5
7CF9
330
84C5
100
AcDbEntity
  8
1
100
AcDbLine
 10
976.9428587658222
 20
4887.453943093273
 30
0.0
 11
1214.942858765822
 21
4887.453943093273
 31
0.0
  0
LINE
  5
7CFA
330
84C5
100
AcDbEntity
  8
1
100
AcDbLine
 10
2435.942858765823
 20
4617.453943093271
 30
0.0
 11
2435.942858765823
 21
4907.453943093271
 31
0.0
  0
LINE
  5
7CFB
330
84C5
100
AcDbEntity
  8
1
100
AcDbLine
 10
875.9428587658222
 20
4617.453943093272
 30
0.0
 11
875.9428587658222
 21
4907.453943093273
 31
0.0
  0
LINE
  5
7CFC
330
84C5
100
AcDbEntity
  8
1
100
AcDbLine
 10
2359.142858765822
 20
4777.453943093271
 30
0.0
 11
2359.142858765822
 21
4887.453943093271
 31
0.0
  0
LINE
  5
7CFD
330
84C5
100
AcDbEntity
  8
1
100
AcDbLine
 10
1952.742858765821
 20
4777.453943093271
 30
0.0
 11
1952.742858765821
 21
4887.453943093271
 31
0.0
  0
LINE
  5
7CFE
330
84C5
100
AcDbEntity
  8
1
100
AcDbLine
 10
1214.942858765822
 20
4777.453943093271
 30
0.0
 11
1214.942858765822
 21
4887.453943093273
 31
0.0
  0
LINE
  5
7CFF
330
84C5
100
AcDbEntity
  8
1
100
AcDbLine
 10
976.9428587658222
 20
4777.453943093273
 30
0.0
 11
976.9428587658222
 21
4887.453943093273
 31
0.0
  0
LINE
  5
7D00
330
84C5
100
AcDbEntity
  8
1
100
AcDbLine
 10
1952.742858765821
 20
4887.453943093271
 30
0.0
 11
2359.142858765822
 21
4887.453943093271
 31
0.0
  0
LINE
  5
7D01
330
84C5
100
AcDbEntity
  8
1
100
AcDbLine
 10
1952.742858765821
 20
4777.453943093272
 30
0.0
 11
2359.142858765822
 21
4777.453943093271
 31
0.0
  0
LINE
  5
7D02
330
84C5
100
AcDbEntity
  8
1
100
AcDbLine
 10
2775.942858765823
 20
4967.453943093271
 30
0.0
 11
2775.942858765823
 21
6167.453943093271
 31
0.0
  0
LINE
  5
7D03
330
84C5
100
AcDbEntity
  8
1
100
AcDbLine
 10
1378.942858765823
 20
5007.45394309327
 30
0.0
 11
1378.942858765823
 21
6127.453943093271
 31
0.0
  0
LINE
  5
7D04
330
84C5
100
AcDbEntity
  8
1
100
AcDbLine
 10
1378.942858765823
 20
6127.453943093271
 30
0.0
 11
2775.942858765823
 21
6127.453943093271
 31
0.0
  0
LINE
  5
7D05
330
84C5
100
AcDbEntity
  8
1
100
AcDbLine
 10
1378.942858765823
 20
5007.45394309327
 30
0.0
 11
2775.942858765823
 21
5007.45394309327
 31
0.0
  0
LINE
  5
7D06
330
84C5
100
AcDbEntity
  8
1
100
AcDbLine
 10
913.4428587658231
 20
5453.953943093273
 30
0.0
 11
1278.442858765823
 21
5453.953943093273
 31
0.0
  0
LINE
  5
7D07
330
84C5
100
AcDbEntity
  8
1
100
AcDbLine
 10
1278.442858765823
 20
4892.453943093272
 30
0.0
 11
1278.442858765823
 21
5453.953943093273
 31
0.0
  0
LINE
  5
7D08
330
84C5
100
AcDbEntity
  8
1
100
AcDbLine
 10
913.442858765824
 20
4892.453943093272
 30
0.0
 11
913.442858765824
 21
5453.953943093273
 31
0.0
  0
LINE
  5
7D09
330
84C5
100
AcDbEntity
  8
1
100
AcDbLine
 10
913.442858765824
 20
4892.453943093272
 30
0.0
 11
1278.442858765824
 21
4892.453943093274
 31
0.0
  0
LINE
  5
7D0A
330
84C5
100
AcDbEntity
  8
1
100
AcDbLine
 10
1119.942858765823
 20
4887.453943093273
 30
0.0
 11
1119.942858765823
 21
4892.453943093272
 31
0.0
  0
LINE
  5
7D0B
330
84C5
100
AcDbEntity
  8
1
100
AcDbLine
 10
1071.942858765823
 20
4887.453943093273
 30
0.0
 11
1071.942858765823
 21
4892.453943093272
 31
0.0
  0
LINE
  5
7D0C
330
84C5
100
AcDbEntity
  8
1
100
AcDbLine
 10
2185.942858765824
 20
4887.453943093271
 30
0.0
 11
2185.942858765824
 21
5007.45394309327
 31
0.0
  0
LINE
  5
7D0D
330
84C5
100
AcDbEntity
  8
1
100
AcDbLine
 10
2125.942858765824
 20
4887.453943093271
 30
0.0
 11
2125.942858765824
 21
5007.45394309327
 31
0.0
  0
LINE
  5
7D0E
330
84C5
100
AcDbEntity
  8
1
100
AcDbLine
 10
3953.111918802632
 20
2664.954481859347
 30
0.0
 11
3968.111918802634
 21
2664.954481859347
 31
0.0
  0
LINE
  5
7D0F
330
84C5
100
AcDbEntity
  8
1
100
AcDbLine
 10
3953.111918802632
 20
2299.954481859345
 30
0.0
 11
4106.111918802633
 21
2299.954481859347
 31
0.0
  0
LINE
  5
7D10
330
84C5
100
AcDbEntity
  8
1
100
AcDbLine
 10
3953.111918802632
 20
2664.954481859346
 30
0.0
 11
3953.111918802632
 21
2299.954481859345
 31
0.0
  0
LINE
  5
7D11
330
84C5
100
AcDbEntity
  8
1
100
AcDbLine
 10
3948.111918802631
 20
2531.454481859347
 30
0.0
 11
3953.111918802632
 21
2531.454481859347
 31
0.0
  0
LINE
  5
7D12
330
84C5
100
AcDbEntity
  8
1
100
AcDbLine
 10
3948.111918802631
 20
2483.454481859347
 30
0.0
 11
3953.111918802632
 21
2483.454481859347
 31
0.0
  0
LINE
  5
7D13
330
84C5
100
AcDbEntity
  8
1
100
AcDbLine
 10
4093.111918802632
 20
2664.954481859347
 30
0.0
 11
4106.111918802631
 21
2664.954481859347
 31
0.0
  0
LINE
  5
7D14
330
84C5
100
AcDbEntity
  8
1
100
AcDbLine
 10
5226.111918802633
 20
2823.454481859346
 30
0.0
 11
4106.111918802633
 21
2823.454481859346
 31
0.0
  0
LINE
  5
7D15
330
84C5
100
AcDbEntity
  8
1
100
AcDbLine
 10
5226.111918802633
 20
3748.454481859345
 30
0.0
 11
4106.111918802633
 21
2823.454481859346
 31
0.0
  0
LINE
  5
7D16
330
84C5
100
AcDbEntity
  8
1
100
AcDbLine
 10
4106.111918802633
 20
3748.454481859345
 30
0.0
 11
5226.111918802633
 21
2823.454481859346
 31
0.0
  0
LINE
  5
7D1D
330
84C5
100
AcDbEntity
  8
1
100
AcDbLine
 10
2715.942858765823
 20
6127.453943093271
 30
0.0
 11
2715.942858765823
 21
6180.453943093272
 31
0.0
  0
LINE
  5
7D1E
330
84C5
100
AcDbEntity
  8
1
100
AcDbLine
 10
2772.942858765823
 20
6167.453943093271
 30
0.0
 11
2775.942858765823
 21
6167.453943093271
 31
0.0
  0
LINE
  5
7D1F
330
84C5
100
AcDbEntity
  8
1
100
AcDbLine
 10
2772.942858765823
 20
4967.453943093271
 30
0.0
 11
2775.942858765823
 21
4967.453943093271
 31
0.0
  0
LINE
  5
7D20
330
84C5
100
AcDbEntity
  8
1
100
AcDbLine
 10
2772.942858765823
 20
4967.453943093271
 30
0.0
 11
2772.942858765823
 21
6167.453943093271
 31
0.0
  0
LINE
  5
7F51
330
84C5
100
AcDbEntity
  8
4
100
AcDbLine
 10
5550.0
 20
1210.115599408855
 30
0.0
 11
5550.0
 21
610.1155994088549
 31
0.0
  0
LINE
  5
7F52
330
84C5
100
AcDbEntity
  8
4
100
AcDbLine
 10
3450.0
 20
1210.115599408855
 30
0.0
 11
3450.0
 21
610.1155994088549
 31
0.0
  0
LINE
  5
7F53
330
84C5
100
AcDbEntity
  8
4
100
AcDbLine
 10
1950.0
 20
1210.115599408855
 30
0.0
 11
1950.0
 21
610.1155994088549
 31
0.0
  0
LINE
  5
7F56
330
84C5
100
AcDbEntity
  8
4
100
AcDbLine
 10
1950.0
 20
610.1155994088549
 30
0.0
 11
5550.0
 21
610.1155994088549
 31
0.0
  0
LINE
  5
7F57
330
84C5
100
AcDbEntity
  8
4
100
AcDbLine
 10
1950.0
 20
910.1155994088548
 30
0.0
 11
5550.0
 21
910.1155994088548
 31
0.0
  0
TEXT
  5
7F58
330
84C5
100
AcDbEntity
  8
4
100
AcDbText
 10
2065.506242540704
 20
1004.744677008693
 30
0.0
 40
150.0
  1
機器名称
100
AcDbText
  0
TEXT
  5
7F59
330
84C5
100
AcDbEntity
  8
4
100
AcDbText
 10
2058.774318074392
 20
675.0510696048876
 30
0.0
 40
150.0
  1
機器型番
100
AcDbText
  0
TEXT
  5
7F5A
330
84C5
100
AcDbEntity
  8
4
100
AcDbText
 10
3533.036236462995
 20
977.8309062815608
 30
0.0
 40
150.0
  1
ミツヤ多翼送風機
100
AcDbText
  0
TEXT
  5
7F5B
330
84C5
100
AcDbEntity
  8
4
100
AcDbText
 10
3559.963486756442
 20
661.594352248685
 30
0.0
 40
150.0
  1
MF#5 1/2-5
100
AcDbText
  0
TEXT
  5
7F5D
330
84C5
100
AcDbEntity
  8
4
100
AcDbText
 10
2397.531071377358
 20
7150.286523997547
 30
0.0
 40
161.9999999999998
  1
床置ベット
100
AcDbText
  0
TEXT
  5
7F5E
330
84C5
100
AcDbEntity
  8
4
100
AcDbText
 10
948.5027799883393
 20
7601.642928597894
 30
0.0
 40
216.0
  1
遠心式両吸込両持多翼ファン
100
AcDbText
  0
LINE
  5
7F5F
330
84C5
100
AcDbEntity
  8
4
100
AcDbLine
 10
750.0
 20
7408.226262794413
 30
0.0
 11
5550.0
 21
7408.226262794413
 31
0.0
  0
LINE
  5
7F60
330
84C5
100
AcDbEntity
  8
4
100
AcDbLine
 10
750.0
 20
8008.226262794414
 30
0.0
 11
5550.0
 21
8008.226262794414
 31
0.0
  0
LINE
  5
7F61
330
84C5
100
AcDbEntity
  8
4
100
AcDbLine
 10
1950.0
 20
1210.115599408855
 30
0.0
 11
5550.0
 21
1210.115599408855
 31
0.0
  0
LINE
  5
7F62
330
84C5
100
AcDbEntity
  8
4
100
AcDbLine
 10
750.0
 20
8008.226262794414
 30
0.0
 11
750.0
 21
7408.226262794413
 31
0.0
  0
TEXT
  5
7F63
330
84C5
100
AcDbEntity
  8
4
100
AcDbText
 10
1089.954574649251
 20
7146.958432639029
 30
0.0
 40
161.9999999999998
  1
右回転右横向
100
AcDbText
  0
TEXT
  5
7F64
330
84C5
100
AcDbEntity
  8
4
100
AcDbText
 10
4406.908677747869
 20
8118.183244485924
 30
0.0
 40
168.0
  1
No.
100
AcDbText
  0
TEXT
  5
7F65
330
84C5
100
AcDbEntity
  8
4
100
AcDbText
 10
3933.888187800039
 20
7150.286523997547
 30
0.0
 40
161.9999999999998
  1
縮尺：1/30
100
AcDbText
  0
LINE
  5
7F66
330
84C5
100
AcDbEntity
  8
4
100
AcDbLine
 10
5550.0
 20
8008.226262794414
 30
0.0
 11
5550.0
 21
7408.226262794413
 31
0.0
  0
LINE
  5
7F67
330
84C5
100
AcDbEntity
  8
4
100
AcDbLine
 10
6300.0
 20
8850.0
 30
0.0
 11
6300.0
 21
8850.0
 31
0.0
  0
LINE
  5
7F68
330
84C5
100
AcDbEntity
  8
4
100
AcDbLine
 10
4321.852267079594
 20
8043.790749376205
 30
0.0
 11
4321.852267079594
 21
8359.956784649257
 31
0.0
  0
LINE
  5
7F69
330
84C5
100
AcDbEntity
  8
4
100
AcDbLine
 10
4321.852267079594
 20
8359.956784649257
 30
0.0
 11
5550.0
 21
8359.956784649257
 31
0.0
  0
LINE
  5
7F6A
330
84C5
100
AcDbEntity
  8
4
100
AcDbLine
 10
5550.0
 20
8359.956784649257
 30
0.0
 11
5550.0
 21
8043.790749376205
 31
0.0
  0
LINE
  5
7F6B
330
84C5
100
AcDbEntity
  8
4
100
AcDbLine
 10
5550.0
 20
8043.790749376205
 30
0.0
 11
4321.852267079594
 21
8043.790749376205
 31
0.0
  0
LINE
  5
7F6C
330
84C5
100
AcDbEntity
  8
4
100
AcDbLine
 10
0.0
 20
0.0
 30
0.0
 11
0.0
 21
8850.0
 31
0.0
  0
LINE
  5
7F6D
330
84C5
100
AcDbEntity
  8
4
100
AcDbLine
 10
0.0
 20
8850.0
 30
0.0
 11
6300.0
 21
8850.0
 31
0.0
  0
LINE
  5
7F6E
330
84C5
100
AcDbEntity
  8
4
100
AcDbLine
 10
6300.0
 20
8850.0
 30
0.0
 11
6300.0
 21
0.0
 31
0.0
  0
LINE
  5
7F6F
330
84C5
100
AcDbEntity
  8
4
100
AcDbLine
 10
6300.0
 20
0.0
 30
0.0
 11
0.0
 21
0.0
 31
0.0
  0
DIMENSION
  5
82B7
330
84C5
100
AcDbEntity
  8
3
100
AcDbDimension
  2
*D21
 10
2155.942858765823
 20
1911.55148623422
 30
0.0
 11
1500.942858765823
 21
1986.55148623422
 31
0.0
 71
     5
 42
-1.0
  3
Standard
100
AcDbAlignedDimension
 13
845.9428587658239
 23
2107.454481859345
 33
0.0
 14
2155.942858765823
 24
2107.454481859345
 34
0.0
100
AcDbRotatedDimension
1001
ACAD
1000
DSTYLE
1002
{
1070
   172
1070
     1
1070
    40
1040
30.0
1070
    42
1040
1.0
1070
   271
1070
     0
1070
   143
1040
0.039
1002
}
  0
DIMENSION
  5
82C4
330
84C5
100
AcDbEntity
  8
3
100
AcDbDimension
  2
*D22
 10
2715.942858765823
 20
1911.55148623422
 30
0.0
 11
2435.942858765823
 21
1986.55148623422
 31
0.0
 71
     5
 42
-1.0
  3
Standard
100
AcDbAlignedDimension
 13
2155.942858765823
 23
2107.454481859345
 33
0.0
 14
2715.942858765823
 24
2107.454481859345
 34
0.0
100
AcDbRotatedDimension
1001
ACAD
1000
DSTYLE
1002
{
1070
   172
1070
     1
1070
    40
1040
30.0
1070
    42
1040
1.0
1070
   271
1070
     0
1070
   143
1040
0.039
1002
}
  0
DIMENSION
  5
82D1
330
84C5
100
AcDbEntity
  8
3
100
AcDbDimension
  2
*D23
 10
4666.111918802631
 20
1911.55148623422
 30
0.0
 11
4285.111918802629
 21
1986.55148623422
 31
0.0
 71
     5
 42
-1.0
  3
Standard
100
AcDbAlignedDimension
 13
3904.111918802625
 23
2107.454481859345
 33
0.0
 14
4666.111918802631
 24
2107.454481859345
 34
0.0
100
AcDbRotatedDimension
1001
ACAD
1000
DSTYLE
1002
{
1070
   172
1070
     1
1070
    40
1040
30.0
1070
    42
1040
1.0
1070
   271
1070
     0
1070
   143
1040
0.039
1002
}
  0
DIMENSION
  5
82DE
330
84C5
100
AcDbEntity
  8
3
100
AcDbDimension
  2
*D24
 10
5279.111918802634
 20
1911.55148623422
 30
0.0
 11
4972.611918802633
 21
1986.55148623422
 31
0.0
 71
     5
 42
-1.0
  3
Standard
100
AcDbAlignedDimension
 13
4666.111918802631
 23
2107.454481859345
 33
0.0
 14
5279.111918802634
 24
2107.454481859345
 34
0.0
100
AcDbRotatedDimension
1001
ACAD
1000
DSTYLE
1002
{
1070
   172
1070
     1
1070
    40
1040
30.0
1070
    42
1040
1.0
1070
   271
1070
     0
1070
   143
1040
0.039
1002
}
  0
DIMENSION
  5
82EB
330
84C5
100
AcDbEntity
  8
3
100
AcDbDimension
  2
*D25
 10
3243.638334642561
 20
3748.454481859345
 30
0.0
 11
3168.638334642561
 21
2927.954481859345
 31
0.0
 71
     5
 42
-1.0
  3
Standard
100
AcDbAlignedDimension
 13
2715.942858765823
 23
2107.454481859345
 33
0.0
 14
2790.942858765823
 24
3748.454481859345
 34
0.0
 50
90.0
100
AcDbRotatedDimension
1001
ACAD
1000
DSTYLE
1002
{
1070
   172
1070
     1
1070
    40
1040
30.0
1070
    42
1040
1.0
1070
   271
1070
     0
1070
   143
1040
0.039
1002
}
  0
DIMENSION
  5
8509
330
84C5
100
AcDbEntity
  8
3
100
AcDbDimension
  2
*D26
 10
5226.111918802633
 20
3994.011166092809
 30
0.0
 11
4666.111918802633
 21
4069.011166092809
 31
0.0
 70
    32
 71
     5
 42
1120.0
  3
IGA
100
AcDbAlignedDimension
 13
4106.111918802633
 23
3748.454481859345
 33
0.0
 14
5226.111918802633
 24
3748.454481859345
 34
0.0
100
AcDbRotatedDimension
1001
ACAD
1000
DSTYLE
1002
{
1070
    40
1040
30.0
1070
    42
1040
1.0
1070
   143
1040
0.039
1070
   172
1070
     1
1070
   271
1070
     4
1070
   272
1070
     4
1070
   279
1070
     0
1070
   284
1070
     0
1070
   285
1070
     0
1070
   286
1070
     0
1070
   341
1005
84D8
1070
   343
1005
84D8
1070
   344
1005
84D8
1002
}
  0
DIMENSION
  5
8516
330
84C5
100
AcDbEntity
  8
3
100
AcDbDimension
  2
*D27
 10
4666.111918802633
 20
4184.50359219497
 30
0.0
 11
4191.111918802632
 21
4283.075020766399
 31
0.0
 70
    32
  1
(<>)
 71
     5
 42
950.0000000000017
  3
IGA
100
AcDbAlignedDimension
 13
3716.111918802631
 23
3067.454481859346
 33
0.0
 14
4666.111918802633
 24
4114.011166092808
 34
0.0
100
AcDbRotatedDimension
1001
ACAD
1000
DSTYLE
1002
{
1070
    40
1040
30.0
1070
    42
1040
1.0
1070
   143
1040
0.039
1070
   172
1070
     1
1070
   271
1070
     4
1070
   272
1070
     4
1070
   279
1070
     0
1070
   284
1070
     0
1070
   285
1070
     0
1070
   286
1070
     0
1070
   341
1005
84D8
1070
   343
1005
84D8
1070
   344
1005
84D8
1002
}
  0
DIMENSION
  5
8523
330
84C5
100
AcDbEntity
  8
3
100
AcDbDimension
  2
*D28
 10
5346.111918802631
 20
4184.50359219497
 30
0.0
 11
5006.111918802632
 21
4283.075020766399
 31
0.0
 70
    32
  1
(<>)
 71
     5
 42
679.9999999999982
  3
IGA
100
AcDbAlignedDimension
 13
4666.111918802633
 23
4114.011166092808
 33
0.0
 14
5346.111918802631
 24
2747.954481859345
 34
0.0
100
AcDbRotatedDimension
1001
ACAD
1000
DSTYLE
1002
{
1070
    40
1040
30.0
1070
    42
1040
1.0
1070
   143
1040
0.039
1070
   172
1070
     1
1070
   271
1070
     4
1070
   272
1070
     4
1070
   279
1070
     1
1070
   284
1070
     0
1070
   285
1070
     0
1070
   286
1070
     0
1070
   341
1005
84D8
1070
   343
1005
84D8
1070
   344
1005
84D8
1002
}
  0
DIMENSION
  5
8534
330
84C5
100
AcDbEntity
  8
3
100
AcDbDimension
  2
*D29
 10
5538.869222431247
 20
2312.454481859346
 30
0.0
 11
5463.869222431246
 21
2787.454481859347
 31
0.0
 70
    32
  1
\U+03C6<>
 71
     5
 42
950.0
  3
IGA
100
AcDbAlignedDimension
 13
5226.111918802633
 23
3262.454481859346
 33
0.0
 14
5226.111918802633
 24
2312.454481859346
 34
0.0
 50
90.0
100
AcDbRotatedDimension
1001
ACAD
1000
DSTYLE
1002
{
1070
    40
1040
30.0
1070
    42
1040
1.0
1070
   143
1040
0.039
1070
   172
1070
     1
1070
   271
1070
     4
1070
   272
1070
     4
1070
   279
1070
     0
1070
   284
1070
     0
1070
   285
1070
     0
1070
   286
1070
     0
1070
   341
1005
84D8
1070
   343
1005
84D8
1070
   344
1005
84D8
1002
}
  0
DIMENSION
  5
8599
330
84C5
100
AcDbEntity
  8
3
100
AcDbDimension
  2
*D31
 10
1595.942858765823
 20
6369.351203603754
 30
0.0
 11
1220.942858765823
 21
6444.351203603753
 31
0.0
 70
    32
 71
     5
 42
749.9999999999994
  3
IGA
100
AcDbAlignedDimension
 13
845.9428587658239
 23
5605.453943093273
 33
0.0
 14
1595.942858765823
 24
6180.453943093272
 34
0.0
100
AcDbRotatedDimension
1001
ACAD
1000
DSTYLE
1002
{
1070
    40
1040
30.0
1070
    42
1040
1.0
1070
   143
1040
0.039
1070
   172
1070
     1
1070
   271
1070
     4
1070
   272
1070
     4
1070
   279
1070
     0
1070
   284
1070
     0
1070
   285
1070
     0
1070
   286
1070
     0
1070
   341
1005
84D8
1070
   343
1005
84D8
1070
   344
1005
84D8
1002
}
  0
DIMENSION
  5
85A6
330
84C5
100
AcDbEntity
  8
3
100
AcDbDimension
  2
*D32
 10
2715.942858765823
 20
6369.351203603754
 30
0.0
 11
2155.942858765823
 21
6444.351203603753
 31
0.0
 70
    32
 71
     5
 42
1120.0
  3
IGA
100
AcDbAlignedDimension
 13
1595.942858765823
 23
6180.453943093272
 33
0.0
 14
2715.942858765823
 24
6180.453943093272
 34
0.0
100
AcDbRotatedDimension
1001
ACAD
1000
DSTYLE
1002
{
1070
    40
1040
30.0
1070
    42
1040
1.0
1070
   143
1040
0.039
1070
   172
1070
     1
1070
   271
1070
     4
1070
   272
1070
     4
1070
   279
1070
     1
1070
   284
1070
     0
1070
   285
1070
     0
1070
   286
1070
     0
1070
   341
1005
84D8
1070
   343
1005
84D8
1070
   344
1005
84D8
1002
}
  0
DIMENSION
  5
85B3
330
84C5
100
AcDbEntity
  8
3
100
AcDbDimension
  2
*D33
 10
3065.518578294672
 20
4805.453943093271
 30
0.0
 11
2990.518578294672
 21
5492.953943093272
 31
0.0
 70
    32
 71
     5
 42
1375.000000000001
  3
IGA
100
AcDbAlignedDimension
 13
2715.942858765823
 23
6180.453943093272
 33
0.0
 14
2715.942858765823
 24
4805.453943093271
 34
0.0
 50
90.0
100
AcDbRotatedDimension
1001
ACAD
1000
DSTYLE
1002
{
1070
    40
1040
30.0
1070
    42
1040
1.0
1070
   143
1040
0.039
1070
   172
1070
     1
1070
   271
1070
     4
1070
   272
1070
     4
1070
   279
1070
     0
1070
   284
1070
     0
1070
   285
1070
     0
1070
   286
1070
     0
1070
   341
1005
84D8
1070
   343
1005
84D8
1070
   344
1005
84D8
1002
}
  0
DIMENSION
  5
85C0
330
84C5
100
AcDbEntity
  8
3
100
AcDbDimension
  2
*D34
 10
2715.942858765823
 20
4409.270515068969
 30
0.0
 11
1780.942858765823
 21
4484.270515068969
 31
0.0
 70
    32
 71
     5
 42
1869.999999999999
  3
IGA
100
AcDbAlignedDimension
 13
845.942858765823
 23
4805.453943093271
 33
0.0
 14
2715.942858765823
 24
4805.453943093271
 34
0.0
100
AcDbRotatedDimension
1001
ACAD
1000
DSTYLE
1002
{
1070
    40
1040
30.0
1070
    42
1040
1.0
1070
   143
1040
0.039
1070
   172
1070
     1
1070
   271
1070
     4
1070
   272
1070
     4
1070
   279
1070
     0
1070
   284
1070
     0
1070
   285
1070
     0
1070
   286
1070
     0
1070
   341
1005
84D8
1070
   343
1005
84D8
1070
   344
1005
84D8
1002
}
  0
DIMENSION
  5
85CD
330
84C5
100
AcDbEntity
  8
3
100
AcDbDimension
  2
*D35
 10
626.5959386067626
 20
5605.453943093273
 30
0.0
 11
551.5959386067617
 21
5205.453943093273
 31
0.0
 70
    32
 71
     5
 42
800.0000000000008
  3
IGA
100
AcDbAlignedDimension
 13
845.942858765823
 23
4805.453943093272
 33
0.0
 14
845.9428587658239
 24
5605.453943093273
 34
0.0
 50
90.0
100
AcDbRotatedDimension
1001
ACAD
1000
DSTYLE
1002
{
1070
    40
1040
30.0
1070
    42
1040
1.0
1070
   143
1040
0.039
1070
   172
1070
     1
1070
   271
1070
     4
1070
   272
1070
     4
1070
   279
1070
     0
1070
   284
1070
     0
1070
   285
1070
     0
1070
   286
1070
     0
1070
   341
1005
84D8
1070
   343
1005
84D8
1070
   344
1005
84D8
1002
}
  0
DIMENSION
  5
85DA
330
84C5
100
AcDbEntity
  8
3
100
AcDbDimension
  2
*D36
 10
2155.942858765823
 20
3907.417695263248
 30
0.0
 11
2465.942858765823
 21
3982.417695263248
 31
0.0
 70
    32
 71
     5
 42
620.0
  3
IGA
100
AcDbAlignedDimension
 13
2775.942858765823
 23
3790.954481859346
 33
0.0
 14
2155.942858765823
 24
3789.416924202903
 34
0.0
100
AcDbRotatedDimension
1001
ACAD
1000
DSTYLE
1002
{
1070
    40
1040
30.0
1070
    42
1040
1.0
1070
   143
1040
0.039
1070
   172
1070
     1
1070
   271
1070
     4
1070
   272
1070
     4
1070
   279
1070
     0
1070
   284
1070
     0
1070
   285
1070
     0
1070
   286
1070
     0
1070
   341
1005
84D8
1070
   343
1005
84D8
1070
   344
1005
84D8
1002
}
  0
DIMENSION
  5
85E7
330
84C5
100
AcDbEntity
  8
3
100
AcDbDimension
  2
*D37
 10
1378.942858765823
 20
3907.417695263248
 30
0.0
 11
1767.442858765823
 21
3982.417695263248
 31
0.0
 70
    32
 71
     5
 42
777.0
  3
IGA
100
AcDbAlignedDimension
 13
2155.942858765823
 23
3789.416924202903
 33
0.0
 14
1378.942858765823
 24
2854.454481859345
 34
0.0
100
AcDbRotatedDimension
1001
ACAD
1000
DSTYLE
1002
{
1070
    40
1040
30.0
1070
    42
1040
1.0
1070
   143
1040
0.039
1070
   172
1070
     1
1070
   271
1070
     4
1070
   272
1070
     4
1070
   279
1070
     1
1070
   284
1070
     0
1070
   285
1070
     0
1070
   286
1070
     0
1070
   341
1005
84D8
1070
   343
1005
84D8
1070
   344
1005
84D8
1002
}
  0
DIMENSION
  5
85F4
330
84C5
100
AcDbEntity
  8
3
100
AcDbDimension
  2
*D38
 10
845.9428587658239
 20
4148.673329759662
 30
0.0
 11
1810.942858765823
 21
4223.673329759662
 31
0.0
 70
    32
 71
     5
 42
1929.999999999999
  3
IGA
100
AcDbAlignedDimension
 13
2775.942858765823
 23
3790.954481859346
 33
0.0
 14
845.9428587658239
 24
2207.454481859345
 34
0.0
100
AcDbRotatedDimension
1001
ACAD
1000
DSTYLE
1002
{
1070
    40
1040
30.0
1070
    42
1040
1.0
1070
   143
1040
0.039
1070
   172
1070
     1
1070
   271
1070
     4
1070
   272
1070
     4
1070
   279
1070
     0
1070
   284
1070
     0
1070
   285
1070
     0
1070
   286
1070
     0
1070
   341
1005
84D8
1070
   343
1005
84D8
1070
   344
1005
84D8
1002
}
  0
DIMENSION
  5
8601
330
84C5
100
AcDbEntity
  8
3
100
AcDbDimension
  2
*D39
 10
2931.381211645021
 20
2823.454481859346
 30
0.0
 11
2856.38121164502
 21
3285.954481859346
 31
0.0
 70
    32
 71
     5
 42
924.9999999999991
  3
IGA
100
AcDbAlignedDimension
 13
2775.942858765823
 23
3748.454481859345
 33
0.0
 14
2775.942858765823
 24
2823.454481859346
 34
0.0
 50
90.0
100
AcDbRotatedDimension
1001
ACAD
1000
DSTYLE
1002
{
1070
    40
1040
30.0
1070
    42
1040
1.0
1070
   143
1040
0.039
1070
   172
1070
     1
1070
   271
1070
     4
1070
   272
1070
     4
1070
   279
1070
     0
1070
   284
1070
     0
1070
   285
1070
     0
1070
   286
1070
     0
1070
   341
1005
84D8
1070
   343
1005
84D8
1070
   344
1005
84D8
1002
}
  0
DIMENSION
  5
860E
330
84C5
100
AcDbEntity
  8
3
100
AcDbDimension
  2
*D40
 10
3083.201335235855
 20
2787.454481859346
 30
0.0
 11
3008.201335235855
 21
3267.954481859346
 31
0.0
 70
    32
 71
     5
 42
960.999999999999
  3
IGA
100
AcDbAlignedDimension
 13
2775.942858765823
 23
3748.454481859345
 33
0.0
 14
2812.198197544368
 24
2787.454481859346
 34
0.0
 50
90.0
100
AcDbRotatedDimension
1001
ACAD
1000
DSTYLE
1002
{
1070
    40
1040
30.0
1070
    42
1040
1.0
1070
   143
1040
0.039
1070
   172
1070
     1
1070
   271
1070
     4
1070
   272
1070
     4
1070
   279
1070
     0
1070
   284
1070
     0
1070
   285
1070
     0
1070
   286
1070
     0
1070
   341
1005
84D8
1070
   343
1005
84D8
1070
   344
1005
84D8
1002
}
  0
DIMENSION
  5
861B
330
84C5
100
AcDbEntity
  8
3
100
AcDbDimension
  2
*D41
 10
3083.201335235855
 20
2107.454481859345
 30
0.0
 11
3008.201335235855
 21
2447.454481859346
 31
0.0
 70
    32
 71
     5
 42
680.0000000000009
  3
IGA
100
AcDbAlignedDimension
 13
2812.198197544368
 23
2787.454481859346
 33
0.0
 14
2715.942858765823
 24
2107.454481859345
 34
0.0
 50
90.0
100
AcDbRotatedDimension
1001
ACAD
1000
DSTYLE
1002
{
1070
    40
1040
30.0
1070
    42
1040
1.0
1070
   143
1040
0.039
1070
   172
1070
     1
1070
   271
1070
     4
1070
   272
1070
     4
1070
   279
1070
     1
1070
   284
1070
     0
1070
   285
1070
     0
1070
   286
1070
     0
1070
   341
1005
84D8
1070
   343
1005
84D8
1070
   344
1005
84D8
1002
}
  0
ENDSEC
  0
SECTION
  2
OBJECTS
  0
DICTIONARY
  5
8462
330
0
100
AcDbDictionary
281
     1
  3
ACAD_CIP_PREVIOUS_PRODUCT_INFO
350
8508
  3
ACAD_COLOR
350
84B8
  3
ACAD_DETAILVIEWSTYLE
350
84BF
  3
ACAD_GROUP
350
8463
  3
ACAD_LAYOUT
350
84B7
  3
ACAD_MATERIAL
350
8466
  3
ACAD_MLEADERSTYLE
350
84BB
  3
ACAD_MLINESTYLE
350
84B4
  3
ACAD_PLOTSETTINGS
350
84B6
  3
ACAD_PLOTSTYLENAME
350
8464
  3
ACAD_SCALELIST
350
8498
  3
ACAD_SECTIONVIEWSTYLE
350
84BD
  3
ACAD_TABLESTYLE
350
84B9
  3
ACAD_VISUALSTYLE
350
847F
  3
ACDB_RECOMPOSE_DATA
350
865A
  3
AcDbVariableDictionary
350
864D
  3
DWGPROPS
350
865B
  0
DICTIONARY
  5
8643
330
84AA
100
AcDbDictionary
280
     1
281
     1
  3
ADSK_XREC_LAYER_RECONCILED
360
8644
  0
DICTIONARY
  5
8645
330
84C9
100
AcDbDictionary
280
     1
281
     1
  3
ADSK_XREC_LAYER_RECONCILED
360
8646
  0
DICTIONARY
  5
8647
330
84CC
100
AcDbDictionary
280
     1
281
     1
  3
ADSK_XREC_LAYER_RECONCILED
360
8648
  0
DICTIONARY
  5
8649
330
84CD
100
AcDbDictionary
280
     1
281
     1
  3
ADSK_XREC_LAYER_RECONCILED
360
864A
  0
DICTIONARY
  5
864B
330
84CE
100
AcDbDictionary
280
     1
281
     1
  3
ADSK_XREC_LAYER_RECONCILED
360
864C
  0
DICTIONARY
  5
8531
330
84C5
100
AcDbDictionary
280
     1
281
     1
  3
ACAD_SORTENTS
360
8532
  0
XRECORD
  5
8508
102
{ACAD_REACTORS
330
8462
102
}
330
8462
100
AcDbXrecord
280
     1
300
ACDLT
300
2015
300
INVLTS_F_S
  0
DICTIONARY
  5
84B8
102
{ACAD_REACTORS
330
8462
102
}
330
8462
100
AcDbDictionary
281
     1
  0
DICTIONARY
  5
84BF
102
{ACAD_REACTORS
330
8462
102
}
330
8462
100
AcDbDictionary
281
     1
  3
Imperial24
350
84C0
  0
DICTIONARY
  5
8463
102
{ACAD_REACTORS
330
8462
102
}
330
8462
100
AcDbDictionary
281
     1
  0
DICTIONARY
  5
84B7
102
{ACAD_REACTORS
330
8462
102
}
330
8462
100
AcDbDictionary
281
     1
  3
Model
350
84C8
  3
レイアウト1
350
84C4
  0
DICTIONARY
  5
8466
102
{ACAD_REACTORS
330
8462
102
}
330
8462
100
AcDbDictionary
281
     1
  3
ByBlock
350
846F
  3
ByLayer
350
8467
  3
Global
350
8477
  0
DICTIONARY
  5
84BB
102
{ACAD_REACTORS
330
8462
102
}
330
8462
100
AcDbDictionary
281
     1
  3
Standard
350
84BC
  0
DICTIONARY
  5
84B4
102
{ACAD_REACTORS
330
8462
102
}
330
8462
100
AcDbDictionary
281
     1
  3
Standard
350
84B5
  0
DICTIONARY
  5
84B6
102
{ACAD_REACTORS
330
8462
102
}
330
8462
100
AcDbDictionary
281
     1
  0
ACDBDICTIONARYWDFLT
  5
8464
102
{ACAD_REACTORS
330
8462
102
}
330
8462
100
AcDbDictionary
281
     1
  3
Normal
350
8465
100
AcDbDictionaryWithDefault
340
8465
  0
DICTIONARY
  5
8498
102
{ACAD_REACTORS
330
8462
102
}
330
8462
100
AcDbDictionary
281
     1
  3
A0
350
8499
  3
A1
350
849A
  3
A2
350
849B
  3
A3
350
849C
  3
A4
350
849D
  3
A5
350
849E
  3
A6
350
849F
  3
A7
350
84A0
  3
A8
350
84A1
  3
A9
350
84A2
  3
B0
350
84A3
  3
B1
350
84A4
  3
B2
350
84A5
  3
B3
350
84A6
  3
B4
350
84A7
  3
B5
350
84A8
  3
B6
350
84A9
  0
DICTIONARY
  5
84BD
102
{ACAD_REACTORS
330
8462
102
}
330
8462
100
AcDbDictionary
281
     1
  3
Imperial24
350
84BE
  0
DICTIONARY
  5
84B9
102
{ACAD_REACTORS
330
8462
102
}
330
8462
100
AcDbDictionary
281
     1
  3
Standard
350
84BA
  0
DICTIONARY
  5
847F
102
{ACAD_REACTORS
330
8462
102
}
330
8462
100
AcDbDictionary
281
     1
  3
2dWireframe
350
8485
  3
Basic
350
8484
  3
Brighten
350
848B
  3
ColorChange
350
848F
  3
Conceptual
350
8488
  3
Dim
350
848A
  3
EdgeColorOff
350
8497
  3
Facepattern
350
848E
  3
Flat
350
8480
  3
FlatWithEdges
350
8481
  3
Gouraud
350
8482
  3
GouraudWithEdges
350
8483
  3
Hidden
350
8487
  3
JitterOff
350
8495
  3
Linepattern
350
848D
  3
OverhangOff
350
8496
  3
Realistic
350
8489
  3
Shaded
350
8494
  3
Shaded with edges
350
8493
  3
Shades of Gray
350
8490
  3
Sketchy
350
8491
  3
Thicken
350
848C
  3
Wireframe
350
8486
  3
X-Ray
350
8492
  0
XRECORD
  5
865A
102
{ACAD_REACTORS
330
8462
102
}
330
8462
100
AcDbXrecord
280
     1
 90
        1
330
84BA
  0
DICTIONARY
  5
864D
102
{ACAD_REACTORS
330
8462
102
}
330
8462
100
AcDbDictionary
281
     1
  3
CANNOSCALE
350
8652
  3
CMLEADERSTYLE
350
864F
  3
CTABLESTYLE
350
864E
  3
CVIEWDETAILSTYLE
350
8650
  3
CVIEWSECTIONSTYLE
350
8651
  3
DIMASSOC
350
8655
  3
INDEXCTL
350
8654
  3
SORTENTS
350
8653
  3
XCLIPFRAME
350
8656
  0
XRECORD
  5
865B
102
{ACAD_REACTORS
330
8462
102
}
330
8462
100
AcDbXrecord
280
     1
  1
DWGPROPS COOKIE
  2

  3

  4

  6

  7

  8
yasukiyo.ogawa
  9

300
=
301
=
302
=
303
=
304
=
305
=
306
=
307
=
308
=
309
=
 40
0.0234952893518519
 41
2451389.471649768
 42
2460269.565463669
  1

 90
        0
  0
XRECORD
  5
8644
102
{ACAD_REACTORS
330
8643
102
}
330
8643
100
AcDbXrecord
280
     1
290
     1
  0
XRECORD
  5
8646
102
{ACAD_REACTORS
330
8645
102
}
330
8645
100
AcDbXrecord
280
     1
290
     1
  0
XRECORD
  5
8648
102
{ACAD_REACTORS
330
8647
102
}
330
8647
100
AcDbXrecord
280
     1
290
     1
  0
XRECORD
  5
864A
102
{ACAD_REACTORS
330
8649
102
}
330
8649
100
AcDbXrecord
280
     1
290
     1
  0
XRECORD
  5
864C
102
{ACAD_REACTORS
330
864B
102
}
330
864B
100
AcDbXrecord
280
     1
290
     1
  0
SORTENTSTABLE
  5
8532
102
{ACAD_REACTORS
330
8531
102
}
330
8531
100
AcDbSortentsTable
330
84C5
331
7F60
  5
7F62
331
8509
  5
8523
331
7D1F
  5
7F51
331
7D0E
  5
7D10
331
7CFD
  5
7CFF
331
7CDB
  5
7CE1
331
7CCA
  5
7CD3
331
7CB9
  5
7CBB
331
7C9F
  5
7CA1
331
7C75
  5
7C77
331
7C64
  5
7C67
331
7C53
  5
7C56
331
7C42
  5
7C42
331
7C31
  5
7C31
331
7F61
  5
7F63
331
7D20
  5
7F52
331
7D0F
  5
7D11
331
7CFE
  5
7D00
331
7CDC
  5
7CE2
331
7CBA
  5
7CBC
331
7CA0
  5
7CA2
331
7C76
  5
7C82
331
7C54
  5
7C57
331
7C43
  5
7C43
331
7F62
  5
7F64
331
7F51
  5
7F53
331
7D10
  5
7D12
331
7CFF
  5
7D01
331
7CEE
  5
7CF0
331
7CBB
  5
7CBD
331
7CA1
  5
7CA3
331
7C77
  5
7C83
331
7C66
  5
7C6C
331
7C44
  5
7C44
331
7C33
  5
7C33
331
82C4
  5
82DE
331
7F63
  5
7F65
331
7F52
  5
7F56
331
7D11
  5
7D13
331
7D00
  5
7D02
331
7CEF
  5
7CF4
331
7CBC
  5
7CBE
331
7CA2
  5
7CA4
331
7C67
  5
7C70
331
7C56
  5
7C5A
331
7C45
  5
7C45
331
7C34
  5
7C34
331
7F64
  5
7F66
331
7F53
  5
7F57
331
7D12
  5
7D14
331
7D01
  5
7D03
331
7CF0
  5
7CF6
331
7CBD
  5
7CBF
331
7CA3
  5
7CA5
331
7C57
  5
7C5C
331
7C46
  5
7C46
331
7C35
  5
7C35
331
7F65
  5
7F67
331
7D13
  5
7D15
331
7D02
  5
7D04
331
7CBE
  5
7CC0
331
7CA4
  5
7CA6
331
7C82
  5
7C84
331
7C47
  5
7C47
331
7C36
  5
7C36
331
7F66
  5
7F68
331
7D14
  5
7D16
331
7D03
  5
7D05
331
7CE1
  5
7CE3
331
7CBF
  5
7CC1
331
7CA5
  5
7CA7
331
7C83
  5
7C85
331
7C48
  5
7C48
331
7C37
  5
7C37
331
7F67
  5
7F69
331
7F56
  5
7F58
331
7D15
  5
7D1D
331
7D04
  5
7D06
331
7CE2
  5
7CE4
331
7CC0
  5
7CC3
331
7CA6
  5
7CA8
331
7C84
  5
7C86
331
7C5A
  5
7C5D
331
7C49
  5
7C49
331
7C38
  5
7C38
331
7F68
  5
7F6A
331
7F57
  5
7F59
331
7D16
  5
7D1E
331
7D05
  5
7D07
331
7CE3
  5
7CE5
331
7CD2
  5
7CD4
331
7CC1
  5
7CC9
331
7CB0
  5
7CB2
331
82EB
  5
8516
331
7CA7
  5
7CA9
331
7C85
  5
7C87
331
7C6C
  5
7C71
331
7C4A
  5
7C4A
331
7C39
  5
7C39
331
7F69
  5
7F6B
331
7F58
  5
7F5A
331
7D06
  5
7D08
331
7CE4
  5
7CE6
331
7CD3
  5
7CD5
331
7CB1
  5
7CB3
331
7CA8
  5
7CAA
331
8523
  5
8533
331
7C86
  5
7C88
331
7C5C
  5
7C64
331
7C4B
  5
7C4B
331
7C3A
  5
7C3A
331
7F6A
  5
7F6C
331
7F59
  5
7F5B
331
7D07
  5
7D09
331
7CF6
  5
7CF8
331
7CE5
  5
7CE7
331
7CD4
  5
7CD6
331
7CC3
  5
7CCA
331
7CB2
  5
7CB4
331
7CA9
  5
7CAB
331
7C87
  5
7C8A
331
7C5D
  5
7C66
331
7C4C
  5
7C4E
331
7C3B
  5
7C3B
331
7F6B
  5
7F6D
331
7F5A
  5
7F5D
331
7D08
  5
7D0A
331
7CF7
  5
7CF9
331
7CE6
  5
7CE8
331
7CD5
  5
7CD7
331
7CB3
  5
7CB5
331
7CAA
  5
7CAC
331
7C88
  5
7C8B
331
7C4D
  5
7C4F
331
7C3C
  5
7C3C
331
7F6C
  5
7F6E
331
7F5B
  5
7F5E
331
7D09
  5
7D0B
331
7CF8
  5
7CFA
331
7CE7
  5
7CE9
331
7CD6
  5
7CD8
331
7CB4
  5
7CB6
331
7CAB
  5
7CAD
331
7C9A
  5
7C9C
331
7C70
  5
7C73
331
82DE
  5
8509
331
7C4E
  5
7C51
331
7C3D
  5
7C3D
331
7F6D
  5
7F6F
331
7D0A
  5
7D0C
331
7CF9
  5
7CFB
331
7CD7
  5
7CD9
331
7CB5
  5
7CB7
331
7CAC
  5
7CAE
331
7C8A
  5
7C8C
331
7C71
  5
7C75
331
8516
  5
8530
331
7C4F
  5
7C53
331
7C3E
  5
7C3E
331
7F6E
  5
82B7
331
7F5D
  5
7F5F
331
7D0B
  5
7D0D
331
7CFA
  5
7CFC
331
7CD8
  5
7CDA
331
7CB6
  5
7CB8
331
7CAD
  5
7CAF
331
7C8B
  5
7C8D
331
7C3F
  5
7C3F
331
7F6F
  5
82C4
331
7F5E
  5
7F60
331
7D1D
  5
7D1F
331
7D0C
  5
7D0E
331
7CFB
  5
7CFD
331
7CD9
  5
7CDB
331
7CB7
  5
7CB9
331
7CAE
  5
7CB0
331
7C9D
  5
7C9F
331
7C8C
  5
7C94
331
7C73
  5
7C76
331
7C51
  5
7C54
331
7C40
  5
7C40
331
82D1
  5
82EB
331
82B7
  5
82D1
331
7D1E
  5
7D20
331
7D0D
  5
7D0F
331
7CFC
  5
7CFE
331
7CDA
  5
7CDC
331
7CC9
  5
7CD2
331
7CB8
  5
7CBA
331
7CAF
  5
7CB1
331
7C9E
  5
7CA0
331
7C8D
  5
7C95
331
7F5F
  5
7F61
331
7C41
  5
7C41
  0
ACDBDETAILVIEWSTYLE
  5
84C0
102
{ACAD_XDICTIONARY
360
8693
102
}
102
{ACAD_REACTORS
330
84BF
102
}
330
84BF
100
AcDbModelDocViewStyle
 70
     0
  3
Imperial24
290
     0
100
AcDbDetailViewStyle
 70
     0
 71
     0
 90
        3
 71
     1
340
84AB
 40
0.24
340
0
 40
0.24
300

 40
0.36
280
     3
 71
     2
340
84B2
 90
       25
 71
     3
340
84AB
 40
0.24
 90
        1
 40
0.75
 90
        1
300
%<\AcVar ViewType \f "%tc1">% %<\AcVar ViewDetailId>%\PSCALE %<\AcVar ViewScale \f "%sn">%
 71
     4
340
84B2
 90
       25
340
84B2
 90
       25
280
     0
  0
LAYOUT
  5
84C8
102
{ACAD_XDICTIONARY
360
8697
102
}
102
{ACAD_REACTORS
330
84B7
102
}
330
84B7
100
AcDbPlotSettings
  1

  2
RICOH imagio MP W3600 RPCS
  4

  6

 40
0.0
 41
0.0
 42
0.0
 43
0.0
 44
0.0
 45
0.0
 46
0.0
 47
0.0
 48
0.0
 49
0.0
140
0.0
141
0.0
142
1.0
143
1.0
 70
  1712
 72
     0
 73
     0
 74
     0
  7

 75
     0
147
1.0
148
0.0
149
0.0
100
AcDbLayout
  1
Model
 70
     1
 71
     0
 10
0.0
 20
0.0
 11
12.0
 21
9.0
 12
0.0
 22
0.0
 32
0.0
 14
0.0
 24
0.0
 34
0.0
 15
0.0
 25
0.0
 35
0.0
146
0.0
 13
0.0
 23
0.0
 33
0.0
 16
1.0
 26
0.0
 36
0.0
 17
0.0
 27
1.0
 37
0.0
 76
     0
330
84C5
331
84CA
  0
LAYOUT
  5
84C4
102
{ACAD_XDICTIONARY
360
8695
102
}
102
{ACAD_REACTORS
330
84B7
102
}
330
84B7
100
AcDbPlotSettings
  1

  2
RICOH imagio MP W3600 RPCS
  4

  6

 40
0.0
 41
0.0
 42
0.0
 43
0.0
 44
0.0
 45
0.0
 46
0.0
 47
0.0
 48
0.0
 49
0.0
140
0.0
141
0.0
142
1.0
143
1.0
 70
   688
 72
     0
 73
     0
 74
     5
  7

 75
    16
147
1.0
148
0.0
149
0.0
100
AcDbLayout
  1
レイアウト1
 70
     1
 71
     1
 10
0.0
 20
0.0
 11
12.0
 21
9.0
 12
0.0
 22
0.0
 32
0.0
 14
1.000000000000000E+20
 24
1.000000000000000E+20
 34
1.000000000000000E+20
 15
-1.000000000000000E+20
 25
-1.000000000000000E+20
 35
-1.000000000000000E+20
146
0.0
 13
0.0
 23
0.0
 33
0.0
 16
1.0
 26
0.0
 36
0.0
 17
0.0
 27
1.0
 37
0.0
 76
     0
330
84C1
  0
MATERIAL
  5
846F
102
{ACAD_XDICTIONARY
360
8470
102
}
102
{ACAD_REACTORS
330
8466
102
}
330
8466
100
AcDbMaterial
  1
ByBlock
 72
     0
 43
0.0208333333333333
 43
0.0
 43
0.0
 43
0.0
 43
0.0
 43
0.0208333333333333
 43
0.0
 43
0.0
 43
0.0
 43
0.0
 43
1.0
 43
0.0
 43
0.0
 43
0.0
 43
0.0
 43
1.0
 77
     0
 47
0.0208333333333333
 47
0.0
 47
0.0
 47
0.0
 47
0.0
 47
0.0208333333333333
 47
0.0
 47
0.0
 47
0.0
 47
0.0
 47
1.0
 47
0.0
 47
0.0
 47
0.0
 47
0.0
 47
1.0
171
     0
 49
0.0208333333333333
 49
0.0
 49
0.0
 49
0.0
 49
0.0
 49
0.0208333333333333
 49
0.0
 49
0.0
 49
0.0
 49
0.0
 49
1.0
 49
0.0
 49
0.0
 49
0.0
 49
0.0
 49
1.0
175
     0
142
0.0208333333333333
142
0.0
142
0.0
142
0.0
142
0.0
142
0.0208333333333333
142
0.0
142
0.0
142
0.0
142
0.0
142
1.0
142
0.0
142
0.0
142
0.0
142
0.0
142
1.0
179
     0
144
0.0208333333333333
144
0.0
144
0.0
144
0.0
144
0.0
144
0.0208333333333333
144
0.0
144
0.0
144
0.0
144
0.0
144
1.0
144
0.0
144
0.0
144
0.0
144
0.0
144
1.0
147
0.0208333333333333
147
0.0
147
0.0
147
0.0
147
0.0
147
0.0208333333333333
147
0.0
147
0.0
147
0.0
147
0.0
147
1.0
147
0.0
147
0.0
147
0.0
147
0.0
147
1.0
  0
MATERIAL
  5
8467
102
{ACAD_XDICTIONARY
360
8468
102
}
102
{ACAD_REACTORS
330
8466
102
}
330
8466
100
AcDbMaterial
  1
ByLayer
 72
     0
 43
0.0208333333333333
 43
0.0
 43
0.0
 43
0.0
 43
0.0
 43
0.0208333333333333
 43
0.0
 43
0.0
 43
0.0
 43
0.0
 43
1.0
 43
0.0
 43
0.0
 43
0.0
 43
0.0
 43
1.0
 77
     0
 47
0.0208333333333333
 47
0.0
 47
0.0
 47
0.0
 47
0.0
 47
0.0208333333333333
 47
0.0
 47
0.0
 47
0.0
 47
0.0
 47
1.0
 47
0.0
 47
0.0
 47
0.0
 47
0.0
 47
1.0
171
     0
 49
0.0208333333333333
 49
0.0
 49
0.0
 49
0.0
 49
0.0
 49
0.0208333333333333
 49
0.0
 49
0.0
 49
0.0
 49
0.0
 49
1.0
 49
0.0
 49
0.0
 49
0.0
 49
0.0
 49
1.0
175
     0
142
0.0208333333333333
142
0.0
142
0.0
142
0.0
142
0.0
142
0.0208333333333333
142
0.0
142
0.0
142
0.0
142
0.0
142
1.0
142
0.0
142
0.0
142
0.0
142
0.0
142
1.0
179
     0
144
0.0208333333333333
144
0.0
144
0.0
144
0.0
144
0.0
144
0.0208333333333333
144
0.0
144
0.0
144
0.0
144
0.0
144
1.0
144
0.0
144
0.0
144
0.0
144
0.0
144
1.0
147
0.0208333333333333
147
0.0
147
0.0
147
0.0
147
0.0
147
0.0208333333333333
147
0.0
147
0.0
147
0.0
147
0.0
147
1.0
147
0.0
147
0.0
147
0.0
147
0.0
147
1.0
  0
MATERIAL
  5
8477
102
{ACAD_XDICTIONARY
360
8478
102
}
102
{ACAD_REACTORS
330
8466
102
}
330
8466
100
AcDbMaterial
  1
Global
 72
     0
 43
0.0208333333333333
 43
0.0
 43
0.0
 43
0.0
 43
0.0
 43
0.0208333333333333
 43
0.0
 43
0.0
 43
0.0
 43
0.0
 43
1.0
 43
0.0
 43
0.0
 43
0.0
 43
0.0
 43
1.0
 77
     0
 47
0.0208333333333333
 47
0.0
 47
0.0
 47
0.0
 47
0.0
 47
0.0208333333333333
 47
0.0
 47
0.0
 47
0.0
 47
0.0
 47
1.0
 47
0.0
 47
0.0
 47
0.0
 47
0.0
 47
1.0
171
     0
 49
0.0208333333333333
 49
0.0
 49
0.0
 49
0.0
 49
0.0
 49
0.0208333333333333
 49
0.0
 49
0.0
 49
0.0
 49
0.0
 49
1.0
 49
0.0
 49
0.0
 49
0.0
 49
0.0
 49
1.0
175
     0
142
0.0208333333333333
142
0.0
142
0.0
142
0.0
142
0.0
142
0.0208333333333333
142
0.0
142
0.0
142
0.0
142
0.0
142
1.0
142
0.0
142
0.0
142
0.0
142
0.0
142
1.0
179
     0
144
0.0208333333333333
144
0.0
144
0.0
144
0.0
144
0.0
144
0.0208333333333333
144
0.0
144
0.0
144
0.0
144
0.0
144
1.0
144
0.0
144
0.0
144
0.0
144
0.0
144
1.0
147
0.0208333333333333
147
0.0
147
0.0
147
0.0
147
0.0
147
0.0208333333333333
147
0.0
147
0.0
147
0.0
147
0.0
147
1.0
147
0.0
147
0.0
147
0.0
147
0.0
147
1.0
  0
MLEADERSTYLE
  5
84BC
102
{ACAD_REACTORS
330
84BB
102
}
330
84BB
100
AcDbMLeaderStyle
170
     2
171
     1
172
     0
 90
        2
 40
0.0
 41
0.0
173
     1
 91
-1056964608
340
84B0
 92
       -2
290
     1
 42
0.09
291
     1
 43
0.36
  3
Standard
 44
0.18
300

342
84AB
174
     1
178
     6
175
     1
176
     0
 93
-1056964608
 45
0.18
292
     0
297
     0
 46
0.18
 94
-1056964608
 47
1.0
 49
1.0
140
1.0
293
     1
141
0.0
294
     1
177
     0
142
1.0
295
     0
296
     0
143
0.125
1001
ACAD_MLEADERVER
1070
     2
  0
MLINESTYLE
  5
84B5
102
{ACAD_REACTORS
330
84B4
102
}
330
84B4
100
AcDbMlineStyle
  2
STANDARD
 70
     0
  3

 62
   256
 51
90.0
 52
90.0
 71
     2
 49
0.5
 62
   256
  6
BYLAYER
 49
-0.5
 62
   256
  6
BYLAYER
  0
ACDBPLACEHOLDER
  5
8465
102
{ACAD_REACTORS
330
8464
102
}
330
8464
  0
SCALE
  5
8499
102
{ACAD_REACTORS
330
8498
102
}
330
8498
100
AcDbScale
 70
     0
300
1:1
140
1.0
141
1.0
290
     1
  0
SCALE
  5
849A
102
{ACAD_REACTORS
330
8498
102
}
330
8498
100
AcDbScale
 70
     0
300
1/128" = 1'-0"
140
0.0078125
141
12.0
290
     0
  0
SCALE
  5
849B
102
{ACAD_REACTORS
330
8498
102
}
330
8498
100
AcDbScale
 70
     0
300
1/64" = 1'-0"
140
0.015625
141
12.0
290
     0
  0
SCALE
  5
849C
102
{ACAD_REACTORS
330
8498
102
}
330
8498
100
AcDbScale
 70
     0
300
1/32" = 1'-0"
140
0.03125
141
12.0
290
     0
  0
SCALE
  5
849D
102
{ACAD_REACTORS
330
8498
102
}
330
8498
100
AcDbScale
 70
     0
300
1/16" = 1'-0"
140
0.0625
141
12.0
290
     0
  0
SCALE
  5
849E
102
{ACAD_REACTORS
330
8498
102
}
330
8498
100
AcDbScale
 70
     0
300
3/32" = 1'-0"
140
0.09375
141
12.0
290
     0
  0
SCALE
  5
849F
102
{ACAD_REACTORS
330
8498
102
}
330
8498
100
AcDbScale
 70
     0
300
1/8" = 1'-0"
140
0.125
141
12.0
290
     0
  0
SCALE
  5
84A0
102
{ACAD_REACTORS
330
8498
102
}
330
8498
100
AcDbScale
 70
     0
300
3/16" = 1'-0"
140
0.1875
141
12.0
290
     0
  0
SCALE
  5
84A1
102
{ACAD_REACTORS
330
8498
102
}
330
8498
100
AcDbScale
 70
     0
300
1/4" = 1'-0"
140
0.25
141
12.0
290
     0
  0
SCALE
  5
84A2
102
{ACAD_REACTORS
330
8498
102
}
330
8498
100
AcDbScale
 70
     0
300
3/8" = 1'-0"
140
0.375
141
12.0
290
     0
  0
SCALE
  5
84A3
102
{ACAD_REACTORS
330
8498
102
}
330
8498
100
AcDbScale
 70
     0
300
1/2" = 1'-0"
140
0.5
141
12.0
290
     0
  0
SCALE
  5
84A4
102
{ACAD_REACTORS
330
8498
102
}
330
8498
100
AcDbScale
 70
     0
300
3/4" = 1'-0"
140
0.75
141
12.0
290
     0
  0
SCALE
  5
84A5
102
{ACAD_REACTORS
330
8498
102
}
330
8498
100
AcDbScale
 70
     0
300
1" = 1'-0"
140
1.0
141
12.0
290
     0
  0
SCALE
  5
84A6
102
{ACAD_REACTORS
330
8498
102
}
330
8498
100
AcDbScale
 70
     0
300
1-1/2" = 1'-0"
140
1.5
141
12.0
290
     0
  0
SCALE
  5
84A7
102
{ACAD_REACTORS
330
8498
102
}
330
8498
100
AcDbScale
 70
     0
300
3" = 1'-0"
140
3.0
141
12.0
290
     0
  0
SCALE
  5
84A8
102
{ACAD_REACTORS
330
8498
102
}
330
8498
100
AcDbScale
 70
     0
300
6" = 1'-0"
140
6.0
141
12.0
290
     0
  0
SCALE
  5
84A9
102
{ACAD_REACTORS
330
8498
102
}
330
8498
100
AcDbScale
 70
     0
300
1'-0" = 1'-0"
140
12.0
141
12.0
290
     0
  0
ACDBSECTIONVIEWSTYLE
  5
84BE
102
{ACAD_XDICTIONARY
360
8691
102
}
102
{ACAD_REACTORS
330
84BD
102
}
330
84BD
100
AcDbModelDocViewStyle
 70
     0
  3
Imperial24
290
     0
100
AcDbSectionViewStyle
 70
     0
 71
     0
 90
       78
 71
     1
340
84AB
 40
0.24
340
0
340
0
 40
0.24
300
I, O, Q, S, X, Z
 40
0.48
 90
        3
 40
0.18
 90
        1
 71
     2
340
84B2
 90
       25
340
84B2
 90
       50
 40
0.24
 40
0.0
 40
0.24
 71
     3
340
84AB
 40
0.24
 90
        1
 40
0.75
 90
        1
300
%<\AcVar ViewType \f "%tc1">% %<\AcVar ViewSectionStartId>%-%<\AcVar ViewSectionEndId>%\PSCALE %<\AcVar ViewScale \f "%sn">%
 71
     4
300
ANSI31
 40
1.0
 90
        0
290
     0
290
     0
 90
        6
 40
0.0
 40
1.570796326794896
 40
0.2617993877991494
 40
1.308996938995747
 40
-0.2617993877991494
 40
1.832595714594046
  0
TABLESTYLE
  5
84BA
102
{ACAD_XDICTIONARY
360
8658
102
}
102
{ACAD_REACTORS
330
84B9
102
}
330
84B9
100
AcDbTableStyle
  3
Standard
 70
     0
 71
     0
 40
0.06
 41
0.06
280
     0
281
     0
  7
STANDARD
140
0.18
170
     2
 62
     0
 63
     7
283
     0
274
    -2
284
     1
 64
     0
275
    -2
285
     1
 65
     0
276
    -2
286
     1
 66
     0
277
    -2
287
     1
 67
     0
278
    -2
288
     1
 68
     0
279
    -2
289
     1
 69
     0
  7
STANDARD
140
0.25
170
     5
 62
     0
 63
     7
283
     0
274
    -2
284
     1
 64
     0
275
    -2
285
     1
 65
     0
276
    -2
286
     1
 66
     0
277
    -2
287
     1
 67
     0
278
    -2
288
     1
 68
     0
279
    -2
289
     1
 69
     0
  7
STANDARD
140
0.18
170
     5
 62
     0
 63
     7
283
     0
274
    -2
284
     1
 64
     0
275
    -2
285
     1
 65
     0
276
    -2
286
     1
 66
     0
277
    -2
287
     1
 67
     0
278
    -2
288
     1
 68
     0
279
    -2
289
     1
 69
     0
  0
VISUALSTYLE
  5
8485
102
{ACAD_XDICTIONARY
360
8669
102
}
102
{ACAD_REACTORS
330
847F
102
}
330
847F
100
AcDbVisualStyle
  2
2dWireframe
 70
     4
 71
     0
 72
     2
 73
     0
 90
        0
 40
-0.6
 41
-30.0
 62
     5
 63
     7
 74
     1
 91
        4
 64
     7
 65
   257
 75
     1
175
     1
 42
1.0
 92
        0
 66
   257
 43
1.0
 76
     1
 77
     6
 78
     2
 67
     7
 79
     5
170
     0
171
     0
290
     0
174
     0
 93
        1
 44
0.0
173
     0
291
     0
 45
0.0
1001
ACAD
1000
AcDbSavedByObjectVersion
1070
     0
  0
VISUALSTYLE
  5
8484
102
{ACAD_XDICTIONARY
360
8667
102
}
102
{ACAD_REACTORS
330
847F
102
}
330
847F
100
AcDbVisualStyle
  2
Basic
 70
     7
 71
     1
 72
     0
 73
     1
 90
        0
 40
-0.6
 41
-30.0
 62
     5
 63
     7
 74
     0
 91
        4
 64
     7
 65
   257
 75
     1
175
     1
 42
1.0
 92
        8
 66
     7
 43
1.0
 76
     1
 77
     6
 78
     2
 67
     7
 79
     5
170
     0
171
     0
290
     0
174
     0
 93
        1
 44
0.0
173
     0
291
     1
 45
0.0
1001
ACAD
1000
AcDbSavedByObjectVersion
1070
     0
  0
VISUALSTYLE
  5
848B
102
{ACAD_XDICTIONARY
360
8675
102
}
102
{ACAD_REACTORS
330
847F
102
}
330
847F
100
AcDbVisualStyle
  2
Brighten
 70
    12
 71
     2
 72
     2
 73
     0
 90
        0
 40
-0.6
 41
-30.0
 62
     5
 63
     7
 74
     1
 91
        4
 64
     7
 65
   257
 75
     1
175
     1
 42
1.0
 92
        8
 66
     7
 43
1.0
 76
     1
 77
     6
 78
     2
 67
     7
 79
     5
170
     0
171
     0
290
     0
174
     0
 93
        1
 44
50.0
173
     0
291
     1
 45
0.0
1001
ACAD
1000
AcDbSavedByObjectVersion
1070
     0
  0
VISUALSTYLE
  5
848F
102
{ACAD_XDICTIONARY
360
867D
102
}
102
{ACAD_REACTORS
330
847F
102
}
330
847F
100
AcDbVisualStyle
  2
ColorChange
 70
    16
 71
     2
 72
     2
 73
     3
 90
        0
 40
-0.6
 41
-30.0
 62
     5
 63
     8
 74
     1
 91
        4
 64
     7
 65
   257
 75
     1
175
     1
 42
1.0
 92
        8
 66
     8
 43
1.0
 76
     1
 77
     6
 78
     2
 67
     7
 79
     5
170
     0
171
     0
290
     0
174
     0
 93
        1
 44
0.0
173
     0
291
     1
 45
0.0
1001
ACAD
1000
AcDbSavedByObjectVersion
1070
     0
  0
VISUALSTYLE
  5
8488
102
{ACAD_XDICTIONARY
360
866F
102
}
102
{ACAD_REACTORS
330
847F
102
}
330
847F
100
AcDbVisualStyle
  2
Conceptual
 70
     9
 71
     3
 72
     2
 73
     0
 90
        0
 40
-0.6
 41
-30.0
 62
     5
 63
     7
 74
     2
 91
        2
 64
     7
 65
   257
 75
     1
175
     1
 42
179.0
 92
        8
 66
     7
 43
1.0
 76
     1
 77
     6
 78
     2
 67
     7
 79
     3
170
     0
171
     0
290
     0
174
     0
 93
        1
 44
0.0
173
     0
291
     0
 45
0.0
1001
ACAD
1000
AcDbSavedByObjectVersion
1070
     0
  0
VISUALSTYLE
  5
848A
102
{ACAD_XDICTIONARY
360
8673
102
}
102
{ACAD_REACTORS
330
847F
102
}
330
847F
100
AcDbVisualStyle
  2
Dim
 70
    11
 71
     2
 72
     2
 73
     0
 90
        0
 40
-0.6
 41
-30.0
 62
     5
 63
     7
 74
     1
 91
        4
 64
     7
 65
   257
 75
     1
175
     1
 42
1.0
 92
        8
 66
     7
 43
1.0
 76
     1
 77
     6
 78
     2
 67
     7
 79
     5
170
     0
171
     0
290
     0
174
     0
 93
        1
 44
-50.0
173
     0
291
     1
 45
0.0
1001
ACAD
1000
AcDbSavedByObjectVersion
1070
     0
  0
VISUALSTYLE
  5
8497
102
{ACAD_XDICTIONARY
360
868D
102
}
102
{ACAD_REACTORS
330
847F
102
}
330
847F
100
AcDbVisualStyle
  2
EdgeColorOff
 70
    22
 71
     2
 72
     2
 73
     0
 90
        0
 40
-0.6
 41
-30.0
 62
     5
 63
     7
 74
     1
 91
        4
 64
     7
 65
   257
 75
     1
175
     1
 42
1.0
 92
        8
 66
     7
 43
1.0
 76
     1
 77
     6
 78
     2
 67
     7
 79
     5
170
     0
171
     0
290
     0
174
     0
 93
        1
 44
0.0
173
     0
291
     1
 45
0.0
1001
ACAD
1000
AcDbSavedByObjectVersion
1070
     0
  0
VISUALSTYLE
  5
848E
102
{ACAD_XDICTIONARY
360
867B
102
}
102
{ACAD_REACTORS
330
847F
102
}
330
847F
100
AcDbVisualStyle
  2
Facepattern
 70
    15
 71
     2
 72
     2
 73
     0
 90
        0
 40
-0.6
 41
-30.0
 62
     5
 63
     7
 74
     1
 91
        4
 64
     7
 65
   257
 75
     1
175
     1
 42
1.0
 92
        8
 66
     7
 43
1.0
 76
     1
 77
     6
 78
     2
 67
     7
 79
     5
170
     0
171
     0
290
     0
174
     0
 93
        1
 44
0.0
173
     0
291
     1
 45
0.0
1001
ACAD
1000
AcDbSavedByObjectVersion
1070
     0
  0
VISUALSTYLE
  5
8480
102
{ACAD_XDICTIONARY
360
865F
102
}
102
{ACAD_REACTORS
330
847F
102
}
330
847F
100
AcDbVisualStyle
  2
Flat
 70
     0
 71
     2
 72
     1
 73
     1
 90
        2
 40
-0.6
 41
30.0
 62
     5
 63
     7
 74
     0
 91
        0
 64
     7
 65
   257
 75
     1
175
     1
 42
1.0
 92
        8
 66
     7
 43
1.0
 76
     1
 77
     6
 78
     2
 67
     7
 79
     5
170
     0
171
     0
290
     0
174
     0
 93
       13
 44
0.0
173
     0
291
     1
 45
0.0
1001
ACAD
1000
AcDbSavedByObjectVersion
1070
     0
  0
VISUALSTYLE
  5
8481
102
{ACAD_XDICTIONARY
360
8661
102
}
102
{ACAD_REACTORS
330
847F
102
}
330
847F
100
AcDbVisualStyle
  2
FlatWithEdges
 70
     1
 71
     2
 72
     1
 73
     1
 90
        2
 40
-0.6
 41
30.0
 62
     5
 63
     7
 74
     1
 91
        0
 64
     7
 65
   257
 75
     1
175
     1
 42
1.0
 92
        0
 66
   257
 43
1.0
 76
     1
 77
     6
 78
     2
 67
     7
 79
     5
170
     0
171
     0
290
     0
174
     0
 93
       13
 44
0.0
173
     0
291
     1
 45
0.0
1001
ACAD
1000
AcDbSavedByObjectVersion
1070
     0
  0
VISUALSTYLE
  5
8482
102
{ACAD_XDICTIONARY
360
8663
102
}
102
{ACAD_REACTORS
330
847F
102
}
330
847F
100
AcDbVisualStyle
  2
Gouraud
 70
     2
 71
     2
 72
     2
 73
     1
 90
        2
 40
-0.6
 41
30.0
 62
     5
 63
     7
 74
     0
 91
        0
 64
     7
 65
   257
 75
     1
175
     1
 42
1.0
 92
        0
 66
     7
 43
1.0
 76
     1
 77
     6
 78
     2
 67
     7
 79
     5
170
     0
171
     0
290
     0
174
     0
 93
       13
 44
0.0
173
     0
291
     1
 45
0.0
1001
ACAD
1000
AcDbSavedByObjectVersion
1070
     0
  0
VISUALSTYLE
  5
8483
102
{ACAD_XDICTIONARY
360
8665
102
}
102
{ACAD_REACTORS
330
847F
102
}
330
847F
100
AcDbVisualStyle
  2
GouraudWithEdges
 70
     3
 71
     2
 72
     2
 73
     1
 90
        2
 40
-0.6
 41
30.0
 62
     5
 63
     7
 74
     1
 91
        0
 64
     7
 65
   257
 75
     1
175
     1
 42
1.0
 92
        0
 66
   257
 43
1.0
 76
     1
 77
     6
 78
     2
 67
     7
 79
     5
170
     0
171
     0
290
     0
174
     0
 93
       13
 44
0.0
173
     0
291
     1
 45
0.0
1001
ACAD
1000
AcDbSavedByObjectVersion
1070
     0
  0
VISUALSTYLE
  5
8487
102
{ACAD_XDICTIONARY
360
866D
102
}
102
{ACAD_REACTORS
330
847F
102
}
330
847F
100
AcDbVisualStyle
  2
Hidden
 70
     6
 71
     1
 72
     2
 73
     2
 90
        0
 40
-0.6
 41
-30.0
 62
     5
 63
     7
 74
     2
 91
        2
 64
     7
 65
   257
 75
     2
175
     1
 42
40.0
 92
        0
 66
   257
 43
1.0
 76
     1
 77
     6
 78
     2
 67
     7
 79
     3
170
     0
171
     0
290
     0
174
     0
 93
        1
 44
0.0
173
     0
291
     0
 45
0.0
1001
ACAD
1000
AcDbSavedByObjectVersion
1070
     0
  0
VISUALSTYLE
  5
8495
102
{ACAD_XDICTIONARY
360
8689
102
}
102
{ACAD_REACTORS
330
847F
102
}
330
847F
100
AcDbVisualStyle
  2
JitterOff
 70
    20
 71
     2
 72
     2
 73
     0
 90
        0
 40
-0.6
 41
-30.0
 62
     5
 63
     7
 74
     1
 91
        4
 64
     7
 65
   257
 75
     1
175
     1
 42
1.0
 92
       10
 66
     7
 43
1.0
 76
     1
 77
     6
 78
     2
 67
     7
 79
     5
170
     0
171
     0
290
     0
174
     0
 93
        1
 44
0.0
173
     0
291
     1
 45
0.0
1001
ACAD
1000
AcDbSavedByObjectVersion
1070
     0
  0
VISUALSTYLE
  5
848D
102
{ACAD_XDICTIONARY
360
8679
102
}
102
{ACAD_REACTORS
330
847F
102
}
330
847F
100
AcDbVisualStyle
  2
Linepattern
 70
    14
 71
     2
 72
     2
 73
     0
 90
        0
 40
-0.6
 41
-30.0
 62
     5
 63
     7
 74
     1
 91
        4
 64
     7
 65
   257
 75
     7
175
     7
 42
1.0
 92
        8
 66
     7
 43
1.0
 76
     1
 77
     6
 78
     2
 67
     7
 79
     5
170
     0
171
     0
290
     0
174
     0
 93
        1
 44
0.0
173
     0
291
     1
 45
0.0
1001
ACAD
1000
AcDbSavedByObjectVersion
1070
     0
  0
VISUALSTYLE
  5
8496
102
{ACAD_XDICTIONARY
360
868B
102
}
102
{ACAD_REACTORS
330
847F
102
}
330
847F
100
AcDbVisualStyle
  2
OverhangOff
 70
    21
 71
     2
 72
     2
 73
     0
 90
        0
 40
-0.6
 41
-30.0
 62
     5
 63
     7
 74
     1
 91
        4
 64
     7
 65
   257
 75
     1
175
     1
 42
1.0
 92
        9
 66
     7
 43
1.0
 76
     1
 77
     6
 78
     2
 67
     7
 79
     5
170
     0
171
     0
290
     0
174
     0
 93
        1
 44
0.0
173
     0
291
     1
 45
0.0
1001
ACAD
1000
AcDbSavedByObjectVersion
1070
     0
  0
VISUALSTYLE
  5
8489
102
{ACAD_XDICTIONARY
360
8671
102
}
102
{ACAD_REACTORS
330
847F
102
}
330
847F
100
AcDbVisualStyle
  2
Realistic
 70
     8
 71
     2
 72
     3
 73
     0
 90
        2
 40
-0.6
 41
30.0
 62
     5
 63
     7
 74
     0
 91
        0
 64
     7
 65
   257
 75
     1
175
     1
 42
1.0
 92
        8
 66
   257
 43
1.0
 76
     1
 77
     6
 78
     2
 67
     7
 79
     3
170
     0
171
     0
290
     0
174
     0
 93
       13
 44
0.0
173
     0
291
     0
 45
0.0
1001
ACAD
1000
AcDbSavedByObjectVersion
1070
     0
  0
VISUALSTYLE
  5
8494
102
{ACAD_XDICTIONARY
360
8687
102
}
102
{ACAD_REACTORS
330
847F
102
}
330
847F
100
AcDbVisualStyle
  2
Shaded
 70
    27
 71
     2
 72
     2
 73
     1
 90
        2
 40
-0.6
 41
30.0
 62
     5
 63
     7
 74
     0
 91
        4
 64
     7
 65
   257
 75
     1
175
     1
 42
1.0
 92
        8
 66
   257
 43
1.0
 76
     1
 77
     6
 78
     2
 67
     8
 79
     3
170
     0
171
     0
290
     0
174
     0
 93
        5
 44
0.0
173
     0
291
     0
 45
0.0
1001
ACAD
1000
AcDbSavedByObjectVersion
1070
     0
  0
VISUALSTYLE
  5
8493
102
{ACAD_XDICTIONARY
360
8685
102
}
102
{ACAD_REACTORS
330
847F
102
}
330
847F
100
AcDbVisualStyle
  2
Shaded with edges
 70
    26
 71
     2
 72
     2
 73
     1
 90
        2
 40
-0.6
 41
30.0
 62
     5
 63
     7
 74
     1
 91
       10
 64
     7
 65
   257
 75
     2
175
     1
 42
1.0
 92
        8
 66
   257
 43
1.0
 76
     1
 77
     6
 78
     2
 67
     7
 79
     3
170
     0
171
     0
290
     0
174
     0
 93
        5
 44
0.0
173
     0
291
     0
 45
0.0
1001
ACAD
1000
AcDbSavedByObjectVersion
1070
     0
  0
VISUALSTYLE
  5
8490
102
{ACAD_XDICTIONARY
360
867F
102
}
102
{ACAD_REACTORS
330
847F
102
}
330
847F
100
AcDbVisualStyle
  2
Shades of Gray
 70
    23
 71
     2
 72
     2
 73
     3
 90
        0
 40
-0.6
 41
-30.0
 62
     5
 63
     7
 74
     2
 91
        2
 64
     7
 65
     7
 75
     1
175
     1
 42
40.0
 92
        8
 66
     7
 43
1.0
 76
     1
 77
     6
 78
     2
 67
     7
 79
     3
170
     0
171
     0
290
     0
174
     0
 93
        1
 44
0.0
173
     0
291
     0
 45
0.0
1001
ACAD
1000
AcDbSavedByObjectVersion
1070
     0
  0
VISUALSTYLE
  5
8491
102
{ACAD_XDICTIONARY
360
8681
102
}
102
{ACAD_REACTORS
330
847F
102
}
330
847F
100
AcDbVisualStyle
  2
Sketchy
 70
    24
 71
     1
 72
     2
 73
     2
 90
        0
 40
-0.6
 41
-30.0
 62
     5
 63
     7
 74
     2
 91
        2
 64
     7
 65
     7
 75
     1
175
     1
 42
40.0
 92
       11
 66
     7
 43
1.0
 76
     1
 77
     6
 78
     2
 67
     7
 79
     6
170
     0
171
     0
290
     0
174
     0
 93
        1
 44
0.0
173
     0
291
     0
 45
0.0
1001
ACAD
1000
AcDbSavedByObjectVersion
1070
     0
  0
VISUALSTYLE
  5
848C
102
{ACAD_XDICTIONARY
360
8677
102
}
102
{ACAD_REACTORS
330
847F
102
}
330
847F
100
AcDbVisualStyle
  2
Thicken
 70
    13
 71
     2
 72
     2
 73
     0
 90
        0
 40
-0.6
 41
-30.0
 62
     5
 63
     7
 74
     1
 91
        4
 64
     7
 65
   257
 75
     1
175
     1
 42
1.0
 92
       12
 66
     7
 43
1.0
 76
     1
 77
     6
 78
     2
 67
     7
 79
     5
170
     0
171
     0
290
     0
174
     0
 93
        1
 44
0.0
173
     0
291
     1
 45
0.0
1001
ACAD
1000
AcDbSavedByObjectVersion
1070
     0
  0
VISUALSTYLE
  5
8486
102
{ACAD_XDICTIONARY
360
866B
102
}
102
{ACAD_REACTORS
330
847F
102
}
330
847F
100
AcDbVisualStyle
  2
Wireframe
 70
     5
 71
     0
 72
     2
 73
     0
 90
        0
 40
-0.6
 41
-30.0
 62
     5
 63
     7
 74
     1
 91
        4
 64
     7
 65
   257
 75
     1
175
     1
 42
1.0
 92
        0
 66
   257
 43
1.0
 76
     1
 77
     6
 78
     2
 67
     7
 79
     3
170
     0
171
     0
290
     0
174
     0
 93
        1
 44
0.0
173
     0
291
     0
 45
0.0
1001
ACAD
1000
AcDbSavedByObjectVersion
1070
     0
  0
VISUALSTYLE
  5
8492
102
{ACAD_XDICTIONARY
360
8683
102
}
102
{ACAD_REACTORS
330
847F
102
}
330
847F
100
AcDbVisualStyle
  2
X-Ray
 70
    25
 71
     2
 72
     2
 73
     1
 90
        1
 40
0.5
 41
-30.0
 62
     5
 63
     7
 74
     1
 91
        0
 64
     7
 65
   257
 75
     1
175
     1
 42
1.0
 92
        8
 66
     7
 43
1.0
 76
     1
 77
     6
 78
     2
 67
     7
 79
     3
170
     0
171
     0
290
     0
174
     0
 93
       13
 44
0.0
173
     0
291
     0
 45
0.0
1001
ACAD
1000
AcDbSavedByObjectVersion
1070
     0
  0
DICTIONARYVAR
  5
8652
102
{ACAD_REACTORS
330
864D
102
}
330
864D
100
DictionaryVariables
280
     0
  1
1:1
  0
DICTIONARYVAR
  5
864F
102
{ACAD_REACTORS
330
864D
102
}
330
864D
100
DictionaryVariables
280
     0
  1
STANDARD
  0
DICTIONARYVAR
  5
864E
102
{ACAD_REACTORS
330
864D
102
}
330
864D
100
DictionaryVariables
280
     0
  1
STANDARD
  0
DICTIONARYVAR
  5
8650
102
{ACAD_REACTORS
330
864D
102
}
330
864D
100
DictionaryVariables
280
     0
  1
Imperial24
  0
DICTIONARYVAR
  5
8651
102
{ACAD_REACTORS
330
864D
102
}
330
864D
100
DictionaryVariables
280
     0
  1
Imperial24
  0
DICTIONARYVAR
  5
8655
102
{ACAD_REACTORS
330
864D
102
}
330
864D
100
DictionaryVariables
280
     0
  1
1
  0
DICTIONARYVAR
  5
8654
102
{ACAD_REACTORS
330
864D
102
}
330
864D
100
DictionaryVariables
280
     0
  1
0
  0
DICTIONARYVAR
  5
8653
102
{ACAD_REACTORS
330
864D
102
}
330
864D
100
DictionaryVariables
280
     0
  1
127
  0
DICTIONARYVAR
  5
8656
102
{ACAD_REACTORS
330
864D
102
}
330
864D
100
DictionaryVariables
280
     0
  1
2
  0
DICTIONARY
  5
8693
330
84C0
100
AcDbDictionary
280
     1
281
     1
  3
ACAD_XREC_ROUNDTRIP
360
8694
  0
DICTIONARY
  5
8697
330
84C8
100
AcDbDictionary
280
     1
281
     1
  3
ACAD_XREC_ROUNDTRIP
360
8698
  0
DICTIONARY
  5
8695
330
84C4
100
AcDbDictionary
280
     1
281
     1
  3
ACAD_XREC_ROUNDTRIP
360
8696
  0
DICTIONARY
  5
8470
330
846F
100
AcDbDictionary
280
     1
281
     1
  3
ACAD_XREC_ROUNDTRIP
360
865D
  3
BUMPTILE
360
8472
  3
DIFFUSETILE
360
8471
  3
OPACITYTILE
360
8475
  3
REFLECTIONTILE
360
8474
  3
REFRACTIONTILE
360
8476
  3
SPECULARTILE
360
8473
  0
DICTIONARY
  5
8468
330
8467
100
AcDbDictionary
280
     1
281
     1
  3
ACAD_XREC_ROUNDTRIP
360
865C
  3
BUMPTILE
360
846A
  3
DIFFUSETILE
360
8469
  3
OPACITYTILE
360
846D
  3
REFLECTIONTILE
360
846C
  3
REFRACTIONTILE
360
846E
  3
SPECULARTILE
360
846B
  0
DICTIONARY
  5
8478
330
8477
100
AcDbDictionary
280
     1
281
     1
  3
ACAD_XREC_ROUNDTRIP
360
865E
  3
BUMPTILE
360
847A
  3
DIFFUSETILE
360
8479
  3
OPACITYTILE
360
847D
  3
REFLECTIONTILE
360
847C
  3
REFRACTIONTILE
360
847E
  3
SPECULARTILE
360
847B
  0
DICTIONARY
  5
8691
330
84BE
100
AcDbDictionary
280
     1
281
     1
  3
ACAD_XREC_ROUNDTRIP
360
8692
  0
DICTIONARY
  5
8658
330
84BA
100
AcDbDictionary
280
     1
281
     1
  3
ACAD_ROUNDTRIP_2008_TABLESTYLE_CELLSTYLEMAP
360
8659
  3
ACAD_XREC_ROUNDTRIP
360
868F
  0
DICTIONARY
  5
8669
330
8485
100
AcDbDictionary
280
     1
281
     1
  3
ACAD_XREC_ROUNDTRIP
360
866A
  0
DICTIONARY
  5
8667
330
8484
100
AcDbDictionary
280
     1
281
     1
  3
ACAD_XREC_ROUNDTRIP
360
8668
  0
DICTIONARY
  5
8675
330
848B
100
AcDbDictionary
280
     1
281
     1
  3
ACAD_XREC_ROUNDTRIP
360
8676
  0
DICTIONARY
  5
867D
330
848F
100
AcDbDictionary
280
     1
281
     1
  3
ACAD_XREC_ROUNDTRIP
360
867E
  0
DICTIONARY
  5
866F
330
8488
100
AcDbDictionary
280
     1
281
     1
  3
ACAD_XREC_ROUNDTRIP
360
8670
  0
DICTIONARY
  5
8673
330
848A
100
AcDbDictionary
280
     1
281
     1
  3
ACAD_XREC_ROUNDTRIP
360
8674
  0
DICTIONARY
  5
868D
330
8497
100
AcDbDictionary
280
     1
281
     1
  3
ACAD_XREC_ROUNDTRIP
360
868E
  0
DICTIONARY
  5
867B
330
848E
100
AcDbDictionary
280
     1
281
     1
  3
ACAD_XREC_ROUNDTRIP
360
867C
  0
DICTIONARY
  5
865F
330
8480
100
AcDbDictionary
280
     1
281
     1
  3
ACAD_XREC_ROUNDTRIP
360
8660
  0
DICTIONARY
  5
8661
330
8481
100
AcDbDictionary
280
     1
281
     1
  3
ACAD_XREC_ROUNDTRIP
360
8662
  0
DICTIONARY
  5
8663
330
8482
100
AcDbDictionary
280
     1
281
     1
  3
ACAD_XREC_ROUNDTRIP
360
8664
  0
DICTIONARY
  5
8665
330
8483
100
AcDbDictionary
280
     1
281
     1
  3
ACAD_XREC_ROUNDTRIP
360
8666
  0
DICTIONARY
  5
866D
330
8487
100
AcDbDictionary
280
     1
281
     1
  3
ACAD_XREC_ROUNDTRIP
360
866E
  0
DICTIONARY
  5
8689
330
8495
100
AcDbDictionary
280
     1
281
     1
  3
ACAD_XREC_ROUNDTRIP
360
868A
  0
DICTIONARY
  5
8679
330
848D
100
AcDbDictionary
280
     1
281
     1
  3
ACAD_XREC_ROUNDTRIP
360
867A
  0
DICTIONARY
  5
868B
330
8496
100
AcDbDictionary
280
     1
281
     1
  3
ACAD_XREC_ROUNDTRIP
360
868C
  0
DICTIONARY
  5
8671
330
8489
100
AcDbDictionary
280
     1
281
     1
  3
ACAD_XREC_ROUNDTRIP
360
8672
  0
DICTIONARY
  5
8687
330
8494
100
AcDbDictionary
280
     1
281
     1
  3
ACAD_XREC_ROUNDTRIP
360
8688
  0
DICTIONARY
  5
8685
330
8493
100
AcDbDictionary
280
     1
281
     1
  3
ACAD_XREC_ROUNDTRIP
360
8686
  0
DICTIONARY
  5
867F
330
8490
100
AcDbDictionary
280
     1
281
     1
  3
ACAD_XREC_ROUNDTRIP
360
8680
  0
DICTIONARY
  5
8681
330
8491
100
AcDbDictionary
280
     1
281
     1
  3
ACAD_XREC_ROUNDTRIP
360
8682
  0
DICTIONARY
  5
8677
330
848C
100
AcDbDictionary
280
     1
281
     1
  3
ACAD_XREC_ROUNDTRIP
360
8678
  0
DICTIONARY
  5
866B
330
8486
100
AcDbDictionary
280
     1
281
     1
  3
ACAD_XREC_ROUNDTRIP
360
866C
  0
DICTIONARY
  5
8683
330
8492
100
AcDbDictionary
280
     1
281
     1
  3
ACAD_XREC_ROUNDTRIP
360
8684
  0
XRECORD
  5
8694
102
{ACAD_REACTORS
330
8693
102
}
330
8693
100
AcDbXrecord
280
     1
102
DISPLAYNAME
  1
Imperial24
102
FLAGS
 90
        0
  0
XRECORD
  5
8698
102
{ACAD_REACTORS
330
8697
102
}
330
8697
100
AcDbXrecord
280
     1
102
SHADEPLOT
 70
     0
102
SHADEPLOTRESLEVEL
 70
     2
102
SHADEPLOTCUSTOMDPI
 70
   300
  0
XRECORD
  5
8696
102
{ACAD_REACTORS
330
8695
102
}
330
8695
100
AcDbXrecord
280
     1
102
SHADEPLOT
 70
     0
102
SHADEPLOTRESLEVEL
 70
     2
102
SHADEPLOTCUSTOMDPI
 70
   300
  0
XRECORD
  5
865D
102
{ACAD_REACTORS
330
8470
102
}
330
8470
100
AcDbXrecord
280
     1
102
MATERIAL
148
0.0
149
0.0
149
0.0
 93
        0
 94
      127
282
     0
 72
     0
 77
     0
171
     0
175
     0
179
     0
273
     0
  0
XRECORD
  5
8472
102
{ACAD_REACTORS
330
8470
102
}
330
8470
100
AcDbXrecord
280
     1
270
     1
271
     1
  0
XRECORD
  5
8471
102
{ACAD_REACTORS
330
8470
102
}
330
8470
100
AcDbXrecord
280
     1
270
     1
271
     1
  0
XRECORD
  5
8475
102
{ACAD_REACTORS
330
8470
102
}
330
8470
100
AcDbXrecord
280
     1
270
     1
271
     1
  0
XRECORD
  5
8474
102
{ACAD_REACTORS
330
8470
102
}
330
8470
100
AcDbXrecord
280
     1
270
     1
271
     1
  0
XRECORD
  5
8476
102
{ACAD_REACTORS
330
8470
102
}
330
8470
100
AcDbXrecord
280
     1
270
     1
271
     1
  0
XRECORD
  5
8473
102
{ACAD_REACTORS
330
8470
102
}
330
8470
100
AcDbXrecord
280
     1
270
     1
271
     1
  0
XRECORD
  5
865C
102
{ACAD_REACTORS
330
8468
102
}
330
8468
100
AcDbXrecord
280
     1
102
MATERIAL
148
0.0
149
0.0
149
0.0
 93
        0
 94
      127
282
     0
 72
     0
 77
     0
171
     0
175
     0
179
     0
273
     0
  0
XRECORD
  5
846A
102
{ACAD_REACTORS
330
8468
102
}
330
8468
100
AcDbXrecord
280
     1
270
     1
271
     1
  0
XRECORD
  5
8469
102
{ACAD_REACTORS
330
8468
102
}
330
8468
100
AcDbXrecord
280
     1
270
     1
271
     1
  0
XRECORD
  5
846D
102
{ACAD_REACTORS
330
8468
102
}
330
8468
100
AcDbXrecord
280
     1
270
     1
271
     1
  0
XRECORD
  5
846C
102
{ACAD_REACTORS
330
8468
102
}
330
8468
100
AcDbXrecord
280
     1
270
     1
271
     1
  0
XRECORD
  5
846E
102
{ACAD_REACTORS
330
8468
102
}
330
8468
100
AcDbXrecord
280
     1
270
     1
271
     1
  0
XRECORD
  5
846B
102
{ACAD_REACTORS
330
8468
102
}
330
8468
100
AcDbXrecord
280
     1
270
     1
271
     1
  0
XRECORD
  5
865E
102
{ACAD_REACTORS
330
8478
102
}
330
8478
100
AcDbXrecord
280
     1
102
MATERIAL
148
0.0
149
0.0
149
0.0
 93
        0
 94
      127
282
     0
 72
     0
 77
     0
171
     0
175
     0
179
     0
273
     0
  0
XRECORD
  5
847A
102
{ACAD_REACTORS
330
8478
102
}
330
8478
100
AcDbXrecord
280
     1
270
     1
271
     1
  0
XRECORD
  5
8479
102
{ACAD_REACTORS
330
8478
102
}
330
8478
100
AcDbXrecord
280
     1
270
     1
271
     1
  0
XRECORD
  5
847D
102
{ACAD_REACTORS
330
8478
102
}
330
8478
100
AcDbXrecord
280
     1
270
     1
271
     1
  0
XRECORD
  5
847C
102
{ACAD_REACTORS
330
8478
102
}
330
8478
100
AcDbXrecord
280
     1
270
     1
271
     1
  0
XRECORD
  5
847E
102
{ACAD_REACTORS
330
8478
102
}
330
8478
100
AcDbXrecord
280
     1
270
     1
271
     1
  0
XRECORD
  5
847B
102
{ACAD_REACTORS
330
8478
102
}
330
8478
100
AcDbXrecord
280
     1
270
     1
271
     1
  0
XRECORD
  5
8692
102
{ACAD_REACTORS
330
8691
102
}
330
8691
100
AcDbXrecord
280
     1
102
DISPLAYNAME
  1
Imperial24
102
FLAGS
 90
        0
  0
CELLSTYLEMAP
  5
8659
102
{ACAD_REACTORS
330
8658
102
}
330
8658
100
AcDbCellStyleMap
 90
        3
300
CELLSTYLE
  1
TABLEFORMAT_BEGIN
 90
        5
170
     1
 91
        0
 92
    32768
 62
   257
 93
        1
300
CONTENTFORMAT
  1
CONTENTFORMAT_BEGIN
 90
        0
 91
        0
 92
      512
 93
        0
300

 40
0.0
140
1.0
 94
        5
 62
     0
340
84AB
144
0.25
309
CONTENTFORMAT_END
171
     0
 94
        0
309
TABLEFORMAT_END
  1
CELLSTYLE_BEGIN
 90
        1
 91
        1
300
_TITLE
309
CELLSTYLE_END
300
CELLSTYLE
  1
TABLEFORMAT_BEGIN
 90
        5
170
     1
 91
        0
 92
        0
 62
   257
 93
        1
300
CONTENTFORMAT
  1
CONTENTFORMAT_BEGIN
 90
        0
 91
        0
 92
      512
 93
        0
300

 40
0.0
140
1.0
 94
        5
 62
     0
340
84AB
144
0.18
309
CONTENTFORMAT_END
171
     0
 94
        0
309
TABLEFORMAT_END
  1
CELLSTYLE_BEGIN
 90
        2
 91
        1
300
_HEADER
309
CELLSTYLE_END
300
CELLSTYLE
  1
TABLEFORMAT_BEGIN
 90
        5
170
     1
 91
        0
 92
        0
 62
   257
 93
        1
300
CONTENTFORMAT
  1
CONTENTFORMAT_BEGIN
 90
        0
 91
        0
 92
      512
 93
        0
300

 40
0.0
140
1.0
 94
        2
 62
     0
340
84AB
144
0.18
309
CONTENTFORMAT_END
171
     0
 94
        0
309
TABLEFORMAT_END
  1
CELLSTYLE_BEGIN
 90
        3
 91
        2
300
_DATA
309
CELLSTYLE_END
  0
XRECORD
  5
868F
102
{ACAD_REACTORS
330
8658
102
}
330
8658
100
AcDbXrecord
280
     1
102
ACAD_ROUNDTRIP_PRE2007_TABLESTYLE
 90
      512
 91
        0
  1

 92
      512
 93
        0
  2

 94
      512
 95
        0
  3

  0
XRECORD
  5
866A
102
{ACAD_REACTORS
330
8669
102
}
330
8669
100
AcDbXrecord
280
     1
102
RTVSPost2010Prop28
280
     1
102
RTVSPost2010PropOp28
 70
     1
102
RTVSPost2010Prop29
280
     1
102
RTVSPost2010PropOp29
 70
     1
102
RTVSPost2010Prop30
280
     0
102
RTVSPost2010PropOp30
 70
     1
102
RTVSPost2010Prop31
280
     0
102
RTVSPost2010PropOp31
 70
     1
102
RTVSPost2010Prop32
280
     0
102
RTVSPost2010PropOp32
 70
     1
102
RTVSPost2010Prop33
280
     0
102
RTVSPost2010PropOp33
 70
     1
102
RTVSPost2010Prop34
280
     0
102
RTVSPost2010PropOp34
 70
     1
102
RTVSPost2010Prop35
280
     0
102
RTVSPost2010PropOp35
 70
     1
102
RTVSPost2010Prop36
280
     0
102
RTVSPost2010PropOp36
 70
     1
102
RTVSPost2010Prop37
 90
       50
102
RTVSPost2010PropOp37
 70
     1
102
RTVSPost2010Prop38
140
0.0
102
RTVSPost2010PropOp38
 70
     1
102
RTVSPost2010Prop39
140
1.0
102
RTVSPost2010PropOp39
 70
     1
102
RTVSPost2010Prop40
 90
        0
102
RTVSPost2010PropOp40
 70
     1
102
RTVSPost2010Prop41ColorIndex
 90
       18
102
RTVSPost2010Prop41ColorRGB
 90
        0
102
RTVSPost2010PropOp41
 70
     1
102
RTVSPost2010Prop42
 90
       50
102
RTVSPost2010PropOp42
 70
     1
102
RTVSPost2010Prop43
 90
        3
102
RTVSPost2010PropOp43
 70
     1
102
RTVSPost2010Prop44ColorIndex
 90
        5
102
RTVSPost2010Prop44ColorRGB
 90
      255
102
RTVSPost2010PropOp44
 70
     1
102
RTVSPost2010Prop45
280
     0
102
RTVSPost2010PropOp45
 70
     1
102
RTVSPost2010Prop46
 90
       50
102
RTVSPost2010PropOp46
 70
     1
102
RTVSPost2010Prop47
 90
       50
102
RTVSPost2010PropOp47
 70
     1
102
RTVSPost2010Prop48
 90
       50
102
RTVSPost2010PropOp48
 70
     1
102
RTVSPost2010Prop49
280
     0
102
RTVSPost2010PropOp49
 70
     1
102
RTVSPost2010Prop50
 90
       50
102
RTVSPost2010PropOp50
 70
     1
102
RTVSPost2010Prop51ColorIndex
 90
      256
102
RTVSPost2010Prop51ColorRGB
 90
-16777216
102
RTVSPost2010PropOp51
 70
     0
102
RTVSPost2010Prop52
140
1.0
102
RTVSPost2010PropOp52
 70
     0
102
RTVSPost2010Prop53
 90
        2
102
RTVSPost2010PropOp53
 70
     1
102
RTVSPost2010Prop54
  1
strokes_ogs.tif
102
RTVSPost2010PropOp54
 70
     1
102
RTVSPost2010Prop55
280
     0
102
RTVSPost2010PropOp55
 70
     1
102
RTVSPost2010Prop56
140
1.0
102
RTVSPost2010PropOp56
 70
     1
102
RTVSPost2010Prop57
140
1.0
102
RTVSPost2010PropOp57
 70
     1
102
RTVSPropertyOp0
 70
     1
102
RTVSPropertyOp1
 70
     1
102
RTVSPropertyOp2
 70
     1
102
RTVSPropertyOp3
 70
     1
102
RTVSPropertyOp4
 70
     1
102
RTVSPropertyOp5
 70
     1
102
RTVSPropertyOp6
 70
     1
102
RTVSPropertyOp7
 70
     1
102
RTVSPropertyOp8
 70
     1
102
RTVSPropertyOp9
 70
     1
102
RTVSPropertyOp10
 70
     1
102
RTVSPropertyOp11
 70
     1
102
RTVSPropertyOp12
 70
     1
102
RTVSPropertyOp13
 70
     1
102
RTVSPropertyOp14
 70
     1
102
RTVSPropertyOp15
 70
     1
102
RTVSPropertyOp16
 70
     1
102
RTVSPropertyOp17
 70
     1
102
RTVSPropertyOp18
 70
     1
102
RTVSPropertyOp19
 70
     1
102
RTVSPropertyOp20
 70
     1
102
RTVSPropertyOp21
 70
     1
102
RTVSPropertyOp22
 70
     1
102
RTVSPropertyOp23
 70
     1
102
RTVSPropertyOp24
 70
     1
102
RTVSPropertyOp25
 70
     1
102
RTVSPropertyOp26
 70
     1
102
RTVSPropertyOp27
 70
     1
102
RTVSPropertyOp28
 70
     1
102
RTVSPropertyOp29
 70
     1
102
RTVSPropertyOp30
 70
     1
102
RTVSPropertyOp31
 70
     1
102
RTVSPropertyOp32
 70
     1
102
RTVSPropertyOp33
 70
     1
102
RTVSPropertyOp34
 70
     1
102
RTVSPropertyOp35
 70
     1
102
RTVSPropertyOp36
 70
     1
102
RTVSPropertyOp37
 70
     1
102
RTVSPropertyOp38
 70
     1
102
RTVSPropertyOp39
 70
     1
102
RTVSPropertyOp40
 70
     1
102
RTVSPropertyOp41
 70
     1
102
RTVSPropertyOp42
 70
     1
102
RTVSPropertyOp43
 70
     1
102
RTVSPropertyOp44
 70
     1
102
RTVSPropertyOp45
 70
     1
102
RTVSPropertyOp46
 70
     1
102
RTVSPropertyOp47
 70
     1
102
RTVSPropertyOp48
 70
     1
102
RTVSPropertyOp49
 70
     1
102
RTVSPropertyOp50
 70
     1
102
RTVSPropertyOp51
 70
     0
102
RTVSPropertyOp52
 70
     0
102
RTVSPropertyOp53
 70
     1
102
RTVSPropertyOp54
 70
     1
102
RTVSPropertyOp55
 70
     1
102
RTVSPropertyOp56
 70
     1
102
RTVSPropertyOp57
 70
     1
102
RTVSPropertyOp58
 70
     1
102
RTVSPropertyOp59
 70
     1
102
RTVSPropertyOp60
 70
     1
102
RTVSPropertyOp61
 70
     1
102
RTVSPropertyOp62
 70
     1
  0
XRECORD
  5
8668
102
{ACAD_REACTORS
330
8667
102
}
330
8667
100
AcDbXrecord
280
     1
102
RTVSPost2010Prop28
280
     0
102
RTVSPost2010PropOp28
 70
     1
102
RTVSPost2010Prop29
280
     1
102
RTVSPost2010PropOp29
 70
     1
102
RTVSPost2010Prop30
280
     1
102
RTVSPost2010PropOp30
 70
     1
102
RTVSPost2010Prop31
280
     0
102
RTVSPost2010PropOp31
 70
     1
102
RTVSPost2010Prop32
280
     0
102
RTVSPost2010PropOp32
 70
     1
102
RTVSPost2010Prop33
280
     0
102
RTVSPost2010PropOp33
 70
     1
102
RTVSPost2010Prop34
280
     0
102
RTVSPost2010PropOp34
 70
     1
102
RTVSPost2010Prop35
280
     0
102
RTVSPost2010PropOp35
 70
     1
102
RTVSPost2010Prop36
280
     0
102
RTVSPost2010PropOp36
 70
     1
102
RTVSPost2010Prop37
 90
       50
102
RTVSPost2010PropOp37
 70
     1
102
RTVSPost2010Prop38
140
0.0
102
RTVSPost2010PropOp38
 70
     1
102
RTVSPost2010Prop39
140
1.0
102
RTVSPost2010PropOp39
 70
     1
102
RTVSPost2010Prop40
 90
        0
102
RTVSPost2010PropOp40
 70
     1
102
RTVSPost2010Prop41ColorIndex
 90
       18
102
RTVSPost2010Prop41ColorRGB
 90
        0
102
RTVSPost2010PropOp41
 70
     1
102
RTVSPost2010Prop42
 90
       50
102
RTVSPost2010PropOp42
 70
     1
102
RTVSPost2010Prop43
 90
        3
102
RTVSPost2010PropOp43
 70
     1
102
RTVSPost2010Prop44ColorIndex
 90
        5
102
RTVSPost2010Prop44ColorRGB
 90
      255
102
RTVSPost2010PropOp44
 70
     1
102
RTVSPost2010Prop45
280
     0
102
RTVSPost2010PropOp45
 70
     1
102
RTVSPost2010Prop46
 90
       50
102
RTVSPost2010PropOp46
 70
     1
102
RTVSPost2010Prop47
 90
       50
102
RTVSPost2010PropOp47
 70
     1
102
RTVSPost2010Prop48
 90
       50
102
RTVSPost2010PropOp48
 70
     1
102
RTVSPost2010Prop49
280
     0
102
RTVSPost2010PropOp49
 70
     1
102
RTVSPost2010Prop50
 90
       50
102
RTVSPost2010PropOp50
 70
     1
102
RTVSPost2010Prop51ColorIndex
 90
      256
102
RTVSPost2010Prop51ColorRGB
 90
-16777216
102
RTVSPost2010PropOp51
 70
     0
102
RTVSPost2010Prop52
140
1.0
102
RTVSPost2010PropOp52
 70
     0
102
RTVSPost2010Prop53
 90
        2
102
RTVSPost2010PropOp53
 70
     1
102
RTVSPost2010Prop54
  1
strokes_ogs.tif
102
RTVSPost2010PropOp54
 70
     1
102
RTVSPost2010Prop55
280
     0
102
RTVSPost2010PropOp55
 70
     1
102
RTVSPost2010Prop56
140
1.0
102
RTVSPost2010PropOp56
 70
     1
102
RTVSPost2010Prop57
140
1.0
102
RTVSPost2010PropOp57
 70
     1
102
RTVSPropertyOp0
 70
     1
102
RTVSPropertyOp1
 70
     1
102
RTVSPropertyOp2
 70
     1
102
RTVSPropertyOp3
 70
     1
102
RTVSPropertyOp4
 70
     1
102
RTVSPropertyOp5
 70
     1
102
RTVSPropertyOp6
 70
     1
102
RTVSPropertyOp7
 70
     1
102
RTVSPropertyOp8
 70
     1
102
RTVSPropertyOp9
 70
     1
102
RTVSPropertyOp10
 70
     1
102
RTVSPropertyOp11
 70
     1
102
RTVSPropertyOp12
 70
     1
102
RTVSPropertyOp13
 70
     1
102
RTVSPropertyOp14
 70
     1
102
RTVSPropertyOp15
 70
     1
102
RTVSPropertyOp16
 70
     1
102
RTVSPropertyOp17
 70
     1
102
RTVSPropertyOp18
 70
     1
102
RTVSPropertyOp19
 70
     1
102
RTVSPropertyOp20
 70
     1
102
RTVSPropertyOp21
 70
     1
102
RTVSPropertyOp22
 70
     1
102
RTVSPropertyOp23
 70
     1
102
RTVSPropertyOp24
 70
     1
102
RTVSPropertyOp25
 70
     1
102
RTVSPropertyOp26
 70
     1
102
RTVSPropertyOp27
 70
     1
102
RTVSPropertyOp28
 70
     1
102
RTVSPropertyOp29
 70
     1
102
RTVSPropertyOp30
 70
     1
102
RTVSPropertyOp31
 70
     1
102
RTVSPropertyOp32
 70
     1
102
RTVSPropertyOp33
 70
     1
102
RTVSPropertyOp34
 70
     1
102
RTVSPropertyOp35
 70
     1
102
RTVSPropertyOp36
 70
     1
102
RTVSPropertyOp37
 70
     1
102
RTVSPropertyOp38
 70
     1
102
RTVSPropertyOp39
 70
     1
102
RTVSPropertyOp40
 70
     1
102
RTVSPropertyOp41
 70
     1
102
RTVSPropertyOp42
 70
     1
102
RTVSPropertyOp43
 70
     1
102
RTVSPropertyOp44
 70
     1
102
RTVSPropertyOp45
 70
     1
102
RTVSPropertyOp46
 70
     1
102
RTVSPropertyOp47
 70
     1
102
RTVSPropertyOp48
 70
     1
102
RTVSPropertyOp49
 70
     1
102
RTVSPropertyOp50
 70
     1
102
RTVSPropertyOp51
 70
     0
102
RTVSPropertyOp52
 70
     0
102
RTVSPropertyOp53
 70
     1
102
RTVSPropertyOp54
 70
     1
102
RTVSPropertyOp55
 70
     1
102
RTVSPropertyOp56
 70
     1
102
RTVSPropertyOp57
 70
     1
102
RTVSPropertyOp58
 70
     1
102
RTVSPropertyOp59
 70
     1
102
RTVSPropertyOp60
 70
     1
102
RTVSPropertyOp61
 70
     1
102
RTVSPropertyOp62
 70
     1
  0
XRECORD
  5
8676
102
{ACAD_REACTORS
330
8675
102
}
330
8675
100
AcDbXrecord
280
     1
102
RTVSPost2010Prop28
280
     0
102
RTVSPost2010PropOp28
 70
     1
102
RTVSPost2010Prop29
280
     1
102
RTVSPost2010PropOp29
 70
     1
102
RTVSPost2010Prop30
280
     1
102
RTVSPost2010PropOp30
 70
     1
102
RTVSPost2010Prop31
280
     0
102
RTVSPost2010PropOp31
 70
     1
102
RTVSPost2010Prop32
280
     0
102
RTVSPost2010PropOp32
 70
     1
102
RTVSPost2010Prop33
280
     0
102
RTVSPost2010PropOp33
 70
     1
102
RTVSPost2010Prop34
280
     0
102
RTVSPost2010PropOp34
 70
     1
102
RTVSPost2010Prop35
280
     0
102
RTVSPost2010PropOp35
 70
     1
102
RTVSPost2010Prop36
280
     0
102
RTVSPost2010PropOp36
 70
     1
102
RTVSPost2010Prop37
 90
       50
102
RTVSPost2010PropOp37
 70
     1
102
RTVSPost2010Prop38
140
0.0
102
RTVSPost2010PropOp38
 70
     1
102
RTVSPost2010Prop39
140
1.0
102
RTVSPost2010PropOp39
 70
     1
102
RTVSPost2010Prop40
 90
        0
102
RTVSPost2010PropOp40
 70
     1
102
RTVSPost2010Prop41ColorIndex
 90
       18
102
RTVSPost2010Prop41ColorRGB
 90
        0
102
RTVSPost2010PropOp41
 70
     1
102
RTVSPost2010Prop42
 90
       50
102
RTVSPost2010PropOp42
 70
     1
102
RTVSPost2010Prop43
 90
        3
102
RTVSPost2010PropOp43
 70
     1
102
RTVSPost2010Prop44ColorIndex
 90
        5
102
RTVSPost2010Prop44ColorRGB
 90
      255
102
RTVSPost2010PropOp44
 70
     1
102
RTVSPost2010Prop45
280
     0
102
RTVSPost2010PropOp45
 70
     1
102
RTVSPost2010Prop46
 90
       50
102
RTVSPost2010PropOp46
 70
     1
102
RTVSPost2010Prop47
 90
       50
102
RTVSPost2010PropOp47
 70
     1
102
RTVSPost2010Prop48
 90
       50
102
RTVSPost2010PropOp48
 70
     1
102
RTVSPost2010Prop49
280
     0
102
RTVSPost2010PropOp49
 70
     1
102
RTVSPost2010Prop50
 90
       50
102
RTVSPost2010PropOp50
 70
     1
102
RTVSPost2010Prop51ColorIndex
 90
      256
102
RTVSPost2010Prop51ColorRGB
 90
-16777216
102
RTVSPost2010PropOp51
 70
     0
102
RTVSPost2010Prop52
140
1.0
102
RTVSPost2010PropOp52
 70
     0
102
RTVSPost2010Prop53
 90
        2
102
RTVSPost2010PropOp53
 70
     1
102
RTVSPost2010Prop54
  1
strokes_ogs.tif
102
RTVSPost2010PropOp54
 70
     1
102
RTVSPost2010Prop55
280
     0
102
RTVSPost2010PropOp55
 70
     1
102
RTVSPost2010Prop56
140
1.0
102
RTVSPost2010PropOp56
 70
     1
102
RTVSPost2010Prop57
140
1.0
102
RTVSPost2010PropOp57
 70
     1
102
RTVSPropertyOp0
 70
     1
102
RTVSPropertyOp1
 70
     1
102
RTVSPropertyOp2
 70
     1
102
RTVSPropertyOp3
 70
     1
102
RTVSPropertyOp4
 70
     1
102
RTVSPropertyOp5
 70
     1
102
RTVSPropertyOp6
 70
     1
102
RTVSPropertyOp7
 70
     1
102
RTVSPropertyOp8
 70
     1
102
RTVSPropertyOp9
 70
     1
102
RTVSPropertyOp10
 70
     1
102
RTVSPropertyOp11
 70
     1
102
RTVSPropertyOp12
 70
     1
102
RTVSPropertyOp13
 70
     1
102
RTVSPropertyOp14
 70
     1
102
RTVSPropertyOp15
 70
     1
102
RTVSPropertyOp16
 70
     1
102
RTVSPropertyOp17
 70
     1
102
RTVSPropertyOp18
 70
     1
102
RTVSPropertyOp19
 70
     1
102
RTVSPropertyOp20
 70
     1
102
RTVSPropertyOp21
 70
     1
102
RTVSPropertyOp22
 70
     1
102
RTVSPropertyOp23
 70
     1
102
RTVSPropertyOp24
 70
     1
102
RTVSPropertyOp25
 70
     1
102
RTVSPropertyOp26
 70
     1
102
RTVSPropertyOp27
 70
     1
102
RTVSPropertyOp28
 70
     1
102
RTVSPropertyOp29
 70
     1
102
RTVSPropertyOp30
 70
     1
102
RTVSPropertyOp31
 70
     1
102
RTVSPropertyOp32
 70
     1
102
RTVSPropertyOp33
 70
     1
102
RTVSPropertyOp34
 70
     1
102
RTVSPropertyOp35
 70
     1
102
RTVSPropertyOp36
 70
     1
102
RTVSPropertyOp37
 70
     1
102
RTVSPropertyOp38
 70
     1
102
RTVSPropertyOp39
 70
     1
102
RTVSPropertyOp40
 70
     1
102
RTVSPropertyOp41
 70
     1
102
RTVSPropertyOp42
 70
     1
102
RTVSPropertyOp43
 70
     1
102
RTVSPropertyOp44
 70
     1
102
RTVSPropertyOp45
 70
     1
102
RTVSPropertyOp46
 70
     1
102
RTVSPropertyOp47
 70
     1
102
RTVSPropertyOp48
 70
     1
102
RTVSPropertyOp49
 70
     1
102
RTVSPropertyOp50
 70
     1
102
RTVSPropertyOp51
 70
     0
102
RTVSPropertyOp52
 70
     0
102
RTVSPropertyOp53
 70
     1
102
RTVSPropertyOp54
 70
     1
102
RTVSPropertyOp55
 70
     1
102
RTVSPropertyOp56
 70
     1
102
RTVSPropertyOp57
 70
     1
102
RTVSPropertyOp58
 70
     1
102
RTVSPropertyOp59
 70
     1
102
RTVSPropertyOp60
 70
     1
102
RTVSPropertyOp61
 70
     1
102
RTVSPropertyOp62
 70
     1
  0
XRECORD
  5
867E
102
{ACAD_REACTORS
330
867D
102
}
330
867D
100
AcDbXrecord
280
     1
102
RTVSPost2010Prop28
280
     0
102
RTVSPost2010PropOp28
 70
     1
102
RTVSPost2010Prop29
280
     1
102
RTVSPost2010PropOp29
 70
     1
102
RTVSPost2010Prop30
280
     1
102
RTVSPost2010PropOp30
 70
     1
102
RTVSPost2010Prop31
280
     0
102
RTVSPost2010PropOp31
 70
     1
102
RTVSPost2010Prop32
280
     0
102
RTVSPost2010PropOp32
 70
     1
102
RTVSPost2010Prop33
280
     0
102
RTVSPost2010PropOp33
 70
     1
102
RTVSPost2010Prop34
280
     0
102
RTVSPost2010PropOp34
 70
     1
102
RTVSPost2010Prop35
280
     0
102
RTVSPost2010PropOp35
 70
     1
102
RTVSPost2010Prop36
280
     0
102
RTVSPost2010PropOp36
 70
     1
102
RTVSPost2010Prop37
 90
       50
102
RTVSPost2010PropOp37
 70
     1
102
RTVSPost2010Prop38
140
0.0
102
RTVSPost2010PropOp38
 70
     1
102
RTVSPost2010Prop39
140
1.0
102
RTVSPost2010PropOp39
 70
     1
102
RTVSPost2010Prop40
 90
        0
102
RTVSPost2010PropOp40
 70
     1
102
RTVSPost2010Prop41ColorIndex
 90
       18
102
RTVSPost2010Prop41ColorRGB
 90
        0
102
RTVSPost2010PropOp41
 70
     1
102
RTVSPost2010Prop42
 90
       50
102
RTVSPost2010PropOp42
 70
     1
102
RTVSPost2010Prop43
 90
        3
102
RTVSPost2010PropOp43
 70
     1
102
RTVSPost2010Prop44ColorIndex
 90
        5
102
RTVSPost2010Prop44ColorRGB
 90
      255
102
RTVSPost2010PropOp44
 70
     1
102
RTVSPost2010Prop45
280
     0
102
RTVSPost2010PropOp45
 70
     1
102
RTVSPost2010Prop46
 90
       50
102
RTVSPost2010PropOp46
 70
     1
102
RTVSPost2010Prop47
 90
       50
102
RTVSPost2010PropOp47
 70
     1
102
RTVSPost2010Prop48
 90
       50
102
RTVSPost2010PropOp48
 70
     1
102
RTVSPost2010Prop49
280
     0
102
RTVSPost2010PropOp49
 70
     1
102
RTVSPost2010Prop50
 90
       50
102
RTVSPost2010PropOp50
 70
     1
102
RTVSPost2010Prop51ColorIndex
 90
      256
102
RTVSPost2010Prop51ColorRGB
 90
-16777216
102
RTVSPost2010PropOp51
 70
     0
102
RTVSPost2010Prop52
140
1.0
102
RTVSPost2010PropOp52
 70
     0
102
RTVSPost2010Prop53
 90
        2
102
RTVSPost2010PropOp53
 70
     1
102
RTVSPost2010Prop54
  1
strokes_ogs.tif
102
RTVSPost2010PropOp54
 70
     1
102
RTVSPost2010Prop55
280
     0
102
RTVSPost2010PropOp55
 70
     1
102
RTVSPost2010Prop56
140
1.0
102
RTVSPost2010PropOp56
 70
     1
102
RTVSPost2010Prop57
140
1.0
102
RTVSPost2010PropOp57
 70
     1
102
RTVSPropertyOp0
 70
     1
102
RTVSPropertyOp1
 70
     1
102
RTVSPropertyOp2
 70
     1
102
RTVSPropertyOp3
 70
     1
102
RTVSPropertyOp4
 70
     1
102
RTVSPropertyOp5
 70
     1
102
RTVSPropertyOp6
 70
     1
102
RTVSPropertyOp7
 70
     1
102
RTVSPropertyOp8
 70
     1
102
RTVSPropertyOp9
 70
     1
102
RTVSPropertyOp10
 70
     1
102
RTVSPropertyOp11
 70
     1
102
RTVSPropertyOp12
 70
     1
102
RTVSPropertyOp13
 70
     1
102
RTVSPropertyOp14
 70
     1
102
RTVSPropertyOp15
 70
     1
102
RTVSPropertyOp16
 70
     1
102
RTVSPropertyOp17
 70
     1
102
RTVSPropertyOp18
 70
     1
102
RTVSPropertyOp19
 70
     1
102
RTVSPropertyOp20
 70
     1
102
RTVSPropertyOp21
 70
     1
102
RTVSPropertyOp22
 70
     1
102
RTVSPropertyOp23
 70
     1
102
RTVSPropertyOp24
 70
     1
102
RTVSPropertyOp25
 70
     1
102
RTVSPropertyOp26
 70
     1
102
RTVSPropertyOp27
 70
     1
102
RTVSPropertyOp28
 70
     1
102
RTVSPropertyOp29
 70
     1
102
RTVSPropertyOp30
 70
     1
102
RTVSPropertyOp31
 70
     1
102
RTVSPropertyOp32
 70
     1
102
RTVSPropertyOp33
 70
     1
102
RTVSPropertyOp34
 70
     1
102
RTVSPropertyOp35
 70
     1
102
RTVSPropertyOp36
 70
     1
102
RTVSPropertyOp37
 70
     1
102
RTVSPropertyOp38
 70
     1
102
RTVSPropertyOp39
 70
     1
102
RTVSPropertyOp40
 70
     1
102
RTVSPropertyOp41
 70
     1
102
RTVSPropertyOp42
 70
     1
102
RTVSPropertyOp43
 70
     1
102
RTVSPropertyOp44
 70
     1
102
RTVSPropertyOp45
 70
     1
102
RTVSPropertyOp46
 70
     1
102
RTVSPropertyOp47
 70
     1
102
RTVSPropertyOp48
 70
     1
102
RTVSPropertyOp49
 70
     1
102
RTVSPropertyOp50
 70
     1
102
RTVSPropertyOp51
 70
     0
102
RTVSPropertyOp52
 70
     0
102
RTVSPropertyOp53
 70
     1
102
RTVSPropertyOp54
 70
     1
102
RTVSPropertyOp55
 70
     1
102
RTVSPropertyOp56
 70
     1
102
RTVSPropertyOp57
 70
     1
102
RTVSPropertyOp58
 70
     1
102
RTVSPropertyOp59
 70
     1
102
RTVSPropertyOp60
 70
     1
102
RTVSPropertyOp61
 70
     1
102
RTVSPropertyOp62
 70
     1
  0
XRECORD
  5
8670
102
{ACAD_REACTORS
330
866F
102
}
330
866F
100
AcDbXrecord
280
     1
102
RTVSPost2010Prop28
280
     0
102
RTVSPost2010PropOp28
 70
     1
102
RTVSPost2010Prop29
280
     1
102
RTVSPost2010PropOp29
 70
     1
102
RTVSPost2010Prop30
280
     1
102
RTVSPost2010PropOp30
 70
     1
102
RTVSPost2010Prop31
280
     0
102
RTVSPost2010PropOp31
 70
     1
102
RTVSPost2010Prop32
280
     0
102
RTVSPost2010PropOp32
 70
     1
102
RTVSPost2010Prop33
280
     0
102
RTVSPost2010PropOp33
 70
     1
102
RTVSPost2010Prop34
280
     0
102
RTVSPost2010PropOp34
 70
     1
102
RTVSPost2010Prop35
280
     0
102
RTVSPost2010PropOp35
 70
     1
102
RTVSPost2010Prop36
280
     0
102
RTVSPost2010PropOp36
 70
     1
102
RTVSPost2010Prop37
 90
       50
102
RTVSPost2010PropOp37
 70
     1
102
RTVSPost2010Prop38
140
0.0
102
RTVSPost2010PropOp38
 70
     1
102
RTVSPost2010Prop39
140
1.0
102
RTVSPost2010PropOp39
 70
     1
102
RTVSPost2010Prop40
 90
        0
102
RTVSPost2010PropOp40
 70
     1
102
RTVSPost2010Prop41ColorIndex
 90
       18
102
RTVSPost2010Prop41ColorRGB
 90
        0
102
RTVSPost2010PropOp41
 70
     1
102
RTVSPost2010Prop42
 90
       50
102
RTVSPost2010PropOp42
 70
     1
102
RTVSPost2010Prop43
 90
        3
102
RTVSPost2010PropOp43
 70
     1
102
RTVSPost2010Prop44ColorIndex
 90
        5
102
RTVSPost2010Prop44ColorRGB
 90
      255
102
RTVSPost2010PropOp44
 70
     1
102
RTVSPost2010Prop45
280
     0
102
RTVSPost2010PropOp45
 70
     1
102
RTVSPost2010Prop46
 90
       50
102
RTVSPost2010PropOp46
 70
     1
102
RTVSPost2010Prop47
 90
       50
102
RTVSPost2010PropOp47
 70
     1
102
RTVSPost2010Prop48
 90
       50
102
RTVSPost2010PropOp48
 70
     1
102
RTVSPost2010Prop49
280
     0
102
RTVSPost2010PropOp49
 70
     1
102
RTVSPost2010Prop50
 90
       50
102
RTVSPost2010PropOp50
 70
     1
102
RTVSPost2010Prop51ColorIndex
 90
      256
102
RTVSPost2010Prop51ColorRGB
 90
-16777216
102
RTVSPost2010PropOp51
 70
     0
102
RTVSPost2010Prop52
140
1.0
102
RTVSPost2010PropOp52
 70
     0
102
RTVSPost2010Prop53
 90
        2
102
RTVSPost2010PropOp53
 70
     1
102
RTVSPost2010Prop54
  1
strokes_ogs.tif
102
RTVSPost2010PropOp54
 70
     1
102
RTVSPost2010Prop55
280
     0
102
RTVSPost2010PropOp55
 70
     1
102
RTVSPost2010Prop56
140
1.0
102
RTVSPost2010PropOp56
 70
     1
102
RTVSPost2010Prop57
140
1.0
102
RTVSPost2010PropOp57
 70
     1
102
RTVSPropertyOp0
 70
     1
102
RTVSPropertyOp1
 70
     1
102
RTVSPropertyOp2
 70
     1
102
RTVSPropertyOp3
 70
     1
102
RTVSPropertyOp4
 70
     1
102
RTVSPropertyOp5
 70
     1
102
RTVSPropertyOp6
 70
     1
102
RTVSPropertyOp7
 70
     1
102
RTVSPropertyOp8
 70
     1
102
RTVSPropertyOp9
 70
     1
102
RTVSPropertyOp10
 70
     1
102
RTVSPropertyOp11
 70
     1
102
RTVSPropertyOp12
 70
     1
102
RTVSPropertyOp13
 70
     1
102
RTVSPropertyOp14
 70
     1
102
RTVSPropertyOp15
 70
     1
102
RTVSPropertyOp16
 70
     1
102
RTVSPropertyOp17
 70
     1
102
RTVSPropertyOp18
 70
     1
102
RTVSPropertyOp19
 70
     1
102
RTVSPropertyOp20
 70
     1
102
RTVSPropertyOp21
 70
     1
102
RTVSPropertyOp22
 70
     1
102
RTVSPropertyOp23
 70
     1
102
RTVSPropertyOp24
 70
     1
102
RTVSPropertyOp25
 70
     1
102
RTVSPropertyOp26
 70
     1
102
RTVSPropertyOp27
 70
     1
102
RTVSPropertyOp28
 70
     1
102
RTVSPropertyOp29
 70
     1
102
RTVSPropertyOp30
 70
     1
102
RTVSPropertyOp31
 70
     1
102
RTVSPropertyOp32
 70
     1
102
RTVSPropertyOp33
 70
     1
102
RTVSPropertyOp34
 70
     1
102
RTVSPropertyOp35
 70
     1
102
RTVSPropertyOp36
 70
     1
102
RTVSPropertyOp37
 70
     1
102
RTVSPropertyOp38
 70
     1
102
RTVSPropertyOp39
 70
     1
102
RTVSPropertyOp40
 70
     1
102
RTVSPropertyOp41
 70
     1
102
RTVSPropertyOp42
 70
     1
102
RTVSPropertyOp43
 70
     1
102
RTVSPropertyOp44
 70
     1
102
RTVSPropertyOp45
 70
     1
102
RTVSPropertyOp46
 70
     1
102
RTVSPropertyOp47
 70
     1
102
RTVSPropertyOp48
 70
     1
102
RTVSPropertyOp49
 70
     1
102
RTVSPropertyOp50
 70
     1
102
RTVSPropertyOp51
 70
     0
102
RTVSPropertyOp52
 70
     0
102
RTVSPropertyOp53
 70
     1
102
RTVSPropertyOp54
 70
     1
102
RTVSPropertyOp55
 70
     1
102
RTVSPropertyOp56
 70
     1
102
RTVSPropertyOp57
 70
     1
102
RTVSPropertyOp58
 70
     1
102
RTVSPropertyOp59
 70
     1
102
RTVSPropertyOp60
 70
     1
102
RTVSPropertyOp61
 70
     1
102
RTVSPropertyOp62
 70
     1
  0
XRECORD
  5
8674
102
{ACAD_REACTORS
330
8673
102
}
330
8673
100
AcDbXrecord
280
     1
102
RTVSPost2010Prop28
280
     0
102
RTVSPost2010PropOp28
 70
     1
102
RTVSPost2010Prop29
280
     1
102
RTVSPost2010PropOp29
 70
     1
102
RTVSPost2010Prop30
280
     1
102
RTVSPost2010PropOp30
 70
     1
102
RTVSPost2010Prop31
280
     0
102
RTVSPost2010PropOp31
 70
     1
102
RTVSPost2010Prop32
280
     0
102
RTVSPost2010PropOp32
 70
     1
102
RTVSPost2010Prop33
280
     0
102
RTVSPost2010PropOp33
 70
     1
102
RTVSPost2010Prop34
280
     0
102
RTVSPost2010PropOp34
 70
     1
102
RTVSPost2010Prop35
280
     0
102
RTVSPost2010PropOp35
 70
     1
102
RTVSPost2010Prop36
280
     0
102
RTVSPost2010PropOp36
 70
     1
102
RTVSPost2010Prop37
 90
       50
102
RTVSPost2010PropOp37
 70
     1
102
RTVSPost2010Prop38
140
0.0
102
RTVSPost2010PropOp38
 70
     1
102
RTVSPost2010Prop39
140
1.0
102
RTVSPost2010PropOp39
 70
     1
102
RTVSPost2010Prop40
 90
        0
102
RTVSPost2010PropOp40
 70
     1
102
RTVSPost2010Prop41ColorIndex
 90
       18
102
RTVSPost2010Prop41ColorRGB
 90
        0
102
RTVSPost2010PropOp41
 70
     1
102
RTVSPost2010Prop42
 90
       50
102
RTVSPost2010PropOp42
 70
     1
102
RTVSPost2010Prop43
 90
        3
102
RTVSPost2010PropOp43
 70
     1
102
RTVSPost2010Prop44ColorIndex
 90
        5
102
RTVSPost2010Prop44ColorRGB
 90
      255
102
RTVSPost2010PropOp44
 70
     1
102
RTVSPost2010Prop45
280
     0
102
RTVSPost2010PropOp45
 70
     1
102
RTVSPost2010Prop46
 90
       50
102
RTVSPost2010PropOp46
 70
     1
102
RTVSPost2010Prop47
 90
       50
102
RTVSPost2010PropOp47
 70
     1
102
RTVSPost2010Prop48
 90
       50
102
RTVSPost2010PropOp48
 70
     1
102
RTVSPost2010Prop49
280
     0
102
RTVSPost2010PropOp49
 70
     1
102
RTVSPost2010Prop50
 90
       50
102
RTVSPost2010PropOp50
 70
     1
102
RTVSPost2010Prop51ColorIndex
 90
      256
102
RTVSPost2010Prop51ColorRGB
 90
-16777216
102
RTVSPost2010PropOp51
 70
     0
102
RTVSPost2010Prop52
140
1.0
102
RTVSPost2010PropOp52
 70
     0
102
RTVSPost2010Prop53
 90
        2
102
RTVSPost2010PropOp53
 70
     1
102
RTVSPost2010Prop54
  1
strokes_ogs.tif
102
RTVSPost2010PropOp54
 70
     1
102
RTVSPost2010Prop55
280
     0
102
RTVSPost2010PropOp55
 70
     1
102
RTVSPost2010Prop56
140
1.0
102
RTVSPost2010PropOp56
 70
     1
102
RTVSPost2010Prop57
140
1.0
102
RTVSPost2010PropOp57
 70
     1
102
RTVSPropertyOp0
 70
     1
102
RTVSPropertyOp1
 70
     1
102
RTVSPropertyOp2
 70
     1
102
RTVSPropertyOp3
 70
     1
102
RTVSPropertyOp4
 70
     1
102
RTVSPropertyOp5
 70
     1
102
RTVSPropertyOp6
 70
     1
102
RTVSPropertyOp7
 70
     1
102
RTVSPropertyOp8
 70
     1
102
RTVSPropertyOp9
 70
     1
102
RTVSPropertyOp10
 70
     1
102
RTVSPropertyOp11
 70
     1
102
RTVSPropertyOp12
 70
     1
102
RTVSPropertyOp13
 70
     1
102
RTVSPropertyOp14
 70
     1
102
RTVSPropertyOp15
 70
     1
102
RTVSPropertyOp16
 70
     1
102
RTVSPropertyOp17
 70
     1
102
RTVSPropertyOp18
 70
     1
102
RTVSPropertyOp19
 70
     1
102
RTVSPropertyOp20
 70
     1
102
RTVSPropertyOp21
 70
     1
102
RTVSPropertyOp22
 70
     1
102
RTVSPropertyOp23
 70
     1
102
RTVSPropertyOp24
 70
     1
102
RTVSPropertyOp25
 70
     1
102
RTVSPropertyOp26
 70
     1
102
RTVSPropertyOp27
 70
     1
102
RTVSPropertyOp28
 70
     1
102
RTVSPropertyOp29
 70
     1
102
RTVSPropertyOp30
 70
     1
102
RTVSPropertyOp31
 70
     1
102
RTVSPropertyOp32
 70
     1
102
RTVSPropertyOp33
 70
     1
102
RTVSPropertyOp34
 70
     1
102
RTVSPropertyOp35
 70
     1
102
RTVSPropertyOp36
 70
     1
102
RTVSPropertyOp37
 70
     1
102
RTVSPropertyOp38
 70
     1
102
RTVSPropertyOp39
 70
     1
102
RTVSPropertyOp40
 70
     1
102
RTVSPropertyOp41
 70
     1
102
RTVSPropertyOp42
 70
     1
102
RTVSPropertyOp43
 70
     1
102
RTVSPropertyOp44
 70
     1
102
RTVSPropertyOp45
 70
     1
102
RTVSPropertyOp46
 70
     1
102
RTVSPropertyOp47
 70
     1
102
RTVSPropertyOp48
 70
     1
102
RTVSPropertyOp49
 70
     1
102
RTVSPropertyOp50
 70
     1
102
RTVSPropertyOp51
 70
     0
102
RTVSPropertyOp52
 70
     0
102
RTVSPropertyOp53
 70
     1
102
RTVSPropertyOp54
 70
     1
102
RTVSPropertyOp55
 70
     1
102
RTVSPropertyOp56
 70
     1
102
RTVSPropertyOp57
 70
     1
102
RTVSPropertyOp58
 70
     1
102
RTVSPropertyOp59
 70
     1
102
RTVSPropertyOp60
 70
     1
102
RTVSPropertyOp61
 70
     1
102
RTVSPropertyOp62
 70
     1
  0
XRECORD
  5
868E
102
{ACAD_REACTORS
330
868D
102
}
330
868D
100
AcDbXrecord
280
     1
102
RTVSPost2010Prop28
280
     0
102
RTVSPost2010PropOp28
 70
     1
102
RTVSPost2010Prop29
280
     1
102
RTVSPost2010PropOp29
 70
     1
102
RTVSPost2010Prop30
280
     1
102
RTVSPost2010PropOp30
 70
     1
102
RTVSPost2010Prop31
280
     0
102
RTVSPost2010PropOp31
 70
     1
102
RTVSPost2010Prop32
280
     0
102
RTVSPost2010PropOp32
 70
     1
102
RTVSPost2010Prop33
280
     0
102
RTVSPost2010PropOp33
 70
     1
102
RTVSPost2010Prop34
280
     0
102
RTVSPost2010PropOp34
 70
     1
102
RTVSPost2010Prop35
280
     0
102
RTVSPost2010PropOp35
 70
     1
102
RTVSPost2010Prop36
280
     0
102
RTVSPost2010PropOp36
 70
     1
102
RTVSPost2010Prop37
 90
       50
102
RTVSPost2010PropOp37
 70
     0
102
RTVSPost2010Prop38
140
0.0
102
RTVSPost2010PropOp38
 70
     0
102
RTVSPost2010Prop39
140
1.0
102
RTVSPost2010PropOp39
 70
     0
102
RTVSPost2010Prop40
 90
        0
102
RTVSPost2010PropOp40
 70
     0
102
RTVSPost2010Prop41ColorIndex
 90
       18
102
RTVSPost2010Prop41ColorRGB
 90
        0
102
RTVSPost2010PropOp41
 70
     0
102
RTVSPost2010Prop42
 90
       50
102
RTVSPost2010PropOp42
 70
     0
102
RTVSPost2010Prop43
 90
        3
102
RTVSPost2010PropOp43
 70
     0
102
RTVSPost2010Prop44ColorIndex
 90
        5
102
RTVSPost2010Prop44ColorRGB
 90
      255
102
RTVSPost2010PropOp44
 70
     0
102
RTVSPost2010Prop45
280
     0
102
RTVSPost2010PropOp45
 70
     1
102
RTVSPost2010Prop46
 90
       50
102
RTVSPost2010PropOp46
 70
     0
102
RTVSPost2010Prop47
 90
       50
102
RTVSPost2010PropOp47
 70
     0
102
RTVSPost2010Prop48
 90
       50
102
RTVSPost2010PropOp48
 70
     0
102
RTVSPost2010Prop49
280
     0
102
RTVSPost2010PropOp49
 70
     1
102
RTVSPost2010Prop50
 90
       50
102
RTVSPost2010PropOp50
 70
     0
102
RTVSPost2010Prop51ColorIndex
 90
      256
102
RTVSPost2010Prop51ColorRGB
 90
-16777216
102
RTVSPost2010PropOp51
 70
     0
102
RTVSPost2010Prop52
140
1.0
102
RTVSPost2010PropOp52
 70
     0
102
RTVSPost2010Prop53
 90
        2
102
RTVSPost2010PropOp53
 70
     0
102
RTVSPost2010Prop54
  1
strokes_ogs.tif
102
RTVSPost2010PropOp54
 70
     0
102
RTVSPost2010Prop55
280
     0
102
RTVSPost2010PropOp55
 70
     1
102
RTVSPost2010Prop56
140
1.0
102
RTVSPost2010PropOp56
 70
     0
102
RTVSPost2010Prop57
140
1.0
102
RTVSPost2010PropOp57
 70
     0
102
RTVSPropertyOp0
 70
     0
102
RTVSPropertyOp1
 70
     0
102
RTVSPropertyOp2
 70
     0
102
RTVSPropertyOp3
 70
     0
102
RTVSPropertyOp4
 70
     0
102
RTVSPropertyOp5
 70
     0
102
RTVSPropertyOp6
 70
     0
102
RTVSPropertyOp7
 70
     0
102
RTVSPropertyOp8
 70
     0
102
RTVSPropertyOp9
 70
     0
102
RTVSPropertyOp10
 70
     0
102
RTVSPropertyOp11
 70
     0
102
RTVSPropertyOp12
 70
     0
102
RTVSPropertyOp13
 70
     0
102
RTVSPropertyOp14
 70
     2
102
RTVSPropertyOp15
 70
     0
102
RTVSPropertyOp16
 70
     0
102
RTVSPropertyOp17
 70
     0
102
RTVSPropertyOp18
 70
     0
102
RTVSPropertyOp19
 70
     0
102
RTVSPropertyOp20
 70
     0
102
RTVSPropertyOp21
 70
     0
102
RTVSPropertyOp22
 70
     0
102
RTVSPropertyOp23
 70
     0
102
RTVSPropertyOp24
 70
     0
102
RTVSPropertyOp25
 70
     0
102
RTVSPropertyOp26
 70
     0
102
RTVSPropertyOp27
 70
     0
102
RTVSPropertyOp28
 70
     1
102
RTVSPropertyOp29
 70
     1
102
RTVSPropertyOp30
 70
     1
102
RTVSPropertyOp31
 70
     1
102
RTVSPropertyOp32
 70
     1
102
RTVSPropertyOp33
 70
     1
102
RTVSPropertyOp34
 70
     1
102
RTVSPropertyOp35
 70
     1
102
RTVSPropertyOp36
 70
     1
102
RTVSPropertyOp37
 70
     0
102
RTVSPropertyOp38
 70
     0
102
RTVSPropertyOp39
 70
     0
102
RTVSPropertyOp40
 70
     0
102
RTVSPropertyOp41
 70
     0
102
RTVSPropertyOp42
 70
     0
102
RTVSPropertyOp43
 70
     0
102
RTVSPropertyOp44
 70
     0
102
RTVSPropertyOp45
 70
     1
102
RTVSPropertyOp46
 70
     0
102
RTVSPropertyOp47
 70
     0
102
RTVSPropertyOp48
 70
     0
102
RTVSPropertyOp49
 70
     1
102
RTVSPropertyOp50
 70
     0
102
RTVSPropertyOp51
 70
     0
102
RTVSPropertyOp52
 70
     0
102
RTVSPropertyOp53
 70
     0
102
RTVSPropertyOp54
 70
     0
102
RTVSPropertyOp55
 70
     1
102
RTVSPropertyOp56
 70
     0
102
RTVSPropertyOp57
 70
     0
102
RTVSPropertyOp58
 70
     0
102
RTVSPropertyOp59
 70
     0
102
RTVSPropertyOp60
 70
     0
102
RTVSPropertyOp61
 70
     0
102
RTVSPropertyOp62
 70
     0
  0
XRECORD
  5
867C
102
{ACAD_REACTORS
330
867B
102
}
330
867B
100
AcDbXrecord
280
     1
102
RTVSPost2010Prop28
280
     0
102
RTVSPost2010PropOp28
 70
     1
102
RTVSPost2010Prop29
280
     1
102
RTVSPost2010PropOp29
 70
     1
102
RTVSPost2010Prop30
280
     1
102
RTVSPost2010PropOp30
 70
     1
102
RTVSPost2010Prop31
280
     0
102
RTVSPost2010PropOp31
 70
     1
102
RTVSPost2010Prop32
280
     0
102
RTVSPost2010PropOp32
 70
     1
102
RTVSPost2010Prop33
280
     0
102
RTVSPost2010PropOp33
 70
     1
102
RTVSPost2010Prop34
280
     0
102
RTVSPost2010PropOp34
 70
     1
102
RTVSPost2010Prop35
280
     0
102
RTVSPost2010PropOp35
 70
     1
102
RTVSPost2010Prop36
280
     0
102
RTVSPost2010PropOp36
 70
     1
102
RTVSPost2010Prop37
 90
       50
102
RTVSPost2010PropOp37
 70
     1
102
RTVSPost2010Prop38
140
0.0
102
RTVSPost2010PropOp38
 70
     1
102
RTVSPost2010Prop39
140
1.0
102
RTVSPost2010PropOp39
 70
     1
102
RTVSPost2010Prop40
 90
        0
102
RTVSPost2010PropOp40
 70
     1
102
RTVSPost2010Prop41ColorIndex
 90
       18
102
RTVSPost2010Prop41ColorRGB
 90
        0
102
RTVSPost2010PropOp41
 70
     1
102
RTVSPost2010Prop42
 90
       50
102
RTVSPost2010PropOp42
 70
     1
102
RTVSPost2010Prop43
 90
        3
102
RTVSPost2010PropOp43
 70
     1
102
RTVSPost2010Prop44ColorIndex
 90
        5
102
RTVSPost2010Prop44ColorRGB
 90
      255
102
RTVSPost2010PropOp44
 70
     1
102
RTVSPost2010Prop45
280
     0
102
RTVSPost2010PropOp45
 70
     1
102
RTVSPost2010Prop46
 90
       50
102
RTVSPost2010PropOp46
 70
     1
102
RTVSPost2010Prop47
 90
       50
102
RTVSPost2010PropOp47
 70
     1
102
RTVSPost2010Prop48
 90
       50
102
RTVSPost2010PropOp48
 70
     1
102
RTVSPost2010Prop49
280
     0
102
RTVSPost2010PropOp49
 70
     1
102
RTVSPost2010Prop50
 90
       50
102
RTVSPost2010PropOp50
 70
     1
102
RTVSPost2010Prop51ColorIndex
 90
      256
102
RTVSPost2010Prop51ColorRGB
 90
-16777216
102
RTVSPost2010PropOp51
 70
     0
102
RTVSPost2010Prop52
140
1.0
102
RTVSPost2010PropOp52
 70
     0
102
RTVSPost2010Prop53
 90
        2
102
RTVSPost2010PropOp53
 70
     1
102
RTVSPost2010Prop54
  1
strokes_ogs.tif
102
RTVSPost2010PropOp54
 70
     1
102
RTVSPost2010Prop55
280
     0
102
RTVSPost2010PropOp55
 70
     1
102
RTVSPost2010Prop56
140
1.0
102
RTVSPost2010PropOp56
 70
     1
102
RTVSPost2010Prop57
140
1.0
102
RTVSPost2010PropOp57
 70
     1
102
RTVSPropertyOp0
 70
     1
102
RTVSPropertyOp1
 70
     1
102
RTVSPropertyOp2
 70
     1
102
RTVSPropertyOp3
 70
     1
102
RTVSPropertyOp4
 70
     1
102
RTVSPropertyOp5
 70
     1
102
RTVSPropertyOp6
 70
     1
102
RTVSPropertyOp7
 70
     1
102
RTVSPropertyOp8
 70
     1
102
RTVSPropertyOp9
 70
     1
102
RTVSPropertyOp10
 70
     1
102
RTVSPropertyOp11
 70
     1
102
RTVSPropertyOp12
 70
     1
102
RTVSPropertyOp13
 70
     1
102
RTVSPropertyOp14
 70
     1
102
RTVSPropertyOp15
 70
     1
102
RTVSPropertyOp16
 70
     1
102
RTVSPropertyOp17
 70
     1
102
RTVSPropertyOp18
 70
     1
102
RTVSPropertyOp19
 70
     1
102
RTVSPropertyOp20
 70
     1
102
RTVSPropertyOp21
 70
     1
102
RTVSPropertyOp22
 70
     1
102
RTVSPropertyOp23
 70
     1
102
RTVSPropertyOp24
 70
     1
102
RTVSPropertyOp25
 70
     1
102
RTVSPropertyOp26
 70
     1
102
RTVSPropertyOp27
 70
     1
102
RTVSPropertyOp28
 70
     1
102
RTVSPropertyOp29
 70
     1
102
RTVSPropertyOp30
 70
     1
102
RTVSPropertyOp31
 70
     1
102
RTVSPropertyOp32
 70
     1
102
RTVSPropertyOp33
 70
     1
102
RTVSPropertyOp34
 70
     1
102
RTVSPropertyOp35
 70
     1
102
RTVSPropertyOp36
 70
     1
102
RTVSPropertyOp37
 70
     1
102
RTVSPropertyOp38
 70
     1
102
RTVSPropertyOp39
 70
     1
102
RTVSPropertyOp40
 70
     1
102
RTVSPropertyOp41
 70
     1
102
RTVSPropertyOp42
 70
     1
102
RTVSPropertyOp43
 70
     1
102
RTVSPropertyOp44
 70
     1
102
RTVSPropertyOp45
 70
     1
102
RTVSPropertyOp46
 70
     1
102
RTVSPropertyOp47
 70
     1
102
RTVSPropertyOp48
 70
     1
102
RTVSPropertyOp49
 70
     1
102
RTVSPropertyOp50
 70
     1
102
RTVSPropertyOp51
 70
     0
102
RTVSPropertyOp52
 70
     0
102
RTVSPropertyOp53
 70
     1
102
RTVSPropertyOp54
 70
     1
102
RTVSPropertyOp55
 70
     1
102
RTVSPropertyOp56
 70
     1
102
RTVSPropertyOp57
 70
     1
102
RTVSPropertyOp58
 70
     1
102
RTVSPropertyOp59
 70
     1
102
RTVSPropertyOp60
 70
     1
102
RTVSPropertyOp61
 70
     1
102
RTVSPropertyOp62
 70
     1
  0
XRECORD
  5
8660
102
{ACAD_REACTORS
330
865F
102
}
330
865F
100
AcDbXrecord
280
     1
102
RTVSPost2010Prop28
280
     0
102
RTVSPost2010PropOp28
 70
     1
102
RTVSPost2010Prop29
280
     1
102
RTVSPost2010PropOp29
 70
     1
102
RTVSPost2010Prop30
280
     1
102
RTVSPost2010PropOp30
 70
     1
102
RTVSPost2010Prop31
280
     0
102
RTVSPost2010PropOp31
 70
     1
102
RTVSPost2010Prop32
280
     0
102
RTVSPost2010PropOp32
 70
     1
102
RTVSPost2010Prop33
280
     0
102
RTVSPost2010PropOp33
 70
     1
102
RTVSPost2010Prop34
280
     0
102
RTVSPost2010PropOp34
 70
     1
102
RTVSPost2010Prop35
280
     0
102
RTVSPost2010PropOp35
 70
     1
102
RTVSPost2010Prop36
280
     0
102
RTVSPost2010PropOp36
 70
     1
102
RTVSPost2010Prop37
 90
       50
102
RTVSPost2010PropOp37
 70
     1
102
RTVSPost2010Prop38
140
0.0
102
RTVSPost2010PropOp38
 70
     1
102
RTVSPost2010Prop39
140
1.0
102
RTVSPost2010PropOp39
 70
     1
102
RTVSPost2010Prop40
 90
        0
102
RTVSPost2010PropOp40
 70
     1
102
RTVSPost2010Prop41ColorIndex
 90
       18
102
RTVSPost2010Prop41ColorRGB
 90
        0
102
RTVSPost2010PropOp41
 70
     1
102
RTVSPost2010Prop42
 90
       50
102
RTVSPost2010PropOp42
 70
     1
102
RTVSPost2010Prop43
 90
        3
102
RTVSPost2010PropOp43
 70
     1
102
RTVSPost2010Prop44ColorIndex
 90
        5
102
RTVSPost2010Prop44ColorRGB
 90
      255
102
RTVSPost2010PropOp44
 70
     1
102
RTVSPost2010Prop45
280
     0
102
RTVSPost2010PropOp45
 70
     1
102
RTVSPost2010Prop46
 90
       50
102
RTVSPost2010PropOp46
 70
     1
102
RTVSPost2010Prop47
 90
       50
102
RTVSPost2010PropOp47
 70
     1
102
RTVSPost2010Prop48
 90
       50
102
RTVSPost2010PropOp48
 70
     1
102
RTVSPost2010Prop49
280
     0
102
RTVSPost2010PropOp49
 70
     1
102
RTVSPost2010Prop50
 90
       50
102
RTVSPost2010PropOp50
 70
     1
102
RTVSPost2010Prop51ColorIndex
 90
      256
102
RTVSPost2010Prop51ColorRGB
 90
-16777216
102
RTVSPost2010PropOp51
 70
     0
102
RTVSPost2010Prop52
140
1.0
102
RTVSPost2010PropOp52
 70
     0
102
RTVSPost2010Prop53
 90
        2
102
RTVSPost2010PropOp53
 70
     1
102
RTVSPost2010Prop54
  1
strokes_ogs.tif
102
RTVSPost2010PropOp54
 70
     1
102
RTVSPost2010Prop55
280
     0
102
RTVSPost2010PropOp55
 70
     1
102
RTVSPost2010Prop56
140
1.0
102
RTVSPost2010PropOp56
 70
     1
102
RTVSPost2010Prop57
140
1.0
102
RTVSPost2010PropOp57
 70
     1
102
RTVSPropertyOp0
 70
     1
102
RTVSPropertyOp1
 70
     1
102
RTVSPropertyOp2
 70
     1
102
RTVSPropertyOp3
 70
     1
102
RTVSPropertyOp4
 70
     1
102
RTVSPropertyOp5
 70
     1
102
RTVSPropertyOp6
 70
     1
102
RTVSPropertyOp7
 70
     1
102
RTVSPropertyOp8
 70
     1
102
RTVSPropertyOp9
 70
     1
102
RTVSPropertyOp10
 70
     1
102
RTVSPropertyOp11
 70
     1
102
RTVSPropertyOp12
 70
     1
102
RTVSPropertyOp13
 70
     1
102
RTVSPropertyOp14
 70
     1
102
RTVSPropertyOp15
 70
     1
102
RTVSPropertyOp16
 70
     1
102
RTVSPropertyOp17
 70
     1
102
RTVSPropertyOp18
 70
     1
102
RTVSPropertyOp19
 70
     1
102
RTVSPropertyOp20
 70
     1
102
RTVSPropertyOp21
 70
     1
102
RTVSPropertyOp22
 70
     1
102
RTVSPropertyOp23
 70
     1
102
RTVSPropertyOp24
 70
     1
102
RTVSPropertyOp25
 70
     1
102
RTVSPropertyOp26
 70
     1
102
RTVSPropertyOp27
 70
     1
102
RTVSPropertyOp28
 70
     1
102
RTVSPropertyOp29
 70
     1
102
RTVSPropertyOp30
 70
     1
102
RTVSPropertyOp31
 70
     1
102
RTVSPropertyOp32
 70
     1
102
RTVSPropertyOp33
 70
     1
102
RTVSPropertyOp34
 70
     1
102
RTVSPropertyOp35
 70
     1
102
RTVSPropertyOp36
 70
     1
102
RTVSPropertyOp37
 70
     1
102
RTVSPropertyOp38
 70
     1
102
RTVSPropertyOp39
 70
     1
102
RTVSPropertyOp40
 70
     1
102
RTVSPropertyOp41
 70
     1
102
RTVSPropertyOp42
 70
     1
102
RTVSPropertyOp43
 70
     1
102
RTVSPropertyOp44
 70
     1
102
RTVSPropertyOp45
 70
     1
102
RTVSPropertyOp46
 70
     1
102
RTVSPropertyOp47
 70
     1
102
RTVSPropertyOp48
 70
     1
102
RTVSPropertyOp49
 70
     1
102
RTVSPropertyOp50
 70
     1
102
RTVSPropertyOp51
 70
     0
102
RTVSPropertyOp52
 70
     0
102
RTVSPropertyOp53
 70
     1
102
RTVSPropertyOp54
 70
     1
102
RTVSPropertyOp55
 70
     1
102
RTVSPropertyOp56
 70
     1
102
RTVSPropertyOp57
 70
     1
102
RTVSPropertyOp58
 70
     1
102
RTVSPropertyOp59
 70
     1
102
RTVSPropertyOp60
 70
     1
102
RTVSPropertyOp61
 70
     1
102
RTVSPropertyOp62
 70
     1
  0
XRECORD
  5
8662
102
{ACAD_REACTORS
330
8661
102
}
330
8661
100
AcDbXrecord
280
     1
102
RTVSPost2010Prop28
280
     0
102
RTVSPost2010PropOp28
 70
     1
102
RTVSPost2010Prop29
280
     1
102
RTVSPost2010PropOp29
 70
     1
102
RTVSPost2010Prop30
280
     1
102
RTVSPost2010PropOp30
 70
     1
102
RTVSPost2010Prop31
280
     0
102
RTVSPost2010PropOp31
 70
     1
102
RTVSPost2010Prop32
280
     0
102
RTVSPost2010PropOp32
 70
     1
102
RTVSPost2010Prop33
280
     0
102
RTVSPost2010PropOp33
 70
     1
102
RTVSPost2010Prop34
280
     0
102
RTVSPost2010PropOp34
 70
     1
102
RTVSPost2010Prop35
280
     0
102
RTVSPost2010PropOp35
 70
     1
102
RTVSPost2010Prop36
280
     0
102
RTVSPost2010PropOp36
 70
     1
102
RTVSPost2010Prop37
 90
       50
102
RTVSPost2010PropOp37
 70
     1
102
RTVSPost2010Prop38
140
0.0
102
RTVSPost2010PropOp38
 70
     1
102
RTVSPost2010Prop39
140
1.0
102
RTVSPost2010PropOp39
 70
     1
102
RTVSPost2010Prop40
 90
        0
102
RTVSPost2010PropOp40
 70
     1
102
RTVSPost2010Prop41ColorIndex
 90
       18
102
RTVSPost2010Prop41ColorRGB
 90
        0
102
RTVSPost2010PropOp41
 70
     1
102
RTVSPost2010Prop42
 90
       50
102
RTVSPost2010PropOp42
 70
     1
102
RTVSPost2010Prop43
 90
        3
102
RTVSPost2010PropOp43
 70
     1
102
RTVSPost2010Prop44ColorIndex
 90
        5
102
RTVSPost2010Prop44ColorRGB
 90
      255
102
RTVSPost2010PropOp44
 70
     1
102
RTVSPost2010Prop45
280
     0
102
RTVSPost2010PropOp45
 70
     1
102
RTVSPost2010Prop46
 90
       50
102
RTVSPost2010PropOp46
 70
     1
102
RTVSPost2010Prop47
 90
       50
102
RTVSPost2010PropOp47
 70
     1
102
RTVSPost2010Prop48
 90
       50
102
RTVSPost2010PropOp48
 70
     1
102
RTVSPost2010Prop49
280
     0
102
RTVSPost2010PropOp49
 70
     1
102
RTVSPost2010Prop50
 90
       50
102
RTVSPost2010PropOp50
 70
     1
102
RTVSPost2010Prop51ColorIndex
 90
      256
102
RTVSPost2010Prop51ColorRGB
 90
-16777216
102
RTVSPost2010PropOp51
 70
     0
102
RTVSPost2010Prop52
140
1.0
102
RTVSPost2010PropOp52
 70
     0
102
RTVSPost2010Prop53
 90
        2
102
RTVSPost2010PropOp53
 70
     1
102
RTVSPost2010Prop54
  1
strokes_ogs.tif
102
RTVSPost2010PropOp54
 70
     1
102
RTVSPost2010Prop55
280
     0
102
RTVSPost2010PropOp55
 70
     1
102
RTVSPost2010Prop56
140
1.0
102
RTVSPost2010PropOp56
 70
     1
102
RTVSPost2010Prop57
140
1.0
102
RTVSPost2010PropOp57
 70
     1
102
RTVSPropertyOp0
 70
     1
102
RTVSPropertyOp1
 70
     1
102
RTVSPropertyOp2
 70
     1
102
RTVSPropertyOp3
 70
     1
102
RTVSPropertyOp4
 70
     1
102
RTVSPropertyOp5
 70
     1
102
RTVSPropertyOp6
 70
     1
102
RTVSPropertyOp7
 70
     1
102
RTVSPropertyOp8
 70
     1
102
RTVSPropertyOp9
 70
     1
102
RTVSPropertyOp10
 70
     1
102
RTVSPropertyOp11
 70
     1
102
RTVSPropertyOp12
 70
     1
102
RTVSPropertyOp13
 70
     1
102
RTVSPropertyOp14
 70
     1
102
RTVSPropertyOp15
 70
     1
102
RTVSPropertyOp16
 70
     1
102
RTVSPropertyOp17
 70
     1
102
RTVSPropertyOp18
 70
     1
102
RTVSPropertyOp19
 70
     1
102
RTVSPropertyOp20
 70
     1
102
RTVSPropertyOp21
 70
     1
102
RTVSPropertyOp22
 70
     1
102
RTVSPropertyOp23
 70
     1
102
RTVSPropertyOp24
 70
     1
102
RTVSPropertyOp25
 70
     1
102
RTVSPropertyOp26
 70
     1
102
RTVSPropertyOp27
 70
     1
102
RTVSPropertyOp28
 70
     1
102
RTVSPropertyOp29
 70
     1
102
RTVSPropertyOp30
 70
     1
102
RTVSPropertyOp31
 70
     1
102
RTVSPropertyOp32
 70
     1
102
RTVSPropertyOp33
 70
     1
102
RTVSPropertyOp34
 70
     1
102
RTVSPropertyOp35
 70
     1
102
RTVSPropertyOp36
 70
     1
102
RTVSPropertyOp37
 70
     1
102
RTVSPropertyOp38
 70
     1
102
RTVSPropertyOp39
 70
     1
102
RTVSPropertyOp40
 70
     1
102
RTVSPropertyOp41
 70
     1
102
RTVSPropertyOp42
 70
     1
102
RTVSPropertyOp43
 70
     1
102
RTVSPropertyOp44
 70
     1
102
RTVSPropertyOp45
 70
     1
102
RTVSPropertyOp46
 70
     1
102
RTVSPropertyOp47
 70
     1
102
RTVSPropertyOp48
 70
     1
102
RTVSPropertyOp49
 70
     1
102
RTVSPropertyOp50
 70
     1
102
RTVSPropertyOp51
 70
     0
102
RTVSPropertyOp52
 70
     0
102
RTVSPropertyOp53
 70
     1
102
RTVSPropertyOp54
 70
     1
102
RTVSPropertyOp55
 70
     1
102
RTVSPropertyOp56
 70
     1
102
RTVSPropertyOp57
 70
     1
102
RTVSPropertyOp58
 70
     1
102
RTVSPropertyOp59
 70
     1
102
RTVSPropertyOp60
 70
     1
102
RTVSPropertyOp61
 70
     1
102
RTVSPropertyOp62
 70
     1
  0
XRECORD
  5
8664
102
{ACAD_REACTORS
330
8663
102
}
330
8663
100
AcDbXrecord
280
     1
102
RTVSPost2010Prop28
280
     0
102
RTVSPost2010PropOp28
 70
     1
102
RTVSPost2010Prop29
280
     1
102
RTVSPost2010PropOp29
 70
     1
102
RTVSPost2010Prop30
280
     1
102
RTVSPost2010PropOp30
 70
     1
102
RTVSPost2010Prop31
280
     0
102
RTVSPost2010PropOp31
 70
     1
102
RTVSPost2010Prop32
280
     0
102
RTVSPost2010PropOp32
 70
     1
102
RTVSPost2010Prop33
280
     0
102
RTVSPost2010PropOp33
 70
     1
102
RTVSPost2010Prop34
280
     0
102
RTVSPost2010PropOp34
 70
     1
102
RTVSPost2010Prop35
280
     0
102
RTVSPost2010PropOp35
 70
     1
102
RTVSPost2010Prop36
280
     0
102
RTVSPost2010PropOp36
 70
     1
102
RTVSPost2010Prop37
 90
       50
102
RTVSPost2010PropOp37
 70
     1
102
RTVSPost2010Prop38
140
0.0
102
RTVSPost2010PropOp38
 70
     1
102
RTVSPost2010Prop39
140
1.0
102
RTVSPost2010PropOp39
 70
     1
102
RTVSPost2010Prop40
 90
        0
102
RTVSPost2010PropOp40
 70
     1
102
RTVSPost2010Prop41ColorIndex
 90
       18
102
RTVSPost2010Prop41ColorRGB
 90
        0
102
RTVSPost2010PropOp41
 70
     1
102
RTVSPost2010Prop42
 90
       50
102
RTVSPost2010PropOp42
 70
     1
102
RTVSPost2010Prop43
 90
        3
102
RTVSPost2010PropOp43
 70
     1
102
RTVSPost2010Prop44ColorIndex
 90
        5
102
RTVSPost2010Prop44ColorRGB
 90
      255
102
RTVSPost2010PropOp44
 70
     1
102
RTVSPost2010Prop45
280
     0
102
RTVSPost2010PropOp45
 70
     1
102
RTVSPost2010Prop46
 90
       50
102
RTVSPost2010PropOp46
 70
     1
102
RTVSPost2010Prop47
 90
       50
102
RTVSPost2010PropOp47
 70
     1
102
RTVSPost2010Prop48
 90
       50
102
RTVSPost2010PropOp48
 70
     1
102
RTVSPost2010Prop49
280
     0
102
RTVSPost2010PropOp49
 70
     1
102
RTVSPost2010Prop50
 90
       50
102
RTVSPost2010PropOp50
 70
     1
102
RTVSPost2010Prop51ColorIndex
 90
      256
102
RTVSPost2010Prop51ColorRGB
 90
-16777216
102
RTVSPost2010PropOp51
 70
     0
102
RTVSPost2010Prop52
140
1.0
102
RTVSPost2010PropOp52
 70
     0
102
RTVSPost2010Prop53
 90
        2
102
RTVSPost2010PropOp53
 70
     1
102
RTVSPost2010Prop54
  1
strokes_ogs.tif
102
RTVSPost2010PropOp54
 70
     1
102
RTVSPost2010Prop55
280
     0
102
RTVSPost2010PropOp55
 70
     1
102
RTVSPost2010Prop56
140
1.0
102
RTVSPost2010PropOp56
 70
     1
102
RTVSPost2010Prop57
140
1.0
102
RTVSPost2010PropOp57
 70
     1
102
RTVSPropertyOp0
 70
     1
102
RTVSPropertyOp1
 70
     1
102
RTVSPropertyOp2
 70
     1
102
RTVSPropertyOp3
 70
     1
102
RTVSPropertyOp4
 70
     1
102
RTVSPropertyOp5
 70
     1
102
RTVSPropertyOp6
 70
     1
102
RTVSPropertyOp7
 70
     1
102
RTVSPropertyOp8
 70
     1
102
RTVSPropertyOp9
 70
     1
102
RTVSPropertyOp10
 70
     1
102
RTVSPropertyOp11
 70
     1
102
RTVSPropertyOp12
 70
     1
102
RTVSPropertyOp13
 70
     1
102
RTVSPropertyOp14
 70
     1
102
RTVSPropertyOp15
 70
     1
102
RTVSPropertyOp16
 70
     1
102
RTVSPropertyOp17
 70
     1
102
RTVSPropertyOp18
 70
     1
102
RTVSPropertyOp19
 70
     1
102
RTVSPropertyOp20
 70
     1
102
RTVSPropertyOp21
 70
     1
102
RTVSPropertyOp22
 70
     1
102
RTVSPropertyOp23
 70
     1
102
RTVSPropertyOp24
 70
     1
102
RTVSPropertyOp25
 70
     1
102
RTVSPropertyOp26
 70
     1
102
RTVSPropertyOp27
 70
     1
102
RTVSPropertyOp28
 70
     1
102
RTVSPropertyOp29
 70
     1
102
RTVSPropertyOp30
 70
     1
102
RTVSPropertyOp31
 70
     1
102
RTVSPropertyOp32
 70
     1
102
RTVSPropertyOp33
 70
     1
102
RTVSPropertyOp34
 70
     1
102
RTVSPropertyOp35
 70
     1
102
RTVSPropertyOp36
 70
     1
102
RTVSPropertyOp37
 70
     1
102
RTVSPropertyOp38
 70
     1
102
RTVSPropertyOp39
 70
     1
102
RTVSPropertyOp40
 70
     1
102
RTVSPropertyOp41
 70
     1
102
RTVSPropertyOp42
 70
     1
102
RTVSPropertyOp43
 70
     1
102
RTVSPropertyOp44
 70
     1
102
RTVSPropertyOp45
 70
     1
102
RTVSPropertyOp46
 70
     1
102
RTVSPropertyOp47
 70
     1
102
RTVSPropertyOp48
 70
     1
102
RTVSPropertyOp49
 70
     1
102
RTVSPropertyOp50
 70
     1
102
RTVSPropertyOp51
 70
     0
102
RTVSPropertyOp52
 70
     0
102
RTVSPropertyOp53
 70
     1
102
RTVSPropertyOp54
 70
     1
102
RTVSPropertyOp55
 70
     1
102
RTVSPropertyOp56
 70
     1
102
RTVSPropertyOp57
 70
     1
102
RTVSPropertyOp58
 70
     1
102
RTVSPropertyOp59
 70
     1
102
RTVSPropertyOp60
 70
     1
102
RTVSPropertyOp61
 70
     1
102
RTVSPropertyOp62
 70
     1
  0
XRECORD
  5
8666
102
{ACAD_REACTORS
330
8665
102
}
330
8665
100
AcDbXrecord
280
     1
102
RTVSPost2010Prop28
280
     0
102
RTVSPost2010PropOp28
 70
     1
102
RTVSPost2010Prop29
280
     1
102
RTVSPost2010PropOp29
 70
     1
102
RTVSPost2010Prop30
280
     1
102
RTVSPost2010PropOp30
 70
     1
102
RTVSPost2010Prop31
280
     0
102
RTVSPost2010PropOp31
 70
     1
102
RTVSPost2010Prop32
280
     0
102
RTVSPost2010PropOp32
 70
     1
102
RTVSPost2010Prop33
280
     0
102
RTVSPost2010PropOp33
 70
     1
102
RTVSPost2010Prop34
280
     0
102
RTVSPost2010PropOp34
 70
     1
102
RTVSPost2010Prop35
280
     0
102
RTVSPost2010PropOp35
 70
     1
102
RTVSPost2010Prop36
280
     0
102
RTVSPost2010PropOp36
 70
     1
102
RTVSPost2010Prop37
 90
       50
102
RTVSPost2010PropOp37
 70
     1
102
RTVSPost2010Prop38
140
0.0
102
RTVSPost2010PropOp38
 70
     1
102
RTVSPost2010Prop39
140
1.0
102
RTVSPost2010PropOp39
 70
     1
102
RTVSPost2010Prop40
 90
        0
102
RTVSPost2010PropOp40
 70
     1
102
RTVSPost2010Prop41ColorIndex
 90
       18
102
RTVSPost2010Prop41ColorRGB
 90
        0
102
RTVSPost2010PropOp41
 70
     1
102
RTVSPost2010Prop42
 90
       50
102
RTVSPost2010PropOp42
 70
     1
102
RTVSPost2010Prop43
 90
        3
102
RTVSPost2010PropOp43
 70
     1
102
RTVSPost2010Prop44ColorIndex
 90
        5
102
RTVSPost2010Prop44ColorRGB
 90
      255
102
RTVSPost2010PropOp44
 70
     1
102
RTVSPost2010Prop45
280
     0
102
RTVSPost2010PropOp45
 70
     1
102
RTVSPost2010Prop46
 90
       50
102
RTVSPost2010PropOp46
 70
     1
102
RTVSPost2010Prop47
 90
       50
102
RTVSPost2010PropOp47
 70
     1
102
RTVSPost2010Prop48
 90
       50
102
RTVSPost2010PropOp48
 70
     1
102
RTVSPost2010Prop49
280
     0
102
RTVSPost2010PropOp49
 70
     1
102
RTVSPost2010Prop50
 90
       50
102
RTVSPost2010PropOp50
 70
     1
102
RTVSPost2010Prop51ColorIndex
 90
      256
102
RTVSPost2010Prop51ColorRGB
 90
-16777216
102
RTVSPost2010PropOp51
 70
     0
102
RTVSPost2010Prop52
140
1.0
102
RTVSPost2010PropOp52
 70
     0
102
RTVSPost2010Prop53
 90
        2
102
RTVSPost2010PropOp53
 70
     1
102
RTVSPost2010Prop54
  1
strokes_ogs.tif
102
RTVSPost2010PropOp54
 70
     1
102
RTVSPost2010Prop55
280
     0
102
RTVSPost2010PropOp55
 70
     1
102
RTVSPost2010Prop56
140
1.0
102
RTVSPost2010PropOp56
 70
     1
102
RTVSPost2010Prop57
140
1.0
102
RTVSPost2010PropOp57
 70
     1
102
RTVSPropertyOp0
 70
     1
102
RTVSPropertyOp1
 70
     1
102
RTVSPropertyOp2
 70
     1
102
RTVSPropertyOp3
 70
     1
102
RTVSPropertyOp4
 70
     1
102
RTVSPropertyOp5
 70
     1
102
RTVSPropertyOp6
 70
     1
102
RTVSPropertyOp7
 70
     1
102
RTVSPropertyOp8
 70
     1
102
RTVSPropertyOp9
 70
     1
102
RTVSPropertyOp10
 70
     1
102
RTVSPropertyOp11
 70
     1
102
RTVSPropertyOp12
 70
     1
102
RTVSPropertyOp13
 70
     1
102
RTVSPropertyOp14
 70
     1
102
RTVSPropertyOp15
 70
     1
102
RTVSPropertyOp16
 70
     1
102
RTVSPropertyOp17
 70
     1
102
RTVSPropertyOp18
 70
     1
102
RTVSPropertyOp19
 70
     1
102
RTVSPropertyOp20
 70
     1
102
RTVSPropertyOp21
 70
     1
102
RTVSPropertyOp22
 70
     1
102
RTVSPropertyOp23
 70
     1
102
RTVSPropertyOp24
 70
     1
102
RTVSPropertyOp25
 70
     1
102
RTVSPropertyOp26
 70
     1
102
RTVSPropertyOp27
 70
     1
102
RTVSPropertyOp28
 70
     1
102
RTVSPropertyOp29
 70
     1
102
RTVSPropertyOp30
 70
     1
102
RTVSPropertyOp31
 70
     1
102
RTVSPropertyOp32
 70
     1
102
RTVSPropertyOp33
 70
     1
102
RTVSPropertyOp34
 70
     1
102
RTVSPropertyOp35
 70
     1
102
RTVSPropertyOp36
 70
     1
102
RTVSPropertyOp37
 70
     1
102
RTVSPropertyOp38
 70
     1
102
RTVSPropertyOp39
 70
     1
102
RTVSPropertyOp40
 70
     1
102
RTVSPropertyOp41
 70
     1
102
RTVSPropertyOp42
 70
     1
102
RTVSPropertyOp43
 70
     1
102
RTVSPropertyOp44
 70
     1
102
RTVSPropertyOp45
 70
     1
102
RTVSPropertyOp46
 70
     1
102
RTVSPropertyOp47
 70
     1
102
RTVSPropertyOp48
 70
     1
102
RTVSPropertyOp49
 70
     1
102
RTVSPropertyOp50
 70
     1
102
RTVSPropertyOp51
 70
     0
102
RTVSPropertyOp52
 70
     0
102
RTVSPropertyOp53
 70
     1
102
RTVSPropertyOp54
 70
     1
102
RTVSPropertyOp55
 70
     1
102
RTVSPropertyOp56
 70
     1
102
RTVSPropertyOp57
 70
     1
102
RTVSPropertyOp58
 70
     1
102
RTVSPropertyOp59
 70
     1
102
RTVSPropertyOp60
 70
     1
102
RTVSPropertyOp61
 70
     1
102
RTVSPropertyOp62
 70
     1
  0
XRECORD
  5
866E
102
{ACAD_REACTORS
330
866D
102
}
330
866D
100
AcDbXrecord
280
     1
102
RTVSPost2010Prop28
280
     0
102
RTVSPost2010PropOp28
 70
     1
102
RTVSPost2010Prop29
280
     1
102
RTVSPost2010PropOp29
 70
     1
102
RTVSPost2010Prop30
280
     1
102
RTVSPost2010PropOp30
 70
     1
102
RTVSPost2010Prop31
280
     0
102
RTVSPost2010PropOp31
 70
     1
102
RTVSPost2010Prop32
280
     0
102
RTVSPost2010PropOp32
 70
     1
102
RTVSPost2010Prop33
280
     0
102
RTVSPost2010PropOp33
 70
     1
102
RTVSPost2010Prop34
280
     0
102
RTVSPost2010PropOp34
 70
     1
102
RTVSPost2010Prop35
280
     0
102
RTVSPost2010PropOp35
 70
     1
102
RTVSPost2010Prop36
280
     0
102
RTVSPost2010PropOp36
 70
     1
102
RTVSPost2010Prop37
 90
       50
102
RTVSPost2010PropOp37
 70
     1
102
RTVSPost2010Prop38
140
0.0
102
RTVSPost2010PropOp38
 70
     1
102
RTVSPost2010Prop39
140
1.0
102
RTVSPost2010PropOp39
 70
     1
102
RTVSPost2010Prop40
 90
        0
102
RTVSPost2010PropOp40
 70
     1
102
RTVSPost2010Prop41ColorIndex
 90
       18
102
RTVSPost2010Prop41ColorRGB
 90
        0
102
RTVSPost2010PropOp41
 70
     1
102
RTVSPost2010Prop42
 90
       50
102
RTVSPost2010PropOp42
 70
     1
102
RTVSPost2010Prop43
 90
        3
102
RTVSPost2010PropOp43
 70
     1
102
RTVSPost2010Prop44ColorIndex
 90
        5
102
RTVSPost2010Prop44ColorRGB
 90
      255
102
RTVSPost2010PropOp44
 70
     1
102
RTVSPost2010Prop45
280
     0
102
RTVSPost2010PropOp45
 70
     1
102
RTVSPost2010Prop46
 90
       50
102
RTVSPost2010PropOp46
 70
     1
102
RTVSPost2010Prop47
 90
       50
102
RTVSPost2010PropOp47
 70
     1
102
RTVSPost2010Prop48
 90
       50
102
RTVSPost2010PropOp48
 70
     1
102
RTVSPost2010Prop49
280
     0
102
RTVSPost2010PropOp49
 70
     1
102
RTVSPost2010Prop50
 90
       50
102
RTVSPost2010PropOp50
 70
     1
102
RTVSPost2010Prop51ColorIndex
 90
      256
102
RTVSPost2010Prop51ColorRGB
 90
-16777216
102
RTVSPost2010PropOp51
 70
     0
102
RTVSPost2010Prop52
140
1.0
102
RTVSPost2010PropOp52
 70
     0
102
RTVSPost2010Prop53
 90
        2
102
RTVSPost2010PropOp53
 70
     1
102
RTVSPost2010Prop54
  1
strokes_ogs.tif
102
RTVSPost2010PropOp54
 70
     1
102
RTVSPost2010Prop55
280
     0
102
RTVSPost2010PropOp55
 70
     1
102
RTVSPost2010Prop56
140
1.0
102
RTVSPost2010PropOp56
 70
     1
102
RTVSPost2010Prop57
140
1.0
102
RTVSPost2010PropOp57
 70
     1
102
RTVSPropertyOp0
 70
     1
102
RTVSPropertyOp1
 70
     1
102
RTVSPropertyOp2
 70
     1
102
RTVSPropertyOp3
 70
     1
102
RTVSPropertyOp4
 70
     1
102
RTVSPropertyOp5
 70
     1
102
RTVSPropertyOp6
 70
     1
102
RTVSPropertyOp7
 70
     1
102
RTVSPropertyOp8
 70
     1
102
RTVSPropertyOp9
 70
     1
102
RTVSPropertyOp10
 70
     1
102
RTVSPropertyOp11
 70
     1
102
RTVSPropertyOp12
 70
     1
102
RTVSPropertyOp13
 70
     1
102
RTVSPropertyOp14
 70
     1
102
RTVSPropertyOp15
 70
     1
102
RTVSPropertyOp16
 70
     1
102
RTVSPropertyOp17
 70
     1
102
RTVSPropertyOp18
 70
     1
102
RTVSPropertyOp19
 70
     1
102
RTVSPropertyOp20
 70
     1
102
RTVSPropertyOp21
 70
     1
102
RTVSPropertyOp22
 70
     1
102
RTVSPropertyOp23
 70
     1
102
RTVSPropertyOp24
 70
     1
102
RTVSPropertyOp25
 70
     1
102
RTVSPropertyOp26
 70
     1
102
RTVSPropertyOp27
 70
     1
102
RTVSPropertyOp28
 70
     1
102
RTVSPropertyOp29
 70
     1
102
RTVSPropertyOp30
 70
     1
102
RTVSPropertyOp31
 70
     1
102
RTVSPropertyOp32
 70
     1
102
RTVSPropertyOp33
 70
     1
102
RTVSPropertyOp34
 70
     1
102
RTVSPropertyOp35
 70
     1
102
RTVSPropertyOp36
 70
     1
102
RTVSPropertyOp37
 70
     1
102
RTVSPropertyOp38
 70
     1
102
RTVSPropertyOp39
 70
     1
102
RTVSPropertyOp40
 70
     1
102
RTVSPropertyOp41
 70
     1
102
RTVSPropertyOp42
 70
     1
102
RTVSPropertyOp43
 70
     1
102
RTVSPropertyOp44
 70
     1
102
RTVSPropertyOp45
 70
     1
102
RTVSPropertyOp46
 70
     1
102
RTVSPropertyOp47
 70
     1
102
RTVSPropertyOp48
 70
     1
102
RTVSPropertyOp49
 70
     1
102
RTVSPropertyOp50
 70
     1
102
RTVSPropertyOp51
 70
     0
102
RTVSPropertyOp52
 70
     0
102
RTVSPropertyOp53
 70
     1
102
RTVSPropertyOp54
 70
     1
102
RTVSPropertyOp55
 70
     1
102
RTVSPropertyOp56
 70
     1
102
RTVSPropertyOp57
 70
     1
102
RTVSPropertyOp58
 70
     1
102
RTVSPropertyOp59
 70
     1
102
RTVSPropertyOp60
 70
     1
102
RTVSPropertyOp61
 70
     1
102
RTVSPropertyOp62
 70
     1
  0
XRECORD
  5
868A
102
{ACAD_REACTORS
330
8689
102
}
330
8689
100
AcDbXrecord
280
     1
102
RTVSPost2010Prop28
280
     0
102
RTVSPost2010PropOp28
 70
     1
102
RTVSPost2010Prop29
280
     1
102
RTVSPost2010PropOp29
 70
     1
102
RTVSPost2010Prop30
280
     1
102
RTVSPost2010PropOp30
 70
     1
102
RTVSPost2010Prop31
280
     0
102
RTVSPost2010PropOp31
 70
     1
102
RTVSPost2010Prop32
280
     0
102
RTVSPost2010PropOp32
 70
     1
102
RTVSPost2010Prop33
280
     0
102
RTVSPost2010PropOp33
 70
     1
102
RTVSPost2010Prop34
280
     0
102
RTVSPost2010PropOp34
 70
     1
102
RTVSPost2010Prop35
280
     0
102
RTVSPost2010PropOp35
 70
     1
102
RTVSPost2010Prop36
280
     0
102
RTVSPost2010PropOp36
 70
     1
102
RTVSPost2010Prop37
 90
       50
102
RTVSPost2010PropOp37
 70
     0
102
RTVSPost2010Prop38
140
0.0
102
RTVSPost2010PropOp38
 70
     0
102
RTVSPost2010Prop39
140
1.0
102
RTVSPost2010PropOp39
 70
     0
102
RTVSPost2010Prop40
 90
        0
102
RTVSPost2010PropOp40
 70
     0
102
RTVSPost2010Prop41ColorIndex
 90
       18
102
RTVSPost2010Prop41ColorRGB
 90
        0
102
RTVSPost2010PropOp41
 70
     0
102
RTVSPost2010Prop42
 90
       50
102
RTVSPost2010PropOp42
 70
     0
102
RTVSPost2010Prop43
 90
        3
102
RTVSPost2010PropOp43
 70
     0
102
RTVSPost2010Prop44ColorIndex
 90
        5
102
RTVSPost2010Prop44ColorRGB
 90
      255
102
RTVSPost2010PropOp44
 70
     0
102
RTVSPost2010Prop45
280
     0
102
RTVSPost2010PropOp45
 70
     1
102
RTVSPost2010Prop46
 90
       50
102
RTVSPost2010PropOp46
 70
     0
102
RTVSPost2010Prop47
 90
       50
102
RTVSPost2010PropOp47
 70
     0
102
RTVSPost2010Prop48
 90
       50
102
RTVSPost2010PropOp48
 70
     0
102
RTVSPost2010Prop49
280
     0
102
RTVSPost2010PropOp49
 70
     1
102
RTVSPost2010Prop50
 90
       50
102
RTVSPost2010PropOp50
 70
     0
102
RTVSPost2010Prop51ColorIndex
 90
      256
102
RTVSPost2010Prop51ColorRGB
 90
-16777216
102
RTVSPost2010PropOp51
 70
     0
102
RTVSPost2010Prop52
140
1.0
102
RTVSPost2010PropOp52
 70
     0
102
RTVSPost2010Prop53
 90
        2
102
RTVSPost2010PropOp53
 70
     0
102
RTVSPost2010Prop54
  1
strokes_ogs.tif
102
RTVSPost2010PropOp54
 70
     0
102
RTVSPost2010Prop55
280
     0
102
RTVSPost2010PropOp55
 70
     1
102
RTVSPost2010Prop56
140
1.0
102
RTVSPost2010PropOp56
 70
     0
102
RTVSPost2010Prop57
140
1.0
102
RTVSPost2010PropOp57
 70
     0
102
RTVSPropertyOp0
 70
     0
102
RTVSPropertyOp1
 70
     0
102
RTVSPropertyOp2
 70
     0
102
RTVSPropertyOp3
 70
     0
102
RTVSPropertyOp4
 70
     0
102
RTVSPropertyOp5
 70
     0
102
RTVSPropertyOp6
 70
     0
102
RTVSPropertyOp7
 70
     0
102
RTVSPropertyOp8
 70
     0
102
RTVSPropertyOp9
 70
     0
102
RTVSPropertyOp10
 70
     0
102
RTVSPropertyOp11
 70
     0
102
RTVSPropertyOp12
 70
     0
102
RTVSPropertyOp13
 70
     0
102
RTVSPropertyOp14
 70
     2
102
RTVSPropertyOp15
 70
     0
102
RTVSPropertyOp16
 70
     0
102
RTVSPropertyOp17
 70
     0
102
RTVSPropertyOp18
 70
     0
102
RTVSPropertyOp19
 70
     0
102
RTVSPropertyOp20
 70
     0
102
RTVSPropertyOp21
 70
     0
102
RTVSPropertyOp22
 70
     0
102
RTVSPropertyOp23
 70
     0
102
RTVSPropertyOp24
 70
     0
102
RTVSPropertyOp25
 70
     0
102
RTVSPropertyOp26
 70
     0
102
RTVSPropertyOp27
 70
     0
102
RTVSPropertyOp28
 70
     1
102
RTVSPropertyOp29
 70
     1
102
RTVSPropertyOp30
 70
     1
102
RTVSPropertyOp31
 70
     1
102
RTVSPropertyOp32
 70
     1
102
RTVSPropertyOp33
 70
     1
102
RTVSPropertyOp34
 70
     1
102
RTVSPropertyOp35
 70
     1
102
RTVSPropertyOp36
 70
     1
102
RTVSPropertyOp37
 70
     0
102
RTVSPropertyOp38
 70
     0
102
RTVSPropertyOp39
 70
     0
102
RTVSPropertyOp40
 70
     0
102
RTVSPropertyOp41
 70
     0
102
RTVSPropertyOp42
 70
     0
102
RTVSPropertyOp43
 70
     0
102
RTVSPropertyOp44
 70
     0
102
RTVSPropertyOp45
 70
     1
102
RTVSPropertyOp46
 70
     0
102
RTVSPropertyOp47
 70
     0
102
RTVSPropertyOp48
 70
     0
102
RTVSPropertyOp49
 70
     1
102
RTVSPropertyOp50
 70
     0
102
RTVSPropertyOp51
 70
     0
102
RTVSPropertyOp52
 70
     0
102
RTVSPropertyOp53
 70
     0
102
RTVSPropertyOp54
 70
     0
102
RTVSPropertyOp55
 70
     1
102
RTVSPropertyOp56
 70
     0
102
RTVSPropertyOp57
 70
     0
102
RTVSPropertyOp58
 70
     0
102
RTVSPropertyOp59
 70
     0
102
RTVSPropertyOp60
 70
     0
102
RTVSPropertyOp61
 70
     0
102
RTVSPropertyOp62
 70
     0
  0
XRECORD
  5
867A
102
{ACAD_REACTORS
330
8679
102
}
330
8679
100
AcDbXrecord
280
     1
102
RTVSPost2010Prop28
280
     0
102
RTVSPost2010PropOp28
 70
     1
102
RTVSPost2010Prop29
280
     1
102
RTVSPost2010PropOp29
 70
     1
102
RTVSPost2010Prop30
280
     1
102
RTVSPost2010PropOp30
 70
     1
102
RTVSPost2010Prop31
280
     0
102
RTVSPost2010PropOp31
 70
     1
102
RTVSPost2010Prop32
280
     0
102
RTVSPost2010PropOp32
 70
     1
102
RTVSPost2010Prop33
280
     0
102
RTVSPost2010PropOp33
 70
     1
102
RTVSPost2010Prop34
280
     0
102
RTVSPost2010PropOp34
 70
     1
102
RTVSPost2010Prop35
280
     0
102
RTVSPost2010PropOp35
 70
     1
102
RTVSPost2010Prop36
280
     0
102
RTVSPost2010PropOp36
 70
     1
102
RTVSPost2010Prop37
 90
       50
102
RTVSPost2010PropOp37
 70
     1
102
RTVSPost2010Prop38
140
0.0
102
RTVSPost2010PropOp38
 70
     1
102
RTVSPost2010Prop39
140
1.0
102
RTVSPost2010PropOp39
 70
     1
102
RTVSPost2010Prop40
 90
        0
102
RTVSPost2010PropOp40
 70
     1
102
RTVSPost2010Prop41ColorIndex
 90
       18
102
RTVSPost2010Prop41ColorRGB
 90
        0
102
RTVSPost2010PropOp41
 70
     1
102
RTVSPost2010Prop42
 90
       50
102
RTVSPost2010PropOp42
 70
     1
102
RTVSPost2010Prop43
 90
        3
102
RTVSPost2010PropOp43
 70
     1
102
RTVSPost2010Prop44ColorIndex
 90
        5
102
RTVSPost2010Prop44ColorRGB
 90
      255
102
RTVSPost2010PropOp44
 70
     1
102
RTVSPost2010Prop45
280
     0
102
RTVSPost2010PropOp45
 70
     1
102
RTVSPost2010Prop46
 90
       50
102
RTVSPost2010PropOp46
 70
     1
102
RTVSPost2010Prop47
 90
       50
102
RTVSPost2010PropOp47
 70
     1
102
RTVSPost2010Prop48
 90
       50
102
RTVSPost2010PropOp48
 70
     1
102
RTVSPost2010Prop49
280
     0
102
RTVSPost2010PropOp49
 70
     1
102
RTVSPost2010Prop50
 90
       50
102
RTVSPost2010PropOp50
 70
     1
102
RTVSPost2010Prop51ColorIndex
 90
      256
102
RTVSPost2010Prop51ColorRGB
 90
-16777216
102
RTVSPost2010PropOp51
 70
     0
102
RTVSPost2010Prop52
140
1.0
102
RTVSPost2010PropOp52
 70
     0
102
RTVSPost2010Prop53
 90
        2
102
RTVSPost2010PropOp53
 70
     1
102
RTVSPost2010Prop54
  1
strokes_ogs.tif
102
RTVSPost2010PropOp54
 70
     1
102
RTVSPost2010Prop55
280
     0
102
RTVSPost2010PropOp55
 70
     1
102
RTVSPost2010Prop56
140
1.0
102
RTVSPost2010PropOp56
 70
     1
102
RTVSPost2010Prop57
140
1.0
102
RTVSPost2010PropOp57
 70
     1
102
RTVSPropertyOp0
 70
     1
102
RTVSPropertyOp1
 70
     1
102
RTVSPropertyOp2
 70
     1
102
RTVSPropertyOp3
 70
     1
102
RTVSPropertyOp4
 70
     1
102
RTVSPropertyOp5
 70
     1
102
RTVSPropertyOp6
 70
     1
102
RTVSPropertyOp7
 70
     1
102
RTVSPropertyOp8
 70
     1
102
RTVSPropertyOp9
 70
     1
102
RTVSPropertyOp10
 70
     1
102
RTVSPropertyOp11
 70
     1
102
RTVSPropertyOp12
 70
     1
102
RTVSPropertyOp13
 70
     1
102
RTVSPropertyOp14
 70
     1
102
RTVSPropertyOp15
 70
     1
102
RTVSPropertyOp16
 70
     1
102
RTVSPropertyOp17
 70
     1
102
RTVSPropertyOp18
 70
     1
102
RTVSPropertyOp19
 70
     1
102
RTVSPropertyOp20
 70
     1
102
RTVSPropertyOp21
 70
     1
102
RTVSPropertyOp22
 70
     1
102
RTVSPropertyOp23
 70
     1
102
RTVSPropertyOp24
 70
     1
102
RTVSPropertyOp25
 70
     1
102
RTVSPropertyOp26
 70
     1
102
RTVSPropertyOp27
 70
     1
102
RTVSPropertyOp28
 70
     1
102
RTVSPropertyOp29
 70
     1
102
RTVSPropertyOp30
 70
     1
102
RTVSPropertyOp31
 70
     1
102
RTVSPropertyOp32
 70
     1
102
RTVSPropertyOp33
 70
     1
102
RTVSPropertyOp34
 70
     1
102
RTVSPropertyOp35
 70
     1
102
RTVSPropertyOp36
 70
     1
102
RTVSPropertyOp37
 70
     1
102
RTVSPropertyOp38
 70
     1
102
RTVSPropertyOp39
 70
     1
102
RTVSPropertyOp40
 70
     1
102
RTVSPropertyOp41
 70
     1
102
RTVSPropertyOp42
 70
     1
102
RTVSPropertyOp43
 70
     1
102
RTVSPropertyOp44
 70
     1
102
RTVSPropertyOp45
 70
     1
102
RTVSPropertyOp46
 70
     1
102
RTVSPropertyOp47
 70
     1
102
RTVSPropertyOp48
 70
     1
102
RTVSPropertyOp49
 70
     1
102
RTVSPropertyOp50
 70
     1
102
RTVSPropertyOp51
 70
     0
102
RTVSPropertyOp52
 70
     0
102
RTVSPropertyOp53
 70
     1
102
RTVSPropertyOp54
 70
     1
102
RTVSPropertyOp55
 70
     1
102
RTVSPropertyOp56
 70
     1
102
RTVSPropertyOp57
 70
     1
102
RTVSPropertyOp58
 70
     1
102
RTVSPropertyOp59
 70
     1
102
RTVSPropertyOp60
 70
     1
102
RTVSPropertyOp61
 70
     1
102
RTVSPropertyOp62
 70
     1
  0
XRECORD
  5
868C
102
{ACAD_REACTORS
330
868B
102
}
330
868B
100
AcDbXrecord
280
     1
102
RTVSPost2010Prop28
280
     0
102
RTVSPost2010PropOp28
 70
     1
102
RTVSPost2010Prop29
280
     1
102
RTVSPost2010PropOp29
 70
     1
102
RTVSPost2010Prop30
280
     1
102
RTVSPost2010PropOp30
 70
     1
102
RTVSPost2010Prop31
280
     0
102
RTVSPost2010PropOp31
 70
     1
102
RTVSPost2010Prop32
280
     0
102
RTVSPost2010PropOp32
 70
     1
102
RTVSPost2010Prop33
280
     0
102
RTVSPost2010PropOp33
 70
     1
102
RTVSPost2010Prop34
280
     0
102
RTVSPost2010PropOp34
 70
     1
102
RTVSPost2010Prop35
280
     0
102
RTVSPost2010PropOp35
 70
     1
102
RTVSPost2010Prop36
280
     0
102
RTVSPost2010PropOp36
 70
     1
102
RTVSPost2010Prop37
 90
       50
102
RTVSPost2010PropOp37
 70
     0
102
RTVSPost2010Prop38
140
0.0
102
RTVSPost2010PropOp38
 70
     0
102
RTVSPost2010Prop39
140
1.0
102
RTVSPost2010PropOp39
 70
     0
102
RTVSPost2010Prop40
 90
        0
102
RTVSPost2010PropOp40
 70
     0
102
RTVSPost2010Prop41ColorIndex
 90
       18
102
RTVSPost2010Prop41ColorRGB
 90
        0
102
RTVSPost2010PropOp41
 70
     0
102
RTVSPost2010Prop42
 90
       50
102
RTVSPost2010PropOp42
 70
     0
102
RTVSPost2010Prop43
 90
        3
102
RTVSPost2010PropOp43
 70
     0
102
RTVSPost2010Prop44ColorIndex
 90
        5
102
RTVSPost2010Prop44ColorRGB
 90
      255
102
RTVSPost2010PropOp44
 70
     0
102
RTVSPost2010Prop45
280
     0
102
RTVSPost2010PropOp45
 70
     1
102
RTVSPost2010Prop46
 90
       50
102
RTVSPost2010PropOp46
 70
     0
102
RTVSPost2010Prop47
 90
       50
102
RTVSPost2010PropOp47
 70
     0
102
RTVSPost2010Prop48
 90
       50
102
RTVSPost2010PropOp48
 70
     0
102
RTVSPost2010Prop49
280
     0
102
RTVSPost2010PropOp49
 70
     1
102
RTVSPost2010Prop50
 90
       50
102
RTVSPost2010PropOp50
 70
     0
102
RTVSPost2010Prop51ColorIndex
 90
      256
102
RTVSPost2010Prop51ColorRGB
 90
-16777216
102
RTVSPost2010PropOp51
 70
     0
102
RTVSPost2010Prop52
140
1.0
102
RTVSPost2010PropOp52
 70
     0
102
RTVSPost2010Prop53
 90
        2
102
RTVSPost2010PropOp53
 70
     0
102
RTVSPost2010Prop54
  1
strokes_ogs.tif
102
RTVSPost2010PropOp54
 70
     0
102
RTVSPost2010Prop55
280
     0
102
RTVSPost2010PropOp55
 70
     1
102
RTVSPost2010Prop56
140
1.0
102
RTVSPost2010PropOp56
 70
     0
102
RTVSPost2010Prop57
140
1.0
102
RTVSPost2010PropOp57
 70
     0
102
RTVSPropertyOp0
 70
     0
102
RTVSPropertyOp1
 70
     0
102
RTVSPropertyOp2
 70
     0
102
RTVSPropertyOp3
 70
     0
102
RTVSPropertyOp4
 70
     0
102
RTVSPropertyOp5
 70
     0
102
RTVSPropertyOp6
 70
     0
102
RTVSPropertyOp7
 70
     0
102
RTVSPropertyOp8
 70
     0
102
RTVSPropertyOp9
 70
     0
102
RTVSPropertyOp10
 70
     0
102
RTVSPropertyOp11
 70
     0
102
RTVSPropertyOp12
 70
     0
102
RTVSPropertyOp13
 70
     0
102
RTVSPropertyOp14
 70
     2
102
RTVSPropertyOp15
 70
     0
102
RTVSPropertyOp16
 70
     0
102
RTVSPropertyOp17
 70
     0
102
RTVSPropertyOp18
 70
     0
102
RTVSPropertyOp19
 70
     0
102
RTVSPropertyOp20
 70
     0
102
RTVSPropertyOp21
 70
     0
102
RTVSPropertyOp22
 70
     0
102
RTVSPropertyOp23
 70
     0
102
RTVSPropertyOp24
 70
     0
102
RTVSPropertyOp25
 70
     0
102
RTVSPropertyOp26
 70
     0
102
RTVSPropertyOp27
 70
     0
102
RTVSPropertyOp28
 70
     1
102
RTVSPropertyOp29
 70
     1
102
RTVSPropertyOp30
 70
     1
102
RTVSPropertyOp31
 70
     1
102
RTVSPropertyOp32
 70
     1
102
RTVSPropertyOp33
 70
     1
102
RTVSPropertyOp34
 70
     1
102
RTVSPropertyOp35
 70
     1
102
RTVSPropertyOp36
 70
     1
102
RTVSPropertyOp37
 70
     0
102
RTVSPropertyOp38
 70
     0
102
RTVSPropertyOp39
 70
     0
102
RTVSPropertyOp40
 70
     0
102
RTVSPropertyOp41
 70
     0
102
RTVSPropertyOp42
 70
     0
102
RTVSPropertyOp43
 70
     0
102
RTVSPropertyOp44
 70
     0
102
RTVSPropertyOp45
 70
     1
102
RTVSPropertyOp46
 70
     0
102
RTVSPropertyOp47
 70
     0
102
RTVSPropertyOp48
 70
     0
102
RTVSPropertyOp49
 70
     1
102
RTVSPropertyOp50
 70
     0
102
RTVSPropertyOp51
 70
     0
102
RTVSPropertyOp52
 70
     0
102
RTVSPropertyOp53
 70
     0
102
RTVSPropertyOp54
 70
     0
102
RTVSPropertyOp55
 70
     1
102
RTVSPropertyOp56
 70
     0
102
RTVSPropertyOp57
 70
     0
102
RTVSPropertyOp58
 70
     0
102
RTVSPropertyOp59
 70
     0
102
RTVSPropertyOp60
 70
     0
102
RTVSPropertyOp61
 70
     0
102
RTVSPropertyOp62
 70
     0
  0
XRECORD
  5
8672
102
{ACAD_REACTORS
330
8671
102
}
330
8671
100
AcDbXrecord
280
     1
102
RTVSPost2010Prop28
280
     0
102
RTVSPost2010PropOp28
 70
     1
102
RTVSPost2010Prop29
280
     1
102
RTVSPost2010PropOp29
 70
     1
102
RTVSPost2010Prop30
280
     1
102
RTVSPost2010PropOp30
 70
     1
102
RTVSPost2010Prop31
280
     0
102
RTVSPost2010PropOp31
 70
     1
102
RTVSPost2010Prop32
280
     0
102
RTVSPost2010PropOp32
 70
     1
102
RTVSPost2010Prop33
280
     0
102
RTVSPost2010PropOp33
 70
     1
102
RTVSPost2010Prop34
280
     0
102
RTVSPost2010PropOp34
 70
     1
102
RTVSPost2010Prop35
280
     0
102
RTVSPost2010PropOp35
 70
     1
102
RTVSPost2010Prop36
280
     0
102
RTVSPost2010PropOp36
 70
     1
102
RTVSPost2010Prop37
 90
       50
102
RTVSPost2010PropOp37
 70
     1
102
RTVSPost2010Prop38
140
0.0
102
RTVSPost2010PropOp38
 70
     1
102
RTVSPost2010Prop39
140
1.0
102
RTVSPost2010PropOp39
 70
     1
102
RTVSPost2010Prop40
 90
        0
102
RTVSPost2010PropOp40
 70
     1
102
RTVSPost2010Prop41ColorIndex
 90
       18
102
RTVSPost2010Prop41ColorRGB
 90
        0
102
RTVSPost2010PropOp41
 70
     1
102
RTVSPost2010Prop42
 90
       50
102
RTVSPost2010PropOp42
 70
     1
102
RTVSPost2010Prop43
 90
        3
102
RTVSPost2010PropOp43
 70
     1
102
RTVSPost2010Prop44ColorIndex
 90
        5
102
RTVSPost2010Prop44ColorRGB
 90
      255
102
RTVSPost2010PropOp44
 70
     1
102
RTVSPost2010Prop45
280
     0
102
RTVSPost2010PropOp45
 70
     1
102
RTVSPost2010Prop46
 90
       50
102
RTVSPost2010PropOp46
 70
     1
102
RTVSPost2010Prop47
 90
       50
102
RTVSPost2010PropOp47
 70
     1
102
RTVSPost2010Prop48
 90
       50
102
RTVSPost2010PropOp48
 70
     1
102
RTVSPost2010Prop49
280
     0
102
RTVSPost2010PropOp49
 70
     1
102
RTVSPost2010Prop50
 90
       50
102
RTVSPost2010PropOp50
 70
     1
102
RTVSPost2010Prop51ColorIndex
 90
      256
102
RTVSPost2010Prop51ColorRGB
 90
-16777216
102
RTVSPost2010PropOp51
 70
     0
102
RTVSPost2010Prop52
140
1.0
102
RTVSPost2010PropOp52
 70
     0
102
RTVSPost2010Prop53
 90
        2
102
RTVSPost2010PropOp53
 70
     1
102
RTVSPost2010Prop54
  1
strokes_ogs.tif
102
RTVSPost2010PropOp54
 70
     1
102
RTVSPost2010Prop55
280
     0
102
RTVSPost2010PropOp55
 70
     1
102
RTVSPost2010Prop56
140
1.0
102
RTVSPost2010PropOp56
 70
     1
102
RTVSPost2010Prop57
140
1.0
102
RTVSPost2010PropOp57
 70
     1
102
RTVSPropertyOp0
 70
     1
102
RTVSPropertyOp1
 70
     1
102
RTVSPropertyOp2
 70
     1
102
RTVSPropertyOp3
 70
     1
102
RTVSPropertyOp4
 70
     1
102
RTVSPropertyOp5
 70
     1
102
RTVSPropertyOp6
 70
     1
102
RTVSPropertyOp7
 70
     1
102
RTVSPropertyOp8
 70
     1
102
RTVSPropertyOp9
 70
     1
102
RTVSPropertyOp10
 70
     1
102
RTVSPropertyOp11
 70
     1
102
RTVSPropertyOp12
 70
     1
102
RTVSPropertyOp13
 70
     1
102
RTVSPropertyOp14
 70
     1
102
RTVSPropertyOp15
 70
     1
102
RTVSPropertyOp16
 70
     1
102
RTVSPropertyOp17
 70
     1
102
RTVSPropertyOp18
 70
     1
102
RTVSPropertyOp19
 70
     1
102
RTVSPropertyOp20
 70
     1
102
RTVSPropertyOp21
 70
     1
102
RTVSPropertyOp22
 70
     1
102
RTVSPropertyOp23
 70
     1
102
RTVSPropertyOp24
 70
     1
102
RTVSPropertyOp25
 70
     1
102
RTVSPropertyOp26
 70
     1
102
RTVSPropertyOp27
 70
     1
102
RTVSPropertyOp28
 70
     1
102
RTVSPropertyOp29
 70
     1
102
RTVSPropertyOp30
 70
     1
102
RTVSPropertyOp31
 70
     1
102
RTVSPropertyOp32
 70
     1
102
RTVSPropertyOp33
 70
     1
102
RTVSPropertyOp34
 70
     1
102
RTVSPropertyOp35
 70
     1
102
RTVSPropertyOp36
 70
     1
102
RTVSPropertyOp37
 70
     1
102
RTVSPropertyOp38
 70
     1
102
RTVSPropertyOp39
 70
     1
102
RTVSPropertyOp40
 70
     1
102
RTVSPropertyOp41
 70
     1
102
RTVSPropertyOp42
 70
     1
102
RTVSPropertyOp43
 70
     1
102
RTVSPropertyOp44
 70
     1
102
RTVSPropertyOp45
 70
     1
102
RTVSPropertyOp46
 70
     1
102
RTVSPropertyOp47
 70
     1
102
RTVSPropertyOp48
 70
     1
102
RTVSPropertyOp49
 70
     1
102
RTVSPropertyOp50
 70
     1
102
RTVSPropertyOp51
 70
     0
102
RTVSPropertyOp52
 70
     0
102
RTVSPropertyOp53
 70
     1
102
RTVSPropertyOp54
 70
     1
102
RTVSPropertyOp55
 70
     1
102
RTVSPropertyOp56
 70
     1
102
RTVSPropertyOp57
 70
     1
102
RTVSPropertyOp58
 70
     1
102
RTVSPropertyOp59
 70
     1
102
RTVSPropertyOp60
 70
     1
102
RTVSPropertyOp61
 70
     1
102
RTVSPropertyOp62
 70
     1
  0
XRECORD
  5
8688
102
{ACAD_REACTORS
330
8687
102
}
330
8687
100
AcDbXrecord
280
     1
102
RTVSPost2010Prop28
280
     0
102
RTVSPost2010PropOp28
 70
     1
102
RTVSPost2010Prop29
280
     1
102
RTVSPost2010PropOp29
 70
     1
102
RTVSPost2010Prop30
280
     1
102
RTVSPost2010PropOp30
 70
     1
102
RTVSPost2010Prop31
280
     0
102
RTVSPost2010PropOp31
 70
     1
102
RTVSPost2010Prop32
280
     0
102
RTVSPost2010PropOp32
 70
     1
102
RTVSPost2010Prop33
280
     0
102
RTVSPost2010PropOp33
 70
     1
102
RTVSPost2010Prop34
280
     0
102
RTVSPost2010PropOp34
 70
     1
102
RTVSPost2010Prop35
280
     0
102
RTVSPost2010PropOp35
 70
     1
102
RTVSPost2010Prop36
280
     0
102
RTVSPost2010PropOp36
 70
     1
102
RTVSPost2010Prop37
 90
       50
102
RTVSPost2010PropOp37
 70
     1
102
RTVSPost2010Prop38
140
0.0
102
RTVSPost2010PropOp38
 70
     1
102
RTVSPost2010Prop39
140
1.0
102
RTVSPost2010PropOp39
 70
     1
102
RTVSPost2010Prop40
 90
        0
102
RTVSPost2010PropOp40
 70
     1
102
RTVSPost2010Prop41ColorIndex
 90
       18
102
RTVSPost2010Prop41ColorRGB
 90
        0
102
RTVSPost2010PropOp41
 70
     1
102
RTVSPost2010Prop42
 90
       50
102
RTVSPost2010PropOp42
 70
     1
102
RTVSPost2010Prop43
 90
        3
102
RTVSPost2010PropOp43
 70
     1
102
RTVSPost2010Prop44ColorIndex
 90
        5
102
RTVSPost2010Prop44ColorRGB
 90
      255
102
RTVSPost2010PropOp44
 70
     1
102
RTVSPost2010Prop45
280
     0
102
RTVSPost2010PropOp45
 70
     1
102
RTVSPost2010Prop46
 90
       50
102
RTVSPost2010PropOp46
 70
     1
102
RTVSPost2010Prop47
 90
       50
102
RTVSPost2010PropOp47
 70
     1
102
RTVSPost2010Prop48
 90
       50
102
RTVSPost2010PropOp48
 70
     1
102
RTVSPost2010Prop49
280
     0
102
RTVSPost2010PropOp49
 70
     1
102
RTVSPost2010Prop50
 90
       50
102
RTVSPost2010PropOp50
 70
     1
102
RTVSPost2010Prop51ColorIndex
 90
      256
102
RTVSPost2010Prop51ColorRGB
 90
-16777216
102
RTVSPost2010PropOp51
 70
     0
102
RTVSPost2010Prop52
140
1.0
102
RTVSPost2010PropOp52
 70
     0
102
RTVSPost2010Prop53
 90
        2
102
RTVSPost2010PropOp53
 70
     1
102
RTVSPost2010Prop54
  1
strokes_ogs.tif
102
RTVSPost2010PropOp54
 70
     1
102
RTVSPost2010Prop55
280
     0
102
RTVSPost2010PropOp55
 70
     1
102
RTVSPost2010Prop56
140
1.0
102
RTVSPost2010PropOp56
 70
     1
102
RTVSPost2010Prop57
140
1.0
102
RTVSPost2010PropOp57
 70
     1
102
RTVSPropertyOp0
 70
     1
102
RTVSPropertyOp1
 70
     1
102
RTVSPropertyOp2
 70
     1
102
RTVSPropertyOp3
 70
     1
102
RTVSPropertyOp4
 70
     1
102
RTVSPropertyOp5
 70
     1
102
RTVSPropertyOp6
 70
     1
102
RTVSPropertyOp7
 70
     1
102
RTVSPropertyOp8
 70
     1
102
RTVSPropertyOp9
 70
     1
102
RTVSPropertyOp10
 70
     1
102
RTVSPropertyOp11
 70
     1
102
RTVSPropertyOp12
 70
     1
102
RTVSPropertyOp13
 70
     1
102
RTVSPropertyOp14
 70
     1
102
RTVSPropertyOp15
 70
     1
102
RTVSPropertyOp16
 70
     1
102
RTVSPropertyOp17
 70
     1
102
RTVSPropertyOp18
 70
     1
102
RTVSPropertyOp19
 70
     1
102
RTVSPropertyOp20
 70
     1
102
RTVSPropertyOp21
 70
     1
102
RTVSPropertyOp22
 70
     1
102
RTVSPropertyOp23
 70
     1
102
RTVSPropertyOp24
 70
     1
102
RTVSPropertyOp25
 70
     1
102
RTVSPropertyOp26
 70
     1
102
RTVSPropertyOp27
 70
     1
102
RTVSPropertyOp28
 70
     1
102
RTVSPropertyOp29
 70
     1
102
RTVSPropertyOp30
 70
     1
102
RTVSPropertyOp31
 70
     1
102
RTVSPropertyOp32
 70
     1
102
RTVSPropertyOp33
 70
     1
102
RTVSPropertyOp34
 70
     1
102
RTVSPropertyOp35
 70
     1
102
RTVSPropertyOp36
 70
     1
102
RTVSPropertyOp37
 70
     1
102
RTVSPropertyOp38
 70
     1
102
RTVSPropertyOp39
 70
     1
102
RTVSPropertyOp40
 70
     1
102
RTVSPropertyOp41
 70
     1
102
RTVSPropertyOp42
 70
     1
102
RTVSPropertyOp43
 70
     1
102
RTVSPropertyOp44
 70
     1
102
RTVSPropertyOp45
 70
     1
102
RTVSPropertyOp46
 70
     1
102
RTVSPropertyOp47
 70
     1
102
RTVSPropertyOp48
 70
     1
102
RTVSPropertyOp49
 70
     1
102
RTVSPropertyOp50
 70
     1
102
RTVSPropertyOp51
 70
     0
102
RTVSPropertyOp52
 70
     0
102
RTVSPropertyOp53
 70
     1
102
RTVSPropertyOp54
 70
     1
102
RTVSPropertyOp55
 70
     1
102
RTVSPropertyOp56
 70
     1
102
RTVSPropertyOp57
 70
     1
102
RTVSPropertyOp58
 70
     1
102
RTVSPropertyOp59
 70
     1
102
RTVSPropertyOp60
 70
     1
102
RTVSPropertyOp61
 70
     1
102
RTVSPropertyOp62
 70
     1
  0
XRECORD
  5
8686
102
{ACAD_REACTORS
330
8685
102
}
330
8685
100
AcDbXrecord
280
     1
102
RTVSPost2010Prop28
280
     0
102
RTVSPost2010PropOp28
 70
     1
102
RTVSPost2010Prop29
280
     1
102
RTVSPost2010PropOp29
 70
     1
102
RTVSPost2010Prop30
280
     1
102
RTVSPost2010PropOp30
 70
     1
102
RTVSPost2010Prop31
280
     0
102
RTVSPost2010PropOp31
 70
     1
102
RTVSPost2010Prop32
280
     0
102
RTVSPost2010PropOp32
 70
     1
102
RTVSPost2010Prop33
280
     0
102
RTVSPost2010PropOp33
 70
     1
102
RTVSPost2010Prop34
280
     0
102
RTVSPost2010PropOp34
 70
     1
102
RTVSPost2010Prop35
280
     0
102
RTVSPost2010PropOp35
 70
     1
102
RTVSPost2010Prop36
280
     0
102
RTVSPost2010PropOp36
 70
     1
102
RTVSPost2010Prop37
 90
       50
102
RTVSPost2010PropOp37
 70
     1
102
RTVSPost2010Prop38
140
0.0
102
RTVSPost2010PropOp38
 70
     1
102
RTVSPost2010Prop39
140
1.0
102
RTVSPost2010PropOp39
 70
     1
102
RTVSPost2010Prop40
 90
        0
102
RTVSPost2010PropOp40
 70
     1
102
RTVSPost2010Prop41ColorIndex
 90
       18
102
RTVSPost2010Prop41ColorRGB
 90
        0
102
RTVSPost2010PropOp41
 70
     1
102
RTVSPost2010Prop42
 90
       50
102
RTVSPost2010PropOp42
 70
     1
102
RTVSPost2010Prop43
 90
        3
102
RTVSPost2010PropOp43
 70
     1
102
RTVSPost2010Prop44ColorIndex
 90
        5
102
RTVSPost2010Prop44ColorRGB
 90
      255
102
RTVSPost2010PropOp44
 70
     1
102
RTVSPost2010Prop45
280
     0
102
RTVSPost2010PropOp45
 70
     1
102
RTVSPost2010Prop46
 90
       50
102
RTVSPost2010PropOp46
 70
     1
102
RTVSPost2010Prop47
 90
       50
102
RTVSPost2010PropOp47
 70
     1
102
RTVSPost2010Prop48
 90
       50
102
RTVSPost2010PropOp48
 70
     1
102
RTVSPost2010Prop49
280
     0
102
RTVSPost2010PropOp49
 70
     1
102
RTVSPost2010Prop50
 90
       50
102
RTVSPost2010PropOp50
 70
     1
102
RTVSPost2010Prop51ColorIndex
 90
      256
102
RTVSPost2010Prop51ColorRGB
 90
-16777216
102
RTVSPost2010PropOp51
 70
     0
102
RTVSPost2010Prop52
140
1.0
102
RTVSPost2010PropOp52
 70
     0
102
RTVSPost2010Prop53
 90
        2
102
RTVSPost2010PropOp53
 70
     1
102
RTVSPost2010Prop54
  1
strokes_ogs.tif
102
RTVSPost2010PropOp54
 70
     1
102
RTVSPost2010Prop55
280
     0
102
RTVSPost2010PropOp55
 70
     1
102
RTVSPost2010Prop56
140
1.0
102
RTVSPost2010PropOp56
 70
     1
102
RTVSPost2010Prop57
140
1.0
102
RTVSPost2010PropOp57
 70
     1
102
RTVSPropertyOp0
 70
     1
102
RTVSPropertyOp1
 70
     1
102
RTVSPropertyOp2
 70
     1
102
RTVSPropertyOp3
 70
     1
102
RTVSPropertyOp4
 70
     1
102
RTVSPropertyOp5
 70
     1
102
RTVSPropertyOp6
 70
     1
102
RTVSPropertyOp7
 70
     1
102
RTVSPropertyOp8
 70
     1
102
RTVSPropertyOp9
 70
     1
102
RTVSPropertyOp10
 70
     1
102
RTVSPropertyOp11
 70
     1
102
RTVSPropertyOp12
 70
     1
102
RTVSPropertyOp13
 70
     1
102
RTVSPropertyOp14
 70
     1
102
RTVSPropertyOp15
 70
     1
102
RTVSPropertyOp16
 70
     1
102
RTVSPropertyOp17
 70
     1
102
RTVSPropertyOp18
 70
     1
102
RTVSPropertyOp19
 70
     1
102
RTVSPropertyOp20
 70
     1
102
RTVSPropertyOp21
 70
     1
102
RTVSPropertyOp22
 70
     1
102
RTVSPropertyOp23
 70
     1
102
RTVSPropertyOp24
 70
     1
102
RTVSPropertyOp25
 70
     1
102
RTVSPropertyOp26
 70
     1
102
RTVSPropertyOp27
 70
     1
102
RTVSPropertyOp28
 70
     1
102
RTVSPropertyOp29
 70
     1
102
RTVSPropertyOp30
 70
     1
102
RTVSPropertyOp31
 70
     1
102
RTVSPropertyOp32
 70
     1
102
RTVSPropertyOp33
 70
     1
102
RTVSPropertyOp34
 70
     1
102
RTVSPropertyOp35
 70
     1
102
RTVSPropertyOp36
 70
     1
102
RTVSPropertyOp37
 70
     1
102
RTVSPropertyOp38
 70
     1
102
RTVSPropertyOp39
 70
     1
102
RTVSPropertyOp40
 70
     1
102
RTVSPropertyOp41
 70
     1
102
RTVSPropertyOp42
 70
     1
102
RTVSPropertyOp43
 70
     1
102
RTVSPropertyOp44
 70
     1
102
RTVSPropertyOp45
 70
     1
102
RTVSPropertyOp46
 70
     1
102
RTVSPropertyOp47
 70
     1
102
RTVSPropertyOp48
 70
     1
102
RTVSPropertyOp49
 70
     1
102
RTVSPropertyOp50
 70
     1
102
RTVSPropertyOp51
 70
     0
102
RTVSPropertyOp52
 70
     0
102
RTVSPropertyOp53
 70
     1
102
RTVSPropertyOp54
 70
     1
102
RTVSPropertyOp55
 70
     1
102
RTVSPropertyOp56
 70
     1
102
RTVSPropertyOp57
 70
     1
102
RTVSPropertyOp58
 70
     1
102
RTVSPropertyOp59
 70
     1
102
RTVSPropertyOp60
 70
     1
102
RTVSPropertyOp61
 70
     1
102
RTVSPropertyOp62
 70
     1
  0
XRECORD
  5
8680
102
{ACAD_REACTORS
330
867F
102
}
330
867F
100
AcDbXrecord
280
     1
102
RTVSPost2010Prop28
280
     0
102
RTVSPost2010PropOp28
 70
     1
102
RTVSPost2010Prop29
280
     1
102
RTVSPost2010PropOp29
 70
     1
102
RTVSPost2010Prop30
280
     1
102
RTVSPost2010PropOp30
 70
     1
102
RTVSPost2010Prop31
280
     0
102
RTVSPost2010PropOp31
 70
     1
102
RTVSPost2010Prop32
280
     0
102
RTVSPost2010PropOp32
 70
     1
102
RTVSPost2010Prop33
280
     0
102
RTVSPost2010PropOp33
 70
     1
102
RTVSPost2010Prop34
280
     0
102
RTVSPost2010PropOp34
 70
     1
102
RTVSPost2010Prop35
280
     0
102
RTVSPost2010PropOp35
 70
     1
102
RTVSPost2010Prop36
280
     0
102
RTVSPost2010PropOp36
 70
     1
102
RTVSPost2010Prop37
 90
       50
102
RTVSPost2010PropOp37
 70
     1
102
RTVSPost2010Prop38
140
0.0
102
RTVSPost2010PropOp38
 70
     1
102
RTVSPost2010Prop39
140
1.0
102
RTVSPost2010PropOp39
 70
     1
102
RTVSPost2010Prop40
 90
        0
102
RTVSPost2010PropOp40
 70
     1
102
RTVSPost2010Prop41ColorIndex
 90
       18
102
RTVSPost2010Prop41ColorRGB
 90
        0
102
RTVSPost2010PropOp41
 70
     1
102
RTVSPost2010Prop42
 90
       50
102
RTVSPost2010PropOp42
 70
     1
102
RTVSPost2010Prop43
 90
        3
102
RTVSPost2010PropOp43
 70
     1
102
RTVSPost2010Prop44ColorIndex
 90
        5
102
RTVSPost2010Prop44ColorRGB
 90
      255
102
RTVSPost2010PropOp44
 70
     1
102
RTVSPost2010Prop45
280
     0
102
RTVSPost2010PropOp45
 70
     1
102
RTVSPost2010Prop46
 90
       50
102
RTVSPost2010PropOp46
 70
     1
102
RTVSPost2010Prop47
 90
       50
102
RTVSPost2010PropOp47
 70
     1
102
RTVSPost2010Prop48
 90
       50
102
RTVSPost2010PropOp48
 70
     1
102
RTVSPost2010Prop49
280
     0
102
RTVSPost2010PropOp49
 70
     1
102
RTVSPost2010Prop50
 90
       50
102
RTVSPost2010PropOp50
 70
     1
102
RTVSPost2010Prop51ColorIndex
 90
      256
102
RTVSPost2010Prop51ColorRGB
 90
-16777216
102
RTVSPost2010PropOp51
 70
     0
102
RTVSPost2010Prop52
140
1.0
102
RTVSPost2010PropOp52
 70
     0
102
RTVSPost2010Prop53
 90
        2
102
RTVSPost2010PropOp53
 70
     1
102
RTVSPost2010Prop54
  1
strokes_ogs.tif
102
RTVSPost2010PropOp54
 70
     1
102
RTVSPost2010Prop55
280
     0
102
RTVSPost2010PropOp55
 70
     1
102
RTVSPost2010Prop56
140
1.0
102
RTVSPost2010PropOp56
 70
     1
102
RTVSPost2010Prop57
140
1.0
102
RTVSPost2010PropOp57
 70
     1
102
RTVSPropertyOp0
 70
     1
102
RTVSPropertyOp1
 70
     1
102
RTVSPropertyOp2
 70
     1
102
RTVSPropertyOp3
 70
     1
102
RTVSPropertyOp4
 70
     1
102
RTVSPropertyOp5
 70
     1
102
RTVSPropertyOp6
 70
     1
102
RTVSPropertyOp7
 70
     1
102
RTVSPropertyOp8
 70
     1
102
RTVSPropertyOp9
 70
     1
102
RTVSPropertyOp10
 70
     1
102
RTVSPropertyOp11
 70
     1
102
RTVSPropertyOp12
 70
     1
102
RTVSPropertyOp13
 70
     1
102
RTVSPropertyOp14
 70
     1
102
RTVSPropertyOp15
 70
     1
102
RTVSPropertyOp16
 70
     1
102
RTVSPropertyOp17
 70
     1
102
RTVSPropertyOp18
 70
     1
102
RTVSPropertyOp19
 70
     1
102
RTVSPropertyOp20
 70
     1
102
RTVSPropertyOp21
 70
     1
102
RTVSPropertyOp22
 70
     1
102
RTVSPropertyOp23
 70
     1
102
RTVSPropertyOp24
 70
     1
102
RTVSPropertyOp25
 70
     1
102
RTVSPropertyOp26
 70
     1
102
RTVSPropertyOp27
 70
     1
102
RTVSPropertyOp28
 70
     1
102
RTVSPropertyOp29
 70
     1
102
RTVSPropertyOp30
 70
     1
102
RTVSPropertyOp31
 70
     1
102
RTVSPropertyOp32
 70
     1
102
RTVSPropertyOp33
 70
     1
102
RTVSPropertyOp34
 70
     1
102
RTVSPropertyOp35
 70
     1
102
RTVSPropertyOp36
 70
     1
102
RTVSPropertyOp37
 70
     1
102
RTVSPropertyOp38
 70
     1
102
RTVSPropertyOp39
 70
     1
102
RTVSPropertyOp40
 70
     1
102
RTVSPropertyOp41
 70
     1
102
RTVSPropertyOp42
 70
     1
102
RTVSPropertyOp43
 70
     1
102
RTVSPropertyOp44
 70
     1
102
RTVSPropertyOp45
 70
     1
102
RTVSPropertyOp46
 70
     1
102
RTVSPropertyOp47
 70
     1
102
RTVSPropertyOp48
 70
     1
102
RTVSPropertyOp49
 70
     1
102
RTVSPropertyOp50
 70
     1
102
RTVSPropertyOp51
 70
     0
102
RTVSPropertyOp52
 70
     0
102
RTVSPropertyOp53
 70
     1
102
RTVSPropertyOp54
 70
     1
102
RTVSPropertyOp55
 70
     1
102
RTVSPropertyOp56
 70
     1
102
RTVSPropertyOp57
 70
     1
102
RTVSPropertyOp58
 70
     1
102
RTVSPropertyOp59
 70
     1
102
RTVSPropertyOp60
 70
     1
102
RTVSPropertyOp61
 70
     1
102
RTVSPropertyOp62
 70
     1
  0
XRECORD
  5
8682
102
{ACAD_REACTORS
330
8681
102
}
330
8681
100
AcDbXrecord
280
     1
102
RTVSPost2010Prop28
280
     0
102
RTVSPost2010PropOp28
 70
     1
102
RTVSPost2010Prop29
280
     1
102
RTVSPost2010PropOp29
 70
     1
102
RTVSPost2010Prop30
280
     1
102
RTVSPost2010PropOp30
 70
     1
102
RTVSPost2010Prop31
280
     0
102
RTVSPost2010PropOp31
 70
     1
102
RTVSPost2010Prop32
280
     0
102
RTVSPost2010PropOp32
 70
     1
102
RTVSPost2010Prop33
280
     0
102
RTVSPost2010PropOp33
 70
     1
102
RTVSPost2010Prop34
280
     0
102
RTVSPost2010PropOp34
 70
     1
102
RTVSPost2010Prop35
280
     0
102
RTVSPost2010PropOp35
 70
     1
102
RTVSPost2010Prop36
280
     0
102
RTVSPost2010PropOp36
 70
     1
102
RTVSPost2010Prop37
 90
       50
102
RTVSPost2010PropOp37
 70
     1
102
RTVSPost2010Prop38
140
0.0
102
RTVSPost2010PropOp38
 70
     1
102
RTVSPost2010Prop39
140
1.0
102
RTVSPost2010PropOp39
 70
     1
102
RTVSPost2010Prop40
 90
        0
102
RTVSPost2010PropOp40
 70
     1
102
RTVSPost2010Prop41ColorIndex
 90
       18
102
RTVSPost2010Prop41ColorRGB
 90
        0
102
RTVSPost2010PropOp41
 70
     1
102
RTVSPost2010Prop42
 90
       50
102
RTVSPost2010PropOp42
 70
     1
102
RTVSPost2010Prop43
 90
        3
102
RTVSPost2010PropOp43
 70
     1
102
RTVSPost2010Prop44ColorIndex
 90
        5
102
RTVSPost2010Prop44ColorRGB
 90
      255
102
RTVSPost2010PropOp44
 70
     1
102
RTVSPost2010Prop45
280
     0
102
RTVSPost2010PropOp45
 70
     1
102
RTVSPost2010Prop46
 90
       50
102
RTVSPost2010PropOp46
 70
     1
102
RTVSPost2010Prop47
 90
       50
102
RTVSPost2010PropOp47
 70
     1
102
RTVSPost2010Prop48
 90
       50
102
RTVSPost2010PropOp48
 70
     1
102
RTVSPost2010Prop49
280
     0
102
RTVSPost2010PropOp49
 70
     1
102
RTVSPost2010Prop50
 90
       50
102
RTVSPost2010PropOp50
 70
     1
102
RTVSPost2010Prop51ColorIndex
 90
      256
102
RTVSPost2010Prop51ColorRGB
 90
-16777216
102
RTVSPost2010PropOp51
 70
     0
102
RTVSPost2010Prop52
140
1.0
102
RTVSPost2010PropOp52
 70
     0
102
RTVSPost2010Prop53
 90
        2
102
RTVSPost2010PropOp53
 70
     1
102
RTVSPost2010Prop54
  1
strokes_ogs.tif
102
RTVSPost2010PropOp54
 70
     1
102
RTVSPost2010Prop55
280
     0
102
RTVSPost2010PropOp55
 70
     1
102
RTVSPost2010Prop56
140
1.0
102
RTVSPost2010PropOp56
 70
     1
102
RTVSPost2010Prop57
140
1.0
102
RTVSPost2010PropOp57
 70
     1
102
RTVSPropertyOp0
 70
     1
102
RTVSPropertyOp1
 70
     1
102
RTVSPropertyOp2
 70
     1
102
RTVSPropertyOp3
 70
     1
102
RTVSPropertyOp4
 70
     1
102
RTVSPropertyOp5
 70
     1
102
RTVSPropertyOp6
 70
     1
102
RTVSPropertyOp7
 70
     1
102
RTVSPropertyOp8
 70
     1
102
RTVSPropertyOp9
 70
     1
102
RTVSPropertyOp10
 70
     1
102
RTVSPropertyOp11
 70
     1
102
RTVSPropertyOp12
 70
     1
102
RTVSPropertyOp13
 70
     1
102
RTVSPropertyOp14
 70
     1
102
RTVSPropertyOp15
 70
     1
102
RTVSPropertyOp16
 70
     1
102
RTVSPropertyOp17
 70
     1
102
RTVSPropertyOp18
 70
     1
102
RTVSPropertyOp19
 70
     1
102
RTVSPropertyOp20
 70
     1
102
RTVSPropertyOp21
 70
     1
102
RTVSPropertyOp22
 70
     1
102
RTVSPropertyOp23
 70
     1
102
RTVSPropertyOp24
 70
     1
102
RTVSPropertyOp25
 70
     1
102
RTVSPropertyOp26
 70
     1
102
RTVSPropertyOp27
 70
     1
102
RTVSPropertyOp28
 70
     1
102
RTVSPropertyOp29
 70
     1
102
RTVSPropertyOp30
 70
     1
102
RTVSPropertyOp31
 70
     1
102
RTVSPropertyOp32
 70
     1
102
RTVSPropertyOp33
 70
     1
102
RTVSPropertyOp34
 70
     1
102
RTVSPropertyOp35
 70
     1
102
RTVSPropertyOp36
 70
     1
102
RTVSPropertyOp37
 70
     1
102
RTVSPropertyOp38
 70
     1
102
RTVSPropertyOp39
 70
     1
102
RTVSPropertyOp40
 70
     1
102
RTVSPropertyOp41
 70
     1
102
RTVSPropertyOp42
 70
     1
102
RTVSPropertyOp43
 70
     1
102
RTVSPropertyOp44
 70
     1
102
RTVSPropertyOp45
 70
     1
102
RTVSPropertyOp46
 70
     1
102
RTVSPropertyOp47
 70
     1
102
RTVSPropertyOp48
 70
     1
102
RTVSPropertyOp49
 70
     1
102
RTVSPropertyOp50
 70
     1
102
RTVSPropertyOp51
 70
     0
102
RTVSPropertyOp52
 70
     0
102
RTVSPropertyOp53
 70
     1
102
RTVSPropertyOp54
 70
     1
102
RTVSPropertyOp55
 70
     1
102
RTVSPropertyOp56
 70
     1
102
RTVSPropertyOp57
 70
     1
102
RTVSPropertyOp58
 70
     1
102
RTVSPropertyOp59
 70
     1
102
RTVSPropertyOp60
 70
     1
102
RTVSPropertyOp61
 70
     1
102
RTVSPropertyOp62
 70
     1
  0
XRECORD
  5
8678
102
{ACAD_REACTORS
330
8677
102
}
330
8677
100
AcDbXrecord
280
     1
102
RTVSPost2010Prop28
280
     0
102
RTVSPost2010PropOp28
 70
     1
102
RTVSPost2010Prop29
280
     1
102
RTVSPost2010PropOp29
 70
     1
102
RTVSPost2010Prop30
280
     1
102
RTVSPost2010PropOp30
 70
     1
102
RTVSPost2010Prop31
280
     0
102
RTVSPost2010PropOp31
 70
     1
102
RTVSPost2010Prop32
280
     0
102
RTVSPost2010PropOp32
 70
     1
102
RTVSPost2010Prop33
280
     0
102
RTVSPost2010PropOp33
 70
     1
102
RTVSPost2010Prop34
280
     0
102
RTVSPost2010PropOp34
 70
     1
102
RTVSPost2010Prop35
280
     0
102
RTVSPost2010PropOp35
 70
     1
102
RTVSPost2010Prop36
280
     0
102
RTVSPost2010PropOp36
 70
     1
102
RTVSPost2010Prop37
 90
       50
102
RTVSPost2010PropOp37
 70
     1
102
RTVSPost2010Prop38
140
0.0
102
RTVSPost2010PropOp38
 70
     1
102
RTVSPost2010Prop39
140
1.0
102
RTVSPost2010PropOp39
 70
     1
102
RTVSPost2010Prop40
 90
        0
102
RTVSPost2010PropOp40
 70
     1
102
RTVSPost2010Prop41ColorIndex
 90
       18
102
RTVSPost2010Prop41ColorRGB
 90
        0
102
RTVSPost2010PropOp41
 70
     1
102
RTVSPost2010Prop42
 90
       50
102
RTVSPost2010PropOp42
 70
     1
102
RTVSPost2010Prop43
 90
        3
102
RTVSPost2010PropOp43
 70
     1
102
RTVSPost2010Prop44ColorIndex
 90
        5
102
RTVSPost2010Prop44ColorRGB
 90
      255
102
RTVSPost2010PropOp44
 70
     1
102
RTVSPost2010Prop45
280
     0
102
RTVSPost2010PropOp45
 70
     1
102
RTVSPost2010Prop46
 90
       50
102
RTVSPost2010PropOp46
 70
     1
102
RTVSPost2010Prop47
 90
       50
102
RTVSPost2010PropOp47
 70
     1
102
RTVSPost2010Prop48
 90
       50
102
RTVSPost2010PropOp48
 70
     1
102
RTVSPost2010Prop49
280
     0
102
RTVSPost2010PropOp49
 70
     1
102
RTVSPost2010Prop50
 90
       50
102
RTVSPost2010PropOp50
 70
     1
102
RTVSPost2010Prop51ColorIndex
 90
      256
102
RTVSPost2010Prop51ColorRGB
 90
-16777216
102
RTVSPost2010PropOp51
 70
     0
102
RTVSPost2010Prop52
140
1.0
102
RTVSPost2010PropOp52
 70
     0
102
RTVSPost2010Prop53
 90
        2
102
RTVSPost2010PropOp53
 70
     1
102
RTVSPost2010Prop54
  1
strokes_ogs.tif
102
RTVSPost2010PropOp54
 70
     1
102
RTVSPost2010Prop55
280
     0
102
RTVSPost2010PropOp55
 70
     1
102
RTVSPost2010Prop56
140
1.0
102
RTVSPost2010PropOp56
 70
     1
102
RTVSPost2010Prop57
140
1.0
102
RTVSPost2010PropOp57
 70
     1
102
RTVSPropertyOp0
 70
     1
102
RTVSPropertyOp1
 70
     1
102
RTVSPropertyOp2
 70
     1
102
RTVSPropertyOp3
 70
     1
102
RTVSPropertyOp4
 70
     1
102
RTVSPropertyOp5
 70
     1
102
RTVSPropertyOp6
 70
     1
102
RTVSPropertyOp7
 70
     1
102
RTVSPropertyOp8
 70
     1
102
RTVSPropertyOp9
 70
     1
102
RTVSPropertyOp10
 70
     1
102
RTVSPropertyOp11
 70
     1
102
RTVSPropertyOp12
 70
     1
102
RTVSPropertyOp13
 70
     1
102
RTVSPropertyOp14
 70
     1
102
RTVSPropertyOp15
 70
     1
102
RTVSPropertyOp16
 70
     1
102
RTVSPropertyOp17
 70
     1
102
RTVSPropertyOp18
 70
     1
102
RTVSPropertyOp19
 70
     1
102
RTVSPropertyOp20
 70
     1
102
RTVSPropertyOp21
 70
     1
102
RTVSPropertyOp22
 70
     1
102
RTVSPropertyOp23
 70
     1
102
RTVSPropertyOp24
 70
     1
102
RTVSPropertyOp25
 70
     1
102
RTVSPropertyOp26
 70
     1
102
RTVSPropertyOp27
 70
     1
102
RTVSPropertyOp28
 70
     1
102
RTVSPropertyOp29
 70
     1
102
RTVSPropertyOp30
 70
     1
102
RTVSPropertyOp31
 70
     1
102
RTVSPropertyOp32
 70
     1
102
RTVSPropertyOp33
 70
     1
102
RTVSPropertyOp34
 70
     1
102
RTVSPropertyOp35
 70
     1
102
RTVSPropertyOp36
 70
     1
102
RTVSPropertyOp37
 70
     1
102
RTVSPropertyOp38
 70
     1
102
RTVSPropertyOp39
 70
     1
102
RTVSPropertyOp40
 70
     1
102
RTVSPropertyOp41
 70
     1
102
RTVSPropertyOp42
 70
     1
102
RTVSPropertyOp43
 70
     1
102
RTVSPropertyOp44
 70
     1
102
RTVSPropertyOp45
 70
     1
102
RTVSPropertyOp46
 70
     1
102
RTVSPropertyOp47
 70
     1
102
RTVSPropertyOp48
 70
     1
102
RTVSPropertyOp49
 70
     1
102
RTVSPropertyOp50
 70
     1
102
RTVSPropertyOp51
 70
     0
102
RTVSPropertyOp52
 70
     0
102
RTVSPropertyOp53
 70
     1
102
RTVSPropertyOp54
 70
     1
102
RTVSPropertyOp55
 70
     1
102
RTVSPropertyOp56
 70
     1
102
RTVSPropertyOp57
 70
     1
102
RTVSPropertyOp58
 70
     1
102
RTVSPropertyOp59
 70
     1
102
RTVSPropertyOp60
 70
     1
102
RTVSPropertyOp61
 70
     1
102
RTVSPropertyOp62
 70
     1
  0
XRECORD
  5
866C
102
{ACAD_REACTORS
330
866B
102
}
330
866B
100
AcDbXrecord
280
     1
102
RTVSPost2010Prop28
280
     0
102
RTVSPost2010PropOp28
 70
     1
102
RTVSPost2010Prop29
280
     1
102
RTVSPost2010PropOp29
 70
     1
102
RTVSPost2010Prop30
280
     1
102
RTVSPost2010PropOp30
 70
     1
102
RTVSPost2010Prop31
280
     0
102
RTVSPost2010PropOp31
 70
     1
102
RTVSPost2010Prop32
280
     0
102
RTVSPost2010PropOp32
 70
     1
102
RTVSPost2010Prop33
280
     0
102
RTVSPost2010PropOp33
 70
     1
102
RTVSPost2010Prop34
280
     0
102
RTVSPost2010PropOp34
 70
     1
102
RTVSPost2010Prop35
280
     0
102
RTVSPost2010PropOp35
 70
     1
102
RTVSPost2010Prop36
280
     0
102
RTVSPost2010PropOp36
 70
     1
102
RTVSPost2010Prop37
 90
       50
102
RTVSPost2010PropOp37
 70
     1
102
RTVSPost2010Prop38
140
0.0
102
RTVSPost2010PropOp38
 70
     1
102
RTVSPost2010Prop39
140
1.0
102
RTVSPost2010PropOp39
 70
     1
102
RTVSPost2010Prop40
 90
        0
102
RTVSPost2010PropOp40
 70
     1
102
RTVSPost2010Prop41ColorIndex
 90
       18
102
RTVSPost2010Prop41ColorRGB
 90
        0
102
RTVSPost2010PropOp41
 70
     1
102
RTVSPost2010Prop42
 90
       50
102
RTVSPost2010PropOp42
 70
     1
102
RTVSPost2010Prop43
 90
        3
102
RTVSPost2010PropOp43
 70
     1
102
RTVSPost2010Prop44ColorIndex
 90
        5
102
RTVSPost2010Prop44ColorRGB
 90
      255
102
RTVSPost2010PropOp44
 70
     1
102
RTVSPost2010Prop45
280
     0
102
RTVSPost2010PropOp45
 70
     1
102
RTVSPost2010Prop46
 90
       50
102
RTVSPost2010PropOp46
 70
     1
102
RTVSPost2010Prop47
 90
       50
102
RTVSPost2010PropOp47
 70
     1
102
RTVSPost2010Prop48
 90
       50
102
RTVSPost2010PropOp48
 70
     1
102
RTVSPost2010Prop49
280
     0
102
RTVSPost2010PropOp49
 70
     1
102
RTVSPost2010Prop50
 90
       50
102
RTVSPost2010PropOp50
 70
     1
102
RTVSPost2010Prop51ColorIndex
 90
      256
102
RTVSPost2010Prop51ColorRGB
 90
-16777216
102
RTVSPost2010PropOp51
 70
     0
102
RTVSPost2010Prop52
140
1.0
102
RTVSPost2010PropOp52
 70
     0
102
RTVSPost2010Prop53
 90
        2
102
RTVSPost2010PropOp53
 70
     1
102
RTVSPost2010Prop54
  1
strokes_ogs.tif
102
RTVSPost2010PropOp54
 70
     1
102
RTVSPost2010Prop55
280
     0
102
RTVSPost2010PropOp55
 70
     1
102
RTVSPost2010Prop56
140
1.0
102
RTVSPost2010PropOp56
 70
     1
102
RTVSPost2010Prop57
140
1.0
102
RTVSPost2010PropOp57
 70
     1
102
RTVSPropertyOp0
 70
     1
102
RTVSPropertyOp1
 70
     1
102
RTVSPropertyOp2
 70
     1
102
RTVSPropertyOp3
 70
     1
102
RTVSPropertyOp4
 70
     1
102
RTVSPropertyOp5
 70
     1
102
RTVSPropertyOp6
 70
     1
102
RTVSPropertyOp7
 70
     1
102
RTVSPropertyOp8
 70
     1
102
RTVSPropertyOp9
 70
     1
102
RTVSPropertyOp10
 70
     1
102
RTVSPropertyOp11
 70
     1
102
RTVSPropertyOp12
 70
     1
102
RTVSPropertyOp13
 70
     1
102
RTVSPropertyOp14
 70
     1
102
RTVSPropertyOp15
 70
     1
102
RTVSPropertyOp16
 70
     1
102
RTVSPropertyOp17
 70
     1
102
RTVSPropertyOp18
 70
     1
102
RTVSPropertyOp19
 70
     1
102
RTVSPropertyOp20
 70
     1
102
RTVSPropertyOp21
 70
     1
102
RTVSPropertyOp22
 70
     1
102
RTVSPropertyOp23
 70
     1
102
RTVSPropertyOp24
 70
     1
102
RTVSPropertyOp25
 70
     1
102
RTVSPropertyOp26
 70
     1
102
RTVSPropertyOp27
 70
     1
102
RTVSPropertyOp28
 70
     1
102
RTVSPropertyOp29
 70
     1
102
RTVSPropertyOp30
 70
     1
102
RTVSPropertyOp31
 70
     1
102
RTVSPropertyOp32
 70
     1
102
RTVSPropertyOp33
 70
     1
102
RTVSPropertyOp34
 70
     1
102
RTVSPropertyOp35
 70
     1
102
RTVSPropertyOp36
 70
     1
102
RTVSPropertyOp37
 70
     1
102
RTVSPropertyOp38
 70
     1
102
RTVSPropertyOp39
 70
     1
102
RTVSPropertyOp40
 70
     1
102
RTVSPropertyOp41
 70
     1
102
RTVSPropertyOp42
 70
     1
102
RTVSPropertyOp43
 70
     1
102
RTVSPropertyOp44
 70
     1
102
RTVSPropertyOp45
 70
     1
102
RTVSPropertyOp46
 70
     1
102
RTVSPropertyOp47
 70
     1
102
RTVSPropertyOp48
 70
     1
102
RTVSPropertyOp49
 70
     1
102
RTVSPropertyOp50
 70
     1
102
RTVSPropertyOp51
 70
     0
102
RTVSPropertyOp52
 70
     0
102
RTVSPropertyOp53
 70
     1
102
RTVSPropertyOp54
 70
     1
102
RTVSPropertyOp55
 70
     1
102
RTVSPropertyOp56
 70
     1
102
RTVSPropertyOp57
 70
     1
102
RTVSPropertyOp58
 70
     1
102
RTVSPropertyOp59
 70
     1
102
RTVSPropertyOp60
 70
     1
102
RTVSPropertyOp61
 70
     1
102
RTVSPropertyOp62
 70
     1
  0
XRECORD
  5
8684
102
{ACAD_REACTORS
330
8683
102
}
330
8683
100
AcDbXrecord
280
     1
102
RTVSPost2010Prop28
280
     0
102
RTVSPost2010PropOp28
 70
     1
102
RTVSPost2010Prop29
280
     1
102
RTVSPost2010PropOp29
 70
     1
102
RTVSPost2010Prop30
280
     1
102
RTVSPost2010PropOp30
 70
     1
102
RTVSPost2010Prop31
280
     0
102
RTVSPost2010PropOp31
 70
     1
102
RTVSPost2010Prop32
280
     0
102
RTVSPost2010PropOp32
 70
     1
102
RTVSPost2010Prop33
280
     0
102
RTVSPost2010PropOp33
 70
     1
102
RTVSPost2010Prop34
280
     0
102
RTVSPost2010PropOp34
 70
     1
102
RTVSPost2010Prop35
280
     0
102
RTVSPost2010PropOp35
 70
     1
102
RTVSPost2010Prop36
280
     0
102
RTVSPost2010PropOp36
 70
     1
102
RTVSPost2010Prop37
 90
       50
102
RTVSPost2010PropOp37
 70
     1
102
RTVSPost2010Prop38
140
0.0
102
RTVSPost2010PropOp38
 70
     1
102
RTVSPost2010Prop39
140
1.0
102
RTVSPost2010PropOp39
 70
     1
102
RTVSPost2010Prop40
 90
        0
102
RTVSPost2010PropOp40
 70
     1
102
RTVSPost2010Prop41ColorIndex
 90
       18
102
RTVSPost2010Prop41ColorRGB
 90
        0
102
RTVSPost2010PropOp41
 70
     1
102
RTVSPost2010Prop42
 90
       50
102
RTVSPost2010PropOp42
 70
     1
102
RTVSPost2010Prop43
 90
        3
102
RTVSPost2010PropOp43
 70
     1
102
RTVSPost2010Prop44ColorIndex
 90
        5
102
RTVSPost2010Prop44ColorRGB
 90
      255
102
RTVSPost2010PropOp44
 70
     1
102
RTVSPost2010Prop45
280
     0
102
RTVSPost2010PropOp45
 70
     1
102
RTVSPost2010Prop46
 90
       50
102
RTVSPost2010PropOp46
 70
     1
102
RTVSPost2010Prop47
 90
       50
102
RTVSPost2010PropOp47
 70
     1
102
RTVSPost2010Prop48
 90
       50
102
RTVSPost2010PropOp48
 70
     1
102
RTVSPost2010Prop49
280
     0
102
RTVSPost2010PropOp49
 70
     1
102
RTVSPost2010Prop50
 90
       50
102
RTVSPost2010PropOp50
 70
     1
102
RTVSPost2010Prop51ColorIndex
 90
      256
102
RTVSPost2010Prop51ColorRGB
 90
-16777216
102
RTVSPost2010PropOp51
 70
     0
102
RTVSPost2010Prop52
140
1.0
102
RTVSPost2010PropOp52
 70
     0
102
RTVSPost2010Prop53
 90
        2
102
RTVSPost2010PropOp53
 70
     1
102
RTVSPost2010Prop54
  1
strokes_ogs.tif
102
RTVSPost2010PropOp54
 70
     1
102
RTVSPost2010Prop55
280
     0
102
RTVSPost2010PropOp55
 70
     1
102
RTVSPost2010Prop56
140
1.0
102
RTVSPost2010PropOp56
 70
     1
102
RTVSPost2010Prop57
140
1.0
102
RTVSPost2010PropOp57
 70
     1
102
RTVSPropertyOp0
 70
     1
102
RTVSPropertyOp1
 70
     1
102
RTVSPropertyOp2
 70
     1
102
RTVSPropertyOp3
 70
     1
102
RTVSPropertyOp4
 70
     1
102
RTVSPropertyOp5
 70
     1
102
RTVSPropertyOp6
 70
     1
102
RTVSPropertyOp7
 70
     1
102
RTVSPropertyOp8
 70
     1
102
RTVSPropertyOp9
 70
     1
102
RTVSPropertyOp10
 70
     1
102
RTVSPropertyOp11
 70
     1
102
RTVSPropertyOp12
 70
     1
102
RTVSPropertyOp13
 70
     1
102
RTVSPropertyOp14
 70
     1
102
RTVSPropertyOp15
 70
     1
102
RTVSPropertyOp16
 70
     1
102
RTVSPropertyOp17
 70
     1
102
RTVSPropertyOp18
 70
     1
102
RTVSPropertyOp19
 70
     1
102
RTVSPropertyOp20
 70
     1
102
RTVSPropertyOp21
 70
     1
102
RTVSPropertyOp22
 70
     1
102
RTVSPropertyOp23
 70
     1
102
RTVSPropertyOp24
 70
     1
102
RTVSPropertyOp25
 70
     1
102
RTVSPropertyOp26
 70
     1
102
RTVSPropertyOp27
 70
     1
102
RTVSPropertyOp28
 70
     1
102
RTVSPropertyOp29
 70
     1
102
RTVSPropertyOp30
 70
     1
102
RTVSPropertyOp31
 70
     1
102
RTVSPropertyOp32
 70
     1
102
RTVSPropertyOp33
 70
     1
102
RTVSPropertyOp34
 70
     1
102
RTVSPropertyOp35
 70
     1
102
RTVSPropertyOp36
 70
     1
102
RTVSPropertyOp37
 70
     1
102
RTVSPropertyOp38
 70
     1
102
RTVSPropertyOp39
 70
     1
102
RTVSPropertyOp40
 70
     1
102
RTVSPropertyOp41
 70
     1
102
RTVSPropertyOp42
 70
     1
102
RTVSPropertyOp43
 70
     1
102
RTVSPropertyOp44
 70
     1
102
RTVSPropertyOp45
 70
     1
102
RTVSPropertyOp46
 70
     1
102
RTVSPropertyOp47
 70
     1
102
RTVSPropertyOp48
 70
     1
102
RTVSPropertyOp49
 70
     1
102
RTVSPropertyOp50
 70
     1
102
RTVSPropertyOp51
 70
     0
102
RTVSPropertyOp52
 70
     0
102
RTVSPropertyOp53
 70
     1
102
RTVSPropertyOp54
 70
     1
102
RTVSPropertyOp55
 70
     1
102
RTVSPropertyOp56
 70
     1
102
RTVSPropertyOp57
 70
     1
102
RTVSPropertyOp58
 70
     1
102
RTVSPropertyOp59
 70
     1
102
RTVSPropertyOp60
 70
     1
102
RTVSPropertyOp61
 70
     1
102
RTVSPropertyOp62
 70
     1
  0
ENDSEC
  0
EOF
