  0
SECTION
  2
HEADER
  9
$ACADVER
  1
AC1015
  9
$ACADMAINTVER
 70
    20
  9
$DWGCODEPAGE
  3
ANSI_932
  9
$INSBASE
 10
0.0
 20
0.0
 30
0.0
  9
$EXTMIN
 10
-0.1922460740788665
 20
-0.2700599612071528
 30
-0.0015258207003583
  9
$EXTMAX
 10
6300.192275410744
 20
8850.270101172235
 30
0.0000000349246037
  9
$LIMMIN
 10
0.0
 20
0.0
  9
$LIMMAX
 10
297.0
 20
210.0
  9
$ORTHOMODE
 70
     1
  9
$REGENMODE
 70
     1
  9
$FILLMODE
 70
     0
  9
$QTEXTMODE
 70
     0
  9
$MIRRTEXT
 70
     1
  9
$LTSCALE
 40
100.0
  9
$ATTMODE
 70
     1
  9
$TEXTSIZE
 40
180.0
  9
$TRACEWID
 40
0.05
  9
$TEXTSTYLE
  7
STANDARD
  9
$CLAYER
  8
3
  9
$CELTYPE
  6
ByLayer
  9
$CECOLOR
 62
   256
  9
$CELTSCALE
 40
1.0
  9
$DISPSILH
 70
     0
  9
$DIMSCALE
 40
30.0
  9
$DIMASZ
 40
2.0
  9
$DIMEXO
 40
0.5
  9
$DIMDLI
 40
10.0
  9
$DIMRND
 40
0.0
  9
$DIMDLE
 40
0.0
  9
$DIMEXE
 40
1.0
  9
$DIMTP
 40
1.0
  9
$DIMTM
 40
1.0
  9
$DIMTXT
 40
3.0
  9
$DIMCEN
 40
0.0
  9
$DIMTSZ
 40
0.0
  9
$DIMTOL
 70
     0
  9
$DIMLIM
 70
     0
  9
$DIMTIH
 70
     0
  9
$DIMTOH
 70
     0
  9
$DIMSE1
 70
     0
  9
$DIMSE2
 70
     0
  9
$DIMTAD
 70
     1
  9
$DIMZIN
 70
     8
  9
$DIMBLK
  1

  9
$DIMASO
 70
     1
  9
$DIMSHO
 70
     1
  9
$DIMPOST
  1

  9
$DIMAPOST
  1

  9
$DIMALT
 70
     0
  9
$DIMALTD
 70
     2
  9
$DIMALTF
 40
0.039
  9
$DIMLFAC
 40
1.0
  9
$DIMTOFL
 70
     1
  9
$DIMTVP
 40
0.0
  9
$DIMTIX
 70
     0
  9
$DIMSOXD
 70
     0
  9
$DIMSAH
 70
     1
  9
$DIMBLK1
  1
OPEN
  9
$DIMBLK2
  1
OPEN
  9
$DIMSTYLE
  2
IGA
  9
$DIMCLRD
 70
     0
  9
$DIMCLRE
 70
     0
  9
$DIMCLRT
 70
     0
  9
$DIMTFAC
 40
10.0
  9
$DIMGAP
 40
1.0
  9
$DIMJUST
 70
     0
  9
$DIMSD1
 70
     0
  9
$DIMSD2
 70
     0
  9
$DIMTOLJ
 70
     1
  9
$DIMTZIN
 70
     0
  9
$DIMALTZ
 70
     0
  9
$DIMALTTZ
 70
     0
  9
$DIMUPT
 70
     0
  9
$DIMDEC
 70
     4
  9
$DIMTDEC
 70
     4
  9
$DIMALTU
 70
     2
  9
$DIMALTTD
 70
     2
  9
$DIMTXSTY
  7
STANDARD
  9
$DIMAUNIT
 70
     0
  9
$DIMADEC
 70
     0
  9
$DIMALTRND
 40
0.0
  9
$DIMAZIN
 70
     0
  9
$DIMDSEP
 70
    46
  9
$DIMATFIT
 70
     3
  9
$DIMFRAC
 70
     0
  9
$DIMLDRBLK
  1
OPEN
  9
$DIMLUNIT
 70
     2
  9
$DIMLWD
 70
    -2
  9
$DIMLWE
 70
    -2
  9
$DIMTMOVE
 70
     0
  9
$LUNITS
 70
     2
  9
$LUPREC
 70
     3
  9
$SKETCHINC
 40
0.1
  9
$FILLETRAD
 40
50.0
  9
$AUNITS
 70
     0
  9
$AUPREC
 70
     0
  9
$MENU
  1
acad
  9
$ELEVATION
 40
0.0
  9
$PELEVATION
 40
0.0
  9
$THICKNESS
 40
0.0
  9
$LIMCHECK
 70
     0
  9
$CHAMFERA
 40
0.5
  9
$CHAMFERB
 40
0.5
  9
$CHAMFERC
 40
0.0
  9
$CHAMFERD
 40
0.0
  9
$SKPOLY
 70
     0
  9
$TDCREATE
 40
2451389.493851273
  9
$TDUCREATE
 40
2451389.118851273
  9
$TDUPDATE
 40
2460269.559874237
  9
$TDUUPDATE
 40
2460269.184874236
  9
$TDINDWG
 40
0.0200918634
  9
$TDUSRTIMER
 40
0.0200918403
  9
$USRTIMER
 70
     1
  9
$ANGBASE
 50
0.0
  9
$ANGDIR
 70
     0
  9
$PDMODE
 70
     0
  9
$PDSIZE
 40
0.0
  9
$PLINEWID
 40
0.0
  9
$SPLFRAME
 70
     0
  9
$SPLINETYPE
 70
     6
  9
$SPLINESEGS
 70
     8
  9
$HANDSEED
  5
8410
  9
$SURFTAB1
 70
     6
  9
$SURFTAB2
 70
     6
  9
$SURFTYPE
 70
     6
  9
$SURFU
 70
     6
  9
$SURFV
 70
     6
  9
$UCSBASE
  2

  9
$UCSNAME
  2

  9
$UCSORG
 10
0.0
 20
0.0
 30
0.0
  9
$UCSXDIR
 10
1.0
 20
0.0
 30
0.0
  9
$UCSYDIR
 10
0.0
 20
1.0
 30
0.0
  9
$UCSORTHOREF
  2

  9
$UCSORTHOVIEW
 70
     0
  9
$UCSORGTOP
 10
0.0
 20
0.0
 30
0.0
  9
$UCSORGBOTTOM
 10
0.0
 20
0.0
 30
0.0
  9
$UCSORGLEFT
 10
0.0
 20
0.0
 30
0.0
  9
$UCSORGRIGHT
 10
0.0
 20
0.0
 30
0.0
  9
$UCSORGFRONT
 10
0.0
 20
0.0
 30
0.0
  9
$UCSORGBACK
 10
0.0
 20
0.0
 30
0.0
  9
$PUCSBASE
  2

  9
$PUCSNAME
  2

  9
$PUCSORG
 10
0.0
 20
0.0
 30
0.0
  9
$PUCSXDIR
 10
1.0
 20
0.0
 30
0.0
  9
$PUCSYDIR
 10
0.0
 20
1.0
 30
0.0
  9
$PUCSORTHOREF
  2

  9
$PUCSORTHOVIEW
 70
     0
  9
$PUCSORGTOP
 10
0.0
 20
0.0
 30
0.0
  9
$PUCSORGBOTTOM
 10
0.0
 20
0.0
 30
0.0
  9
$PUCSORGLEFT
 10
0.0
 20
0.0
 30
0.0
  9
$PUCSORGRIGHT
 10
0.0
 20
0.0
 30
0.0
  9
$PUCSORGFRONT
 10
0.0
 20
0.0
 30
0.0
  9
$PUCSORGBACK
 10
0.0
 20
0.0
 30
0.0
  9
$USERI1
 70
     0
  9
$USERI2
 70
     0
  9
$USERI3
 70
     0
  9
$USERI4
 70
     0
  9
$USERI5
 70
     0
  9
$USERR1
 40
0.0
  9
$USERR2
 40
0.0
  9
$USERR3
 40
0.0
  9
$USERR4
 40
0.0
  9
$USERR5
 40
0.0
  9
$WORLDVIEW
 70
     1
  9
$SHADEDGE
 70
     3
  9
$SHADEDIF
 70
    70
  9
$TILEMODE
 70
     1
  9
$MAXACTVP
 70
    16
  9
$PINSBASE
 10
0.0
 20
0.0
 30
0.0
  9
$PLIMCHECK
 70
     0
  9
$PEXTMIN
 10
1.000000000000000E+20
 20
1.000000000000000E+20
 30
1.000000000000000E+20
  9
$PEXTMAX
 10
-1.000000000000000E+20
 20
-1.000000000000000E+20
 30
-1.000000000000000E+20
  9
$PLIMMIN
 10
0.0
 20
0.0
  9
$PLIMMAX
 10
12.0
 20
9.0
  9
$UNITMODE
 70
     0
  9
$VISRETAIN
 70
     0
  9
$PLINEGEN
 70
     0
  9
$PSLTSCALE
 70
     1
  9
$TREEDEPTH
 70
  3020
  9
$CMLSTYLE
  2
Standard
  9
$CMLJUST
 70
     0
  9
$CMLSCALE
 40
1.0
  9
$PROXYGRAPHICS
 70
     1
  9
$MEASUREMENT
 70
     0
  9
$CELWEIGHT
370
    -1
  9
$ENDCAPS
280
     0
  9
$JOINSTYLE
280
     0
  9
$LWDISPLAY
290
     0
  9
$INSUNITS
 70
     0
  9
$HYPERLINKBASE
  1

  9
$STYLESHEET
  1

  9
$XEDIT
290
     1
  9
$CEPSNTYPE
380
     0
  9
$PSTYLEMODE
290
     1
  9
$FINGERPRINTGUID
  2
{50D2FEC3-CECB-464A-9659-12F61C37B06B}
  9
$VERSIONGUID
  2
{8B65A628-5E5C-4124-B93D-5CDD491AA28E}
  9
$EXTNAMES
290
     1
  9
$PSVPSCALE
 40
0.0
  9
$OLESTARTUP
290
     0
  0
ENDSEC
  0
SECTION
  2
CLASSES
  0
CLASS
  1
ACDBDICTIONARYWDFLT
  2
AcDbDictionaryWithDefault
  3
ObjectDBX Classes
 90
        0
280
     0
281
     0
  0
CLASS
  1
MATERIAL
  2
AcDbMaterial
  3
ObjectDBX Classes
 90
     1153
280
     0
281
     0
  0
CLASS
  1
VISUALSTYLE
  2
AcDbVisualStyle
  3
ObjectDBX Classes
 90
     4095
280
     0
281
     0
  0
CLASS
  1
SCALE
  2
AcDbScale
  3
ObjectDBX Classes
 90
     1153
280
     0
281
     0
  0
CLASS
  1
TABLESTYLE
  2
AcDbTableStyle
  3
ObjectDBX Classes
 90
     4095
280
     0
281
     0
  0
CLASS
  1
MLEADERSTYLE
  2
AcDbMLeaderStyle
  3
ACDB_MLEADERSTYLE_CLASS
 90
     4095
280
     0
281
     0
  0
CLASS
  1
ACDBSECTIONVIEWSTYLE
  2
AcDbSectionViewStyle
  3
ObjectDBX Classes
 90
     1025
280
     0
281
     0
  0
CLASS
  1
ACDBDETAILVIEWSTYLE
  2
AcDbDetailViewStyle
  3
ObjectDBX Classes
 90
     1025
280
     0
281
     0
  0
CLASS
  1
DICTIONARYVAR
  2
AcDbDictionaryVar
  3
ObjectDBX Classes
 90
        0
280
     0
281
     0
  0
CLASS
  1
CELLSTYLEMAP
  2
AcDbCellStyleMap
  3
ObjectDBX Classes
 90
     1152
280
     0
281
     0
  0
CLASS
  1
ACDBPLACEHOLDER
  2
AcDbPlaceHolder
  3
ObjectDBX Classes
 90
        0
280
     0
281
     0
  0
CLASS
  1
LAYOUT
  2
AcDbLayout
  3
ObjectDBX Classes
 90
        0
280
     0
281
     0
  0
ENDSEC
  0
SECTION
  2
TABLES
  0
TABLE
  2
VPORT
  5
81A7
330
0
100
AcDbSymbolTable
 70
     1
  0
VPORT
  5
8213
330
81A7
100
AcDbSymbolTableRecord
100
AcDbViewportTableRecord
  2
*ACTIVE
 70
     0
 10
0.0
 20
0.0
 11
1.0
 21
1.0
 12
3150.000014668333
 22
4425.000020605514
 13
0.0
 23
0.0
 14
10.0
 24
10.0
 15
10.0
 25
10.0
 16
0.0
 26
0.0
 36
1.0
 17
0.0
 27
0.0
 37
0.0
 40
8911.090552860814
 41
2.050213675213675
 42
50.0
 43
0.0
 44
0.0
 50
0.0
 51
0.0
 71
     0
 72
   100
 73
     1
 74
     0
 75
     0
 76
     0
 77
     0
 78
     0
281
     0
 65
     1
110
0.0
120
0.0
130
0.0
111
1.0
121
0.0
131
0.0
112
0.0
122
1.0
132
0.0
 79
     0
146
0.0
1001
ACAD_NAV_VCDISPLAY
1070
     3
  0
ENDTAB
  0
TABLE
  2
LTYPE
  5
81A4
330
0
100
AcDbSymbolTable
 70
     3
  0
LTYPE
  5
81F9
330
81A4
100
AcDbSymbolTableRecord
100
AcDbLinetypeTableRecord
  2
ByBlock
 70
     0
  3

 72
    65
 73
     0
 40
0.0
  0
LTYPE
  5
81FA
330
81A4
100
AcDbSymbolTableRecord
100
AcDbLinetypeTableRecord
  2
ByLayer
 70
     0
  3

 72
    65
 73
     0
 40
0.0
  0
LTYPE
  5
81FB
330
81A4
100
AcDbSymbolTableRecord
100
AcDbLinetypeTableRecord
  2
CONTINUOUS
 70
     0
  3
Solid line
 72
    65
 73
     0
 40
0.0
  0
LTYPE
  5
8214
330
81A4
100
AcDbSymbolTableRecord
100
AcDbLinetypeTableRecord
  2
CENTER
 70
     0
  3
____ _ ____ _ ____ _ ____ _ ____ _ ____ _ ____ 
 72
    65
 73
     4
 40
2.0
 49
1.25
 74
     0
 49
-0.25
 74
     0
 49
0.25
 74
     0
 49
-0.25
 74
     0
  0
ENDTAB
  0
TABLE
  2
LAYER
  5
81A1
330
0
100
AcDbSymbolTable
 70
     6
  0
LAYER
  5
81F3
102
{ACAD_XDICTIONARY
360
8343
102
}
330
81A1
100
AcDbSymbolTableRecord
100
AcDbLayerTableRecord
  2
0
 70
     0
 62
     7
  6
CONTINUOUS
370
    -3
390
81AE
  0
LAYER
  5
8212
102
{ACAD_XDICTIONARY
360
8345
102
}
330
81A1
100
AcDbSymbolTableRecord
100
AcDbLayerTableRecord
  2
3
 70
     0
 62
     2
  6
CONTINUOUS
370
    -3
390
81AE
  0
LAYER
  5
8215
102
{ACAD_XDICTIONARY
360
8347
102
}
330
81A1
100
AcDbSymbolTableRecord
100
AcDbLayerTableRecord
  2
2
 70
     0
 62
     3
  6
CENTER
370
    -3
390
81AE
  0
LAYER
  5
8216
102
{ACAD_XDICTIONARY
360
8349
102
}
330
81A1
100
AcDbSymbolTableRecord
100
AcDbLayerTableRecord
  2
1
 70
     0
 62
     4
  6
CONTINUOUS
370
    -3
390
81AE
  0
LAYER
  5
8217
102
{ACAD_XDICTIONARY
360
834B
102
}
330
81A1
100
AcDbSymbolTableRecord
100
AcDbLayerTableRecord
  2
4
 70
     0
 62
     7
  6
CONTINUOUS
370
    -3
390
81AE
  0
LAYER
  5
8218
330
81A1
100
AcDbSymbolTableRecord
100
AcDbLayerTableRecord
  2
DEFPOINTS
 70
     0
 62
     7
  6
CONTINUOUS
290
     0
370
    -3
390
81AE
  0
ENDTAB
  0
TABLE
  2
STYLE
  5
81A2
330
0
100
AcDbSymbolTable
 70
     2
  0
STYLE
  5
81F4
330
81A2
100
AcDbSymbolTableRecord
100
AcDbTextStyleTableRecord
  2
STANDARD
 70
     0
 40
0.0
 41
1.0
 50
0.0
 71
     0
 42
180.0
  3
simplex.shx
  4
extfont.shx
  0
STYLE
  5
81F8
330
81A2
100
AcDbSymbolTableRecord
100
AcDbTextStyleTableRecord
  2
Annotative
 70
     0
 40
0.0
 41
1.0
 50
0.0
 71
     0
 42
0.2
  3
txt
  4

1001
AcadAnnotative
1000
AnnotativeData
1002
{
1070
     1
1070
     1
1002
}
  0
ENDTAB
  0
TABLE
  2
VIEW
  5
81A5
330
0
100
AcDbSymbolTable
 70
     0
  0
ENDTAB
  0
TABLE
  2
UCS
  5
81A6
330
0
100
AcDbSymbolTable
 70
     0
  0
ENDTAB
  0
TABLE
  2
APPID
  5
81A8
330
0
100
AcDbSymbolTable
 70
     6
  0
APPID
  5
81F5
330
81A8
100
AcDbSymbolTableRecord
100
AcDbRegAppTableRecord
  2
ACAD
 70
     0
  0
APPID
  5
81FC
330
81A8
100
AcDbSymbolTableRecord
100
AcDbRegAppTableRecord
  2
AcadAnnotative
 70
     0
  0
APPID
  5
825F
330
81A8
100
AcDbSymbolTableRecord
100
AcDbRegAppTableRecord
  2
ACAD_NAV_VCDISPLAY
 70
     0
  0
APPID
  5
82A1
330
81A8
100
AcDbSymbolTableRecord
100
AcDbRegAppTableRecord
  2
AcadAnnoMonitorAlertIconDisabled
 70
     0
  0
APPID
  5
82A2
330
81A8
100
AcDbSymbolTableRecord
100
AcDbRegAppTableRecord
  2
ACAD_EXEMPT_FROM_CAD_STANDARDS
 70
     0
  0
APPID
  5
8407
330
81A8
100
AcDbSymbolTableRecord
100
AcDbRegAppTableRecord
  2
ACAD_MLEADERVER
 70
     0
  0
ENDTAB
  0
TABLE
  2
DIMSTYLE
  5
81A9
330
0
100
AcDbSymbolTable
 70
     4
100
AcDbDimStyleTable
 71
     1
340
8219
  0
DIMSTYLE
105
81F6
102
{ACAD_REACTORS
330
7C96
330
7C97
330
7C98
330
7C9D
330
7C9E
330
7CDC
330
7CE7
330
7CE8
330
7CE9
330
7CEB
330
7CEC
330
7CF3
330
810A
330
8117
330
8131
330
813E
330
814B
102
}
330
81A9
100
AcDbSymbolTableRecord
100
AcDbDimStyleTableRecord
  2
Standard
 70
     0
340
81F4
  0
DIMSTYLE
105
81F7
330
81A9
100
AcDbSymbolTableRecord
100
AcDbDimStyleTableRecord
  2
Annotative
 70
     0
340
81F4
1001
AcadAnnotative
1000
AnnotativeData
1002
{
1070
     1
1070
     1
1002
}
  0
DIMSTYLE
105
8219
102
{ACAD_REACTORS
330
82B1
330
82BE
330
8336
102
}
330
81A9
100
AcDbSymbolTableRecord
100
AcDbDimStyleTableRecord
  2
IGA
 70
     0
 40
2.0
 41
2.0
 42
0.5
 43
10.0
 44
1.0
 47
1.0
 48
1.0
 73
     0
 74
     0
 77
     1
 78
     8
140
3.0
141
0.0
143
0.03937
146
10.0
147
1.0
173
     1
271
     3
272
     3
279
     2
284
     8
285
     8
286
     8
340
81F4
  0
DIMSTYLE
105
821A
330
81A9
100
AcDbSymbolTableRecord
100
AcDbDimStyleTableRecord
  2
MATSU
 70
     0
 41
2.0
 42
1.0
 43
10.0
 44
1.0
 73
     0
 74
     0
 77
     1
 78
     8
140
3.0
141
0.0
143
0.03937
147
0.5
172
     1
173
     1
176
   256
177
   256
178
   256
271
     3
272
     3
279
     2
284
     8
285
     8
286
     8
340
81F4
  0
ENDTAB
  0
TABLE
  2
BLOCK_RECORD
  5
81A0
330
0
100
AcDbSymbolTable
 70
    33
  0
BLOCK_RECORD
  5
820E
330
81A0
100
AcDbSymbolTableRecord
100
AcDbBlockTableRecord
  2
*Model_Space
340
8211
  0
BLOCK_RECORD
  5
820A
330
81A0
100
AcDbSymbolTableRecord
100
AcDbBlockTableRecord
  2
*Paper_Space
340
820D
  0
BLOCK_RECORD
  5
821E
330
81A0
100
AcDbSymbolTableRecord
100
AcDbBlockTableRecord
  2
$MODEL_SPACE
340
0
  0
BLOCK_RECORD
  5
8220
330
81A0
100
AcDbSymbolTableRecord
100
AcDbBlockTableRecord
  2
$PAPER_SPACE
340
0
  0
BLOCK_RECORD
  5
8222
330
81A0
100
AcDbSymbolTableRecord
100
AcDbBlockTableRecord
  2
_OPEN
340
0
102
{BLKREFS
331
830D
331
830E
331
8323
331
8324
331
833D
331
833E
331
7E4D
331
7E4E
331
7E58
331
7E59
331
7E63
331
7E64
331
7E6E
331
7E6F
331
7E79
331
7E7A
331
7EC6
331
7EC7
331
8067
331
8068
331
805C
331
805D
331
7EE7
331
7EE8
331
7EF2
331
7EF3
331
7EFD
331
7EFE
331
7F08
331
7F09
331
7F13
331
7F14
331
7F1E
331
7F1F
331
7F4E
331
7F4F
331
8103
331
8104
331
8110
331
8111
331
812A
331
812B
331
8137
331
8138
331
8144
331
8145
331
82FB
331
82FC
102
}
  0
BLOCK_RECORD
  5
8224
330
81A0
100
AcDbSymbolTableRecord
100
AcDbBlockTableRecord
  2
YA_N
340
0
102
{BLKREFS
331
7C33
331
7C51
331
7C53
331
7CC0
102
}
  0
BLOCK_RECORD
  5
8226
330
81A0
100
AcDbSymbolTableRecord
100
AcDbBlockTableRecord
  2
*D4
340
0
  0
BLOCK_RECORD
  5
8228
330
81A0
100
AcDbSymbolTableRecord
100
AcDbBlockTableRecord
  2
*D5
340
0
  0
BLOCK_RECORD
  5
822A
330
81A0
100
AcDbSymbolTableRecord
100
AcDbBlockTableRecord
  2
*D6
340
0
  0
BLOCK_RECORD
  5
822C
330
81A0
100
AcDbSymbolTableRecord
100
AcDbBlockTableRecord
  2
*D7
340
0
  0
BLOCK_RECORD
  5
822E
330
81A0
100
AcDbSymbolTableRecord
100
AcDbBlockTableRecord
  2
*D8
340
0
  0
BLOCK_RECORD
  5
8230
330
81A0
100
AcDbSymbolTableRecord
100
AcDbBlockTableRecord
  2
*D9
340
0
  0
BLOCK_RECORD
  5
8232
330
81A0
100
AcDbSymbolTableRecord
100
AcDbBlockTableRecord
  2
*D10
340
0
  0
BLOCK_RECORD
  5
8234
330
81A0
100
AcDbSymbolTableRecord
100
AcDbBlockTableRecord
  2
*U11
340
0
102
{BLKREFS
331
8069
102
}
  0
BLOCK_RECORD
  5
8235
330
81A0
100
AcDbSymbolTableRecord
100
AcDbBlockTableRecord
  2
*D12
340
0
  0
BLOCK_RECORD
  5
8237
330
81A0
100
AcDbSymbolTableRecord
100
AcDbBlockTableRecord
  2
*D13
340
0
  0
BLOCK_RECORD
  5
8239
330
81A0
100
AcDbSymbolTableRecord
100
AcDbBlockTableRecord
  2
*D14
340
0
  0
BLOCK_RECORD
  5
823B
330
81A0
100
AcDbSymbolTableRecord
100
AcDbBlockTableRecord
  2
*D15
340
0
  0
BLOCK_RECORD
  5
823D
330
81A0
100
AcDbSymbolTableRecord
100
AcDbBlockTableRecord
  2
*D16
340
0
  0
BLOCK_RECORD
  5
823F
330
81A0
100
AcDbSymbolTableRecord
100
AcDbBlockTableRecord
  2
*D17
340
0
  0
BLOCK_RECORD
  5
8241
330
81A0
100
AcDbSymbolTableRecord
100
AcDbBlockTableRecord
  2
*D18
340
0
  0
BLOCK_RECORD
  5
8243
330
81A0
100
AcDbSymbolTableRecord
100
AcDbBlockTableRecord
  2
*D19
340
0
  0
BLOCK_RECORD
  5
8245
330
81A0
100
AcDbSymbolTableRecord
100
AcDbBlockTableRecord
  2
_DOT
340
0
  0
BLOCK_RECORD
  5
8247
330
81A0
100
AcDbSymbolTableRecord
100
AcDbBlockTableRecord
  2
_NONE
340
0
  0
BLOCK_RECORD
  5
8249
330
81A0
100
AcDbSymbolTableRecord
100
AcDbBlockTableRecord
  2
*D22
340
0
  0
BLOCK_RECORD
  5
824B
330
81A0
100
AcDbSymbolTableRecord
100
AcDbBlockTableRecord
  2
*D23
340
0
  0
BLOCK_RECORD
  5
824D
330
81A0
100
AcDbSymbolTableRecord
100
AcDbBlockTableRecord
  2
*D24
340
0
  0
BLOCK_RECORD
  5
824F
330
81A0
100
AcDbSymbolTableRecord
100
AcDbBlockTableRecord
  2
*D25
340
0
  0
BLOCK_RECORD
  5
8251
330
81A0
100
AcDbSymbolTableRecord
100
AcDbBlockTableRecord
  2
*D26
340
0
  0
BLOCK_RECORD
  5
82A4
330
81A0
100
AcDbSymbolTableRecord
100
AcDbBlockTableRecord
  2
*D27
340
0
  0
BLOCK_RECORD
  5
82B2
330
81A0
100
AcDbSymbolTableRecord
100
AcDbBlockTableRecord
  2
*D28
340
0
  0
BLOCK_RECORD
  5
82BF
330
81A0
100
AcDbSymbolTableRecord
100
AcDbBlockTableRecord
  2
*D29
340
0
  0
BLOCK_RECORD
  5
8314
330
81A0
100
AcDbSymbolTableRecord
100
AcDbBlockTableRecord
  2
*D30
340
0
  0
BLOCK_RECORD
  5
8329
330
81A0
100
AcDbSymbolTableRecord
100
AcDbBlockTableRecord
  2
*D31
340
0
  0
BLOCK_RECORD
  5
8337
330
81A0
100
AcDbSymbolTableRecord
100
AcDbBlockTableRecord
  2
*D32
340
0
  0
ENDTAB
  0
ENDSEC
  0
SECTION
  2
BLOCKS
  0
BLOCK
  5
820F
330
820E
100
AcDbEntity
  8
0
100
AcDbBlockBegin
  2
*Model_Space
 70
     0
 10
0.0
 20
0.0
 30
0.0
  3
*Model_Space
  1

  0
ENDBLK
  5
8210
330
820E
100
AcDbEntity
  8
0
100
AcDbBlockEnd
  0
BLOCK
  5
820B
330
820A
100
AcDbEntity
 67
     1
  8
0
100
AcDbBlockBegin
  2
*Paper_Space
 70
     0
 10
0.0
 20
0.0
 30
0.0
  3
*Paper_Space
  1

  0
ENDBLK
  5
820C
330
820A
100
AcDbEntity
 67
     1
  8
0
100
AcDbBlockEnd
  0
BLOCK
  5
821F
330
821E
100
AcDbEntity
  8
0
100
AcDbBlockBegin
  2
$MODEL_SPACE
 70
     0
 10
0.0
 20
0.0
 30
0.0
  3
$MODEL_SPACE
  1

  0
ENDBLK
  5
1B
330
821E
100
AcDbEntity
  8
0
100
AcDbBlockEnd
  0
BLOCK
  5
8221
330
8220
100
AcDbEntity
  8
0
100
AcDbBlockBegin
  2
$PAPER_SPACE
 70
     0
 10
0.0
 20
0.0
 30
0.0
  3
$PAPER_SPACE
  1

  0
ENDBLK
  5
18
330
8220
100
AcDbEntity
  8
0
100
AcDbBlockEnd
  0
BLOCK
  5
8223
330
8222
100
AcDbEntity
  8
0
100
AcDbBlockBegin
  2
_OPEN
 70
     0
 10
0.0
 20
0.0
 30
0.0
  3
_OPEN
  1

  0
LINE
  5
79FD
330
8222
100
AcDbEntity
  8
0
  6
ByBlock
 62
     0
100
AcDbLine
 10
-1.0
 20
0.1666666666666666
 30
0.0
 11
0.0
 21
0.0
 31
0.0
  0
LINE
  5
79FE
330
8222
100
AcDbEntity
  8
0
  6
ByBlock
 62
     0
100
AcDbLine
 10
0.0
 20
0.0
 30
0.0
 11
-1.0
 21
-0.1666666666666666
 31
0.0
  0
LINE
  5
79FF
330
8222
100
AcDbEntity
  8
0
  6
ByBlock
 62
     0
100
AcDbLine
 10
0.0
 20
0.0
 30
0.0
 11
-1.0
 21
0.0
 31
0.0
  0
ENDBLK
  5
7A01
330
8222
100
AcDbEntity
  8
0
100
AcDbBlockEnd
  0
BLOCK
  5
8225
330
8224
100
AcDbEntity
  8
0
100
AcDbBlockBegin
  2
YA_N
 70
     0
 10
0.0
 20
0.0
 30
0.0
  3
YA_N
  1

  0
ENDBLK
  5
7A0C
330
8224
100
AcDbEntity
  8
0
100
AcDbBlockEnd
  0
BLOCK
  5
8227
330
8226
100
AcDbEntity
  8
0
100
AcDbBlockBegin
  2
*D4
 70
     1
 10
0.0
 20
0.0
 30
0.0
  3
*D4
  1

  0
LINE
  5
7E4A
330
8226
100
AcDbEntity
  8
0
  6
ByBlock
100
AcDbLine
 10
-585.0011226335136
 20
1241.178095414463
 30
0.0
 11
-734.616231076725
 21
1241.178095414463
 31
0.0
  0
LINE
  5
7E4B
330
8226
100
AcDbEntity
  8
0
  6
ByBlock
100
AcDbLine
 10
-585.0011226335136
 20
316.1780954144632
 30
0.0
 11
-734.616231076725
 21
316.1780954144632
 31
0.0
  0
LINE
  5
7E4C
330
8226
100
AcDbEntity
  8
0
  6
ByBlock
100
AcDbLine
 10
-704.616231076725
 20
1181.178095414463
 30
0.0
 11
-704.616231076725
 21
376.1780954144632
 31
0.0
  0
INSERT
  5
7E4D
330
8226
100
AcDbEntity
  8
0
  6
ByBlock
100
AcDbBlockReference
  2
_OPEN
 10
-704.616231076725
 20
1241.178095414463
 30
0.0
 41
60.0
 42
60.0
 43
60.0
 50
90.0
  0
INSERT
  5
7E4E
330
8226
100
AcDbEntity
  8
0
  6
ByBlock
100
AcDbBlockReference
  2
_OPEN
 10
-704.616231076725
 20
316.1780954144632
 30
0.0
 41
60.0
 42
60.0
 43
60.0
 50
270.0
  0
TEXT
  5
7E4F
330
8226
100
AcDbEntity
  8
3
100
AcDbText
 10
-719.616231076725
 20
662.9638097001776
 30
0.0
 40
90.0
  1
925
 50
90.0
100
AcDbText
  0
POINT
  5
7E50
330
8226
100
AcDbEntity
  8
DEFPOINTS
  6
ByBlock
 62
     0
100
AcDbPoint
 10
-555.0011226335136
 20
1241.178095414463
 30
0.0
  0
POINT
  5
7E51
330
8226
100
AcDbEntity
  8
DEFPOINTS
  6
ByBlock
 62
     0
100
AcDbPoint
 10
-555.0011226335136
 20
316.1780954144632
 30
0.0
  0
POINT
  5
7E52
330
8226
100
AcDbEntity
  8
DEFPOINTS
  6
ByBlock
 62
     0
100
AcDbPoint
 10
-704.616231076725
 20
316.1780954144632
 30
0.0
  0
ENDBLK
  5
7E53
330
8226
100
AcDbEntity
  8
0
100
AcDbBlockEnd
  0
BLOCK
  5
8229
330
8228
100
AcDbEntity
  8
0
100
AcDbBlockBegin
  2
*D5
 70
     1
 10
0.0
 20
0.0
 30
0.0
  3
*D5
  1

  0
LINE
  5
7E55
330
8228
100
AcDbEntity
  8
0
  6
ByBlock
100
AcDbLine
 10
-585.0011226335136
 20
1241.178095414463
 30
0.0
 11
-884.9595311745868
 21
1241.178095414463
 31
0.0
  0
LINE
  5
7E56
330
8228
100
AcDbEntity
  8
0
  6
ByBlock
100
AcDbLine
 10
-621.2564614120601
 20
280.1780954144632
 30
0.0
 11
-884.9595311745868
 21
280.1780954144632
 31
0.0
  0
LINE
  5
7E57
330
8228
100
AcDbEntity
  8
0
  6
ByBlock
100
AcDbLine
 10
-854.959531174587
 20
1181.178095414463
 30
0.0
 11
-854.959531174587
 21
340.1780954144633
 31
0.0
  0
INSERT
  5
7E58
330
8228
100
AcDbEntity
  8
0
  6
ByBlock
100
AcDbBlockReference
  2
_OPEN
 10
-854.959531174587
 20
1241.178095414463
 30
0.0
 41
60.0
 42
60.0
 43
60.0
 50
90.0
  0
INSERT
  5
7E59
330
8228
100
AcDbEntity
  8
0
  6
ByBlock
100
AcDbBlockReference
  2
_OPEN
 10
-854.959531174587
 20
280.1780954144632
 30
0.0
 41
60.0
 42
60.0
 43
60.0
 50
270.0
  0
TEXT
  5
7E5A
330
8228
100
AcDbEntity
  8
3
100
AcDbText
 10
-869.9595311745868
 20
664.2495239858917
 30
0.0
 40
90.0
  1
961
 50
90.0
100
AcDbText
  0
POINT
  5
7E5B
330
8228
100
AcDbEntity
  8
DEFPOINTS
  6
ByBlock
 62
     0
100
AcDbPoint
 10
-555.0011226335136
 20
1241.178095414463
 30
0.0
  0
POINT
  5
7E5C
330
8228
100
AcDbEntity
  8
DEFPOINTS
  6
ByBlock
 62
     0
100
AcDbPoint
 10
-591.25646141206
 20
280.1780954144632
 30
0.0
  0
POINT
  5
7E5D
330
8228
100
AcDbEntity
  8
DEFPOINTS
  6
ByBlock
 62
     0
100
AcDbPoint
 10
-854.959531174587
 20
280.1780954144632
 30
0.0
  0
ENDBLK
  5
7E5E
330
8228
100
AcDbEntity
  8
0
100
AcDbBlockEnd
  0
BLOCK
  5
822B
330
822A
100
AcDbEntity
  8
0
100
AcDbBlockBegin
  2
*D6
 70
     1
 10
0.0
 20
0.0
 30
0.0
  3
*D6
  1

  0
LINE
  5
7E60
330
822A
100
AcDbEntity
  8
0
  6
ByBlock
100
AcDbLine
 10
-621.2564614120601
 20
280.1780954144632
 30
0.0
 11
-884.9595311745868
 21
280.1780954144632
 31
0.0
  0
LINE
  5
7E61
330
822A
100
AcDbEntity
  8
0
  6
ByBlock
100
AcDbLine
 10
-525.0011226335153
 20
-399.8219045855366
 30
0.0
 11
-884.9595311745868
 21
-399.8219045855366
 31
0.0
  0
LINE
  5
7E62
330
822A
100
AcDbEntity
  8
0
  6
ByBlock
100
AcDbLine
 10
-854.959531174587
 20
220.1780954144633
 30
0.0
 11
-854.959531174587
 21
-339.8219045855366
 31
0.0
  0
INSERT
  5
7E63
330
822A
100
AcDbEntity
  8
0
  6
ByBlock
100
AcDbBlockReference
  2
_OPEN
 10
-854.959531174587
 20
280.1780954144632
 30
0.0
 41
60.0
 42
60.0
 43
60.0
 50
90.0
  0
INSERT
  5
7E64
330
822A
100
AcDbEntity
  8
0
  6
ByBlock
100
AcDbBlockReference
  2
_OPEN
 10
-854.959531174587
 20
-399.8219045855366
 30
0.0
 41
60.0
 42
60.0
 43
60.0
 50
270.0
  0
TEXT
  5
7E65
330
822A
100
AcDbEntity
  8
3
100
AcDbText
 10
-869.9595311745868
 20
-175.5361902998222
 30
0.0
 40
90.0
  1
680
 50
90.0
100
AcDbText
  0
POINT
  5
7E66
330
822A
100
AcDbEntity
  8
DEFPOINTS
  6
ByBlock
 62
     0
100
AcDbPoint
 10
-591.25646141206
 20
280.1780954144632
 30
0.0
  0
POINT
  5
7E67
330
822A
100
AcDbEntity
  8
DEFPOINTS
  6
ByBlock
 62
     0
100
AcDbPoint
 10
-495.0011226335155
 20
-399.8219045855366
 30
0.0
  0
POINT
  5
7E68
330
822A
100
AcDbEntity
  8
DEFPOINTS
  6
ByBlock
 62
     0
100
AcDbPoint
 10
-854.959531174587
 20
-399.8219045855366
 30
0.0
  0
ENDBLK
  5
7E69
330
822A
100
AcDbEntity
  8
0
100
AcDbBlockEnd
  0
BLOCK
  5
822D
330
822C
100
AcDbEntity
  8
0
100
AcDbBlockBegin
  2
*D7
 70
     1
 10
0.0
 20
0.0
 30
0.0
  3
*D7
  1

  0
LINE
  5
7E6B
330
822C
100
AcDbEntity
  8
0
  6
ByBlock
100
AcDbLine
 10
-555.0011226335136
 20
1313.678095414463
 30
0.0
 11
-555.0011226335136
 21
1464.572505130094
 31
0.0
  0
LINE
  5
7E6C
330
822C
100
AcDbEntity
  8
0
  6
ByBlock
100
AcDbLine
 10
64.99887736648634
 20
1312.14053775802
 30
0.0
 11
64.99887736648634
 21
1464.572505130094
 31
0.0
  0
LINE
  5
7E6D
330
822C
100
AcDbEntity
  8
0
  6
ByBlock
100
AcDbLine
 10
-495.0011226335136
 20
1434.572505130094
 30
0.0
 11
4.99887736648634
 21
1434.572505130094
 31
0.0
  0
INSERT
  5
7E6E
330
822C
100
AcDbEntity
  8
0
  6
ByBlock
100
AcDbBlockReference
  2
_OPEN
 10
-555.0011226335136
 20
1434.572505130094
 30
0.0
 41
60.0
 42
60.0
 43
60.0
 50
180.0
  0
INSERT
  5
7E6F
330
822C
100
AcDbEntity
  8
0
  6
ByBlock
100
AcDbBlockReference
  2
_OPEN
 10
64.99887736648634
 20
1434.572505130094
 30
0.0
 41
60.0
 42
60.0
 43
60.0
  0
TEXT
  5
7E70
330
822C
100
AcDbEntity
  8
3
100
AcDbText
 10
-360.7154083477992
 20
1449.572505130094
 30
0.0
 40
90.0
  1
620
100
AcDbText
  0
POINT
  5
7E71
330
822C
100
AcDbEntity
  8
DEFPOINTS
  6
ByBlock
 62
     0
100
AcDbPoint
 10
-555.0011226335136
 20
1283.678095414463
 30
0.0
  0
POINT
  5
7E72
330
822C
100
AcDbEntity
  8
DEFPOINTS
  6
ByBlock
 62
     0
100
AcDbPoint
 10
64.99887736648634
 20
1282.140537758021
 30
0.0
  0
POINT
  5
7E73
330
822C
100
AcDbEntity
  8
DEFPOINTS
  6
ByBlock
 62
     0
100
AcDbPoint
 10
64.99887736648634
 20
1434.572505130094
 30
0.0
  0
ENDBLK
  5
7E74
330
822C
100
AcDbEntity
  8
0
100
AcDbBlockEnd
  0
BLOCK
  5
822F
330
822E
100
AcDbEntity
  8
0
100
AcDbBlockBegin
  2
*D8
 70
     1
 10
0.0
 20
0.0
 30
0.0
  3
*D8
  1

  0
LINE
  5
7E76
330
822E
100
AcDbEntity
  8
0
  6
ByBlock
100
AcDbLine
 10
64.99887736648634
 20
1312.14053775802
 30
0.0
 11
64.99887736648634
 21
1464.815705119519
 31
0.0
  0
LINE
  5
7E77
330
822E
100
AcDbEntity
  8
0
  6
ByBlock
100
AcDbLine
 10
838.8305404942775
 20
310.1780954144633
 30
0.0
 11
838.8305404942775
 21
1464.815705119519
 31
0.0
  0
LINE
  5
7E78
330
822E
100
AcDbEntity
  8
0
  6
ByBlock
100
AcDbLine
 10
124.9988773664863
 20
1434.815705119519
 30
0.0
 11
778.8305404942774
 21
1434.815705119519
 31
0.0
  0
INSERT
  5
7E79
330
822E
100
AcDbEntity
  8
0
  6
ByBlock
100
AcDbBlockReference
  2
_OPEN
 10
64.99887736648634
 20
1434.815705119519
 30
0.0
 41
60.0
 42
60.0
 43
60.0
 50
180.0
  0
INSERT
  5
7E7A
330
822E
100
AcDbEntity
  8
0
  6
ByBlock
100
AcDbBlockReference
  2
_OPEN
 10
838.8305404942775
 20
1434.815705119519
 30
0.0
 41
60.0
 42
60.0
 43
60.0
  0
TEXT
  5
7E7B
330
822E
100
AcDbEntity
  8
3
100
AcDbText
 10
336.2004232160963
 20
1449.815705119519
 30
0.0
 40
90.0
  1
777
100
AcDbText
  0
POINT
  5
7E7C
330
822E
100
AcDbEntity
  8
DEFPOINTS
  6
ByBlock
 62
     0
100
AcDbPoint
 10
64.99887736648634
 20
1282.140537758021
 30
0.0
  0
POINT
  5
7E7D
330
822E
100
AcDbEntity
  8
DEFPOINTS
  6
ByBlock
 62
     0
100
AcDbPoint
 10
838.8305404942775
 20
280.1780954144632
 30
0.0
  0
POINT
  5
7E7E
330
822E
100
AcDbEntity
  8
DEFPOINTS
  6
ByBlock
 62
     0
100
AcDbPoint
 10
838.8305404942775
 20
1434.815705119519
 30
0.0
  0
ENDBLK
  5
7E7F
330
822E
100
AcDbEntity
  8
0
100
AcDbBlockEnd
  0
BLOCK
  5
8231
330
8230
100
AcDbEntity
  8
0
100
AcDbBlockBegin
  2
*D9
 70
     1
 10
0.0
 20
0.0
 30
0.0
  3
*D9
  1

  0
LINE
  5
7EC3
330
8230
100
AcDbEntity
  8
0
  6
ByBlock
100
AcDbLine
 10
2904.805828611463
 20
1240.636679629771
 30
0.0
 11
2904.805828611463
 21
1464.37004894809
 31
0.0
  0
LINE
  5
7EC4
330
8230
100
AcDbEntity
  8
0
  6
ByBlock
100
AcDbLine
 10
4024.805828611461
 20
1243.680072967499
 30
0.0
 11
4024.805828611461
 21
1464.37004894809
 31
0.0
  0
LINE
  5
7EC5
330
8230
100
AcDbEntity
  8
0
  6
ByBlock
100
AcDbLine
 10
2964.805828611463
 20
1434.37004894809
 30
0.0
 11
3964.805828611462
 21
1434.37004894809
 31
0.0
  0
INSERT
  5
7EC6
330
8230
100
AcDbEntity
  8
0
  6
ByBlock
100
AcDbBlockReference
  2
_OPEN
 10
2904.805828611463
 20
1434.37004894809
 30
0.0
 41
60.0
 42
60.0
 43
60.0
 50
180.0
  0
INSERT
  5
7EC7
330
8230
100
AcDbEntity
  8
0
  6
ByBlock
100
AcDbBlockReference
  2
_OPEN
 10
4024.805828611461
 20
1434.37004894809
 30
0.0
 41
60.0
 42
60.0
 43
60.0
  0
TEXT
  5
7EC8
330
8230
100
AcDbEntity
  8
3
100
AcDbText
 10
3323.377257182892
 20
1449.37004894809
 30
0.0
 40
90.0
  1
1120
100
AcDbText
  0
POINT
  5
7EC9
330
8230
100
AcDbEntity
  8
DEFPOINTS
  6
ByBlock
 62
     0
100
AcDbPoint
 10
2904.805828611463
 20
1210.636679629771
 30
0.0
  0
POINT
  5
7ECA
330
8230
100
AcDbEntity
  8
DEFPOINTS
  6
ByBlock
 62
     0
100
AcDbPoint
 10
4024.805828611461
 20
1213.680072967499
 30
0.0
  0
POINT
  5
7ECB
330
8230
100
AcDbEntity
  8
DEFPOINTS
  6
ByBlock
 62
     0
100
AcDbPoint
 10
4024.805828611461
 20
1434.37004894809
 30
0.0
  0
ENDBLK
  5
7ECC
330
8230
100
AcDbEntity
  8
0
100
AcDbBlockEnd
  0
BLOCK
  5
8233
330
8232
100
AcDbEntity
  8
0
100
AcDbBlockBegin
  2
*D10
 70
     1
 10
0.0
 20
0.0
 30
0.0
  3
*D10
  1

  0
LINE
  5
8064
330
8232
100
AcDbEntity
  8
0
  6
ByBlock
100
AcDbLine
 10
4204.479014639256
 20
3097.454481859346
 30
0.0
 11
4204.479014639256
 21
4187.222372330842
 31
0.0
  0
LINE
  5
8065
330
8232
100
AcDbEntity
  8
0
  6
ByBlock
100
AcDbLine
 10
5102.479014639261
 20
4102.237520526027
 30
0.0
 11
5102.479014639261
 21
4187.222372330842
 31
0.0
  0
LINE
  5
8066
330
8232
100
AcDbEntity
  8
0
  6
ByBlock
100
AcDbLine
 10
4264.479014639259
 20
4157.222372330842
 30
0.0
 11
5042.479014639261
 21
4157.222372330842
 31
0.0
  0
INSERT
  5
8067
330
8232
100
AcDbEntity
  8
0
  6
ByBlock
100
AcDbBlockReference
  2
_OPEN
 10
4204.479014639256
 20
4157.222372330842
 30
0.0
 41
60.0
 42
60.0
 43
60.0
 50
180.0
  0
INSERT
  5
8068
330
8232
100
AcDbEntity
  8
0
  6
ByBlock
100
AcDbBlockReference
  2
_OPEN
 10
5102.479014639261
 20
4157.222372330842
 30
0.0
 41
60.0
 42
60.0
 43
60.0
  0
INSERT
  5
8069
330
8232
100
AcDbEntity
  8
3
100
AcDbBlockReference
  2
*U11
 10
0.0
 20
0.0
 30
0.0
  0
POINT
  5
806A
330
8232
100
AcDbEntity
  8
DEFPOINTS
  6
ByBlock
 62
     0
100
AcDbPoint
 10
4204.479014639256
 20
3067.454481859346
 30
0.0
  0
POINT
  5
806B
330
8232
100
AcDbEntity
  8
DEFPOINTS
  6
ByBlock
 62
     0
100
AcDbPoint
 10
5102.479014639261
 20
4072.237520526026
 30
0.0
  0
POINT
  5
806C
330
8232
100
AcDbEntity
  8
DEFPOINTS
  6
ByBlock
 62
     0
100
AcDbPoint
 10
5102.479014639261
 20
4157.222372330842
 30
0.0
  0
ENDBLK
  5
806D
330
8232
100
AcDbEntity
  8
0
100
AcDbBlockEnd
  0
BLOCK
  5
8253
330
8234
100
AcDbEntity
  8
0
100
AcDbBlockBegin
  2
*U11
 70
     1
 10
0.0
 20
0.0
 30
0.0
  3
*U11
  1

  0
TEXT
  5
819C
330
8234
100
AcDbEntity
  8
3
100
AcDbText
 10
4524.90758606783
 20
4322.222372330844
 30
0.0
 40
90.0
  1
MAX
100
AcDbText
  0
TEXT
  5
819D
330
8234
100
AcDbEntity
  8
3
100
AcDbText
 10
4537.764728924973
 20
4172.222372330844
 30
0.0
 40
90.0
  1
920
100
AcDbText
  0
ENDBLK
  5
819F
330
8234
100
AcDbEntity
  8
0
100
AcDbBlockEnd
  0
BLOCK
  5
8236
330
8235
100
AcDbEntity
  8
0
100
AcDbBlockBegin
  2
*D12
 70
     1
 10
0.0
 20
0.0
 30
0.0
  3
*D12
  1

  0
LINE
  5
8059
330
8235
100
AcDbEntity
  8
0
  6
ByBlock
100
AcDbLine
 10
5102.479014639261
 20
4102.237520526027
 30
0.0
 11
5102.479014639261
 21
4187.222372330842
 31
0.0
  0
LINE
  5
805A
330
8235
100
AcDbEntity
  8
0
  6
ByBlock
100
AcDbLine
 10
5771.97901463926
 20
2777.954481859346
 30
0.0
 11
5771.97901463926
 21
4187.222372330842
 31
0.0
  0
LINE
  5
805B
330
8235
100
AcDbEntity
  8
0
  6
ByBlock
100
AcDbLine
 10
5162.47901463926
 20
4157.222372330842
 30
0.0
 11
5711.979014639258
 21
4157.222372330842
 31
0.0
  0
INSERT
  5
805C
330
8235
100
AcDbEntity
  8
0
  6
ByBlock
100
AcDbBlockReference
  2
_OPEN
 10
5102.479014639261
 20
4157.222372330842
 30
0.0
 41
60.0
 42
60.0
 43
60.0
 50
180.0
  0
INSERT
  5
805D
330
8235
100
AcDbEntity
  8
0
  6
ByBlock
100
AcDbBlockReference
  2
_OPEN
 10
5771.97901463926
 20
4157.222372330842
 30
0.0
 41
60.0
 42
60.0
 43
60.0
  0
TEXT
  5
805E
330
8235
100
AcDbEntity
  8
3
100
AcDbText
 10
5263.657586067832
 20
4210.793800902272
 30
0.0
 40
90.0
  1
(680)
100
AcDbText
  0
POINT
  5
805F
330
8235
100
AcDbEntity
  8
DEFPOINTS
  6
ByBlock
 62
     0
100
AcDbPoint
 10
5102.479014639261
 20
4072.237520526026
 30
0.0
  0
POINT
  5
8060
330
8235
100
AcDbEntity
  8
DEFPOINTS
  6
ByBlock
 62
     0
100
AcDbPoint
 10
5771.97901463926
 20
2747.954481859345
 30
0.0
  0
POINT
  5
8061
330
8235
100
AcDbEntity
  8
DEFPOINTS
  6
ByBlock
 62
     0
100
AcDbPoint
 10
5771.97901463926
 20
4157.222372330842
 30
0.0
  0
ENDBLK
  5
8062
330
8235
100
AcDbEntity
  8
0
100
AcDbBlockEnd
  0
BLOCK
  5
8238
330
8237
100
AcDbEntity
  8
0
100
AcDbBlockBegin
  2
*D13
 70
     1
 10
0.0
 20
0.0
 30
0.0
  3
*D13
  1

  0
LINE
  5
7EE4
330
8237
100
AcDbEntity
  8
0
  6
ByBlock
100
AcDbLine
 10
1374.998877366484
 20
3444.814411033823
 30
0.0
 11
1374.998877366484
 21
4321.829069539044
 31
0.0
  0
LINE
  5
7EE5
330
8237
100
AcDbEntity
  8
0
  6
ByBlock
100
AcDbLine
 10
624.9988773664848
 20
4019.814411033823
 30
0.0
 11
624.9988773664848
 21
4321.829069539044
 31
0.0
  0
LINE
  5
7EE6
330
8237
100
AcDbEntity
  8
0
  6
ByBlock
100
AcDbLine
 10
1314.998877366485
 20
4291.829069539044
 30
0.0
 11
684.998877366485
 21
4291.829069539044
 31
0.0
  0
INSERT
  5
7EE7
330
8237
100
AcDbEntity
  8
0
  6
ByBlock
100
AcDbBlockReference
  2
_OPEN
 10
1374.998877366484
 20
4291.829069539044
 30
0.0
 41
60.0
 42
60.0
 43
60.0
  0
INSERT
  5
7EE8
330
8237
100
AcDbEntity
  8
0
  6
ByBlock
100
AcDbBlockReference
  2
_OPEN
 10
624.9988773664848
 20
4291.829069539044
 30
0.0
 41
60.0
 42
60.0
 43
60.0
 50
180.0
  0
TEXT
  5
7EE9
330
8237
100
AcDbEntity
  8
3
100
AcDbText
 10
884.2845916521994
 20
4306.829069539044
 30
0.0
 40
90.0
  1
750
100
AcDbText
  0
POINT
  5
7EEA
330
8237
100
AcDbEntity
  8
DEFPOINTS
  6
ByBlock
 62
     0
100
AcDbPoint
 10
1374.998877366484
 20
3414.814411033823
 30
0.0
  0
POINT
  5
7EEB
330
8237
100
AcDbEntity
  8
DEFPOINTS
  6
ByBlock
 62
     0
100
AcDbPoint
 10
624.9988773664848
 20
3989.814411033823
 30
0.0
  0
POINT
  5
7EEC
330
8237
100
AcDbEntity
  8
DEFPOINTS
  6
ByBlock
 62
     0
100
AcDbPoint
 10
624.9988773664848
 20
4291.829069539044
 30
0.0
  0
ENDBLK
  5
7EED
330
8237
100
AcDbEntity
  8
0
100
AcDbBlockEnd
  0
BLOCK
  5
823A
330
8239
100
AcDbEntity
  8
0
100
AcDbBlockBegin
  2
*D14
 70
     1
 10
0.0
 20
0.0
 30
0.0
  3
*D14
  1

  0
LINE
  5
7EEF
330
8239
100
AcDbEntity
  8
0
  6
ByBlock
100
AcDbLine
 10
624.9988773664848
 20
4019.814411033823
 30
0.0
 11
624.9988773664848
 21
4321.829069539044
 31
0.0
  0
LINE
  5
7EF0
330
8239
100
AcDbEntity
  8
0
  6
ByBlock
100
AcDbLine
 10
-495.0011226335146
 20
4019.814411033823
 30
0.0
 11
-495.0011226335146
 21
4321.829069539044
 31
0.0
  0
LINE
  5
7EF1
330
8239
100
AcDbEntity
  8
0
  6
ByBlock
100
AcDbLine
 10
564.9988773664849
 20
4291.829069539044
 30
0.0
 11
-435.0011226335144
 21
4291.829069539044
 31
0.0
  0
INSERT
  5
7EF2
330
8239
100
AcDbEntity
  8
0
  6
ByBlock
100
AcDbBlockReference
  2
_OPEN
 10
624.9988773664848
 20
4291.829069539044
 30
0.0
 41
60.0
 42
60.0
 43
60.0
  0
INSERT
  5
7EF3
330
8239
100
AcDbEntity
  8
0
  6
ByBlock
100
AcDbBlockReference
  2
_OPEN
 10
-495.0011226335146
 20
4291.829069539044
 30
0.0
 41
60.0
 42
60.0
 43
60.0
 50
180.0
  0
TEXT
  5
7EF4
330
8239
100
AcDbEntity
  8
3
100
AcDbText
 10
-76.42969406208618
 20
4306.829069539044
 30
0.0
 40
90.0
  1
1120
100
AcDbText
  0
POINT
  5
7EF5
330
8239
100
AcDbEntity
  8
DEFPOINTS
  6
ByBlock
 62
     0
100
AcDbPoint
 10
624.9988773664848
 20
3989.814411033823
 30
0.0
  0
POINT
  5
7EF6
330
8239
100
AcDbEntity
  8
DEFPOINTS
  6
ByBlock
 62
     0
100
AcDbPoint
 10
-495.0011226335146
 20
3989.814411033823
 30
0.0
  0
POINT
  5
7EF7
330
8239
100
AcDbEntity
  8
DEFPOINTS
  6
ByBlock
 62
     0
100
AcDbPoint
 10
-495.0011226335146
 20
4291.829069539044
 30
0.0
  0
ENDBLK
  5
7EF8
330
8239
100
AcDbEntity
  8
0
100
AcDbBlockEnd
  0
BLOCK
  5
823C
330
823B
100
AcDbEntity
  8
0
100
AcDbBlockBegin
  2
*D15
 70
     1
 10
0.0
 20
0.0
 30
0.0
  3
*D15
  1

  0
LINE
  5
7EFA
330
823B
100
AcDbEntity
  8
0
  6
ByBlock
100
AcDbLine
 10
-525.0011226335145
 20
3989.814411033823
 30
0.0
 11
-825.4253447999309
 21
3989.814411033823
 31
0.0
  0
LINE
  5
7EFB
330
823B
100
AcDbEntity
  8
0
  6
ByBlock
100
AcDbLine
 10
-525.0011226335151
 20
2614.814411033822
 30
0.0
 11
-825.4253447999309
 21
2614.814411033822
 31
0.0
  0
LINE
  5
7EFC
330
823B
100
AcDbEntity
  8
0
  6
ByBlock
100
AcDbLine
 10
-795.4253447999308
 20
3929.814411033823
 30
0.0
 11
-795.4253447999308
 21
2674.814411033822
 31
0.0
  0
INSERT
  5
7EFD
330
823B
100
AcDbEntity
  8
0
  6
ByBlock
100
AcDbBlockReference
  2
_OPEN
 10
-795.4253447999308
 20
3989.814411033823
 30
0.0
 41
60.0
 42
60.0
 43
60.0
 50
90.0
  0
INSERT
  5
7EFE
330
823B
100
AcDbEntity
  8
0
  6
ByBlock
100
AcDbBlockReference
  2
_OPEN
 10
-795.4253447999308
 20
2614.814411033822
 30
0.0
 41
60.0
 42
60.0
 43
60.0
 50
270.0
  0
TEXT
  5
7EFF
330
823B
100
AcDbEntity
  8
3
100
AcDbText
 10
-810.4253447999308
 20
3152.314411033823
 30
0.0
 40
90.0
  1
1375
 50
90.0
100
AcDbText
  0
POINT
  5
7F00
330
823B
100
AcDbEntity
  8
DEFPOINTS
  6
ByBlock
 62
     0
100
AcDbPoint
 10
-495.0011226335146
 20
3989.814411033823
 30
0.0
  0
POINT
  5
7F01
330
823B
100
AcDbEntity
  8
DEFPOINTS
  6
ByBlock
 62
     0
100
AcDbPoint
 10
-495.001122633515
 20
2614.814411033822
 30
0.0
  0
POINT
  5
7F02
330
823B
100
AcDbEntity
  8
DEFPOINTS
  6
ByBlock
 62
     0
100
AcDbPoint
 10
-795.4253447999308
 20
2614.814411033822
 30
0.0
  0
ENDBLK
  5
7F03
330
823B
100
AcDbEntity
  8
0
100
AcDbBlockEnd
  0
BLOCK
  5
823E
330
823D
100
AcDbEntity
  8
0
100
AcDbBlockBegin
  2
*D16
 70
     1
 10
0.0
 20
0.0
 30
0.0
  3
*D16
  1

  0
LINE
  5
7F05
330
823D
100
AcDbEntity
  8
0
  6
ByBlock
100
AcDbLine
 10
1374.998877366484
 20
2584.814411033822
 30
0.0
 11
1374.998877366484
 21
2277.667251551749
 31
0.0
  0
LINE
  5
7F06
330
823D
100
AcDbEntity
  8
0
  6
ByBlock
100
AcDbLine
 10
-495.001122633515
 20
2584.814411033821
 30
0.0
 11
-495.001122633515
 21
2277.667251551749
 31
0.0
  0
LINE
  5
7F07
330
823D
100
AcDbEntity
  8
0
  6
ByBlock
100
AcDbLine
 10
1314.998877366485
 20
2307.667251551749
 30
0.0
 11
-435.001122633515
 21
2307.667251551749
 31
0.0
  0
INSERT
  5
7F08
330
823D
100
AcDbEntity
  8
0
  6
ByBlock
100
AcDbBlockReference
  2
_OPEN
 10
1374.998877366484
 20
2307.667251551749
 30
0.0
 41
60.0
 42
60.0
 43
60.0
  0
INSERT
  5
7F09
330
823D
100
AcDbEntity
  8
0
  6
ByBlock
100
AcDbBlockReference
  2
_OPEN
 10
-495.001122633515
 20
2307.667251551749
 30
0.0
 41
60.0
 42
60.0
 43
60.0
 50
180.0
  0
TEXT
  5
7F0A
330
823D
100
AcDbEntity
  8
3
100
AcDbText
 10
289.9988773664849
 20
2322.667251551749
 30
0.0
 40
90.0
  1
1870
100
AcDbText
  0
POINT
  5
7F0B
330
823D
100
AcDbEntity
  8
DEFPOINTS
  6
ByBlock
 62
     0
100
AcDbPoint
 10
1374.998877366484
 20
2614.814411033822
 30
0.0
  0
POINT
  5
7F0C
330
823D
100
AcDbEntity
  8
DEFPOINTS
  6
ByBlock
 62
     0
100
AcDbPoint
 10
-495.001122633515
 20
2614.814411033822
 30
0.0
  0
POINT
  5
7F0D
330
823D
100
AcDbEntity
  8
DEFPOINTS
  6
ByBlock
 62
     0
100
AcDbPoint
 10
-495.001122633515
 20
2307.667251551749
 30
0.0
  0
ENDBLK
  5
7F0E
330
823D
100
AcDbEntity
  8
0
100
AcDbBlockEnd
  0
BLOCK
  5
8240
330
823F
100
AcDbEntity
  8
0
100
AcDbBlockBegin
  2
*D17
 70
     1
 10
0.0
 20
0.0
 30
0.0
  3
*D17
  1

  0
LINE
  5
7F10
330
823F
100
AcDbEntity
  8
0
  6
ByBlock
100
AcDbLine
 10
1404.998877366485
 20
3414.814411033823
 30
0.0
 11
1705.739583753108
 21
3414.814411033823
 31
0.0
  0
LINE
  5
7F11
330
823F
100
AcDbEntity
  8
0
  6
ByBlock
100
AcDbLine
 10
1404.998877366485
 20
2614.814411033822
 30
0.0
 11
1705.739583753108
 21
2614.814411033822
 31
0.0
  0
LINE
  5
7F12
330
823F
100
AcDbEntity
  8
0
  6
ByBlock
100
AcDbLine
 10
1675.739583753109
 20
3354.814411033823
 30
0.0
 11
1675.739583753109
 21
2674.814411033822
 31
0.0
  0
INSERT
  5
7F13
330
823F
100
AcDbEntity
  8
0
  6
ByBlock
100
AcDbBlockReference
  2
_OPEN
 10
1675.739583753109
 20
3414.814411033823
 30
0.0
 41
60.0
 42
60.0
 43
60.0
 50
90.0
  0
INSERT
  5
7F14
330
823F
100
AcDbEntity
  8
0
  6
ByBlock
100
AcDbBlockReference
  2
_OPEN
 10
1675.739583753109
 20
2614.814411033822
 30
0.0
 41
60.0
 42
60.0
 43
60.0
 50
270.0
  0
TEXT
  5
7F15
330
823F
100
AcDbEntity
  8
3
100
AcDbText
 10
1660.739583753108
 20
2899.100125319537
 30
0.0
 40
90.0
  1
800
 50
90.0
100
AcDbText
  0
POINT
  5
7F16
330
823F
100
AcDbEntity
  8
DEFPOINTS
  6
ByBlock
 62
     0
100
AcDbPoint
 10
1374.998877366484
 20
3414.814411033823
 30
0.0
  0
POINT
  5
7F17
330
823F
100
AcDbEntity
  8
DEFPOINTS
  6
ByBlock
 62
     0
100
AcDbPoint
 10
1374.998877366484
 20
2614.814411033822
 30
0.0
  0
POINT
  5
7F18
330
823F
100
AcDbEntity
  8
DEFPOINTS
  6
ByBlock
 62
     0
100
AcDbPoint
 10
1675.739583753109
 20
2614.814411033822
 30
0.0
  0
ENDBLK
  5
7F19
330
823F
100
AcDbEntity
  8
0
100
AcDbBlockEnd
  0
BLOCK
  5
8242
330
8241
100
AcDbEntity
  8
0
100
AcDbBlockBegin
  2
*D18
 70
     1
 10
0.0
 20
0.0
 30
0.0
  3
*D18
  1

  0
LINE
  5
7F1B
330
8241
100
AcDbEntity
  8
0
  6
ByBlock
100
AcDbLine
 10
4060.305828611461
 20
-194.8219045855367
 30
0.0
 11
4378.696822439597
 21
-194.8219045855367
 31
0.0
  0
LINE
  5
7F1C
330
8241
100
AcDbEntity
  8
0
  6
ByBlock
100
AcDbLine
 10
4060.305828611461
 20
755.1780954144633
 30
0.0
 11
4378.696822439597
 21
755.1780954144633
 31
0.0
  0
LINE
  5
7F1D
330
8241
100
AcDbEntity
  8
0
  6
ByBlock
100
AcDbLine
 10
4348.696822439597
 20
-134.8219045855366
 30
0.0
 11
4348.696822439597
 21
695.1780954144632
 31
0.0
  0
INSERT
  5
7F1E
330
8241
100
AcDbEntity
  8
0
  6
ByBlock
100
AcDbBlockReference
  2
_OPEN
 10
4348.696822439597
 20
-194.8219045855367
 30
0.0
 41
60.0
 42
60.0
 43
60.0
 50
270.0
  0
INSERT
  5
7F1F
330
8241
100
AcDbEntity
  8
0
  6
ByBlock
100
AcDbBlockReference
  2
_OPEN
 10
4348.696822439597
 20
755.1780954144633
 30
0.0
 41
60.0
 42
60.0
 43
60.0
 50
90.0
  0
TEXT
  5
7F20
330
8241
100
AcDbEntity
  8
3
100
AcDbText
 10
4333.696822439597
 20
119.4638097001776
 30
0.0
 40
90.0
  1
\U+03C6950
 50
90.0
100
AcDbText
  0
POINT
  5
7F21
330
8241
100
AcDbEntity
  8
DEFPOINTS
  6
ByBlock
 62
     0
100
AcDbPoint
 10
4030.305828611463
 20
-194.8219045855367
 30
0.0
  0
POINT
  5
7F22
330
8241
100
AcDbEntity
  8
DEFPOINTS
  6
ByBlock
 62
     0
100
AcDbPoint
 10
4030.305828611463
 20
755.1780954144633
 30
0.0
  0
POINT
  5
7F23
330
8241
100
AcDbEntity
  8
DEFPOINTS
  6
ByBlock
 62
     0
100
AcDbPoint
 10
4348.696822439597
 20
755.1780954144633
 30
0.0
  0
ENDBLK
  5
7F24
330
8241
100
AcDbEntity
  8
0
100
AcDbBlockEnd
  0
BLOCK
  5
8244
330
8243
100
AcDbEntity
  8
0
100
AcDbBlockBegin
  2
*D19
 70
     1
 10
0.0
 20
0.0
 30
0.0
  3
*D19
  1

  0
LINE
  5
7F4B
330
8243
100
AcDbEntity
  8
0
  6
ByBlock
100
AcDbLine
 10
-555.0011226335136
 20
1313.678095414463
 30
0.0
 11
-555.0011226335136
 21
1659.834042793846
 31
0.0
  0
LINE
  5
7F4C
330
8243
100
AcDbEntity
  8
0
  6
ByBlock
100
AcDbLine
 10
1374.998877366484
 20
-269.8219045855366
 30
0.0
 11
1374.998877366484
 21
1659.834042793846
 31
0.0
  0
LINE
  5
7F4D
330
8243
100
AcDbEntity
  8
0
  6
ByBlock
100
AcDbLine
 10
-495.0011226335136
 20
1629.834042793846
 30
0.0
 11
1314.998877366484
 21
1629.834042793846
 31
0.0
  0
INSERT
  5
7F4E
330
8243
100
AcDbEntity
  8
0
  6
ByBlock
100
AcDbBlockReference
  2
_OPEN
 10
-555.0011226335136
 20
1629.834042793846
 30
0.0
 41
60.0
 42
60.0
 43
60.0
 50
180.0
  0
INSERT
  5
7F4F
330
8243
100
AcDbEntity
  8
0
  6
ByBlock
100
AcDbBlockReference
  2
_OPEN
 10
1374.998877366484
 20
1629.834042793846
 30
0.0
 41
60.0
 42
60.0
 43
60.0
  0
TEXT
  5
7F50
330
8243
100
AcDbEntity
  8
3
100
AcDbText
 10
259.9988773664855
 20
1644.834042793847
 30
0.0
 40
90.0
  1
1930
100
AcDbText
  0
POINT
  5
7F51
330
8243
100
AcDbEntity
  8
DEFPOINTS
  6
ByBlock
 62
     0
100
AcDbPoint
 10
-555.0011226335136
 20
1283.678095414463
 30
0.0
  0
POINT
  5
7F52
330
8243
100
AcDbEntity
  8
DEFPOINTS
  6
ByBlock
 62
     0
100
AcDbPoint
 10
1374.998877366484
 20
-299.8219045855366
 30
0.0
  0
POINT
  5
7F53
330
8243
100
AcDbEntity
  8
DEFPOINTS
  6
ByBlock
 62
     0
100
AcDbPoint
 10
1374.998877366484
 20
1629.834042793846
 30
0.0
  0
ENDBLK
  5
7F54
330
8243
100
AcDbEntity
  8
0
100
AcDbBlockEnd
  0
BLOCK
  5
8246
330
8245
100
AcDbEntity
  8
0
100
AcDbBlockBegin
  2
_DOT
 70
     0
 10
0.0
 20
0.0
 30
0.0
  3
_DOT
  1

  0
LWPOLYLINE
  5
8005
330
8245
100
AcDbEntity
  8
0
  6
ByBlock
 62
     0
100
AcDbPolyline
 90
        2
 70
     1
 43
0.25
 10
-0.125
 20
0.0
 42
1.0
 10
0.125
 20
0.0
 42
1.0
  0
LINE
  5
8009
330
8245
100
AcDbEntity
  8
0
  6
ByBlock
 62
     0
100
AcDbLine
 10
-0.25
 20
0.0
 30
0.0
 11
-1.0
 21
0.0
 31
0.0
  0
ENDBLK
  5
7FE8
330
8245
100
AcDbEntity
  8
0
100
AcDbBlockEnd
  0
BLOCK
  5
8248
330
8247
100
AcDbEntity
  8
0
100
AcDbBlockBegin
  2
_NONE
 70
     0
 10
0.0
 20
0.0
 30
0.0
  3
_NONE
  1

  0
CIRCLE
  5
80B0
330
8247
100
AcDbEntity
  8
0
  6
ByBlock
 62
     0
100
AcDbCircle
 10
0.0
 20
0.0
 30
0.0
 40
0.25
  0
ENDBLK
  5
80B1
330
8247
100
AcDbEntity
  8
0
100
AcDbBlockEnd
  0
BLOCK
  5
824A
330
8249
100
AcDbEntity
  8
0
100
AcDbBlockBegin
  2
*D22
 70
     1
 10
0.0
 20
0.0
 30
0.0
  3
*D22
  1

  0
LINE
  5
8100
330
8249
100
AcDbEntity
  8
0
  6
ByBlock
 62
     0
100
AcDbLine
 10
1142.672063394284
 20
2092.454481859345
 30
0.0
 11
1142.672063394284
 21
1890.323912061576
 31
0.0
  0
LINE
  5
8101
330
8249
100
AcDbEntity
  8
0
  6
ByBlock
 62
     0
100
AcDbLine
 10
1702.672063394284
 20
2092.454481859345
 30
0.0
 11
1702.672063394284
 21
1890.323912061576
 31
0.0
  0
LINE
  5
8102
330
8249
100
AcDbEntity
  8
0
  6
ByBlock
 62
     0
100
AcDbLine
 10
1202.672063394284
 20
1920.323912061576
 30
0.0
 11
1642.672063394284
 21
1920.323912061576
 31
0.0
  0
INSERT
  5
8103
330
8249
100
AcDbEntity
  8
0
  6
ByBlock
 62
     0
100
AcDbBlockReference
  2
_OPEN
 10
1142.672063394284
 20
1920.323912061576
 30
0.0
 41
60.0
 42
60.0
 43
60.0
 50
180.0
  0
INSERT
  5
8104
330
8249
100
AcDbEntity
  8
0
  6
ByBlock
 62
     0
100
AcDbBlockReference
  2
_OPEN
 10
1702.672063394284
 20
1920.323912061576
 30
0.0
 41
60.0
 42
60.0
 43
60.0
  0
TEXT
  5
8105
330
8249
100
AcDbEntity
  8
3
 62
     0
100
AcDbText
 10
1306.957777679998
 20
1950.323912061576
 30
0.0
 40
90.0
  1
560
100
AcDbText
  0
POINT
  5
8106
330
8249
100
AcDbEntity
  8
DEFPOINTS
  6
ByBlock
 62
     0
100
AcDbPoint
 10
1142.672063394284
 20
2107.454481859345
 30
0.0
  0
POINT
  5
8107
330
8249
100
AcDbEntity
  8
DEFPOINTS
  6
ByBlock
 62
     0
100
AcDbPoint
 10
1702.672063394284
 20
2107.454481859345
 30
0.0
  0
POINT
  5
8108
330
8249
100
AcDbEntity
  8
DEFPOINTS
  6
ByBlock
 62
     0
100
AcDbPoint
 10
1702.672063394284
 20
1920.323912061576
 30
0.0
  0
ENDBLK
  5
8109
330
8249
100
AcDbEntity
  8
0
100
AcDbBlockEnd
  0
BLOCK
  5
824C
330
824B
100
AcDbEntity
  8
0
100
AcDbBlockBegin
  2
*D23
 70
     1
 10
0.0
 20
0.0
 30
0.0
  3
*D23
  1

  0
LINE
  5
810D
330
824B
100
AcDbEntity
  8
0
  6
ByBlock
 62
     0
100
AcDbLine
 10
1702.672063394284
 20
2092.454481859345
 30
0.0
 11
1702.672063394284
 21
1890.323912061576
 31
0.0
  0
LINE
  5
810E
330
824B
100
AcDbEntity
  8
0
  6
ByBlock
 62
     0
100
AcDbLine
 10
3012.672063394282
 20
2092.454481859345
 30
0.0
 11
3012.672063394282
 21
1890.323912061576
 31
0.0
  0
LINE
  5
810F
330
824B
100
AcDbEntity
  8
0
  6
ByBlock
 62
     0
100
AcDbLine
 10
1762.672063394284
 20
1920.323912061576
 30
0.0
 11
2952.672063394281
 21
1920.323912061576
 31
0.0
  0
INSERT
  5
8110
330
824B
100
AcDbEntity
  8
0
  6
ByBlock
 62
     0
100
AcDbBlockReference
  2
_OPEN
 10
1702.672063394284
 20
1920.323912061576
 30
0.0
 41
60.0
 42
60.0
 43
60.0
 50
180.0
  0
INSERT
  5
8111
330
824B
100
AcDbEntity
  8
0
  6
ByBlock
 62
     0
100
AcDbBlockReference
  2
_OPEN
 10
3012.672063394282
 20
1920.323912061576
 30
0.0
 41
60.0
 42
60.0
 43
60.0
  0
TEXT
  5
8112
330
824B
100
AcDbEntity
  8
3
 62
     0
100
AcDbText
 10
2216.243491965711
 20
1950.323912061576
 30
0.0
 40
90.0
  1
1310
100
AcDbText
  0
POINT
  5
8113
330
824B
100
AcDbEntity
  8
DEFPOINTS
  6
ByBlock
 62
     0
100
AcDbPoint
 10
1702.672063394284
 20
2107.454481859345
 30
0.0
  0
POINT
  5
8114
330
824B
100
AcDbEntity
  8
DEFPOINTS
  6
ByBlock
 62
     0
100
AcDbPoint
 10
3012.672063394282
 20
2107.454481859345
 30
0.0
  0
POINT
  5
8115
330
824B
100
AcDbEntity
  8
DEFPOINTS
  6
ByBlock
 62
     0
100
AcDbPoint
 10
3012.672063394282
 20
1920.323912061576
 30
0.0
  0
ENDBLK
  5
8116
330
824B
100
AcDbEntity
  8
0
100
AcDbBlockEnd
  0
BLOCK
  5
824E
330
824D
100
AcDbEntity
  8
0
100
AcDbBlockBegin
  2
*D24
 70
     1
 10
0.0
 20
0.0
 30
0.0
  3
*D24
  1

  0
LINE
  5
8127
330
824D
100
AcDbEntity
  8
0
  6
ByBlock
 62
     0
100
AcDbLine
 10
3903.728072562842
 20
2092.454481859345
 30
0.0
 11
3903.728072562842
 21
1890.323912061576
 31
0.0
  0
LINE
  5
8128
330
824D
100
AcDbEntity
  8
0
  6
ByBlock
 62
     0
100
AcDbLine
 10
4665.728072562848
 20
2092.454481859345
 30
0.0
 11
4665.728072562848
 21
1890.323912061576
 31
0.0
  0
LINE
  5
8129
330
824D
100
AcDbEntity
  8
0
  6
ByBlock
 62
     0
100
AcDbLine
 10
3963.728072562842
 20
1920.323912061576
 30
0.0
 11
4605.728072562849
 21
1920.323912061576
 31
0.0
  0
INSERT
  5
812A
330
824D
100
AcDbEntity
  8
0
  6
ByBlock
 62
     0
100
AcDbBlockReference
  2
_OPEN
 10
3903.728072562842
 20
1920.323912061576
 30
0.0
 41
60.0
 42
60.0
 43
60.0
 50
180.0
  0
INSERT
  5
812B
330
824D
100
AcDbEntity
  8
0
  6
ByBlock
 62
     0
100
AcDbBlockReference
  2
_OPEN
 10
4665.728072562848
 20
1920.323912061576
 30
0.0
 41
60.0
 42
60.0
 43
60.0
  0
TEXT
  5
812C
330
824D
100
AcDbEntity
  8
3
 62
     0
100
AcDbText
 10
4169.01378684856
 20
1950.323912061576
 30
0.0
 40
90.0
  1
762
100
AcDbText
  0
POINT
  5
812D
330
824D
100
AcDbEntity
  8
DEFPOINTS
  6
ByBlock
 62
     0
100
AcDbPoint
 10
3903.728072562842
 20
2107.454481859345
 30
0.0
  0
POINT
  5
812E
330
824D
100
AcDbEntity
  8
DEFPOINTS
  6
ByBlock
 62
     0
100
AcDbPoint
 10
4665.728072562848
 20
2107.454481859345
 30
0.0
  0
POINT
  5
812F
330
824D
100
AcDbEntity
  8
DEFPOINTS
  6
ByBlock
 62
     0
100
AcDbPoint
 10
4665.728072562848
 20
1920.323912061576
 30
0.0
  0
ENDBLK
  5
8130
330
824D
100
AcDbEntity
  8
0
100
AcDbBlockEnd
  0
BLOCK
  5
8250
330
824F
100
AcDbEntity
  8
0
100
AcDbBlockBegin
  2
*D25
 70
     1
 10
0.0
 20
0.0
 30
0.0
  3
*D25
  1

  0
LINE
  5
8134
330
824F
100
AcDbEntity
  8
0
  6
ByBlock
 62
     0
100
AcDbLine
 10
4665.728072562848
 20
2092.454481859345
 30
0.0
 11
4665.728072562848
 21
1890.323912061576
 31
0.0
  0
LINE
  5
8135
330
824F
100
AcDbEntity
  8
0
  6
ByBlock
 62
     0
100
AcDbLine
 10
5278.728072562858
 20
2092.454481859345
 30
0.0
 11
5278.728072562858
 21
1890.323912061576
 31
0.0
  0
LINE
  5
8136
330
824F
100
AcDbEntity
  8
0
  6
ByBlock
 62
     0
100
AcDbLine
 10
4725.728072562849
 20
1920.323912061576
 30
0.0
 11
5218.728072562858
 21
1920.323912061576
 31
0.0
  0
INSERT
  5
8137
330
824F
100
AcDbEntity
  8
0
  6
ByBlock
 62
     0
100
AcDbBlockReference
  2
_OPEN
 10
4665.728072562848
 20
1920.323912061576
 30
0.0
 41
60.0
 42
60.0
 43
60.0
 50
180.0
  0
INSERT
  5
8138
330
824F
100
AcDbEntity
  8
0
  6
ByBlock
 62
     0
100
AcDbBlockReference
  2
_OPEN
 10
5278.728072562858
 20
1920.323912061576
 30
0.0
 41
60.0
 42
60.0
 43
60.0
  0
TEXT
  5
8139
330
824F
100
AcDbEntity
  8
3
 62
     0
100
AcDbText
 10
4865.085215419997
 20
1950.323912061576
 30
0.0
 40
90.0
  1
613
100
AcDbText
  0
POINT
  5
813A
330
824F
100
AcDbEntity
  8
DEFPOINTS
  6
ByBlock
 62
     0
100
AcDbPoint
 10
4665.728072562848
 20
2107.454481859345
 30
0.0
  0
POINT
  5
813B
330
824F
100
AcDbEntity
  8
DEFPOINTS
  6
ByBlock
 62
     0
100
AcDbPoint
 10
5278.728072562858
 20
2107.454481859345
 30
0.0
  0
POINT
  5
813C
330
824F
100
AcDbEntity
  8
DEFPOINTS
  6
ByBlock
 62
     0
100
AcDbPoint
 10
5278.728072562858
 20
1920.323912061576
 30
0.0
  0
ENDBLK
  5
813D
330
824F
100
AcDbEntity
  8
0
100
AcDbBlockEnd
  0
BLOCK
  5
8252
330
8251
100
AcDbEntity
  8
0
100
AcDbBlockBegin
  2
*D26
 70
     1
 10
0.0
 20
0.0
 30
0.0
  3
*D26
  1

  0
LINE
  5
8141
330
8251
100
AcDbEntity
  8
0
  6
ByBlock
 62
     0
100
AcDbLine
 10
1127.672063394284
 20
2107.454481859345
 30
0.0
 11
590.9291342036047
 21
2107.454481859345
 31
0.0
  0
LINE
  5
8142
330
8251
100
AcDbEntity
  8
0
  6
ByBlock
 62
     0
100
AcDbLine
 10
1037.672063394284
 20
3748.454481859345
 30
0.0
 11
590.9291342036047
 21
3748.454481859345
 31
0.0
  0
LINE
  5
8143
330
8251
100
AcDbEntity
  8
0
  6
ByBlock
 62
     0
100
AcDbLine
 10
620.9291342036049
 20
2167.454481859345
 30
0.0
 11
620.9291342036049
 21
3688.454481859346
 31
0.0
  0
INSERT
  5
8144
330
8251
100
AcDbEntity
  8
0
  6
ByBlock
 62
     0
100
AcDbBlockReference
  2
_OPEN
 10
620.9291342036049
 20
2107.454481859345
 30
0.0
 41
60.0
 42
60.0
 43
60.0
 50
270.0
  0
INSERT
  5
8145
330
8251
100
AcDbEntity
  8
0
  6
ByBlock
 62
     0
100
AcDbBlockReference
  2
_OPEN
 10
620.9291342036049
 20
3748.454481859345
 30
0.0
 41
60.0
 42
60.0
 43
60.0
 50
90.0
  0
TEXT
  5
8146
330
8251
100
AcDbEntity
  8
3
 62
     0
100
AcDbText
 10
590.9291342036047
 20
2797.24019614506
 30
0.0
 40
90.0
  1
1641
 50
90.0
100
AcDbText
  0
POINT
  5
8147
330
8251
100
AcDbEntity
  8
DEFPOINTS
  6
ByBlock
 62
     0
100
AcDbPoint
 10
1142.672063394284
 20
2107.454481859345
 30
0.0
  0
POINT
  5
8148
330
8251
100
AcDbEntity
  8
DEFPOINTS
  6
ByBlock
 62
     0
100
AcDbPoint
 10
1052.672063394284
 20
3748.454481859345
 30
0.0
  0
POINT
  5
8149
330
8251
100
AcDbEntity
  8
DEFPOINTS
  6
ByBlock
 62
     0
100
AcDbPoint
 10
620.9291342036049
 20
3748.454481859345
 30
0.0
  0
ENDBLK
  5
814A
330
8251
100
AcDbEntity
  8
0
100
AcDbBlockEnd
  0
BLOCK
  5
82A5
330
82A4
100
AcDbEntity
  8
0
100
AcDbBlockBegin
  2
*D27
 70
     1
 10
0.0
 20
0.0
 30
0.0
  3
*D27
  1

  0
LINE
  5
82A7
330
82A4
100
AcDbEntity
  8
3
 62
     0
370
    -2
100
AcDbLine
 10
3767.728072562848
 20
3069.329481859346
 30
0.0
 11
3767.728072562848
 21
4162.622372330843
 31
0.0
  0
LINE
  5
82A8
330
82A4
100
AcDbEntity
  8
3
 62
     0
370
    -2
100
AcDbLine
 10
4665.728072562848
 20
4074.112520526027
 30
0.0
 11
4665.728072562848
 21
4162.622372330842
 31
0.0
  0
LINE
  5
82A9
330
82A4
100
AcDbEntity
  8
3
 62
     0
370
    -2
100
AcDbLine
 10
3773.128072562848
 20
4157.222372330842
 30
0.0
 11
4206.313786848562
 21
4157.222372330842
 31
0.0
  0
LINE
  5
82AA
330
82A4
100
AcDbEntity
  8
3
 62
     0
370
    -2
100
AcDbLine
 10
4660.328072562849
 20
4157.222372330842
 30
0.0
 11
4227.142358277134
 21
4157.222372330842
 31
0.0
  0
SOLID
  5
82AB
330
82A4
100
AcDbEntity
  8
3
 62
     0
100
AcDbTrace
 10
3773.128072562848
 20
4158.122372330842
 30
0.0
 11
3773.128072562848
 21
4156.322372330843
 31
0.0
 12
3767.728072562848
 22
4157.222372330842
 32
0.0
 13
3767.728072562848
 23
4157.222372330842
 33
0.0
  0
SOLID
  5
82AC
330
82A4
100
AcDbEntity
  8
3
 62
     0
100
AcDbTrace
 10
4660.328072562849
 20
4158.122372330842
 30
0.0
 11
4660.328072562849
 21
4156.322372330843
 31
0.0
 12
4665.728072562848
 22
4157.222372330842
 32
0.0
 13
4665.728072562848
 23
4157.222372330842
 33
0.0
  0
MTEXT
  5
82AD
330
82A4
100
AcDbEntity
  8
3
 62
     0
100
AcDbMText
 10
4216.728072562848
 20
4157.222372330842
 30
0.0
 40
5.399999999999999
 41
0.0
 71
     5
 72
     1
  1
\A1;MAX\P920
 73
     1
 44
1.0
1001
ACAD
1000
MTEXTBEGIN
1070
    73
1070
     1
1070
    44
1040
1.0
1070
    74
1070
     0
1000
MTEXTEND
  0
POINT
  5
82AE
330
82A4
100
AcDbEntity
  8
DEFPOINTS
 62
     0
100
AcDbPoint
 10
3767.728072562848
 20
3067.454481859346
 30
0.0
  0
POINT
  5
82AF
330
82A4
100
AcDbEntity
  8
DEFPOINTS
 62
     0
100
AcDbPoint
 10
4665.728072562848
 20
4072.237520526026
 30
0.0
  0
POINT
  5
82B0
330
82A4
100
AcDbEntity
  8
DEFPOINTS
 62
     0
100
AcDbPoint
 10
4665.728072562848
 20
4157.222372330842
 30
0.0
  0
ENDBLK
  5
82A6
330
82A4
100
AcDbEntity
  8
0
100
AcDbBlockEnd
  0
BLOCK
  5
82B3
330
82B2
100
AcDbEntity
  8
0
100
AcDbBlockBegin
  2
*D28
 70
     1
 10
0.0
 20
0.0
 30
0.0
  3
*D28
  1

  0
LINE
  5
82F8
330
82B2
100
AcDbEntity
  8
3
 62
     0
370
    -2
100
AcDbLine
 10
3715.728072562848
 20
3082.454481859346
 30
0.0
 11
3715.728072562848
 21
4169.774602648441
 31
0.0
  0
LINE
  5
82F9
330
82B2
100
AcDbEntity
  8
3
 62
     0
370
    -2
100
AcDbLine
 10
4665.728072562849
 20
4061.646435392971
 30
0.0
 11
4665.728072562849
 21
4169.774602648441
 31
0.0
  0
LINE
  5
82FA
330
82B2
100
AcDbEntity
  8
3
 62
     0
370
    -2
100
AcDbLine
 10
3775.728072562849
 20
4139.774602648442
 30
0.0
 11
4605.728072562849
 21
4139.774602648442
 31
0.0
  0
INSERT
  5
82FB
330
82B2
100
AcDbEntity
  8
3
 62
     0
370
    -2
100
AcDbBlockReference
  2
_OPEN
 10
3715.728072562848
 20
4139.774602648442
 30
0.0
 41
60.0
 42
60.0
 43
60.0
 50
180.0
  0
INSERT
  5
82FC
330
82B2
100
AcDbEntity
  8
3
 62
     0
370
    -2
100
AcDbBlockReference
  2
_OPEN
 10
4665.728072562849
 20
4139.774602648442
 30
0.0
 41
60.0
 42
60.0
 43
60.0
  0
MTEXT
  5
82FD
330
82B2
100
AcDbEntity
  8
3
 62
     0
100
AcDbMText
 10
4190.728072562849
 20
4238.346031219871
 30
0.0
 40
90.0
 41
0.0
 71
     5
 72
     1
  1
\A1;(950)
 73
     1
 44
1.0
1001
ACAD
1000
MTEXTBEGIN
1070
    73
1070
     1
1070
    44
1040
1.0
1070
    74
1070
     0
1000
MTEXTEND
  0
POINT
  5
82FE
330
82B2
100
AcDbEntity
  8
DEFPOINTS
 62
     0
100
AcDbPoint
 10
3715.728072562848
 20
3067.454481859346
 30
0.0
  0
POINT
  5
82FF
330
82B2
100
AcDbEntity
  8
DEFPOINTS
 62
     0
100
AcDbPoint
 10
4665.728072562849
 20
4046.646435392972
 30
0.0
  0
POINT
  5
8300
330
82B2
100
AcDbEntity
  8
DEFPOINTS
 62
     0
100
AcDbPoint
 10
4665.728072562849
 20
4139.774602648442
 30
0.0
  0
ENDBLK
  5
82B4
330
82B2
100
AcDbEntity
  8
0
100
AcDbBlockEnd
  0
BLOCK
  5
82C0
330
82BF
100
AcDbEntity
  8
0
100
AcDbBlockBegin
  2
*D29
 70
     1
 10
0.0
 20
0.0
 30
0.0
  3
*D29
  1

  0
LINE
  5
830A
330
82BF
100
AcDbEntity
  8
3
 62
     0
370
    -2
100
AcDbLine
 10
4665.728072562849
 20
4061.646435392971
 30
0.0
 11
4665.728072562849
 21
4169.774602648441
 31
0.0
  0
LINE
  5
830B
330
82BF
100
AcDbEntity
  8
3
 62
     0
370
    -2
100
AcDbLine
 10
5345.728072562848
 20
2762.954481859346
 30
0.0
 11
5345.728072562848
 21
4169.774602648441
 31
0.0
  0
LINE
  5
830C
330
82BF
100
AcDbEntity
  8
3
 62
     0
370
    -2
100
AcDbLine
 10
4725.72807256285
 20
4139.774602648442
 30
0.0
 11
5285.728072562847
 21
4139.774602648442
 31
0.0
  0
INSERT
  5
830D
330
82BF
100
AcDbEntity
  8
3
 62
     0
370
    -2
100
AcDbBlockReference
  2
_OPEN
 10
4665.728072562849
 20
4139.774602648442
 30
0.0
 41
60.0
 42
60.0
 43
60.0
 50
180.0
  0
INSERT
  5
830E
330
82BF
100
AcDbEntity
  8
3
 62
     0
370
    -2
100
AcDbBlockReference
  2
_OPEN
 10
5345.728072562848
 20
4139.774602648442
 30
0.0
 41
60.0
 42
60.0
 43
60.0
  0
MTEXT
  5
830F
330
82BF
100
AcDbEntity
  8
3
 62
     0
100
AcDbMText
 10
5005.728072562849
 20
4238.346031219871
 30
0.0
 40
90.0
 41
0.0
 71
     5
 72
     1
  1
\A1;(680)
 73
     1
 44
1.0
1001
ACAD
1000
MTEXTBEGIN
1070
    73
1070
     1
1070
    44
1040
1.0
1070
    74
1070
     0
1000
MTEXTEND
  0
POINT
  5
8310
330
82BF
100
AcDbEntity
  8
DEFPOINTS
 62
     0
100
AcDbPoint
 10
4665.728072562849
 20
4046.646435392972
 30
0.0
  0
POINT
  5
8311
330
82BF
100
AcDbEntity
  8
DEFPOINTS
 62
     0
100
AcDbPoint
 10
5345.728072562848
 20
2747.954481859345
 30
0.0
  0
POINT
  5
8312
330
82BF
100
AcDbEntity
  8
DEFPOINTS
 62
     0
100
AcDbPoint
 10
5345.728072562848
 20
4139.774602648442
 30
0.0
  0
ENDBLK
  5
82C1
330
82BF
100
AcDbEntity
  8
0
100
AcDbBlockEnd
  0
BLOCK
  5
8315
330
8314
100
AcDbEntity
  8
0
100
AcDbBlockBegin
  2
*D30
 70
     1
 10
0.0
 20
0.0
 30
0.0
  3
*D30
  1

  0
LINE
  5
8320
330
8314
100
AcDbEntity
  8
3
 62
     0
370
    -2
100
AcDbLine
 10
1687.672063394282
 20
5630.781332099682
 30
0.0
 11
1343.177741232823
 21
5630.781332099682
 31
0.0
  0
LINE
  5
8321
330
8314
100
AcDbEntity
  8
3
 62
     0
370
    -2
100
AcDbLine
 10
1407.672063394284
 20
4680.781332099682
 30
0.0
 11
1343.177741232823
 21
4680.781332099682
 31
0.0
  0
LINE
  5
8322
330
8314
100
AcDbEntity
  8
3
 62
     0
370
    -2
100
AcDbLine
 10
1373.177741232823
 20
5570.781332099682
 30
0.0
 11
1373.177741232823
 21
4740.781332099682
 31
0.0
  0
INSERT
  5
8323
330
8314
100
AcDbEntity
  8
3
 62
     0
370
    -2
100
AcDbBlockReference
  2
_OPEN
 10
1373.177741232823
 20
5630.781332099682
 30
0.0
 41
60.0
 42
60.0
 43
60.0
 50
90.0
  0
INSERT
  5
8324
330
8314
100
AcDbEntity
  8
3
 62
     0
370
    -2
100
AcDbBlockReference
  2
_OPEN
 10
1373.177741232823
 20
4680.781332099682
 30
0.0
 41
60.0
 42
60.0
 43
60.0
 50
270.0
  0
MTEXT
  5
8325
330
8314
100
AcDbEntity
  8
3
 62
     0
100
AcDbMText
 10
1298.177741232822
 20
5155.781332099682
 30
0.0
 40
90.0
 41
0.0
 71
     5
 72
     1
  1
\A1;950
 11
0.0000000000000001
 21
1.0
 31
0.0
 73
     1
 44
1.0
1001
ACAD
1000
MTEXTBEGIN
1070
    73
1070
     1
1070
    44
1040
1.0
1070
    74
1070
     0
1000
MTEXTEND
  0
POINT
  5
8326
330
8314
100
AcDbEntity
  8
DEFPOINTS
 62
     0
100
AcDbPoint
 10
1702.672063394282
 20
5630.781332099682
 30
0.0
  0
POINT
  5
8327
330
8314
100
AcDbEntity
  8
DEFPOINTS
 62
     0
100
AcDbPoint
 10
1422.672063394284
 20
4680.781332099682
 30
0.0
  0
POINT
  5
8328
330
8314
100
AcDbEntity
  8
DEFPOINTS
 62
     0
100
AcDbPoint
 10
1373.177741232823
 20
4680.781332099682
 30
0.0
  0
ENDBLK
  5
8316
330
8314
100
AcDbEntity
  8
0
100
AcDbBlockEnd
  0
BLOCK
  5
832A
330
8329
100
AcDbEntity
  8
0
100
AcDbBlockBegin
  2
*D31
 70
     1
 10
0.0
 20
0.0
 30
0.0
  3
*D31
  1

  0
LINE
  5
832C
330
8329
100
AcDbEntity
  8
3
 62
     0
370
    -2
100
AcDbLine
 10
3012.672063394282
 20
4866.906332099682
 30
0.0
 11
3012.672063394282
 21
4466.23417261761
 31
0.0
  0
LINE
  5
832D
330
8329
100
AcDbEntity
  8
3
 62
     0
370
    -2
100
AcDbLine
 10
1142.672063394282
 20
4866.906332099682
 30
0.0
 11
1142.672063394282
 21
4466.23417261761
 31
0.0
  0
LINE
  5
832E
330
8329
100
AcDbEntity
  8
3
 62
     0
370
    -2
100
AcDbLine
 10
3007.272063394282
 20
4471.634172617609
 30
0.0
 11
2100.94349196571
 21
4471.634172617609
 31
0.0
  0
LINE
  5
832F
330
8329
100
AcDbEntity
  8
3
 62
     0
370
    -2
100
AcDbLine
 10
1148.072063394282
 20
4471.634172617609
 30
0.0
 11
2054.400634822853
 21
4471.634172617609
 31
0.0
  0
SOLID
  5
8330
330
8329
100
AcDbEntity
  8
3
 62
     0
100
AcDbTrace
 10
3007.272063394282
 20
4472.534172617609
 30
0.0
 11
3007.272063394282
 21
4470.73417261761
 31
0.0
 12
3012.672063394282
 22
4471.634172617609
 32
0.0
 13
3012.672063394282
 23
4471.634172617609
 33
0.0
  0
SOLID
  5
8331
330
8329
100
AcDbEntity
  8
3
 62
     0
100
AcDbTrace
 10
1148.072063394282
 20
4472.534172617609
 30
0.0
 11
1148.072063394282
 21
4470.73417261761
 31
0.0
 12
1142.672063394282
 22
4471.634172617609
 32
0.0
 13
1142.672063394282
 23
4471.634172617609
 33
0.0
  0
MTEXT
  5
8332
330
8329
100
AcDbEntity
  8
3
 62
     0
100
AcDbMText
 10
2077.672063394282
 20
4471.634172617609
 30
0.0
 40
5.399999999999999
 41
0.0
 71
     5
 72
     1
  1
\A1;1870.0000
 73
     1
 44
1.0
1001
ACAD
1000
MTEXTBEGIN
1070
    73
1070
     1
1070
    44
1040
1.0
1070
    74
1070
     0
1000
MTEXTEND
  0
POINT
  5
8333
330
8329
100
AcDbEntity
  8
DEFPOINTS
 62
     0
100
AcDbPoint
 10
3012.672063394282
 20
4868.781332099683
 30
0.0
  0
POINT
  5
8334
330
8329
100
AcDbEntity
  8
DEFPOINTS
 62
     0
100
AcDbPoint
 10
1142.672063394282
 20
4868.781332099683
 30
0.0
  0
POINT
  5
8335
330
8329
100
AcDbEntity
  8
DEFPOINTS
 62
     0
100
AcDbPoint
 10
1142.672063394282
 20
4471.634172617609
 30
0.0
  0
ENDBLK
  5
832B
330
8329
100
AcDbEntity
  8
0
100
AcDbBlockEnd
  0
BLOCK
  5
8338
330
8337
100
AcDbEntity
  8
0
100
AcDbBlockBegin
  2
*D32
 70
     1
 10
0.0
 20
0.0
 30
0.0
  3
*D32
  1

  0
LINE
  5
833A
330
8337
100
AcDbEntity
  8
3
 62
     0
370
    -2
100
AcDbLine
 10
1142.672063394283
 20
4853.781332099682
 30
0.0
 11
1142.672063394283
 21
4416.846342093787
 31
0.0
  0
LINE
  5
833B
330
8337
100
AcDbEntity
  8
3
 62
     0
370
    -2
100
AcDbLine
 10
3012.672063394282
 20
4853.781332099682
 30
0.0
 11
3012.672063394282
 21
4416.846342093787
 31
0.0
  0
LINE
  5
833C
330
8337
100
AcDbEntity
  8
3
 62
     0
370
    -2
100
AcDbLine
 10
1202.672063394283
 20
4446.846342093787
 30
0.0
 11
2952.672063394281
 21
4446.846342093787
 31
0.0
  0
INSERT
  5
833D
330
8337
100
AcDbEntity
  8
3
 62
     0
370
    -2
100
AcDbBlockReference
  2
_OPEN
 10
1142.672063394283
 20
4446.846342093787
 30
0.0
 41
60.0
 42
60.0
 43
60.0
 50
180.0
  0
INSERT
  5
833E
330
8337
100
AcDbEntity
  8
3
 62
     0
370
    -2
100
AcDbBlockReference
  2
_OPEN
 10
3012.672063394282
 20
4446.846342093787
 30
0.0
 41
60.0
 42
60.0
 43
60.0
  0
MTEXT
  5
833F
330
8337
100
AcDbEntity
  8
3
 62
     0
100
AcDbMText
 10
2077.672063394282
 20
4521.846342093787
 30
0.0
 40
90.0
 41
0.0
 71
     5
 72
     1
  1
\A1;1870
 73
     1
 44
1.0
1001
ACAD
1000
MTEXTBEGIN
1070
    73
1070
     1
1070
    44
1040
1.0
1070
    74
1070
     0
1000
MTEXTEND
  0
POINT
  5
8340
330
8337
100
AcDbEntity
  8
DEFPOINTS
 62
     0
100
AcDbPoint
 10
1142.672063394283
 20
4868.781332099683
 30
0.0
  0
POINT
  5
8341
330
8337
100
AcDbEntity
  8
DEFPOINTS
 62
     0
100
AcDbPoint
 10
3012.672063394282
 20
4868.781332099683
 30
0.0
  0
POINT
  5
8342
330
8337
100
AcDbEntity
  8
DEFPOINTS
 62
     0
100
AcDbPoint
 10
3012.672063394282
 20
4446.846342093787
 30
0.0
  0
ENDBLK
  5
8339
330
8337
100
AcDbEntity
  8
0
100
AcDbBlockEnd
  0
ENDSEC
  0
SECTION
  2
ENTITIES
  0
INSERT
  5
7C33
330
820E
100
AcDbEntity
  8
0
100
AcDbBlockReference
  2
YA_N
 10
6.0
 20
5.0
 30
0.0
  0
LINE
  5
7C35
330
820E
100
AcDbEntity
  8
2
100
AcDbLine
 10
1046.416724615736
 20
2787.454481859346
 30
0.0
 11
2547.996818032976
 21
2787.454481859346
 31
0.0
  0
LINE
  5
7C36
330
820E
100
AcDbEntity
  8
2
100
AcDbLine
 10
1702.672063394284
 20
3789.416924202903
 30
0.0
 11
1702.672063394284
 21
2107.454481859345
 31
0.0
  0
ARC
  5
7C37
330
820E
100
AcDbEntity
  8
1
100
AcDbCircle
 10
1635.672063394284
 20
2854.454481859345
 30
0.0
 40
844.0
100
AcDbArc
 50
355.4468476127809
 51
85.44684761278093
  0
ARC
  5
7C38
330
820E
100
AcDbEntity
  8
1
100
AcDbCircle
 10
1769.672063394284
 20
2854.454481859345
 30
0.0
 40
710.0
100
AcDbArc
 50
294.318882792005
 51
354.5851582938705
  0
ARC
  5
7C39
330
820E
100
AcDbEntity
  8
1
100
AcDbCircle
 10
1756.172063394284
 20
2733.954481859345
 30
0.0
 40
589.5
100
AcDbArc
 50
174.7929639116505
 51
243.2692061508288
  0
LINE
  5
7C3A
330
820E
100
AcDbEntity
  8
1
100
AcDbLine
 10
1082.672063394284
 20
3790.954481859346
 30
0.0
 11
1082.672063394284
 21
2780.954481859346
 31
0.0
  0
LINE
  5
7C3B
330
820E
100
AcDbEntity
  8
1
100
AcDbLine
 10
1082.672063394284
 20
2823.454481859346
 30
0.0
 11
1167.882385109446
 21
2823.454481859346
 31
0.0
  0
LINE
  5
7C3C
330
820E
100
AcDbEntity
  8
1
100
AcDbLine
 10
1082.672063394284
 20
3748.454481859345
 30
0.0
 11
1702.672063394284
 21
3695.79091872631
 31
0.0
  0
LINE
  5
7C3D
330
820E
100
AcDbEntity
  8
1
100
AcDbLine
 10
1082.672063394284
 20
3790.954481859346
 30
0.0
 11
1085.672063394284
 21
3790.954481859346
 31
0.0
  0
LINE
  5
7C3E
330
820E
100
AcDbEntity
  8
1
100
AcDbLine
 10
1082.672063394284
 20
2780.954481859346
 30
0.0
 11
1085.672063394284
 21
2780.954481859346
 31
0.0
  0
LINE
  5
7C3F
330
820E
100
AcDbEntity
  8
1
100
AcDbLine
 10
1122.672063394284
 20
3745.056832624956
 30
0.0
 11
1122.672063394284
 21
2823.454481859346
 31
0.0
  0
LINE
  5
7C40
330
820E
100
AcDbEntity
  8
1
100
AcDbLine
 10
1085.672063394284
 20
3790.954481859346
 30
0.0
 11
1085.672063394284
 21
2780.954481859346
 31
0.0
  0
LINE
  5
7C41
330
820E
100
AcDbEntity
  8
1
100
AcDbLine
 10
3012.672063394282
 20
2207.454481859346
 30
0.0
 11
3012.672063394282
 21
2107.454481859345
 31
0.0
  0
LINE
  5
7C42
330
820E
100
AcDbEntity
  8
1
100
AcDbLine
 10
1142.672063394284
 20
2207.454481859346
 30
0.0
 11
1142.672063394284
 21
2107.454481859345
 31
0.0
  0
LINE
  5
7C43
330
820E
100
AcDbEntity
  8
1
100
AcDbLine
 10
3012.672063394282
 20
2107.454481859345
 30
0.0
 11
1142.672063394282
 21
2107.454481859345
 31
0.0
1001
ACAD
1000
ASC_BOUNDS
1002
{
1070
    19
1002
}
  0
LINE
  5
7C44
330
820E
100
AcDbEntity
  8
1
100
AcDbLine
 10
3012.672063394282
 20
2207.454481859346
 30
0.0
 11
1142.672063394282
 21
2207.454481859346
 31
0.0
  0
LINE
  5
7C45
330
820E
100
AcDbEntity
  8
2
100
AcDbLine
 10
2762.672063394284
 20
2775.45697285545
 30
0.0
 11
2762.672063394284
 21
2107.454481859345
 31
0.0
  0
LINE
  5
7C46
330
820E
100
AcDbEntity
  8
2
100
AcDbLine
 10
3123.608031519879
 20
2482.454481859345
 30
0.0
 11
2547.82913694045
 21
2482.454481859345
 31
0.0
  0
LINE
  5
7C47
330
820E
100
AcDbEntity
  8
1
100
AcDbLine
 10
5225.72807256285
 20
3748.454481859345
 30
0.0
 11
5225.72807256285
 21
2823.454481859346
 31
0.0
  0
LINE
  5
7C48
330
820E
100
AcDbEntity
  8
1
100
AcDbLine
 10
3903.728072562842
 20
2107.454481859345
 30
0.0
 11
5278.728072562858
 21
2107.454481859345
 31
0.0
1001
ACAD
1000
ASC_BOUNDS
1002
{
1070
    19
1005
0
1005
0
1005
0
1005
0
1002
}
  0
LINE
  5
7C49
330
820E
100
AcDbEntity
  8
1
100
AcDbLine
 10
3903.72807256285
 20
2207.454481859346
 30
0.0
 11
5278.72807256285
 21
2207.454481859346
 31
0.0
  0
LINE
  5
7C4A
330
820E
100
AcDbEntity
  8
1
100
AcDbLine
 10
3903.72807256285
 20
2207.454481859346
 30
0.0
 11
3903.728072562842
 21
2107.454481859345
 31
0.0
  0
LINE
  5
7C4B
330
820E
100
AcDbEntity
  8
1
100
AcDbLine
 10
5278.72807256285
 20
2207.454481859346
 30
0.0
 11
5278.728072562858
 21
2107.454481859345
 31
0.0
  0
LINE
  5
7C4C
330
820E
100
AcDbEntity
  8
1
100
AcDbLine
 10
4665.728072562849
 20
3748.454481859345
 30
0.0
 11
5225.72807256285
 21
3748.454481859345
 31
0.0
  0
LINE
  5
7C4D
330
820E
100
AcDbEntity
  8
2
100
AcDbLine
 10
3723.148973917151
 20
2787.454481859346
 30
0.0
 11
5376.247720320588
 21
2787.454481859346
 31
0.0
  0
LINE
  5
7C4E
330
820E
100
AcDbEntity
  8
1
100
AcDbLine
 10
5216.22807256285
 20
2107.454481859345
 30
0.0
 11
5278.728072562858
 21
2107.454481859345
 31
0.0
1001
ACAD
1000
ASC_BOUNDS
1002
{
1070
    19
1005
0
1005
0
1002
}
  0
LINE
  5
7C4F
330
820E
100
AcDbEntity
  8
2
100
AcDbLine
 10
4665.728072562849
 20
3920.673423095367
 30
0.0
 11
4665.728072562848
 21
2107.454481859345
 31
0.0
  0
POINT
  5
7C50
330
820E
100
AcDbEntity
  8
1
100
AcDbPoint
 10
2476.503726522076
 20
2762.454481859346
 30
0.0
  0
INSERT
  5
7C51
330
820E
100
AcDbEntity
  8
0
100
AcDbBlockReference
  2
YA_N
 10
-1638.667820090515
 20
-980.7401201518075
 30
0.0
 41
20.0
 42
20.0
 43
20.0
  0
INSERT
  5
7C53
330
820E
100
AcDbEntity
  8
0
100
AcDbBlockReference
  2
YA_N
 10
-1552.816625123014
 20
-1070.405552057982
 30
0.0
 41
20.0
 42
20.0
 43
20.0
  0
ARC
  5
7C55
330
820E
100
AcDbEntity
  8
1
100
AcDbCircle
 10
2762.672063394284
 20
2482.454481859345
 30
0.0
 40
185.0
100
AcDbArc
 50
287.9452509999999
 51
252.054749
  0
LINE
  5
7C56
330
820E
100
AcDbEntity
  8
1
100
AcDbLine
 10
2705.672063394284
 20
2306.454481859345
 30
0.0
 11
2819.672063394284
 21
2306.454481859345
 31
0.0
  0
LINE
  5
7C58
330
820E
100
AcDbEntity
  8
1
100
AcDbLine
 10
2600.672063394284
 20
2377.713514859346
 30
0.0
 11
2600.672063394284
 21
2302.454481859345
 31
0.0
  0
LINE
  5
7C59
330
820E
100
AcDbEntity
  8
1
100
AcDbLine
 10
2660.172063394285
 20
2307.603040859345
 30
0.0
 11
2669.678777394283
 21
2322.525648859345
 31
0.0
  0
LINE
  5
7C5C
330
820E
100
AcDbEntity
  8
1
100
AcDbLine
 10
2660.172063394285
 20
2319.454481859345
 30
0.0
 11
2660.172063394285
 21
2302.454481859345
 31
0.0
  0
LINE
  5
7C5E
330
820E
100
AcDbEntity
  8
1
100
AcDbLine
 10
2657.172063394285
 20
2322.454481859345
 30
0.0
 11
2603.672063394284
 21
2322.454481859345
 31
0.0
  0
ARC
  5
7C5F
330
820E
100
AcDbEntity
  8
1
100
AcDbCircle
 10
2603.672063394284
 20
2319.454481859345
 30
0.0
 40
3.0
100
AcDbArc
 50
90.0
 51
180.0
  0
LINE
  5
7C66
330
820E
100
AcDbEntity
  8
1
100
AcDbLine
 10
2651.848150394284
 20
2322.454481859345
 30
0.0
 11
2657.027898394284
 21
2330.585096859346
 31
0.0
  0
ARC
  5
7C68
330
820E
100
AcDbEntity
  8
1
100
AcDbCircle
 10
2657.172063394285
 20
2319.454481859345
 30
0.0
 40
3.0
100
AcDbArc
 50
0.0
 51
90.0
  0
LINE
  5
7C69
330
820E
100
AcDbEntity
  8
1
100
AcDbLine
 10
2600.672063394284
 20
2377.713514859346
 30
0.0
 11
2607.056035394283
 21
2382.411268859346
 31
0.0
  0
LINE
  5
7C6E
330
820E
100
AcDbEntity
  8
1
100
AcDbLine
 10
2865.172063394284
 20
2307.603040859345
 30
0.0
 11
2855.665349394283
 21
2322.525648859345
 31
0.0
  0
LINE
  5
7C72
330
820E
100
AcDbEntity
  8
1
100
AcDbLine
 10
2865.172063394284
 20
2319.454481859345
 30
0.0
 11
2865.172063394284
 21
2302.454481859345
 31
0.0
  0
LINE
  5
7C73
330
820E
100
AcDbEntity
  8
1
100
AcDbLine
 10
2924.672063394285
 20
2377.713514859346
 30
0.0
 11
2924.672063394285
 21
2302.454481859345
 31
0.0
  0
LINE
  5
7C75
330
820E
100
AcDbEntity
  8
1
100
AcDbLine
 10
2868.172063394284
 20
2322.454481859345
 30
0.0
 11
2921.672063394284
 21
2322.454481859345
 31
0.0
  0
LINE
  5
7C77
330
820E
100
AcDbEntity
  8
1
100
AcDbLine
 10
2873.495977394283
 20
2322.454481859345
 30
0.0
 11
2868.316228394284
 21
2330.585096859346
 31
0.0
  0
ARC
  5
7C78
330
820E
100
AcDbEntity
  8
1
100
AcDbCircle
 10
2868.172063394284
 20
2319.454481859345
 30
0.0
 40
3.0
100
AcDbArc
 50
90.0
 51
180.0
  0
ARC
  5
7C79
330
820E
100
AcDbEntity
  8
1
100
AcDbCircle
 10
2921.672063394284
 20
2319.454481859345
 30
0.0
 40
3.0
100
AcDbArc
 50
0.0
 51
90.0
  0
LINE
  5
7C84
330
820E
100
AcDbEntity
  8
1
100
AcDbLine
 10
2924.672063394285
 20
2377.713514859346
 30
0.0
 11
2918.288152394283
 21
2382.411268859346
 31
0.0
  0
LINE
  5
7C85
330
820E
100
AcDbEntity
  8
1
100
AcDbLine
 10
2987.672063394284
 20
2247.454481859346
 30
0.0
 11
2537.672063394284
 21
2247.454481859346
 31
0.0
  0
LINE
  5
7C86
330
820E
100
AcDbEntity
  8
1
100
AcDbLine
 10
2962.672063394284
 20
2247.454481859346
 30
0.0
 11
2962.672063394284
 21
2207.454481859346
 31
0.0
  0
LINE
  5
7C87
330
820E
100
AcDbEntity
  8
1
100
AcDbLine
 10
2562.672063394284
 20
2247.454481859346
 30
0.0
 11
2562.672063394284
 21
2207.454481859346
 31
0.0
  0
LINE
  5
7C88
330
820E
100
AcDbEntity
  8
1
100
AcDbLine
 10
2972.773601795407
 20
2302.454481859345
 30
0.0
 11
2832.672063394284
 21
2302.454481859345
 31
0.0
  0
LINE
  5
7C89
330
820E
100
AcDbEntity
  8
1
100
AcDbLine
 10
2537.672063394284
 20
2247.454481859346
 30
0.0
 11
2552.874380028796
 21
2302.454481859345
 31
0.0
  0
LINE
  5
7C8A
330
820E
100
AcDbEntity
  8
1
100
AcDbLine
 10
2987.672063394284
 20
2247.454481859346
 30
0.0
 11
2972.773601795407
 21
2302.454481859345
 31
0.0
  0
LINE
  5
7C8C
330
820E
100
AcDbEntity
  8
1
100
AcDbLine
 10
2832.672063394284
 20
2292.454481859345
 30
0.0
 11
2692.672063394284
 21
2292.454481859345
 31
0.0
  0
LINE
  5
7C8D
330
820E
100
AcDbEntity
  8
1
100
AcDbLine
 10
2832.672063394284
 20
2302.454481859345
 30
0.0
 11
2832.672063394284
 21
2292.454481859345
 31
0.0
  0
LINE
  5
7C8E
330
820E
100
AcDbEntity
  8
1
100
AcDbLine
 10
2692.672063394284
 20
2302.454481859345
 30
0.0
 11
2692.672063394284
 21
2292.454481859345
 31
0.0
  0
LINE
  5
7C8F
330
820E
100
AcDbEntity
  8
1
100
AcDbLine
 10
2692.672063394284
 20
2302.454481859345
 30
0.0
 11
2552.874380028796
 21
2302.454481859345
 31
0.0
  0
DIMENSION
  5
7C96
330
820E
100
AcDbEntity
  8
3
100
AcDbDimension
  2
*D4
 10
933.0569549510727
 20
2823.454481859346
 30
0.0
 11
873.0569549510729
 21
3285.954481859345
 31
0.0
 12
1637.673186027797
 22
2507.276386444882
 32
0.0
 71
     5
 42
-1.0
  3
Standard
100
AcDbAlignedDimension
 13
1082.672063394284
 23
3748.454481859345
 33
0.0
 14
1082.672063394284
 24
2823.454481859346
 34
0.0
 50
90.0
100
AcDbRotatedDimension
1001
ACAD
1000
DSTYLE
1002
{
1070
    40
1040
30.0
1002
}
  0
DIMENSION
  5
7C97
330
820E
100
AcDbEntity
  8
3
100
AcDbDimension
  2
*D5
 10
782.7136548532108
 20
2787.454481859346
 30
0.0
 11
722.7136548532107
 21
3267.954481859345
 31
0.0
 12
1637.673186027797
 22
2507.276386444882
 32
0.0
 71
     5
 42
-1.0
  3
Standard
100
AcDbAlignedDimension
 13
1082.672063394284
 23
3748.454481859345
 33
0.0
 14
1046.416724615736
 24
2787.454481859346
 34
0.0
 50
90.0
100
AcDbRotatedDimension
1001
ACAD
1000
DSTYLE
1002
{
1070
    40
1040
30.0
1002
}
  0
DIMENSION
  5
7C98
330
820E
100
AcDbEntity
  8
3
100
AcDbDimension
  2
*D6
 10
782.7136548532108
 20
2107.454481859345
 30
0.0
 11
722.7136548532107
 21
2447.454481859345
 31
0.0
 12
1637.673186027797
 22
2507.276386444882
 32
0.0
 71
     5
 42
-1.0
  3
Standard
100
AcDbAlignedDimension
 13
1046.416724615736
 23
2787.454481859346
 33
0.0
 14
1142.672063394282
 24
2107.454481859345
 34
0.0
 50
90.0
100
AcDbRotatedDimension
1001
ACAD
1000
DSTYLE
1002
{
1070
    40
1040
30.0
1002
}
  0
POINT
  5
7C9C
330
820E
100
AcDbEntity
  8
1
100
AcDbPoint
 10
1142.672063394284
 20
2107.454481859345
 30
0.0
  0
DIMENSION
  5
7C9D
330
820E
100
AcDbEntity
  8
3
100
AcDbDimension
  2
*D7
 10
1702.672063394284
 20
3941.848891574977
 30
0.0
 11
1392.672063394284
 21
4001.848891574977
 31
0.0
 12
1637.673186027797
 22
2507.276386444882
 32
0.0
 71
     5
 42
-1.0
  3
Standard
100
AcDbAlignedDimension
 13
1082.672063394284
 23
3790.954481859346
 33
0.0
 14
1702.672063394284
 24
3789.416924202903
 34
0.0
100
AcDbRotatedDimension
1001
ACAD
1000
DSTYLE
1002
{
1070
    40
1040
30.0
1002
}
  0
DIMENSION
  5
7C9E
330
820E
100
AcDbEntity
  8
3
100
AcDbDimension
  2
*D8
 10
2476.503726522075
 20
3942.092091564402
 30
0.0
 11
2089.587894958179
 21
4002.092091564401
 31
0.0
 12
1637.673186027797
 22
2507.276386444882
 32
0.0
  1
777
 71
     5
 42
-1.0
  3
Standard
100
AcDbAlignedDimension
 13
1702.672063394284
 23
3789.416924202903
 33
0.0
 14
2476.503726522075
 24
2787.454481859346
 34
0.0
100
AcDbRotatedDimension
1001
ACAD
1000
DSTYLE
1002
{
1070
    40
1040
30.0
1002
}
  0
CIRCLE
  5
7C9F
330
820E
100
AcDbEntity
  8
1
100
AcDbCircle
 10
2762.672063394284
 20
2482.454481859345
 30
0.0
 40
119.0
  0
LINE
  5
7CA0
330
820E
100
AcDbEntity
  8
1
100
AcDbLine
 10
5225.72807256285
 20
2823.454481859345
 30
0.0
 11
5225.72807256285
 21
2207.454481859346
 31
0.0
  0
LINE
  5
7CA1
330
820E
100
AcDbEntity
  8
1
100
AcDbLine
 10
4105.728072562849
 20
3748.454481859345
 30
0.0
 11
4105.728072562849
 21
2787.454481859346
 31
0.0
  0
LINE
  5
7CA2
330
820E
100
AcDbEntity
  8
1
100
AcDbLine
 10
4665.728072562848
 20
3748.454481859345
 30
0.0
 11
4105.728072562849
 21
3748.454481859345
 31
0.0
  0
LINE
  5
7CA3
330
820E
100
AcDbEntity
  8
1
100
AcDbLine
 10
4105.728072562849
 20
2787.454481859346
 30
0.0
 11
4105.728072562849
 21
2664.954481859347
 31
0.0
  0
LINE
  5
7CA4
330
820E
100
AcDbEntity
  8
1
100
AcDbLine
 10
3977.72807256285
 20
2761.654481859345
 30
0.0
 11
4053.428072562851
 21
2761.654481859345
 31
0.0
  0
LINE
  5
7CA5
330
820E
100
AcDbEntity
  8
1
100
AcDbLine
 10
3967.72807256285
 20
2751.654481859346
 30
0.0
 11
3967.72807256285
 21
2664.954481859347
 31
0.0
  0
LINE
  5
7CA6
330
820E
100
AcDbEntity
  8
1
100
AcDbLine
 10
4092.728072562849
 20
2761.654481859345
 30
0.0
 11
4092.72807256285
 21
2664.954481859347
 31
0.0
  0
ARC
  5
7CA7
330
820E
100
AcDbEntity
  8
1
100
AcDbCircle
 10
3977.72807256285
 20
2751.654481859346
 30
0.0
 40
10.0
100
AcDbArc
 50
90.0
 51
180.0000000000003
  0
LINE
  5
7CA8
330
820E
100
AcDbEntity
  8
1
100
AcDbLine
 10
4053.428072562851
 20
2761.654481859345
 30
0.0
 11
4092.72807256285
 21
2761.654481859345
 31
0.0
  0
LINE
  5
7CA9
330
820E
100
AcDbEntity
  8
1
100
AcDbLine
 10
5345.728072562848
 20
2747.954481859345
 30
0.0
 11
5345.728072562848
 21
2647.954481859346
 31
0.0
  0
LINE
  5
7CAA
330
820E
100
AcDbEntity
  8
1
100
AcDbLine
 10
5245.228072562849
 20
2757.954481859345
 30
0.0
 11
5245.228072562849
 21
2637.954481859345
 31
0.0
  0
LINE
  5
7CAB
330
820E
100
AcDbEntity
  8
1
100
AcDbLine
 10
5245.228072562849
 20
2757.954481859345
 30
0.0
 11
5278.028072562849
 21
2757.954481859345
 31
0.0
  0
LINE
  5
7CAC
330
820E
100
AcDbEntity
  8
1
100
AcDbLine
 10
5245.228072562849
 20
2637.954481859345
 30
0.0
 11
5278.028072562849
 21
2637.954481859345
 31
0.0
  0
ARC
  5
7CAD
330
820E
100
AcDbEntity
  8
1
100
AcDbCircle
 10
5335.728072562849
 20
2747.954481859345
 30
0.0
 40
10.0
100
AcDbArc
 50
0.0000000000003257
 51
90.0
  0
ARC
  5
7CAE
330
820E
100
AcDbEntity
  8
1
100
AcDbCircle
 10
5335.728072562849
 20
2647.954481859346
 30
0.0
 40
10.0
100
AcDbArc
 50
270.0
 51
0.0000000000003257
  0
LINE
  5
7CAF
330
820E
100
AcDbEntity
  8
1
100
AcDbLine
 10
5278.028072562849
 20
2637.954481859345
 30
0.0
 11
5335.728072562849
 21
2637.954481859345
 31
0.0
  0
LINE
  5
7CB0
330
820E
100
AcDbEntity
  8
1
100
AcDbLine
 10
5278.028072562849
 20
2757.954481859345
 30
0.0
 11
5335.728072562849
 21
2757.954481859345
 31
0.0
  0
LINE
  5
7CB1
330
820E
100
AcDbEntity
  8
1
100
AcDbLine
 10
3952.72807256285
 20
2817.454481859346
 30
0.0
 11
3952.72807256285
 21
2757.454481859346
 31
0.0
  0
LINE
  5
7CB2
330
820E
100
AcDbEntity
  8
1
100
AcDbLine
 10
3947.728072562849
 20
2814.954481859345
 30
0.0
 11
3952.72807256285
 21
2814.954481859345
 31
0.0
  0
LINE
  5
7CB3
330
820E
100
AcDbEntity
  8
1
100
AcDbLine
 10
3947.728072562849
 20
2759.954481859345
 30
0.0
 11
3952.72807256285
 21
2759.954481859345
 31
0.0
  0
LINE
  5
7CB4
330
820E
100
AcDbEntity
  8
1
100
AcDbLine
 10
3837.728072562851
 20
2990.654481859345
 30
0.0
 11
3837.728072562847
 21
2363.454481859345
 31
0.0
  0
LINE
  5
7CB5
330
820E
100
AcDbEntity
  8
1
100
AcDbLine
 10
3947.728072562851
 20
2990.654481859345
 30
0.0
 11
3947.728072562847
 21
2363.454481859345
 31
0.0
  0
LINE
  5
7CB6
330
820E
100
AcDbEntity
  8
2
100
AcDbLine
 10
3805.083980095519
 20
2482.454481859345
 30
0.0
 11
4550.008860806756
 21
2482.454481859345
 31
0.0
  0
LINE
  5
7CB7
330
820E
100
AcDbEntity
  8
1
100
AcDbLine
 10
3837.728072562848
 20
2601.454481859346
 30
0.0
 11
3947.728072562848
 21
2601.454481859346
 31
0.0
  0
LINE
  5
7CB8
330
820E
100
AcDbEntity
  8
1
100
AcDbLine
 10
3837.728072562847
 20
2363.454481859345
 30
0.0
 11
3947.728072562847
 21
2363.454481859345
 31
0.0
  0
LINE
  5
7CB9
330
820E
100
AcDbEntity
  8
1
100
AcDbLine
 10
3715.728072562848
 20
3067.454481859346
 30
0.0
 11
3715.728072562853
 21
2262.454481859345
 31
0.0
  0
LINE
  5
7CBA
330
820E
100
AcDbEntity
  8
1
100
AcDbLine
 10
3715.728072562851
 20
2262.454481859345
 30
0.0
 11
3967.728072562853
 21
2262.454481859345
 31
0.0
  0
LINE
  5
7CBB
330
820E
100
AcDbEntity
  8
1
100
AcDbLine
 10
3967.728072562845
 20
3067.454481859346
 30
0.0
 11
3967.728072562847
 21
3047.454481859345
 31
0.0
  0
LINE
  5
7CBC
330
820E
100
AcDbEntity
  8
1
100
AcDbLine
 10
3967.728072562851
 20
2282.454481859346
 30
0.0
 11
3967.728072562851
 21
2262.454481859345
 31
0.0
  0
POINT
  5
7CBD
330
820E
100
AcDbEntity
  8
1
100
AcDbPoint
 10
5345.728072562848
 20
2747.954481859345
 30
0.0
  0
LINE
  5
7CBE
330
820E
100
AcDbEntity
  8
2
100
AcDbLine
 10
3172.543990759188
 20
5630.781332099684
 30
0.0
 11
1029.309985681286
 21
5630.781332099681
 31
0.0
  0
LINE
  5
7CBF
330
820E
100
AcDbEntity
  8
2
100
AcDbLine
 10
1702.672063394282
 20
4629.522623345396
 30
0.0
 11
1702.672063394282
 21
6165.289714971009
 31
0.0
  0
INSERT
  5
7CC0
330
820E
100
AcDbEntity
  8
0
100
AcDbBlockReference
  2
YA_N
 10
1902.396177633552
 20
-2784.746590060132
 30
0.0
  0
LINE
  5
7CC2
330
820E
100
AcDbEntity
  8
1
100
AcDbLine
 10
5278.72807256285
 20
2112.985986930012
 30
0.0
 11
5278.72807256285
 21
2107.454481859345
 31
0.0
  0
LINE
  5
7CC8
330
820E
100
AcDbEntity
  8
1
100
AcDbLine
 10
3952.72807256285
 20
2817.454481859346
 30
0.0
 11
4105.728072562849
 21
2817.454481859346
 31
0.0
  0
LINE
  5
7CC9
330
820E
100
AcDbEntity
  8
1
100
AcDbLine
 10
3952.72807256285
 20
2757.454481859346
 30
0.0
 11
3969.581907821083
 21
2757.454481859346
 31
0.0
  0
POINT
  5
7CD1
330
820E
100
AcDbEntity
  8
1
100
AcDbPoint
 10
1142.672063394282
 20
2107.454481859345
 30
0.0
  0
ARC
  5
7CD2
330
820E
100
AcDbEntity
  8
1
100
AcDbCircle
 10
1702.672063394284
 20
2787.454481859346
 30
0.0
 40
536.0
100
AcDbArc
 50
176.1488768735023
 51
180.0
  0
CIRCLE
  5
7CD3
330
820E
100
AcDbEntity
  8
1
100
AcDbCircle
 10
1702.672063394284
 20
2787.454481859346
 30
0.0
 40
203.2
  0
ARC
  5
7CD4
330
820E
100
AcDbEntity
  8
1
100
AcDbCircle
 10
1702.672063394284
 20
2787.454481859346
 30
0.0
 40
280.0
100
AcDbArc
 50
70.82933319943862
 51
257.0658187862481
  0
ARC
  5
7CD5
330
820E
100
AcDbEntity
  8
1
100
AcDbCircle
 10
2762.672063394284
 20
2482.454481859345
 30
0.0
 40
220.0
100
AcDbArc
 50
257.0658187862481
 51
70.82933319943859
  0
LINE
  5
7CD6
330
820E
100
AcDbEntity
  8
1
100
AcDbLine
 10
1773.603135673731
 20
2977.872503551852
 30
0.0
 11
2804.211421668174
 21
2593.968972909583
 31
0.0
  0
LINE
  5
7CD7
330
820E
100
AcDbEntity
  8
1
100
AcDbLine
 10
1661.554625389982
 20
2588.458008795217
 30
0.0
 11
2738.592461413418
 21
2365.916193007813
 31
0.0
  0
LINE
  5
7CD8
330
820E
100
AcDbEntity
  8
1
100
AcDbLine
 10
1639.999217035734
 20
2514.558687957502
 30
0.0
 11
2713.429112683995
 21
2268.036358079325
 31
0.0
  0
LINE
  5
7CD9
330
820E
100
AcDbEntity
  8
1
100
AcDbLine
 10
3837.728072562851
 20
2990.654481859345
 30
0.0
 11
3947.728072562851
 21
2990.654481859345
 31
0.0
  0
LINE
  5
7CDA
330
820E
100
AcDbEntity
  8
1
100
AcDbLine
 10
3837.728072562848
 20
2584.254481859346
 30
0.0
 11
3947.728072562848
 21
2584.254481859346
 31
0.0
  0
LINE
  5
7CDB
330
820E
100
AcDbEntity
  8
1
100
AcDbLine
 10
3715.728072562848
 20
3067.454481859346
 30
0.0
 11
3967.728072562845
 21
3067.454481859346
 31
0.0
  0
DIMENSION
  5
7CDC
330
820E
100
AcDbEntity
  8
3
100
AcDbDimension
  2
*D9
 10
5225.72807256285
 20
3941.646435392974
 30
0.0
 11
4665.728072562848
 21
4001.646435392973
 31
0.0
 12
1200.922243951386
 22
2507.276386444882
 32
0.0
 71
     5
 42
-1.0
  3
Standard
100
AcDbAlignedDimension
 13
4105.728072562849
 23
3717.913066074654
 33
0.0
 14
5225.72807256285
 24
3720.956459412383
 34
0.0
100
AcDbRotatedDimension
1001
ACAD
1000
DSTYLE
1002
{
1070
    40
1040
30.0
1002
}
  0
LINE
  5
7CE0
330
820E
100
AcDbEntity
  8
1
100
AcDbLine
 10
2262.672063394282
 20
6243.781332099684
 30
0.0
 11
1142.672063394283
 21
6243.781332099681
 31
0.0
  0
LINE
  5
7CE1
330
820E
100
AcDbEntity
  8
1
100
AcDbLine
 10
3012.672063394282
 20
4868.781332099683
 30
0.0
 11
1142.672063394283
 21
4868.781332099683
 31
0.0
  0
LINE
  5
7CE2
330
820E
100
AcDbEntity
  8
1
100
AcDbLine
 10
1142.672063394282
 20
4868.781332099683
 30
0.0
 11
1142.672063394282
 21
5070.781332099682
 31
0.0
  0
LINE
  5
7CE3
330
820E
100
AcDbEntity
  8
1
100
AcDbLine
 10
2262.672063394282
 20
6190.781332099682
 30
0.0
 11
2262.672063394282
 21
6243.781332099681
 31
0.0
  0
LINE
  5
7CE4
330
820E
100
AcDbEntity
  8
1
100
AcDbLine
 10
3012.672063394282
 20
4868.781332099684
 30
0.0
 11
3012.672063394282
 21
5668.781332099683
 31
0.0
  0
LINE
  5
7CE5
330
820E
100
AcDbEntity
  8
1
100
AcDbLine
 10
3012.672063394282
 20
5668.781332099681
 30
0.0
 11
2479.672063394282
 21
5668.781332099681
 31
0.0
  0
LINE
  5
7CE6
330
820E
100
AcDbEntity
  8
2
100
AcDbLine
 10
2762.672063394282
 20
4556.205791920836
 30
0.0
 11
2762.672063394282
 21
5460.879674665894
 31
0.0
  0
DIMENSION
  5
7CE7
330
820E
100
AcDbEntity
  8
3
100
AcDbDimension
  2
*D13
 10
2262.672063394282
 20
6545.795990604904
 30
0.0
 11
2637.672063394282
 21
6605.795990604905
 31
0.0
 12
1637.673186027797
 22
2253.966921065861
 32
0.0
 71
     5
 42
-1.0
  3
Standard
100
AcDbAlignedDimension
 13
3012.672063394282
 23
5668.781332099683
 33
0.0
 14
2262.672063394282
 24
6243.781332099684
 34
0.0
100
AcDbRotatedDimension
1001
ACAD
1000
DSTYLE
1002
{
1070
    40
1040
30.0
1002
}
  0
DIMENSION
  5
7CE8
330
820E
100
AcDbEntity
  8
3
100
AcDbDimension
  2
*D14
 10
1142.672063394283
 20
6545.795990604904
 30
0.0
 11
1702.672063394283
 21
6605.795990604905
 31
0.0
 12
1637.673186027797
 22
2253.966921065861
 32
0.0
 71
     5
 42
-1.0
  3
Standard
100
AcDbAlignedDimension
 13
2262.672063394282
 23
6243.781332099684
 33
0.0
 14
1142.672063394283
 24
6243.781332099681
 34
0.0
100
AcDbRotatedDimension
1001
ACAD
1000
DSTYLE
1002
{
1070
    40
1040
30.0
1002
}
  0
DIMENSION
  5
7CE9
330
820E
100
AcDbEntity
  8
3
100
AcDbDimension
  2
*D15
 10
842.2478412278668
 20
4868.781332099683
 30
0.0
 11
782.2478412278668
 21
5556.281332099681
 31
0.0
 12
1637.673186027797
 22
2253.966921065861
 32
0.0
 71
     5
 42
-1.0
  3
Standard
100
AcDbAlignedDimension
 13
1142.672063394283
 23
6243.781332099681
 33
0.0
 14
1142.672063394282
 24
4868.781332099683
 34
0.0
 50
270.0
100
AcDbRotatedDimension
1001
ACAD
1000
DSTYLE
1002
{
1070
    40
1040
30.0
1002
}
  0
DIMENSION
  5
7CEB
330
820E
100
AcDbEntity
  8
3
100
AcDbDimension
  2
*D17
 10
3313.412769780907
 20
4868.781332099683
 30
0.0
 11
3253.412769780906
 21
5268.781332099684
 31
0.0
 12
1637.673186027797
 22
2253.966921065861
 32
0.0
 71
     5
 42
-1.0
  3
Standard
100
AcDbAlignedDimension
 13
3012.672063394282
 23
5668.781332099683
 33
0.0
 14
3012.672063394282
 24
4868.781332099683
 34
0.0
 50
270.0
100
AcDbRotatedDimension
1001
ACAD
1000
DSTYLE
1002
{
1070
    40
1040
30.0
1002
}
  0
DIMENSION
  5
7CEC
330
820E
100
AcDbEntity
  8
3
100
AcDbDimension
  2
*D18
 10
5549.619066390984
 20
3262.454481859345
 30
0.0
 11
5549.619066390984
 21
2787.454481859346
 31
0.0
 12
1200.922243951386
 22
2507.276386444882
 32
0.0
 70
   128
  1
\U+03C6<>
 71
     5
 42
-1.0
  3
Standard
100
AcDbAlignedDimension
 13
5231.228072562849
 23
2312.454481859345
 33
0.0
 14
5231.228072562849
 24
3262.454481859345
 34
0.0
 50
90.0
100
AcDbRotatedDimension
1001
ACAD
1000
DSTYLE
1002
{
1070
    40
1040
30.0
1002
}
  0
CIRCLE
  5
7CED
330
820E
100
AcDbEntity
  8
1
100
AcDbCircle
 10
1702.672063394284
 20
2787.454481859346
 30
0.0
 40
475.0
  0
CIRCLE
  5
7CEE
330
820E
100
AcDbEntity
  8
1
100
AcDbCircle
 10
1702.672063394284
 20
2787.454481859346
 30
0.0
 40
515.0
  0
LINE
  5
7CEF
330
820E
100
AcDbEntity
  8
1
100
AcDbLine
 10
1794.619336959244
 20
3051.926973593307
 30
0.0
 11
2834.916349766753
 21
2690.254296793173
 31
0.0
  0
DIMENSION
  5
7CF3
330
820E
100
AcDbEntity
  8
3
100
AcDbDimension
  2
*D19
 10
3012.672063394282
 20
4137.110429238729
 30
0.0
 11
2047.672063394283
 21
4197.110429238729
 31
0.0
 12
1637.673186027797
 22
2507.276386444882
 32
0.0
 71
     5
 42
-1.0
  3
Standard
100
AcDbAlignedDimension
 13
1082.672063394284
 23
3790.954481859346
 33
0.0
 14
3012.672063394282
 24
2207.454481859346
 34
0.0
100
AcDbRotatedDimension
1001
ACAD
1000
DSTYLE
1002
{
1070
    40
1040
30.0
1002
}
  0
LINE
  5
7CF5
330
820E
100
AcDbEntity
  8
1
100
AcDbLine
 10
2982.672063394284
 20
4680.781332099683
 30
0.0
 11
1422.672063394284
 21
4680.781332099682
 31
0.0
  0
LINE
  5
7CF6
330
820E
100
AcDbEntity
  8
1
100
AcDbLine
 10
2982.672063394284
 20
4970.781332099685
 30
0.0
 11
1422.672063394284
 21
4970.781332099682
 31
0.0
  0
LINE
  5
7CF7
330
820E
100
AcDbEntity
  8
1
100
AcDbLine
 10
2881.672063394285
 20
4840.781332099685
 30
0.0
 11
2643.672063394284
 21
4840.781332099685
 31
0.0
  0
LINE
  5
7CF8
330
820E
100
AcDbEntity
  8
1
100
AcDbLine
 10
2881.672063394285
 20
4950.781332099683
 30
0.0
 11
2643.672063394284
 21
4950.781332099683
 31
0.0
  0
LINE
  5
7CF9
330
820E
100
AcDbEntity
  8
1
100
AcDbLine
 10
1422.672063394284
 20
4680.781332099682
 30
0.0
 11
1422.672063394284
 21
4970.781332099682
 31
0.0
  0
LINE
  5
7CFA
330
820E
100
AcDbEntity
  8
1
100
AcDbLine
 10
2982.672063394284
 20
4680.781332099683
 30
0.0
 11
2982.672063394284
 21
4970.781332099685
 31
0.0
  0
LINE
  5
7CFB
330
820E
100
AcDbEntity
  8
1
100
AcDbLine
 10
1499.472063394284
 20
4840.781332099682
 30
0.0
 11
1499.472063394284
 21
4950.781332099682
 31
0.0
  0
LINE
  5
7CFC
330
820E
100
AcDbEntity
  8
1
100
AcDbLine
 10
1905.872063394284
 20
4840.781332099682
 30
0.0
 11
1905.872063394284
 21
4950.781332099682
 31
0.0
  0
LINE
  5
7CFD
330
820E
100
AcDbEntity
  8
1
100
AcDbLine
 10
2643.672063394284
 20
4840.781332099682
 30
0.0
 11
2643.672063394284
 21
4950.781332099683
 31
0.0
  0
LINE
  5
7CFE
330
820E
100
AcDbEntity
  8
1
100
AcDbLine
 10
2881.672063394285
 20
4840.781332099685
 30
0.0
 11
2881.672063394285
 21
4950.781332099683
 31
0.0
  0
LINE
  5
7CFF
330
820E
100
AcDbEntity
  8
1
100
AcDbLine
 10
1905.872063394284
 20
4950.781332099682
 30
0.0
 11
1499.472063394284
 21
4950.781332099682
 31
0.0
  0
LINE
  5
7D00
330
820E
100
AcDbEntity
  8
1
100
AcDbLine
 10
1905.872063394284
 20
4840.781332099684
 30
0.0
 11
1499.472063394284
 21
4840.781332099682
 31
0.0
  0
LINE
  5
7D01
330
820E
100
AcDbEntity
  8
1
100
AcDbLine
 10
1082.672063394282
 20
5030.781332099682
 30
0.0
 11
1082.672063394282
 21
6230.781332099681
 31
0.0
  0
LINE
  5
7D02
330
820E
100
AcDbEntity
  8
1
100
AcDbLine
 10
2479.672063394282
 20
5070.781332099682
 30
0.0
 11
2479.672063394282
 21
6190.781332099684
 31
0.0
  0
LINE
  5
7D03
330
820E
100
AcDbEntity
  8
1
100
AcDbLine
 10
2479.672063394282
 20
6190.781332099682
 30
0.0
 11
1082.672063394282
 21
6190.781332099682
 31
0.0
  0
LINE
  5
7D04
330
820E
100
AcDbEntity
  8
1
100
AcDbLine
 10
2479.672063394282
 20
5070.781332099682
 30
0.0
 11
1082.672063394282
 21
5070.781332099682
 31
0.0
  0
LINE
  5
7D05
330
820E
100
AcDbEntity
  8
1
100
AcDbLine
 10
2945.172063394281
 20
5517.281332099685
 30
0.0
 11
2580.172063394281
 21
5517.281332099686
 31
0.0
  0
LINE
  5
7D06
330
820E
100
AcDbEntity
  8
1
100
AcDbLine
 10
2580.172063394281
 20
4955.781332099685
 30
0.0
 11
2580.172063394281
 21
5517.281332099685
 31
0.0
  0
LINE
  5
7D07
330
820E
100
AcDbEntity
  8
1
100
AcDbLine
 10
2945.172063394281
 20
4955.781332099685
 30
0.0
 11
2945.172063394281
 21
5517.281332099685
 31
0.0
  0
LINE
  5
7D08
330
820E
100
AcDbEntity
  8
1
100
AcDbLine
 10
2945.172063394281
 20
4955.781332099685
 30
0.0
 11
2580.172063394281
 21
4955.781332099686
 31
0.0
  0
LINE
  5
7D09
330
820E
100
AcDbEntity
  8
1
100
AcDbLine
 10
2738.672063394282
 20
4950.781332099683
 30
0.0
 11
2738.672063394282
 21
4955.781332099685
 31
0.0
  0
LINE
  5
7D0A
330
820E
100
AcDbEntity
  8
1
100
AcDbLine
 10
2786.672063394282
 20
4950.781332099683
 30
0.0
 11
2786.672063394282
 21
4955.781332099685
 31
0.0
  0
LINE
  5
7D0B
330
820E
100
AcDbEntity
  8
1
100
AcDbLine
 10
1672.672063394283
 20
4950.781332099682
 30
0.0
 11
1672.672063394283
 21
5070.781332099682
 31
0.0
  0
LINE
  5
7D0C
330
820E
100
AcDbEntity
  8
1
100
AcDbLine
 10
1732.672063394282
 20
4950.781332099682
 30
0.0
 11
1732.672063394282
 21
5070.781332099682
 31
0.0
  0
LINE
  5
7D0D
330
820E
100
AcDbEntity
  8
1
100
AcDbLine
 10
3952.728072562848
 20
2664.954481859347
 30
0.0
 11
4514.228072562848
 21
2664.954481859347
 31
0.0
  0
LINE
  5
7D0E
330
820E
100
AcDbEntity
  8
1
100
AcDbLine
 10
3952.728072562848
 20
2299.954481859345
 30
0.0
 11
4514.228072562848
 21
2299.954481859348
 31
0.0
  0
LINE
  5
7D0F
330
820E
100
AcDbEntity
  8
1
100
AcDbLine
 10
3952.728072562848
 20
2664.954481859346
 30
0.0
 11
3952.728072562848
 21
2299.954481859345
 31
0.0
  0
LINE
  5
7D10
330
820E
100
AcDbEntity
  8
1
100
AcDbLine
 10
3947.728072562848
 20
2531.454481859347
 30
0.0
 11
3952.728072562848
 21
2531.454481859347
 31
0.0
  0
LINE
  5
7D11
330
820E
100
AcDbEntity
  8
1
100
AcDbLine
 10
3947.728072562848
 20
2483.454481859347
 30
0.0
 11
3952.728072562848
 21
2483.454481859347
 31
0.0
  0
LINE
  5
7D12
330
820E
100
AcDbEntity
  8
1
100
AcDbLine
 10
4092.728072562849
 20
2664.954481859347
 30
0.0
 11
4105.728072562849
 21
2664.954481859347
 31
0.0
  0
LINE
  5
7D1C
330
820E
100
AcDbEntity
  8
1
100
AcDbLine
 10
1142.672063394282
 20
6190.781332099682
 30
0.0
 11
1142.672063394282
 21
6243.781332099681
 31
0.0
  0
LINE
  5
7D1D
330
820E
100
AcDbEntity
  8
1
100
AcDbLine
 10
1085.672063394282
 20
6230.781332099681
 30
0.0
 11
1082.672063394282
 21
6230.781332099681
 31
0.0
  0
LINE
  5
7D1E
330
820E
100
AcDbEntity
  8
1
100
AcDbLine
 10
1085.672063394282
 20
5030.781332099682
 30
0.0
 11
1082.672063394282
 21
5030.781332099682
 31
0.0
  0
LINE
  5
7D1F
330
820E
100
AcDbEntity
  8
1
100
AcDbLine
 10
1085.672063394282
 20
5030.781332099682
 30
0.0
 11
1085.672063394282
 21
6230.781332099681
 31
0.0
  0
LINE
  5
7D20
330
820E
100
AcDbEntity
  8
1
100
AcDbLine
 10
4514.228072562848
 20
2664.954481859346
 30
0.0
 11
4514.228072562848
 21
2299.954481859345
 31
0.0
  0
LINE
  5
7D21
330
820E
100
AcDbEntity
  8
1
100
AcDbLine
 10
3947.728072562848
 20
2433.454481859345
 30
0.0
 11
3952.728072562848
 21
2433.454481859345
 31
0.0
  0
LINE
  5
7D22
330
820E
100
AcDbEntity
  8
1
100
AcDbLine
 10
4436.504519407721
 20
2299.954481859348
 30
0.0
 11
4436.504519407721
 21
2207.454481859346
 31
0.0
  0
LINE
  5
7D23
330
820E
100
AcDbEntity
  8
1
100
AcDbLine
 10
4015.897414477666
 20
2299.954481859347
 30
0.0
 11
4015.897414477666
 21
2207.454481859346
 31
0.0
  0
LINE
  5
7D24
330
820E
100
AcDbEntity
  8
1
100
AcDbLine
 10
4015.897414477666
 20
2247.454481859346
 30
0.0
 11
4436.504519407721
 21
2247.454481859346
 31
0.0
  0
LINE
  5
7F74
330
820E
100
AcDbEntity
  8
4
100
AcDbLine
 10
5550.0
 20
1500.0
 30
0.0
 11
5550.0
 21
900.0
 31
0.0
  0
LINE
  5
7F75
330
820E
100
AcDbEntity
  8
4
100
AcDbLine
 10
3450.0
 20
1500.0
 30
0.0
 11
3450.0
 21
900.0
 31
0.0
  0
LINE
  5
7F76
330
820E
100
AcDbEntity
  8
4
100
AcDbLine
 10
1950.0
 20
1500.0
 30
0.0
 11
1950.0
 21
900.0
 31
0.0
  0
LINE
  5
7F79
330
820E
100
AcDbEntity
  8
4
100
AcDbLine
 10
1950.0
 20
900.0
 30
0.0
 11
5550.0
 21
900.0
 31
0.0
  0
LINE
  5
7F7A
330
820E
100
AcDbEntity
  8
4
100
AcDbLine
 10
1950.0
 20
1200.0
 30
0.0
 11
5550.0
 21
1200.0
 31
0.0
  0
TEXT
  5
7F7B
330
820E
100
AcDbEntity
  8
4
100
AcDbText
 10
2065.506242540704
 20
1294.629077599838
 30
0.0
 40
150.0
  1
機器名称
100
AcDbText
  0
TEXT
  5
7F7C
330
820E
100
AcDbEntity
  8
4
100
AcDbText
 10
2058.774318074392
 20
964.9354701960326
 30
0.0
 40
150.0
  1
機器型番
100
AcDbText
  0
TEXT
  5
7F7D
330
820E
100
AcDbEntity
  8
4
100
AcDbText
 10
3533.036236462995
 20
1267.715306872705
 30
0.0
 40
150.0
  1
ミツヤ多翼送風機
100
AcDbText
  0
TEXT
  5
7F7E
330
820E
100
AcDbEntity
  8
4
100
AcDbText
 10
3559.963486756442
 20
951.4787528398301
 30
0.0
 40
150.0
  1
MF#5 1/2-5
100
AcDbText
  0
TEXT
  5
7F80
330
820E
100
AcDbEntity
  8
4
100
AcDbText
 10
2413.372355401916
 20
7150.286523997547
 30
0.0
 40
161.9999999999998
  1
床置ベット
100
AcDbText
  0
TEXT
  5
7F81
330
820E
100
AcDbEntity
  8
4
100
AcDbText
 10
948.5027799883393
 20
7601.642928597894
 30
0.0
 40
216.0
  1
遠心式両吸込両持多翼ファン
100
AcDbText
  0
LINE
  5
7F82
330
820E
100
AcDbEntity
  8
4
100
AcDbLine
 10
750.0
 20
7408.226262794413
 30
0.0
 11
5550.0
 21
7408.226262794413
 31
0.0
  0
LINE
  5
7F83
330
820E
100
AcDbEntity
  8
4
100
AcDbLine
 10
750.0
 20
8008.226262794414
 30
0.0
 11
5550.0
 21
8008.226262794414
 31
0.0
  0
LINE
  5
7F84
330
820E
100
AcDbEntity
  8
4
100
AcDbLine
 10
1950.0
 20
1500.0
 30
0.0
 11
5550.0
 21
1500.0
 31
0.0
  0
LINE
  5
7F85
330
820E
100
AcDbEntity
  8
4
100
AcDbLine
 10
750.0
 20
8008.226262794414
 30
0.0
 11
750.0
 21
7408.226262794413
 31
0.0
  0
TEXT
  5
7F86
330
820E
100
AcDbEntity
  8
4
100
AcDbText
 10
1105.795858673809
 20
7146.958432639029
 30
0.0
 40
161.9999999999998
  1
左回転左横向
100
AcDbText
  0
TEXT
  5
7F87
330
820E
100
AcDbEntity
  8
4
100
AcDbText
 10
4406.908677747869
 20
8118.183244485924
 30
0.0
 40
168.0
  1
No.
100
AcDbText
  0
TEXT
  5
7F88
330
820E
100
AcDbEntity
  8
4
100
AcDbText
 10
3933.888187800039
 20
7150.286523997547
 30
0.0
 40
161.9999999999998
  1
縮尺：1/30
100
AcDbText
  0
LINE
  5
7F89
330
820E
100
AcDbEntity
  8
4
100
AcDbLine
 10
5550.0
 20
8008.226262794414
 30
0.0
 11
5550.0
 21
7408.226262794413
 31
0.0
  0
LINE
  5
7F8A
330
820E
100
AcDbEntity
  8
4
100
AcDbLine
 10
6300.0
 20
8850.0
 30
0.0
 11
6300.0
 21
8850.0
 31
0.0
  0
LINE
  5
7F8B
330
820E
100
AcDbEntity
  8
4
100
AcDbLine
 10
4321.852267079594
 20
8043.790749376205
 30
0.0
 11
4321.852267079594
 21
8359.956784649257
 31
0.0
  0
LINE
  5
7F8C
330
820E
100
AcDbEntity
  8
4
100
AcDbLine
 10
4321.852267079594
 20
8359.956784649257
 30
0.0
 11
5550.0
 21
8359.956784649257
 31
0.0
  0
LINE
  5
7F8D
330
820E
100
AcDbEntity
  8
4
100
AcDbLine
 10
5550.0
 20
8359.956784649257
 30
0.0
 11
5550.0
 21
8043.790749376205
 31
0.0
  0
LINE
  5
7F8E
330
820E
100
AcDbEntity
  8
4
100
AcDbLine
 10
5550.0
 20
8043.790749376205
 30
0.0
 11
4321.852267079594
 21
8043.790749376205
 31
0.0
  0
LINE
  5
7F8F
330
820E
100
AcDbEntity
  8
4
100
AcDbLine
 10
0.0
 20
0.0
 30
0.0
 11
0.0
 21
8850.0
 31
0.0
  0
LINE
  5
7F90
330
820E
100
AcDbEntity
  8
4
100
AcDbLine
 10
0.0
 20
8850.0
 30
0.0
 11
6300.0
 21
8850.0
 31
0.0
  0
LINE
  5
7F91
330
820E
100
AcDbEntity
  8
4
100
AcDbLine
 10
6300.0
 20
8850.0
 30
0.0
 11
6300.0
 21
0.0
 31
0.0
  0
LINE
  5
7F92
330
820E
100
AcDbEntity
  8
4
100
AcDbLine
 10
6300.0
 20
0.0
 30
0.0
 11
0.0
 21
0.0
 31
0.0
  0
DIMENSION
  5
810A
330
820E
100
AcDbEntity
  8
3
100
AcDbDimension
  2
*D22
 10
1702.672063394284
 20
1920.323912061576
 30
0.0
 11
1422.672063394284
 21
1995.323912061576
 31
0.0
 71
     5
 42
-1.0
  3
Standard
100
AcDbAlignedDimension
 13
1142.672063394284
 23
2107.454481859345
 33
0.0
 14
1702.672063394284
 24
2107.454481859345
 34
0.0
100
AcDbRotatedDimension
1001
ACAD
1000
DSTYLE
1002
{
1070
   172
1070
     1
1070
    40
1040
30.0
1070
   271
1070
     0
1070
   143
1040
0.039
1002
}
  0
DIMENSION
  5
8117
330
820E
100
AcDbEntity
  8
3
100
AcDbDimension
  2
*D23
 10
3012.672063394282
 20
1920.323912061576
 30
0.0
 11
2357.672063394284
 21
1995.323912061576
 31
0.0
 71
     5
 42
-1.0
  3
Standard
100
AcDbAlignedDimension
 13
1702.672063394284
 23
2107.454481859345
 33
0.0
 14
3012.672063394282
 24
2107.454481859345
 34
0.0
100
AcDbRotatedDimension
1001
ACAD
1000
DSTYLE
1002
{
1070
   172
1070
     1
1070
    40
1040
30.0
1070
   271
1070
     0
1070
   143
1040
0.039
1002
}
  0
DIMENSION
  5
8131
330
820E
100
AcDbEntity
  8
3
100
AcDbDimension
  2
*D24
 10
4665.728072562848
 20
1920.323912061576
 30
0.0
 11
4284.728072562844
 21
1995.323912061576
 31
0.0
 71
     5
 42
-1.0
  3
Standard
100
AcDbAlignedDimension
 13
3903.728072562842
 23
2107.454481859345
 33
0.0
 14
4665.728072562848
 24
2107.454481859345
 34
0.0
100
AcDbRotatedDimension
1001
ACAD
1000
DSTYLE
1002
{
1070
   172
1070
     1
1070
    40
1040
30.0
1070
   271
1070
     0
1070
   143
1040
0.039
1002
}
  0
DIMENSION
  5
813E
330
820E
100
AcDbEntity
  8
3
100
AcDbDimension
  2
*D25
 10
5278.728072562858
 20
1920.323912061576
 30
0.0
 11
4972.228072562852
 21
1995.323912061576
 31
0.0
 71
     5
 42
-1.0
  3
Standard
100
AcDbAlignedDimension
 13
4665.728072562848
 23
2107.454481859345
 33
0.0
 14
5278.728072562858
 24
2107.454481859345
 34
0.0
100
AcDbRotatedDimension
1001
ACAD
1000
DSTYLE
1002
{
1070
   172
1070
     1
1070
    40
1040
30.0
1070
   271
1070
     0
1070
   143
1040
0.039
1002
}
  0
DIMENSION
  5
814B
330
820E
100
AcDbEntity
  8
3
100
AcDbDimension
  2
*D26
 10
620.9291342036049
 20
3748.454481859345
 30
0.0
 11
545.9291342036049
 21
2927.954481859345
 31
0.0
 71
     5
 42
-1.0
  3
Standard
100
AcDbAlignedDimension
 13
1142.672063394284
 23
2107.454481859345
 33
0.0
 14
1052.672063394284
 24
3748.454481859345
 34
0.0
 50
90.0
100
AcDbRotatedDimension
1001
ACAD
1000
DSTYLE
1002
{
1070
   172
1070
     1
1070
    40
1040
30.0
1070
   271
1070
     0
1070
   143
1040
0.039
1002
}
  0
DIMENSION
  5
82B1
330
820E
100
AcDbEntity
  8
3
100
AcDbDimension
  2
*D28
 10
4665.728072562849
 20
4139.774602648442
 30
0.0
 11
4190.728072562849
 21
4238.346031219871
 31
0.0
 70
    32
  1
(<>)
 71
     5
 42
950.0000000000017
  3
IGA
100
AcDbAlignedDimension
 13
3715.728072562848
 23
3067.454481859346
 33
0.0
 14
4665.728072562849
 24
4046.646435392972
 34
0.0
100
AcDbRotatedDimension
1001
ACAD
1000
DSTYLE
1002
{
1070
    40
1040
30.0
1070
   143
1040
0.039
1070
   172
1070
     1
1070
   271
1070
     4
1070
   272
1070
     4
1070
   279
1070
     0
1070
   284
1070
     0
1070
   285
1070
     0
1070
   286
1070
     0
1070
   341
1005
8222
1070
   343
1005
8222
1070
   344
1005
8222
1002
}
  0
DIMENSION
  5
82BE
330
820E
100
AcDbEntity
  8
3
100
AcDbDimension
  2
*D29
 10
5345.728072562848
 20
4139.774602648442
 30
0.0
 11
5005.728072562849
 21
4238.346031219871
 31
0.0
 70
    32
  1
(<>)
 71
     5
 42
679.9999999999982
  3
IGA
100
AcDbAlignedDimension
 13
4665.728072562849
 23
4046.646435392972
 33
0.0
 14
5345.728072562848
 24
2747.954481859345
 34
0.0
100
AcDbRotatedDimension
1001
ACAD
1000
DSTYLE
1002
{
1070
    40
1040
30.0
1070
   143
1040
0.039
1070
   172
1070
     1
1070
   271
1070
     4
1070
   272
1070
     4
1070
   279
1070
     1
1070
   284
1070
     0
1070
   285
1070
     0
1070
   286
1070
     0
1070
   341
1005
8222
1070
   343
1005
8222
1070
   344
1005
8222
1002
}
  0
DIMENSION
  5
8336
330
820E
100
AcDbEntity
  8
3
100
AcDbDimension
  2
*D32
 10
3012.672063394282
 20
4446.846342093787
 30
0.0
 11
2077.672063394282
 21
4521.846342093787
 31
0.0
 70
    32
 71
     5
 42
1869.999999999998
  3
IGA
100
AcDbAlignedDimension
 13
1142.672063394283
 23
4868.781332099683
 33
0.0
 14
3012.672063394282
 24
4868.781332099683
 34
0.0
100
AcDbRotatedDimension
1001
ACAD
1000
DSTYLE
1002
{
1070
    40
1040
30.0
1070
   143
1040
0.039
1070
   172
1070
     1
1070
   271
1070
     4
1070
   272
1070
     4
1070
   279
1070
     0
1070
   284
1070
     0
1070
   285
1070
     0
1070
   286
1070
     0
1070
   341
1005
8222
1070
   343
1005
8222
1070
   344
1005
8222
1002
}
  0
ENDSEC
  0
SECTION
  2
OBJECTS
  0
DICTIONARY
  5
81AB
330
0
100
AcDbDictionary
281
     1
  3
ACAD_CIP_PREVIOUS_PRODUCT_INFO
350
8254
  3
ACAD_COLOR
350
8201
  3
ACAD_DETAILVIEWSTYLE
350
8208
  3
ACAD_GROUP
350
81AC
  3
ACAD_LAYOUT
350
8200
  3
ACAD_MATERIAL
350
81AF
  3
ACAD_MLEADERSTYLE
350
8204
  3
ACAD_MLINESTYLE
350
81FD
  3
ACAD_PLOTSETTINGS
350
81FF
  3
ACAD_PLOTSTYLENAME
350
81AD
  3
ACAD_SCALELIST
350
81E1
  3
ACAD_SECTIONVIEWSTYLE
350
8206
  3
ACAD_TABLESTYLE
350
8202
  3
ACAD_VISUALSTYLE
350
81C8
  3
ACDB_RECOMPOSE_DATA
350
83D1
  3
AcDbVariableDictionary
350
8255
  3
DWGPROPS
350
83D2
  0
DICTIONARY
  5
8343
330
81F3
100
AcDbDictionary
280
     1
281
     1
  3
ADSK_XREC_LAYER_RECONCILED
360
8344
  0
DICTIONARY
  5
8345
330
8212
100
AcDbDictionary
280
     1
281
     1
  3
ADSK_XREC_LAYER_RECONCILED
360
8346
  0
DICTIONARY
  5
8347
330
8215
100
AcDbDictionary
280
     1
281
     1
  3
ADSK_XREC_LAYER_RECONCILED
360
8348
  0
DICTIONARY
  5
8349
330
8216
100
AcDbDictionary
280
     1
281
     1
  3
ADSK_XREC_LAYER_RECONCILED
360
834A
  0
DICTIONARY
  5
834B
330
8217
100
AcDbDictionary
280
     1
281
     1
  3
ADSK_XREC_LAYER_RECONCILED
360
834C
  0
XRECORD
  5
8254
102
{ACAD_REACTORS
330
81AB
102
}
330
81AB
100
AcDbXrecord
280
     1
300
ACDLT
300
2015
300
INVLTS_F_S
  0
DICTIONARY
  5
8201
102
{ACAD_REACTORS
330
81AB
102
}
330
81AB
100
AcDbDictionary
281
     1
  0
DICTIONARY
  5
8208
102
{ACAD_REACTORS
330
81AB
102
}
330
81AB
100
AcDbDictionary
281
     1
  3
Imperial24
350
8209
  0
DICTIONARY
  5
81AC
102
{ACAD_REACTORS
330
81AB
102
}
330
81AB
100
AcDbDictionary
281
     1
  0
DICTIONARY
  5
8200
102
{ACAD_REACTORS
330
81AB
102
}
330
81AB
100
AcDbDictionary
281
     1
  3
Model
350
8211
  3
レイアウト1
350
820D
  0
DICTIONARY
  5
81AF
102
{ACAD_REACTORS
330
81AB
102
}
330
81AB
100
AcDbDictionary
281
     1
  3
ByBlock
350
81B8
  3
ByLayer
350
81B0
  3
Global
350
81C0
  0
DICTIONARY
  5
8204
102
{ACAD_REACTORS
330
81AB
102
}
330
81AB
100
AcDbDictionary
281
     1
  3
Standard
350
8205
  0
DICTIONARY
  5
81FD
102
{ACAD_REACTORS
330
81AB
102
}
330
81AB
100
AcDbDictionary
281
     1
  3
Standard
350
81FE
  0
DICTIONARY
  5
81FF
102
{ACAD_REACTORS
330
81AB
102
}
330
81AB
100
AcDbDictionary
281
     1
  0
ACDBDICTIONARYWDFLT
  5
81AD
102
{ACAD_REACTORS
330
81AB
102
}
330
81AB
100
AcDbDictionary
281
     1
  3
Normal
350
81AE
100
AcDbDictionaryWithDefault
340
81AE
  0
DICTIONARY
  5
81E1
102
{ACAD_REACTORS
330
81AB
102
}
330
81AB
100
AcDbDictionary
281
     1
  3
A0
350
81E2
  3
A1
350
81E3
  3
A2
350
81E4
  3
A3
350
81E5
  3
A4
350
81E6
  3
A5
350
81E7
  3
A6
350
81E8
  3
A7
350
81E9
  3
A8
350
81EA
  3
A9
350
81EB
  3
B0
350
81EC
  3
B1
350
81ED
  3
B2
350
81EE
  3
B3
350
81EF
  3
B4
350
81F0
  3
B5
350
81F1
  3
B6
350
81F2
  0
DICTIONARY
  5
8206
102
{ACAD_REACTORS
330
81AB
102
}
330
81AB
100
AcDbDictionary
281
     1
  3
Imperial24
350
8207
  0
DICTIONARY
  5
8202
102
{ACAD_REACTORS
330
81AB
102
}
330
81AB
100
AcDbDictionary
281
     1
  3
Standard
350
8203
  0
DICTIONARY
  5
81C8
102
{ACAD_REACTORS
330
81AB
102
}
330
81AB
100
AcDbDictionary
281
     1
  3
2dWireframe
350
81CE
  3
Basic
350
81CD
  3
Brighten
350
81D4
  3
ColorChange
350
81D8
  3
Conceptual
350
81D1
  3
Dim
350
81D3
  3
EdgeColorOff
350
81E0
  3
Facepattern
350
81D7
  3
Flat
350
81C9
  3
FlatWithEdges
350
81CA
  3
Gouraud
350
81CB
  3
GouraudWithEdges
350
81CC
  3
Hidden
350
81D0
  3
JitterOff
350
81DE
  3
Linepattern
350
81D6
  3
OverhangOff
350
81DF
  3
Realistic
350
81D2
  3
Shaded
350
81DD
  3
Shaded with edges
350
81DC
  3
Shades of Gray
350
81D9
  3
Sketchy
350
81DA
  3
Thicken
350
81D5
  3
Wireframe
350
81CF
  3
X-Ray
350
81DB
  0
XRECORD
  5
83D1
102
{ACAD_REACTORS
330
81AB
102
}
330
81AB
100
AcDbXrecord
280
     1
 90
        1
330
8203
  0
DICTIONARY
  5
8255
102
{ACAD_REACTORS
330
81AB
102
}
330
81AB
100
AcDbDictionary
281
     1
  3
CANNOSCALE
350
825A
  3
CMLEADERSTYLE
350
8257
  3
CTABLESTYLE
350
8256
  3
CVIEWDETAILSTYLE
350
8258
  3
CVIEWSECTIONSTYLE
350
8259
  3
DIMASSOC
350
825D
  3
INDEXCTL
350
825C
  3
SORTENTS
350
825B
  3
XCLIPFRAME
350
825E
  0
XRECORD
  5
83D2
102
{ACAD_REACTORS
330
81AB
102
}
330
81AB
100
AcDbXrecord
280
     1
  1
DWGPROPS COOKIE
  2

  3

  4

  6

  7

  8
yasukiyo.ogawa
  9

300
=
301
=
302
=
303
=
304
=
305
=
306
=
307
=
308
=
309
=
 40
0.0200909837962963
 41
2451389.493851273
 42
2460269.559874237
  1

 90
        0
  0
XRECORD
  5
8344
102
{ACAD_REACTORS
330
8343
102
}
330
8343
100
AcDbXrecord
280
     1
290
     1
  0
XRECORD
  5
8346
102
{ACAD_REACTORS
330
8345
102
}
330
8345
100
AcDbXrecord
280
     1
290
     1
  0
XRECORD
  5
8348
102
{ACAD_REACTORS
330
8347
102
}
330
8347
100
AcDbXrecord
280
     1
290
     1
  0
XRECORD
  5
834A
102
{ACAD_REACTORS
330
8349
102
}
330
8349
100
AcDbXrecord
280
     1
290
     1
  0
XRECORD
  5
834C
102
{ACAD_REACTORS
330
834B
102
}
330
834B
100
AcDbXrecord
280
     1
290
     1
  0
ACDBDETAILVIEWSTYLE
  5
8209
102
{ACAD_XDICTIONARY
360
840A
102
}
102
{ACAD_REACTORS
330
8208
102
}
330
8208
100
AcDbModelDocViewStyle
 70
     0
  3
Imperial24
290
     0
100
AcDbDetailViewStyle
 70
     0
 71
     0
 90
        3
 71
     1
340
81F4
 40
0.24
340
0
 40
0.24
300

 40
0.36
280
     3
 71
     2
340
81FB
 90
       25
 71
     3
340
81F4
 40
0.24
 90
        1
 40
0.75
 90
        1
300
%<\AcVar ViewType \f "%tc1">% %<\AcVar ViewDetailId>%\PSCALE %<\AcVar ViewScale \f "%sn">%
 71
     4
340
81FB
 90
       25
340
81FB
 90
       25
280
     0
  0
LAYOUT
  5
8211
102
{ACAD_XDICTIONARY
360
840E
102
}
102
{ACAD_REACTORS
330
8200
102
}
330
8200
100
AcDbPlotSettings
  1

  2
RICOH imagio MP W3600 RPCS
  4

  6

 40
0.0
 41
0.0
 42
0.0
 43
0.0
 44
0.0
 45
0.0
 46
0.0
 47
0.0
 48
0.0
 49
0.0
140
0.0
141
0.0
142
1.0
143
1.0
 70
  1712
 72
     0
 73
     0
 74
     0
  7

 75
     0
147
1.0
148
0.0
149
0.0
100
AcDbLayout
  1
Model
 70
     1
 71
     0
 10
0.0
 20
0.0
 11
12.0
 21
9.0
 12
0.0
 22
0.0
 32
0.0
 14
0.0
 24
0.0
 34
0.0
 15
0.0
 25
0.0
 35
0.0
146
0.0
 13
0.0
 23
0.0
 33
0.0
 16
1.0
 26
0.0
 36
0.0
 17
0.0
 27
1.0
 37
0.0
 76
     0
330
820E
331
8213
  0
LAYOUT
  5
820D
102
{ACAD_XDICTIONARY
360
840C
102
}
102
{ACAD_REACTORS
330
8200
102
}
330
8200
100
AcDbPlotSettings
  1

  2
RICOH imagio MP W3600 RPCS
  4

  6

 40
0.0
 41
0.0
 42
0.0
 43
0.0
 44
0.0
 45
0.0
 46
0.0
 47
0.0
 48
0.0
 49
0.0
140
0.0
141
0.0
142
1.0
143
1.0
 70
   688
 72
     0
 73
     0
 74
     5
  7

 75
    16
147
1.0
148
0.0
149
0.0
100
AcDbLayout
  1
レイアウト1
 70
     1
 71
     1
 10
0.0
 20
0.0
 11
12.0
 21
9.0
 12
0.0
 22
0.0
 32
0.0
 14
1.000000000000000E+20
 24
1.000000000000000E+20
 34
1.000000000000000E+20
 15
-1.000000000000000E+20
 25
-1.000000000000000E+20
 35
-1.000000000000000E+20
146
0.0
 13
0.0
 23
0.0
 33
0.0
 16
1.0
 26
0.0
 36
0.0
 17
0.0
 27
1.0
 37
0.0
 76
     0
330
820A
  0
MATERIAL
  5
81B8
102
{ACAD_XDICTIONARY
360
81B9
102
}
102
{ACAD_REACTORS
330
81AF
102
}
330
81AF
100
AcDbMaterial
  1
ByBlock
 72
     0
 43
0.0208333333333333
 43
0.0
 43
0.0
 43
0.0
 43
0.0
 43
0.0208333333333333
 43
0.0
 43
0.0
 43
0.0
 43
0.0
 43
1.0
 43
0.0
 43
0.0
 43
0.0
 43
0.0
 43
1.0
 77
     0
 47
0.0208333333333333
 47
0.0
 47
0.0
 47
0.0
 47
0.0
 47
0.0208333333333333
 47
0.0
 47
0.0
 47
0.0
 47
0.0
 47
1.0
 47
0.0
 47
0.0
 47
0.0
 47
0.0
 47
1.0
171
     0
 49
0.0208333333333333
 49
0.0
 49
0.0
 49
0.0
 49
0.0
 49
0.0208333333333333
 49
0.0
 49
0.0
 49
0.0
 49
0.0
 49
1.0
 49
0.0
 49
0.0
 49
0.0
 49
0.0
 49
1.0
175
     0
142
0.0208333333333333
142
0.0
142
0.0
142
0.0
142
0.0
142
0.0208333333333333
142
0.0
142
0.0
142
0.0
142
0.0
142
1.0
142
0.0
142
0.0
142
0.0
142
0.0
142
1.0
179
     0
144
0.0208333333333333
144
0.0
144
0.0
144
0.0
144
0.0
144
0.0208333333333333
144
0.0
144
0.0
144
0.0
144
0.0
144
1.0
144
0.0
144
0.0
144
0.0
144
0.0
144
1.0
147
0.0208333333333333
147
0.0
147
0.0
147
0.0
147
0.0
147
0.0208333333333333
147
0.0
147
0.0
147
0.0
147
0.0
147
1.0
147
0.0
147
0.0
147
0.0
147
0.0
147
1.0
  0
MATERIAL
  5
81B0
102
{ACAD_XDICTIONARY
360
81B1
102
}
102
{ACAD_REACTORS
330
81AF
102
}
330
81AF
100
AcDbMaterial
  1
ByLayer
 72
     0
 43
0.0208333333333333
 43
0.0
 43
0.0
 43
0.0
 43
0.0
 43
0.0208333333333333
 43
0.0
 43
0.0
 43
0.0
 43
0.0
 43
1.0
 43
0.0
 43
0.0
 43
0.0
 43
0.0
 43
1.0
 77
     0
 47
0.0208333333333333
 47
0.0
 47
0.0
 47
0.0
 47
0.0
 47
0.0208333333333333
 47
0.0
 47
0.0
 47
0.0
 47
0.0
 47
1.0
 47
0.0
 47
0.0
 47
0.0
 47
0.0
 47
1.0
171
     0
 49
0.0208333333333333
 49
0.0
 49
0.0
 49
0.0
 49
0.0
 49
0.0208333333333333
 49
0.0
 49
0.0
 49
0.0
 49
0.0
 49
1.0
 49
0.0
 49
0.0
 49
0.0
 49
0.0
 49
1.0
175
     0
142
0.0208333333333333
142
0.0
142
0.0
142
0.0
142
0.0
142
0.0208333333333333
142
0.0
142
0.0
142
0.0
142
0.0
142
1.0
142
0.0
142
0.0
142
0.0
142
0.0
142
1.0
179
     0
144
0.0208333333333333
144
0.0
144
0.0
144
0.0
144
0.0
144
0.0208333333333333
144
0.0
144
0.0
144
0.0
144
0.0
144
1.0
144
0.0
144
0.0
144
0.0
144
0.0
144
1.0
147
0.0208333333333333
147
0.0
147
0.0
147
0.0
147
0.0
147
0.0208333333333333
147
0.0
147
0.0
147
0.0
147
0.0
147
1.0
147
0.0
147
0.0
147
0.0
147
0.0
147
1.0
  0
MATERIAL
  5
81C0
102
{ACAD_XDICTIONARY
360
81C1
102
}
102
{ACAD_REACTORS
330
81AF
102
}
330
81AF
100
AcDbMaterial
  1
Global
 72
     0
 43
0.0208333333333333
 43
0.0
 43
0.0
 43
0.0
 43
0.0
 43
0.0208333333333333
 43
0.0
 43
0.0
 43
0.0
 43
0.0
 43
1.0
 43
0.0
 43
0.0
 43
0.0
 43
0.0
 43
1.0
 77
     0
 47
0.0208333333333333
 47
0.0
 47
0.0
 47
0.0
 47
0.0
 47
0.0208333333333333
 47
0.0
 47
0.0
 47
0.0
 47
0.0
 47
1.0
 47
0.0
 47
0.0
 47
0.0
 47
0.0
 47
1.0
171
     0
 49
0.0208333333333333
 49
0.0
 49
0.0
 49
0.0
 49
0.0
 49
0.0208333333333333
 49
0.0
 49
0.0
 49
0.0
 49
0.0
 49
1.0
 49
0.0
 49
0.0
 49
0.0
 49
0.0
 49
1.0
175
     0
142
0.0208333333333333
142
0.0
142
0.0
142
0.0
142
0.0
142
0.0208333333333333
142
0.0
142
0.0
142
0.0
142
0.0
142
1.0
142
0.0
142
0.0
142
0.0
142
0.0
142
1.0
179
     0
144
0.0208333333333333
144
0.0
144
0.0
144
0.0
144
0.0
144
0.0208333333333333
144
0.0
144
0.0
144
0.0
144
0.0
144
1.0
144
0.0
144
0.0
144
0.0
144
0.0
144
1.0
147
0.0208333333333333
147
0.0
147
0.0
147
0.0
147
0.0
147
0.0208333333333333
147
0.0
147
0.0
147
0.0
147
0.0
147
1.0
147
0.0
147
0.0
147
0.0
147
0.0
147
1.0
  0
MLEADERSTYLE
  5
8205
102
{ACAD_REACTORS
330
8204
102
}
330
8204
100
AcDbMLeaderStyle
170
     2
171
     1
172
     0
 90
        2
 40
0.0
 41
0.0
173
     1
 91
-1056964608
340
81F9
 92
       -2
290
     1
 42
0.09
291
     1
 43
0.36
  3
Standard
 44
0.18
300

342
81F4
174
     1
178
     6
175
     1
176
     0
 93
-1056964608
 45
0.18
292
     0
297
     0
 46
0.18
 94
-1056964608
 47
1.0
 49
1.0
140
1.0
293
     1
141
0.0
294
     1
177
     0
142
1.0
295
     0
296
     0
143
0.125
1001
ACAD_MLEADERVER
1070
     2
  0
MLINESTYLE
  5
81FE
102
{ACAD_REACTORS
330
81FD
102
}
330
81FD
100
AcDbMlineStyle
  2
STANDARD
 70
     0
  3

 62
   256
 51
90.0
 52
90.0
 71
     2
 49
0.5
 62
   256
  6
BYLAYER
 49
-0.5
 62
   256
  6
BYLAYER
  0
ACDBPLACEHOLDER
  5
81AE
102
{ACAD_REACTORS
330
81AD
102
}
330
81AD
  0
SCALE
  5
81E2
102
{ACAD_REACTORS
330
81E1
102
}
330
81E1
100
AcDbScale
 70
     0
300
1:1
140
1.0
141
1.0
290
     1
  0
SCALE
  5
81E3
102
{ACAD_REACTORS
330
81E1
102
}
330
81E1
100
AcDbScale
 70
     0
300
1/128" = 1'-0"
140
0.0078125
141
12.0
290
     0
  0
SCALE
  5
81E4
102
{ACAD_REACTORS
330
81E1
102
}
330
81E1
100
AcDbScale
 70
     0
300
1/64" = 1'-0"
140
0.015625
141
12.0
290
     0
  0
SCALE
  5
81E5
102
{ACAD_REACTORS
330
81E1
102
}
330
81E1
100
AcDbScale
 70
     0
300
1/32" = 1'-0"
140
0.03125
141
12.0
290
     0
  0
SCALE
  5
81E6
102
{ACAD_REACTORS
330
81E1
102
}
330
81E1
100
AcDbScale
 70
     0
300
1/16" = 1'-0"
140
0.0625
141
12.0
290
     0
  0
SCALE
  5
81E7
102
{ACAD_REACTORS
330
81E1
102
}
330
81E1
100
AcDbScale
 70
     0
300
3/32" = 1'-0"
140
0.09375
141
12.0
290
     0
  0
SCALE
  5
81E8
102
{ACAD_REACTORS
330
81E1
102
}
330
81E1
100
AcDbScale
 70
     0
300
1/8" = 1'-0"
140
0.125
141
12.0
290
     0
  0
SCALE
  5
81E9
102
{ACAD_REACTORS
330
81E1
102
}
330
81E1
100
AcDbScale
 70
     0
300
3/16" = 1'-0"
140
0.1875
141
12.0
290
     0
  0
SCALE
  5
81EA
102
{ACAD_REACTORS
330
81E1
102
}
330
81E1
100
AcDbScale
 70
     0
300
1/4" = 1'-0"
140
0.25
141
12.0
290
     0
  0
SCALE
  5
81EB
102
{ACAD_REACTORS
330
81E1
102
}
330
81E1
100
AcDbScale
 70
     0
300
3/8" = 1'-0"
140
0.375
141
12.0
290
     0
  0
SCALE
  5
81EC
102
{ACAD_REACTORS
330
81E1
102
}
330
81E1
100
AcDbScale
 70
     0
300
1/2" = 1'-0"
140
0.5
141
12.0
290
     0
  0
SCALE
  5
81ED
102
{ACAD_REACTORS
330
81E1
102
}
330
81E1
100
AcDbScale
 70
     0
300
3/4" = 1'-0"
140
0.75
141
12.0
290
     0
  0
SCALE
  5
81EE
102
{ACAD_REACTORS
330
81E1
102
}
330
81E1
100
AcDbScale
 70
     0
300
1" = 1'-0"
140
1.0
141
12.0
290
     0
  0
SCALE
  5
81EF
102
{ACAD_REACTORS
330
81E1
102
}
330
81E1
100
AcDbScale
 70
     0
300
1-1/2" = 1'-0"
140
1.5
141
12.0
290
     0
  0
SCALE
  5
81F0
102
{ACAD_REACTORS
330
81E1
102
}
330
81E1
100
AcDbScale
 70
     0
300
3" = 1'-0"
140
3.0
141
12.0
290
     0
  0
SCALE
  5
81F1
102
{ACAD_REACTORS
330
81E1
102
}
330
81E1
100
AcDbScale
 70
     0
300
6" = 1'-0"
140
6.0
141
12.0
290
     0
  0
SCALE
  5
81F2
102
{ACAD_REACTORS
330
81E1
102
}
330
81E1
100
AcDbScale
 70
     0
300
1'-0" = 1'-0"
140
12.0
141
12.0
290
     0
  0
ACDBSECTIONVIEWSTYLE
  5
8207
102
{ACAD_XDICTIONARY
360
8408
102
}
102
{ACAD_REACTORS
330
8206
102
}
330
8206
100
AcDbModelDocViewStyle
 70
     0
  3
Imperial24
290
     0
100
AcDbSectionViewStyle
 70
     0
 71
     0
 90
       78
 71
     1
340
81F4
 40
0.24
340
0
340
0
 40
0.24
300
I, O, Q, S, X, Z
 40
0.48
 90
        3
 40
0.18
 90
        1
 71
     2
340
81FB
 90
       25
340
81FB
 90
       50
 40
0.24
 40
0.0
 40
0.24
 71
     3
340
81F4
 40
0.24
 90
        1
 40
0.75
 90
        1
300
%<\AcVar ViewType \f "%tc1">% %<\AcVar ViewSectionStartId>%-%<\AcVar ViewSectionEndId>%\PSCALE %<\AcVar ViewScale \f "%sn">%
 71
     4
300
ANSI31
 40
1.0
 90
        0
290
     0
290
     0
 90
        6
 40
0.0
 40
1.570796326794896
 40
0.2617993877991494
 40
1.308996938995747
 40
-0.2617993877991494
 40
1.832595714594046
  0
TABLESTYLE
  5
8203
102
{ACAD_XDICTIONARY
360
83CF
102
}
102
{ACAD_REACTORS
330
8202
102
}
330
8202
100
AcDbTableStyle
  3
Standard
 70
     0
 71
     0
 40
0.06
 41
0.06
280
     0
281
     0
  7
STANDARD
140
0.18
170
     2
 62
     0
 63
     7
283
     0
274
    -2
284
     1
 64
     0
275
    -2
285
     1
 65
     0
276
    -2
286
     1
 66
     0
277
    -2
287
     1
 67
     0
278
    -2
288
     1
 68
     0
279
    -2
289
     1
 69
     0
  7
STANDARD
140
0.25
170
     5
 62
     0
 63
     7
283
     0
274
    -2
284
     1
 64
     0
275
    -2
285
     1
 65
     0
276
    -2
286
     1
 66
     0
277
    -2
287
     1
 67
     0
278
    -2
288
     1
 68
     0
279
    -2
289
     1
 69
     0
  7
STANDARD
140
0.18
170
     5
 62
     0
 63
     7
283
     0
274
    -2
284
     1
 64
     0
275
    -2
285
     1
 65
     0
276
    -2
286
     1
 66
     0
277
    -2
287
     1
 67
     0
278
    -2
288
     1
 68
     0
279
    -2
289
     1
 69
     0
  0
VISUALSTYLE
  5
81CE
102
{ACAD_XDICTIONARY
360
83E0
102
}
102
{ACAD_REACTORS
330
81C8
102
}
330
81C8
100
AcDbVisualStyle
  2
2dWireframe
 70
     4
 71
     0
 72
     2
 73
     0
 90
        0
 40
-0.6
 41
-30.0
 62
     5
 63
     7
 74
     1
 91
        4
 64
     7
 65
   257
 75
     1
175
     1
 42
1.0
 92
        0
 66
   257
 43
1.0
 76
     1
 77
     6
 78
     2
 67
     7
 79
     5
170
     0
171
     0
290
     0
174
     0
 93
        1
 44
0.0
173
     0
291
     0
 45
0.0
1001
ACAD
1000
AcDbSavedByObjectVersion
1070
     0
  0
VISUALSTYLE
  5
81CD
102
{ACAD_XDICTIONARY
360
83DE
102
}
102
{ACAD_REACTORS
330
81C8
102
}
330
81C8
100
AcDbVisualStyle
  2
Basic
 70
     7
 71
     1
 72
     0
 73
     1
 90
        0
 40
-0.6
 41
-30.0
 62
     5
 63
     7
 74
     0
 91
        4
 64
     7
 65
   257
 75
     1
175
     1
 42
1.0
 92
        8
 66
     7
 43
1.0
 76
     1
 77
     6
 78
     2
 67
     7
 79
     5
170
     0
171
     0
290
     0
174
     0
 93
        1
 44
0.0
173
     0
291
     1
 45
0.0
1001
ACAD
1000
AcDbSavedByObjectVersion
1070
     0
  0
VISUALSTYLE
  5
81D4
102
{ACAD_XDICTIONARY
360
83EC
102
}
102
{ACAD_REACTORS
330
81C8
102
}
330
81C8
100
AcDbVisualStyle
  2
Brighten
 70
    12
 71
     2
 72
     2
 73
     0
 90
        0
 40
-0.6
 41
-30.0
 62
     5
 63
     7
 74
     1
 91
        4
 64
     7
 65
   257
 75
     1
175
     1
 42
1.0
 92
        8
 66
     7
 43
1.0
 76
     1
 77
     6
 78
     2
 67
     7
 79
     5
170
     0
171
     0
290
     0
174
     0
 93
        1
 44
50.0
173
     0
291
     1
 45
0.0
1001
ACAD
1000
AcDbSavedByObjectVersion
1070
     0
  0
VISUALSTYLE
  5
81D8
102
{ACAD_XDICTIONARY
360
83F4
102
}
102
{ACAD_REACTORS
330
81C8
102
}
330
81C8
100
AcDbVisualStyle
  2
ColorChange
 70
    16
 71
     2
 72
     2
 73
     3
 90
        0
 40
-0.6
 41
-30.0
 62
     5
 63
     8
 74
     1
 91
        4
 64
     7
 65
   257
 75
     1
175
     1
 42
1.0
 92
        8
 66
     8
 43
1.0
 76
     1
 77
     6
 78
     2
 67
     7
 79
     5
170
     0
171
     0
290
     0
174
     0
 93
        1
 44
0.0
173
     0
291
     1
 45
0.0
1001
ACAD
1000
AcDbSavedByObjectVersion
1070
     0
  0
VISUALSTYLE
  5
81D1
102
{ACAD_XDICTIONARY
360
83E6
102
}
102
{ACAD_REACTORS
330
81C8
102
}
330
81C8
100
AcDbVisualStyle
  2
Conceptual
 70
     9
 71
     3
 72
     2
 73
     0
 90
        0
 40
-0.6
 41
-30.0
 62
     5
 63
     7
 74
     2
 91
        2
 64
     7
 65
   257
 75
     1
175
     1
 42
179.0
 92
        8
 66
     7
 43
1.0
 76
     1
 77
     6
 78
     2
 67
     7
 79
     3
170
     0
171
     0
290
     0
174
     0
 93
        1
 44
0.0
173
     0
291
     0
 45
0.0
1001
ACAD
1000
AcDbSavedByObjectVersion
1070
     0
  0
VISUALSTYLE
  5
81D3
102
{ACAD_XDICTIONARY
360
83EA
102
}
102
{ACAD_REACTORS
330
81C8
102
}
330
81C8
100
AcDbVisualStyle
  2
Dim
 70
    11
 71
     2
 72
     2
 73
     0
 90
        0
 40
-0.6
 41
-30.0
 62
     5
 63
     7
 74
     1
 91
        4
 64
     7
 65
   257
 75
     1
175
     1
 42
1.0
 92
        8
 66
     7
 43
1.0
 76
     1
 77
     6
 78
     2
 67
     7
 79
     5
170
     0
171
     0
290
     0
174
     0
 93
        1
 44
-50.0
173
     0
291
     1
 45
0.0
1001
ACAD
1000
AcDbSavedByObjectVersion
1070
     0
  0
VISUALSTYLE
  5
81E0
102
{ACAD_XDICTIONARY
360
8404
102
}
102
{ACAD_REACTORS
330
81C8
102
}
330
81C8
100
AcDbVisualStyle
  2
EdgeColorOff
 70
    22
 71
     2
 72
     2
 73
     0
 90
        0
 40
-0.6
 41
-30.0
 62
     5
 63
     7
 74
     1
 91
        4
 64
     7
 65
   257
 75
     1
175
     1
 42
1.0
 92
        8
 66
     7
 43
1.0
 76
     1
 77
     6
 78
     2
 67
     7
 79
     5
170
     0
171
     0
290
     0
174
     0
 93
        1
 44
0.0
173
     0
291
     1
 45
0.0
1001
ACAD
1000
AcDbSavedByObjectVersion
1070
     0
  0
VISUALSTYLE
  5
81D7
102
{ACAD_XDICTIONARY
360
83F2
102
}
102
{ACAD_REACTORS
330
81C8
102
}
330
81C8
100
AcDbVisualStyle
  2
Facepattern
 70
    15
 71
     2
 72
     2
 73
     0
 90
        0
 40
-0.6
 41
-30.0
 62
     5
 63
     7
 74
     1
 91
        4
 64
     7
 65
   257
 75
     1
175
     1
 42
1.0
 92
        8
 66
     7
 43
1.0
 76
     1
 77
     6
 78
     2
 67
     7
 79
     5
170
     0
171
     0
290
     0
174
     0
 93
        1
 44
0.0
173
     0
291
     1
 45
0.0
1001
ACAD
1000
AcDbSavedByObjectVersion
1070
     0
  0
VISUALSTYLE
  5
81C9
102
{ACAD_XDICTIONARY
360
83D6
102
}
102
{ACAD_REACTORS
330
81C8
102
}
330
81C8
100
AcDbVisualStyle
  2
Flat
 70
     0
 71
     2
 72
     1
 73
     1
 90
        2
 40
-0.6
 41
30.0
 62
     5
 63
     7
 74
     0
 91
        0
 64
     7
 65
   257
 75
     1
175
     1
 42
1.0
 92
        8
 66
     7
 43
1.0
 76
     1
 77
     6
 78
     2
 67
     7
 79
     5
170
     0
171
     0
290
     0
174
     0
 93
       13
 44
0.0
173
     0
291
     1
 45
0.0
1001
ACAD
1000
AcDbSavedByObjectVersion
1070
     0
  0
VISUALSTYLE
  5
81CA
102
{ACAD_XDICTIONARY
360
83D8
102
}
102
{ACAD_REACTORS
330
81C8
102
}
330
81C8
100
AcDbVisualStyle
  2
FlatWithEdges
 70
     1
 71
     2
 72
     1
 73
     1
 90
        2
 40
-0.6
 41
30.0
 62
     5
 63
     7
 74
     1
 91
        0
 64
     7
 65
   257
 75
     1
175
     1
 42
1.0
 92
        0
 66
   257
 43
1.0
 76
     1
 77
     6
 78
     2
 67
     7
 79
     5
170
     0
171
     0
290
     0
174
     0
 93
       13
 44
0.0
173
     0
291
     1
 45
0.0
1001
ACAD
1000
AcDbSavedByObjectVersion
1070
     0
  0
VISUALSTYLE
  5
81CB
102
{ACAD_XDICTIONARY
360
83DA
102
}
102
{ACAD_REACTORS
330
81C8
102
}
330
81C8
100
AcDbVisualStyle
  2
Gouraud
 70
     2
 71
     2
 72
     2
 73
     1
 90
        2
 40
-0.6
 41
30.0
 62
     5
 63
     7
 74
     0
 91
        0
 64
     7
 65
   257
 75
     1
175
     1
 42
1.0
 92
        0
 66
     7
 43
1.0
 76
     1
 77
     6
 78
     2
 67
     7
 79
     5
170
     0
171
     0
290
     0
174
     0
 93
       13
 44
0.0
173
     0
291
     1
 45
0.0
1001
ACAD
1000
AcDbSavedByObjectVersion
1070
     0
  0
VISUALSTYLE
  5
81CC
102
{ACAD_XDICTIONARY
360
83DC
102
}
102
{ACAD_REACTORS
330
81C8
102
}
330
81C8
100
AcDbVisualStyle
  2
GouraudWithEdges
 70
     3
 71
     2
 72
     2
 73
     1
 90
        2
 40
-0.6
 41
30.0
 62
     5
 63
     7
 74
     1
 91
        0
 64
     7
 65
   257
 75
     1
175
     1
 42
1.0
 92
        0
 66
   257
 43
1.0
 76
     1
 77
     6
 78
     2
 67
     7
 79
     5
170
     0
171
     0
290
     0
174
     0
 93
       13
 44
0.0
173
     0
291
     1
 45
0.0
1001
ACAD
1000
AcDbSavedByObjectVersion
1070
     0
  0
VISUALSTYLE
  5
81D0
102
{ACAD_XDICTIONARY
360
83E4
102
}
102
{ACAD_REACTORS
330
81C8
102
}
330
81C8
100
AcDbVisualStyle
  2
Hidden
 70
     6
 71
     1
 72
     2
 73
     2
 90
        0
 40
-0.6
 41
-30.0
 62
     5
 63
     7
 74
     2
 91
        2
 64
     7
 65
   257
 75
     2
175
     1
 42
40.0
 92
        0
 66
   257
 43
1.0
 76
     1
 77
     6
 78
     2
 67
     7
 79
     3
170
     0
171
     0
290
     0
174
     0
 93
        1
 44
0.0
173
     0
291
     0
 45
0.0
1001
ACAD
1000
AcDbSavedByObjectVersion
1070
     0
  0
VISUALSTYLE
  5
81DE
102
{ACAD_XDICTIONARY
360
8400
102
}
102
{ACAD_REACTORS
330
81C8
102
}
330
81C8
100
AcDbVisualStyle
  2
JitterOff
 70
    20
 71
     2
 72
     2
 73
     0
 90
        0
 40
-0.6
 41
-30.0
 62
     5
 63
     7
 74
     1
 91
        4
 64
     7
 65
   257
 75
     1
175
     1
 42
1.0
 92
       10
 66
     7
 43
1.0
 76
     1
 77
     6
 78
     2
 67
     7
 79
     5
170
     0
171
     0
290
     0
174
     0
 93
        1
 44
0.0
173
     0
291
     1
 45
0.0
1001
ACAD
1000
AcDbSavedByObjectVersion
1070
     0
  0
VISUALSTYLE
  5
81D6
102
{ACAD_XDICTIONARY
360
83F0
102
}
102
{ACAD_REACTORS
330
81C8
102
}
330
81C8
100
AcDbVisualStyle
  2
Linepattern
 70
    14
 71
     2
 72
     2
 73
     0
 90
        0
 40
-0.6
 41
-30.0
 62
     5
 63
     7
 74
     1
 91
        4
 64
     7
 65
   257
 75
     7
175
     7
 42
1.0
 92
        8
 66
     7
 43
1.0
 76
     1
 77
     6
 78
     2
 67
     7
 79
     5
170
     0
171
     0
290
     0
174
     0
 93
        1
 44
0.0
173
     0
291
     1
 45
0.0
1001
ACAD
1000
AcDbSavedByObjectVersion
1070
     0
  0
VISUALSTYLE
  5
81DF
102
{ACAD_XDICTIONARY
360
8402
102
}
102
{ACAD_REACTORS
330
81C8
102
}
330
81C8
100
AcDbVisualStyle
  2
OverhangOff
 70
    21
 71
     2
 72
     2
 73
     0
 90
        0
 40
-0.6
 41
-30.0
 62
     5
 63
     7
 74
     1
 91
        4
 64
     7
 65
   257
 75
     1
175
     1
 42
1.0
 92
        9
 66
     7
 43
1.0
 76
     1
 77
     6
 78
     2
 67
     7
 79
     5
170
     0
171
     0
290
     0
174
     0
 93
        1
 44
0.0
173
     0
291
     1
 45
0.0
1001
ACAD
1000
AcDbSavedByObjectVersion
1070
     0
  0
VISUALSTYLE
  5
81D2
102
{ACAD_XDICTIONARY
360
83E8
102
}
102
{ACAD_REACTORS
330
81C8
102
}
330
81C8
100
AcDbVisualStyle
  2
Realistic
 70
     8
 71
     2
 72
     3
 73
     0
 90
        2
 40
-0.6
 41
30.0
 62
     5
 63
     7
 74
     0
 91
        0
 64
     7
 65
   257
 75
     1
175
     1
 42
1.0
 92
        8
 66
   257
 43
1.0
 76
     1
 77
     6
 78
     2
 67
     7
 79
     3
170
     0
171
     0
290
     0
174
     0
 93
       13
 44
0.0
173
     0
291
     0
 45
0.0
1001
ACAD
1000
AcDbSavedByObjectVersion
1070
     0
  0
VISUALSTYLE
  5
81DD
102
{ACAD_XDICTIONARY
360
83FE
102
}
102
{ACAD_REACTORS
330
81C8
102
}
330
81C8
100
AcDbVisualStyle
  2
Shaded
 70
    27
 71
     2
 72
     2
 73
     1
 90
        2
 40
-0.6
 41
30.0
 62
     5
 63
     7
 74
     0
 91
        4
 64
     7
 65
   257
 75
     1
175
     1
 42
1.0
 92
        8
 66
   257
 43
1.0
 76
     1
 77
     6
 78
     2
 67
     8
 79
     3
170
     0
171
     0
290
     0
174
     0
 93
        5
 44
0.0
173
     0
291
     0
 45
0.0
1001
ACAD
1000
AcDbSavedByObjectVersion
1070
     0
  0
VISUALSTYLE
  5
81DC
102
{ACAD_XDICTIONARY
360
83FC
102
}
102
{ACAD_REACTORS
330
81C8
102
}
330
81C8
100
AcDbVisualStyle
  2
Shaded with edges
 70
    26
 71
     2
 72
     2
 73
     1
 90
        2
 40
-0.6
 41
30.0
 62
     5
 63
     7
 74
     1
 91
       10
 64
     7
 65
   257
 75
     2
175
     1
 42
1.0
 92
        8
 66
   257
 43
1.0
 76
     1
 77
     6
 78
     2
 67
     7
 79
     3
170
     0
171
     0
290
     0
174
     0
 93
        5
 44
0.0
173
     0
291
     0
 45
0.0
1001
ACAD
1000
AcDbSavedByObjectVersion
1070
     0
  0
VISUALSTYLE
  5
81D9
102
{ACAD_XDICTIONARY
360
83F6
102
}
102
{ACAD_REACTORS
330
81C8
102
}
330
81C8
100
AcDbVisualStyle
  2
Shades of Gray
 70
    23
 71
     2
 72
     2
 73
     3
 90
        0
 40
-0.6
 41
-30.0
 62
     5
 63
     7
 74
     2
 91
        2
 64
     7
 65
     7
 75
     1
175
     1
 42
40.0
 92
        8
 66
     7
 43
1.0
 76
     1
 77
     6
 78
     2
 67
     7
 79
     3
170
     0
171
     0
290
     0
174
     0
 93
        1
 44
0.0
173
     0
291
     0
 45
0.0
1001
ACAD
1000
AcDbSavedByObjectVersion
1070
     0
  0
VISUALSTYLE
  5
81DA
102
{ACAD_XDICTIONARY
360
83F8
102
}
102
{ACAD_REACTORS
330
81C8
102
}
330
81C8
100
AcDbVisualStyle
  2
Sketchy
 70
    24
 71
     1
 72
     2
 73
     2
 90
        0
 40
-0.6
 41
-30.0
 62
     5
 63
     7
 74
     2
 91
        2
 64
     7
 65
     7
 75
     1
175
     1
 42
40.0
 92
       11
 66
     7
 43
1.0
 76
     1
 77
     6
 78
     2
 67
     7
 79
     6
170
     0
171
     0
290
     0
174
     0
 93
        1
 44
0.0
173
     0
291
     0
 45
0.0
1001
ACAD
1000
AcDbSavedByObjectVersion
1070
     0
  0
VISUALSTYLE
  5
81D5
102
{ACAD_XDICTIONARY
360
83EE
102
}
102
{ACAD_REACTORS
330
81C8
102
}
330
81C8
100
AcDbVisualStyle
  2
Thicken
 70
    13
 71
     2
 72
     2
 73
     0
 90
        0
 40
-0.6
 41
-30.0
 62
     5
 63
     7
 74
     1
 91
        4
 64
     7
 65
   257
 75
     1
175
     1
 42
1.0
 92
       12
 66
     7
 43
1.0
 76
     1
 77
     6
 78
     2
 67
     7
 79
     5
170
     0
171
     0
290
     0
174
     0
 93
        1
 44
0.0
173
     0
291
     1
 45
0.0
1001
ACAD
1000
AcDbSavedByObjectVersion
1070
     0
  0
VISUALSTYLE
  5
81CF
102
{ACAD_XDICTIONARY
360
83E2
102
}
102
{ACAD_REACTORS
330
81C8
102
}
330
81C8
100
AcDbVisualStyle
  2
Wireframe
 70
     5
 71
     0
 72
     2
 73
     0
 90
        0
 40
-0.6
 41
-30.0
 62
     5
 63
     7
 74
     1
 91
        4
 64
     7
 65
   257
 75
     1
175
     1
 42
1.0
 92
        0
 66
   257
 43
1.0
 76
     1
 77
     6
 78
     2
 67
     7
 79
     3
170
     0
171
     0
290
     0
174
     0
 93
        1
 44
0.0
173
     0
291
     0
 45
0.0
1001
ACAD
1000
AcDbSavedByObjectVersion
1070
     0
  0
VISUALSTYLE
  5
81DB
102
{ACAD_XDICTIONARY
360
83FA
102
}
102
{ACAD_REACTORS
330
81C8
102
}
330
81C8
100
AcDbVisualStyle
  2
X-Ray
 70
    25
 71
     2
 72
     2
 73
     1
 90
        1
 40
0.5
 41
-30.0
 62
     5
 63
     7
 74
     1
 91
        0
 64
     7
 65
   257
 75
     1
175
     1
 42
1.0
 92
        8
 66
     7
 43
1.0
 76
     1
 77
     6
 78
     2
 67
     7
 79
     3
170
     0
171
     0
290
     0
174
     0
 93
       13
 44
0.0
173
     0
291
     0
 45
0.0
1001
ACAD
1000
AcDbSavedByObjectVersion
1070
     0
  0
DICTIONARYVAR
  5
825A
102
{ACAD_REACTORS
330
8255
102
}
330
8255
100
DictionaryVariables
280
     0
  1
1:1
  0
DICTIONARYVAR
  5
8257
102
{ACAD_REACTORS
330
8255
102
}
330
8255
100
DictionaryVariables
280
     0
  1
STANDARD
  0
DICTIONARYVAR
  5
8256
102
{ACAD_REACTORS
330
8255
102
}
330
8255
100
DictionaryVariables
280
     0
  1
STANDARD
  0
DICTIONARYVAR
  5
8258
102
{ACAD_REACTORS
330
8255
102
}
330
8255
100
DictionaryVariables
280
     0
  1
Imperial24
  0
DICTIONARYVAR
  5
8259
102
{ACAD_REACTORS
330
8255
102
}
330
8255
100
DictionaryVariables
280
     0
  1
Imperial24
  0
DICTIONARYVAR
  5
825D
102
{ACAD_REACTORS
330
8255
102
}
330
8255
100
DictionaryVariables
280
     0
  1
1
  0
DICTIONARYVAR
  5
825C
102
{ACAD_REACTORS
330
8255
102
}
330
8255
100
DictionaryVariables
280
     0
  1
0
  0
DICTIONARYVAR
  5
825B
102
{ACAD_REACTORS
330
8255
102
}
330
8255
100
DictionaryVariables
280
     0
  1
127
  0
DICTIONARYVAR
  5
825E
102
{ACAD_REACTORS
330
8255
102
}
330
8255
100
DictionaryVariables
280
     0
  1
2
  0
DICTIONARY
  5
840A
330
8209
100
AcDbDictionary
280
     1
281
     1
  3
ACAD_XREC_ROUNDTRIP
360
840B
  0
DICTIONARY
  5
840E
330
8211
100
AcDbDictionary
280
     1
281
     1
  3
ACAD_XREC_ROUNDTRIP
360
840F
  0
DICTIONARY
  5
840C
330
820D
100
AcDbDictionary
280
     1
281
     1
  3
ACAD_XREC_ROUNDTRIP
360
840D
  0
DICTIONARY
  5
81B9
330
81B8
100
AcDbDictionary
280
     1
281
     1
  3
ACAD_XREC_ROUNDTRIP
360
83D4
  3
BUMPTILE
360
81BB
  3
DIFFUSETILE
360
81BA
  3
OPACITYTILE
360
81BE
  3
REFLECTIONTILE
360
81BD
  3
REFRACTIONTILE
360
81BF
  3
SPECULARTILE
360
81BC
  0
DICTIONARY
  5
81B1
330
81B0
100
AcDbDictionary
280
     1
281
     1
  3
ACAD_XREC_ROUNDTRIP
360
83D3
  3
BUMPTILE
360
81B3
  3
DIFFUSETILE
360
81B2
  3
OPACITYTILE
360
81B6
  3
REFLECTIONTILE
360
81B5
  3
REFRACTIONTILE
360
81B7
  3
SPECULARTILE
360
81B4
  0
DICTIONARY
  5
81C1
330
81C0
100
AcDbDictionary
280
     1
281
     1
  3
ACAD_XREC_ROUNDTRIP
360
83D5
  3
BUMPTILE
360
81C3
  3
DIFFUSETILE
360
81C2
  3
OPACITYTILE
360
81C6
  3
REFLECTIONTILE
360
81C5
  3
REFRACTIONTILE
360
81C7
  3
SPECULARTILE
360
81C4
  0
DICTIONARY
  5
8408
330
8207
100
AcDbDictionary
280
     1
281
     1
  3
ACAD_XREC_ROUNDTRIP
360
8409
  0
DICTIONARY
  5
83CF
330
8203
100
AcDbDictionary
280
     1
281
     1
  3
ACAD_ROUNDTRIP_2008_TABLESTYLE_CELLSTYLEMAP
360
83D0
  3
ACAD_XREC_ROUNDTRIP
360
8406
  0
DICTIONARY
  5
83E0
330
81CE
100
AcDbDictionary
280
     1
281
     1
  3
ACAD_XREC_ROUNDTRIP
360
83E1
  0
DICTIONARY
  5
83DE
330
81CD
100
AcDbDictionary
280
     1
281
     1
  3
ACAD_XREC_ROUNDTRIP
360
83DF
  0
DICTIONARY
  5
83EC
330
81D4
100
AcDbDictionary
280
     1
281
     1
  3
ACAD_XREC_ROUNDTRIP
360
83ED
  0
DICTIONARY
  5
83F4
330
81D8
100
AcDbDictionary
280
     1
281
     1
  3
ACAD_XREC_ROUNDTRIP
360
83F5
  0
DICTIONARY
  5
83E6
330
81D1
100
AcDbDictionary
280
     1
281
     1
  3
ACAD_XREC_ROUNDTRIP
360
83E7
  0
DICTIONARY
  5
83EA
330
81D3
100
AcDbDictionary
280
     1
281
     1
  3
ACAD_XREC_ROUNDTRIP
360
83EB
  0
DICTIONARY
  5
8404
330
81E0
100
AcDbDictionary
280
     1
281
     1
  3
ACAD_XREC_ROUNDTRIP
360
8405
  0
DICTIONARY
  5
83F2
330
81D7
100
AcDbDictionary
280
     1
281
     1
  3
ACAD_XREC_ROUNDTRIP
360
83F3
  0
DICTIONARY
  5
83D6
330
81C9
100
AcDbDictionary
280
     1
281
     1
  3
ACAD_XREC_ROUNDTRIP
360
83D7
  0
DICTIONARY
  5
83D8
330
81CA
100
AcDbDictionary
280
     1
281
     1
  3
ACAD_XREC_ROUNDTRIP
360
83D9
  0
DICTIONARY
  5
83DA
330
81CB
100
AcDbDictionary
280
     1
281
     1
  3
ACAD_XREC_ROUNDTRIP
360
83DB
  0
DICTIONARY
  5
83DC
330
81CC
100
AcDbDictionary
280
     1
281
     1
  3
ACAD_XREC_ROUNDTRIP
360
83DD
  0
DICTIONARY
  5
83E4
330
81D0
100
AcDbDictionary
280
     1
281
     1
  3
ACAD_XREC_ROUNDTRIP
360
83E5
  0
DICTIONARY
  5
8400
330
81DE
100
AcDbDictionary
280
     1
281
     1
  3
ACAD_XREC_ROUNDTRIP
360
8401
  0
DICTIONARY
  5
83F0
330
81D6
100
AcDbDictionary
280
     1
281
     1
  3
ACAD_XREC_ROUNDTRIP
360
83F1
  0
DICTIONARY
  5
8402
330
81DF
100
AcDbDictionary
280
     1
281
     1
  3
ACAD_XREC_ROUNDTRIP
360
8403
  0
DICTIONARY
  5
83E8
330
81D2
100
AcDbDictionary
280
     1
281
     1
  3
ACAD_XREC_ROUNDTRIP
360
83E9
  0
DICTIONARY
  5
83FE
330
81DD
100
AcDbDictionary
280
     1
281
     1
  3
ACAD_XREC_ROUNDTRIP
360
83FF
  0
DICTIONARY
  5
83FC
330
81DC
100
AcDbDictionary
280
     1
281
     1
  3
ACAD_XREC_ROUNDTRIP
360
83FD
  0
DICTIONARY
  5
83F6
330
81D9
100
AcDbDictionary
280
     1
281
     1
  3
ACAD_XREC_ROUNDTRIP
360
83F7
  0
DICTIONARY
  5
83F8
330
81DA
100
AcDbDictionary
280
     1
281
     1
  3
ACAD_XREC_ROUNDTRIP
360
83F9
  0
DICTIONARY
  5
83EE
330
81D5
100
AcDbDictionary
280
     1
281
     1
  3
ACAD_XREC_ROUNDTRIP
360
83EF
  0
DICTIONARY
  5
83E2
330
81CF
100
AcDbDictionary
280
     1
281
     1
  3
ACAD_XREC_ROUNDTRIP
360
83E3
  0
DICTIONARY
  5
83FA
330
81DB
100
AcDbDictionary
280
     1
281
     1
  3
ACAD_XREC_ROUNDTRIP
360
83FB
  0
XRECORD
  5
840B
102
{ACAD_REACTORS
330
840A
102
}
330
840A
100
AcDbXrecord
280
     1
102
DISPLAYNAME
  1
Imperial24
102
FLAGS
 90
        0
  0
XRECORD
  5
840F
102
{ACAD_REACTORS
330
840E
102
}
330
840E
100
AcDbXrecord
280
     1
102
SHADEPLOT
 70
     0
102
SHADEPLOTRESLEVEL
 70
     2
102
SHADEPLOTCUSTOMDPI
 70
   300
  0
XRECORD
  5
840D
102
{ACAD_REACTORS
330
840C
102
}
330
840C
100
AcDbXrecord
280
     1
102
SHADEPLOT
 70
     0
102
SHADEPLOTRESLEVEL
 70
     2
102
SHADEPLOTCUSTOMDPI
 70
   300
  0
XRECORD
  5
83D4
102
{ACAD_REACTORS
330
81B9
102
}
330
81B9
100
AcDbXrecord
280
     1
102
MATERIAL
148
0.0
149
0.0
149
0.0
 93
        0
 94
      127
282
     0
 72
     0
 77
     0
171
     0
175
     0
179
     0
273
     0
  0
XRECORD
  5
81BB
102
{ACAD_REACTORS
330
81B9
102
}
330
81B9
100
AcDbXrecord
280
     1
270
     1
271
     1
  0
XRECORD
  5
81BA
102
{ACAD_REACTORS
330
81B9
102
}
330
81B9
100
AcDbXrecord
280
     1
270
     1
271
     1
  0
XRECORD
  5
81BE
102
{ACAD_REACTORS
330
81B9
102
}
330
81B9
100
AcDbXrecord
280
     1
270
     1
271
     1
  0
XRECORD
  5
81BD
102
{ACAD_REACTORS
330
81B9
102
}
330
81B9
100
AcDbXrecord
280
     1
270
     1
271
     1
  0
XRECORD
  5
81BF
102
{ACAD_REACTORS
330
81B9
102
}
330
81B9
100
AcDbXrecord
280
     1
270
     1
271
     1
  0
XRECORD
  5
81BC
102
{ACAD_REACTORS
330
81B9
102
}
330
81B9
100
AcDbXrecord
280
     1
270
     1
271
     1
  0
XRECORD
  5
83D3
102
{ACAD_REACTORS
330
81B1
102
}
330
81B1
100
AcDbXrecord
280
     1
102
MATERIAL
148
0.0
149
0.0
149
0.0
 93
        0
 94
      127
282
     0
 72
     0
 77
     0
171
     0
175
     0
179
     0
273
     0
  0
XRECORD
  5
81B3
102
{ACAD_REACTORS
330
81B1
102
}
330
81B1
100
AcDbXrecord
280
     1
270
     1
271
     1
  0
XRECORD
  5
81B2
102
{ACAD_REACTORS
330
81B1
102
}
330
81B1
100
AcDbXrecord
280
     1
270
     1
271
     1
  0
XRECORD
  5
81B6
102
{ACAD_REACTORS
330
81B1
102
}
330
81B1
100
AcDbXrecord
280
     1
270
     1
271
     1
  0
XRECORD
  5
81B5
102
{ACAD_REACTORS
330
81B1
102
}
330
81B1
100
AcDbXrecord
280
     1
270
     1
271
     1
  0
XRECORD
  5
81B7
102
{ACAD_REACTORS
330
81B1
102
}
330
81B1
100
AcDbXrecord
280
     1
270
     1
271
     1
  0
XRECORD
  5
81B4
102
{ACAD_REACTORS
330
81B1
102
}
330
81B1
100
AcDbXrecord
280
     1
270
     1
271
     1
  0
XRECORD
  5
83D5
102
{ACAD_REACTORS
330
81C1
102
}
330
81C1
100
AcDbXrecord
280
     1
102
MATERIAL
148
0.0
149
0.0
149
0.0
 93
        0
 94
      127
282
     0
 72
     0
 77
     0
171
     0
175
     0
179
     0
273
     0
  0
XRECORD
  5
81C3
102
{ACAD_REACTORS
330
81C1
102
}
330
81C1
100
AcDbXrecord
280
     1
270
     1
271
     1
  0
XRECORD
  5
81C2
102
{ACAD_REACTORS
330
81C1
102
}
330
81C1
100
AcDbXrecord
280
     1
270
     1
271
     1
  0
XRECORD
  5
81C6
102
{ACAD_REACTORS
330
81C1
102
}
330
81C1
100
AcDbXrecord
280
     1
270
     1
271
     1
  0
XRECORD
  5
81C5
102
{ACAD_REACTORS
330
81C1
102
}
330
81C1
100
AcDbXrecord
280
     1
270
     1
271
     1
  0
XRECORD
  5
81C7
102
{ACAD_REACTORS
330
81C1
102
}
330
81C1
100
AcDbXrecord
280
     1
270
     1
271
     1
  0
XRECORD
  5
81C4
102
{ACAD_REACTORS
330
81C1
102
}
330
81C1
100
AcDbXrecord
280
     1
270
     1
271
     1
  0
XRECORD
  5
8409
102
{ACAD_REACTORS
330
8408
102
}
330
8408
100
AcDbXrecord
280
     1
102
DISPLAYNAME
  1
Imperial24
102
FLAGS
 90
        0
  0
CELLSTYLEMAP
  5
83D0
102
{ACAD_REACTORS
330
83CF
102
}
330
83CF
100
AcDbCellStyleMap
 90
        3
300
CELLSTYLE
  1
TABLEFORMAT_BEGIN
 90
        5
170
     1
 91
        0
 92
    32768
 62
   257
 93
        1
300
CONTENTFORMAT
  1
CONTENTFORMAT_BEGIN
 90
        0
 91
        0
 92
      512
 93
        0
300

 40
0.0
140
1.0
 94
        5
 62
     0
340
81F4
144
0.25
309
CONTENTFORMAT_END
171
     0
 94
        0
309
TABLEFORMAT_END
  1
CELLSTYLE_BEGIN
 90
        1
 91
        1
300
_TITLE
309
CELLSTYLE_END
300
CELLSTYLE
  1
TABLEFORMAT_BEGIN
 90
        5
170
     1
 91
        0
 92
        0
 62
   257
 93
        1
300
CONTENTFORMAT
  1
CONTENTFORMAT_BEGIN
 90
        0
 91
        0
 92
      512
 93
        0
300

 40
0.0
140
1.0
 94
        5
 62
     0
340
81F4
144
0.18
309
CONTENTFORMAT_END
171
     0
 94
        0
309
TABLEFORMAT_END
  1
CELLSTYLE_BEGIN
 90
        2
 91
        1
300
_HEADER
309
CELLSTYLE_END
300
CELLSTYLE
  1
TABLEFORMAT_BEGIN
 90
        5
170
     1
 91
        0
 92
        0
 62
   257
 93
        1
300
CONTENTFORMAT
  1
CONTENTFORMAT_BEGIN
 90
        0
 91
        0
 92
      512
 93
        0
300

 40
0.0
140
1.0
 94
        2
 62
     0
340
81F4
144
0.18
309
CONTENTFORMAT_END
171
     0
 94
        0
309
TABLEFORMAT_END
  1
CELLSTYLE_BEGIN
 90
        3
 91
        2
300
_DATA
309
CELLSTYLE_END
  0
XRECORD
  5
8406
102
{ACAD_REACTORS
330
83CF
102
}
330
83CF
100
AcDbXrecord
280
     1
102
ACAD_ROUNDTRIP_PRE2007_TABLESTYLE
 90
      512
 91
        0
  1

 92
      512
 93
        0
  2

 94
      512
 95
        0
  3

  0
XRECORD
  5
83E1
102
{ACAD_REACTORS
330
83E0
102
}
330
83E0
100
AcDbXrecord
280
     1
102
RTVSPost2010Prop28
280
     1
102
RTVSPost2010PropOp28
 70
     1
102
RTVSPost2010Prop29
280
     1
102
RTVSPost2010PropOp29
 70
     1
102
RTVSPost2010Prop30
280
     0
102
RTVSPost2010PropOp30
 70
     1
102
RTVSPost2010Prop31
280
     0
102
RTVSPost2010PropOp31
 70
     1
102
RTVSPost2010Prop32
280
     0
102
RTVSPost2010PropOp32
 70
     1
102
RTVSPost2010Prop33
280
     0
102
RTVSPost2010PropOp33
 70
     1
102
RTVSPost2010Prop34
280
     0
102
RTVSPost2010PropOp34
 70
     1
102
RTVSPost2010Prop35
280
     0
102
RTVSPost2010PropOp35
 70
     1
102
RTVSPost2010Prop36
280
     0
102
RTVSPost2010PropOp36
 70
     1
102
RTVSPost2010Prop37
 90
       50
102
RTVSPost2010PropOp37
 70
     1
102
RTVSPost2010Prop38
140
0.0
102
RTVSPost2010PropOp38
 70
     1
102
RTVSPost2010Prop39
140
1.0
102
RTVSPost2010PropOp39
 70
     1
102
RTVSPost2010Prop40
 90
        0
102
RTVSPost2010PropOp40
 70
     1
102
RTVSPost2010Prop41ColorIndex
 90
       18
102
RTVSPost2010Prop41ColorRGB
 90
        0
102
RTVSPost2010PropOp41
 70
     1
102
RTVSPost2010Prop42
 90
       50
102
RTVSPost2010PropOp42
 70
     1
102
RTVSPost2010Prop43
 90
        3
102
RTVSPost2010PropOp43
 70
     1
102
RTVSPost2010Prop44ColorIndex
 90
        5
102
RTVSPost2010Prop44ColorRGB
 90
      255
102
RTVSPost2010PropOp44
 70
     1
102
RTVSPost2010Prop45
280
     0
102
RTVSPost2010PropOp45
 70
     1
102
RTVSPost2010Prop46
 90
       50
102
RTVSPost2010PropOp46
 70
     1
102
RTVSPost2010Prop47
 90
       50
102
RTVSPost2010PropOp47
 70
     1
102
RTVSPost2010Prop48
 90
       50
102
RTVSPost2010PropOp48
 70
     1
102
RTVSPost2010Prop49
280
     0
102
RTVSPost2010PropOp49
 70
     1
102
RTVSPost2010Prop50
 90
       50
102
RTVSPost2010PropOp50
 70
     1
102
RTVSPost2010Prop51ColorIndex
 90
      256
102
RTVSPost2010Prop51ColorRGB
 90
-16777216
102
RTVSPost2010PropOp51
 70
     0
102
RTVSPost2010Prop52
140
1.0
102
RTVSPost2010PropOp52
 70
     0
102
RTVSPost2010Prop53
 90
        2
102
RTVSPost2010PropOp53
 70
     1
102
RTVSPost2010Prop54
  1
strokes_ogs.tif
102
RTVSPost2010PropOp54
 70
     1
102
RTVSPost2010Prop55
280
     0
102
RTVSPost2010PropOp55
 70
     1
102
RTVSPost2010Prop56
140
1.0
102
RTVSPost2010PropOp56
 70
     1
102
RTVSPost2010Prop57
140
1.0
102
RTVSPost2010PropOp57
 70
     1
102
RTVSPropertyOp0
 70
     1
102
RTVSPropertyOp1
 70
     1
102
RTVSPropertyOp2
 70
     1
102
RTVSPropertyOp3
 70
     1
102
RTVSPropertyOp4
 70
     1
102
RTVSPropertyOp5
 70
     1
102
RTVSPropertyOp6
 70
     1
102
RTVSPropertyOp7
 70
     1
102
RTVSPropertyOp8
 70
     1
102
RTVSPropertyOp9
 70
     1
102
RTVSPropertyOp10
 70
     1
102
RTVSPropertyOp11
 70
     1
102
RTVSPropertyOp12
 70
     1
102
RTVSPropertyOp13
 70
     1
102
RTVSPropertyOp14
 70
     1
102
RTVSPropertyOp15
 70
     1
102
RTVSPropertyOp16
 70
     1
102
RTVSPropertyOp17
 70
     1
102
RTVSPropertyOp18
 70
     1
102
RTVSPropertyOp19
 70
     1
102
RTVSPropertyOp20
 70
     1
102
RTVSPropertyOp21
 70
     1
102
RTVSPropertyOp22
 70
     1
102
RTVSPropertyOp23
 70
     1
102
RTVSPropertyOp24
 70
     1
102
RTVSPropertyOp25
 70
     1
102
RTVSPropertyOp26
 70
     1
102
RTVSPropertyOp27
 70
     1
102
RTVSPropertyOp28
 70
     1
102
RTVSPropertyOp29
 70
     1
102
RTVSPropertyOp30
 70
     1
102
RTVSPropertyOp31
 70
     1
102
RTVSPropertyOp32
 70
     1
102
RTVSPropertyOp33
 70
     1
102
RTVSPropertyOp34
 70
     1
102
RTVSPropertyOp35
 70
     1
102
RTVSPropertyOp36
 70
     1
102
RTVSPropertyOp37
 70
     1
102
RTVSPropertyOp38
 70
     1
102
RTVSPropertyOp39
 70
     1
102
RTVSPropertyOp40
 70
     1
102
RTVSPropertyOp41
 70
     1
102
RTVSPropertyOp42
 70
     1
102
RTVSPropertyOp43
 70
     1
102
RTVSPropertyOp44
 70
     1
102
RTVSPropertyOp45
 70
     1
102
RTVSPropertyOp46
 70
     1
102
RTVSPropertyOp47
 70
     1
102
RTVSPropertyOp48
 70
     1
102
RTVSPropertyOp49
 70
     1
102
RTVSPropertyOp50
 70
     1
102
RTVSPropertyOp51
 70
     0
102
RTVSPropertyOp52
 70
     0
102
RTVSPropertyOp53
 70
     1
102
RTVSPropertyOp54
 70
     1
102
RTVSPropertyOp55
 70
     1
102
RTVSPropertyOp56
 70
     1
102
RTVSPropertyOp57
 70
     1
102
RTVSPropertyOp58
 70
     1
102
RTVSPropertyOp59
 70
     1
102
RTVSPropertyOp60
 70
     1
102
RTVSPropertyOp61
 70
     1
102
RTVSPropertyOp62
 70
     1
  0
XRECORD
  5
83DF
102
{ACAD_REACTORS
330
83DE
102
}
330
83DE
100
AcDbXrecord
280
     1
102
RTVSPost2010Prop28
280
     0
102
RTVSPost2010PropOp28
 70
     1
102
RTVSPost2010Prop29
280
     1
102
RTVSPost2010PropOp29
 70
     1
102
RTVSPost2010Prop30
280
     1
102
RTVSPost2010PropOp30
 70
     1
102
RTVSPost2010Prop31
280
     0
102
RTVSPost2010PropOp31
 70
     1
102
RTVSPost2010Prop32
280
     0
102
RTVSPost2010PropOp32
 70
     1
102
RTVSPost2010Prop33
280
     0
102
RTVSPost2010PropOp33
 70
     1
102
RTVSPost2010Prop34
280
     0
102
RTVSPost2010PropOp34
 70
     1
102
RTVSPost2010Prop35
280
     0
102
RTVSPost2010PropOp35
 70
     1
102
RTVSPost2010Prop36
280
     0
102
RTVSPost2010PropOp36
 70
     1
102
RTVSPost2010Prop37
 90
       50
102
RTVSPost2010PropOp37
 70
     1
102
RTVSPost2010Prop38
140
0.0
102
RTVSPost2010PropOp38
 70
     1
102
RTVSPost2010Prop39
140
1.0
102
RTVSPost2010PropOp39
 70
     1
102
RTVSPost2010Prop40
 90
        0
102
RTVSPost2010PropOp40
 70
     1
102
RTVSPost2010Prop41ColorIndex
 90
       18
102
RTVSPost2010Prop41ColorRGB
 90
        0
102
RTVSPost2010PropOp41
 70
     1
102
RTVSPost2010Prop42
 90
       50
102
RTVSPost2010PropOp42
 70
     1
102
RTVSPost2010Prop43
 90
        3
102
RTVSPost2010PropOp43
 70
     1
102
RTVSPost2010Prop44ColorIndex
 90
        5
102
RTVSPost2010Prop44ColorRGB
 90
      255
102
RTVSPost2010PropOp44
 70
     1
102
RTVSPost2010Prop45
280
     0
102
RTVSPost2010PropOp45
 70
     1
102
RTVSPost2010Prop46
 90
       50
102
RTVSPost2010PropOp46
 70
     1
102
RTVSPost2010Prop47
 90
       50
102
RTVSPost2010PropOp47
 70
     1
102
RTVSPost2010Prop48
 90
       50
102
RTVSPost2010PropOp48
 70
     1
102
RTVSPost2010Prop49
280
     0
102
RTVSPost2010PropOp49
 70
     1
102
RTVSPost2010Prop50
 90
       50
102
RTVSPost2010PropOp50
 70
     1
102
RTVSPost2010Prop51ColorIndex
 90
      256
102
RTVSPost2010Prop51ColorRGB
 90
-16777216
102
RTVSPost2010PropOp51
 70
     0
102
RTVSPost2010Prop52
140
1.0
102
RTVSPost2010PropOp52
 70
     0
102
RTVSPost2010Prop53
 90
        2
102
RTVSPost2010PropOp53
 70
     1
102
RTVSPost2010Prop54
  1
strokes_ogs.tif
102
RTVSPost2010PropOp54
 70
     1
102
RTVSPost2010Prop55
280
     0
102
RTVSPost2010PropOp55
 70
     1
102
RTVSPost2010Prop56
140
1.0
102
RTVSPost2010PropOp56
 70
     1
102
RTVSPost2010Prop57
140
1.0
102
RTVSPost2010PropOp57
 70
     1
102
RTVSPropertyOp0
 70
     1
102
RTVSPropertyOp1
 70
     1
102
RTVSPropertyOp2
 70
     1
102
RTVSPropertyOp3
 70
     1
102
RTVSPropertyOp4
 70
     1
102
RTVSPropertyOp5
 70
     1
102
RTVSPropertyOp6
 70
     1
102
RTVSPropertyOp7
 70
     1
102
RTVSPropertyOp8
 70
     1
102
RTVSPropertyOp9
 70
     1
102
RTVSPropertyOp10
 70
     1
102
RTVSPropertyOp11
 70
     1
102
RTVSPropertyOp12
 70
     1
102
RTVSPropertyOp13
 70
     1
102
RTVSPropertyOp14
 70
     1
102
RTVSPropertyOp15
 70
     1
102
RTVSPropertyOp16
 70
     1
102
RTVSPropertyOp17
 70
     1
102
RTVSPropertyOp18
 70
     1
102
RTVSPropertyOp19
 70
     1
102
RTVSPropertyOp20
 70
     1
102
RTVSPropertyOp21
 70
     1
102
RTVSPropertyOp22
 70
     1
102
RTVSPropertyOp23
 70
     1
102
RTVSPropertyOp24
 70
     1
102
RTVSPropertyOp25
 70
     1
102
RTVSPropertyOp26
 70
     1
102
RTVSPropertyOp27
 70
     1
102
RTVSPropertyOp28
 70
     1
102
RTVSPropertyOp29
 70
     1
102
RTVSPropertyOp30
 70
     1
102
RTVSPropertyOp31
 70
     1
102
RTVSPropertyOp32
 70
     1
102
RTVSPropertyOp33
 70
     1
102
RTVSPropertyOp34
 70
     1
102
RTVSPropertyOp35
 70
     1
102
RTVSPropertyOp36
 70
     1
102
RTVSPropertyOp37
 70
     1
102
RTVSPropertyOp38
 70
     1
102
RTVSPropertyOp39
 70
     1
102
RTVSPropertyOp40
 70
     1
102
RTVSPropertyOp41
 70
     1
102
RTVSPropertyOp42
 70
     1
102
RTVSPropertyOp43
 70
     1
102
RTVSPropertyOp44
 70
     1
102
RTVSPropertyOp45
 70
     1
102
RTVSPropertyOp46
 70
     1
102
RTVSPropertyOp47
 70
     1
102
RTVSPropertyOp48
 70
     1
102
RTVSPropertyOp49
 70
     1
102
RTVSPropertyOp50
 70
     1
102
RTVSPropertyOp51
 70
     0
102
RTVSPropertyOp52
 70
     0
102
RTVSPropertyOp53
 70
     1
102
RTVSPropertyOp54
 70
     1
102
RTVSPropertyOp55
 70
     1
102
RTVSPropertyOp56
 70
     1
102
RTVSPropertyOp57
 70
     1
102
RTVSPropertyOp58
 70
     1
102
RTVSPropertyOp59
 70
     1
102
RTVSPropertyOp60
 70
     1
102
RTVSPropertyOp61
 70
     1
102
RTVSPropertyOp62
 70
     1
  0
XRECORD
  5
83ED
102
{ACAD_REACTORS
330
83EC
102
}
330
83EC
100
AcDbXrecord
280
     1
102
RTVSPost2010Prop28
280
     0
102
RTVSPost2010PropOp28
 70
     1
102
RTVSPost2010Prop29
280
     1
102
RTVSPost2010PropOp29
 70
     1
102
RTVSPost2010Prop30
280
     1
102
RTVSPost2010PropOp30
 70
     1
102
RTVSPost2010Prop31
280
     0
102
RTVSPost2010PropOp31
 70
     1
102
RTVSPost2010Prop32
280
     0
102
RTVSPost2010PropOp32
 70
     1
102
RTVSPost2010Prop33
280
     0
102
RTVSPost2010PropOp33
 70
     1
102
RTVSPost2010Prop34
280
     0
102
RTVSPost2010PropOp34
 70
     1
102
RTVSPost2010Prop35
280
     0
102
RTVSPost2010PropOp35
 70
     1
102
RTVSPost2010Prop36
280
     0
102
RTVSPost2010PropOp36
 70
     1
102
RTVSPost2010Prop37
 90
       50
102
RTVSPost2010PropOp37
 70
     1
102
RTVSPost2010Prop38
140
0.0
102
RTVSPost2010PropOp38
 70
     1
102
RTVSPost2010Prop39
140
1.0
102
RTVSPost2010PropOp39
 70
     1
102
RTVSPost2010Prop40
 90
        0
102
RTVSPost2010PropOp40
 70
     1
102
RTVSPost2010Prop41ColorIndex
 90
       18
102
RTVSPost2010Prop41ColorRGB
 90
        0
102
RTVSPost2010PropOp41
 70
     1
102
RTVSPost2010Prop42
 90
       50
102
RTVSPost2010PropOp42
 70
     1
102
RTVSPost2010Prop43
 90
        3
102
RTVSPost2010PropOp43
 70
     1
102
RTVSPost2010Prop44ColorIndex
 90
        5
102
RTVSPost2010Prop44ColorRGB
 90
      255
102
RTVSPost2010PropOp44
 70
     1
102
RTVSPost2010Prop45
280
     0
102
RTVSPost2010PropOp45
 70
     1
102
RTVSPost2010Prop46
 90
       50
102
RTVSPost2010PropOp46
 70
     1
102
RTVSPost2010Prop47
 90
       50
102
RTVSPost2010PropOp47
 70
     1
102
RTVSPost2010Prop48
 90
       50
102
RTVSPost2010PropOp48
 70
     1
102
RTVSPost2010Prop49
280
     0
102
RTVSPost2010PropOp49
 70
     1
102
RTVSPost2010Prop50
 90
       50
102
RTVSPost2010PropOp50
 70
     1
102
RTVSPost2010Prop51ColorIndex
 90
      256
102
RTVSPost2010Prop51ColorRGB
 90
-16777216
102
RTVSPost2010PropOp51
 70
     0
102
RTVSPost2010Prop52
140
1.0
102
RTVSPost2010PropOp52
 70
     0
102
RTVSPost2010Prop53
 90
        2
102
RTVSPost2010PropOp53
 70
     1
102
RTVSPost2010Prop54
  1
strokes_ogs.tif
102
RTVSPost2010PropOp54
 70
     1
102
RTVSPost2010Prop55
280
     0
102
RTVSPost2010PropOp55
 70
     1
102
RTVSPost2010Prop56
140
1.0
102
RTVSPost2010PropOp56
 70
     1
102
RTVSPost2010Prop57
140
1.0
102
RTVSPost2010PropOp57
 70
     1
102
RTVSPropertyOp0
 70
     1
102
RTVSPropertyOp1
 70
     1
102
RTVSPropertyOp2
 70
     1
102
RTVSPropertyOp3
 70
     1
102
RTVSPropertyOp4
 70
     1
102
RTVSPropertyOp5
 70
     1
102
RTVSPropertyOp6
 70
     1
102
RTVSPropertyOp7
 70
     1
102
RTVSPropertyOp8
 70
     1
102
RTVSPropertyOp9
 70
     1
102
RTVSPropertyOp10
 70
     1
102
RTVSPropertyOp11
 70
     1
102
RTVSPropertyOp12
 70
     1
102
RTVSPropertyOp13
 70
     1
102
RTVSPropertyOp14
 70
     1
102
RTVSPropertyOp15
 70
     1
102
RTVSPropertyOp16
 70
     1
102
RTVSPropertyOp17
 70
     1
102
RTVSPropertyOp18
 70
     1
102
RTVSPropertyOp19
 70
     1
102
RTVSPropertyOp20
 70
     1
102
RTVSPropertyOp21
 70
     1
102
RTVSPropertyOp22
 70
     1
102
RTVSPropertyOp23
 70
     1
102
RTVSPropertyOp24
 70
     1
102
RTVSPropertyOp25
 70
     1
102
RTVSPropertyOp26
 70
     1
102
RTVSPropertyOp27
 70
     1
102
RTVSPropertyOp28
 70
     1
102
RTVSPropertyOp29
 70
     1
102
RTVSPropertyOp30
 70
     1
102
RTVSPropertyOp31
 70
     1
102
RTVSPropertyOp32
 70
     1
102
RTVSPropertyOp33
 70
     1
102
RTVSPropertyOp34
 70
     1
102
RTVSPropertyOp35
 70
     1
102
RTVSPropertyOp36
 70
     1
102
RTVSPropertyOp37
 70
     1
102
RTVSPropertyOp38
 70
     1
102
RTVSPropertyOp39
 70
     1
102
RTVSPropertyOp40
 70
     1
102
RTVSPropertyOp41
 70
     1
102
RTVSPropertyOp42
 70
     1
102
RTVSPropertyOp43
 70
     1
102
RTVSPropertyOp44
 70
     1
102
RTVSPropertyOp45
 70
     1
102
RTVSPropertyOp46
 70
     1
102
RTVSPropertyOp47
 70
     1
102
RTVSPropertyOp48
 70
     1
102
RTVSPropertyOp49
 70
     1
102
RTVSPropertyOp50
 70
     1
102
RTVSPropertyOp51
 70
     0
102
RTVSPropertyOp52
 70
     0
102
RTVSPropertyOp53
 70
     1
102
RTVSPropertyOp54
 70
     1
102
RTVSPropertyOp55
 70
     1
102
RTVSPropertyOp56
 70
     1
102
RTVSPropertyOp57
 70
     1
102
RTVSPropertyOp58
 70
     1
102
RTVSPropertyOp59
 70
     1
102
RTVSPropertyOp60
 70
     1
102
RTVSPropertyOp61
 70
     1
102
RTVSPropertyOp62
 70
     1
  0
XRECORD
  5
83F5
102
{ACAD_REACTORS
330
83F4
102
}
330
83F4
100
AcDbXrecord
280
     1
102
RTVSPost2010Prop28
280
     0
102
RTVSPost2010PropOp28
 70
     1
102
RTVSPost2010Prop29
280
     1
102
RTVSPost2010PropOp29
 70
     1
102
RTVSPost2010Prop30
280
     1
102
RTVSPost2010PropOp30
 70
     1
102
RTVSPost2010Prop31
280
     0
102
RTVSPost2010PropOp31
 70
     1
102
RTVSPost2010Prop32
280
     0
102
RTVSPost2010PropOp32
 70
     1
102
RTVSPost2010Prop33
280
     0
102
RTVSPost2010PropOp33
 70
     1
102
RTVSPost2010Prop34
280
     0
102
RTVSPost2010PropOp34
 70
     1
102
RTVSPost2010Prop35
280
     0
102
RTVSPost2010PropOp35
 70
     1
102
RTVSPost2010Prop36
280
     0
102
RTVSPost2010PropOp36
 70
     1
102
RTVSPost2010Prop37
 90
       50
102
RTVSPost2010PropOp37
 70
     1
102
RTVSPost2010Prop38
140
0.0
102
RTVSPost2010PropOp38
 70
     1
102
RTVSPost2010Prop39
140
1.0
102
RTVSPost2010PropOp39
 70
     1
102
RTVSPost2010Prop40
 90
        0
102
RTVSPost2010PropOp40
 70
     1
102
RTVSPost2010Prop41ColorIndex
 90
       18
102
RTVSPost2010Prop41ColorRGB
 90
        0
102
RTVSPost2010PropOp41
 70
     1
102
RTVSPost2010Prop42
 90
       50
102
RTVSPost2010PropOp42
 70
     1
102
RTVSPost2010Prop43
 90
        3
102
RTVSPost2010PropOp43
 70
     1
102
RTVSPost2010Prop44ColorIndex
 90
        5
102
RTVSPost2010Prop44ColorRGB
 90
      255
102
RTVSPost2010PropOp44
 70
     1
102
RTVSPost2010Prop45
280
     0
102
RTVSPost2010PropOp45
 70
     1
102
RTVSPost2010Prop46
 90
       50
102
RTVSPost2010PropOp46
 70
     1
102
RTVSPost2010Prop47
 90
       50
102
RTVSPost2010PropOp47
 70
     1
102
RTVSPost2010Prop48
 90
       50
102
RTVSPost2010PropOp48
 70
     1
102
RTVSPost2010Prop49
280
     0
102
RTVSPost2010PropOp49
 70
     1
102
RTVSPost2010Prop50
 90
       50
102
RTVSPost2010PropOp50
 70
     1
102
RTVSPost2010Prop51ColorIndex
 90
      256
102
RTVSPost2010Prop51ColorRGB
 90
-16777216
102
RTVSPost2010PropOp51
 70
     0
102
RTVSPost2010Prop52
140
1.0
102
RTVSPost2010PropOp52
 70
     0
102
RTVSPost2010Prop53
 90
        2
102
RTVSPost2010PropOp53
 70
     1
102
RTVSPost2010Prop54
  1
strokes_ogs.tif
102
RTVSPost2010PropOp54
 70
     1
102
RTVSPost2010Prop55
280
     0
102
RTVSPost2010PropOp55
 70
     1
102
RTVSPost2010Prop56
140
1.0
102
RTVSPost2010PropOp56
 70
     1
102
RTVSPost2010Prop57
140
1.0
102
RTVSPost2010PropOp57
 70
     1
102
RTVSPropertyOp0
 70
     1
102
RTVSPropertyOp1
 70
     1
102
RTVSPropertyOp2
 70
     1
102
RTVSPropertyOp3
 70
     1
102
RTVSPropertyOp4
 70
     1
102
RTVSPropertyOp5
 70
     1
102
RTVSPropertyOp6
 70
     1
102
RTVSPropertyOp7
 70
     1
102
RTVSPropertyOp8
 70
     1
102
RTVSPropertyOp9
 70
     1
102
RTVSPropertyOp10
 70
     1
102
RTVSPropertyOp11
 70
     1
102
RTVSPropertyOp12
 70
     1
102
RTVSPropertyOp13
 70
     1
102
RTVSPropertyOp14
 70
     1
102
RTVSPropertyOp15
 70
     1
102
RTVSPropertyOp16
 70
     1
102
RTVSPropertyOp17
 70
     1
102
RTVSPropertyOp18
 70
     1
102
RTVSPropertyOp19
 70
     1
102
RTVSPropertyOp20
 70
     1
102
RTVSPropertyOp21
 70
     1
102
RTVSPropertyOp22
 70
     1
102
RTVSPropertyOp23
 70
     1
102
RTVSPropertyOp24
 70
     1
102
RTVSPropertyOp25
 70
     1
102
RTVSPropertyOp26
 70
     1
102
RTVSPropertyOp27
 70
     1
102
RTVSPropertyOp28
 70
     1
102
RTVSPropertyOp29
 70
     1
102
RTVSPropertyOp30
 70
     1
102
RTVSPropertyOp31
 70
     1
102
RTVSPropertyOp32
 70
     1
102
RTVSPropertyOp33
 70
     1
102
RTVSPropertyOp34
 70
     1
102
RTVSPropertyOp35
 70
     1
102
RTVSPropertyOp36
 70
     1
102
RTVSPropertyOp37
 70
     1
102
RTVSPropertyOp38
 70
     1
102
RTVSPropertyOp39
 70
     1
102
RTVSPropertyOp40
 70
     1
102
RTVSPropertyOp41
 70
     1
102
RTVSPropertyOp42
 70
     1
102
RTVSPropertyOp43
 70
     1
102
RTVSPropertyOp44
 70
     1
102
RTVSPropertyOp45
 70
     1
102
RTVSPropertyOp46
 70
     1
102
RTVSPropertyOp47
 70
     1
102
RTVSPropertyOp48
 70
     1
102
RTVSPropertyOp49
 70
     1
102
RTVSPropertyOp50
 70
     1
102
RTVSPropertyOp51
 70
     0
102
RTVSPropertyOp52
 70
     0
102
RTVSPropertyOp53
 70
     1
102
RTVSPropertyOp54
 70
     1
102
RTVSPropertyOp55
 70
     1
102
RTVSPropertyOp56
 70
     1
102
RTVSPropertyOp57
 70
     1
102
RTVSPropertyOp58
 70
     1
102
RTVSPropertyOp59
 70
     1
102
RTVSPropertyOp60
 70
     1
102
RTVSPropertyOp61
 70
     1
102
RTVSPropertyOp62
 70
     1
  0
XRECORD
  5
83E7
102
{ACAD_REACTORS
330
83E6
102
}
330
83E6
100
AcDbXrecord
280
     1
102
RTVSPost2010Prop28
280
     0
102
RTVSPost2010PropOp28
 70
     1
102
RTVSPost2010Prop29
280
     1
102
RTVSPost2010PropOp29
 70
     1
102
RTVSPost2010Prop30
280
     1
102
RTVSPost2010PropOp30
 70
     1
102
RTVSPost2010Prop31
280
     0
102
RTVSPost2010PropOp31
 70
     1
102
RTVSPost2010Prop32
280
     0
102
RTVSPost2010PropOp32
 70
     1
102
RTVSPost2010Prop33
280
     0
102
RTVSPost2010PropOp33
 70
     1
102
RTVSPost2010Prop34
280
     0
102
RTVSPost2010PropOp34
 70
     1
102
RTVSPost2010Prop35
280
     0
102
RTVSPost2010PropOp35
 70
     1
102
RTVSPost2010Prop36
280
     0
102
RTVSPost2010PropOp36
 70
     1
102
RTVSPost2010Prop37
 90
       50
102
RTVSPost2010PropOp37
 70
     1
102
RTVSPost2010Prop38
140
0.0
102
RTVSPost2010PropOp38
 70
     1
102
RTVSPost2010Prop39
140
1.0
102
RTVSPost2010PropOp39
 70
     1
102
RTVSPost2010Prop40
 90
        0
102
RTVSPost2010PropOp40
 70
     1
102
RTVSPost2010Prop41ColorIndex
 90
       18
102
RTVSPost2010Prop41ColorRGB
 90
        0
102
RTVSPost2010PropOp41
 70
     1
102
RTVSPost2010Prop42
 90
       50
102
RTVSPost2010PropOp42
 70
     1
102
RTVSPost2010Prop43
 90
        3
102
RTVSPost2010PropOp43
 70
     1
102
RTVSPost2010Prop44ColorIndex
 90
        5
102
RTVSPost2010Prop44ColorRGB
 90
      255
102
RTVSPost2010PropOp44
 70
     1
102
RTVSPost2010Prop45
280
     0
102
RTVSPost2010PropOp45
 70
     1
102
RTVSPost2010Prop46
 90
       50
102
RTVSPost2010PropOp46
 70
     1
102
RTVSPost2010Prop47
 90
       50
102
RTVSPost2010PropOp47
 70
     1
102
RTVSPost2010Prop48
 90
       50
102
RTVSPost2010PropOp48
 70
     1
102
RTVSPost2010Prop49
280
     0
102
RTVSPost2010PropOp49
 70
     1
102
RTVSPost2010Prop50
 90
       50
102
RTVSPost2010PropOp50
 70
     1
102
RTVSPost2010Prop51ColorIndex
 90
      256
102
RTVSPost2010Prop51ColorRGB
 90
-16777216
102
RTVSPost2010PropOp51
 70
     0
102
RTVSPost2010Prop52
140
1.0
102
RTVSPost2010PropOp52
 70
     0
102
RTVSPost2010Prop53
 90
        2
102
RTVSPost2010PropOp53
 70
     1
102
RTVSPost2010Prop54
  1
strokes_ogs.tif
102
RTVSPost2010PropOp54
 70
     1
102
RTVSPost2010Prop55
280
     0
102
RTVSPost2010PropOp55
 70
     1
102
RTVSPost2010Prop56
140
1.0
102
RTVSPost2010PropOp56
 70
     1
102
RTVSPost2010Prop57
140
1.0
102
RTVSPost2010PropOp57
 70
     1
102
RTVSPropertyOp0
 70
     1
102
RTVSPropertyOp1
 70
     1
102
RTVSPropertyOp2
 70
     1
102
RTVSPropertyOp3
 70
     1
102
RTVSPropertyOp4
 70
     1
102
RTVSPropertyOp5
 70
     1
102
RTVSPropertyOp6
 70
     1
102
RTVSPropertyOp7
 70
     1
102
RTVSPropertyOp8
 70
     1
102
RTVSPropertyOp9
 70
     1
102
RTVSPropertyOp10
 70
     1
102
RTVSPropertyOp11
 70
     1
102
RTVSPropertyOp12
 70
     1
102
RTVSPropertyOp13
 70
     1
102
RTVSPropertyOp14
 70
     1
102
RTVSPropertyOp15
 70
     1
102
RTVSPropertyOp16
 70
     1
102
RTVSPropertyOp17
 70
     1
102
RTVSPropertyOp18
 70
     1
102
RTVSPropertyOp19
 70
     1
102
RTVSPropertyOp20
 70
     1
102
RTVSPropertyOp21
 70
     1
102
RTVSPropertyOp22
 70
     1
102
RTVSPropertyOp23
 70
     1
102
RTVSPropertyOp24
 70
     1
102
RTVSPropertyOp25
 70
     1
102
RTVSPropertyOp26
 70
     1
102
RTVSPropertyOp27
 70
     1
102
RTVSPropertyOp28
 70
     1
102
RTVSPropertyOp29
 70
     1
102
RTVSPropertyOp30
 70
     1
102
RTVSPropertyOp31
 70
     1
102
RTVSPropertyOp32
 70
     1
102
RTVSPropertyOp33
 70
     1
102
RTVSPropertyOp34
 70
     1
102
RTVSPropertyOp35
 70
     1
102
RTVSPropertyOp36
 70
     1
102
RTVSPropertyOp37
 70
     1
102
RTVSPropertyOp38
 70
     1
102
RTVSPropertyOp39
 70
     1
102
RTVSPropertyOp40
 70
     1
102
RTVSPropertyOp41
 70
     1
102
RTVSPropertyOp42
 70
     1
102
RTVSPropertyOp43
 70
     1
102
RTVSPropertyOp44
 70
     1
102
RTVSPropertyOp45
 70
     1
102
RTVSPropertyOp46
 70
     1
102
RTVSPropertyOp47
 70
     1
102
RTVSPropertyOp48
 70
     1
102
RTVSPropertyOp49
 70
     1
102
RTVSPropertyOp50
 70
     1
102
RTVSPropertyOp51
 70
     0
102
RTVSPropertyOp52
 70
     0
102
RTVSPropertyOp53
 70
     1
102
RTVSPropertyOp54
 70
     1
102
RTVSPropertyOp55
 70
     1
102
RTVSPropertyOp56
 70
     1
102
RTVSPropertyOp57
 70
     1
102
RTVSPropertyOp58
 70
     1
102
RTVSPropertyOp59
 70
     1
102
RTVSPropertyOp60
 70
     1
102
RTVSPropertyOp61
 70
     1
102
RTVSPropertyOp62
 70
     1
  0
XRECORD
  5
83EB
102
{ACAD_REACTORS
330
83EA
102
}
330
83EA
100
AcDbXrecord
280
     1
102
RTVSPost2010Prop28
280
     0
102
RTVSPost2010PropOp28
 70
     1
102
RTVSPost2010Prop29
280
     1
102
RTVSPost2010PropOp29
 70
     1
102
RTVSPost2010Prop30
280
     1
102
RTVSPost2010PropOp30
 70
     1
102
RTVSPost2010Prop31
280
     0
102
RTVSPost2010PropOp31
 70
     1
102
RTVSPost2010Prop32
280
     0
102
RTVSPost2010PropOp32
 70
     1
102
RTVSPost2010Prop33
280
     0
102
RTVSPost2010PropOp33
 70
     1
102
RTVSPost2010Prop34
280
     0
102
RTVSPost2010PropOp34
 70
     1
102
RTVSPost2010Prop35
280
     0
102
RTVSPost2010PropOp35
 70
     1
102
RTVSPost2010Prop36
280
     0
102
RTVSPost2010PropOp36
 70
     1
102
RTVSPost2010Prop37
 90
       50
102
RTVSPost2010PropOp37
 70
     1
102
RTVSPost2010Prop38
140
0.0
102
RTVSPost2010PropOp38
 70
     1
102
RTVSPost2010Prop39
140
1.0
102
RTVSPost2010PropOp39
 70
     1
102
RTVSPost2010Prop40
 90
        0
102
RTVSPost2010PropOp40
 70
     1
102
RTVSPost2010Prop41ColorIndex
 90
       18
102
RTVSPost2010Prop41ColorRGB
 90
        0
102
RTVSPost2010PropOp41
 70
     1
102
RTVSPost2010Prop42
 90
       50
102
RTVSPost2010PropOp42
 70
     1
102
RTVSPost2010Prop43
 90
        3
102
RTVSPost2010PropOp43
 70
     1
102
RTVSPost2010Prop44ColorIndex
 90
        5
102
RTVSPost2010Prop44ColorRGB
 90
      255
102
RTVSPost2010PropOp44
 70
     1
102
RTVSPost2010Prop45
280
     0
102
RTVSPost2010PropOp45
 70
     1
102
RTVSPost2010Prop46
 90
       50
102
RTVSPost2010PropOp46
 70
     1
102
RTVSPost2010Prop47
 90
       50
102
RTVSPost2010PropOp47
 70
     1
102
RTVSPost2010Prop48
 90
       50
102
RTVSPost2010PropOp48
 70
     1
102
RTVSPost2010Prop49
280
     0
102
RTVSPost2010PropOp49
 70
     1
102
RTVSPost2010Prop50
 90
       50
102
RTVSPost2010PropOp50
 70
     1
102
RTVSPost2010Prop51ColorIndex
 90
      256
102
RTVSPost2010Prop51ColorRGB
 90
-16777216
102
RTVSPost2010PropOp51
 70
     0
102
RTVSPost2010Prop52
140
1.0
102
RTVSPost2010PropOp52
 70
     0
102
RTVSPost2010Prop53
 90
        2
102
RTVSPost2010PropOp53
 70
     1
102
RTVSPost2010Prop54
  1
strokes_ogs.tif
102
RTVSPost2010PropOp54
 70
     1
102
RTVSPost2010Prop55
280
     0
102
RTVSPost2010PropOp55
 70
     1
102
RTVSPost2010Prop56
140
1.0
102
RTVSPost2010PropOp56
 70
     1
102
RTVSPost2010Prop57
140
1.0
102
RTVSPost2010PropOp57
 70
     1
102
RTVSPropertyOp0
 70
     1
102
RTVSPropertyOp1
 70
     1
102
RTVSPropertyOp2
 70
     1
102
RTVSPropertyOp3
 70
     1
102
RTVSPropertyOp4
 70
     1
102
RTVSPropertyOp5
 70
     1
102
RTVSPropertyOp6
 70
     1
102
RTVSPropertyOp7
 70
     1
102
RTVSPropertyOp8
 70
     1
102
RTVSPropertyOp9
 70
     1
102
RTVSPropertyOp10
 70
     1
102
RTVSPropertyOp11
 70
     1
102
RTVSPropertyOp12
 70
     1
102
RTVSPropertyOp13
 70
     1
102
RTVSPropertyOp14
 70
     1
102
RTVSPropertyOp15
 70
     1
102
RTVSPropertyOp16
 70
     1
102
RTVSPropertyOp17
 70
     1
102
RTVSPropertyOp18
 70
     1
102
RTVSPropertyOp19
 70
     1
102
RTVSPropertyOp20
 70
     1
102
RTVSPropertyOp21
 70
     1
102
RTVSPropertyOp22
 70
     1
102
RTVSPropertyOp23
 70
     1
102
RTVSPropertyOp24
 70
     1
102
RTVSPropertyOp25
 70
     1
102
RTVSPropertyOp26
 70
     1
102
RTVSPropertyOp27
 70
     1
102
RTVSPropertyOp28
 70
     1
102
RTVSPropertyOp29
 70
     1
102
RTVSPropertyOp30
 70
     1
102
RTVSPropertyOp31
 70
     1
102
RTVSPropertyOp32
 70
     1
102
RTVSPropertyOp33
 70
     1
102
RTVSPropertyOp34
 70
     1
102
RTVSPropertyOp35
 70
     1
102
RTVSPropertyOp36
 70
     1
102
RTVSPropertyOp37
 70
     1
102
RTVSPropertyOp38
 70
     1
102
RTVSPropertyOp39
 70
     1
102
RTVSPropertyOp40
 70
     1
102
RTVSPropertyOp41
 70
     1
102
RTVSPropertyOp42
 70
     1
102
RTVSPropertyOp43
 70
     1
102
RTVSPropertyOp44
 70
     1
102
RTVSPropertyOp45
 70
     1
102
RTVSPropertyOp46
 70
     1
102
RTVSPropertyOp47
 70
     1
102
RTVSPropertyOp48
 70
     1
102
RTVSPropertyOp49
 70
     1
102
RTVSPropertyOp50
 70
     1
102
RTVSPropertyOp51
 70
     0
102
RTVSPropertyOp52
 70
     0
102
RTVSPropertyOp53
 70
     1
102
RTVSPropertyOp54
 70
     1
102
RTVSPropertyOp55
 70
     1
102
RTVSPropertyOp56
 70
     1
102
RTVSPropertyOp57
 70
     1
102
RTVSPropertyOp58
 70
     1
102
RTVSPropertyOp59
 70
     1
102
RTVSPropertyOp60
 70
     1
102
RTVSPropertyOp61
 70
     1
102
RTVSPropertyOp62
 70
     1
  0
XRECORD
  5
8405
102
{ACAD_REACTORS
330
8404
102
}
330
8404
100
AcDbXrecord
280
     1
102
RTVSPost2010Prop28
280
     0
102
RTVSPost2010PropOp28
 70
     1
102
RTVSPost2010Prop29
280
     1
102
RTVSPost2010PropOp29
 70
     1
102
RTVSPost2010Prop30
280
     1
102
RTVSPost2010PropOp30
 70
     1
102
RTVSPost2010Prop31
280
     0
102
RTVSPost2010PropOp31
 70
     1
102
RTVSPost2010Prop32
280
     0
102
RTVSPost2010PropOp32
 70
     1
102
RTVSPost2010Prop33
280
     0
102
RTVSPost2010PropOp33
 70
     1
102
RTVSPost2010Prop34
280
     0
102
RTVSPost2010PropOp34
 70
     1
102
RTVSPost2010Prop35
280
     0
102
RTVSPost2010PropOp35
 70
     1
102
RTVSPost2010Prop36
280
     0
102
RTVSPost2010PropOp36
 70
     1
102
RTVSPost2010Prop37
 90
       50
102
RTVSPost2010PropOp37
 70
     0
102
RTVSPost2010Prop38
140
0.0
102
RTVSPost2010PropOp38
 70
     0
102
RTVSPost2010Prop39
140
1.0
102
RTVSPost2010PropOp39
 70
     0
102
RTVSPost2010Prop40
 90
        0
102
RTVSPost2010PropOp40
 70
     0
102
RTVSPost2010Prop41ColorIndex
 90
       18
102
RTVSPost2010Prop41ColorRGB
 90
        0
102
RTVSPost2010PropOp41
 70
     0
102
RTVSPost2010Prop42
 90
       50
102
RTVSPost2010PropOp42
 70
     0
102
RTVSPost2010Prop43
 90
        3
102
RTVSPost2010PropOp43
 70
     0
102
RTVSPost2010Prop44ColorIndex
 90
        5
102
RTVSPost2010Prop44ColorRGB
 90
      255
102
RTVSPost2010PropOp44
 70
     0
102
RTVSPost2010Prop45
280
     0
102
RTVSPost2010PropOp45
 70
     1
102
RTVSPost2010Prop46
 90
       50
102
RTVSPost2010PropOp46
 70
     0
102
RTVSPost2010Prop47
 90
       50
102
RTVSPost2010PropOp47
 70
     0
102
RTVSPost2010Prop48
 90
       50
102
RTVSPost2010PropOp48
 70
     0
102
RTVSPost2010Prop49
280
     0
102
RTVSPost2010PropOp49
 70
     1
102
RTVSPost2010Prop50
 90
       50
102
RTVSPost2010PropOp50
 70
     0
102
RTVSPost2010Prop51ColorIndex
 90
      256
102
RTVSPost2010Prop51ColorRGB
 90
-16777216
102
RTVSPost2010PropOp51
 70
     0
102
RTVSPost2010Prop52
140
1.0
102
RTVSPost2010PropOp52
 70
     0
102
RTVSPost2010Prop53
 90
        2
102
RTVSPost2010PropOp53
 70
     0
102
RTVSPost2010Prop54
  1
strokes_ogs.tif
102
RTVSPost2010PropOp54
 70
     0
102
RTVSPost2010Prop55
280
     0
102
RTVSPost2010PropOp55
 70
     1
102
RTVSPost2010Prop56
140
1.0
102
RTVSPost2010PropOp56
 70
     0
102
RTVSPost2010Prop57
140
1.0
102
RTVSPost2010PropOp57
 70
     0
102
RTVSPropertyOp0
 70
     0
102
RTVSPropertyOp1
 70
     0
102
RTVSPropertyOp2
 70
     0
102
RTVSPropertyOp3
 70
     0
102
RTVSPropertyOp4
 70
     0
102
RTVSPropertyOp5
 70
     0
102
RTVSPropertyOp6
 70
     0
102
RTVSPropertyOp7
 70
     0
102
RTVSPropertyOp8
 70
     0
102
RTVSPropertyOp9
 70
     0
102
RTVSPropertyOp10
 70
     0
102
RTVSPropertyOp11
 70
     0
102
RTVSPropertyOp12
 70
     0
102
RTVSPropertyOp13
 70
     0
102
RTVSPropertyOp14
 70
     2
102
RTVSPropertyOp15
 70
     0
102
RTVSPropertyOp16
 70
     0
102
RTVSPropertyOp17
 70
     0
102
RTVSPropertyOp18
 70
     0
102
RTVSPropertyOp19
 70
     0
102
RTVSPropertyOp20
 70
     0
102
RTVSPropertyOp21
 70
     0
102
RTVSPropertyOp22
 70
     0
102
RTVSPropertyOp23
 70
     0
102
RTVSPropertyOp24
 70
     0
102
RTVSPropertyOp25
 70
     0
102
RTVSPropertyOp26
 70
     0
102
RTVSPropertyOp27
 70
     0
102
RTVSPropertyOp28
 70
     1
102
RTVSPropertyOp29
 70
     1
102
RTVSPropertyOp30
 70
     1
102
RTVSPropertyOp31
 70
     1
102
RTVSPropertyOp32
 70
     1
102
RTVSPropertyOp33
 70
     1
102
RTVSPropertyOp34
 70
     1
102
RTVSPropertyOp35
 70
     1
102
RTVSPropertyOp36
 70
     1
102
RTVSPropertyOp37
 70
     0
102
RTVSPropertyOp38
 70
     0
102
RTVSPropertyOp39
 70
     0
102
RTVSPropertyOp40
 70
     0
102
RTVSPropertyOp41
 70
     0
102
RTVSPropertyOp42
 70
     0
102
RTVSPropertyOp43
 70
     0
102
RTVSPropertyOp44
 70
     0
102
RTVSPropertyOp45
 70
     1
102
RTVSPropertyOp46
 70
     0
102
RTVSPropertyOp47
 70
     0
102
RTVSPropertyOp48
 70
     0
102
RTVSPropertyOp49
 70
     1
102
RTVSPropertyOp50
 70
     0
102
RTVSPropertyOp51
 70
     0
102
RTVSPropertyOp52
 70
     0
102
RTVSPropertyOp53
 70
     0
102
RTVSPropertyOp54
 70
     0
102
RTVSPropertyOp55
 70
     1
102
RTVSPropertyOp56
 70
     0
102
RTVSPropertyOp57
 70
     0
102
RTVSPropertyOp58
 70
     0
102
RTVSPropertyOp59
 70
     0
102
RTVSPropertyOp60
 70
     0
102
RTVSPropertyOp61
 70
     0
102
RTVSPropertyOp62
 70
     0
  0
XRECORD
  5
83F3
102
{ACAD_REACTORS
330
83F2
102
}
330
83F2
100
AcDbXrecord
280
     1
102
RTVSPost2010Prop28
280
     0
102
RTVSPost2010PropOp28
 70
     1
102
RTVSPost2010Prop29
280
     1
102
RTVSPost2010PropOp29
 70
     1
102
RTVSPost2010Prop30
280
     1
102
RTVSPost2010PropOp30
 70
     1
102
RTVSPost2010Prop31
280
     0
102
RTVSPost2010PropOp31
 70
     1
102
RTVSPost2010Prop32
280
     0
102
RTVSPost2010PropOp32
 70
     1
102
RTVSPost2010Prop33
280
     0
102
RTVSPost2010PropOp33
 70
     1
102
RTVSPost2010Prop34
280
     0
102
RTVSPost2010PropOp34
 70
     1
102
RTVSPost2010Prop35
280
     0
102
RTVSPost2010PropOp35
 70
     1
102
RTVSPost2010Prop36
280
     0
102
RTVSPost2010PropOp36
 70
     1
102
RTVSPost2010Prop37
 90
       50
102
RTVSPost2010PropOp37
 70
     1
102
RTVSPost2010Prop38
140
0.0
102
RTVSPost2010PropOp38
 70
     1
102
RTVSPost2010Prop39
140
1.0
102
RTVSPost2010PropOp39
 70
     1
102
RTVSPost2010Prop40
 90
        0
102
RTVSPost2010PropOp40
 70
     1
102
RTVSPost2010Prop41ColorIndex
 90
       18
102
RTVSPost2010Prop41ColorRGB
 90
        0
102
RTVSPost2010PropOp41
 70
     1
102
RTVSPost2010Prop42
 90
       50
102
RTVSPost2010PropOp42
 70
     1
102
RTVSPost2010Prop43
 90
        3
102
RTVSPost2010PropOp43
 70
     1
102
RTVSPost2010Prop44ColorIndex
 90
        5
102
RTVSPost2010Prop44ColorRGB
 90
      255
102
RTVSPost2010PropOp44
 70
     1
102
RTVSPost2010Prop45
280
     0
102
RTVSPost2010PropOp45
 70
     1
102
RTVSPost2010Prop46
 90
       50
102
RTVSPost2010PropOp46
 70
     1
102
RTVSPost2010Prop47
 90
       50
102
RTVSPost2010PropOp47
 70
     1
102
RTVSPost2010Prop48
 90
       50
102
RTVSPost2010PropOp48
 70
     1
102
RTVSPost2010Prop49
280
     0
102
RTVSPost2010PropOp49
 70
     1
102
RTVSPost2010Prop50
 90
       50
102
RTVSPost2010PropOp50
 70
     1
102
RTVSPost2010Prop51ColorIndex
 90
      256
102
RTVSPost2010Prop51ColorRGB
 90
-16777216
102
RTVSPost2010PropOp51
 70
     0
102
RTVSPost2010Prop52
140
1.0
102
RTVSPost2010PropOp52
 70
     0
102
RTVSPost2010Prop53
 90
        2
102
RTVSPost2010PropOp53
 70
     1
102
RTVSPost2010Prop54
  1
strokes_ogs.tif
102
RTVSPost2010PropOp54
 70
     1
102
RTVSPost2010Prop55
280
     0
102
RTVSPost2010PropOp55
 70
     1
102
RTVSPost2010Prop56
140
1.0
102
RTVSPost2010PropOp56
 70
     1
102
RTVSPost2010Prop57
140
1.0
102
RTVSPost2010PropOp57
 70
     1
102
RTVSPropertyOp0
 70
     1
102
RTVSPropertyOp1
 70
     1
102
RTVSPropertyOp2
 70
     1
102
RTVSPropertyOp3
 70
     1
102
RTVSPropertyOp4
 70
     1
102
RTVSPropertyOp5
 70
     1
102
RTVSPropertyOp6
 70
     1
102
RTVSPropertyOp7
 70
     1
102
RTVSPropertyOp8
 70
     1
102
RTVSPropertyOp9
 70
     1
102
RTVSPropertyOp10
 70
     1
102
RTVSPropertyOp11
 70
     1
102
RTVSPropertyOp12
 70
     1
102
RTVSPropertyOp13
 70
     1
102
RTVSPropertyOp14
 70
     1
102
RTVSPropertyOp15
 70
     1
102
RTVSPropertyOp16
 70
     1
102
RTVSPropertyOp17
 70
     1
102
RTVSPropertyOp18
 70
     1
102
RTVSPropertyOp19
 70
     1
102
RTVSPropertyOp20
 70
     1
102
RTVSPropertyOp21
 70
     1
102
RTVSPropertyOp22
 70
     1
102
RTVSPropertyOp23
 70
     1
102
RTVSPropertyOp24
 70
     1
102
RTVSPropertyOp25
 70
     1
102
RTVSPropertyOp26
 70
     1
102
RTVSPropertyOp27
 70
     1
102
RTVSPropertyOp28
 70
     1
102
RTVSPropertyOp29
 70
     1
102
RTVSPropertyOp30
 70
     1
102
RTVSPropertyOp31
 70
     1
102
RTVSPropertyOp32
 70
     1
102
RTVSPropertyOp33
 70
     1
102
RTVSPropertyOp34
 70
     1
102
RTVSPropertyOp35
 70
     1
102
RTVSPropertyOp36
 70
     1
102
RTVSPropertyOp37
 70
     1
102
RTVSPropertyOp38
 70
     1
102
RTVSPropertyOp39
 70
     1
102
RTVSPropertyOp40
 70
     1
102
RTVSPropertyOp41
 70
     1
102
RTVSPropertyOp42
 70
     1
102
RTVSPropertyOp43
 70
     1
102
RTVSPropertyOp44
 70
     1
102
RTVSPropertyOp45
 70
     1
102
RTVSPropertyOp46
 70
     1
102
RTVSPropertyOp47
 70
     1
102
RTVSPropertyOp48
 70
     1
102
RTVSPropertyOp49
 70
     1
102
RTVSPropertyOp50
 70
     1
102
RTVSPropertyOp51
 70
     0
102
RTVSPropertyOp52
 70
     0
102
RTVSPropertyOp53
 70
     1
102
RTVSPropertyOp54
 70
     1
102
RTVSPropertyOp55
 70
     1
102
RTVSPropertyOp56
 70
     1
102
RTVSPropertyOp57
 70
     1
102
RTVSPropertyOp58
 70
     1
102
RTVSPropertyOp59
 70
     1
102
RTVSPropertyOp60
 70
     1
102
RTVSPropertyOp61
 70
     1
102
RTVSPropertyOp62
 70
     1
  0
XRECORD
  5
83D7
102
{ACAD_REACTORS
330
83D6
102
}
330
83D6
100
AcDbXrecord
280
     1
102
RTVSPost2010Prop28
280
     0
102
RTVSPost2010PropOp28
 70
     1
102
RTVSPost2010Prop29
280
     1
102
RTVSPost2010PropOp29
 70
     1
102
RTVSPost2010Prop30
280
     1
102
RTVSPost2010PropOp30
 70
     1
102
RTVSPost2010Prop31
280
     0
102
RTVSPost2010PropOp31
 70
     1
102
RTVSPost2010Prop32
280
     0
102
RTVSPost2010PropOp32
 70
     1
102
RTVSPost2010Prop33
280
     0
102
RTVSPost2010PropOp33
 70
     1
102
RTVSPost2010Prop34
280
     0
102
RTVSPost2010PropOp34
 70
     1
102
RTVSPost2010Prop35
280
     0
102
RTVSPost2010PropOp35
 70
     1
102
RTVSPost2010Prop36
280
     0
102
RTVSPost2010PropOp36
 70
     1
102
RTVSPost2010Prop37
 90
       50
102
RTVSPost2010PropOp37
 70
     1
102
RTVSPost2010Prop38
140
0.0
102
RTVSPost2010PropOp38
 70
     1
102
RTVSPost2010Prop39
140
1.0
102
RTVSPost2010PropOp39
 70
     1
102
RTVSPost2010Prop40
 90
        0
102
RTVSPost2010PropOp40
 70
     1
102
RTVSPost2010Prop41ColorIndex
 90
       18
102
RTVSPost2010Prop41ColorRGB
 90
        0
102
RTVSPost2010PropOp41
 70
     1
102
RTVSPost2010Prop42
 90
       50
102
RTVSPost2010PropOp42
 70
     1
102
RTVSPost2010Prop43
 90
        3
102
RTVSPost2010PropOp43
 70
     1
102
RTVSPost2010Prop44ColorIndex
 90
        5
102
RTVSPost2010Prop44ColorRGB
 90
      255
102
RTVSPost2010PropOp44
 70
     1
102
RTVSPost2010Prop45
280
     0
102
RTVSPost2010PropOp45
 70
     1
102
RTVSPost2010Prop46
 90
       50
102
RTVSPost2010PropOp46
 70
     1
102
RTVSPost2010Prop47
 90
       50
102
RTVSPost2010PropOp47
 70
     1
102
RTVSPost2010Prop48
 90
       50
102
RTVSPost2010PropOp48
 70
     1
102
RTVSPost2010Prop49
280
     0
102
RTVSPost2010PropOp49
 70
     1
102
RTVSPost2010Prop50
 90
       50
102
RTVSPost2010PropOp50
 70
     1
102
RTVSPost2010Prop51ColorIndex
 90
      256
102
RTVSPost2010Prop51ColorRGB
 90
-16777216
102
RTVSPost2010PropOp51
 70
     0
102
RTVSPost2010Prop52
140
1.0
102
RTVSPost2010PropOp52
 70
     0
102
RTVSPost2010Prop53
 90
        2
102
RTVSPost2010PropOp53
 70
     1
102
RTVSPost2010Prop54
  1
strokes_ogs.tif
102
RTVSPost2010PropOp54
 70
     1
102
RTVSPost2010Prop55
280
     0
102
RTVSPost2010PropOp55
 70
     1
102
RTVSPost2010Prop56
140
1.0
102
RTVSPost2010PropOp56
 70
     1
102
RTVSPost2010Prop57
140
1.0
102
RTVSPost2010PropOp57
 70
     1
102
RTVSPropertyOp0
 70
     1
102
RTVSPropertyOp1
 70
     1
102
RTVSPropertyOp2
 70
     1
102
RTVSPropertyOp3
 70
     1
102
RTVSPropertyOp4
 70
     1
102
RTVSPropertyOp5
 70
     1
102
RTVSPropertyOp6
 70
     1
102
RTVSPropertyOp7
 70
     1
102
RTVSPropertyOp8
 70
     1
102
RTVSPropertyOp9
 70
     1
102
RTVSPropertyOp10
 70
     1
102
RTVSPropertyOp11
 70
     1
102
RTVSPropertyOp12
 70
     1
102
RTVSPropertyOp13
 70
     1
102
RTVSPropertyOp14
 70
     1
102
RTVSPropertyOp15
 70
     1
102
RTVSPropertyOp16
 70
     1
102
RTVSPropertyOp17
 70
     1
102
RTVSPropertyOp18
 70
     1
102
RTVSPropertyOp19
 70
     1
102
RTVSPropertyOp20
 70
     1
102
RTVSPropertyOp21
 70
     1
102
RTVSPropertyOp22
 70
     1
102
RTVSPropertyOp23
 70
     1
102
RTVSPropertyOp24
 70
     1
102
RTVSPropertyOp25
 70
     1
102
RTVSPropertyOp26
 70
     1
102
RTVSPropertyOp27
 70
     1
102
RTVSPropertyOp28
 70
     1
102
RTVSPropertyOp29
 70
     1
102
RTVSPropertyOp30
 70
     1
102
RTVSPropertyOp31
 70
     1
102
RTVSPropertyOp32
 70
     1
102
RTVSPropertyOp33
 70
     1
102
RTVSPropertyOp34
 70
     1
102
RTVSPropertyOp35
 70
     1
102
RTVSPropertyOp36
 70
     1
102
RTVSPropertyOp37
 70
     1
102
RTVSPropertyOp38
 70
     1
102
RTVSPropertyOp39
 70
     1
102
RTVSPropertyOp40
 70
     1
102
RTVSPropertyOp41
 70
     1
102
RTVSPropertyOp42
 70
     1
102
RTVSPropertyOp43
 70
     1
102
RTVSPropertyOp44
 70
     1
102
RTVSPropertyOp45
 70
     1
102
RTVSPropertyOp46
 70
     1
102
RTVSPropertyOp47
 70
     1
102
RTVSPropertyOp48
 70
     1
102
RTVSPropertyOp49
 70
     1
102
RTVSPropertyOp50
 70
     1
102
RTVSPropertyOp51
 70
     0
102
RTVSPropertyOp52
 70
     0
102
RTVSPropertyOp53
 70
     1
102
RTVSPropertyOp54
 70
     1
102
RTVSPropertyOp55
 70
     1
102
RTVSPropertyOp56
 70
     1
102
RTVSPropertyOp57
 70
     1
102
RTVSPropertyOp58
 70
     1
102
RTVSPropertyOp59
 70
     1
102
RTVSPropertyOp60
 70
     1
102
RTVSPropertyOp61
 70
     1
102
RTVSPropertyOp62
 70
     1
  0
XRECORD
  5
83D9
102
{ACAD_REACTORS
330
83D8
102
}
330
83D8
100
AcDbXrecord
280
     1
102
RTVSPost2010Prop28
280
     0
102
RTVSPost2010PropOp28
 70
     1
102
RTVSPost2010Prop29
280
     1
102
RTVSPost2010PropOp29
 70
     1
102
RTVSPost2010Prop30
280
     1
102
RTVSPost2010PropOp30
 70
     1
102
RTVSPost2010Prop31
280
     0
102
RTVSPost2010PropOp31
 70
     1
102
RTVSPost2010Prop32
280
     0
102
RTVSPost2010PropOp32
 70
     1
102
RTVSPost2010Prop33
280
     0
102
RTVSPost2010PropOp33
 70
     1
102
RTVSPost2010Prop34
280
     0
102
RTVSPost2010PropOp34
 70
     1
102
RTVSPost2010Prop35
280
     0
102
RTVSPost2010PropOp35
 70
     1
102
RTVSPost2010Prop36
280
     0
102
RTVSPost2010PropOp36
 70
     1
102
RTVSPost2010Prop37
 90
       50
102
RTVSPost2010PropOp37
 70
     1
102
RTVSPost2010Prop38
140
0.0
102
RTVSPost2010PropOp38
 70
     1
102
RTVSPost2010Prop39
140
1.0
102
RTVSPost2010PropOp39
 70
     1
102
RTVSPost2010Prop40
 90
        0
102
RTVSPost2010PropOp40
 70
     1
102
RTVSPost2010Prop41ColorIndex
 90
       18
102
RTVSPost2010Prop41ColorRGB
 90
        0
102
RTVSPost2010PropOp41
 70
     1
102
RTVSPost2010Prop42
 90
       50
102
RTVSPost2010PropOp42
 70
     1
102
RTVSPost2010Prop43
 90
        3
102
RTVSPost2010PropOp43
 70
     1
102
RTVSPost2010Prop44ColorIndex
 90
        5
102
RTVSPost2010Prop44ColorRGB
 90
      255
102
RTVSPost2010PropOp44
 70
     1
102
RTVSPost2010Prop45
280
     0
102
RTVSPost2010PropOp45
 70
     1
102
RTVSPost2010Prop46
 90
       50
102
RTVSPost2010PropOp46
 70
     1
102
RTVSPost2010Prop47
 90
       50
102
RTVSPost2010PropOp47
 70
     1
102
RTVSPost2010Prop48
 90
       50
102
RTVSPost2010PropOp48
 70
     1
102
RTVSPost2010Prop49
280
     0
102
RTVSPost2010PropOp49
 70
     1
102
RTVSPost2010Prop50
 90
       50
102
RTVSPost2010PropOp50
 70
     1
102
RTVSPost2010Prop51ColorIndex
 90
      256
102
RTVSPost2010Prop51ColorRGB
 90
-16777216
102
RTVSPost2010PropOp51
 70
     0
102
RTVSPost2010Prop52
140
1.0
102
RTVSPost2010PropOp52
 70
     0
102
RTVSPost2010Prop53
 90
        2
102
RTVSPost2010PropOp53
 70
     1
102
RTVSPost2010Prop54
  1
strokes_ogs.tif
102
RTVSPost2010PropOp54
 70
     1
102
RTVSPost2010Prop55
280
     0
102
RTVSPost2010PropOp55
 70
     1
102
RTVSPost2010Prop56
140
1.0
102
RTVSPost2010PropOp56
 70
     1
102
RTVSPost2010Prop57
140
1.0
102
RTVSPost2010PropOp57
 70
     1
102
RTVSPropertyOp0
 70
     1
102
RTVSPropertyOp1
 70
     1
102
RTVSPropertyOp2
 70
     1
102
RTVSPropertyOp3
 70
     1
102
RTVSPropertyOp4
 70
     1
102
RTVSPropertyOp5
 70
     1
102
RTVSPropertyOp6
 70
     1
102
RTVSPropertyOp7
 70
     1
102
RTVSPropertyOp8
 70
     1
102
RTVSPropertyOp9
 70
     1
102
RTVSPropertyOp10
 70
     1
102
RTVSPropertyOp11
 70
     1
102
RTVSPropertyOp12
 70
     1
102
RTVSPropertyOp13
 70
     1
102
RTVSPropertyOp14
 70
     1
102
RTVSPropertyOp15
 70
     1
102
RTVSPropertyOp16
 70
     1
102
RTVSPropertyOp17
 70
     1
102
RTVSPropertyOp18
 70
     1
102
RTVSPropertyOp19
 70
     1
102
RTVSPropertyOp20
 70
     1
102
RTVSPropertyOp21
 70
     1
102
RTVSPropertyOp22
 70
     1
102
RTVSPropertyOp23
 70
     1
102
RTVSPropertyOp24
 70
     1
102
RTVSPropertyOp25
 70
     1
102
RTVSPropertyOp26
 70
     1
102
RTVSPropertyOp27
 70
     1
102
RTVSPropertyOp28
 70
     1
102
RTVSPropertyOp29
 70
     1
102
RTVSPropertyOp30
 70
     1
102
RTVSPropertyOp31
 70
     1
102
RTVSPropertyOp32
 70
     1
102
RTVSPropertyOp33
 70
     1
102
RTVSPropertyOp34
 70
     1
102
RTVSPropertyOp35
 70
     1
102
RTVSPropertyOp36
 70
     1
102
RTVSPropertyOp37
 70
     1
102
RTVSPropertyOp38
 70
     1
102
RTVSPropertyOp39
 70
     1
102
RTVSPropertyOp40
 70
     1
102
RTVSPropertyOp41
 70
     1
102
RTVSPropertyOp42
 70
     1
102
RTVSPropertyOp43
 70
     1
102
RTVSPropertyOp44
 70
     1
102
RTVSPropertyOp45
 70
     1
102
RTVSPropertyOp46
 70
     1
102
RTVSPropertyOp47
 70
     1
102
RTVSPropertyOp48
 70
     1
102
RTVSPropertyOp49
 70
     1
102
RTVSPropertyOp50
 70
     1
102
RTVSPropertyOp51
 70
     0
102
RTVSPropertyOp52
 70
     0
102
RTVSPropertyOp53
 70
     1
102
RTVSPropertyOp54
 70
     1
102
RTVSPropertyOp55
 70
     1
102
RTVSPropertyOp56
 70
     1
102
RTVSPropertyOp57
 70
     1
102
RTVSPropertyOp58
 70
     1
102
RTVSPropertyOp59
 70
     1
102
RTVSPropertyOp60
 70
     1
102
RTVSPropertyOp61
 70
     1
102
RTVSPropertyOp62
 70
     1
  0
XRECORD
  5
83DB
102
{ACAD_REACTORS
330
83DA
102
}
330
83DA
100
AcDbXrecord
280
     1
102
RTVSPost2010Prop28
280
     0
102
RTVSPost2010PropOp28
 70
     1
102
RTVSPost2010Prop29
280
     1
102
RTVSPost2010PropOp29
 70
     1
102
RTVSPost2010Prop30
280
     1
102
RTVSPost2010PropOp30
 70
     1
102
RTVSPost2010Prop31
280
     0
102
RTVSPost2010PropOp31
 70
     1
102
RTVSPost2010Prop32
280
     0
102
RTVSPost2010PropOp32
 70
     1
102
RTVSPost2010Prop33
280
     0
102
RTVSPost2010PropOp33
 70
     1
102
RTVSPost2010Prop34
280
     0
102
RTVSPost2010PropOp34
 70
     1
102
RTVSPost2010Prop35
280
     0
102
RTVSPost2010PropOp35
 70
     1
102
RTVSPost2010Prop36
280
     0
102
RTVSPost2010PropOp36
 70
     1
102
RTVSPost2010Prop37
 90
       50
102
RTVSPost2010PropOp37
 70
     1
102
RTVSPost2010Prop38
140
0.0
102
RTVSPost2010PropOp38
 70
     1
102
RTVSPost2010Prop39
140
1.0
102
RTVSPost2010PropOp39
 70
     1
102
RTVSPost2010Prop40
 90
        0
102
RTVSPost2010PropOp40
 70
     1
102
RTVSPost2010Prop41ColorIndex
 90
       18
102
RTVSPost2010Prop41ColorRGB
 90
        0
102
RTVSPost2010PropOp41
 70
     1
102
RTVSPost2010Prop42
 90
       50
102
RTVSPost2010PropOp42
 70
     1
102
RTVSPost2010Prop43
 90
        3
102
RTVSPost2010PropOp43
 70
     1
102
RTVSPost2010Prop44ColorIndex
 90
        5
102
RTVSPost2010Prop44ColorRGB
 90
      255
102
RTVSPost2010PropOp44
 70
     1
102
RTVSPost2010Prop45
280
     0
102
RTVSPost2010PropOp45
 70
     1
102
RTVSPost2010Prop46
 90
       50
102
RTVSPost2010PropOp46
 70
     1
102
RTVSPost2010Prop47
 90
       50
102
RTVSPost2010PropOp47
 70
     1
102
RTVSPost2010Prop48
 90
       50
102
RTVSPost2010PropOp48
 70
     1
102
RTVSPost2010Prop49
280
     0
102
RTVSPost2010PropOp49
 70
     1
102
RTVSPost2010Prop50
 90
       50
102
RTVSPost2010PropOp50
 70
     1
102
RTVSPost2010Prop51ColorIndex
 90
      256
102
RTVSPost2010Prop51ColorRGB
 90
-16777216
102
RTVSPost2010PropOp51
 70
     0
102
RTVSPost2010Prop52
140
1.0
102
RTVSPost2010PropOp52
 70
     0
102
RTVSPost2010Prop53
 90
        2
102
RTVSPost2010PropOp53
 70
     1
102
RTVSPost2010Prop54
  1
strokes_ogs.tif
102
RTVSPost2010PropOp54
 70
     1
102
RTVSPost2010Prop55
280
     0
102
RTVSPost2010PropOp55
 70
     1
102
RTVSPost2010Prop56
140
1.0
102
RTVSPost2010PropOp56
 70
     1
102
RTVSPost2010Prop57
140
1.0
102
RTVSPost2010PropOp57
 70
     1
102
RTVSPropertyOp0
 70
     1
102
RTVSPropertyOp1
 70
     1
102
RTVSPropertyOp2
 70
     1
102
RTVSPropertyOp3
 70
     1
102
RTVSPropertyOp4
 70
     1
102
RTVSPropertyOp5
 70
     1
102
RTVSPropertyOp6
 70
     1
102
RTVSPropertyOp7
 70
     1
102
RTVSPropertyOp8
 70
     1
102
RTVSPropertyOp9
 70
     1
102
RTVSPropertyOp10
 70
     1
102
RTVSPropertyOp11
 70
     1
102
RTVSPropertyOp12
 70
     1
102
RTVSPropertyOp13
 70
     1
102
RTVSPropertyOp14
 70
     1
102
RTVSPropertyOp15
 70
     1
102
RTVSPropertyOp16
 70
     1
102
RTVSPropertyOp17
 70
     1
102
RTVSPropertyOp18
 70
     1
102
RTVSPropertyOp19
 70
     1
102
RTVSPropertyOp20
 70
     1
102
RTVSPropertyOp21
 70
     1
102
RTVSPropertyOp22
 70
     1
102
RTVSPropertyOp23
 70
     1
102
RTVSPropertyOp24
 70
     1
102
RTVSPropertyOp25
 70
     1
102
RTVSPropertyOp26
 70
     1
102
RTVSPropertyOp27
 70
     1
102
RTVSPropertyOp28
 70
     1
102
RTVSPropertyOp29
 70
     1
102
RTVSPropertyOp30
 70
     1
102
RTVSPropertyOp31
 70
     1
102
RTVSPropertyOp32
 70
     1
102
RTVSPropertyOp33
 70
     1
102
RTVSPropertyOp34
 70
     1
102
RTVSPropertyOp35
 70
     1
102
RTVSPropertyOp36
 70
     1
102
RTVSPropertyOp37
 70
     1
102
RTVSPropertyOp38
 70
     1
102
RTVSPropertyOp39
 70
     1
102
RTVSPropertyOp40
 70
     1
102
RTVSPropertyOp41
 70
     1
102
RTVSPropertyOp42
 70
     1
102
RTVSPropertyOp43
 70
     1
102
RTVSPropertyOp44
 70
     1
102
RTVSPropertyOp45
 70
     1
102
RTVSPropertyOp46
 70
     1
102
RTVSPropertyOp47
 70
     1
102
RTVSPropertyOp48
 70
     1
102
RTVSPropertyOp49
 70
     1
102
RTVSPropertyOp50
 70
     1
102
RTVSPropertyOp51
 70
     0
102
RTVSPropertyOp52
 70
     0
102
RTVSPropertyOp53
 70
     1
102
RTVSPropertyOp54
 70
     1
102
RTVSPropertyOp55
 70
     1
102
RTVSPropertyOp56
 70
     1
102
RTVSPropertyOp57
 70
     1
102
RTVSPropertyOp58
 70
     1
102
RTVSPropertyOp59
 70
     1
102
RTVSPropertyOp60
 70
     1
102
RTVSPropertyOp61
 70
     1
102
RTVSPropertyOp62
 70
     1
  0
XRECORD
  5
83DD
102
{ACAD_REACTORS
330
83DC
102
}
330
83DC
100
AcDbXrecord
280
     1
102
RTVSPost2010Prop28
280
     0
102
RTVSPost2010PropOp28
 70
     1
102
RTVSPost2010Prop29
280
     1
102
RTVSPost2010PropOp29
 70
     1
102
RTVSPost2010Prop30
280
     1
102
RTVSPost2010PropOp30
 70
     1
102
RTVSPost2010Prop31
280
     0
102
RTVSPost2010PropOp31
 70
     1
102
RTVSPost2010Prop32
280
     0
102
RTVSPost2010PropOp32
 70
     1
102
RTVSPost2010Prop33
280
     0
102
RTVSPost2010PropOp33
 70
     1
102
RTVSPost2010Prop34
280
     0
102
RTVSPost2010PropOp34
 70
     1
102
RTVSPost2010Prop35
280
     0
102
RTVSPost2010PropOp35
 70
     1
102
RTVSPost2010Prop36
280
     0
102
RTVSPost2010PropOp36
 70
     1
102
RTVSPost2010Prop37
 90
       50
102
RTVSPost2010PropOp37
 70
     1
102
RTVSPost2010Prop38
140
0.0
102
RTVSPost2010PropOp38
 70
     1
102
RTVSPost2010Prop39
140
1.0
102
RTVSPost2010PropOp39
 70
     1
102
RTVSPost2010Prop40
 90
        0
102
RTVSPost2010PropOp40
 70
     1
102
RTVSPost2010Prop41ColorIndex
 90
       18
102
RTVSPost2010Prop41ColorRGB
 90
        0
102
RTVSPost2010PropOp41
 70
     1
102
RTVSPost2010Prop42
 90
       50
102
RTVSPost2010PropOp42
 70
     1
102
RTVSPost2010Prop43
 90
        3
102
RTVSPost2010PropOp43
 70
     1
102
RTVSPost2010Prop44ColorIndex
 90
        5
102
RTVSPost2010Prop44ColorRGB
 90
      255
102
RTVSPost2010PropOp44
 70
     1
102
RTVSPost2010Prop45
280
     0
102
RTVSPost2010PropOp45
 70
     1
102
RTVSPost2010Prop46
 90
       50
102
RTVSPost2010PropOp46
 70
     1
102
RTVSPost2010Prop47
 90
       50
102
RTVSPost2010PropOp47
 70
     1
102
RTVSPost2010Prop48
 90
       50
102
RTVSPost2010PropOp48
 70
     1
102
RTVSPost2010Prop49
280
     0
102
RTVSPost2010PropOp49
 70
     1
102
RTVSPost2010Prop50
 90
       50
102
RTVSPost2010PropOp50
 70
     1
102
RTVSPost2010Prop51ColorIndex
 90
      256
102
RTVSPost2010Prop51ColorRGB
 90
-16777216
102
RTVSPost2010PropOp51
 70
     0
102
RTVSPost2010Prop52
140
1.0
102
RTVSPost2010PropOp52
 70
     0
102
RTVSPost2010Prop53
 90
        2
102
RTVSPost2010PropOp53
 70
     1
102
RTVSPost2010Prop54
  1
strokes_ogs.tif
102
RTVSPost2010PropOp54
 70
     1
102
RTVSPost2010Prop55
280
     0
102
RTVSPost2010PropOp55
 70
     1
102
RTVSPost2010Prop56
140
1.0
102
RTVSPost2010PropOp56
 70
     1
102
RTVSPost2010Prop57
140
1.0
102
RTVSPost2010PropOp57
 70
     1
102
RTVSPropertyOp0
 70
     1
102
RTVSPropertyOp1
 70
     1
102
RTVSPropertyOp2
 70
     1
102
RTVSPropertyOp3
 70
     1
102
RTVSPropertyOp4
 70
     1
102
RTVSPropertyOp5
 70
     1
102
RTVSPropertyOp6
 70
     1
102
RTVSPropertyOp7
 70
     1
102
RTVSPropertyOp8
 70
     1
102
RTVSPropertyOp9
 70
     1
102
RTVSPropertyOp10
 70
     1
102
RTVSPropertyOp11
 70
     1
102
RTVSPropertyOp12
 70
     1
102
RTVSPropertyOp13
 70
     1
102
RTVSPropertyOp14
 70
     1
102
RTVSPropertyOp15
 70
     1
102
RTVSPropertyOp16
 70
     1
102
RTVSPropertyOp17
 70
     1
102
RTVSPropertyOp18
 70
     1
102
RTVSPropertyOp19
 70
     1
102
RTVSPropertyOp20
 70
     1
102
RTVSPropertyOp21
 70
     1
102
RTVSPropertyOp22
 70
     1
102
RTVSPropertyOp23
 70
     1
102
RTVSPropertyOp24
 70
     1
102
RTVSPropertyOp25
 70
     1
102
RTVSPropertyOp26
 70
     1
102
RTVSPropertyOp27
 70
     1
102
RTVSPropertyOp28
 70
     1
102
RTVSPropertyOp29
 70
     1
102
RTVSPropertyOp30
 70
     1
102
RTVSPropertyOp31
 70
     1
102
RTVSPropertyOp32
 70
     1
102
RTVSPropertyOp33
 70
     1
102
RTVSPropertyOp34
 70
     1
102
RTVSPropertyOp35
 70
     1
102
RTVSPropertyOp36
 70
     1
102
RTVSPropertyOp37
 70
     1
102
RTVSPropertyOp38
 70
     1
102
RTVSPropertyOp39
 70
     1
102
RTVSPropertyOp40
 70
     1
102
RTVSPropertyOp41
 70
     1
102
RTVSPropertyOp42
 70
     1
102
RTVSPropertyOp43
 70
     1
102
RTVSPropertyOp44
 70
     1
102
RTVSPropertyOp45
 70
     1
102
RTVSPropertyOp46
 70
     1
102
RTVSPropertyOp47
 70
     1
102
RTVSPropertyOp48
 70
     1
102
RTVSPropertyOp49
 70
     1
102
RTVSPropertyOp50
 70
     1
102
RTVSPropertyOp51
 70
     0
102
RTVSPropertyOp52
 70
     0
102
RTVSPropertyOp53
 70
     1
102
RTVSPropertyOp54
 70
     1
102
RTVSPropertyOp55
 70
     1
102
RTVSPropertyOp56
 70
     1
102
RTVSPropertyOp57
 70
     1
102
RTVSPropertyOp58
 70
     1
102
RTVSPropertyOp59
 70
     1
102
RTVSPropertyOp60
 70
     1
102
RTVSPropertyOp61
 70
     1
102
RTVSPropertyOp62
 70
     1
  0
XRECORD
  5
83E5
102
{ACAD_REACTORS
330
83E4
102
}
330
83E4
100
AcDbXrecord
280
     1
102
RTVSPost2010Prop28
280
     0
102
RTVSPost2010PropOp28
 70
     1
102
RTVSPost2010Prop29
280
     1
102
RTVSPost2010PropOp29
 70
     1
102
RTVSPost2010Prop30
280
     1
102
RTVSPost2010PropOp30
 70
     1
102
RTVSPost2010Prop31
280
     0
102
RTVSPost2010PropOp31
 70
     1
102
RTVSPost2010Prop32
280
     0
102
RTVSPost2010PropOp32
 70
     1
102
RTVSPost2010Prop33
280
     0
102
RTVSPost2010PropOp33
 70
     1
102
RTVSPost2010Prop34
280
     0
102
RTVSPost2010PropOp34
 70
     1
102
RTVSPost2010Prop35
280
     0
102
RTVSPost2010PropOp35
 70
     1
102
RTVSPost2010Prop36
280
     0
102
RTVSPost2010PropOp36
 70
     1
102
RTVSPost2010Prop37
 90
       50
102
RTVSPost2010PropOp37
 70
     1
102
RTVSPost2010Prop38
140
0.0
102
RTVSPost2010PropOp38
 70
     1
102
RTVSPost2010Prop39
140
1.0
102
RTVSPost2010PropOp39
 70
     1
102
RTVSPost2010Prop40
 90
        0
102
RTVSPost2010PropOp40
 70
     1
102
RTVSPost2010Prop41ColorIndex
 90
       18
102
RTVSPost2010Prop41ColorRGB
 90
        0
102
RTVSPost2010PropOp41
 70
     1
102
RTVSPost2010Prop42
 90
       50
102
RTVSPost2010PropOp42
 70
     1
102
RTVSPost2010Prop43
 90
        3
102
RTVSPost2010PropOp43
 70
     1
102
RTVSPost2010Prop44ColorIndex
 90
        5
102
RTVSPost2010Prop44ColorRGB
 90
      255
102
RTVSPost2010PropOp44
 70
     1
102
RTVSPost2010Prop45
280
     0
102
RTVSPost2010PropOp45
 70
     1
102
RTVSPost2010Prop46
 90
       50
102
RTVSPost2010PropOp46
 70
     1
102
RTVSPost2010Prop47
 90
       50
102
RTVSPost2010PropOp47
 70
     1
102
RTVSPost2010Prop48
 90
       50
102
RTVSPost2010PropOp48
 70
     1
102
RTVSPost2010Prop49
280
     0
102
RTVSPost2010PropOp49
 70
     1
102
RTVSPost2010Prop50
 90
       50
102
RTVSPost2010PropOp50
 70
     1
102
RTVSPost2010Prop51ColorIndex
 90
      256
102
RTVSPost2010Prop51ColorRGB
 90
-16777216
102
RTVSPost2010PropOp51
 70
     0
102
RTVSPost2010Prop52
140
1.0
102
RTVSPost2010PropOp52
 70
     0
102
RTVSPost2010Prop53
 90
        2
102
RTVSPost2010PropOp53
 70
     1
102
RTVSPost2010Prop54
  1
strokes_ogs.tif
102
RTVSPost2010PropOp54
 70
     1
102
RTVSPost2010Prop55
280
     0
102
RTVSPost2010PropOp55
 70
     1
102
RTVSPost2010Prop56
140
1.0
102
RTVSPost2010PropOp56
 70
     1
102
RTVSPost2010Prop57
140
1.0
102
RTVSPost2010PropOp57
 70
     1
102
RTVSPropertyOp0
 70
     1
102
RTVSPropertyOp1
 70
     1
102
RTVSPropertyOp2
 70
     1
102
RTVSPropertyOp3
 70
     1
102
RTVSPropertyOp4
 70
     1
102
RTVSPropertyOp5
 70
     1
102
RTVSPropertyOp6
 70
     1
102
RTVSPropertyOp7
 70
     1
102
RTVSPropertyOp8
 70
     1
102
RTVSPropertyOp9
 70
     1
102
RTVSPropertyOp10
 70
     1
102
RTVSPropertyOp11
 70
     1
102
RTVSPropertyOp12
 70
     1
102
RTVSPropertyOp13
 70
     1
102
RTVSPropertyOp14
 70
     1
102
RTVSPropertyOp15
 70
     1
102
RTVSPropertyOp16
 70
     1
102
RTVSPropertyOp17
 70
     1
102
RTVSPropertyOp18
 70
     1
102
RTVSPropertyOp19
 70
     1
102
RTVSPropertyOp20
 70
     1
102
RTVSPropertyOp21
 70
     1
102
RTVSPropertyOp22
 70
     1
102
RTVSPropertyOp23
 70
     1
102
RTVSPropertyOp24
 70
     1
102
RTVSPropertyOp25
 70
     1
102
RTVSPropertyOp26
 70
     1
102
RTVSPropertyOp27
 70
     1
102
RTVSPropertyOp28
 70
     1
102
RTVSPropertyOp29
 70
     1
102
RTVSPropertyOp30
 70
     1
102
RTVSPropertyOp31
 70
     1
102
RTVSPropertyOp32
 70
     1
102
RTVSPropertyOp33
 70
     1
102
RTVSPropertyOp34
 70
     1
102
RTVSPropertyOp35
 70
     1
102
RTVSPropertyOp36
 70
     1
102
RTVSPropertyOp37
 70
     1
102
RTVSPropertyOp38
 70
     1
102
RTVSPropertyOp39
 70
     1
102
RTVSPropertyOp40
 70
     1
102
RTVSPropertyOp41
 70
     1
102
RTVSPropertyOp42
 70
     1
102
RTVSPropertyOp43
 70
     1
102
RTVSPropertyOp44
 70
     1
102
RTVSPropertyOp45
 70
     1
102
RTVSPropertyOp46
 70
     1
102
RTVSPropertyOp47
 70
     1
102
RTVSPropertyOp48
 70
     1
102
RTVSPropertyOp49
 70
     1
102
RTVSPropertyOp50
 70
     1
102
RTVSPropertyOp51
 70
     0
102
RTVSPropertyOp52
 70
     0
102
RTVSPropertyOp53
 70
     1
102
RTVSPropertyOp54
 70
     1
102
RTVSPropertyOp55
 70
     1
102
RTVSPropertyOp56
 70
     1
102
RTVSPropertyOp57
 70
     1
102
RTVSPropertyOp58
 70
     1
102
RTVSPropertyOp59
 70
     1
102
RTVSPropertyOp60
 70
     1
102
RTVSPropertyOp61
 70
     1
102
RTVSPropertyOp62
 70
     1
  0
XRECORD
  5
8401
102
{ACAD_REACTORS
330
8400
102
}
330
8400
100
AcDbXrecord
280
     1
102
RTVSPost2010Prop28
280
     0
102
RTVSPost2010PropOp28
 70
     1
102
RTVSPost2010Prop29
280
     1
102
RTVSPost2010PropOp29
 70
     1
102
RTVSPost2010Prop30
280
     1
102
RTVSPost2010PropOp30
 70
     1
102
RTVSPost2010Prop31
280
     0
102
RTVSPost2010PropOp31
 70
     1
102
RTVSPost2010Prop32
280
     0
102
RTVSPost2010PropOp32
 70
     1
102
RTVSPost2010Prop33
280
     0
102
RTVSPost2010PropOp33
 70
     1
102
RTVSPost2010Prop34
280
     0
102
RTVSPost2010PropOp34
 70
     1
102
RTVSPost2010Prop35
280
     0
102
RTVSPost2010PropOp35
 70
     1
102
RTVSPost2010Prop36
280
     0
102
RTVSPost2010PropOp36
 70
     1
102
RTVSPost2010Prop37
 90
       50
102
RTVSPost2010PropOp37
 70
     0
102
RTVSPost2010Prop38
140
0.0
102
RTVSPost2010PropOp38
 70
     0
102
RTVSPost2010Prop39
140
1.0
102
RTVSPost2010PropOp39
 70
     0
102
RTVSPost2010Prop40
 90
        0
102
RTVSPost2010PropOp40
 70
     0
102
RTVSPost2010Prop41ColorIndex
 90
       18
102
RTVSPost2010Prop41ColorRGB
 90
        0
102
RTVSPost2010PropOp41
 70
     0
102
RTVSPost2010Prop42
 90
       50
102
RTVSPost2010PropOp42
 70
     0
102
RTVSPost2010Prop43
 90
        3
102
RTVSPost2010PropOp43
 70
     0
102
RTVSPost2010Prop44ColorIndex
 90
        5
102
RTVSPost2010Prop44ColorRGB
 90
      255
102
RTVSPost2010PropOp44
 70
     0
102
RTVSPost2010Prop45
280
     0
102
RTVSPost2010PropOp45
 70
     1
102
RTVSPost2010Prop46
 90
       50
102
RTVSPost2010PropOp46
 70
     0
102
RTVSPost2010Prop47
 90
       50
102
RTVSPost2010PropOp47
 70
     0
102
RTVSPost2010Prop48
 90
       50
102
RTVSPost2010PropOp48
 70
     0
102
RTVSPost2010Prop49
280
     0
102
RTVSPost2010PropOp49
 70
     1
102
RTVSPost2010Prop50
 90
       50
102
RTVSPost2010PropOp50
 70
     0
102
RTVSPost2010Prop51ColorIndex
 90
      256
102
RTVSPost2010Prop51ColorRGB
 90
-16777216
102
RTVSPost2010PropOp51
 70
     0
102
RTVSPost2010Prop52
140
1.0
102
RTVSPost2010PropOp52
 70
     0
102
RTVSPost2010Prop53
 90
        2
102
RTVSPost2010PropOp53
 70
     0
102
RTVSPost2010Prop54
  1
strokes_ogs.tif
102
RTVSPost2010PropOp54
 70
     0
102
RTVSPost2010Prop55
280
     0
102
RTVSPost2010PropOp55
 70
     1
102
RTVSPost2010Prop56
140
1.0
102
RTVSPost2010PropOp56
 70
     0
102
RTVSPost2010Prop57
140
1.0
102
RTVSPost2010PropOp57
 70
     0
102
RTVSPropertyOp0
 70
     0
102
RTVSPropertyOp1
 70
     0
102
RTVSPropertyOp2
 70
     0
102
RTVSPropertyOp3
 70
     0
102
RTVSPropertyOp4
 70
     0
102
RTVSPropertyOp5
 70
     0
102
RTVSPropertyOp6
 70
     0
102
RTVSPropertyOp7
 70
     0
102
RTVSPropertyOp8
 70
     0
102
RTVSPropertyOp9
 70
     0
102
RTVSPropertyOp10
 70
     0
102
RTVSPropertyOp11
 70
     0
102
RTVSPropertyOp12
 70
     0
102
RTVSPropertyOp13
 70
     0
102
RTVSPropertyOp14
 70
     2
102
RTVSPropertyOp15
 70
     0
102
RTVSPropertyOp16
 70
     0
102
RTVSPropertyOp17
 70
     0
102
RTVSPropertyOp18
 70
     0
102
RTVSPropertyOp19
 70
     0
102
RTVSPropertyOp20
 70
     0
102
RTVSPropertyOp21
 70
     0
102
RTVSPropertyOp22
 70
     0
102
RTVSPropertyOp23
 70
     0
102
RTVSPropertyOp24
 70
     0
102
RTVSPropertyOp25
 70
     0
102
RTVSPropertyOp26
 70
     0
102
RTVSPropertyOp27
 70
     0
102
RTVSPropertyOp28
 70
     1
102
RTVSPropertyOp29
 70
     1
102
RTVSPropertyOp30
 70
     1
102
RTVSPropertyOp31
 70
     1
102
RTVSPropertyOp32
 70
     1
102
RTVSPropertyOp33
 70
     1
102
RTVSPropertyOp34
 70
     1
102
RTVSPropertyOp35
 70
     1
102
RTVSPropertyOp36
 70
     1
102
RTVSPropertyOp37
 70
     0
102
RTVSPropertyOp38
 70
     0
102
RTVSPropertyOp39
 70
     0
102
RTVSPropertyOp40
 70
     0
102
RTVSPropertyOp41
 70
     0
102
RTVSPropertyOp42
 70
     0
102
RTVSPropertyOp43
 70
     0
102
RTVSPropertyOp44
 70
     0
102
RTVSPropertyOp45
 70
     1
102
RTVSPropertyOp46
 70
     0
102
RTVSPropertyOp47
 70
     0
102
RTVSPropertyOp48
 70
     0
102
RTVSPropertyOp49
 70
     1
102
RTVSPropertyOp50
 70
     0
102
RTVSPropertyOp51
 70
     0
102
RTVSPropertyOp52
 70
     0
102
RTVSPropertyOp53
 70
     0
102
RTVSPropertyOp54
 70
     0
102
RTVSPropertyOp55
 70
     1
102
RTVSPropertyOp56
 70
     0
102
RTVSPropertyOp57
 70
     0
102
RTVSPropertyOp58
 70
     0
102
RTVSPropertyOp59
 70
     0
102
RTVSPropertyOp60
 70
     0
102
RTVSPropertyOp61
 70
     0
102
RTVSPropertyOp62
 70
     0
  0
XRECORD
  5
83F1
102
{ACAD_REACTORS
330
83F0
102
}
330
83F0
100
AcDbXrecord
280
     1
102
RTVSPost2010Prop28
280
     0
102
RTVSPost2010PropOp28
 70
     1
102
RTVSPost2010Prop29
280
     1
102
RTVSPost2010PropOp29
 70
     1
102
RTVSPost2010Prop30
280
     1
102
RTVSPost2010PropOp30
 70
     1
102
RTVSPost2010Prop31
280
     0
102
RTVSPost2010PropOp31
 70
     1
102
RTVSPost2010Prop32
280
     0
102
RTVSPost2010PropOp32
 70
     1
102
RTVSPost2010Prop33
280
     0
102
RTVSPost2010PropOp33
 70
     1
102
RTVSPost2010Prop34
280
     0
102
RTVSPost2010PropOp34
 70
     1
102
RTVSPost2010Prop35
280
     0
102
RTVSPost2010PropOp35
 70
     1
102
RTVSPost2010Prop36
280
     0
102
RTVSPost2010PropOp36
 70
     1
102
RTVSPost2010Prop37
 90
       50
102
RTVSPost2010PropOp37
 70
     1
102
RTVSPost2010Prop38
140
0.0
102
RTVSPost2010PropOp38
 70
     1
102
RTVSPost2010Prop39
140
1.0
102
RTVSPost2010PropOp39
 70
     1
102
RTVSPost2010Prop40
 90
        0
102
RTVSPost2010PropOp40
 70
     1
102
RTVSPost2010Prop41ColorIndex
 90
       18
102
RTVSPost2010Prop41ColorRGB
 90
        0
102
RTVSPost2010PropOp41
 70
     1
102
RTVSPost2010Prop42
 90
       50
102
RTVSPost2010PropOp42
 70
     1
102
RTVSPost2010Prop43
 90
        3
102
RTVSPost2010PropOp43
 70
     1
102
RTVSPost2010Prop44ColorIndex
 90
        5
102
RTVSPost2010Prop44ColorRGB
 90
      255
102
RTVSPost2010PropOp44
 70
     1
102
RTVSPost2010Prop45
280
     0
102
RTVSPost2010PropOp45
 70
     1
102
RTVSPost2010Prop46
 90
       50
102
RTVSPost2010PropOp46
 70
     1
102
RTVSPost2010Prop47
 90
       50
102
RTVSPost2010PropOp47
 70
     1
102
RTVSPost2010Prop48
 90
       50
102
RTVSPost2010PropOp48
 70
     1
102
RTVSPost2010Prop49
280
     0
102
RTVSPost2010PropOp49
 70
     1
102
RTVSPost2010Prop50
 90
       50
102
RTVSPost2010PropOp50
 70
     1
102
RTVSPost2010Prop51ColorIndex
 90
      256
102
RTVSPost2010Prop51ColorRGB
 90
-16777216
102
RTVSPost2010PropOp51
 70
     0
102
RTVSPost2010Prop52
140
1.0
102
RTVSPost2010PropOp52
 70
     0
102
RTVSPost2010Prop53
 90
        2
102
RTVSPost2010PropOp53
 70
     1
102
RTVSPost2010Prop54
  1
strokes_ogs.tif
102
RTVSPost2010PropOp54
 70
     1
102
RTVSPost2010Prop55
280
     0
102
RTVSPost2010PropOp55
 70
     1
102
RTVSPost2010Prop56
140
1.0
102
RTVSPost2010PropOp56
 70
     1
102
RTVSPost2010Prop57
140
1.0
102
RTVSPost2010PropOp57
 70
     1
102
RTVSPropertyOp0
 70
     1
102
RTVSPropertyOp1
 70
     1
102
RTVSPropertyOp2
 70
     1
102
RTVSPropertyOp3
 70
     1
102
RTVSPropertyOp4
 70
     1
102
RTVSPropertyOp5
 70
     1
102
RTVSPropertyOp6
 70
     1
102
RTVSPropertyOp7
 70
     1
102
RTVSPropertyOp8
 70
     1
102
RTVSPropertyOp9
 70
     1
102
RTVSPropertyOp10
 70
     1
102
RTVSPropertyOp11
 70
     1
102
RTVSPropertyOp12
 70
     1
102
RTVSPropertyOp13
 70
     1
102
RTVSPropertyOp14
 70
     1
102
RTVSPropertyOp15
 70
     1
102
RTVSPropertyOp16
 70
     1
102
RTVSPropertyOp17
 70
     1
102
RTVSPropertyOp18
 70
     1
102
RTVSPropertyOp19
 70
     1
102
RTVSPropertyOp20
 70
     1
102
RTVSPropertyOp21
 70
     1
102
RTVSPropertyOp22
 70
     1
102
RTVSPropertyOp23
 70
     1
102
RTVSPropertyOp24
 70
     1
102
RTVSPropertyOp25
 70
     1
102
RTVSPropertyOp26
 70
     1
102
RTVSPropertyOp27
 70
     1
102
RTVSPropertyOp28
 70
     1
102
RTVSPropertyOp29
 70
     1
102
RTVSPropertyOp30
 70
     1
102
RTVSPropertyOp31
 70
     1
102
RTVSPropertyOp32
 70
     1
102
RTVSPropertyOp33
 70
     1
102
RTVSPropertyOp34
 70
     1
102
RTVSPropertyOp35
 70
     1
102
RTVSPropertyOp36
 70
     1
102
RTVSPropertyOp37
 70
     1
102
RTVSPropertyOp38
 70
     1
102
RTVSPropertyOp39
 70
     1
102
RTVSPropertyOp40
 70
     1
102
RTVSPropertyOp41
 70
     1
102
RTVSPropertyOp42
 70
     1
102
RTVSPropertyOp43
 70
     1
102
RTVSPropertyOp44
 70
     1
102
RTVSPropertyOp45
 70
     1
102
RTVSPropertyOp46
 70
     1
102
RTVSPropertyOp47
 70
     1
102
RTVSPropertyOp48
 70
     1
102
RTVSPropertyOp49
 70
     1
102
RTVSPropertyOp50
 70
     1
102
RTVSPropertyOp51
 70
     0
102
RTVSPropertyOp52
 70
     0
102
RTVSPropertyOp53
 70
     1
102
RTVSPropertyOp54
 70
     1
102
RTVSPropertyOp55
 70
     1
102
RTVSPropertyOp56
 70
     1
102
RTVSPropertyOp57
 70
     1
102
RTVSPropertyOp58
 70
     1
102
RTVSPropertyOp59
 70
     1
102
RTVSPropertyOp60
 70
     1
102
RTVSPropertyOp61
 70
     1
102
RTVSPropertyOp62
 70
     1
  0
XRECORD
  5
8403
102
{ACAD_REACTORS
330
8402
102
}
330
8402
100
AcDbXrecord
280
     1
102
RTVSPost2010Prop28
280
     0
102
RTVSPost2010PropOp28
 70
     1
102
RTVSPost2010Prop29
280
     1
102
RTVSPost2010PropOp29
 70
     1
102
RTVSPost2010Prop30
280
     1
102
RTVSPost2010PropOp30
 70
     1
102
RTVSPost2010Prop31
280
     0
102
RTVSPost2010PropOp31
 70
     1
102
RTVSPost2010Prop32
280
     0
102
RTVSPost2010PropOp32
 70
     1
102
RTVSPost2010Prop33
280
     0
102
RTVSPost2010PropOp33
 70
     1
102
RTVSPost2010Prop34
280
     0
102
RTVSPost2010PropOp34
 70
     1
102
RTVSPost2010Prop35
280
     0
102
RTVSPost2010PropOp35
 70
     1
102
RTVSPost2010Prop36
280
     0
102
RTVSPost2010PropOp36
 70
     1
102
RTVSPost2010Prop37
 90
       50
102
RTVSPost2010PropOp37
 70
     0
102
RTVSPost2010Prop38
140
0.0
102
RTVSPost2010PropOp38
 70
     0
102
RTVSPost2010Prop39
140
1.0
102
RTVSPost2010PropOp39
 70
     0
102
RTVSPost2010Prop40
 90
        0
102
RTVSPost2010PropOp40
 70
     0
102
RTVSPost2010Prop41ColorIndex
 90
       18
102
RTVSPost2010Prop41ColorRGB
 90
        0
102
RTVSPost2010PropOp41
 70
     0
102
RTVSPost2010Prop42
 90
       50
102
RTVSPost2010PropOp42
 70
     0
102
RTVSPost2010Prop43
 90
        3
102
RTVSPost2010PropOp43
 70
     0
102
RTVSPost2010Prop44ColorIndex
 90
        5
102
RTVSPost2010Prop44ColorRGB
 90
      255
102
RTVSPost2010PropOp44
 70
     0
102
RTVSPost2010Prop45
280
     0
102
RTVSPost2010PropOp45
 70
     1
102
RTVSPost2010Prop46
 90
       50
102
RTVSPost2010PropOp46
 70
     0
102
RTVSPost2010Prop47
 90
       50
102
RTVSPost2010PropOp47
 70
     0
102
RTVSPost2010Prop48
 90
       50
102
RTVSPost2010PropOp48
 70
     0
102
RTVSPost2010Prop49
280
     0
102
RTVSPost2010PropOp49
 70
     1
102
RTVSPost2010Prop50
 90
       50
102
RTVSPost2010PropOp50
 70
     0
102
RTVSPost2010Prop51ColorIndex
 90
      256
102
RTVSPost2010Prop51ColorRGB
 90
-16777216
102
RTVSPost2010PropOp51
 70
     0
102
RTVSPost2010Prop52
140
1.0
102
RTVSPost2010PropOp52
 70
     0
102
RTVSPost2010Prop53
 90
        2
102
RTVSPost2010PropOp53
 70
     0
102
RTVSPost2010Prop54
  1
strokes_ogs.tif
102
RTVSPost2010PropOp54
 70
     0
102
RTVSPost2010Prop55
280
     0
102
RTVSPost2010PropOp55
 70
     1
102
RTVSPost2010Prop56
140
1.0
102
RTVSPost2010PropOp56
 70
     0
102
RTVSPost2010Prop57
140
1.0
102
RTVSPost2010PropOp57
 70
     0
102
RTVSPropertyOp0
 70
     0
102
RTVSPropertyOp1
 70
     0
102
RTVSPropertyOp2
 70
     0
102
RTVSPropertyOp3
 70
     0
102
RTVSPropertyOp4
 70
     0
102
RTVSPropertyOp5
 70
     0
102
RTVSPropertyOp6
 70
     0
102
RTVSPropertyOp7
 70
     0
102
RTVSPropertyOp8
 70
     0
102
RTVSPropertyOp9
 70
     0
102
RTVSPropertyOp10
 70
     0
102
RTVSPropertyOp11
 70
     0
102
RTVSPropertyOp12
 70
     0
102
RTVSPropertyOp13
 70
     0
102
RTVSPropertyOp14
 70
     2
102
RTVSPropertyOp15
 70
     0
102
RTVSPropertyOp16
 70
     0
102
RTVSPropertyOp17
 70
     0
102
RTVSPropertyOp18
 70
     0
102
RTVSPropertyOp19
 70
     0
102
RTVSPropertyOp20
 70
     0
102
RTVSPropertyOp21
 70
     0
102
RTVSPropertyOp22
 70
     0
102
RTVSPropertyOp23
 70
     0
102
RTVSPropertyOp24
 70
     0
102
RTVSPropertyOp25
 70
     0
102
RTVSPropertyOp26
 70
     0
102
RTVSPropertyOp27
 70
     0
102
RTVSPropertyOp28
 70
     1
102
RTVSPropertyOp29
 70
     1
102
RTVSPropertyOp30
 70
     1
102
RTVSPropertyOp31
 70
     1
102
RTVSPropertyOp32
 70
     1
102
RTVSPropertyOp33
 70
     1
102
RTVSPropertyOp34
 70
     1
102
RTVSPropertyOp35
 70
     1
102
RTVSPropertyOp36
 70
     1
102
RTVSPropertyOp37
 70
     0
102
RTVSPropertyOp38
 70
     0
102
RTVSPropertyOp39
 70
     0
102
RTVSPropertyOp40
 70
     0
102
RTVSPropertyOp41
 70
     0
102
RTVSPropertyOp42
 70
     0
102
RTVSPropertyOp43
 70
     0
102
RTVSPropertyOp44
 70
     0
102
RTVSPropertyOp45
 70
     1
102
RTVSPropertyOp46
 70
     0
102
RTVSPropertyOp47
 70
     0
102
RTVSPropertyOp48
 70
     0
102
RTVSPropertyOp49
 70
     1
102
RTVSPropertyOp50
 70
     0
102
RTVSPropertyOp51
 70
     0
102
RTVSPropertyOp52
 70
     0
102
RTVSPropertyOp53
 70
     0
102
RTVSPropertyOp54
 70
     0
102
RTVSPropertyOp55
 70
     1
102
RTVSPropertyOp56
 70
     0
102
RTVSPropertyOp57
 70
     0
102
RTVSPropertyOp58
 70
     0
102
RTVSPropertyOp59
 70
     0
102
RTVSPropertyOp60
 70
     0
102
RTVSPropertyOp61
 70
     0
102
RTVSPropertyOp62
 70
     0
  0
XRECORD
  5
83E9
102
{ACAD_REACTORS
330
83E8
102
}
330
83E8
100
AcDbXrecord
280
     1
102
RTVSPost2010Prop28
280
     0
102
RTVSPost2010PropOp28
 70
     1
102
RTVSPost2010Prop29
280
     1
102
RTVSPost2010PropOp29
 70
     1
102
RTVSPost2010Prop30
280
     1
102
RTVSPost2010PropOp30
 70
     1
102
RTVSPost2010Prop31
280
     0
102
RTVSPost2010PropOp31
 70
     1
102
RTVSPost2010Prop32
280
     0
102
RTVSPost2010PropOp32
 70
     1
102
RTVSPost2010Prop33
280
     0
102
RTVSPost2010PropOp33
 70
     1
102
RTVSPost2010Prop34
280
     0
102
RTVSPost2010PropOp34
 70
     1
102
RTVSPost2010Prop35
280
     0
102
RTVSPost2010PropOp35
 70
     1
102
RTVSPost2010Prop36
280
     0
102
RTVSPost2010PropOp36
 70
     1
102
RTVSPost2010Prop37
 90
       50
102
RTVSPost2010PropOp37
 70
     1
102
RTVSPost2010Prop38
140
0.0
102
RTVSPost2010PropOp38
 70
     1
102
RTVSPost2010Prop39
140
1.0
102
RTVSPost2010PropOp39
 70
     1
102
RTVSPost2010Prop40
 90
        0
102
RTVSPost2010PropOp40
 70
     1
102
RTVSPost2010Prop41ColorIndex
 90
       18
102
RTVSPost2010Prop41ColorRGB
 90
        0
102
RTVSPost2010PropOp41
 70
     1
102
RTVSPost2010Prop42
 90
       50
102
RTVSPost2010PropOp42
 70
     1
102
RTVSPost2010Prop43
 90
        3
102
RTVSPost2010PropOp43
 70
     1
102
RTVSPost2010Prop44ColorIndex
 90
        5
102
RTVSPost2010Prop44ColorRGB
 90
      255
102
RTVSPost2010PropOp44
 70
     1
102
RTVSPost2010Prop45
280
     0
102
RTVSPost2010PropOp45
 70
     1
102
RTVSPost2010Prop46
 90
       50
102
RTVSPost2010PropOp46
 70
     1
102
RTVSPost2010Prop47
 90
       50
102
RTVSPost2010PropOp47
 70
     1
102
RTVSPost2010Prop48
 90
       50
102
RTVSPost2010PropOp48
 70
     1
102
RTVSPost2010Prop49
280
     0
102
RTVSPost2010PropOp49
 70
     1
102
RTVSPost2010Prop50
 90
       50
102
RTVSPost2010PropOp50
 70
     1
102
RTVSPost2010Prop51ColorIndex
 90
      256
102
RTVSPost2010Prop51ColorRGB
 90
-16777216
102
RTVSPost2010PropOp51
 70
     0
102
RTVSPost2010Prop52
140
1.0
102
RTVSPost2010PropOp52
 70
     0
102
RTVSPost2010Prop53
 90
        2
102
RTVSPost2010PropOp53
 70
     1
102
RTVSPost2010Prop54
  1
strokes_ogs.tif
102
RTVSPost2010PropOp54
 70
     1
102
RTVSPost2010Prop55
280
     0
102
RTVSPost2010PropOp55
 70
     1
102
RTVSPost2010Prop56
140
1.0
102
RTVSPost2010PropOp56
 70
     1
102
RTVSPost2010Prop57
140
1.0
102
RTVSPost2010PropOp57
 70
     1
102
RTVSPropertyOp0
 70
     1
102
RTVSPropertyOp1
 70
     1
102
RTVSPropertyOp2
 70
     1
102
RTVSPropertyOp3
 70
     1
102
RTVSPropertyOp4
 70
     1
102
RTVSPropertyOp5
 70
     1
102
RTVSPropertyOp6
 70
     1
102
RTVSPropertyOp7
 70
     1
102
RTVSPropertyOp8
 70
     1
102
RTVSPropertyOp9
 70
     1
102
RTVSPropertyOp10
 70
     1
102
RTVSPropertyOp11
 70
     1
102
RTVSPropertyOp12
 70
     1
102
RTVSPropertyOp13
 70
     1
102
RTVSPropertyOp14
 70
     1
102
RTVSPropertyOp15
 70
     1
102
RTVSPropertyOp16
 70
     1
102
RTVSPropertyOp17
 70
     1
102
RTVSPropertyOp18
 70
     1
102
RTVSPropertyOp19
 70
     1
102
RTVSPropertyOp20
 70
     1
102
RTVSPropertyOp21
 70
     1
102
RTVSPropertyOp22
 70
     1
102
RTVSPropertyOp23
 70
     1
102
RTVSPropertyOp24
 70
     1
102
RTVSPropertyOp25
 70
     1
102
RTVSPropertyOp26
 70
     1
102
RTVSPropertyOp27
 70
     1
102
RTVSPropertyOp28
 70
     1
102
RTVSPropertyOp29
 70
     1
102
RTVSPropertyOp30
 70
     1
102
RTVSPropertyOp31
 70
     1
102
RTVSPropertyOp32
 70
     1
102
RTVSPropertyOp33
 70
     1
102
RTVSPropertyOp34
 70
     1
102
RTVSPropertyOp35
 70
     1
102
RTVSPropertyOp36
 70
     1
102
RTVSPropertyOp37
 70
     1
102
RTVSPropertyOp38
 70
     1
102
RTVSPropertyOp39
 70
     1
102
RTVSPropertyOp40
 70
     1
102
RTVSPropertyOp41
 70
     1
102
RTVSPropertyOp42
 70
     1
102
RTVSPropertyOp43
 70
     1
102
RTVSPropertyOp44
 70
     1
102
RTVSPropertyOp45
 70
     1
102
RTVSPropertyOp46
 70
     1
102
RTVSPropertyOp47
 70
     1
102
RTVSPropertyOp48
 70
     1
102
RTVSPropertyOp49
 70
     1
102
RTVSPropertyOp50
 70
     1
102
RTVSPropertyOp51
 70
     0
102
RTVSPropertyOp52
 70
     0
102
RTVSPropertyOp53
 70
     1
102
RTVSPropertyOp54
 70
     1
102
RTVSPropertyOp55
 70
     1
102
RTVSPropertyOp56
 70
     1
102
RTVSPropertyOp57
 70
     1
102
RTVSPropertyOp58
 70
     1
102
RTVSPropertyOp59
 70
     1
102
RTVSPropertyOp60
 70
     1
102
RTVSPropertyOp61
 70
     1
102
RTVSPropertyOp62
 70
     1
  0
XRECORD
  5
83FF
102
{ACAD_REACTORS
330
83FE
102
}
330
83FE
100
AcDbXrecord
280
     1
102
RTVSPost2010Prop28
280
     0
102
RTVSPost2010PropOp28
 70
     1
102
RTVSPost2010Prop29
280
     1
102
RTVSPost2010PropOp29
 70
     1
102
RTVSPost2010Prop30
280
     1
102
RTVSPost2010PropOp30
 70
     1
102
RTVSPost2010Prop31
280
     0
102
RTVSPost2010PropOp31
 70
     1
102
RTVSPost2010Prop32
280
     0
102
RTVSPost2010PropOp32
 70
     1
102
RTVSPost2010Prop33
280
     0
102
RTVSPost2010PropOp33
 70
     1
102
RTVSPost2010Prop34
280
     0
102
RTVSPost2010PropOp34
 70
     1
102
RTVSPost2010Prop35
280
     0
102
RTVSPost2010PropOp35
 70
     1
102
RTVSPost2010Prop36
280
     0
102
RTVSPost2010PropOp36
 70
     1
102
RTVSPost2010Prop37
 90
       50
102
RTVSPost2010PropOp37
 70
     1
102
RTVSPost2010Prop38
140
0.0
102
RTVSPost2010PropOp38
 70
     1
102
RTVSPost2010Prop39
140
1.0
102
RTVSPost2010PropOp39
 70
     1
102
RTVSPost2010Prop40
 90
        0
102
RTVSPost2010PropOp40
 70
     1
102
RTVSPost2010Prop41ColorIndex
 90
       18
102
RTVSPost2010Prop41ColorRGB
 90
        0
102
RTVSPost2010PropOp41
 70
     1
102
RTVSPost2010Prop42
 90
       50
102
RTVSPost2010PropOp42
 70
     1
102
RTVSPost2010Prop43
 90
        3
102
RTVSPost2010PropOp43
 70
     1
102
RTVSPost2010Prop44ColorIndex
 90
        5
102
RTVSPost2010Prop44ColorRGB
 90
      255
102
RTVSPost2010PropOp44
 70
     1
102
RTVSPost2010Prop45
280
     0
102
RTVSPost2010PropOp45
 70
     1
102
RTVSPost2010Prop46
 90
       50
102
RTVSPost2010PropOp46
 70
     1
102
RTVSPost2010Prop47
 90
       50
102
RTVSPost2010PropOp47
 70
     1
102
RTVSPost2010Prop48
 90
       50
102
RTVSPost2010PropOp48
 70
     1
102
RTVSPost2010Prop49
280
     0
102
RTVSPost2010PropOp49
 70
     1
102
RTVSPost2010Prop50
 90
       50
102
RTVSPost2010PropOp50
 70
     1
102
RTVSPost2010Prop51ColorIndex
 90
      256
102
RTVSPost2010Prop51ColorRGB
 90
-16777216
102
RTVSPost2010PropOp51
 70
     0
102
RTVSPost2010Prop52
140
1.0
102
RTVSPost2010PropOp52
 70
     0
102
RTVSPost2010Prop53
 90
        2
102
RTVSPost2010PropOp53
 70
     1
102
RTVSPost2010Prop54
  1
strokes_ogs.tif
102
RTVSPost2010PropOp54
 70
     1
102
RTVSPost2010Prop55
280
     0
102
RTVSPost2010PropOp55
 70
     1
102
RTVSPost2010Prop56
140
1.0
102
RTVSPost2010PropOp56
 70
     1
102
RTVSPost2010Prop57
140
1.0
102
RTVSPost2010PropOp57
 70
     1
102
RTVSPropertyOp0
 70
     1
102
RTVSPropertyOp1
 70
     1
102
RTVSPropertyOp2
 70
     1
102
RTVSPropertyOp3
 70
     1
102
RTVSPropertyOp4
 70
     1
102
RTVSPropertyOp5
 70
     1
102
RTVSPropertyOp6
 70
     1
102
RTVSPropertyOp7
 70
     1
102
RTVSPropertyOp8
 70
     1
102
RTVSPropertyOp9
 70
     1
102
RTVSPropertyOp10
 70
     1
102
RTVSPropertyOp11
 70
     1
102
RTVSPropertyOp12
 70
     1
102
RTVSPropertyOp13
 70
     1
102
RTVSPropertyOp14
 70
     1
102
RTVSPropertyOp15
 70
     1
102
RTVSPropertyOp16
 70
     1
102
RTVSPropertyOp17
 70
     1
102
RTVSPropertyOp18
 70
     1
102
RTVSPropertyOp19
 70
     1
102
RTVSPropertyOp20
 70
     1
102
RTVSPropertyOp21
 70
     1
102
RTVSPropertyOp22
 70
     1
102
RTVSPropertyOp23
 70
     1
102
RTVSPropertyOp24
 70
     1
102
RTVSPropertyOp25
 70
     1
102
RTVSPropertyOp26
 70
     1
102
RTVSPropertyOp27
 70
     1
102
RTVSPropertyOp28
 70
     1
102
RTVSPropertyOp29
 70
     1
102
RTVSPropertyOp30
 70
     1
102
RTVSPropertyOp31
 70
     1
102
RTVSPropertyOp32
 70
     1
102
RTVSPropertyOp33
 70
     1
102
RTVSPropertyOp34
 70
     1
102
RTVSPropertyOp35
 70
     1
102
RTVSPropertyOp36
 70
     1
102
RTVSPropertyOp37
 70
     1
102
RTVSPropertyOp38
 70
     1
102
RTVSPropertyOp39
 70
     1
102
RTVSPropertyOp40
 70
     1
102
RTVSPropertyOp41
 70
     1
102
RTVSPropertyOp42
 70
     1
102
RTVSPropertyOp43
 70
     1
102
RTVSPropertyOp44
 70
     1
102
RTVSPropertyOp45
 70
     1
102
RTVSPropertyOp46
 70
     1
102
RTVSPropertyOp47
 70
     1
102
RTVSPropertyOp48
 70
     1
102
RTVSPropertyOp49
 70
     1
102
RTVSPropertyOp50
 70
     1
102
RTVSPropertyOp51
 70
     0
102
RTVSPropertyOp52
 70
     0
102
RTVSPropertyOp53
 70
     1
102
RTVSPropertyOp54
 70
     1
102
RTVSPropertyOp55
 70
     1
102
RTVSPropertyOp56
 70
     1
102
RTVSPropertyOp57
 70
     1
102
RTVSPropertyOp58
 70
     1
102
RTVSPropertyOp59
 70
     1
102
RTVSPropertyOp60
 70
     1
102
RTVSPropertyOp61
 70
     1
102
RTVSPropertyOp62
 70
     1
  0
XRECORD
  5
83FD
102
{ACAD_REACTORS
330
83FC
102
}
330
83FC
100
AcDbXrecord
280
     1
102
RTVSPost2010Prop28
280
     0
102
RTVSPost2010PropOp28
 70
     1
102
RTVSPost2010Prop29
280
     1
102
RTVSPost2010PropOp29
 70
     1
102
RTVSPost2010Prop30
280
     1
102
RTVSPost2010PropOp30
 70
     1
102
RTVSPost2010Prop31
280
     0
102
RTVSPost2010PropOp31
 70
     1
102
RTVSPost2010Prop32
280
     0
102
RTVSPost2010PropOp32
 70
     1
102
RTVSPost2010Prop33
280
     0
102
RTVSPost2010PropOp33
 70
     1
102
RTVSPost2010Prop34
280
     0
102
RTVSPost2010PropOp34
 70
     1
102
RTVSPost2010Prop35
280
     0
102
RTVSPost2010PropOp35
 70
     1
102
RTVSPost2010Prop36
280
     0
102
RTVSPost2010PropOp36
 70
     1
102
RTVSPost2010Prop37
 90
       50
102
RTVSPost2010PropOp37
 70
     1
102
RTVSPost2010Prop38
140
0.0
102
RTVSPost2010PropOp38
 70
     1
102
RTVSPost2010Prop39
140
1.0
102
RTVSPost2010PropOp39
 70
     1
102
RTVSPost2010Prop40
 90
        0
102
RTVSPost2010PropOp40
 70
     1
102
RTVSPost2010Prop41ColorIndex
 90
       18
102
RTVSPost2010Prop41ColorRGB
 90
        0
102
RTVSPost2010PropOp41
 70
     1
102
RTVSPost2010Prop42
 90
       50
102
RTVSPost2010PropOp42
 70
     1
102
RTVSPost2010Prop43
 90
        3
102
RTVSPost2010PropOp43
 70
     1
102
RTVSPost2010Prop44ColorIndex
 90
        5
102
RTVSPost2010Prop44ColorRGB
 90
      255
102
RTVSPost2010PropOp44
 70
     1
102
RTVSPost2010Prop45
280
     0
102
RTVSPost2010PropOp45
 70
     1
102
RTVSPost2010Prop46
 90
       50
102
RTVSPost2010PropOp46
 70
     1
102
RTVSPost2010Prop47
 90
       50
102
RTVSPost2010PropOp47
 70
     1
102
RTVSPost2010Prop48
 90
       50
102
RTVSPost2010PropOp48
 70
     1
102
RTVSPost2010Prop49
280
     0
102
RTVSPost2010PropOp49
 70
     1
102
RTVSPost2010Prop50
 90
       50
102
RTVSPost2010PropOp50
 70
     1
102
RTVSPost2010Prop51ColorIndex
 90
      256
102
RTVSPost2010Prop51ColorRGB
 90
-16777216
102
RTVSPost2010PropOp51
 70
     0
102
RTVSPost2010Prop52
140
1.0
102
RTVSPost2010PropOp52
 70
     0
102
RTVSPost2010Prop53
 90
        2
102
RTVSPost2010PropOp53
 70
     1
102
RTVSPost2010Prop54
  1
strokes_ogs.tif
102
RTVSPost2010PropOp54
 70
     1
102
RTVSPost2010Prop55
280
     0
102
RTVSPost2010PropOp55
 70
     1
102
RTVSPost2010Prop56
140
1.0
102
RTVSPost2010PropOp56
 70
     1
102
RTVSPost2010Prop57
140
1.0
102
RTVSPost2010PropOp57
 70
     1
102
RTVSPropertyOp0
 70
     1
102
RTVSPropertyOp1
 70
     1
102
RTVSPropertyOp2
 70
     1
102
RTVSPropertyOp3
 70
     1
102
RTVSPropertyOp4
 70
     1
102
RTVSPropertyOp5
 70
     1
102
RTVSPropertyOp6
 70
     1
102
RTVSPropertyOp7
 70
     1
102
RTVSPropertyOp8
 70
     1
102
RTVSPropertyOp9
 70
     1
102
RTVSPropertyOp10
 70
     1
102
RTVSPropertyOp11
 70
     1
102
RTVSPropertyOp12
 70
     1
102
RTVSPropertyOp13
 70
     1
102
RTVSPropertyOp14
 70
     1
102
RTVSPropertyOp15
 70
     1
102
RTVSPropertyOp16
 70
     1
102
RTVSPropertyOp17
 70
     1
102
RTVSPropertyOp18
 70
     1
102
RTVSPropertyOp19
 70
     1
102
RTVSPropertyOp20
 70
     1
102
RTVSPropertyOp21
 70
     1
102
RTVSPropertyOp22
 70
     1
102
RTVSPropertyOp23
 70
     1
102
RTVSPropertyOp24
 70
     1
102
RTVSPropertyOp25
 70
     1
102
RTVSPropertyOp26
 70
     1
102
RTVSPropertyOp27
 70
     1
102
RTVSPropertyOp28
 70
     1
102
RTVSPropertyOp29
 70
     1
102
RTVSPropertyOp30
 70
     1
102
RTVSPropertyOp31
 70
     1
102
RTVSPropertyOp32
 70
     1
102
RTVSPropertyOp33
 70
     1
102
RTVSPropertyOp34
 70
     1
102
RTVSPropertyOp35
 70
     1
102
RTVSPropertyOp36
 70
     1
102
RTVSPropertyOp37
 70
     1
102
RTVSPropertyOp38
 70
     1
102
RTVSPropertyOp39
 70
     1
102
RTVSPropertyOp40
 70
     1
102
RTVSPropertyOp41
 70
     1
102
RTVSPropertyOp42
 70
     1
102
RTVSPropertyOp43
 70
     1
102
RTVSPropertyOp44
 70
     1
102
RTVSPropertyOp45
 70
     1
102
RTVSPropertyOp46
 70
     1
102
RTVSPropertyOp47
 70
     1
102
RTVSPropertyOp48
 70
     1
102
RTVSPropertyOp49
 70
     1
102
RTVSPropertyOp50
 70
     1
102
RTVSPropertyOp51
 70
     0
102
RTVSPropertyOp52
 70
     0
102
RTVSPropertyOp53
 70
     1
102
RTVSPropertyOp54
 70
     1
102
RTVSPropertyOp55
 70
     1
102
RTVSPropertyOp56
 70
     1
102
RTVSPropertyOp57
 70
     1
102
RTVSPropertyOp58
 70
     1
102
RTVSPropertyOp59
 70
     1
102
RTVSPropertyOp60
 70
     1
102
RTVSPropertyOp61
 70
     1
102
RTVSPropertyOp62
 70
     1
  0
XRECORD
  5
83F7
102
{ACAD_REACTORS
330
83F6
102
}
330
83F6
100
AcDbXrecord
280
     1
102
RTVSPost2010Prop28
280
     0
102
RTVSPost2010PropOp28
 70
     1
102
RTVSPost2010Prop29
280
     1
102
RTVSPost2010PropOp29
 70
     1
102
RTVSPost2010Prop30
280
     1
102
RTVSPost2010PropOp30
 70
     1
102
RTVSPost2010Prop31
280
     0
102
RTVSPost2010PropOp31
 70
     1
102
RTVSPost2010Prop32
280
     0
102
RTVSPost2010PropOp32
 70
     1
102
RTVSPost2010Prop33
280
     0
102
RTVSPost2010PropOp33
 70
     1
102
RTVSPost2010Prop34
280
     0
102
RTVSPost2010PropOp34
 70
     1
102
RTVSPost2010Prop35
280
     0
102
RTVSPost2010PropOp35
 70
     1
102
RTVSPost2010Prop36
280
     0
102
RTVSPost2010PropOp36
 70
     1
102
RTVSPost2010Prop37
 90
       50
102
RTVSPost2010PropOp37
 70
     1
102
RTVSPost2010Prop38
140
0.0
102
RTVSPost2010PropOp38
 70
     1
102
RTVSPost2010Prop39
140
1.0
102
RTVSPost2010PropOp39
 70
     1
102
RTVSPost2010Prop40
 90
        0
102
RTVSPost2010PropOp40
 70
     1
102
RTVSPost2010Prop41ColorIndex
 90
       18
102
RTVSPost2010Prop41ColorRGB
 90
        0
102
RTVSPost2010PropOp41
 70
     1
102
RTVSPost2010Prop42
 90
       50
102
RTVSPost2010PropOp42
 70
     1
102
RTVSPost2010Prop43
 90
        3
102
RTVSPost2010PropOp43
 70
     1
102
RTVSPost2010Prop44ColorIndex
 90
        5
102
RTVSPost2010Prop44ColorRGB
 90
      255
102
RTVSPost2010PropOp44
 70
     1
102
RTVSPost2010Prop45
280
     0
102
RTVSPost2010PropOp45
 70
     1
102
RTVSPost2010Prop46
 90
       50
102
RTVSPost2010PropOp46
 70
     1
102
RTVSPost2010Prop47
 90
       50
102
RTVSPost2010PropOp47
 70
     1
102
RTVSPost2010Prop48
 90
       50
102
RTVSPost2010PropOp48
 70
     1
102
RTVSPost2010Prop49
280
     0
102
RTVSPost2010PropOp49
 70
     1
102
RTVSPost2010Prop50
 90
       50
102
RTVSPost2010PropOp50
 70
     1
102
RTVSPost2010Prop51ColorIndex
 90
      256
102
RTVSPost2010Prop51ColorRGB
 90
-16777216
102
RTVSPost2010PropOp51
 70
     0
102
RTVSPost2010Prop52
140
1.0
102
RTVSPost2010PropOp52
 70
     0
102
RTVSPost2010Prop53
 90
        2
102
RTVSPost2010PropOp53
 70
     1
102
RTVSPost2010Prop54
  1
strokes_ogs.tif
102
RTVSPost2010PropOp54
 70
     1
102
RTVSPost2010Prop55
280
     0
102
RTVSPost2010PropOp55
 70
     1
102
RTVSPost2010Prop56
140
1.0
102
RTVSPost2010PropOp56
 70
     1
102
RTVSPost2010Prop57
140
1.0
102
RTVSPost2010PropOp57
 70
     1
102
RTVSPropertyOp0
 70
     1
102
RTVSPropertyOp1
 70
     1
102
RTVSPropertyOp2
 70
     1
102
RTVSPropertyOp3
 70
     1
102
RTVSPropertyOp4
 70
     1
102
RTVSPropertyOp5
 70
     1
102
RTVSPropertyOp6
 70
     1
102
RTVSPropertyOp7
 70
     1
102
RTVSPropertyOp8
 70
     1
102
RTVSPropertyOp9
 70
     1
102
RTVSPropertyOp10
 70
     1
102
RTVSPropertyOp11
 70
     1
102
RTVSPropertyOp12
 70
     1
102
RTVSPropertyOp13
 70
     1
102
RTVSPropertyOp14
 70
     1
102
RTVSPropertyOp15
 70
     1
102
RTVSPropertyOp16
 70
     1
102
RTVSPropertyOp17
 70
     1
102
RTVSPropertyOp18
 70
     1
102
RTVSPropertyOp19
 70
     1
102
RTVSPropertyOp20
 70
     1
102
RTVSPropertyOp21
 70
     1
102
RTVSPropertyOp22
 70
     1
102
RTVSPropertyOp23
 70
     1
102
RTVSPropertyOp24
 70
     1
102
RTVSPropertyOp25
 70
     1
102
RTVSPropertyOp26
 70
     1
102
RTVSPropertyOp27
 70
     1
102
RTVSPropertyOp28
 70
     1
102
RTVSPropertyOp29
 70
     1
102
RTVSPropertyOp30
 70
     1
102
RTVSPropertyOp31
 70
     1
102
RTVSPropertyOp32
 70
     1
102
RTVSPropertyOp33
 70
     1
102
RTVSPropertyOp34
 70
     1
102
RTVSPropertyOp35
 70
     1
102
RTVSPropertyOp36
 70
     1
102
RTVSPropertyOp37
 70
     1
102
RTVSPropertyOp38
 70
     1
102
RTVSPropertyOp39
 70
     1
102
RTVSPropertyOp40
 70
     1
102
RTVSPropertyOp41
 70
     1
102
RTVSPropertyOp42
 70
     1
102
RTVSPropertyOp43
 70
     1
102
RTVSPropertyOp44
 70
     1
102
RTVSPropertyOp45
 70
     1
102
RTVSPropertyOp46
 70
     1
102
RTVSPropertyOp47
 70
     1
102
RTVSPropertyOp48
 70
     1
102
RTVSPropertyOp49
 70
     1
102
RTVSPropertyOp50
 70
     1
102
RTVSPropertyOp51
 70
     0
102
RTVSPropertyOp52
 70
     0
102
RTVSPropertyOp53
 70
     1
102
RTVSPropertyOp54
 70
     1
102
RTVSPropertyOp55
 70
     1
102
RTVSPropertyOp56
 70
     1
102
RTVSPropertyOp57
 70
     1
102
RTVSPropertyOp58
 70
     1
102
RTVSPropertyOp59
 70
     1
102
RTVSPropertyOp60
 70
     1
102
RTVSPropertyOp61
 70
     1
102
RTVSPropertyOp62
 70
     1
  0
XRECORD
  5
83F9
102
{ACAD_REACTORS
330
83F8
102
}
330
83F8
100
AcDbXrecord
280
     1
102
RTVSPost2010Prop28
280
     0
102
RTVSPost2010PropOp28
 70
     1
102
RTVSPost2010Prop29
280
     1
102
RTVSPost2010PropOp29
 70
     1
102
RTVSPost2010Prop30
280
     1
102
RTVSPost2010PropOp30
 70
     1
102
RTVSPost2010Prop31
280
     0
102
RTVSPost2010PropOp31
 70
     1
102
RTVSPost2010Prop32
280
     0
102
RTVSPost2010PropOp32
 70
     1
102
RTVSPost2010Prop33
280
     0
102
RTVSPost2010PropOp33
 70
     1
102
RTVSPost2010Prop34
280
     0
102
RTVSPost2010PropOp34
 70
     1
102
RTVSPost2010Prop35
280
     0
102
RTVSPost2010PropOp35
 70
     1
102
RTVSPost2010Prop36
280
     0
102
RTVSPost2010PropOp36
 70
     1
102
RTVSPost2010Prop37
 90
       50
102
RTVSPost2010PropOp37
 70
     1
102
RTVSPost2010Prop38
140
0.0
102
RTVSPost2010PropOp38
 70
     1
102
RTVSPost2010Prop39
140
1.0
102
RTVSPost2010PropOp39
 70
     1
102
RTVSPost2010Prop40
 90
        0
102
RTVSPost2010PropOp40
 70
     1
102
RTVSPost2010Prop41ColorIndex
 90
       18
102
RTVSPost2010Prop41ColorRGB
 90
        0
102
RTVSPost2010PropOp41
 70
     1
102
RTVSPost2010Prop42
 90
       50
102
RTVSPost2010PropOp42
 70
     1
102
RTVSPost2010Prop43
 90
        3
102
RTVSPost2010PropOp43
 70
     1
102
RTVSPost2010Prop44ColorIndex
 90
        5
102
RTVSPost2010Prop44ColorRGB
 90
      255
102
RTVSPost2010PropOp44
 70
     1
102
RTVSPost2010Prop45
280
     0
102
RTVSPost2010PropOp45
 70
     1
102
RTVSPost2010Prop46
 90
       50
102
RTVSPost2010PropOp46
 70
     1
102
RTVSPost2010Prop47
 90
       50
102
RTVSPost2010PropOp47
 70
     1
102
RTVSPost2010Prop48
 90
       50
102
RTVSPost2010PropOp48
 70
     1
102
RTVSPost2010Prop49
280
     0
102
RTVSPost2010PropOp49
 70
     1
102
RTVSPost2010Prop50
 90
       50
102
RTVSPost2010PropOp50
 70
     1
102
RTVSPost2010Prop51ColorIndex
 90
      256
102
RTVSPost2010Prop51ColorRGB
 90
-16777216
102
RTVSPost2010PropOp51
 70
     0
102
RTVSPost2010Prop52
140
1.0
102
RTVSPost2010PropOp52
 70
     0
102
RTVSPost2010Prop53
 90
        2
102
RTVSPost2010PropOp53
 70
     1
102
RTVSPost2010Prop54
  1
strokes_ogs.tif
102
RTVSPost2010PropOp54
 70
     1
102
RTVSPost2010Prop55
280
     0
102
RTVSPost2010PropOp55
 70
     1
102
RTVSPost2010Prop56
140
1.0
102
RTVSPost2010PropOp56
 70
     1
102
RTVSPost2010Prop57
140
1.0
102
RTVSPost2010PropOp57
 70
     1
102
RTVSPropertyOp0
 70
     1
102
RTVSPropertyOp1
 70
     1
102
RTVSPropertyOp2
 70
     1
102
RTVSPropertyOp3
 70
     1
102
RTVSPropertyOp4
 70
     1
102
RTVSPropertyOp5
 70
     1
102
RTVSPropertyOp6
 70
     1
102
RTVSPropertyOp7
 70
     1
102
RTVSPropertyOp8
 70
     1
102
RTVSPropertyOp9
 70
     1
102
RTVSPropertyOp10
 70
     1
102
RTVSPropertyOp11
 70
     1
102
RTVSPropertyOp12
 70
     1
102
RTVSPropertyOp13
 70
     1
102
RTVSPropertyOp14
 70
     1
102
RTVSPropertyOp15
 70
     1
102
RTVSPropertyOp16
 70
     1
102
RTVSPropertyOp17
 70
     1
102
RTVSPropertyOp18
 70
     1
102
RTVSPropertyOp19
 70
     1
102
RTVSPropertyOp20
 70
     1
102
RTVSPropertyOp21
 70
     1
102
RTVSPropertyOp22
 70
     1
102
RTVSPropertyOp23
 70
     1
102
RTVSPropertyOp24
 70
     1
102
RTVSPropertyOp25
 70
     1
102
RTVSPropertyOp26
 70
     1
102
RTVSPropertyOp27
 70
     1
102
RTVSPropertyOp28
 70
     1
102
RTVSPropertyOp29
 70
     1
102
RTVSPropertyOp30
 70
     1
102
RTVSPropertyOp31
 70
     1
102
RTVSPropertyOp32
 70
     1
102
RTVSPropertyOp33
 70
     1
102
RTVSPropertyOp34
 70
     1
102
RTVSPropertyOp35
 70
     1
102
RTVSPropertyOp36
 70
     1
102
RTVSPropertyOp37
 70
     1
102
RTVSPropertyOp38
 70
     1
102
RTVSPropertyOp39
 70
     1
102
RTVSPropertyOp40
 70
     1
102
RTVSPropertyOp41
 70
     1
102
RTVSPropertyOp42
 70
     1
102
RTVSPropertyOp43
 70
     1
102
RTVSPropertyOp44
 70
     1
102
RTVSPropertyOp45
 70
     1
102
RTVSPropertyOp46
 70
     1
102
RTVSPropertyOp47
 70
     1
102
RTVSPropertyOp48
 70
     1
102
RTVSPropertyOp49
 70
     1
102
RTVSPropertyOp50
 70
     1
102
RTVSPropertyOp51
 70
     0
102
RTVSPropertyOp52
 70
     0
102
RTVSPropertyOp53
 70
     1
102
RTVSPropertyOp54
 70
     1
102
RTVSPropertyOp55
 70
     1
102
RTVSPropertyOp56
 70
     1
102
RTVSPropertyOp57
 70
     1
102
RTVSPropertyOp58
 70
     1
102
RTVSPropertyOp59
 70
     1
102
RTVSPropertyOp60
 70
     1
102
RTVSPropertyOp61
 70
     1
102
RTVSPropertyOp62
 70
     1
  0
XRECORD
  5
83EF
102
{ACAD_REACTORS
330
83EE
102
}
330
83EE
100
AcDbXrecord
280
     1
102
RTVSPost2010Prop28
280
     0
102
RTVSPost2010PropOp28
 70
     1
102
RTVSPost2010Prop29
280
     1
102
RTVSPost2010PropOp29
 70
     1
102
RTVSPost2010Prop30
280
     1
102
RTVSPost2010PropOp30
 70
     1
102
RTVSPost2010Prop31
280
     0
102
RTVSPost2010PropOp31
 70
     1
102
RTVSPost2010Prop32
280
     0
102
RTVSPost2010PropOp32
 70
     1
102
RTVSPost2010Prop33
280
     0
102
RTVSPost2010PropOp33
 70
     1
102
RTVSPost2010Prop34
280
     0
102
RTVSPost2010PropOp34
 70
     1
102
RTVSPost2010Prop35
280
     0
102
RTVSPost2010PropOp35
 70
     1
102
RTVSPost2010Prop36
280
     0
102
RTVSPost2010PropOp36
 70
     1
102
RTVSPost2010Prop37
 90
       50
102
RTVSPost2010PropOp37
 70
     1
102
RTVSPost2010Prop38
140
0.0
102
RTVSPost2010PropOp38
 70
     1
102
RTVSPost2010Prop39
140
1.0
102
RTVSPost2010PropOp39
 70
     1
102
RTVSPost2010Prop40
 90
        0
102
RTVSPost2010PropOp40
 70
     1
102
RTVSPost2010Prop41ColorIndex
 90
       18
102
RTVSPost2010Prop41ColorRGB
 90
        0
102
RTVSPost2010PropOp41
 70
     1
102
RTVSPost2010Prop42
 90
       50
102
RTVSPost2010PropOp42
 70
     1
102
RTVSPost2010Prop43
 90
        3
102
RTVSPost2010PropOp43
 70
     1
102
RTVSPost2010Prop44ColorIndex
 90
        5
102
RTVSPost2010Prop44ColorRGB
 90
      255
102
RTVSPost2010PropOp44
 70
     1
102
RTVSPost2010Prop45
280
     0
102
RTVSPost2010PropOp45
 70
     1
102
RTVSPost2010Prop46
 90
       50
102
RTVSPost2010PropOp46
 70
     1
102
RTVSPost2010Prop47
 90
       50
102
RTVSPost2010PropOp47
 70
     1
102
RTVSPost2010Prop48
 90
       50
102
RTVSPost2010PropOp48
 70
     1
102
RTVSPost2010Prop49
280
     0
102
RTVSPost2010PropOp49
 70
     1
102
RTVSPost2010Prop50
 90
       50
102
RTVSPost2010PropOp50
 70
     1
102
RTVSPost2010Prop51ColorIndex
 90
      256
102
RTVSPost2010Prop51ColorRGB
 90
-16777216
102
RTVSPost2010PropOp51
 70
     0
102
RTVSPost2010Prop52
140
1.0
102
RTVSPost2010PropOp52
 70
     0
102
RTVSPost2010Prop53
 90
        2
102
RTVSPost2010PropOp53
 70
     1
102
RTVSPost2010Prop54
  1
strokes_ogs.tif
102
RTVSPost2010PropOp54
 70
     1
102
RTVSPost2010Prop55
280
     0
102
RTVSPost2010PropOp55
 70
     1
102
RTVSPost2010Prop56
140
1.0
102
RTVSPost2010PropOp56
 70
     1
102
RTVSPost2010Prop57
140
1.0
102
RTVSPost2010PropOp57
 70
     1
102
RTVSPropertyOp0
 70
     1
102
RTVSPropertyOp1
 70
     1
102
RTVSPropertyOp2
 70
     1
102
RTVSPropertyOp3
 70
     1
102
RTVSPropertyOp4
 70
     1
102
RTVSPropertyOp5
 70
     1
102
RTVSPropertyOp6
 70
     1
102
RTVSPropertyOp7
 70
     1
102
RTVSPropertyOp8
 70
     1
102
RTVSPropertyOp9
 70
     1
102
RTVSPropertyOp10
 70
     1
102
RTVSPropertyOp11
 70
     1
102
RTVSPropertyOp12
 70
     1
102
RTVSPropertyOp13
 70
     1
102
RTVSPropertyOp14
 70
     1
102
RTVSPropertyOp15
 70
     1
102
RTVSPropertyOp16
 70
     1
102
RTVSPropertyOp17
 70
     1
102
RTVSPropertyOp18
 70
     1
102
RTVSPropertyOp19
 70
     1
102
RTVSPropertyOp20
 70
     1
102
RTVSPropertyOp21
 70
     1
102
RTVSPropertyOp22
 70
     1
102
RTVSPropertyOp23
 70
     1
102
RTVSPropertyOp24
 70
     1
102
RTVSPropertyOp25
 70
     1
102
RTVSPropertyOp26
 70
     1
102
RTVSPropertyOp27
 70
     1
102
RTVSPropertyOp28
 70
     1
102
RTVSPropertyOp29
 70
     1
102
RTVSPropertyOp30
 70
     1
102
RTVSPropertyOp31
 70
     1
102
RTVSPropertyOp32
 70
     1
102
RTVSPropertyOp33
 70
     1
102
RTVSPropertyOp34
 70
     1
102
RTVSPropertyOp35
 70
     1
102
RTVSPropertyOp36
 70
     1
102
RTVSPropertyOp37
 70
     1
102
RTVSPropertyOp38
 70
     1
102
RTVSPropertyOp39
 70
     1
102
RTVSPropertyOp40
 70
     1
102
RTVSPropertyOp41
 70
     1
102
RTVSPropertyOp42
 70
     1
102
RTVSPropertyOp43
 70
     1
102
RTVSPropertyOp44
 70
     1
102
RTVSPropertyOp45
 70
     1
102
RTVSPropertyOp46
 70
     1
102
RTVSPropertyOp47
 70
     1
102
RTVSPropertyOp48
 70
     1
102
RTVSPropertyOp49
 70
     1
102
RTVSPropertyOp50
 70
     1
102
RTVSPropertyOp51
 70
     0
102
RTVSPropertyOp52
 70
     0
102
RTVSPropertyOp53
 70
     1
102
RTVSPropertyOp54
 70
     1
102
RTVSPropertyOp55
 70
     1
102
RTVSPropertyOp56
 70
     1
102
RTVSPropertyOp57
 70
     1
102
RTVSPropertyOp58
 70
     1
102
RTVSPropertyOp59
 70
     1
102
RTVSPropertyOp60
 70
     1
102
RTVSPropertyOp61
 70
     1
102
RTVSPropertyOp62
 70
     1
  0
XRECORD
  5
83E3
102
{ACAD_REACTORS
330
83E2
102
}
330
83E2
100
AcDbXrecord
280
     1
102
RTVSPost2010Prop28
280
     0
102
RTVSPost2010PropOp28
 70
     1
102
RTVSPost2010Prop29
280
     1
102
RTVSPost2010PropOp29
 70
     1
102
RTVSPost2010Prop30
280
     1
102
RTVSPost2010PropOp30
 70
     1
102
RTVSPost2010Prop31
280
     0
102
RTVSPost2010PropOp31
 70
     1
102
RTVSPost2010Prop32
280
     0
102
RTVSPost2010PropOp32
 70
     1
102
RTVSPost2010Prop33
280
     0
102
RTVSPost2010PropOp33
 70
     1
102
RTVSPost2010Prop34
280
     0
102
RTVSPost2010PropOp34
 70
     1
102
RTVSPost2010Prop35
280
     0
102
RTVSPost2010PropOp35
 70
     1
102
RTVSPost2010Prop36
280
     0
102
RTVSPost2010PropOp36
 70
     1
102
RTVSPost2010Prop37
 90
       50
102
RTVSPost2010PropOp37
 70
     1
102
RTVSPost2010Prop38
140
0.0
102
RTVSPost2010PropOp38
 70
     1
102
RTVSPost2010Prop39
140
1.0
102
RTVSPost2010PropOp39
 70
     1
102
RTVSPost2010Prop40
 90
        0
102
RTVSPost2010PropOp40
 70
     1
102
RTVSPost2010Prop41ColorIndex
 90
       18
102
RTVSPost2010Prop41ColorRGB
 90
        0
102
RTVSPost2010PropOp41
 70
     1
102
RTVSPost2010Prop42
 90
       50
102
RTVSPost2010PropOp42
 70
     1
102
RTVSPost2010Prop43
 90
        3
102
RTVSPost2010PropOp43
 70
     1
102
RTVSPost2010Prop44ColorIndex
 90
        5
102
RTVSPost2010Prop44ColorRGB
 90
      255
102
RTVSPost2010PropOp44
 70
     1
102
RTVSPost2010Prop45
280
     0
102
RTVSPost2010PropOp45
 70
     1
102
RTVSPost2010Prop46
 90
       50
102
RTVSPost2010PropOp46
 70
     1
102
RTVSPost2010Prop47
 90
       50
102
RTVSPost2010PropOp47
 70
     1
102
RTVSPost2010Prop48
 90
       50
102
RTVSPost2010PropOp48
 70
     1
102
RTVSPost2010Prop49
280
     0
102
RTVSPost2010PropOp49
 70
     1
102
RTVSPost2010Prop50
 90
       50
102
RTVSPost2010PropOp50
 70
     1
102
RTVSPost2010Prop51ColorIndex
 90
      256
102
RTVSPost2010Prop51ColorRGB
 90
-16777216
102
RTVSPost2010PropOp51
 70
     0
102
RTVSPost2010Prop52
140
1.0
102
RTVSPost2010PropOp52
 70
     0
102
RTVSPost2010Prop53
 90
        2
102
RTVSPost2010PropOp53
 70
     1
102
RTVSPost2010Prop54
  1
strokes_ogs.tif
102
RTVSPost2010PropOp54
 70
     1
102
RTVSPost2010Prop55
280
     0
102
RTVSPost2010PropOp55
 70
     1
102
RTVSPost2010Prop56
140
1.0
102
RTVSPost2010PropOp56
 70
     1
102
RTVSPost2010Prop57
140
1.0
102
RTVSPost2010PropOp57
 70
     1
102
RTVSPropertyOp0
 70
     1
102
RTVSPropertyOp1
 70
     1
102
RTVSPropertyOp2
 70
     1
102
RTVSPropertyOp3
 70
     1
102
RTVSPropertyOp4
 70
     1
102
RTVSPropertyOp5
 70
     1
102
RTVSPropertyOp6
 70
     1
102
RTVSPropertyOp7
 70
     1
102
RTVSPropertyOp8
 70
     1
102
RTVSPropertyOp9
 70
     1
102
RTVSPropertyOp10
 70
     1
102
RTVSPropertyOp11
 70
     1
102
RTVSPropertyOp12
 70
     1
102
RTVSPropertyOp13
 70
     1
102
RTVSPropertyOp14
 70
     1
102
RTVSPropertyOp15
 70
     1
102
RTVSPropertyOp16
 70
     1
102
RTVSPropertyOp17
 70
     1
102
RTVSPropertyOp18
 70
     1
102
RTVSPropertyOp19
 70
     1
102
RTVSPropertyOp20
 70
     1
102
RTVSPropertyOp21
 70
     1
102
RTVSPropertyOp22
 70
     1
102
RTVSPropertyOp23
 70
     1
102
RTVSPropertyOp24
 70
     1
102
RTVSPropertyOp25
 70
     1
102
RTVSPropertyOp26
 70
     1
102
RTVSPropertyOp27
 70
     1
102
RTVSPropertyOp28
 70
     1
102
RTVSPropertyOp29
 70
     1
102
RTVSPropertyOp30
 70
     1
102
RTVSPropertyOp31
 70
     1
102
RTVSPropertyOp32
 70
     1
102
RTVSPropertyOp33
 70
     1
102
RTVSPropertyOp34
 70
     1
102
RTVSPropertyOp35
 70
     1
102
RTVSPropertyOp36
 70
     1
102
RTVSPropertyOp37
 70
     1
102
RTVSPropertyOp38
 70
     1
102
RTVSPropertyOp39
 70
     1
102
RTVSPropertyOp40
 70
     1
102
RTVSPropertyOp41
 70
     1
102
RTVSPropertyOp42
 70
     1
102
RTVSPropertyOp43
 70
     1
102
RTVSPropertyOp44
 70
     1
102
RTVSPropertyOp45
 70
     1
102
RTVSPropertyOp46
 70
     1
102
RTVSPropertyOp47
 70
     1
102
RTVSPropertyOp48
 70
     1
102
RTVSPropertyOp49
 70
     1
102
RTVSPropertyOp50
 70
     1
102
RTVSPropertyOp51
 70
     0
102
RTVSPropertyOp52
 70
     0
102
RTVSPropertyOp53
 70
     1
102
RTVSPropertyOp54
 70
     1
102
RTVSPropertyOp55
 70
     1
102
RTVSPropertyOp56
 70
     1
102
RTVSPropertyOp57
 70
     1
102
RTVSPropertyOp58
 70
     1
102
RTVSPropertyOp59
 70
     1
102
RTVSPropertyOp60
 70
     1
102
RTVSPropertyOp61
 70
     1
102
RTVSPropertyOp62
 70
     1
  0
XRECORD
  5
83FB
102
{ACAD_REACTORS
330
83FA
102
}
330
83FA
100
AcDbXrecord
280
     1
102
RTVSPost2010Prop28
280
     0
102
RTVSPost2010PropOp28
 70
     1
102
RTVSPost2010Prop29
280
     1
102
RTVSPost2010PropOp29
 70
     1
102
RTVSPost2010Prop30
280
     1
102
RTVSPost2010PropOp30
 70
     1
102
RTVSPost2010Prop31
280
     0
102
RTVSPost2010PropOp31
 70
     1
102
RTVSPost2010Prop32
280
     0
102
RTVSPost2010PropOp32
 70
     1
102
RTVSPost2010Prop33
280
     0
102
RTVSPost2010PropOp33
 70
     1
102
RTVSPost2010Prop34
280
     0
102
RTVSPost2010PropOp34
 70
     1
102
RTVSPost2010Prop35
280
     0
102
RTVSPost2010PropOp35
 70
     1
102
RTVSPost2010Prop36
280
     0
102
RTVSPost2010PropOp36
 70
     1
102
RTVSPost2010Prop37
 90
       50
102
RTVSPost2010PropOp37
 70
     1
102
RTVSPost2010Prop38
140
0.0
102
RTVSPost2010PropOp38
 70
     1
102
RTVSPost2010Prop39
140
1.0
102
RTVSPost2010PropOp39
 70
     1
102
RTVSPost2010Prop40
 90
        0
102
RTVSPost2010PropOp40
 70
     1
102
RTVSPost2010Prop41ColorIndex
 90
       18
102
RTVSPost2010Prop41ColorRGB
 90
        0
102
RTVSPost2010PropOp41
 70
     1
102
RTVSPost2010Prop42
 90
       50
102
RTVSPost2010PropOp42
 70
     1
102
RTVSPost2010Prop43
 90
        3
102
RTVSPost2010PropOp43
 70
     1
102
RTVSPost2010Prop44ColorIndex
 90
        5
102
RTVSPost2010Prop44ColorRGB
 90
      255
102
RTVSPost2010PropOp44
 70
     1
102
RTVSPost2010Prop45
280
     0
102
RTVSPost2010PropOp45
 70
     1
102
RTVSPost2010Prop46
 90
       50
102
RTVSPost2010PropOp46
 70
     1
102
RTVSPost2010Prop47
 90
       50
102
RTVSPost2010PropOp47
 70
     1
102
RTVSPost2010Prop48
 90
       50
102
RTVSPost2010PropOp48
 70
     1
102
RTVSPost2010Prop49
280
     0
102
RTVSPost2010PropOp49
 70
     1
102
RTVSPost2010Prop50
 90
       50
102
RTVSPost2010PropOp50
 70
     1
102
RTVSPost2010Prop51ColorIndex
 90
      256
102
RTVSPost2010Prop51ColorRGB
 90
-16777216
102
RTVSPost2010PropOp51
 70
     0
102
RTVSPost2010Prop52
140
1.0
102
RTVSPost2010PropOp52
 70
     0
102
RTVSPost2010Prop53
 90
        2
102
RTVSPost2010PropOp53
 70
     1
102
RTVSPost2010Prop54
  1
strokes_ogs.tif
102
RTVSPost2010PropOp54
 70
     1
102
RTVSPost2010Prop55
280
     0
102
RTVSPost2010PropOp55
 70
     1
102
RTVSPost2010Prop56
140
1.0
102
RTVSPost2010PropOp56
 70
     1
102
RTVSPost2010Prop57
140
1.0
102
RTVSPost2010PropOp57
 70
     1
102
RTVSPropertyOp0
 70
     1
102
RTVSPropertyOp1
 70
     1
102
RTVSPropertyOp2
 70
     1
102
RTVSPropertyOp3
 70
     1
102
RTVSPropertyOp4
 70
     1
102
RTVSPropertyOp5
 70
     1
102
RTVSPropertyOp6
 70
     1
102
RTVSPropertyOp7
 70
     1
102
RTVSPropertyOp8
 70
     1
102
RTVSPropertyOp9
 70
     1
102
RTVSPropertyOp10
 70
     1
102
RTVSPropertyOp11
 70
     1
102
RTVSPropertyOp12
 70
     1
102
RTVSPropertyOp13
 70
     1
102
RTVSPropertyOp14
 70
     1
102
RTVSPropertyOp15
 70
     1
102
RTVSPropertyOp16
 70
     1
102
RTVSPropertyOp17
 70
     1
102
RTVSPropertyOp18
 70
     1
102
RTVSPropertyOp19
 70
     1
102
RTVSPropertyOp20
 70
     1
102
RTVSPropertyOp21
 70
     1
102
RTVSPropertyOp22
 70
     1
102
RTVSPropertyOp23
 70
     1
102
RTVSPropertyOp24
 70
     1
102
RTVSPropertyOp25
 70
     1
102
RTVSPropertyOp26
 70
     1
102
RTVSPropertyOp27
 70
     1
102
RTVSPropertyOp28
 70
     1
102
RTVSPropertyOp29
 70
     1
102
RTVSPropertyOp30
 70
     1
102
RTVSPropertyOp31
 70
     1
102
RTVSPropertyOp32
 70
     1
102
RTVSPropertyOp33
 70
     1
102
RTVSPropertyOp34
 70
     1
102
RTVSPropertyOp35
 70
     1
102
RTVSPropertyOp36
 70
     1
102
RTVSPropertyOp37
 70
     1
102
RTVSPropertyOp38
 70
     1
102
RTVSPropertyOp39
 70
     1
102
RTVSPropertyOp40
 70
     1
102
RTVSPropertyOp41
 70
     1
102
RTVSPropertyOp42
 70
     1
102
RTVSPropertyOp43
 70
     1
102
RTVSPropertyOp44
 70
     1
102
RTVSPropertyOp45
 70
     1
102
RTVSPropertyOp46
 70
     1
102
RTVSPropertyOp47
 70
     1
102
RTVSPropertyOp48
 70
     1
102
RTVSPropertyOp49
 70
     1
102
RTVSPropertyOp50
 70
     1
102
RTVSPropertyOp51
 70
     0
102
RTVSPropertyOp52
 70
     0
102
RTVSPropertyOp53
 70
     1
102
RTVSPropertyOp54
 70
     1
102
RTVSPropertyOp55
 70
     1
102
RTVSPropertyOp56
 70
     1
102
RTVSPropertyOp57
 70
     1
102
RTVSPropertyOp58
 70
     1
102
RTVSPropertyOp59
 70
     1
102
RTVSPropertyOp60
 70
     1
102
RTVSPropertyOp61
 70
     1
102
RTVSPropertyOp62
 70
     1
  0
ENDSEC
  0
EOF
