  0
SECTION
  2
HEADER
  9
$ACADVER
  1
AC1009
  9
$INSBASE
 10
0.0
 20
0.0
 30
0.0
  9
$EXTMIN
 10
750.0
 20
900.0
 30
0.0
  9
$EXTMAX
 10
5550.0
 20
8359.9567849999985
 30
0.0
  9
$LIMMIN
 10
0.0
 20
0.0
  9
$LIMMAX
 10
297.0
 20
210.0
  9
$ORTHOMODE
 70
     0
  9
$REGENMODE
 70
     1
  9
$FILLMODE
 70
     0
  9
$QTEXTMODE
 70
     0
  9
$MIRRTEXT
 70
     1
  9
$DRAGMODE
 70
     2
  9
$LTSCALE
 40
100.0
  9
$OSMODE
 70
    37
  9
$ATTMODE
 70
     1
  9
$TEXTSIZE
 40
180.0
  9
$TRACEWID
 40
0.05
  9
$TEXTSTYLE
  7
STANDARD
  9
$CLAYER
  8
3
  9
$CELTYPE
  6
BYLAYER
  9
$CECOLOR
 62
   256
  9
$DIMSCALE
 40
30.0
  9
$DIMASZ
 40
2.0
  9
$DIMEXO
 40
0.5
  9
$DIMDLI
 40
10.0
  9
$DIMRND
 40
0.0
  9
$DIMDLE
 40
0.0
  9
$DIMEXE
 40
1.0
  9
$DIMTP
 40
1.0
  9
$DIMTM
 40
1.0
  9
$DIMTXT
 40
3.0
  9
$DIMCEN
 40
0.0
  9
$DIMTSZ
 40
0.0
  9
$DIMTOL
 70
     0
  9
$DIMLIM
 70
     0
  9
$DIMTIH
 70
     0
  9
$DIMTOH
 70
     0
  9
$DIMSE1
 70
     0
  9
$DIMSE2
 70
     0
  9
$DIMTAD
 70
     1
  9
$DIMZIN
 70
     8
  9
$DIMBLK
  1

  9
$DIMASO
 70
     1
  9
$DIMSHO
 70
     1
  9
$DIMPOST
  1
(<>)
  9
$DIMAPOST
  1

  9
$DIMALT
 70
     0
  9
$DIMALTD
 70
     2
  9
$DIMALTF
 40
0.039
  9
$DIMLFAC
 40
1.0
  9
$DIMTOFL
 70
     1
  9
$DIMTVP
 40
0.0
  9
$DIMTIX
 70
     0
  9
$DIMSOXD
 70
     0
  9
$DIMSAH
 70
     1
  9
$DIMBLK1
  1
DOT
  9
$DIMBLK2
  1
OPEN
  9
$DIMSTYLE
  2
IGA
  9
$DIMCLRD
 70
     0
  9
$DIMCLRE
 70
     0
  9
$DIMCLRT
 70
     0
  9
$DIMTFAC
 40
10.0
  9
$DIMGAP
 40
1.0
  9
$LUNITS
 70
     2
  9
$LUPREC
 70
     3
  9
$SKETCHINC
 40
0.1
  9
$FILLETRAD
 40
50.0
  9
$AUNITS
 70
     0
  9
$AUPREC
 70
     0
  9
$MENU
  1
acad
  9
$ELEVATION
 40
0.0
  9
$PELEVATION
 40
0.0
  9
$THICKNESS
 40
0.0
  9
$LIMCHECK
 70
     0
  9
$BLIPMODE
 70
     0
  9
$CHAMFERA
 40
0.5
  9
$CHAMFERB
 40
0.5
  9
$SKPOLY
 70
     0
  9
$TDCREATE
 40
2450751.5911622681
  9
$TDUPDATE
 40
2454953.7777238772
  9
$TDINDWG
 40
0.0198293634
  9
$TDUSRTIMER
 40
0.0198293634
  9
$USRTIMER
 70
     1
  9
$ANGBASE
 50
0.0
  9
$ANGDIR
 70
     0
  9
$PDMODE
 70
     0
  9
$PDSIZE
 40
0.0
  9
$PLINEWID
 40
0.0
  9
$COORDS
 70
     1
  9
$SPLFRAME
 70
     0
  9
$SPLINETYPE
 70
     6
  9
$SPLINESEGS
 70
     8
  9
$ATTDIA
 70
     0
  9
$ATTREQ
 70
     1
  9
$HANDLING
 70
 10241
  9
$HANDSEED
  5
7F25
  9
$SURFTAB1
 70
     6
  9
$SURFTAB2
 70
     6
  9
$SURFTYPE
 70
     6
  9
$SURFU
 70
     6
  9
$SURFV
 70
     6
  9
$UCSNAME
  2

  9
$UCSORG
 10
0.0
 20
0.0
 30
0.0
  9
$UCSXDIR
 10
1.0
 20
0.0
 30
0.0
  9
$UCSYDIR
 10
0.0
 20
1.0
 30
0.0
  9
$PUCSNAME
  2

  9
$PUCSORG
 10
0.0
 20
0.0
 30
0.0
  9
$PUCSXDIR
 10
1.0
 20
0.0
 30
0.0
  9
$PUCSYDIR
 10
0.0
 20
1.0
 30
0.0
  9
$USERI1
 70
     0
  9
$USERI2
 70
     0
  9
$USERI3
 70
     0
  9
$USERI4
 70
     0
  9
$USERI5
 70
     0
  9
$USERR1
 40
0.0
  9
$USERR2
 40
0.0
  9
$USERR3
 40
0.0
  9
$USERR4
 40
0.0
  9
$USERR5
 40
0.0
  9
$WORLDVIEW
 70
     1
  9
$SHADEDGE
 70
     3
  9
$SHADEDIF
 70
    70
  9
$TILEMODE
 70
     1
  9
$MAXACTVP
 70
    16
  9
$PLIMCHECK
 70
     0
  9
$PEXTMIN
 10
1.0000000000000000E+020
 20
1.0000000000000000E+020
 30
1.0000000000000000E+020
  9
$PEXTMAX
 10
-1.0000000000000000E+020
 20
-1.0000000000000000E+020
 30
-1.0000000000000000E+020
  9
$PLIMMIN
 10
0.0
 20
0.0
  9
$PLIMMAX
 10
12.0
 20
9.0
  9
$UNITMODE
 70
     0
  9
$VISRETAIN
 70
     0
  9
$PLINEGEN
 70
     0
  9
$PSLTSCALE
 70
     1
  0
ENDSEC
  0
SECTION
  2
TABLES
  0
TABLE
  2
VPORT
 70
     2
  0
VPORT
  2
*ACTIVE
 70
     0
 10
0.0
 20
0.0
 11
1.0
 21
1.0
 12
9438.1687158055174
 22
4629.9562499988788
 13
0.0
 23
0.0
 14
10.0
 24
10.0
 15
10.0
 25
10.0
 16
0.0
 26
0.0
 36
1.0
 17
0.0
 27
0.0
 37
0.0
 40
7517.2452868940854
 41
3.1666666666666661
 42
50.0
 43
0.0
 44
0.0
 50
0.0
 51
0.0
 71
     0
 72
   100
 73
     1
 74
     0
 75
     0
 76
     0
 77
     0
 78
     0
  0
ENDTAB
  0
TABLE
  2
LTYPE
 70
     2
  0
LTYPE
  2
CONTINUOUS
 70
     0
  3
Solid line
 72
    65
 73
     0
 40
0.0
  0
LTYPE
  2
CENTER
 70
     0
  3
____ _ ____ _ ____ _ ____ _ ____ _ ____ _ ____ 
 72
    65
 73
     4
 40
2.0
 49
1.25
 49
-0.25
 49
0.25
 49
-0.25
  0
ENDTAB
  0
TABLE
  2
LAYER
 70
     6
  0
LAYER
  2
0
 70
     0
 62
     7
  6
CONTINUOUS
  0
LAYER
  2
3
 70
     0
 62
     2
  6
CONTINUOUS
  0
LAYER
  2
2
 70
     0
 62
     3
  6
CENTER
  0
LAYER
  2
1
 70
     0
 62
     4
  6
CONTINUOUS
  0
LAYER
  2
4
 70
     0
 62
     7
  6
CONTINUOUS
  0
LAYER
  2
DEFPOINTS
 70
     0
 62
    -7
  6
CONTINUOUS
  0
ENDTAB
  0
TABLE
  2
STYLE
 70
     1
  0
STYLE
  2
STANDARD
 70
     0
 40
0.0
 41
1.0
 50
0.0
 71
     0
 42
180.0
  3
simplex.shx
  4
extfont.shx
  0
ENDTAB
  0
TABLE
  2
VIEW
 70
     0
  0
ENDTAB
  0
TABLE
  2
UCS
 70
     0
  0
ENDTAB
  0
TABLE
  2
APPID
 70
     1
  0
APPID
  2
ACAD
 70
     0
  0
ENDTAB
  0
TABLE
  2
DIMSTYLE
 70
     1
  0
DIMSTYLE
  2
IGA
 70
     0
  3

  4

  5

  6
OPEN
  7
OPEN
 40
2.0
 41
2.0
 42
0.5
 43
10.0
 44
1.0
 45
0.0
 46
0.0
 47
1.0
 48
1.0
140
3.0
141
0.0
142
0.0
143
0.03937
144
1.0
145
0.0
146
10.0
147
1.0
 71
     0
 72
     0
 73
     0
 74
     0
 75
     0
 76
     0
 77
     1
 78
     8
170
     0
171
     2
172
     0
173
     1
174
     0
175
     0
176
     0
177
     0
178
     0
  0
ENDTAB
  0
ENDSEC
  0
SECTION
  2
BLOCKS
  0
BLOCK
  8
0
  2
$MODEL_SPACE
 70
     0
 10
0.0
 20
0.0
 30
0.0
  3
$MODEL_SPACE
  1

  0
ENDBLK
  5
1B
  8
0
  0
BLOCK
 67
     1
  8
0
  2
$PAPER_SPACE
 70
     0
 10
0.0
 20
0.0
 30
0.0
  3
$PAPER_SPACE
  1

  0
ENDBLK
  5
18
 67
     1
  8
0
  0
BLOCK
  8
0
  2
_OPEN
 70
     0
 10
0.0
 20
0.0
 30
0.0
  3
_OPEN
  1

  0
LINE
  5
7B80
  8
0
  6
BYBLOCK
 62
     0
 10
-1.0
 20
0.166667
 30
0.0
 11
0.0
 21
0.0
 31
0.0
  0
LINE
  5
7B81
  8
0
  6
BYBLOCK
 62
     0
 10
0.0
 20
0.0
 30
0.0
 11
-1.0
 21
-0.166667
 31
0.0
  0
LINE
  5
7B82
  8
0
  6
BYBLOCK
 62
     0
 10
0.0
 20
0.0
 30
0.0
 11
-1.0
 21
0.0
 31
0.0
  0
ENDBLK
  5
7B83
  8
0
  0
BLOCK
  8
0
  2
*D1
 70
     1
 10
0.0
 20
0.0
 30
0.0
  3
*D1
  1

  0
LINE
  5
7E82
  8
3
  6
CONTINUOUS
 62
     0
 10
1584.5429951938399
 20
3616.8821429999998
 30
0.0
 11
1425.66092219384
 21
3616.8821429999998
 31
0.0
  0
LINE
  5
7E83
  8
3
  6
CONTINUOUS
 62
     0
 10
1584.5429951938399
 20
2691.8821429999989
 30
0.0
 11
1425.66092219384
 21
2691.8821429999989
 31
0.0
  0
LINE
  5
7E84
  8
3
  6
CONTINUOUS
 62
     0
 10
1455.66092219384
 20
3556.8821429999998
 30
0.0
 11
1455.66092219384
 21
2751.8821429999998
 31
0.0
  0
INSERT
  5
7E85
  8
3
  6
CONTINUOUS
 62
     0
  2
_OPEN
 10
1455.66092219384
 20
3616.8821429999998
 30
0.0
 41
60.0
 42
60.0
 43
60.0
 50
90.0
  0
INSERT
  5
7E86
  8
3
  6
CONTINUOUS
 62
     0
  2
_OPEN
 10
1455.66092219384
 20
2691.8821429999989
 30
0.0
 41
60.0
 42
60.0
 43
60.0
 50
270.0
  0
TEXT
  8
3
  40
90
  5
7F14
  62
0
  72
0
  71
0
 10
1200.66
 20
3005.41
 30
0.000000
  1
925
  0
POINT
  5
7E88
  8
DEFPOINTS
  6
CONTINUOUS
 62
     0
 10
1599.5429951938399
 20
3616.8821429999998
 30
0.0
  0
POINT
  5
7E89
  8
DEFPOINTS
  6
CONTINUOUS
 62
     0
 10
1599.5429951938399
 20
2691.8821429999989
 30
0.0
  0
POINT
  5
7E8A
  8
DEFPOINTS
  6
CONTINUOUS
 62
     0
 10
1455.66092219384
 20
2691.8821429999989
 30
0.0
  0
ENDBLK
  5
7BC9
  8
0
  0
BLOCK
  8
0
  2
*D2
 70
     1
 10
0.0
 20
0.0
 30
0.0
  3
*D2
  1

  0
LINE
  5
7E8B
  8
3
  6
CONTINUOUS
 62
     0
 10
1472.55463619384
 20
3574.8821429999989
 30
0.0
 11
1239.01929119384
 21
3574.8821429999989
 31
0.0
  0
LINE
  5
7E8C
  8
3
  6
CONTINUOUS
 62
     0
 10
1584.5429951938399
 20
2691.8821429999989
 30
0.0
 11
1239.01929119384
 21
2691.8821429999989
 31
0.0
  0
LINE
  5
7E8D
  8
3
  6
CONTINUOUS
 62
     0
 10
1269.01929119384
 20
3514.8821429999989
 30
0.0
 11
1269.01929119384
 21
2751.8821429999998
 31
0.0
  0
INSERT
  5
7E8E
  8
3
  6
CONTINUOUS
 62
     0
  2
_OPEN
 10
1269.01929119384
 20
3574.8821429999989
 30
0.0
 41
60.0
 42
60.0
 43
60.0
 50
90.0
  0
INSERT
  5
7E8F
  8
3
  6
CONTINUOUS
 62
     0
  2
_OPEN
 10
1269.01929119384
 20
2691.8821429999989
 30
0.0
 41
60.0
 42
60.0
 43
60.0
 50
270.0
  0
TEXT
  8
3
  40
90
  5
7F15
  62
0
  72
0
  71
0
 10
1014.02
 20
3005.41
 30
0.000000
  1
883
  0
POINT
  5
7E91
  8
DEFPOINTS
  6
CONTINUOUS
 62
     0
 10
1487.55463619384
 20
3574.8821429999989
 30
0.0
  0
POINT
  5
7E92
  8
DEFPOINTS
  6
CONTINUOUS
 62
     0
 10
1599.5429951938399
 20
2691.8821429999989
 30
0.0
  0
POINT
  5
7E93
  8
DEFPOINTS
  6
CONTINUOUS
 62
     0
 10
1269.01929119384
 20
2691.8821429999989
 30
0.0
  0
ENDBLK
  5
7BD6
  8
0
  0
BLOCK
  8
0
  2
*D3
 70
     1
 10
0.0
 20
0.0
 30
0.0
  3
*D3
  1

  0
LINE
  5
7E94
  8
3
  6
CONTINUOUS
 62
     0
 10
1599.5429951938399
 20
3674.3821429999989
 30
0.0
 11
1599.5429951938399
 21
4463.108424
 31
0.0
  0
LINE
  5
7E95
  8
3
  6
CONTINUOUS
 62
     0
 10
2254.5429951938399
 20
4344.3847293967729
 30
0.0
 11
2254.5429951938399
 21
4463.108424
 31
0.0
  0
LINE
  5
7E96
  8
3
  6
CONTINUOUS
 62
     0
 10
1659.5429951938399
 20
4433.108424
 30
0.0
 11
2194.542995193839
 21
4433.108424
 31
0.0
  0
INSERT
  5
7E97
  8
3
  6
CONTINUOUS
 62
     0
  2
_OPEN
 10
1599.5429951938399
 20
4433.108424
 30
0.0
 41
60.0
 42
60.0
 43
60.0
 50
180.0
  0
INSERT
  5
7E98
  8
3
  6
CONTINUOUS
 62
     0
  2
_OPEN
 10
2254.5429951938399
 20
4433.108424
 30
0.0
 41
60.0
 42
60.0
 43
60.0
  0
TEXT
  8
3
  40
90
  5
7F16
  62
0
  72
0
  71
0
 10
1729.20
 20
4348.81
 30
0.000000
  1
655
  0
POINT
  5
7E9A
  8
DEFPOINTS
  6
CONTINUOUS
 62
     0
 10
1599.5429951938399
 20
3659.3821429999998
 30
0.0
  0
POINT
  5
7E9B
  8
DEFPOINTS
  6
CONTINUOUS
 62
     0
 10
2254.5429951938399
 20
4329.3847293967738
 30
0.0
  0
POINT
  5
7E9C
  8
DEFPOINTS
  6
CONTINUOUS
 62
     0
 10
2254.5429951938399
 20
4433.108424
 30
0.0
  0
ENDBLK
  5
7C32
  8
0
  0
BLOCK
  8
0
  2
*D4
 70
     1
 10
0.0
 20
0.0
 30
0.0
  3
*D4
  1

  0
LINE
  5
7E9D
  8
3
  6
CONTINUOUS
 62
     0
 10
5146.7355470000002
 20
4234.6784859999989
 30
0.0
 11
5146.7355470000002
 21
4394.7142370000001
 31
0.0
  0
LINE
  5
7E9E
  8
3
  6
CONTINUOUS
 62
     0
 10
4476.7355470000002
 20
4234.6784859999989
 30
0.0
 11
4476.7355470000002
 21
4394.7142370000001
 31
0.0
  0
LINE
  5
7E9F
  8
3
  6
CONTINUOUS
 62
     0
 10
5086.7355470000002
 20
4364.7142370000001
 30
0.0
 11
4536.7355470000002
 21
4364.7142370000001
 31
0.0
  0
INSERT
  5
7EA0
  8
3
  6
CONTINUOUS
 62
     0
  2
_OPEN
 10
5146.7355470000002
 20
4364.7142370000001
 30
0.0
 41
60.0
 42
60.0
 43
60.0
  0
INSERT
  5
7EA1
  8
3
  6
CONTINUOUS
 62
     0
  2
_OPEN
 10
4476.7355470000002
 20
4364.7142370000001
 30
0.0
 41
60.0
 42
60.0
 43
60.0
 50
180.0
  0
TEXT
  8
3
  40
90
  5
7F17
  62
0
  72
0
  71
0
 10
4638.32
 20
4280.41
 30
0.000000
  1
670
  0
POINT
  5
7EA3
  8
DEFPOINTS
  6
CONTINUOUS
 62
     0
 10
5146.7355470000002
 20
4219.6784859999998
 30
0.0
  0
POINT
  5
7EA4
  8
DEFPOINTS
  6
CONTINUOUS
 62
     0
 10
4476.7355470000002
 20
4219.6784859999998
 30
0.0
  0
POINT
  5
7EA5
  8
DEFPOINTS
  6
CONTINUOUS
 62
     0
 10
4476.7355470000002
 20
4364.7142370000001
 30
0.0
  0
ENDBLK
  5
7C4B
  8
0
  0
BLOCK
  8
0
  2
*D5
 70
     1
 10
0.0
 20
0.0
 30
0.0
  3
*D5
  1

  0
LINE
  5
7EA6
  8
3
  6
CONTINUOUS
 62
     0
 10
5165.7355470000002
 20
4049.8821429999998
 30
0.0
 11
5458.011394000001
 21
4049.8821429999998
 31
0.0
  0
LINE
  5
7EA7
  8
3
  6
CONTINUOUS
 62
     0
 10
5165.7355470000002
 20
3099.8821429999998
 30
0.0
 11
5458.011394000001
 21
3099.8821429999998
 31
0.0
  0
LINE
  5
7EA8
  8
3
  6
CONTINUOUS
 62
     0
 10
5428.0113940000019
 20
3989.8821429999989
 30
0.0
 11
5428.0113940000019
 21
3159.8821429999989
 31
0.0
  0
INSERT
  5
7EA9
  8
3
  6
CONTINUOUS
 62
     0
  2
_OPEN
 10
5428.0113940000019
 20
4049.8821429999998
 30
0.0
 41
60.0
 42
60.0
 43
60.0
 50
90.0
  0
INSERT
  5
7EAA
  8
3
  6
CONTINUOUS
 62
     0
  2
_OPEN
 10
5428.0113940000019
 20
3099.8821429999998
 30
0.0
 41
60.0
 42
60.0
 43
60.0
 50
270.0
  0
TEXT
  8
3
  40
90
  5
7F18
  62
0
  72
0
  71
0
 10
5173.01
 20
3421.99
 30
0.000000
  1
φ950
  0
POINT
  5
7EAC
  8
DEFPOINTS
  6
CONTINUOUS
 62
     0
 10
5150.7355470000002
 20
4049.8821429999998
 30
0.0
  0
POINT
  5
7EAD
  8
DEFPOINTS
  6
CONTINUOUS
 62
     0
 10
5150.7355470000002
 20
3099.8821429999998
 30
0.0
  0
POINT
  5
7EAE
  8
DEFPOINTS
  6
CONTINUOUS
 62
     0
 10
5428.0113940000019
 20
3099.8821429999998
 30
0.0
  0
ENDBLK
  5
7D8A
  8
0
  0
BLOCK
  8
0
  2
*D6
 70
     1
 10
0.0
 20
0.0
 30
0.0
  3
*D6
  1

  0
LINE
  5
7D97
  8
0
  6
BYBLOCK
 62
     0
 10
5150.7355470000002
 20
4064.8821429999998
 30
0.0
 11
5150.7355470000002
 21
4612.3320780000004
 31
0.0
  0
LINE
  5
7D98
  8
0
  6
BYBLOCK
 62
     0
 10
4811.7355470000011
 20
4523.2450630000003
 30
0.0
 11
4811.7355470000011
 21
4612.3320780000004
 31
0.0
  0
LINE
  5
7D99
  8
0
  6
BYBLOCK
 62
     0
 10
5090.7355470000011
 20
4582.3320780000004
 30
0.0
 11
4871.7355470000002
 21
4582.3320780000004
 31
0.0
  0
TEXT
  5
7D9A
  8
3
 62
     0
 10
4867.6641184285718
 20
4622.9478840357624
 30
0.0
 40
90.0
  1
339
  0
INSERT
  5
7D9B
  8
0
  6
BYBLOCK
 62
     0
  2
_OPEN
 10
5150.7355470000002
 20
4582.3320780000004
 30
0.0
 41
60.0
 42
60.0
 43
60.0
  0
INSERT
  5
7D9C
  8
0
  6
BYBLOCK
 62
     0
  2
_OPEN
 10
4811.7355470000011
 20
4582.3320780000004
 30
0.0
 41
60.0
 42
60.0
 43
60.0
 50
180.0
  0
POINT
  5
7D9D
  8
DEFPOINTS
  6
BYBLOCK
 62
     0
 10
5150.7355470000002
 20
4049.8821429999998
 30
0.0
  0
POINT
  5
7D9E
  8
DEFPOINTS
  6
BYBLOCK
 62
     0
 10
4811.7355470000011
 20
4508.2450630000003
 30
0.0
  0
POINT
  5
7D9F
  8
DEFPOINTS
  6
BYBLOCK
 62
     0
 10
4811.7355470000011
 20
4582.3320780000004
 30
0.0
  0
ENDBLK
  5
7DA0
  8
0
  0
BLOCK
  8
0
  2
*D7
 70
     1
 10
0.0
 20
0.0
 30
0.0
  3
*D7
  1

  0
LINE
  5
7EAF
  8
3
  6
CONTINUOUS
 62
     0
 10
4201.7355470000011
 20
4029.8821429999998
 30
0.0
 11
4201.7355470000011
 21
4612.3320780000004
 31
0.0
  0
LINE
  5
7EB0
  8
3
  6
CONTINUOUS
 62
     0
 10
4751.7355470000002
 20
4582.3320780000004
 30
0.0
 11
4261.7355469999993
 21
4582.3320780000004
 31
0.0
  0
INSERT
  5
7EB1
  8
3
  6
CONTINUOUS
 62
     0
  2
_OPEN
 10
4811.7355470000011
 20
4582.3320780000004
 30
0.0
 41
60.0
 42
60.0
 43
60.0
  0
INSERT
  5
7EB2
  8
3
  6
CONTINUOUS
 62
     0
  2
_OPEN
 10
4201.7355470000011
 20
4582.3320780000004
 30
0.0
 41
60.0
 42
60.0
 43
60.0
 50
180.0
  0
TEXT
  8
3
  40
90
  5
7F19
  62
0
  72
0
  71
0
 10
4326.74
 20
4573.03
 30
0.000000
  1
MAX
  0
TEXT
  8
3
  40
90
  5
7F1A
  62
0
  72
0
  71
0
 10
4326.74
 20
4456.03
 30
0.000000
  1
640
  0
POINT
  5
7EB4
  8
DEFPOINTS
  6
CONTINUOUS
 62
     0
 10
4811.7355470000011
 20
4508.2450630000003
 30
0.0
  0
POINT
  5
7EB5
  8
DEFPOINTS
  6
CONTINUOUS
 62
     0
 10
4201.7355470000011
 20
4014.8821429999998
 30
0.0
  0
POINT
  5
7EB6
  8
DEFPOINTS
  6
CONTINUOUS
 62
     0
 10
4201.7355470000011
 20
4582.3320780000004
 30
0.0
  0
ENDBLK
  5
7DAA
  8
0
  0
BLOCK
  8
0
  2
*D8
 70
     1
 10
0.0
 20
0.0
 30
0.0
  3
*D8
  1

  0
LINE
  5
7EB7
  8
3
  6
CONTINUOUS
 62
     0
 10
1684.5429951938399
 20
6396.9804219999996
 30
0.0
 11
1684.5429951938399
 21
6649.1998969999986
 31
0.0
  0
LINE
  5
7EB8
  8
3
  6
CONTINUOUS
 62
     0
 10
3434.5429951938399
 20
6396.9804219999996
 30
0.0
 11
3434.5429951938399
 21
6649.1998969999986
 31
0.0
  0
LINE
  5
7EB9
  8
3
  6
CONTINUOUS
 62
     0
 10
1744.5429951938399
 20
6619.1998970000004
 30
0.0
 11
3374.5429951938399
 21
6619.1998970000004
 31
0.0
  0
INSERT
  5
7EBA
  8
3
  6
CONTINUOUS
 62
     0
  2
_OPEN
 10
1684.5429951938399
 20
6619.1998970000004
 30
0.0
 41
60.0
 42
60.0
 43
60.0
 50
180.0
  0
INSERT
  5
7EBB
  8
3
  6
CONTINUOUS
 62
     0
  2
_OPEN
 10
3434.5429951938399
 20
6619.1998970000004
 30
0.0
 41
60.0
 42
60.0
 43
60.0
  0
TEXT
  8
3
  40
90
  5
7F1B
  62
0
  72
0
  71
0
 10
2326.45
 20
6534.90
 30
0.000000
  1
1750
  0
POINT
  5
7EBD
  8
DEFPOINTS
  6
CONTINUOUS
 62
     0
 10
1684.5429951938399
 20
6381.9804219999987
 30
0.0
  0
POINT
  5
7EBE
  8
DEFPOINTS
  6
CONTINUOUS
 62
     0
 10
3434.5429951938399
 20
6381.9804219999987
 30
0.0
  0
POINT
  5
7EBF
  8
DEFPOINTS
  6
CONTINUOUS
 62
     0
 10
3434.5429951938399
 20
6619.1998970000004
 30
0.0
  0
ENDBLK
  5
7D27
  8
0
  0
BLOCK
  8
0
  2
*D9
 70
     1
 10
0.0
 20
0.0
 30
0.0
  3
*D9
  1

  0
LINE
  5
7EC0
  8
3
  6
CONTINUOUS
 62
     0
 10
3449.542995193839
 20
6381.9804219999987
 30
0.0
 11
3724.7398671938399
 21
6381.9804219999987
 31
0.0
  0
LINE
  5
7EC1
  8
3
  6
CONTINUOUS
 62
     0
 10
3449.542995193839
 20
5461.9804219999987
 30
0.0
 11
3724.7398671938399
 21
5461.9804219999987
 31
0.0
  0
LINE
  5
7EC2
  8
3
  6
CONTINUOUS
 62
     0
 10
3694.7398671938399
 20
6321.9804219999996
 30
0.0
 11
3694.7398671938399
 21
5521.9804219999996
 31
0.0
  0
INSERT
  5
7EC3
  8
3
  6
CONTINUOUS
 62
     0
  2
_OPEN
 10
3694.7398671938399
 20
6381.9804219999987
 30
0.0
 41
60.0
 42
60.0
 43
60.0
 50
90.0
  0
INSERT
  5
7EC4
  8
3
  6
CONTINUOUS
 62
     0
  2
_OPEN
 10
3694.7398671938399
 20
5461.9804219999987
 30
0.0
 41
60.0
 42
60.0
 43
60.0
 50
270.0
  0
TEXT
  8
3
  40
90
  5
7F1C
  62
0
  72
0
  71
0
 10
3439.74
 20
5765.36
 30
0.000000
  1
920
  0
POINT
  5
7EC6
  8
DEFPOINTS
  6
CONTINUOUS
 62
     0
 10
3434.5429951938399
 20
6381.9804219999987
 30
0.0
  0
POINT
  5
7EC7
  8
DEFPOINTS
  6
CONTINUOUS
 62
     0
 10
3434.5429951938399
 20
5461.9804219999987
 30
0.0
  0
POINT
  5
7EC8
  8
DEFPOINTS
  6
CONTINUOUS
 62
     0
 10
3694.7398671938399
 20
5461.9804219999987
 30
0.0
  0
ENDBLK
  5
7CC2
  8
0
  0
BLOCK
  8
0
  2
*D10
 70
     1
 10
0.0
 20
0.0
 30
0.0
  3
*D10
  1

  0
LINE
  5
7EC9
  8
3
  6
CONTINUOUS
 62
     0
 10
2239.5429951938399
 20
4217.8770860638833
 30
0.0
 11
1027.4920981938401
 21
4217.8770860638842
 31
0.0
  0
LINE
  5
7ECA
  8
3
  6
CONTINUOUS
 62
     0
 10
1057.4920981938401
 20
3634.8821429999998
 30
0.0
 11
1057.4920981938401
 21
4157.8770860638842
 31
0.0
  0
INSERT
  5
7ECB
  8
3
  6
CONTINUOUS
 62
     0
  2
_OPEN
 10
1057.4920981938401
 20
3574.8821429999989
 30
0.0
 41
60.0
 42
60.0
 43
60.0
 50
270.0
  0
INSERT
  5
7ECC
  8
3
  6
CONTINUOUS
 62
     0
  2
_OPEN
 10
1057.4920981938401
 20
4217.8770860638842
 30
0.0
 41
60.0
 42
60.0
 43
60.0
 50
90.0
  0
TEXT
  8
3
  40
90
  5
7F1D
  62
0
  72
0
  71
0
 10
802.492
 20
3737.08
 30
0.000000
  1
643
  0
POINT
  5
7ECE
  8
DEFPOINTS
  6
CONTINUOUS
 62
     0
 10
1487.55463619384
 20
3574.8821429999989
 30
0.0
  0
POINT
  5
7ECF
  8
DEFPOINTS
  6
CONTINUOUS
 62
     0
 10
2254.5429951938399
 20
4217.8770860638833
 30
0.0
  0
POINT
  5
7ED0
  8
DEFPOINTS
  6
CONTINUOUS
 62
     0
 10
1057.4920981938401
 20
4217.8770860638842
 30
0.0
  0
ENDBLK
  5
7DB5
  8
0
  0
BLOCK
  8
0
  2
*D11
 70
     1
 10
0.0
 20
0.0
 30
0.0
  3
*D11
  1

  0
LINE
  5
7ED1
  8
3
  6
CONTINUOUS
 62
     0
 10
2997.5429961938398
 20
3589.8821429999998
 30
0.0
 11
2997.5429961938398
 21
4463.108424
 31
0.0
  0
LINE
  5
7ED2
  8
3
  6
CONTINUOUS
 62
     0
 10
2314.5429951938399
 20
4433.108424
 30
0.0
 11
2937.5429961938398
 21
4433.108424
 31
0.0
  0
INSERT
  5
7ED3
  8
3
  6
CONTINUOUS
 62
     0
  2
_OPEN
 10
2254.5429951938399
 20
4433.108424
 30
0.0
 41
60.0
 42
60.0
 43
60.0
 50
180.0
  0
INSERT
  5
7ED4
  8
3
  6
CONTINUOUS
 62
     0
  2
_OPEN
 10
2997.5429961938398
 20
4433.108424
 30
0.0
 41
60.0
 42
60.0
 43
60.0
  0
TEXT
  8
3
  40
90
  5
7F1E
  62
0
  72
0
  71
0
 10
2446.04
 20
4348.81
 30
0.000000
  1
743
  0
POINT
  5
7ED6
  8
DEFPOINTS
  6
CONTINUOUS
 62
     0
 10
2254.5429951938399
 20
4350.4838020000007
 30
0.0
  0
POINT
  5
7ED7
  8
DEFPOINTS
  6
CONTINUOUS
 62
     0
 10
2997.5429961938398
 20
3574.8821429999989
 30
0.0
  0
POINT
  5
7ED8
  8
DEFPOINTS
  6
CONTINUOUS
 62
     0
 10
2997.5429961938398
 20
4433.108424
 30
0.0
  0
ENDBLK
  5
7D06
  8
0
  0
BLOCK
  8
0
  2
*D12
 70
     1
 10
0.0
 20
0.0
 30
0.0
  3
*D12
  1

  0
LINE
  5
7ED9
  8
3
  6
CONTINUOUS
 62
     0
 10
1472.55463619384
 20
3574.8821429999989
 30
0.0
 11
1027.4920981938401
 21
3574.8821429999989
 31
0.0
  0
LINE
  5
7EDA
  8
3
  6
CONTINUOUS
 62
     0
 10
1669.5429951938399
 20
2484.8821429999998
 30
0.0
 11
1027.4920981938401
 21
2484.8821429999998
 31
0.0
  0
LINE
  5
7EDB
  8
3
  6
CONTINUOUS
 62
     0
 10
1057.4920981938401
 20
3514.8821429999989
 30
0.0
 11
1057.4920981938401
 21
2544.8821429999998
 31
0.0
  0
INSERT
  5
7EDC
  8
3
  6
CONTINUOUS
 62
     0
  2
_OPEN
 10
1057.4920981938401
 20
3574.8821429999989
 30
0.0
 41
60.0
 42
60.0
 43
60.0
 50
90.0
  0
INSERT
  5
7EDD
  8
3
  6
CONTINUOUS
 62
     0
  2
_OPEN
 10
1057.4920981938401
 20
2484.8821429999998
 30
0.0
 41
60.0
 42
60.0
 43
60.0
 50
270.0
  0
TEXT
  8
3
  40
90
  5
7F1F
  62
0
  72
0
  71
0
 10
802.492
 20
2870.58
 30
0.000000
  1
1090
  0
POINT
  5
7EDF
  8
DEFPOINTS
  6
CONTINUOUS
 62
     0
 10
1487.55463619384
 20
3574.8821429999989
 30
0.0
  0
POINT
  5
7EE0
  8
DEFPOINTS
  6
CONTINUOUS
 62
     0
 10
1684.5429951938399
 20
2484.8821429999998
 30
0.0
  0
POINT
  5
7EE1
  8
DEFPOINTS
  6
CONTINUOUS
 62
     0
 10
1057.4920981938401
 20
2484.8821429999998
 30
0.0
  0
ENDBLK
  5
7D7F
  8
0
  0
BLOCK
  8
0
  2
*D13
 70
     1
 10
0.0
 20
0.0
 30
0.0
  3
*D13
  1

  0
LINE
  5
7EE2
  8
3
 62
     0
 10
1684.5429951938399
 20
2274.8821429999998
 30
0.0
 11
1684.5429951938399
 21
2042.5536058388379
 31
0.0
  0
LINE
  5
7EE3
  8
3
 62
     0
 10
2254.5429951938399
 20
2274.8821429999998
 30
0.0
 11
2254.5429951938399
 21
2042.5536058388379
 31
0.0
  0
LINE
  5
7EE4
  8
3
 62
     0
 10
1744.5429951938399
 20
2072.5536058388388
 30
0.0
 11
2194.542995193839
 21
2072.5536058388388
 31
0.0
  0
INSERT
  5
7EE5
  8
3
 62
     0
  2
_OPEN
 10
1684.5429951938399
 20
2072.5536058388388
 30
0.0
 41
60.0
 42
60.0
 43
60.0
 50
180.0
  0
INSERT
  5
7EE6
  8
3
 62
     0
  2
_OPEN
 10
2254.5429951938399
 20
2072.5536058388388
 30
0.0
 41
60.0
 42
60.0
 43
60.0
  0
TEXT
  8
3
  40
90
  5
7F20
  62
0
  72
0
  71
0
 10
1789.54
 20
1988.25
 30
0.000000
  1
570
  0
POINT
  5
7EE8
  8
DEFPOINTS
 62
     0
 10
1684.5429951938399
 20
2289.8821429999989
 30
0.0
  0
POINT
  5
7EE9
  8
DEFPOINTS
 62
     0
 10
2254.5429951938399
 20
2289.8821429999989
 30
0.0
  0
POINT
  5
7EEA
  8
DEFPOINTS
 62
     0
 10
2254.5429951938399
 20
2072.5536058388388
 30
0.0
  0
ENDBLK
  5
7DE7
  8
0
  0
BLOCK
  8
0
  2
*D14
 70
     1
 10
0.0
 20
0.0
 30
0.0
  3
*D14
  1

  0
LINE
  5
7EEB
  8
3
 62
     0
 10
2254.5429951938399
 20
2274.8821429999998
 30
0.0
 11
2254.5429951938399
 21
2042.5536058388379
 31
0.0
  0
LINE
  5
7EEC
  8
3
 62
     0
 10
3434.5429951938399
 20
2274.8821429999998
 30
0.0
 11
3434.5429951938399
 21
2042.5536058388379
 31
0.0
  0
LINE
  5
7EED
  8
3
 62
     0
 10
2314.5429951938399
 20
2072.5536058388388
 30
0.0
 11
3374.5429951938399
 21
2072.5536058388388
 31
0.0
  0
INSERT
  5
7EEE
  8
3
 62
     0
  2
_OPEN
 10
2254.5429951938399
 20
2072.5536058388388
 30
0.0
 41
60.0
 42
60.0
 43
60.0
 50
180.0
  0
INSERT
  5
7EEF
  8
3
 62
     0
  2
_OPEN
 10
3434.5429951938399
 20
2072.5536058388388
 30
0.0
 41
60.0
 42
60.0
 43
60.0
  0
TEXT
  8
3
  40
90
  5
7F21
  62
0
  72
0
  71
0
 10
2664.54
 20
1988.25
 30
0.000000
  1
1180
  0
POINT
  5
7EF1
  8
DEFPOINTS
 62
     0
 10
2254.5429951938399
 20
2289.8821429999989
 30
0.0
  0
POINT
  5
7EF2
  8
DEFPOINTS
 62
     0
 10
3434.5429951938399
 20
2289.8821429999989
 30
0.0
  0
POINT
  5
7EF3
  8
DEFPOINTS
 62
     0
 10
3434.5429951938399
 20
2072.5536058388388
 30
0.0
  0
ENDBLK
  5
7DF4
  8
0
  0
BLOCK
  8
0
  2
*D15
 70
     1
 10
0.0
 20
0.0
 30
0.0
  3
*D15
  1

  0
LINE
  5
7EF4
  8
3
 62
     0
 10
4278.7355470000002
 20
2264.8821429999989
 30
0.0
 11
4278.7355470000002
 21
2042.5536058388379
 31
0.0
  0
LINE
  5
7EF5
  8
3
 62
     0
 10
4811.7355470000011
 20
2264.8821429999989
 30
0.0
 11
4811.7355470000011
 21
2042.5536058388379
 31
0.0
  0
LINE
  5
7EF6
  8
3
 62
     0
 10
4338.7355470000002
 20
2072.5536058388388
 30
0.0
 11
4751.7355470000011
 21
2072.5536058388388
 31
0.0
  0
INSERT
  5
7EF7
  8
3
 62
     0
  2
_OPEN
 10
4278.7355470000002
 20
2072.5536058388388
 30
0.0
 41
60.0
 42
60.0
 43
60.0
 50
180.0
  0
INSERT
  5
7EF8
  8
3
 62
     0
  2
_OPEN
 10
4811.7355470000011
 20
2072.5536058388388
 30
0.0
 41
60.0
 42
60.0
 43
60.0
  0
TEXT
  8
3
  40
90
  5
7F22
  62
0
  72
0
  71
0
 10
4365.24
 20
1988.25
 30
0.000000
  1
533
  0
POINT
  5
7EFA
  8
DEFPOINTS
 62
     0
 10
4278.7355470000002
 20
2279.8821429999998
 30
0.0
  0
POINT
  5
7EFB
  8
DEFPOINTS
 62
     0
 10
4811.7355470000011
 20
2279.8821429999998
 30
0.0
  0
POINT
  5
7EFC
  8
DEFPOINTS
 62
     0
 10
4811.7355470000011
 20
2072.5536058388388
 30
0.0
  0
ENDBLK
  5
7E01
  8
0
  0
BLOCK
  8
0
  2
*D16
 70
     1
 10
0.0
 20
0.0
 30
0.0
  3
*D16
  1

  0
LINE
  5
7EFD
  8
3
 62
     0
 10
4811.7355470000011
 20
2264.8821429999989
 30
0.0
 11
4811.7355470000011
 21
2042.5536058388379
 31
0.0
  0
LINE
  5
7EFE
  8
3
 62
     0
 10
5198.7355470000002
 20
2264.8821429999989
 30
0.0
 11
5198.7355470000002
 21
2042.5536058388379
 31
0.0
  0
LINE
  5
7EFF
  8
3
 62
     0
 10
4871.7355470000011
 20
2072.5536058388388
 30
0.0
 11
5138.7355470000002
 21
2072.5536058388388
 31
0.0
  0
INSERT
  5
7F00
  8
3
 62
     0
  2
_OPEN
 10
4811.7355470000011
 20
2072.5536058388388
 30
0.0
 41
60.0
 42
60.0
 43
60.0
 50
180.0
  0
INSERT
  5
7F01
  8
3
 62
     0
  2
_OPEN
 10
5198.7355470000002
 20
2072.5536058388388
 30
0.0
 41
60.0
 42
60.0
 43
60.0
  0
TEXT
  8
3
  40
90
  5
7F23
  62
0
  72
0
  71
0
 10
4825.24
 20
1988.25
 30
0.000000
  1
387
  0
POINT
  5
7F03
  8
DEFPOINTS
 62
     0
 10
4811.7355470000011
 20
2279.8821429999998
 30
0.0
  0
POINT
  5
7F04
  8
DEFPOINTS
 62
     0
 10
5198.7355470000002
 20
2279.8821429999998
 30
0.0
  0
POINT
  5
7F05
  8
DEFPOINTS
 62
     0
 10
5198.7355470000002
 20
2072.5536058388388
 30
0.0
  0
ENDBLK
  5
7E10
  8
0
  0
BLOCK
  8
0
  2
_DOT
 70
     0
 10
0.0
 20
0.0
 30
0.0
  3
_DOT
  1

  0
POLYLINE
  5
7E14
  8
0
  6
BYBLOCK
 62
     0
 66
     1
 10
0.0
 20
0.0
 30
0.0
 70
     1
 40
0.5
 41
0.5
  0
VERTEX
  5
7F06
  8
0
  6
BYBLOCK
 62
     0
 10
-0.25
 20
0.0
 30
0.0
 42
1.0
  0
VERTEX
  5
7F07
  8
0
  6
BYBLOCK
 62
     0
 10
0.25
 20
0.0
 30
0.0
 42
1.0
  0
SEQEND
  5
7F08
  8
0
  6
BYBLOCK
 62
     0
  0
LINE
  5
7E18
  8
0
  6
BYBLOCK
 62
     0
 10
-0.5
 20
0.0
 30
0.0
 11
-1.0
 21
0.0
 31
0.0
  0
ENDBLK
  5
7E19
  8
0
  0
BLOCK
  8
0
  2
*D18
 70
     1
 10
0.0
 20
0.0
 30
0.0
  3
*D18
  1

  0
LINE
  5
7F09
  8
3
 62
     0
 10
1669.5429951938399
 20
2389.8821429999989
 30
0.0
 11
1024.9252173824671
 21
2389.8821429999989
 31
0.0
  0
LINE
  5
7F0A
  8
3
 62
     0
 10
1669.5429951938399
 20
2289.8821429999989
 30
0.0
 11
1024.9252173824671
 21
2289.8821429999989
 31
0.0
  0
LINE
  5
7F0B
  8
3
 62
     0
 10
1054.925217382468
 20
2449.8821429999989
 30
0.0
 11
1054.925217382468
 21
2509.8821429999998
 31
0.0
  0
LINE
  5
7F0C
  8
3
 62
     0
 10
1054.925217382468
 20
2229.8821429999998
 30
0.0
 11
1054.925217382468
 21
1895.5964287142849
 31
0.0
  0
LINE
  5
7F0D
  8
3
 62
     0
 10
1054.925217382468
 20
2389.8821429999989
 30
0.0
 11
1054.925217382468
 21
2289.8821429999989
 31
0.0
  0
INSERT
  5
7F0E
  8
3
 62
     0
  2
_DOT
 10
1054.925217382468
 20
2389.8821429999989
 30
0.0
 41
60.0
 42
60.0
 43
60.0
 50
270.0
  0
INSERT
  5
7F0F
  8
3
 62
     0
  2
_OPEN
 10
1054.925217382468
 20
2289.8821429999989
 30
0.0
 41
60.0
 42
60.0
 43
60.0
 50
90.0
  0
TEXT
  8
3
  40
90
  5
7F24
  62
0
  72
0
  71
0
 10
799.925
 20
1873.44
 30
0.000000
  1
100
  0
POINT
  5
7F11
  8
DEFPOINTS
 62
     0
 10
1684.5429951938399
 20
2389.8821429999989
 30
0.0
  0
POINT
  5
7F12
  8
DEFPOINTS
 62
     0
 10
1684.5429951938399
 20
2289.8821429999989
 30
0.0
  0
POINT
  5
7F13
  8
DEFPOINTS
 62
     0
 10
1054.925217382468
 20
2289.8821429999989
 30
0.0
  0
ENDBLK
  5
7E27
  8
0
  0
BLOCK
  8
0
  2
*D19
 70
     1
 10
0.0
 20
0.0
 30
0.0
  3
*D19
  1

  0
LINE
  5
7E2B
  8
0
  6
BYBLOCK
 62
     0
 10
1564.591983
 20
2389.8821429999989
 30
0.0
 11
919.97420518862782
 21
2389.8821429999989
 31
0.0
  0
LINE
  5
7E2C
  8
0
  6
BYBLOCK
 62
     0
 10
1564.591983
 20
2484.8821429999998
 30
0.0
 11
919.97420518862782
 21
2484.8821429999998
 31
0.0
  0
LINE
  5
7E2D
  8
0
  6
BYBLOCK
 62
     0
 10
949.97420518862771
 20
2329.8821429999998
 30
0.0
 11
949.97420518862771
 21
2269.8821429999989
 31
0.0
  0
LINE
  5
7E2E
  8
0
  6
BYBLOCK
 62
     0
 10
949.97420518862771
 20
2544.8821429999998
 30
0.0
 11
949.97420518862771
 21
2604.8821429999998
 31
0.0
  0
TEXT
  5
7E2F
  8
3
 62
     0
 10
836.40277661719927
 20
2306.6678572857131
 30
0.0
 40
90.0
  1
(95)
 50
90.0
  0
LINE
  5
7E30
  8
0
  6
BYBLOCK
 62
     0
 10
949.97420518862771
 20
2389.8821429999989
 30
0.0
 11
949.97420518862771
 21
2484.8821429999998
 31
0.0
  0
INSERT
  5
7E31
  8
0
  6
BYBLOCK
 62
     0
  2
_DOT
 10
949.97420518862771
 20
2389.8821429999989
 30
0.0
 41
60.0
 42
60.0
 43
60.0
 50
90.0
  0
INSERT
  5
7E32
  8
0
  6
BYBLOCK
 62
     0
  2
_OPEN
 10
949.97420518862771
 20
2484.8821429999998
 30
0.0
 41
60.0
 42
60.0
 43
60.0
 50
270.0
  0
POINT
  5
7E33
  8
DEFPOINTS
  6
BYBLOCK
 62
     0
 10
1579.591983
 20
2389.8821429999989
 30
0.0
  0
POINT
  5
7E34
  8
DEFPOINTS
  6
BYBLOCK
 62
     0
 10
1579.591983
 20
2484.8821429999998
 30
0.0
  0
POINT
  5
7E35
  8
DEFPOINTS
  6
BYBLOCK
 62
     0
 10
949.97420518862771
 20
2484.8821429999998
 30
0.0
  0
ENDBLK
  5
7E36
  8
0
  0
ENDSEC
  0
SECTION
  2
ENTITIES
  0
LINE
  5
7ACE
  8
1
  6
CONTINUOUS
 10
1684.5429951938399
 20
2584.8821429999989
 30
0.0
 11
3434.5429951938399
 21
2584.8821429999989
 31
0.0
  0
LINE
  5
7ACF
  8
1
  6
CONTINUOUS
 10
1684.5429951938399
 20
2484.8821429999998
 30
0.0
 11
3434.5429951938399
 21
2484.8821429999998
 31
0.0
  0
LINE
  5
7AD0
  8
1
  6
CONTINUOUS
 10
1684.5429951938399
 20
2389.8821429999989
 30
0.0
 11
3434.5429951938399
 21
2389.8821429999989
 31
0.0
  0
LINE
  5
7AD1
  8
1
  6
CONTINUOUS
 10
1684.5429951938399
 20
2289.8821429999989
 30
0.0
 11
3434.5429951938399
 21
2289.8821429999989
 31
0.0
  0
ARC
  5
7AD2
  8
1
  6
CONTINUOUS
 10
3234.5429951938399
 20
2834.8821429999989
 30
0.0
 40
162.0
 50
324.972283
 51
215.02771699999991
  0
LINE
  5
7AD3
  8
1
  6
CONTINUOUS
 10
3414.5429951938399
 20
2924.8821429999989
 30
0.0
 11
2434.5429951938399
 21
4014.8821429999998
 31
0.0
  0
LINE
  5
7AD4
  8
1
  6
CONTINUOUS
 10
1684.5429951938399
 20
5461.9804219999987
 30
0.0
 11
3434.5429951938399
 21
5461.9804219999987
 31
0.0
  0
LINE
  5
7AD5
  8
1
  6
CONTINUOUS
 10
3396.542995193839
 20
5617.9804219999987
 30
0.0
 11
3072.5429951938399
 21
5617.9804219999987
 31
0.0
  0
LINE
  5
7AD6
  8
1
  6
CONTINUOUS
 10
3396.542995193839
 20
6102.9804219999987
 30
0.0
 11
3072.5429951938399
 21
6102.9804219999987
 31
0.0
  0
LINE
  5
7AD7
  8
1
  6
CONTINUOUS
 10
3414.5429951938399
 20
5606.9804219999987
 30
0.0
 11
1774.5429951938399
 21
5606.9804219999987
 31
0.0
  0
LINE
  5
7AD8
  8
1
  6
CONTINUOUS
 10
3414.5429951938399
 20
5436.9804219999996
 30
0.0
 11
1774.5429951938399
 21
5436.9804219999996
 31
0.0
  0
LINE
  5
7AD9
  8
1
  6
CONTINUOUS
 10
1684.5429951938399
 20
6381.9804219999987
 30
0.0
 11
3434.5429951938399
 21
6381.9804219999987
 31
0.0
  0
LINE
  5
7ADA
  8
1
  6
CONTINUOUS
 10
1684.5429951938399
 20
2289.8821429999989
 30
0.0
 11
1684.5429951938399
 21
2389.8821429999989
 31
0.0
  0
POLYLINE
  5
7ADB
  8
1
  6
CONTINUOUS
 66
     1
 10
0.0
 20
0.0
 30
0.0
  0
VERTEX
  5
7E7C
  8
1
  6
CONTINUOUS
 10
1599.5429951938399
 20
2691.8821429999989
 30
0.0
  0
VERTEX
  5
7E7D
  8
1
  6
CONTINUOUS
 10
2254.5429951938399
 20
2713.8821429999998
 30
0.0
 42
0.4168370000000001
  0
VERTEX
  5
7E7E
  8
1
  6
CONTINUOUS
 10
2996.9829541938402
 20
3582.0560850000002
 30
0.0
 42
0.429867
  0
VERTEX
  5
7E7F
  8
1
  6
CONTINUOUS
 10
2210.6668341938398
 20
4213.3073199999999
 30
0.0
 42
0.373172
  0
VERTEX
  5
7E80
  8
1
  6
CONTINUOUS
 10
1686.5742671938399
 20
3616.8821429999998
 30
0.0
 42
0.34598
  0
SEQEND
  5
7E81
  8
1
  6
CONTINUOUS
  0
CIRCLE
  5
7AE5
  8
1
  6
CONTINUOUS
 10
2254.5429951938399
 20
3574.8821429999989
 30
0.0
 40
254.0
  0
LINE
  5
7AE6
  8
2
  6
CENTER
 10
5241.369764
 20
3574.8821429999989
 30
0.0
 11
4163.5168949999997
 21
3574.8821429999989
 31
0.0
  0
LINE
  5
7AE7
  8
1
  6
CONTINUOUS
 10
1774.5429951938399
 20
4014.8821429999998
 30
0.0
 11
2434.5429951938399
 21
4014.8821429999998
 31
0.0
  0
LINE
  5
7AEA
  8
1
  6
CONTINUOUS
 10
1774.5429951938399
 20
2584.8821429999989
 30
0.0
 11
1774.5429951938399
 21
4014.8821429999998
 31
0.0
  0
LINE
  5
7AEB
  8
1
  6
CONTINUOUS
 10
1599.5429951938399
 20
3659.3821429999998
 30
0.0
 11
1599.5429951938399
 21
2649.3821429999989
 31
0.0
  0
LINE
  5
7AEC
  8
1
  6
CONTINUOUS
 10
1639.5429951938399
 20
3616.8821429999998
 30
0.0
 11
1639.5429951938399
 21
2693.2256539999989
 31
0.0
  0
LINE
  5
7AED
  8
1
  6
CONTINUOUS
 10
1684.5429951938399
 20
2584.8821429999989
 30
0.0
 11
1684.5429951938399
 21
2484.8821429999998
 31
0.0
  0
LINE
  5
7AEE
  8
1
  6
CONTINUOUS
 10
1686.5742671938399
 20
3616.8821429999998
 30
0.0
 11
1599.5429951938399
 21
3616.8821429999998
 31
0.0
  0
LINE
  5
7AF0
  8
2
  6
CENTER
 10
2254.5429951938399
 20
2289.8821429999989
 30
0.0
 11
2254.5429951938399
 21
4329.3847293967738
 31
0.0
  0
LINE
  5
7AF2
  8
1
  6
CONTINUOUS
 10
3037.0429951938399
 20
2624.8821429999998
 30
0.0
 11
3037.0429951938399
 21
2584.8821429999989
 31
0.0
  0
LINE
  5
7AF3
  8
1
  6
CONTINUOUS
 10
3037.0429951938399
 20
2624.8821429999998
 30
0.0
 11
3047.0429951938399
 21
2674.8821429999998
 31
0.0
  0
LINE
  5
7AF4
  8
1
  6
CONTINUOUS
 10
3101.8853291938399
 20
2741.898576
 30
0.0
 11
3047.0429951938399
 21
2674.8821429999998
 31
0.0
  0
CIRCLE
  5
7AF5
  8
1
  6
CONTINUOUS
 10
3234.5429951938399
 20
2834.8821429999989
 30
0.0
 40
75.0
  0
LINE
  5
7AF6
  8
2
  6
CENTER
 10
3234.5429951938399
 20
2754.8821429999998
 30
0.0
 11
3234.5429951938399
 21
2914.8821429999989
 31
0.0
  0
LINE
  5
7AF7
  8
2
  6
CENTER
 10
3314.542995193839
 20
2834.8821429999989
 30
0.0
 11
3154.542995193839
 21
2834.8821429999989
 31
0.0
  0
LINE
  5
7AF8
  8
1
  6
CONTINUOUS
 10
1599.5429951938399
 20
6329.9804219999996
 30
0.0
 11
2999.7102661938402
 21
6329.9804219999996
 31
0.0
  0
LINE
  5
7AF9
  8
1
  6
CONTINUOUS
 10
1599.5429951938399
 20
5659.9804219999996
 30
0.0
 11
2999.7102661938402
 21
5659.9804219999996
 31
0.0
  0
LINE
  5
7AFA
  8
1
  6
CONTINUOUS
 10
2508.5429951938399
 20
5573.9804219999987
 30
0.0
 11
2000.5429951938399
 21
5573.9804219999987
 31
0.0
  0
LINE
  5
7AFB
  8
1
  6
CONTINUOUS
 10
2508.5429951938399
 20
5469.9804219999987
 30
0.0
 11
2000.5429951938399
 21
5469.9804219999987
 31
0.0
  0
LINE
  5
7AFC
  8
1
  6
CONTINUOUS
 10
1599.5429951938399
 20
5617.9804219999987
 30
0.0
 11
1599.5429951938399
 21
6371.9804219999996
 31
0.0
  0
LINE
  5
7AFD
  8
1
  6
CONTINUOUS
 10
1639.5429951938399
 20
5659.9804219999996
 30
0.0
 11
1639.5429951938399
 21
6329.9804219999996
 31
0.0
  0
LINE
  5
7AFE
  8
1
  6
CONTINUOUS
 10
1684.5429951938399
 20
5461.9804219999987
 30
0.0
 11
1684.5429951938399
 21
5659.9804219999996
 31
0.0
  0
LINE
  5
7AFF
  8
1
  6
CONTINUOUS
 10
1774.5429951938399
 20
5436.9804219999996
 30
0.0
 11
1774.5429951938399
 21
5606.9804219999987
 31
0.0
  0
LINE
  5
7B00
  8
1
  6
CONTINUOUS
 10
2000.5429951938399
 20
5469.9804219999987
 30
0.0
 11
2000.5429951938399
 21
5573.9804219999987
 31
0.0
  0
LINE
  5
7B01
  8
1
  6
CONTINUOUS
 10
1684.5429951938399
 20
6329.9804219999996
 30
0.0
 11
1684.5429951938399
 21
6381.9804219999987
 31
0.0
  0
LINE
  5
7B02
  8
1
  6
CONTINUOUS
 10
2229.5429951938399
 20
5573.9804219999987
 30
0.0
 11
2229.5429951938399
 21
5659.9804219999996
 31
0.0
  0
LINE
  5
7B03
  8
1
  6
CONTINUOUS
 10
2279.542995193839
 20
5573.9804219999987
 30
0.0
 11
2279.542995193839
 21
5659.9804219999996
 31
0.0
  0
LINE
  5
7B04
  8
1
  6
CONTINUOUS
 10
2508.5429951938399
 20
5469.9804219999987
 30
0.0
 11
2508.5429951938399
 21
5573.9804219999987
 31
0.0
  0
LINE
  5
7B05
  8
1
  6
CONTINUOUS
 10
2999.7102661938402
 20
5659.9804219999996
 30
0.0
 11
2999.7102661938402
 21
6329.9804219999996
 31
0.0
  0
LINE
  5
7B06
  8
1
  6
CONTINUOUS
 10
3072.5429951938399
 20
5617.9804219999987
 30
0.0
 11
3072.5429951938399
 21
6102.9804219999987
 31
0.0
  0
LINE
  5
7B07
  8
1
  6
CONTINUOUS
 10
3309.5429951938399
 20
5573.9804219999987
 30
0.0
 11
3159.5429951938399
 21
5573.9804219999987
 31
0.0
  0
LINE
  5
7B08
  8
1
  6
CONTINUOUS
 10
3309.5429951938399
 20
5469.9804219999987
 30
0.0
 11
3159.5429951938399
 21
5469.9804219999987
 31
0.0
  0
LINE
  5
7B09
  8
1
  6
CONTINUOUS
 10
3213.5429951938399
 20
5573.9804219999987
 30
0.0
 11
3213.5429951938399
 21
5617.9804219999987
 31
0.0
  0
LINE
  5
7B0A
  8
1
  6
CONTINUOUS
 10
3255.5429951938399
 20
5573.9804219999987
 30
0.0
 11
3255.5429951938399
 21
5617.9804219999987
 31
0.0
  0
LINE
  5
7B0B
  8
1
  6
CONTINUOUS
 10
3159.5429951938399
 20
5469.9804219999987
 30
0.0
 11
3159.5429951938399
 21
5573.9804219999987
 31
0.0
  0
LINE
  5
7B0C
  8
1
  6
CONTINUOUS
 10
3309.5429951938399
 20
5469.9804219999987
 30
0.0
 11
3309.5429951938399
 21
5573.9804219999987
 31
0.0
  0
LINE
  5
7B1C
  8
1
  6
CONTINUOUS
 10
3434.5429951938399
 20
2289.8821429999989
 30
0.0
 11
3434.5429951938399
 21
2389.8821429999989
 31
0.0
  0
LINE
  5
7B21
  8
1
  6
CONTINUOUS
 10
3434.5429951938399
 20
2584.8821429999989
 30
0.0
 11
3434.5429951938399
 21
2484.8821429999998
 31
0.0
  0
LINE
  5
7B22
  8
1
  6
CONTINUOUS
 10
3432.0429951938399
 20
2624.8821429999998
 30
0.0
 11
3432.0429951938399
 21
2584.8821429999989
 31
0.0
  0
LINE
  5
7B23
  8
1
  6
CONTINUOUS
 10
3422.0429951938399
 20
2674.8821429999998
 30
0.0
 11
3432.0429951938399
 21
2624.8821429999998
 31
0.0
  0
LINE
  5
7B24
  8
1
  6
CONTINUOUS
 10
3422.0429951938399
 20
2674.8821429999998
 30
0.0
 11
3367.2006601938401
 21
2741.898576
 31
0.0
  0
LINE
  5
7B25
  8
1
  6
CONTINUOUS
 10
3414.5429951938399
 20
2584.8821429999989
 30
0.0
 11
3414.5429951938399
 21
2924.8821429999989
 31
0.0
  0
LINE
  5
7B37
  8
1
  6
CONTINUOUS
 10
5198.7355470000002
 20
2379.8821429999998
 30
0.0
 11
5198.7355470000002
 21
2279.8821429999998
 31
0.0
  0
LINE
  5
7B38
  8
1
  6
CONTINUOUS
 10
4278.7355470000002
 20
2379.8821429999998
 30
0.0
 11
4278.7355470000002
 21
2279.8821429999998
 31
0.0
  0
LINE
  5
7B3A
  8
1
  6
CONTINUOUS
 10
4278.7355470000002
 20
2279.8821429999998
 30
0.0
 11
5198.7355470000002
 21
2279.8821429999998
 31
0.0
  0
LINE
  5
7B3B
  8
1
  6
CONTINUOUS
 10
4476.7355470000002
 20
2691.8821429999989
 30
0.0
 11
5146.7355470000002
 21
2691.8821429999989
 31
0.0
  0
LINE
  5
7B3C
  8
1
  6
CONTINUOUS
 10
4476.7355470000002
 20
3616.8821429999998
 30
0.0
 11
5146.7355470000002
 21
3616.8821429999998
 31
0.0
  0
LINE
  5
7B3D
  8
1
  6
CONTINUOUS
 10
4476.7355470000002
 20
4219.6784859999998
 30
0.0
 11
5146.7355470000002
 21
4219.6784859999998
 31
0.0
  0
LINE
  5
7B3E
  8
1
  6
CONTINUOUS
 10
4278.7355470000002
 20
2574.8821429999989
 30
0.0
 11
5198.7355470000002
 21
2574.8821429999989
 31
0.0
  0
LINE
  5
7B3F
  8
1
  6
CONTINUOUS
 10
4476.7355470000002
 20
3616.8821429999998
 30
0.0
 11
5146.7355470000002
 21
2691.8821429999989
 31
0.0
  0
LINE
  5
7B40
  8
1
  6
CONTINUOUS
 10
4476.7355470000002
 20
2691.8821429999989
 30
0.0
 11
5146.7355470000002
 21
3616.8821429999998
 31
0.0
  0
LINE
  5
7B41
  8
1
  6
CONTINUOUS
 10
4278.7355470000002
 20
2379.8821429999998
 30
0.0
 11
5198.7355470000002
 21
2379.8821429999998
 31
0.0
  0
LINE
  5
7B42
  8
1
  6
CONTINUOUS
 10
4278.7355470000002
 20
2474.8821429999998
 30
0.0
 11
5198.7355470000002
 21
2474.8821429999998
 31
0.0
  0
LINE
  5
7B43
  8
1
  6
CONTINUOUS
 10
4423.7355470000002
 20
4014.8821429999998
 30
0.0
 11
4423.7355470000002
 21
2574.8821429999989
 31
0.0
  0
LINE
  5
7B44
  8
1
  6
CONTINUOUS
 10
4201.7355470000011
 20
4014.8821429999998
 30
0.0
 11
4201.7355470000011
 21
2574.8821429999989
 31
0.0
  0
LINE
  5
7B45
  8
1
  6
CONTINUOUS
 10
4390.7355470000011
 20
3828.8821429999989
 30
0.0
 11
4390.7355470000011
 21
3320.8821429999998
 31
0.0
  0
LINE
  5
7B47
  8
1
  6
CONTINUOUS
 10
4286.7355470000002
 20
3828.8821429999989
 30
0.0
 11
4286.7355470000002
 21
3320.8821429999998
 31
0.0
  0
LINE
  5
7B48
  8
1
  6
CONTINUOUS
 10
4476.7355470000002
 20
4219.6784859999998
 30
0.0
 11
4476.7355470000002
 21
2574.8821429999989
 31
0.0
  0
LINE
  5
7B4E
  8
1
  6
CONTINUOUS
 10
4278.7355470000002
 20
2574.8821429999989
 30
0.0
 11
4278.7355470000002
 21
2474.8821429999998
 31
0.0
  0
LINE
  5
7B4F
  8
1
  6
CONTINUOUS
 10
4201.7355470000011
 20
2574.8821429999989
 30
0.0
 11
4278.7355470000002
 21
2574.8821429999989
 31
0.0
  0
LINE
  5
7B50
  8
1
  6
CONTINUOUS
 10
4390.7355470000011
 20
2899.8821429999998
 30
0.0
 11
4390.7355470000011
 21
2749.8821429999998
 31
0.0
  0
LINE
  5
7B51
  8
1
  6
CONTINUOUS
 10
4286.7355470000002
 20
2899.8821429999998
 30
0.0
 11
4286.7355470000002
 21
2749.8821429999998
 31
0.0
  0
LINE
  5
7B52
  8
1
  6
CONTINUOUS
 10
4390.7355470000011
 20
2803.8821429999998
 30
0.0
 11
4476.7355470000002
 21
2803.8821429999998
 31
0.0
  0
LINE
  5
7B53
  8
1
  6
CONTINUOUS
 10
4390.7355470000011
 20
2845.8821429999998
 30
0.0
 11
4476.7355470000002
 21
2845.8821429999998
 31
0.0
  0
LINE
  5
7B54
  8
1
  6
CONTINUOUS
 10
4286.7355470000002
 20
2749.8821429999998
 30
0.0
 11
4390.7355470000011
 21
2749.8821429999998
 31
0.0
  0
LINE
  5
7B55
  8
1
  6
CONTINUOUS
 10
4286.7355470000002
 20
2899.8821429999998
 30
0.0
 11
4390.7355470000011
 21
2899.8821429999998
 31
0.0
  0
LINE
  5
7B56
  8
1
  6
CONTINUOUS
 10
4390.7355470000011
 20
3549.8821429999998
 30
0.0
 11
4476.7355470000002
 21
3549.8821429999998
 31
0.0
  0
LINE
  5
7B57
  8
1
  6
CONTINUOUS
 10
4390.7355470000011
 20
3599.8821429999998
 30
0.0
 11
4476.7355470000002
 21
3599.8821429999998
 31
0.0
  0
LINE
  5
7B58
  8
1
  6
CONTINUOUS
 10
4286.7355470000002
 20
3320.8821429999998
 30
0.0
 11
4390.7355470000011
 21
3320.8821429999998
 31
0.0
  0
LINE
  5
7B59
  8
1
  6
CONTINUOUS
 10
4201.7355470000011
 20
4014.8821429999998
 30
0.0
 11
4423.7355470000002
 21
4014.8821429999998
 31
0.0
  0
LINE
  5
7B5A
  8
1
  6
CONTINUOUS
 10
4286.7355470000002
 20
3828.8821429999989
 30
0.0
 11
4390.7355470000011
 21
3828.8821429999989
 31
0.0
  0
LINE
  5
7B5B
  8
1
  6
CONTINUOUS
 10
5146.7355470000002
 20
4219.6784859999998
 30
0.0
 11
5146.7355470000002
 21
2574.8821429999989
 31
0.0
  0
LINE
  5
7B5C
  8
1
  6
CONTINUOUS
 10
5198.7355470000002
 20
2574.8821429999989
 30
0.0
 11
5198.7355470000002
 21
2474.8821429999998
 31
0.0
  0
LINE
  5
7B63
  8
1
  6
CONTINUOUS
 10
3434.5429951938399
 20
5461.9804219999987
 30
0.0
 11
3434.5429951938399
 21
6381.9804219999987
 31
0.0
  0
LINE
  5
7B64
  8
1
  6
CONTINUOUS
 10
3396.542995193839
 20
5617.9804219999987
 30
0.0
 11
3396.542995193839
 21
6102.9804219999987
 31
0.0
  0
LINE
  5
7B65
  8
1
  6
CONTINUOUS
 10
3414.5429951938399
 20
5436.9804219999996
 30
0.0
 11
3414.5429951938399
 21
5606.9804219999987
 31
0.0
  0
LINE
  5
7B9B
  8
2
  6
CENTER
 10
3553.8793781938398
 20
5994.9804219999996
 30
0.0
 11
1439.7489361938401
 21
5994.9804219999996
 31
0.0
  0
LINE
  5
7B9C
  8
2
  6
CENTER
 10
4811.7355470000011
 20
4388.17965
 30
0.0
 11
4811.7355470000011
 21
2279.8821429999998
 31
0.0
  0
LINE
  5
7B9D
  8
2
  6
CENTER
 10
2254.5429951938399
 20
5317.5084169999991
 30
0.0
 11
2254.5429951938399
 21
6580.7795640000013
 31
0.0
  0
LINE
  5
7B9E
  8
2
  6
CENTER
 10
3333.1599941938398
 20
3574.8821429999989
 30
0.0
 11
1487.55463619384
 21
3574.8821429999989
 31
0.0
  0
LINE
  5
7B9F
  8
4
  6
CONTINUOUS
 10
5550.0
 20
1500.0
 30
0.0
 11
5550.0
 21
900.0
 31
0.0
  0
LINE
  5
7BA0
  8
4
  6
CONTINUOUS
 10
3450.0
 20
1500.0
 30
0.0
 11
3450.0
 21
900.0
 31
0.0
  0
LINE
  5
7BA1
  8
4
  6
CONTINUOUS
 10
1950.0
 20
1500.0
 30
0.0
 11
1950.0
 21
900.0
 31
0.0
  0
LINE
  5
7BA4
  8
4
  6
CONTINUOUS
 10
1950.0
 20
900.0
 30
0.0
 11
5550.0
 21
900.0
 31
0.0
  0
LINE
  5
7BA5
  8
4
  6
CONTINUOUS
 10
1950.0
 20
1200.0
 30
0.0
 11
5550.0
 21
1200.0
 31
0.0
  0
TEXT
  5
7BA6
  8
4
  6
CONTINUOUS
 10
2065.5062429999989
 20
1294.6290779999999
 30
0.0
 40
150.0
  1
機器名称
  0
TEXT
  5
7BA7
  8
4
  6
CONTINUOUS
 10
2058.7743179999989
 20
964.9354699999999
 30
0.0
 40
150.0
  1
機器型番
  0
TEXT
  5
7BA8
  8
4
  6
CONTINUOUS
 10
3533.0362359999999
 20
1267.7153069999999
 30
0.0
 40
150.0
  1
ミツヤ多翼送風機
  0
TEXT
  5
7BA9
  8
4
  6
CONTINUOUS
 10
3559.9634869999991
 20
951.47875299999987
 30
0.0
 40
150.0
  1
MF#5 1/2-4
  0
TEXT
  5
7BAB
  8
4
  6
CONTINUOUS
 10
2253.3475339999991
 20
7150.2865239999992
 30
0.0
 40
162.0
  1
床置防振ベット
  0
TEXT
  5
7BAC
  8
4
  6
CONTINUOUS
 10
948.50278000000014
 20
7601.6429289999996
 30
0.0
 40
216.0
  1
ベルト駆動式片吸込両持多翼ファン
  0
LINE
  5
7BAD
  8
4
  6
CONTINUOUS
 10
750.0
 20
7408.2262629999996
 30
0.0
 11
5550.0
 21
7408.2262629999996
 31
0.0
  0
LINE
  5
7BAE
  8
4
  6
CONTINUOUS
 10
750.0
 20
8008.2262629999996
 30
0.0
 11
5550.0
 21
8008.2262629999996
 31
0.0
  0
LINE
  5
7BAF
  8
4
  6
CONTINUOUS
 10
1950.0
 20
1500.0
 30
0.0
 11
5550.0
 21
1500.0
 31
0.0
  0
LINE
  5
7BB0
  8
4
  6
CONTINUOUS
 10
750.0
 20
8008.2262629999996
 30
0.0
 11
750.0
 21
7408.2262629999996
 31
0.0
  0
TEXT
  5
7BB1
  8
4
  6
CONTINUOUS
 10
945.77103699999986
 20
7146.9584329999998
 30
0.0
 40
162.0
  1
右回転左横向
  0
TEXT
  5
7BB2
  8
4
  6
CONTINUOUS
 10
4406.9086779999989
 20
8118.1832439999989
 30
0.0
 40
168.0
  1
No.
  0
TEXT
  5
7BB3
  8
4
  6
CONTINUOUS
 10
3933.8881879999999
 20
7150.2865239999992
 30
0.0
 40
162.0
  1
縮尺：1/30
  0
LINE
  5
7BB4
  8
4
  6
CONTINUOUS
 10
5550.0
 20
8008.2262629999996
 30
0.0
 11
5550.0
 21
7408.2262629999996
 31
0.0
  0
LINE
  5
7BB6
  8
4
  6
CONTINUOUS
 10
4321.8522670000002
 20
8043.7907490000007
 30
0.0
 11
4321.8522670000002
 21
8359.9567849999985
 31
0.0
  0
LINE
  5
7BB7
  8
4
  6
CONTINUOUS
 10
4321.8522670000002
 20
8359.9567849999985
 30
0.0
 11
5550.0
 21
8359.9567849999985
 31
0.0
  0
LINE
  5
7BB8
  8
4
  6
CONTINUOUS
 10
5550.0
 20
8359.9567849999985
 30
0.0
 11
5550.0
 21
8043.7907490000007
 31
0.0
  0
LINE
  5
7BB9
  8
4
  6
CONTINUOUS
 10
5550.0
 20
8043.7907490000007
 30
0.0
 11
4321.8522670000002
 21
8043.7907490000007
 31
0.0
  0
DIMENSION
  5
7BCA
  8
3
  6
CONTINUOUS
  2
*D1
 10
1455.66092219384
 20
2691.8821429999989
 30
0.0
 11
1455.660922193839
 21
3164.7073479999999
 31
0.0
 70
   128
 13
1599.5429951938399
 23
3616.8821429999998
 33
0.0
 14
1599.5429951938399
 24
2691.8821429999989
 34
0.0
 50
90.0
1001
ACAD
1000
DSTYLE
1002
{
1070
   287
1070
     3
1070
    40
1040
30.0
1070
   143
1040
0.039
1070
   172
1070
     1
1070
   271
1070
     0
1070
   279
1070
     0
1070
   288
1070
     1
1002
}
  0
DIMENSION
  5
7BD7
  8
3
  6
CONTINUOUS
  2
*D2
 10
1269.01929119384
 20
2691.8821429999989
 30
0.0
 11
1269.01929119384
 21
3164.7073479999999
 31
0.0
 70
   128
 13
1487.55463619384
 23
3574.8821429999989
 33
0.0
 14
1599.5429951938399
 24
2691.8821429999989
 34
0.0
 50
90.0
1001
ACAD
1000
DSTYLE
1002
{
1070
   287
1070
     3
1070
    40
1040
30.0
1070
   143
1040
0.039
1070
   172
1070
     1
1070
   271
1070
     0
1070
   279
1070
     0
1070
   288
1070
     1
1002
}
  0
DIMENSION
  5
7C33
  8
3
  6
CONTINUOUS
  2
*D3
 10
2254.5429951938399
 20
4433.108424
 30
0.0
 11
1909.201519193839
 21
4433.108424
 31
0.0
 70
   128
 13
1599.5429951938399
 23
3659.3821429999998
 33
0.0
 14
2254.5429951938399
 24
4329.3847293967738
 34
0.0
1001
ACAD
1000
DSTYLE
1002
{
1070
   287
1070
     3
1070
    40
1040
30.0
1070
   143
1040
0.039
1070
   172
1070
     1
1070
   271
1070
     0
1070
   279
1070
     0
1070
   288
1070
     1
1002
}
  0
DIMENSION
  5
7C4C
  8
3
  6
CONTINUOUS
  2
*D4
 10
4476.7355470000002
 20
4364.7142370000001
 30
0.0
 11
4818.3153759999996
 21
4364.7142370000001
 31
0.0
 70
   128
 13
5146.7355470000002
 23
4219.6784859999998
 33
0.0
 14
4476.7355470000002
 24
4219.6784859999998
 34
0.0
1001
ACAD
1000
DSTYLE
1002
{
1070
   287
1070
     3
1070
    40
1040
30.0
1070
   143
1040
0.039
1070
   172
1070
     1
1070
   271
1070
     0
1070
   279
1070
     0
1070
   288
1070
     1
1002
}
  0
LINE
  5
7C4D
  8
1
  6
CONTINUOUS
 10
5150.7355470000002
 20
4049.8821429999998
 30
0.0
 11
5150.7355470000002
 21
3099.8821429999998
 31
0.0
  0
DIMENSION
  5
7C5C
  8
3
  6
CONTINUOUS
  2
*D5
 10
5428.0113940000019
 20
3099.8821429999998
 30
0.0
 11
5428.0113940000001
 21
3581.290054999999
 31
0.0
 70
   128
 13
5150.7355470000002
 23
4049.8821429999998
 33
0.0
 14
5150.7355470000002
 24
3099.8821429999998
 34
0.0
 50
90.0
1001
ACAD
1000
DSTYLE
1002
{
1070
   287
1070
     3
1070
     3
1000
φ<>
1070
    40
1040
30.0
1070
   143
1040
0.039
1070
   172
1070
     1
1070
   271
1070
     0
1070
   279
1070
     0
1070
   288
1070
     1
1002
}
  0
DIMENSION
  5
7C6B
  8
3
  6
CONTINUOUS
  2
*D6
 10
4811.7355470000011
 20
4582.3320780000004
 30
0.0
 11
4981.2355470000002
 21
4667.9478840357624
 31
0.0
 70
   128
 13
5150.7355470000002
 23
4049.8821429999998
 33
0.0
 14
4811.7355470000011
 24
4508.2450630000003
 34
0.0
1001
ACAD
1000
DSTYLE
1002
{
1070
   288
1070
     1
1070
   172
1070
     1
1070
    40
1040
30.0
1070
   271
1070
     0
1070
   143
1040
0.039
1002
}
  0
DIMENSION
  5
7C77
  8
3
  6
CONTINUOUS
  2
*D7
 10
4201.7355470000011
 20
4582.3320780000004
 30
0.0
 11
4506.7355470000002
 21
4732.3320780000004
 31
0.0
 70
     0
  1
MAX\P640
 13
4811.7355470000011
 23
4508.2450630000003
 33
0.0
 14
4201.7355470000011
 24
4014.8821429999998
 34
0.0
1001
ACAD
1000
DSTYLE
1002
{
1070
   287
1070
     4
1070
    40
1040
30.0
1070
    75
1070
     1
1070
   143
1040
0.039
1070
   172
1070
     1
1070
   271
1070
     0
1070
   279
1070
     1
1070
   288
1070
     1
1002
}
  0
DIMENSION
  5
7CB6
  8
3
  6
CONTINUOUS
  2
*D8
 10
3434.5429951938399
 20
6619.1998970000004
 30
0.0
 11
2506.4547861938399
 21
6619.1998970000004
 31
0.0
 70
   128
 13
1684.5429951938399
 23
6381.9804219999987
 33
0.0
 14
3434.5429951938399
 24
6381.9804219999987
 34
0.0
1001
ACAD
1000
DSTYLE
1002
{
1070
   287
1070
     3
1070
    40
1040
30.0
1070
   143
1040
0.039
1070
   172
1070
     1
1070
   271
1070
     0
1070
   279
1070
     0
1070
   288
1070
     1
1002
}
  0
DIMENSION
  5
7CC3
  8
3
  6
CONTINUOUS
  2
*D9
 10
3694.7398671938399
 20
5461.9804219999987
 30
0.0
 11
3694.7398671938399
 21
5924.6560449999997
 31
0.0
 70
   128
 13
3434.5429951938399
 23
6381.9804219999987
 33
0.0
 14
3434.5429951938399
 24
5461.9804219999987
 34
0.0
 50
90.0
1001
ACAD
1000
DSTYLE
1002
{
1070
   287
1070
     3
1070
    40
1040
30.0
1070
   143
1040
0.039
1070
   172
1070
     1
1070
   271
1070
     0
1070
   279
1070
     0
1070
   288
1070
     1
1002
}
  0
DIMENSION
  5
7CD4
  8
3
  6
CONTINUOUS
  2
*D10
 10
1057.4920981938401
 20
4217.8770860638842
 30
0.0
 11
982.49209819383964
 21
3896.379614531942
 31
0.0
 70
     0
 13
1487.55463619384
 23
3574.8821429999989
 33
0.0
 14
2254.5429951938399
 24
4217.8770860638833
 34
0.0
 50
90.0
1001
ACAD
1000
DSTYLE
1002
{
1070
   287
1070
     4
1070
    40
1040
30.0
1070
    75
1070
     1
1070
   143
1040
0.039
1070
   172
1070
     1
1070
   271
1070
     0
1070
   279
1070
     1
1070
   288
1070
     1
1002
}
  0
DIMENSION
  5
7D07
  8
3
  6
CONTINUOUS
  2
*D11
 10
2997.5429961938398
 20
4433.108424
 30
0.0
 11
2626.0429956938401
 21
4508.108424
 31
0.0
 70
     0
 13
2254.5429951938399
 23
4350.4838020000007
 33
0.0
 14
2997.5429961938398
 24
3574.8821429999989
 34
0.0
1001
ACAD
1000
DSTYLE
1002
{
1070
   287
1070
     4
1070
    40
1040
30.0
1070
    75
1070
     1
1070
   143
1040
0.039
1070
   172
1070
     1
1070
   271
1070
     0
1070
   279
1070
     1
1070
   288
1070
     1
1002
}
  0
LINE
  5
7D5D
  8
1
  6
CONTINUOUS
 10
2435.5161411938402
 20
3753.1087419999999
 30
0.0
 11
3287.9799481938398
 21
2887.5081070000001
 31
0.0
  0
LINE
  5
7D5E
  8
1
  6
CONTINUOUS
 10
2132.6635901938398
 20
3352.0337410000002
 30
0.0
 11
3198.5549821938398
 21
2769.080449
 31
0.0
  0
DIMENSION
  5
7D6A
  8
3
  6
CONTINUOUS
  2
*D12
 10
1057.4920981938401
 20
2484.8821429999998
 30
0.0
 11
982.49209819384009
 21
3029.8821429999998
 31
0.0
 70
     0
 13
1487.55463619384
 23
3574.8821429999989
 33
0.0
 14
1684.5429951938399
 24
2484.8821429999998
 34
0.0
 50
90.0
1001
ACAD
1000
DSTYLE
1002
{
1070
   287
1070
     3
1070
    40
1040
30.0
1070
   143
1040
0.039
1070
   172
1070
     1
1070
   271
1070
     0
1070
   279
1070
     0
1070
   288
1070
     1
1002
}
  0
DIMENSION
  5
7DE8
  8
3
  2
*D13
 10
2254.5429951938399
 20
2072.5536058388388
 30
0.0
 11
1969.5429951938399
 21
2147.5536058388379
 31
0.0
 70
     0
 13
1684.5429951938399
 23
2289.8821429999989
 33
0.0
 14
2254.5429951938399
 24
2289.8821429999989
 34
0.0
1001
ACAD
1000
DSTYLE
1002
{
1070
   287
1070
     3
1070
    40
1040
30.0
1070
   143
1040
0.039
1070
   172
1070
     1
1070
   271
1070
     0
1070
   279
1070
     0
1002
}
  0
DIMENSION
  5
7DF5
  8
3
  2
*D14
 10
3434.5429951938399
 20
2072.5536058388388
 30
0.0
 11
2844.5429951938399
 21
2147.5536058388379
 31
0.0
 70
     0
 13
2254.5429951938399
 23
2289.8821429999989
 33
0.0
 14
3434.5429951938399
 24
2289.8821429999989
 34
0.0
1001
ACAD
1000
DSTYLE
1002
{
1070
   287
1070
     3
1070
    40
1040
30.0
1070
   143
1040
0.039
1070
   172
1070
     1
1070
   271
1070
     0
1070
   279
1070
     0
1002
}
  0
DIMENSION
  5
7E02
  8
3
  2
*D15
 10
4811.7355470000011
 20
2072.5536058388388
 30
0.0
 11
4545.2355469999993
 21
2147.5536058388379
 31
0.0
 70
     0
 13
4278.7355470000002
 23
2279.8821429999998
 33
0.0
 14
4811.7355470000011
 24
2279.8821429999998
 34
0.0
1001
ACAD
1000
DSTYLE
1002
{
1070
   287
1070
     3
1070
    40
1040
30.0
1070
   143
1040
0.039
1070
   172
1070
     1
1070
   271
1070
     0
1070
   279
1070
     0
1002
}
  0
DIMENSION
  5
7E11
  8
3
  2
*D16
 10
5198.7355470000002
 20
2072.5536058388388
 30
0.0
 11
5005.2355470000002
 21
2147.5536058388379
 31
0.0
 70
     0
 13
4811.7355470000011
 23
2279.8821429999998
 33
0.0
 14
5198.7355470000002
 24
2279.8821429999998
 34
0.0
1001
ACAD
1000
DSTYLE
1002
{
1070
   287
1070
     3
1070
    40
1040
30.0
1070
   143
1040
0.039
1070
   172
1070
     1
1070
   271
1070
     0
1070
   279
1070
     0
1002
}
  0
DIMENSION
  5
7E28
  8
3
  2
*D18
 10
1054.925217382468
 20
2289.8821429999989
 30
0.0
 11
979.92521738246762
 21
2032.7392858571429
 31
0.0
 70
     0
 13
1684.5429951938399
 23
2389.8821429999989
 33
0.0
 14
1684.5429951938399
 24
2289.8821429999989
 34
0.0
 50
90.0
1001
ACAD
1000
DSTYLE
1002
{
1070
   287
1070
     3
1070
    40
1040
30.0
1070
   143
1040
0.039
1070
   172
1070
     1
1070
   271
1070
     0
1070
   279
1070
     0
1070
     6
1000
DOT
1002
}
  0
DIMENSION
  5
7E37
  8
3
  2
*D19
 10
1054.925217382468
 20
2484.8821429999998
 30
0.0
 11
911.35378881103952
 21
2437.3821429999998
 31
0.0
 12
104.9510121938401
 22
0.0
 32
0.0
 70
     0
 13
1684.5429951938399
 23
2389.8821429999989
 33
0.0
 14
1684.5429951938399
 24
2484.8821429999998
 34
0.0
 50
90.0
1001
ACAD
1000
DSTYLE
1002
{
1070
   172
1070
     1
1070
    40
1040
30.0
1070
     3
1000
(<>)
1070
   271
1070
     0
1070
     6
1000
_DOT
1070
   143
1040
0.039
1002
}
  0
LINE
  5
7E54
  8
1
  6
CONTINUOUS
 10
1694.542995193839
 20
3704.8821429999989
 30
0.0
 11
2814.5429951938399
 21
3704.8821429999998
 31
0.0
  0
LINE
  5
7E55
  8
1
 10
1694.5429951938399
 20
2584.8821429999998
 30
0.0
 11
1694.542995193839
 21
3704.8821429999989
 31
0.0
  0
LINE
  5
7E56
  8
1
 10
2814.5429951938399
 20
2584.8821429999989
 30
0.0
 11
2814.5429951938399
 21
3704.8821429999998
 31
0.0
  0
ENDSEC
  0
EOF
