  0
SECTION
  2
HEADER
  9
$ACADVER
  1
AC1009
  9
$INSBASE
 10
0.0
 20
0.0
 30
0.0
  9
$EXTMIN
 10
750.0
 20
900.0
 30
0.0
  9
$EXTMAX
 10
5550.0
 20
8359.9567849999985
 30
0.0
  9
$LIMMIN
 10
0.0
 20
0.0
  9
$LIMMAX
 10
297.0
 20
210.0
  9
$ORTHOMODE
 70
     0
  9
$REGENMODE
 70
     1
  9
$FILLMODE
 70
     0
  9
$QTEXTMODE
 70
     0
  9
$MIRRTEXT
 70
     1
  9
$DRAGMODE
 70
     2
  9
$LTSCALE
 40
100.0
  9
$OSMODE
 70
    37
  9
$ATTMODE
 70
     1
  9
$TEXTSIZE
 40
180.0
  9
$TRACEWID
 40
0.05
  9
$TEXTSTYLE
  7
STANDARD
  9
$CLAYER
  8
3
  9
$CELTYPE
  6
BYLAYER
  9
$CECOLOR
 62
   256
  9
$DIMSCALE
 40
30.0
  9
$DIMASZ
 40
2.0
  9
$DIMEXO
 40
0.5
  9
$DIMDLI
 40
10.0
  9
$DIMRND
 40
0.0
  9
$DIMDLE
 40
0.0
  9
$DIMEXE
 40
1.0
  9
$DIMTP
 40
1.0
  9
$DIMTM
 40
1.0
  9
$DIMTXT
 40
3.0
  9
$DIMCEN
 40
0.0
  9
$DIMTSZ
 40
0.0
  9
$DIMTOL
 70
     0
  9
$DIMLIM
 70
     0
  9
$DIMTIH
 70
     0
  9
$DIMTOH
 70
     0
  9
$DIMSE1
 70
     0
  9
$DIMSE2
 70
     0
  9
$DIMTAD
 70
     1
  9
$DIMZIN
 70
     8
  9
$DIMBLK
  1

  9
$DIMASO
 70
     1
  9
$DIMSHO
 70
     1
  9
$DIMPOST
  1

  9
$DIMAPOST
  1

  9
$DIMALT
 70
     0
  9
$DIMALTD
 70
     2
  9
$DIMALTF
 40
0.039
  9
$DIMLFAC
 40
1.0
  9
$DIMTOFL
 70
     1
  9
$DIMTVP
 40
0.0
  9
$DIMTIX
 70
     0
  9
$DIMSOXD
 70
     0
  9
$DIMSAH
 70
     1
  9
$DIMBLK1
  1
OPEN
  9
$DIMBLK2
  1
OPEN
  9
$DIMSTYLE
  2
IGA
  9
$DIMCLRD
 70
     0
  9
$DIMCLRE
 70
     0
  9
$DIMCLRT
 70
     0
  9
$DIMTFAC
 40
10.0
  9
$DIMGAP
 40
1.0
  9
$LUNITS
 70
     2
  9
$LUPREC
 70
     3
  9
$SKETCHINC
 40
0.1
  9
$FILLETRAD
 40
50.0
  9
$AUNITS
 70
     0
  9
$AUPREC
 70
     0
  9
$MENU
  1
acad
  9
$ELEVATION
 40
0.0
  9
$PELEVATION
 40
0.0
  9
$THICKNESS
 40
0.0
  9
$LIMCHECK
 70
     0
  9
$BLIPMODE
 70
     0
  9
$CHAMFERA
 40
0.5
  9
$CHAMFERB
 40
0.5
  9
$SKPOLY
 70
     0
  9
$TDCREATE
 40
2450751.6006261571
  9
$TDUPDATE
 40
2454953.7772648958
  9
$TDINDWG
 40
0.0135826852
  9
$TDUSRTIMER
 40
0.0135826852
  9
$USRTIMER
 70
     1
  9
$ANGBASE
 50
0.0
  9
$ANGDIR
 70
     0
  9
$PDMODE
 70
     0
  9
$PDSIZE
 40
0.0
  9
$PLINEWID
 40
0.0
  9
$COORDS
 70
     1
  9
$SPLFRAME
 70
     0
  9
$SPLINETYPE
 70
     6
  9
$SPLINESEGS
 70
     8
  9
$ATTDIA
 70
     0
  9
$ATTREQ
 70
     1
  9
$HANDLING
 70
 10241
  9
$HANDSEED
  5
7EA0
  9
$SURFTAB1
 70
     6
  9
$SURFTAB2
 70
     6
  9
$SURFTYPE
 70
     6
  9
$SURFU
 70
     6
  9
$SURFV
 70
     6
  9
$UCSNAME
  2

  9
$UCSORG
 10
0.0
 20
0.0
 30
0.0
  9
$UCSXDIR
 10
1.0
 20
0.0
 30
0.0
  9
$UCSYDIR
 10
0.0
 20
1.0
 30
0.0
  9
$PUCSNAME
  2

  9
$PUCSORG
 10
0.0
 20
0.0
 30
0.0
  9
$PUCSXDIR
 10
1.0
 20
0.0
 30
0.0
  9
$PUCSYDIR
 10
0.0
 20
1.0
 30
0.0
  9
$USERI1
 70
     0
  9
$USERI2
 70
     0
  9
$USERI3
 70
     0
  9
$USERI4
 70
     0
  9
$USERI5
 70
     0
  9
$USERR1
 40
0.0
  9
$USERR2
 40
0.0
  9
$USERR3
 40
0.0
  9
$USERR4
 40
0.0
  9
$USERR5
 40
0.0
  9
$WORLDVIEW
 70
     1
  9
$SHADEDGE
 70
     3
  9
$SHADEDIF
 70
    70
  9
$TILEMODE
 70
     1
  9
$MAXACTVP
 70
    16
  9
$PLIMCHECK
 70
     0
  9
$PEXTMIN
 10
1.0000000000000000E+020
 20
1.0000000000000000E+020
 30
1.0000000000000000E+020
  9
$PEXTMAX
 10
-1.0000000000000000E+020
 20
-1.0000000000000000E+020
 30
-1.0000000000000000E+020
  9
$PLIMMIN
 10
0.0
 20
0.0
  9
$PLIMMAX
 10
12.0
 20
9.0
  9
$UNITMODE
 70
     0
  9
$VISRETAIN
 70
     0
  9
$PLINEGEN
 70
     0
  9
$PSLTSCALE
 70
     1
  0
ENDSEC
  0
SECTION
  2
TABLES
  0
TABLE
  2
VPORT
 70
     2
  0
VPORT
  2
*ACTIVE
 70
     0
 10
0.0
 20
0.0
 11
1.0
 21
1.0
 12
9438.1687158055174
 22
4629.9562499988788
 13
0.0
 23
0.0
 14
10.0
 24
10.0
 15
10.0
 25
10.0
 16
0.0
 26
0.0
 36
1.0
 17
0.0
 27
0.0
 37
0.0
 40
7517.2452868940854
 41
3.1666666666666661
 42
50.0
 43
0.0
 44
0.0
 50
0.0
 51
0.0
 71
     0
 72
   100
 73
     1
 74
     0
 75
     0
 76
     0
 77
     0
 78
     0
  0
ENDTAB
  0
TABLE
  2
LTYPE
 70
     2
  0
LTYPE
  2
CONTINUOUS
 70
     0
  3
Solid line
 72
    65
 73
     0
 40
0.0
  0
LTYPE
  2
CENTER
 70
     0
  3
____ _ ____ _ ____ _ ____ _ ____ _ ____ _ ____ 
 72
    65
 73
     4
 40
2.0
 49
1.25
 49
-0.25
 49
0.25
 49
-0.25
  0
ENDTAB
  0
TABLE
  2
LAYER
 70
     6
  0
LAYER
  2
0
 70
     0
 62
     7
  6
CONTINUOUS
  0
LAYER
  2
3
 70
     0
 62
     2
  6
CONTINUOUS
  0
LAYER
  2
2
 70
     0
 62
     3
  6
CENTER
  0
LAYER
  2
1
 70
     0
 62
     4
  6
CONTINUOUS
  0
LAYER
  2
4
 70
     0
 62
     7
  6
CONTINUOUS
  0
LAYER
  2
DEFPOINTS
 70
     0
 62
    -7
  6
CONTINUOUS
  0
ENDTAB
  0
TABLE
  2
STYLE
 70
     1
  0
STYLE
  2
STANDARD
 70
     0
 40
0.0
 41
1.0
 50
0.0
 71
     0
 42
180.0
  3
simplex.shx
  4
extfont.shx
  0
ENDTAB
  0
TABLE
  2
VIEW
 70
     0
  0
ENDTAB
  0
TABLE
  2
UCS
 70
     0
  0
ENDTAB
  0
TABLE
  2
APPID
 70
     1
  0
APPID
  2
ACAD
 70
     0
  0
ENDTAB
  0
TABLE
  2
DIMSTYLE
 70
     1
  0
DIMSTYLE
  2
IGA
 70
     0
  3

  4

  5

  6
OPEN
  7
OPEN
 40
2.0
 41
2.0
 42
0.5
 43
10.0
 44
1.0
 45
0.0
 46
0.0
 47
1.0
 48
1.0
140
3.0
141
0.0
142
0.0
143
0.03937
144
1.0
145
0.0
146
10.0
147
1.0
 71
     0
 72
     0
 73
     0
 74
     0
 75
     0
 76
     0
 77
     1
 78
     8
170
     0
171
     2
172
     0
173
     1
174
     0
175
     0
176
     0
177
     0
178
     0
  0
ENDTAB
  0
ENDSEC
  0
SECTION
  2
BLOCKS
  0
BLOCK
  8
0
  2
$MODEL_SPACE
 70
     0
 10
0.0
 20
0.0
 30
0.0
  3
$MODEL_SPACE
  1

  0
ENDBLK
  5
1B
  8
0
  0
BLOCK
 67
     1
  8
0
  2
$PAPER_SPACE
 70
     0
 10
0.0
 20
0.0
 30
0.0
  3
$PAPER_SPACE
  1

  0
ENDBLK
  5
18
 67
     1
  8
0
  0
BLOCK
  8
0
  2
_OPEN
 70
     0
 10
0.0
 20
0.0
 30
0.0
  3
_OPEN
  1

  0
LINE
  5
7AF0
  8
0
  6
BYBLOCK
 62
     0
 10
-1.0
 20
0.166667
 30
0.0
 11
0.0
 21
0.0
 31
0.0
  0
LINE
  5
7AF1
  8
0
  6
BYBLOCK
 62
     0
 10
0.0
 20
0.0
 30
0.0
 11
-1.0
 21
-0.166667
 31
0.0
  0
LINE
  5
7AF2
  8
0
  6
BYBLOCK
 62
     0
 10
0.0
 20
0.0
 30
0.0
 11
-1.0
 21
0.0
 31
0.0
  0
ENDBLK
  5
7AF3
  8
0
  0
BLOCK
  8
0
  2
*D1
 70
     1
 10
0.0
 20
0.0
 30
0.0
  3
*D1
  1

  0
LINE
  5
7E02
  8
3
  6
CONTINUOUS
 62
     0
 10
2700.3053989999989
 20
3599.7390179999989
 30
0.0
 11
2989.9257180000009
 21
3599.7390179999989
 31
0.0
  0
LINE
  5
7E03
  8
3
  6
CONTINUOUS
 62
     0
 10
2700.3053989999989
 20
2674.7390179999989
 30
0.0
 11
2989.925718
 21
2674.7390179999989
 31
0.0
  0
LINE
  5
7E04
  8
3
  6
CONTINUOUS
 62
     0
 10
2959.925718
 20
3539.7390179999989
 30
0.0
 11
2959.925718
 21
2734.7390179999989
 31
0.0
  0
INSERT
  5
7E05
  8
3
  6
CONTINUOUS
 62
     0
  2
_OPEN
 10
2959.925718
 20
3599.7390179999989
 30
0.0
 41
60.0
 42
60.0
 43
60.0
 50
90.0
  0
INSERT
  5
7E06
  8
3
  6
CONTINUOUS
 62
     0
  2
_OPEN
 10
2959.925718
 20
2674.7390179999989
 30
0.0
 41
60.0
 42
60.0
 43
60.0
 50
270.0
  0
TEXT
  8
3
  40
90
  5
7E8F
  62
0
  72
0
  71
0
 10
2704.93
 20
3003.29
 30
0.000000
  1
925
  0
POINT
  5
7E08
  8
DEFPOINTS
  6
CONTINUOUS
 62
     0
 10
2685.3053989999999
 20
3599.7390179999989
 30
0.0
  0
POINT
  5
7E09
  8
DEFPOINTS
  6
CONTINUOUS
 62
     0
 10
2685.3053989999999
 20
2674.7390179999989
 30
0.0
  0
POINT
  5
7E0A
  8
DEFPOINTS
  6
CONTINUOUS
 62
     0
 10
2959.925718
 20
2674.7390179999989
 30
0.0
  0
ENDBLK
  5
7B39
  8
0
  0
BLOCK
  8
0
  2
*D2
 70
     1
 10
0.0
 20
0.0
 30
0.0
  3
*D2
  1

  0
LINE
  5
7E0B
  8
3
  6
CONTINUOUS
 62
     0
 10
2834.986406
 20
3557.7390180000002
 30
0.0
 11
3199.0105510000012
 21
3557.7390179999989
 31
0.0
  0
LINE
  5
7E0C
  8
3
  6
CONTINUOUS
 62
     0
 10
2700.3053989999989
 20
2674.7390179999989
 30
0.0
 11
3199.0105510000012
 21
2674.7390179999989
 31
0.0
  0
LINE
  5
7E0D
  8
3
  6
CONTINUOUS
 62
     0
 10
3169.0105510000012
 20
3497.7390179999989
 30
0.0
 11
3169.0105510000012
 21
2734.7390179999989
 31
0.0
  0
INSERT
  5
7E0E
  8
3
  6
CONTINUOUS
 62
     0
  2
_OPEN
 10
3169.0105510000012
 20
3557.7390179999989
 30
0.0
 41
60.0
 42
60.0
 43
60.0
 50
90.0
  0
INSERT
  5
7E0F
  8
3
  6
CONTINUOUS
 62
     0
  2
_OPEN
 10
3169.0105510000012
 20
2674.7390179999989
 30
0.0
 41
60.0
 42
60.0
 43
60.0
 50
270.0
  0
TEXT
  8
3
  40
90
  5
7E90
  62
0
  72
0
  71
0
 10
2914.01
 20
3003.29
 30
0.000000
  1
883
  0
POINT
  5
7E11
  8
DEFPOINTS
  6
CONTINUOUS
 62
     0
 10
2819.9864059999991
 20
3557.7390180000002
 30
0.0
  0
POINT
  5
7E12
  8
DEFPOINTS
  6
CONTINUOUS
 62
     0
 10
2685.3053989999999
 20
2674.7390179999989
 30
0.0
  0
POINT
  5
7E13
  8
DEFPOINTS
  6
CONTINUOUS
 62
     0
 10
3169.0105510000012
 20
2674.7390179999989
 30
0.0
  0
ENDBLK
  5
7B46
  8
0
  0
BLOCK
  8
0
  2
*D3
 70
     1
 10
0.0
 20
0.0
 30
0.0
  3
*D3
  1

  0
LINE
  5
7E14
  8
3
  6
CONTINUOUS
 62
     0
 10
850.30539899999985
 20
2311.7390179999989
 30
0.0
 11
850.30539899999985
 21
2061.9699909999999
 31
0.0
  0
LINE
  5
7E15
  8
3
  6
CONTINUOUS
 62
     0
 10
2030.3053989999989
 20
2223.5028739999989
 30
0.0
 11
2030.3053989999989
 21
2061.9699909999999
 31
0.0
  0
LINE
  5
7E16
  8
3
  6
CONTINUOUS
 62
     0
 10
910.30539899999985
 20
2091.9699909999999
 30
0.0
 11
1970.3053989999989
 21
2091.9699909999999
 31
0.0
  0
INSERT
  5
7E17
  8
3
  6
CONTINUOUS
 62
     0
  2
_OPEN
 10
850.30539899999985
 20
2091.9699909999999
 30
0.0
 41
60.0
 42
60.0
 43
60.0
 50
180.0
  0
INSERT
  5
7E18
  8
3
  6
CONTINUOUS
 62
     0
  2
_OPEN
 10
2030.3053989999989
 20
2091.9699909999999
 30
0.0
 41
60.0
 42
60.0
 43
60.0
  0
TEXT
  8
3
  40
90
  5
7E91
  62
0
  72
0
  71
0
 10
1298.41
 20
2007.67
 30
0.000000
  1
1180
  0
POINT
  5
7E1A
  8
DEFPOINTS
  6
CONTINUOUS
 62
     0
 10
850.30539899999985
 20
2326.7390180000002
 30
0.0
  0
POINT
  5
7E1B
  8
DEFPOINTS
  6
CONTINUOUS
 62
     0
 10
2030.3053989999989
 20
2238.5028739999989
 30
0.0
  0
POINT
  5
7E1C
  8
DEFPOINTS
  6
CONTINUOUS
 62
     0
 10
2030.3053989999989
 20
2091.9699909999999
 30
0.0
  0
ENDBLK
  5
7B89
  8
0
  0
BLOCK
  8
0
  2
*D4
 70
     1
 10
0.0
 20
0.0
 30
0.0
  3
*D4
  1

  0
LINE
  5
7E1D
  8
3
  6
CONTINUOUS
 62
     0
 10
2600.3053989999989
 20
2311.7390179999989
 30
0.0
 11
2600.3053989999989
 21
2061.9699909999999
 31
0.0
  0
LINE
  5
7E1E
  8
3
  6
CONTINUOUS
 62
     0
 10
2090.3053989999999
 20
2091.9699909999999
 30
0.0
 11
2540.3053989999999
 21
2091.9699909999999
 31
0.0
  0
INSERT
  5
7E1F
  8
3
  6
CONTINUOUS
 62
     0
  2
_OPEN
 10
2030.3053989999989
 20
2091.9699909999999
 30
0.0
 41
60.0
 42
60.0
 43
60.0
 50
180.0
  0
INSERT
  5
7E20
  8
3
  6
CONTINUOUS
 62
     0
  2
_OPEN
 10
2600.3053989999989
 20
2091.9699909999999
 30
0.0
 41
60.0
 42
60.0
 43
60.0
  0
TEXT
  8
3
  40
90
  5
7E92
  62
0
  72
0
  71
0
 10
2135.31
 20
2007.67
 30
0.000000
  1
570
  0
POINT
  5
7E22
  8
DEFPOINTS
  6
CONTINUOUS
 62
     0
 10
2030.3053989999989
 20
2238.5028739999989
 30
0.0
  0
POINT
  5
7E23
  8
DEFPOINTS
  6
CONTINUOUS
 62
     0
 10
2600.3053989999989
 20
2326.7390180000002
 30
0.0
  0
POINT
  5
7E24
  8
DEFPOINTS
  6
CONTINUOUS
 62
     0
 10
2600.3053989999989
 20
2091.9699909999999
 30
0.0
  0
ENDBLK
  5
7B95
  8
0
  0
BLOCK
  8
0
  2
*D5
 70
     1
 10
0.0
 20
0.0
 30
0.0
  3
*D5
  1

  0
LINE
  5
7E25
  8
3
  6
CONTINUOUS
 62
     0
 10
2685.3053989999999
 20
3657.2390180000002
 30
0.0
 11
2685.3053989999999
 21
4454.3953067318744
 31
0.0
  0
LINE
  5
7E26
  8
3
  6
CONTINUOUS
 62
     0
 10
2030.3053989999989
 20
4340.8951861696032
 30
0.0
 11
2030.3053989999989
 21
4454.3953067318744
 31
0.0
  0
LINE
  5
7E27
  8
3
  6
CONTINUOUS
 62
     0
 10
2625.3053989999999
 20
4424.3953067318744
 30
0.0
 11
2090.3053989999999
 21
4424.3953067318744
 31
0.0
  0
INSERT
  5
7E28
  8
3
  6
CONTINUOUS
 62
     0
  2
_OPEN
 10
2685.3053989999999
 20
4424.3953067318744
 30
0.0
 41
60.0
 42
60.0
 43
60.0
  0
INSERT
  5
7E29
  8
3
  6
CONTINUOUS
 62
     0
  2
_OPEN
 10
2030.3053989999989
 20
4424.3953067318744
 30
0.0
 41
60.0
 42
60.0
 43
60.0
 50
180.0
  0
TEXT
  8
3
  40
90
  5
7E93
  62
0
  72
0
  71
0
 10
2200.46
 20
4340.10
 30
0.000000
  1
655
  0
POINT
  5
7E2B
  8
DEFPOINTS
  6
CONTINUOUS
 62
     0
 10
2685.3053989999999
 20
3642.2390180000002
 30
0.0
  0
POINT
  5
7E2C
  8
DEFPOINTS
  6
CONTINUOUS
 62
     0
 10
2030.3053989999989
 20
4325.8951861696041
 30
0.0
  0
POINT
  5
7E2D
  8
DEFPOINTS
  6
CONTINUOUS
 62
     0
 10
2030.3053989999989
 20
4424.3953067318744
 30
0.0
  0
ENDBLK
  5
7D5A
  8
0
  0
BLOCK
  8
0
  2
*D6
 70
     1
 10
0.0
 20
0.0
 30
0.0
  3
*D6
  1

  0
LINE
  5
7E2E
  8
3
  6
CONTINUOUS
 62
     0
 10
5124.4082969999999
 20
4217.5353610000002
 30
0.0
 11
5124.4082969999999
 21
4362.7601569999988
 31
0.0
  0
LINE
  5
7E2F
  8
3
  6
CONTINUOUS
 62
     0
 10
4454.408296999999
 20
4217.5353610000002
 30
0.0
 11
4454.408296999999
 21
4362.7601569999988
 31
0.0
  0
LINE
  5
7E30
  8
3
  6
CONTINUOUS
 62
     0
 10
5064.408296999999
 20
4332.7601569999997
 30
0.0
 11
4514.4082969999999
 21
4332.7601569999997
 31
0.0
  0
INSERT
  5
7E31
  8
3
  6
CONTINUOUS
 62
     0
  2
_OPEN
 10
5124.4082969999999
 20
4332.7601569999997
 30
0.0
 41
60.0
 42
60.0
 43
60.0
  0
INSERT
  5
7E32
  8
3
  6
CONTINUOUS
 62
     0
  2
_OPEN
 10
4454.408296999999
 20
4332.7601569999997
 30
0.0
 41
60.0
 42
60.0
 43
60.0
 50
180.0
  0
TEXT
  8
3
  40
90
  5
7E94
  62
0
  72
0
  71
0
 10
4607.11
 20
4248.46
 30
0.000000
  1
670
  0
POINT
  5
7E34
  8
DEFPOINTS
  6
CONTINUOUS
 62
     0
 10
5124.4082969999999
 20
4202.5353610000002
 30
0.0
  0
POINT
  5
7E35
  8
DEFPOINTS
  6
CONTINUOUS
 62
     0
 10
4454.408296999999
 20
4202.5353610000002
 30
0.0
  0
POINT
  5
7E36
  8
DEFPOINTS
  6
CONTINUOUS
 62
     0
 10
4454.408296999999
 20
4332.7601569999997
 30
0.0
  0
ENDBLK
  5
7BBB
  8
0
  0
BLOCK
  8
0
  2
*D7
 70
     1
 10
0.0
 20
0.0
 30
0.0
  3
*D7
  1

  0
LINE
  5
7D94
  8
0
  6
BYBLOCK
 62
     0
 10
5143.4082969999999
 20
4032.7390180000002
 30
0.0
 11
5408.520356
 21
4032.7390180000002
 31
0.0
  0
LINE
  5
7D95
  8
0
  6
BYBLOCK
 62
     0
 10
5143.4082969999999
 20
3082.7390179999989
 30
0.0
 11
5408.520356
 21
3082.7390179999989
 31
0.0
  0
LINE
  5
7D96
  8
0
  6
BYBLOCK
 62
     0
 10
5378.520356
 20
3972.7390180000002
 30
0.0
 11
5378.520356
 21
3142.7390180000002
 31
0.0
  0
TEXT
  5
7D97
  8
3
 62
     0
 10
5348.520356
 20
3401.8816032857139
 30
0.0
 40
90.0
  1
φ950
 50
90.0
  0
INSERT
  5
7D98
  8
0
  6
BYBLOCK
 62
     0
  2
_OPEN
 10
5378.520356
 20
4032.7390180000002
 30
0.0
 41
60.0
 42
60.0
 43
60.0
 50
90.0
  0
INSERT
  5
7D99
  8
0
  6
BYBLOCK
 62
     0
  2
_OPEN
 10
5378.520356
 20
3082.7390179999989
 30
0.0
 41
60.0
 42
60.0
 43
60.0
 50
270.0
  0
POINT
  5
7D9A
  8
DEFPOINTS
  6
BYBLOCK
 62
     0
 10
5128.4082969999999
 20
4032.7390180000002
 30
0.0
  0
POINT
  5
7D9B
  8
DEFPOINTS
  6
BYBLOCK
 62
     0
 10
5128.4082969999999
 20
3082.7390179999989
 30
0.0
  0
POINT
  5
7D9C
  8
DEFPOINTS
  6
BYBLOCK
 62
     0
 10
5378.520356
 20
3082.7390179999989
 30
0.0
  0
ENDBLK
  5
7D9D
  8
0
  0
BLOCK
  8
0
  2
*D8
 70
     1
 10
0.0
 20
0.0
 30
0.0
  3
*D8
  1

  0
LINE
  5
7D9F
  8
0
  6
BYBLOCK
 62
     0
 10
5128.4082969999999
 20
4047.7390180000002
 30
0.0
 11
5128.4082969999999
 21
4566.7897773997174
 31
0.0
  0
LINE
  5
7DA0
  8
0
  6
BYBLOCK
 62
     0
 10
4789.4082969999999
 20
4486.8787860000011
 30
0.0
 11
4789.4082969999999
 21
4566.7897773997174
 31
0.0
  0
LINE
  5
7DA1
  8
0
  6
BYBLOCK
 62
     0
 10
5068.4082969999999
 20
4536.7897773997174
 30
0.0
 11
4849.4082969999999
 21
4536.7897773997174
 31
0.0
  0
TEXT
  5
7DA2
  8
3
 62
     0
 10
4845.3368684285706
 20
4576.6385483819759
 30
0.0
 40
90.0
  1
339
  0
INSERT
  5
7DA3
  8
0
  6
BYBLOCK
 62
     0
  2
_OPEN
 10
5128.4082969999999
 20
4536.7897773997174
 30
0.0
 41
60.0
 42
60.0
 43
60.0
  0
INSERT
  5
7DA4
  8
0
  6
BYBLOCK
 62
     0
  2
_OPEN
 10
4789.4082969999999
 20
4536.7897773997174
 30
0.0
 41
60.0
 42
60.0
 43
60.0
 50
180.0
  0
POINT
  5
7DA5
  8
DEFPOINTS
  6
BYBLOCK
 62
     0
 10
5128.4082969999999
 20
4032.7390180000002
 30
0.0
  0
POINT
  5
7DA6
  8
DEFPOINTS
  6
BYBLOCK
 62
     0
 10
4789.4082969999999
 20
4471.8787860000002
 30
0.0
  0
POINT
  5
7DA7
  8
DEFPOINTS
  6
BYBLOCK
 62
     0
 10
4789.4082969999999
 20
4536.7897773997174
 30
0.0
  0
ENDBLK
  5
7DA8
  8
0
  0
BLOCK
  8
0
  2
*D9
 70
     1
 10
0.0
 20
0.0
 30
0.0
  3
*D9
  1

  0
LINE
  5
7E37
  8
3
  6
CONTINUOUS
 62
     0
 10
4179.4082969999999
 20
4012.7390180000002
 30
0.0
 11
4179.4082969999999
 21
4566.7897773997174
 31
0.0
  0
LINE
  5
7E38
  8
3
  6
CONTINUOUS
 62
     0
 10
4729.408296999999
 20
4536.7897773997174
 30
0.0
 11
4239.408296999999
 21
4536.7897773997174
 31
0.0
  0
INSERT
  5
7E39
  8
3
  6
CONTINUOUS
 62
     0
  2
_OPEN
 10
4789.4082969999999
 20
4536.7897773997174
 30
0.0
 41
60.0
 42
60.0
 43
60.0
  0
INSERT
  5
7E3A
  8
3
  6
CONTINUOUS
 62
     0
  2
_OPEN
 10
4179.4082969999999
 20
4536.7897773997174
 30
0.0
 41
60.0
 42
60.0
 43
60.0
 50
180.0
  0
TEXT
  8
3
  40
90
  5
7E95
  62
0
  72
0
  71
0
 10
4304.41
 20
4527.49
 30
0.000000
  1
MAX
  0
TEXT
  8
3
  40
90
  5
7E96
  62
0
  72
0
  71
0
 10
4304.41
 20
4410.49
 30
0.000000
  1
640
  0
POINT
  5
7E3C
  8
DEFPOINTS
  6
CONTINUOUS
 62
     0
 10
4789.4082969999999
 20
4471.8787860000002
 30
0.0
  0
POINT
  5
7E3D
  8
DEFPOINTS
  6
CONTINUOUS
 62
     0
 10
4179.4082969999999
 20
3997.7390180000002
 30
0.0
  0
POINT
  5
7E3E
  8
DEFPOINTS
  6
CONTINUOUS
 62
     0
 10
4179.4082969999999
 20
4536.7897773997174
 30
0.0
  0
ENDBLK
  5
7DBC
  8
0
  0
BLOCK
  8
0
  2
*D10
 70
     1
 10
0.0
 20
0.0
 30
0.0
  3
*D10
  1

  0
LINE
  5
7E3F
  8
3
  6
CONTINUOUS
 62
     0
 10
4256.4082969999999
 20
2301.7390180000002
 30
0.0
 11
4256.4082969999999
 21
2024.7190119999991
 31
0.0
  0
LINE
  5
7E40
  8
3
  6
CONTINUOUS
 62
     0
 10
4789.4082969999999
 20
2128.7885919999999
 30
0.0
 11
4789.4082969999999
 21
2024.7190119999991
 31
0.0
  0
LINE
  5
7E41
  8
3
  6
CONTINUOUS
 62
     0
 10
4316.4082969999999
 20
2054.719012
 30
0.0
 11
4729.408296999999
 21
2054.719012
 31
0.0
  0
INSERT
  5
7E42
  8
3
  6
CONTINUOUS
 62
     0
  2
_OPEN
 10
4256.4082969999999
 20
2054.719012
 30
0.0
 41
60.0
 42
60.0
 43
60.0
 50
180.0
  0
INSERT
  5
7E43
  8
3
  6
CONTINUOUS
 62
     0
  2
_OPEN
 10
4789.4082969999999
 20
2054.719012
 30
0.0
 41
60.0
 42
60.0
 43
60.0
  0
TEXT
  8
3
  40
90
  5
7E97
  62
0
  72
0
  71
0
 10
4356.21
 20
1970.42
 30
0.000000
  1
533
  0
POINT
  5
7E45
  8
DEFPOINTS
  6
CONTINUOUS
 62
     0
 10
4256.4082969999999
 20
2316.7390179999989
 30
0.0
  0
POINT
  5
7E46
  8
DEFPOINTS
  6
CONTINUOUS
 62
     0
 10
4789.4082969999999
 20
2143.7885919999999
 30
0.0
  0
POINT
  5
7E47
  8
DEFPOINTS
  6
CONTINUOUS
 62
     0
 10
4789.4082969999999
 20
2054.719012
 30
0.0
  0
ENDBLK
  5
7CC0
  8
0
  0
BLOCK
  8
0
  2
*D11
 70
     1
 10
0.0
 20
0.0
 30
0.0
  3
*D11
  1

  0
LINE
  5
7E48
  8
3
  6
CONTINUOUS
 62
     0
 10
5176.4082969999999
 20
2301.7390180000002
 30
0.0
 11
5176.4082969999999
 21
2024.7190119999991
 31
0.0
  0
LINE
  5
7E49
  8
3
  6
CONTINUOUS
 62
     0
 10
4849.4082969999999
 20
2054.719012
 30
0.0
 11
5116.4082969999999
 21
2054.719012
 31
0.0
  0
TEXT
  8
3
  40
90
  5
7E98
  62
0
  72
0
  71
0
 10
4795.25
 20
1969.98
 30
0.000000
  1
387
  0
INSERT
  5
7E4B
  8
3
  6
CONTINUOUS
 62
     0
  2
_OPEN
 10
4789.4082969999999
 20
2054.719012
 30
0.0
 41
60.0
 42
60.0
 43
60.0
 50
180.0
  0
INSERT
  5
7E4C
  8
3
  6
CONTINUOUS
 62
     0
  2
_OPEN
 10
5176.4082969999999
 20
2054.719012
 30
0.0
 41
60.0
 42
60.0
 43
60.0
  0
POINT
  5
7E4D
  8
DEFPOINTS
  6
CONTINUOUS
 62
     0
 10
4789.4082969999999
 20
2143.7885919999999
 30
0.0
  0
POINT
  5
7E4E
  8
DEFPOINTS
  6
CONTINUOUS
 62
     0
 10
5176.4082969999999
 20
2316.7390179999989
 30
0.0
  0
POINT
  5
7E4F
  8
DEFPOINTS
  6
CONTINUOUS
 62
     0
 10
5176.4082969999999
 20
2054.719012
 30
0.0
  0
ENDBLK
  5
7CB5
  8
0
  0
BLOCK
  8
0
  2
*D12
 70
     1
 10
0.0
 20
0.0
 30
0.0
  3
*D12
  1

  0
LINE
  5
7E50
  8
3
  6
CONTINUOUS
 62
     0
 10
850.30539899999985
 20
6379.8373159999992
 30
0.0
 11
850.30539899999985
 21
6607.5771940000004
 31
0.0
  0
LINE
  5
7E51
  8
3
  6
CONTINUOUS
 62
     0
 10
2600.3053989999989
 20
6379.8373159999992
 30
0.0
 11
2600.3053989999989
 21
6607.5771940000004
 31
0.0
  0
LINE
  5
7E52
  8
3
  6
CONTINUOUS
 62
     0
 10
910.30539899999985
 20
6577.5771939999986
 30
0.0
 11
2540.3053989999999
 21
6577.5771939999986
 31
0.0
  0
INSERT
  5
7E53
  8
3
  6
CONTINUOUS
 62
     0
  2
_OPEN
 10
850.30539899999985
 20
6577.5771939999986
 30
0.0
 41
60.0
 42
60.0
 43
60.0
 50
180.0
  0
INSERT
  5
7E54
  8
3
  6
CONTINUOUS
 62
     0
  2
_OPEN
 10
2600.3053989999989
 20
6577.5771939999986
 30
0.0
 41
60.0
 42
60.0
 43
60.0
  0
TEXT
  8
3
  40
90
  5
7E99
  62
0
  72
0
  71
0
 10
1489.57
 20
6493.28
 30
0.000000
  1
1750
  0
POINT
  5
7E56
  8
DEFPOINTS
  6
CONTINUOUS
 62
     0
 10
850.30539899999985
 20
6364.8373159999992
 30
0.0
  0
POINT
  5
7E57
  8
DEFPOINTS
  6
CONTINUOUS
 62
     0
 10
2600.3053989999989
 20
6364.8373159999992
 30
0.0
  0
POINT
  5
7E58
  8
DEFPOINTS
  6
CONTINUOUS
 62
     0
 10
2600.3053989999989
 20
6577.5771939999986
 30
0.0
  0
ENDBLK
  5
7C26
  8
0
  0
BLOCK
  8
0
  2
*D13
 70
     1
 10
0.0
 20
0.0
 30
0.0
  3
*D13
  1

  0
LINE
  5
7E59
  8
3
  6
CONTINUOUS
 62
     0
 10
2615.3053989999999
 20
6364.8373159999992
 30
0.0
 11
3013.8211250000008
 21
6364.8373159999992
 31
0.0
  0
LINE
  5
7E5A
  8
3
  6
CONTINUOUS
 62
     0
 10
2615.3053989999999
 20
5444.8373160000001
 30
0.0
 11
3013.8211250000008
 21
5444.8373160000001
 31
0.0
  0
LINE
  5
7E5B
  8
3
  6
CONTINUOUS
 62
     0
 10
2983.8211249999999
 20
6304.8373159999992
 30
0.0
 11
2983.8211249999999
 21
5504.8373159999992
 31
0.0
  0
INSERT
  5
7E5C
  8
3
  6
CONTINUOUS
 62
     0
  2
_OPEN
 10
2983.8211249999999
 20
6364.8373159999992
 30
0.0
 41
60.0
 42
60.0
 43
60.0
 50
90.0
  0
INSERT
  5
7E5D
  8
3
  6
CONTINUOUS
 62
     0
  2
_OPEN
 10
2983.8211249999999
 20
5444.8373160000001
 30
0.0
 41
60.0
 42
60.0
 43
60.0
 50
270.0
  0
TEXT
  8
3
  40
90
  5
7E9A
  62
0
  72
0
  71
0
 10
2728.82
 20
5779.46
 30
0.000000
  1
920
  0
POINT
  5
7E5F
  8
DEFPOINTS
  6
CONTINUOUS
 62
     0
 10
2600.3053989999989
 20
6364.8373159999992
 30
0.0
  0
POINT
  5
7E60
  8
DEFPOINTS
  6
CONTINUOUS
 62
     0
 10
2600.3053989999989
 20
5444.8373160000001
 30
0.0
  0
POINT
  5
7E61
  8
DEFPOINTS
  6
CONTINUOUS
 62
     0
 10
2983.8211249999999
 20
5444.8373160000001
 30
0.0
  0
ENDBLK
  5
7C33
  8
0
  0
BLOCK
  8
0
  2
*D14
 70
     1
 10
0.0
 20
0.0
 30
0.0
  3
*D14
  1

  0
LINE
  5
7E62
  8
3
  6
CONTINUOUS
 62
     0
 10
2045.3053989999989
 20
4200.7339609917317
 30
0.0
 11
3442.0848299999998
 21
4200.7339609917308
 31
0.0
  0
LINE
  5
7E63
  8
3
  6
CONTINUOUS
 62
     0
 10
2834.986406
 20
3557.7390180000002
 30
0.0
 11
3442.0848299999998
 21
3557.7390179999989
 31
0.0
  0
LINE
  5
7E64
  8
3
  6
CONTINUOUS
 62
     0
 10
3412.0848299999998
 20
4140.7339609917299
 30
0.0
 11
3412.0848299999998
 21
3617.7390179999989
 31
0.0
  0
INSERT
  5
7E65
  8
3
  6
CONTINUOUS
 62
     0
  2
_OPEN
 10
3412.0848299999998
 20
4200.7339609917308
 30
0.0
 41
60.0
 42
60.0
 43
60.0
 50
90.0
  0
INSERT
  5
7E66
  8
3
  6
CONTINUOUS
 62
     0
  2
_OPEN
 10
3412.0848299999998
 20
3557.7390179999989
 30
0.0
 41
60.0
 42
60.0
 43
60.0
 50
270.0
  0
TEXT
  8
3
  40
90
  5
7E9B
  62
0
  72
0
  71
0
 10
3157.08
 20
3726.53
 30
0.000000
  1
643
  0
POINT
  5
7E68
  8
DEFPOINTS
  6
CONTINUOUS
 62
     0
 10
2030.3053989999989
 20
4200.7339609917317
 30
0.0
  0
POINT
  5
7E69
  8
DEFPOINTS
  6
CONTINUOUS
 62
     0
 10
2819.9864059999991
 20
3557.7390180000002
 30
0.0
  0
POINT
  5
7E6A
  8
DEFPOINTS
  6
CONTINUOUS
 62
     0
 10
3412.0848299999998
 20
3557.7390179999989
 30
0.0
  0
ENDBLK
  5
7D22
  8
0
  0
BLOCK
  8
0
  2
*D15
 70
     1
 10
0.0
 20
0.0
 30
0.0
  3
*D15
  1

  0
LINE
  5
7E6B
  8
3
  6
CONTINUOUS
 62
     0
 10
2615.3053989999999
 20
2467.7390180000002
 30
0.0
 11
3442.0848299999989
 21
2467.7390179999989
 31
0.0
  0
LINE
  5
7E6C
  8
3
  6
CONTINUOUS
 62
     0
 10
3412.0848299999998
 20
3497.7390179999989
 30
0.0
 11
3412.0848299999989
 21
2527.7390179999989
 31
0.0
  0
INSERT
  5
7E6D
  8
3
  6
CONTINUOUS
 62
     0
  2
_OPEN
 10
3412.0848299999998
 20
3557.7390179999989
 30
0.0
 41
60.0
 42
60.0
 43
60.0
 50
90.0
  0
INSERT
  5
7E6E
  8
3
  6
CONTINUOUS
 62
     0
  2
_OPEN
 10
3412.0848299999989
 20
2467.7390179999989
 30
0.0
 41
60.0
 42
60.0
 43
60.0
 50
270.0
  0
TEXT
  8
3
  40
90
  5
7E9C
  62
0
  72
0
  71
0
 10
3157.08
 20
2853.44
 30
0.000000
  1
1090
  0
POINT
  5
7E70
  8
DEFPOINTS
  6
CONTINUOUS
 62
     0
 10
2819.9864059999991
 20
3557.7390180000002
 30
0.0
  0
POINT
  5
7E71
  8
DEFPOINTS
  6
CONTINUOUS
 62
     0
 10
2600.3053989999989
 20
2467.7390180000002
 30
0.0
  0
POINT
  5
7E72
  8
DEFPOINTS
  6
CONTINUOUS
 62
     0
 10
3412.0848299999989
 20
2467.7390179999989
 30
0.0
  0
ENDBLK
  5
7C51
  8
0
  0
BLOCK
  8
0
  2
*D16
 70
     1
 10
0.0
 20
0.0
 30
0.0
  3
*D16
  1

  0
LINE
  5
7E73
  8
3
  6
CONTINUOUS
 62
     0
 10
2615.3053989999999
 20
2467.7390180000002
 30
0.0
 11
3442.0848299999998
 21
2467.7390179999989
 31
0.0
  0
LINE
  5
7E74
  8
3
  6
CONTINUOUS
 62
     0
 10
2615.3053989999999
 20
2326.7390180000002
 30
0.0
 11
3442.0848299999998
 21
2326.7390179999989
 31
0.0
  0
LINE
  5
7E75
  8
3
  6
CONTINUOUS
 62
     0
 10
3412.0848299999998
 20
2527.7390179999989
 30
0.0
 11
3412.0848299999998
 21
2587.7390179999989
 31
0.0
  0
LINE
  5
7E76
  8
3
  6
CONTINUOUS
 62
     0
 10
3412.0848299999998
 20
2266.7390179999989
 30
0.0
 11
3412.0848299999998
 21
1971.0247322857131
 31
0.0
  0
LINE
  5
7E77
  8
3
  6
CONTINUOUS
 62
     0
 10
3412.0848299999998
 20
2467.7390179999989
 30
0.0
 11
3412.0848299999998
 21
2326.7390179999989
 31
0.0
  0
INSERT
  5
7E78
  8
3
  6
CONTINUOUS
 62
     0
  2
_OPEN
 10
3412.0848299999998
 20
2467.7390179999989
 30
0.0
 41
60.0
 42
60.0
 43
60.0
 50
270.0
  0
INSERT
  5
7E79
  8
3
  6
CONTINUOUS
 62
     0
  2
_OPEN
 10
3412.0848299999998
 20
2326.7390179999989
 30
0.0
 41
60.0
 42
60.0
 43
60.0
 50
90.0
  0
TEXT
  8
3
  40
90
  5
7E9D
  62
0
  72
0
  71
0
 10
3157.08
 20
1929.58
 30
0.000000
  1
141
  0
POINT
  5
7E7B
  8
DEFPOINTS
  6
CONTINUOUS
 62
     0
 10
2600.3053989999989
 20
2467.7390180000002
 30
0.0
  0
POINT
  5
7E7C
  8
DEFPOINTS
  6
CONTINUOUS
 62
     0
 10
2600.3053989999989
 20
2326.7390180000002
 30
0.0
  0
POINT
  5
7E7D
  8
DEFPOINTS
  6
CONTINUOUS
 62
     0
 10
3412.0848299999998
 20
2326.7390179999989
 30
0.0
  0
ENDBLK
  5
7D3A
  8
0
  0
BLOCK
  8
0
  2
*D17
 70
     1
 10
0.0
 20
0.0
 30
0.0
  3
*D17
  1

  0
LINE
  5
7E7E
  8
3
  6
CONTINUOUS
 62
     0
 10
1287.3053970000001
 20
3572.7390180000002
 30
0.0
 11
1287.3053970000001
 21
4454.3953067318744
 31
0.0
  0
LINE
  5
7E7F
  8
3
  6
CONTINUOUS
 62
     0
 10
1970.3053989999989
 20
4424.3953067318744
 30
0.0
 11
1347.3053970000001
 21
4424.3953067318744
 31
0.0
  0
INSERT
  5
7E80
  8
3
  6
CONTINUOUS
 62
     0
  2
_OPEN
 10
2030.3053989999989
 20
4424.3953067318744
 30
0.0
 41
60.0
 42
60.0
 43
60.0
  0
INSERT
  5
7E81
  8
3
  6
CONTINUOUS
 62
     0
  2
_OPEN
 10
1287.3053970000001
 20
4424.3953067318744
 30
0.0
 41
60.0
 42
60.0
 43
60.0
 50
180.0
  0
TEXT
  8
3
  40
90
  5
7E9E
  62
0
  72
0
  71
0
 10
1478.81
 20
4340.10
 30
0.000000
  1
743
  0
POINT
  5
7E83
  8
DEFPOINTS
  6
CONTINUOUS
 62
     0
 10
2030.3053989999989
 20
4325.8951861696041
 30
0.0
  0
POINT
  5
7E84
  8
DEFPOINTS
  6
CONTINUOUS
 62
     0
 10
1287.3053970000001
 20
3557.7390180000002
 30
0.0
  0
POINT
  5
7E85
  8
DEFPOINTS
  6
CONTINUOUS
 62
     0
 10
1287.3053970000001
 20
4424.3953067318744
 30
0.0
  0
ENDBLK
  5
7D64
  8
0
  0
BLOCK
  8
0
  2
*D18
 70
     1
 10
0.0
 20
0.0
 30
0.0
  3
*D18
  1

  0
LINE
  5
7E86
  8
3
 62
     0
 10
2685.3053989999999
 20
3657.2390180000002
 30
0.0
 11
2685.3053989999999
 21
4638.6574239822576
 31
0.0
  0
LINE
  5
7E87
  8
3
 62
     0
 10
850.30539899999974
 20
2582.7390179999989
 30
0.0
 11
850.30539899999985
 21
4638.6574239822576
 31
0.0
  0
LINE
  5
7E88
  8
3
 62
     0
 10
2625.3053989999999
 20
4608.6574239822594
 30
0.0
 11
910.30539899999985
 21
4608.6574239822594
 31
0.0
  0
INSERT
  5
7E89
  8
3
 62
     0
  2
_OPEN
 10
2685.3053989999999
 20
4608.6574239822594
 30
0.0
 41
60.0
 42
60.0
 43
60.0
  0
INSERT
  5
7E8A
  8
3
 62
     0
  2
_OPEN
 10
850.30539899999985
 20
4608.6574239822594
 30
0.0
 41
60.0
 42
60.0
 43
60.0
 50
180.0
  0
TEXT
  8
3
  40
90
  5
7E9F
  62
0
  72
0
  71
0
 10
1577.59
 20
4524.36
 30
0.000000
  1
1835
  0
POINT
  5
7E8C
  8
DEFPOINTS
 62
     0
 10
2685.3053989999999
 20
3642.2390180000002
 30
0.0
  0
POINT
  5
7E8D
  8
DEFPOINTS
 62
     0
 10
850.30539899999974
 20
2567.7390180000002
 30
0.0
  0
POINT
  5
7E8E
  8
DEFPOINTS
 62
     0
 10
850.30539899999985
 20
4608.6574239822594
 30
0.0
  0
ENDBLK
  5
7D70
  8
0
  0
ENDSEC
  0
SECTION
  2
ENTITIES
  0
LINE
  5
7A86
  8
1
  6
CONTINUOUS
 10
2510.3053989999989
 20
3997.7390180000002
 30
0.0
 11
1850.3053989999989
 21
3997.7390180000002
 31
0.0
  0
LINE
  5
7A87
  8
1
  6
CONTINUOUS
 10
2600.3053989999989
 20
2326.7390180000002
 30
0.0
 11
850.30539899999985
 21
2326.7390180000002
 31
0.0
  0
LINE
  5
7A88
  8
1
  6
CONTINUOUS
 10
2600.3053989999989
 20
2426.7390180000002
 30
0.0
 11
850.30539899999985
 21
2426.7390180000002
 31
0.0
  0
LINE
  5
7A89
  8
1
  6
CONTINUOUS
 10
2600.3053989999989
 20
2467.7390180000002
 30
0.0
 11
850.30539899999985
 21
2467.7390180000002
 31
0.0
  0
LINE
  5
7A8A
  8
1
  6
CONTINUOUS
 10
2600.3053989999989
 20
2567.7390180000002
 30
0.0
 11
850.30539899999985
 21
2567.7390180000002
 31
0.0
  0
POLYLINE
  5
7A8E
  8
1
  6
CONTINUOUS
 66
     1
 10
0.0
 20
0.0
 30
0.0
  0
VERTEX
  5
7DFC
  8
1
  6
CONTINUOUS
 10
2685.3053989999999
 20
2674.7390179999989
 30
0.0
  0
VERTEX
  5
7DFD
  8
1
  6
CONTINUOUS
 10
2030.3053989999989
 20
2696.7390180000002
 30
0.0
 42
-0.4168370000000001
  0
VERTEX
  5
7DFE
  8
1
  6
CONTINUOUS
 10
1287.8654389999999
 20
3564.9129600000001
 30
0.0
 42
-0.429867
  0
VERTEX
  5
7DFF
  8
1
  6
CONTINUOUS
 10
2074.1815590000001
 20
4196.1641950000003
 30
0.0
 42
-0.373172
  0
VERTEX
  5
7E00
  8
1
  6
CONTINUOUS
 10
2598.2741259999998
 20
3599.7390179999989
 30
0.0
 42
-0.34598
  0
SEQEND
  5
7E01
  8
1
  6
CONTINUOUS
  0
LINE
  5
7A95
  8
1
  6
CONTINUOUS
 10
850.30539899999985
 20
2326.7390180000002
 30
0.0
 11
850.30539899999985
 21
2426.7390180000002
 31
0.0
  0
LINE
  5
7A96
  8
1
  6
CONTINUOUS
 10
1086.7655500000001
 20
2742.1977529999999
 30
0.0
 11
2153.783778
 21
3335.772602
 31
0.0
  0
LINE
  5
7A97
  8
1
  6
CONTINUOUS
 10
996.56702799999994
 20
2860.0571559999989
 30
0.0
 11
1848.311449999999
 21
3734.9231110000001
 31
0.0
  0
LINE
  5
7A98
  8
1
  6
CONTINUOUS
 10
870.30539899999985
 20
2907.7390180000002
 30
0.0
 11
1850.3053989999989
 21
3997.7390180000002
 31
0.0
  0
LINE
  5
7A99
  8
2
  6
CENTER
 10
970.30539899999985
 20
2817.7390180000002
 30
0.0
 11
1130.3053990000001
 21
2817.7390180000002
 31
0.0
  0
CIRCLE
  5
7A9A
  8
1
  6
CONTINUOUS
 10
1050.3053990000001
 20
2817.7390180000002
 30
0.0
 40
75.0
  0
ARC
  5
7A9B
  8
1
  6
CONTINUOUS
 10
1050.3053990000001
 20
2817.7390180000002
 30
0.0
 40
162.0
 50
324.972283
 51
215.02771699999991
  0
LINE
  5
7A9C
  8
1
  6
CONTINUOUS
 10
870.30539899999985
 20
2567.7390180000002
 30
0.0
 11
870.30539899999985
 21
2907.7390180000002
 31
0.0
  0
LINE
  5
7A9D
  8
1
  6
CONTINUOUS
 10
862.80539899999985
 20
2657.7390180000002
 30
0.0
 11
917.64773300000002
 21
2724.755451
 31
0.0
  0
LINE
  5
7A9E
  8
1
  6
CONTINUOUS
 10
862.80539899999985
 20
2657.7390180000002
 30
0.0
 11
852.80539899999997
 21
2607.7390180000002
 31
0.0
  0
LINE
  5
7A9F
  8
1
  6
CONTINUOUS
 10
852.80539899999997
 20
2607.7390180000002
 30
0.0
 11
852.80539899999997
 21
2567.7390180000002
 31
0.0
  0
LINE
  5
7AA0
  8
1
  6
CONTINUOUS
 10
850.30539899999985
 20
2567.7390180000002
 30
0.0
 11
850.30539899999985
 21
2467.7390180000002
 31
0.0
  0
LINE
  5
7AA1
  8
2
  6
CENTER
 10
1050.3053990000001
 20
2737.7390180000002
 30
0.0
 11
1050.3053990000001
 21
2897.7390179999989
 31
0.0
  0
LINE
  5
7AA2
  8
1
  6
CONTINUOUS
 10
1182.963064
 20
2724.755451
 30
0.0
 11
1237.8053990000001
 21
2657.7390180000002
 31
0.0
  0
LINE
  5
7AA3
  8
1
  6
CONTINUOUS
 10
1247.8053990000001
 20
2607.7390180000002
 30
0.0
 11
1237.8053990000001
 21
2657.7390180000002
 31
0.0
  0
LINE
  5
7AA4
  8
1
  6
CONTINUOUS
 10
1247.8053990000001
 20
2607.7390180000002
 30
0.0
 11
1247.8053990000001
 21
2567.7390180000002
 31
0.0
  0
LINE
  5
7AA5
  8
2
  6
CENTER
 10
2030.3053989999989
 20
2188.3590479999998
 30
0.0
 11
2030.3053989999989
 21
4285.7513601696028
 31
0.0
  0
CIRCLE
  5
7AA6
  8
1
  6
CONTINUOUS
 10
2030.3053989999989
 20
3557.7390180000002
 30
0.0
 40
254.0
  0
LINE
  5
7AA8
  8
2
  6
CENTER
 10
960.91037699999993
 20
3557.7390180000002
 30
0.0
 11
2819.9864059999991
 21
3557.7390180000002
 31
0.0
  0
LINE
  5
7AAA
  8
1
  6
CONTINUOUS
 10
5176.4082969999999
 20
2416.7390179999989
 30
0.0
 11
5176.4082969999999
 21
2316.7390179999989
 31
0.0
  0
LINE
  5
7AAB
  8
1
  6
CONTINUOUS
 10
4256.4082969999999
 20
2416.7390179999989
 30
0.0
 11
4256.4082969999999
 21
2316.7390179999989
 31
0.0
  0
LINE
  5
7AAC
  8
1
  6
CONTINUOUS
 10
2600.3053989999989
 20
2326.7390180000002
 30
0.0
 11
2600.3053989999989
 21
2426.7390180000002
 31
0.0
  0
LINE
  5
7AAD
  8
1
  6
CONTINUOUS
 10
4256.4082969999999
 20
2316.7390179999989
 30
0.0
 11
5176.4082969999999
 21
2316.7390179999989
 31
0.0
  0
LINE
  5
7AAE
  8
1
  6
CONTINUOUS
 10
4454.408296999999
 20
2674.7390179999989
 30
0.0
 11
5124.4082969999999
 21
2674.7390179999989
 31
0.0
  0
LINE
  5
7AAF
  8
1
  6
CONTINUOUS
 10
4454.408296999999
 20
3599.7390179999989
 30
0.0
 11
5124.4082969999999
 21
3599.7390179999989
 31
0.0
  0
LINE
  5
7AB0
  8
1
  6
CONTINUOUS
 10
4454.408296999999
 20
4202.5353610000002
 30
0.0
 11
5124.4082969999999
 21
4202.5353610000002
 31
0.0
  0
LINE
  5
7AB1
  8
1
  6
CONTINUOUS
 10
4256.4082969999999
 20
2557.7390179999989
 30
0.0
 11
5176.4082969999999
 21
2557.7390179999989
 31
0.0
  0
LINE
  5
7AB2
  8
1
  6
CONTINUOUS
 10
4454.408296999999
 20
3599.7390179999989
 30
0.0
 11
5124.4082969999999
 21
2674.7390179999989
 31
0.0
  0
LINE
  5
7AB3
  8
1
  6
CONTINUOUS
 10
4454.408296999999
 20
2674.7390179999989
 30
0.0
 11
5124.4082969999999
 21
3599.7390179999989
 31
0.0
  0
LINE
  5
7AB4
  8
1
  6
CONTINUOUS
 10
4256.4082969999999
 20
2416.7390179999989
 30
0.0
 11
5176.4082969999999
 21
2416.7390179999989
 31
0.0
  0
LINE
  5
7AB5
  8
1
  6
CONTINUOUS
 10
4256.4082969999999
 20
2457.7390179999989
 30
0.0
 11
5176.4082969999999
 21
2457.7390179999989
 31
0.0
  0
LINE
  5
7AB6
  8
1
  6
CONTINUOUS
 10
4401.408296999999
 20
3997.7390180000002
 30
0.0
 11
4401.408296999999
 21
2557.7390179999989
 31
0.0
  0
LINE
  5
7AB7
  8
1
  6
CONTINUOUS
 10
4179.4082969999999
 20
3997.7390180000002
 30
0.0
 11
4179.4082969999999
 21
2557.7390179999989
 31
0.0
  0
LINE
  5
7AB8
  8
1
  6
CONTINUOUS
 10
4368.4082969999999
 20
3811.7390180000002
 30
0.0
 11
4368.4082969999999
 21
3303.7390179999989
 31
0.0
  0
LINE
  5
7AB9
  8
1
  6
CONTINUOUS
 10
2510.3053989999989
 20
2567.7390180000002
 30
0.0
 11
2510.3053989999989
 21
3997.7390180000002
 31
0.0
  0
LINE
  5
7ABA
  8
1
  6
CONTINUOUS
 10
4264.4082969999999
 20
3811.7390180000002
 30
0.0
 11
4264.4082969999999
 21
3303.7390179999989
 31
0.0
  0
LINE
  5
7ABB
  8
1
  6
CONTINUOUS
 10
4454.408296999999
 20
4202.5353610000002
 30
0.0
 11
4454.408296999999
 21
2557.7390179999989
 31
0.0
  0
LINE
  5
7ABD
  8
1
  6
CONTINUOUS
 10
2645.3053989999999
 20
3599.7390179999989
 30
0.0
 11
2645.3053989999999
 21
2676.0825289999998
 31
0.0
  0
LINE
  5
7ABE
  8
1
  6
CONTINUOUS
 10
2685.3053989999999
 20
3642.2390180000002
 30
0.0
 11
2685.3053989999999
 21
2632.2390179999989
 31
0.0
  0
LINE
  5
7ABF
  8
1
  6
CONTINUOUS
 10
2600.3053989999989
 20
2567.7390180000002
 30
0.0
 11
2600.3053989999989
 21
2467.7390180000002
 31
0.0
  0
LINE
  5
7AC0
  8
1
  6
CONTINUOUS
 10
2598.2741259999998
 20
3599.7390179999989
 30
0.0
 11
2685.3053989999999
 21
3599.7390179999989
 31
0.0
  0
LINE
  5
7AC1
  8
1
  6
CONTINUOUS
 10
4256.4082969999999
 20
2557.7390179999989
 30
0.0
 11
4256.4082969999999
 21
2457.7390179999989
 31
0.0
  0
LINE
  5
7AC2
  8
1
  6
CONTINUOUS
 10
4179.4082969999999
 20
2557.7390179999989
 30
0.0
 11
4256.4082969999999
 21
2557.7390179999989
 31
0.0
  0
LINE
  5
7AC3
  8
1
  6
CONTINUOUS
 10
4368.4082969999999
 20
2882.7390180000002
 30
0.0
 11
4368.4082969999999
 21
2732.7390180000002
 31
0.0
  0
LINE
  5
7AC4
  8
1
  6
CONTINUOUS
 10
4264.4082969999999
 20
2882.7390180000002
 30
0.0
 11
4264.4082969999999
 21
2732.7390180000002
 31
0.0
  0
LINE
  5
7AC5
  8
1
  6
CONTINUOUS
 10
4368.4082969999999
 20
2786.7390180000002
 30
0.0
 11
4454.408296999999
 21
2786.7390180000002
 31
0.0
  0
LINE
  5
7AC6
  8
1
  6
CONTINUOUS
 10
4368.4082969999999
 20
2828.7390180000002
 30
0.0
 11
4454.408296999999
 21
2828.7390180000002
 31
0.0
  0
LINE
  5
7AC7
  8
1
  6
CONTINUOUS
 10
4264.4082969999999
 20
2732.7390180000002
 30
0.0
 11
4368.4082969999999
 21
2732.7390180000002
 31
0.0
  0
LINE
  5
7AC8
  8
1
  6
CONTINUOUS
 10
4264.4082969999999
 20
2882.7390180000002
 30
0.0
 11
4368.4082969999999
 21
2882.7390180000002
 31
0.0
  0
LINE
  5
7AC9
  8
1
  6
CONTINUOUS
 10
4368.4082969999999
 20
3532.7390180000002
 30
0.0
 11
4454.408296999999
 21
3532.7390180000002
 31
0.0
  0
LINE
  5
7ACA
  8
1
  6
CONTINUOUS
 10
4368.4082969999999
 20
3582.7390180000002
 30
0.0
 11
4454.408296999999
 21
3582.7390180000002
 31
0.0
  0
LINE
  5
7ACB
  8
1
  6
CONTINUOUS
 10
4264.4082969999999
 20
3303.7390179999989
 30
0.0
 11
4368.4082969999999
 21
3303.7390179999989
 31
0.0
  0
LINE
  5
7ACC
  8
1
  6
CONTINUOUS
 10
4179.4082969999999
 20
3997.7390180000002
 30
0.0
 11
4401.408296999999
 21
3997.7390180000002
 31
0.0
  0
LINE
  5
7ACD
  8
1
  6
CONTINUOUS
 10
4264.4082969999999
 20
3811.7390180000002
 30
0.0
 11
4368.4082969999999
 21
3811.7390180000002
 31
0.0
  0
LINE
  5
7ACE
  8
1
  6
CONTINUOUS
 10
5124.4082969999999
 20
4202.5353610000002
 30
0.0
 11
5124.4082969999999
 21
2557.7390179999989
 31
0.0
  0
LINE
  5
7ACF
  8
1
  6
CONTINUOUS
 10
5176.4082969999999
 20
2557.7390179999989
 30
0.0
 11
5176.4082969999999
 21
2457.7390179999989
 31
0.0
  0
LINE
  5
7AD0
  8
1
  6
CONTINUOUS
 10
2600.3053989999989
 20
6364.8373159999992
 30
0.0
 11
850.30539899999985
 21
6364.8373159999992
 31
0.0
  0
LINE
  5
7AD1
  8
1
  6
CONTINUOUS
 10
870.30539899999985
 20
5419.8373159999992
 30
0.0
 11
2510.3053989999989
 21
5419.8373159999992
 31
0.0
  0
LINE
  5
7AD2
  8
1
  6
CONTINUOUS
 10
870.30539899999985
 20
5589.8373159999992
 30
0.0
 11
2510.3053989999989
 21
5589.8373159999992
 31
0.0
  0
LINE
  5
7AD3
  8
1
  6
CONTINUOUS
 10
2685.3053989999999
 20
5642.8373159999992
 30
0.0
 11
1285.138126999999
 21
5642.8373159999992
 31
0.0
  0
LINE
  5
7AD4
  8
1
  6
CONTINUOUS
 10
2685.3053989999999
 20
6312.8373159999992
 30
0.0
 11
1285.138126999999
 21
6312.8373159999992
 31
0.0
  0
LINE
  5
7AD5
  8
1
  6
CONTINUOUS
 10
2600.3053989999989
 20
5444.8373160000001
 30
0.0
 11
850.30539899999985
 21
5444.8373160000001
 31
0.0
  0
LINE
  5
7AD6
  8
1
  6
CONTINUOUS
 10
888.30539899999997
 20
5600.8373159999992
 30
0.0
 11
888.30539899999997
 21
6085.8373159999992
 31
0.0
  0
LINE
  5
7AD7
  8
1
  6
CONTINUOUS
 10
1212.3053990000001
 20
5600.8373159999992
 30
0.0
 11
1212.3053990000001
 21
6085.8373159999992
 31
0.0
  0
LINE
  5
7AD8
  8
1
  6
CONTINUOUS
 10
1285.138126999999
 20
5642.8373159999992
 30
0.0
 11
1285.138126999999
 21
6312.8373159999992
 31
0.0
  0
LINE
  5
7AD9
  8
1
  6
CONTINUOUS
 10
850.30539899999985
 20
5444.8373160000001
 30
0.0
 11
850.30539899999985
 21
6364.8373159999992
 31
0.0
  0
LINE
  5
7ADA
  8
1
  6
CONTINUOUS
 10
888.30539899999997
 20
5600.8373159999992
 30
0.0
 11
1212.3053990000001
 21
5600.8373159999992
 31
0.0
  0
LINE
  5
7ADB
  8
1
  6
CONTINUOUS
 10
975.30539899999985
 20
5452.8373160000001
 30
0.0
 11
1125.3053990000001
 21
5452.8373160000001
 31
0.0
  0
LINE
  5
7ADC
  8
1
  6
CONTINUOUS
 10
975.30539899999985
 20
5556.8373159999992
 30
0.0
 11
1125.3053990000001
 21
5556.8373159999992
 31
0.0
  0
LINE
  5
7ADD
  8
1
  6
CONTINUOUS
 10
870.30539899999985
 20
5419.8373159999992
 30
0.0
 11
870.30539899999985
 21
5589.8373159999992
 31
0.0
  0
LINE
  5
7ADE
  8
1
  6
CONTINUOUS
 10
975.30539899999985
 20
5452.8373160000001
 30
0.0
 11
975.30539899999985
 21
5556.8373159999992
 31
0.0
  0
LINE
  5
7ADF
  8
1
  6
CONTINUOUS
 10
1125.3053990000001
 20
5452.8373160000001
 30
0.0
 11
1125.3053990000001
 21
5556.8373159999992
 31
0.0
  0
LINE
  5
7AE0
  8
1
  6
CONTINUOUS
 10
1029.3053990000001
 20
5556.8373159999992
 30
0.0
 11
1029.3053990000001
 21
5600.8373159999992
 31
0.0
  0
LINE
  5
7AE1
  8
1
  6
CONTINUOUS
 10
1071.3053990000001
 20
5556.8373159999992
 30
0.0
 11
1071.3053990000001
 21
5600.8373159999992
 31
0.0
  0
LINE
  5
7AE2
  8
1
  6
CONTINUOUS
 10
888.30539899999997
 20
6085.8373159999992
 30
0.0
 11
1212.3053990000001
 21
6085.8373159999992
 31
0.0
  0
LINE
  5
7AE3
  8
1
  6
CONTINUOUS
 10
1776.3053989999989
 20
5452.8373160000001
 30
0.0
 11
2284.3053989999989
 21
5452.8373160000001
 31
0.0
  0
LINE
  5
7AE4
  8
1
  6
CONTINUOUS
 10
1776.3053989999989
 20
5556.8373159999992
 30
0.0
 11
2284.3053989999989
 21
5556.8373159999992
 31
0.0
  0
LINE
  5
7AE5
  8
1
  6
CONTINUOUS
 10
1776.3053989999989
 20
5452.8373160000001
 30
0.0
 11
1776.3053989999989
 21
5556.8373159999992
 31
0.0
  0
LINE
  5
7AE6
  8
1
  6
CONTINUOUS
 10
2005.3053990000001
 20
5556.8373159999992
 30
0.0
 11
2005.3053990000001
 21
5642.8373159999992
 31
0.0
  0
LINE
  5
7AE7
  8
1
  6
CONTINUOUS
 10
2055.3053989999989
 20
5556.8373159999992
 30
0.0
 11
2055.3053989999989
 21
5642.8373159999992
 31
0.0
  0
LINE
  5
7AE8
  8
1
  6
CONTINUOUS
 10
2284.3053989999989
 20
5452.8373160000001
 30
0.0
 11
2284.3053989999989
 21
5556.8373159999992
 31
0.0
  0
LINE
  5
7AE9
  8
1
  6
CONTINUOUS
 10
2645.3053989999999
 20
5642.8373159999992
 30
0.0
 11
2645.3053989999999
 21
6312.8373159999992
 31
0.0
  0
LINE
  5
7AEA
  8
1
  6
CONTINUOUS
 10
2685.3053989999999
 20
5600.8373159999992
 30
0.0
 11
2685.3053989999999
 21
6354.8373159999992
 31
0.0
  0
LINE
  5
7AEB
  8
1
  6
CONTINUOUS
 10
2510.3053989999989
 20
5419.8373159999992
 30
0.0
 11
2510.3053989999989
 21
5589.8373159999992
 31
0.0
  0
LINE
  5
7AEC
  8
1
  6
CONTINUOUS
 10
2600.3053989999989
 20
5444.8373160000001
 30
0.0
 11
2600.3053989999989
 21
5642.8373159999992
 31
0.0
  0
LINE
  5
7AED
  8
1
  6
CONTINUOUS
 10
2600.3053989999989
 20
6312.8373159999992
 30
0.0
 11
2600.3053989999989
 21
6364.8373159999992
 31
0.0
  0
LINE
  5
7B0B
  8
2
  6
CENTER
 10
778.64124100000004
 20
5977.8373159999992
 30
0.0
 11
2819.9864059999991
 21
5977.8373159999992
 31
0.0
  0
LINE
  5
7B0C
  8
2
  6
CENTER
 10
4789.4082969999999
 20
4345.5863259999987
 30
0.0
 11
4789.4082969999999
 21
2143.7885919999999
 31
0.0
  0
LINE
  5
7B0D
  8
2
  6
CENTER
 10
2030.3053989999989
 20
5334.3734629999999
 30
0.0
 11
2030.3053989999989
 21
6491.3855160000003
 31
0.0
  0
LINE
  5
7B0E
  8
2
  6
CENTER
 10
4110.7134689999993
 20
3557.7390180000002
 30
0.0
 11
5199.3047889999998
 21
3557.7390180000002
 31
0.0
  0
LINE
  5
7B0F
  8
4
  6
CONTINUOUS
 10
5550.0
 20
1500.0
 30
0.0
 11
5550.0
 21
900.0
 31
0.0
  0
LINE
  5
7B10
  8
4
  6
CONTINUOUS
 10
3450.0
 20
1500.0
 30
0.0
 11
3450.0
 21
900.0
 31
0.0
  0
LINE
  5
7B11
  8
4
  6
CONTINUOUS
 10
1950.0
 20
1500.0
 30
0.0
 11
1950.0
 21
900.0
 31
0.0
  0
LINE
  5
7B14
  8
4
  6
CONTINUOUS
 10
1950.0
 20
900.0
 30
0.0
 11
5550.0
 21
900.0
 31
0.0
  0
LINE
  5
7B15
  8
4
  6
CONTINUOUS
 10
1950.0
 20
1200.0
 30
0.0
 11
5550.0
 21
1200.0
 31
0.0
  0
TEXT
  5
7B16
  8
4
  6
CONTINUOUS
 10
2065.5062429999989
 20
1294.6290779999999
 30
0.0
 40
150.0
  1
機器名称
  0
TEXT
  5
7B17
  8
4
  6
CONTINUOUS
 10
2058.7743179999989
 20
964.9354699999999
 30
0.0
 40
150.0
  1
機器型番
  0
TEXT
  5
7B18
  8
4
  6
CONTINUOUS
 10
3533.0362359999999
 20
1267.7153069999999
 30
0.0
 40
150.0
  1
ミツヤ多翼送風機
  0
TEXT
  5
7B19
  8
4
  6
CONTINUOUS
 10
3559.9634869999991
 20
951.47875299999987
 30
0.0
 40
150.0
  1
MF#5 1/2-4
  0
TEXT
  5
7B1B
  8
4
  6
CONTINUOUS
 10
2253.3475050000002
 20
7150.2865239999992
 30
0.0
 40
162.0
  1
床置防振ベット
  0
TEXT
  5
7B1C
  8
4
  6
CONTINUOUS
 10
948.50278000000014
 20
7601.6429289999996
 30
0.0
 40
216.0
  1
ベルト駆動式片吸込両持多翼ファン
  0
LINE
  5
7B1D
  8
4
  6
CONTINUOUS
 10
750.0
 20
7408.2262629999996
 30
0.0
 11
5550.0
 21
7408.2262629999996
 31
0.0
  0
LINE
  5
7B1E
  8
4
  6
CONTINUOUS
 10
750.0
 20
8008.2262629999996
 30
0.0
 11
5550.0
 21
8008.2262629999996
 31
0.0
  0
LINE
  5
7B1F
  8
4
  6
CONTINUOUS
 10
1950.0
 20
1500.0
 30
0.0
 11
5550.0
 21
1500.0
 31
0.0
  0
LINE
  5
7B20
  8
4
  6
CONTINUOUS
 10
750.0
 20
8008.2262629999996
 30
0.0
 11
750.0
 21
7408.2262629999996
 31
0.0
  0
TEXT
  5
7B21
  8
4
  6
CONTINUOUS
 10
945.77100800000005
 20
7146.9584329999998
 30
0.0
 40
162.0
  1
左回転右横向
  0
TEXT
  5
7B22
  8
4
  6
CONTINUOUS
 10
4406.9086779999989
 20
8118.1832439999989
 30
0.0
 40
168.0
  1
No.
  0
TEXT
  5
7B23
  8
4
  6
CONTINUOUS
 10
3933.8881879999999
 20
7150.2865239999992
 30
0.0
 40
162.0
  1
縮尺：1/30
  0
LINE
  5
7B24
  8
4
  6
CONTINUOUS
 10
5550.0
 20
8008.2262629999996
 30
0.0
 11
5550.0
 21
7408.2262629999996
 31
0.0
  0
LINE
  5
7B26
  8
4
  6
CONTINUOUS
 10
4321.8522670000002
 20
8043.7907490000007
 30
0.0
 11
4321.8522670000002
 21
8359.9567849999985
 31
0.0
  0
LINE
  5
7B27
  8
4
  6
CONTINUOUS
 10
4321.8522670000002
 20
8359.9567849999985
 30
0.0
 11
5550.0
 21
8359.9567849999985
 31
0.0
  0
LINE
  5
7B28
  8
4
  6
CONTINUOUS
 10
5550.0
 20
8359.9567849999985
 30
0.0
 11
5550.0
 21
8043.7907490000007
 31
0.0
  0
LINE
  5
7B29
  8
4
  6
CONTINUOUS
 10
5550.0
 20
8043.7907490000007
 30
0.0
 11
4321.8522670000002
 21
8043.7907490000007
 31
0.0
  0
DIMENSION
  5
7B3A
  8
3
  6
CONTINUOUS
  2
*D1
 10
2959.925718
 20
2674.7390179999989
 30
0.0
 11
2959.925718
 21
3162.5880710000001
 31
0.0
 70
   128
 13
2685.3053989999999
 23
3599.7390179999989
 33
0.0
 14
2685.3053989999999
 24
2674.7390179999989
 34
0.0
 50
90.0
1001
ACAD
1000
DSTYLE
1002
{
1070
   287
1070
     3
1070
    40
1040
30.0
1070
   143
1040
0.039
1070
   172
1070
     1
1070
   271
1070
     0
1070
   279
1070
     0
1070
   288
1070
     1
1002
}
  0
DIMENSION
  5
7B47
  8
3
  6
CONTINUOUS
  2
*D2
 10
3169.0105510000012
 20
2674.7390179999989
 30
0.0
 11
3169.0105509999999
 21
3162.5880710000001
 31
0.0
 70
   128
 13
2819.9864059999991
 23
3557.7390180000002
 33
0.0
 14
2685.3053989999999
 24
2674.7390179999989
 34
0.0
 50
90.0
1001
ACAD
1000
DSTYLE
1002
{
1070
   287
1070
     3
1070
    40
1040
30.0
1070
   143
1040
0.039
1070
   172
1070
     1
1070
   271
1070
     0
1070
   279
1070
     0
1070
   288
1070
     1
1002
}
  0
DIMENSION
  5
7B8A
  8
3
  6
CONTINUOUS
  2
*D3
 10
2030.3053989999989
 20
2091.9699909999999
 30
0.0
 11
1478.4103110000001
 21
2091.9699909999999
 31
0.0
 70
   128
 13
850.30539899999985
 23
2326.7390180000002
 33
0.0
 14
2030.3053989999989
 24
2238.5028739999989
 34
0.0
1001
ACAD
1000
DSTYLE
1002
{
1070
   287
1070
     3
1070
    40
1040
30.0
1070
   143
1040
0.039
1070
   172
1070
     1
1070
   271
1070
     0
1070
   279
1070
     0
1070
   288
1070
     1
1002
}
  0
DIMENSION
  5
7B96
  8
3
  6
CONTINUOUS
  2
*D4
 10
2600.3053989999989
 20
2091.9699909999999
 30
0.0
 11
2315.3053989999999
 21
2166.969990999999
 31
0.0
 70
     0
 13
2030.3053989999989
 23
2238.5028739999989
 33
0.0
 14
2600.3053989999989
 24
2326.7390180000002
 34
0.0
1001
ACAD
1000
DSTYLE
1002
{
1070
   287
1070
     4
1070
    40
1040
30.0
1070
    75
1070
     1
1070
   143
1040
0.039
1070
   172
1070
     1
1070
   271
1070
     0
1070
   279
1070
     1
1070
   288
1070
     1
1002
}
  0
DIMENSION
  5
7BA3
  8
3
  6
CONTINUOUS
  2
*D5
 10
2030.3053989999989
 20
4424.3953067318744
 30
0.0
 11
2380.4620329999998
 21
4424.3953067318744
 31
0.0
 70
   128
 13
2685.3053989999999
 23
3642.2390180000002
 33
0.0
 14
2030.3053989999989
 24
4325.8951861696041
 34
0.0
1001
ACAD
1000
DSTYLE
1002
{
1070
   287
1070
     3
1070
    40
1040
30.0
1070
   143
1040
0.039
1070
   172
1070
     1
1070
   271
1070
     0
1070
   279
1070
     0
1070
   288
1070
     1
1002
}
  0
DIMENSION
  5
7BBC
  8
3
  6
CONTINUOUS
  2
*D6
 10
4454.408296999999
 20
4332.7601569999997
 30
0.0
 11
4787.1089519999996
 21
4332.7601569999997
 31
0.0
 70
   128
 13
5124.4082969999999
 23
4202.5353610000002
 33
0.0
 14
4454.408296999999
 24
4202.5353610000002
 34
0.0
1001
ACAD
1000
DSTYLE
1002
{
1070
   287
1070
     3
1070
    40
1040
30.0
1070
   143
1040
0.039
1070
   172
1070
     1
1070
   271
1070
     0
1070
   279
1070
     0
1070
   288
1070
     1
1002
}
  0
LINE
  5
7BBD
  8
1
  6
CONTINUOUS
 10
5128.4082969999999
 20
4032.7390180000002
 30
0.0
 11
5128.4082969999999
 21
3082.7390179999989
 31
0.0
  0
DIMENSION
  5
7BCD
  8
3
  6
CONTINUOUS
  2
*D7
 10
5378.520356
 20
3082.7390179999989
 30
0.0
 11
5378.520356
 21
3562.5958890000002
 31
0.0
 70
   128
 13
5128.4082969999999
 23
4032.7390180000002
 33
0.0
 14
5128.4082969999999
 24
3082.7390179999989
 34
0.0
 50
90.0
1001
ACAD
1000
DSTYLE
1002
{
1070
   288
1070
     1
1070
   172
1070
     1
1070
    40
1040
30.0
1070
     3
1000
φ<>
1070
   271
1070
     0
1070
   143
1040
0.039
1002
}
  0
DIMENSION
  5
7BDC
  8
3
  6
CONTINUOUS
  2
*D8
 10
4789.4082969999999
 20
4536.7897773997174
 30
0.0
 11
4958.9082969999999
 21
4621.6385483819759
 31
0.0
 70
   128
 13
5128.4082969999999
 23
4032.7390180000002
 33
0.0
 14
4789.4082969999999
 24
4471.8787860000002
 34
0.0
1001
ACAD
1000
DSTYLE
1002
{
1070
   288
1070
     1
1070
   172
1070
     1
1070
    40
1040
30.0
1070
   271
1070
     0
1070
   143
1040
0.039
1002
}
  0
DIMENSION
  5
7BE8
  8
3
  6
CONTINUOUS
  2
*D9
 10
4179.4082969999999
 20
4536.7897773997174
 30
0.0
 11
4484.4082969999999
 21
4686.7897773997183
 31
0.0
 70
     0
  1
MAX\P640
 13
4789.4082969999999
 23
4471.8787860000002
 33
0.0
 14
4179.4082969999999
 24
3997.7390180000002
 34
0.0
1001
ACAD
1000
DSTYLE
1002
{
1070
   287
1070
     4
1070
    40
1040
30.0
1070
    75
1070
     1
1070
   143
1040
0.039
1070
   172
1070
     1
1070
   271
1070
     0
1070
   279
1070
     1
1070
   288
1070
     1
1002
}
  0
DIMENSION
  5
7BF5
  8
3
  6
CONTINUOUS
  2
*D10
 10
4789.4082969999999
 20
2054.719012
 30
0.0
 11
4536.2071649999989
 21
2054.719012
 31
0.0
 70
   128
 13
4256.4082969999999
 23
2316.7390179999989
 33
0.0
 14
4789.4082969999999
 24
2143.7885919999999
 34
0.0
1001
ACAD
1000
DSTYLE
1002
{
1070
   287
1070
     3
1070
    40
1040
30.0
1070
   143
1040
0.039
1070
   172
1070
     1
1070
   271
1070
     0
1070
   279
1070
     0
1070
   288
1070
     1
1002
}
  0
DIMENSION
  5
7C03
  8
3
  6
CONTINUOUS
  2
*D11
 10
5176.4082969999999
 20
2054.719012
 30
0.0
 11
4975.2523760000004
 21
2054.2839090000002
 31
0.0
 70
   128
 13
4789.4082969999999
 23
2143.7885919999999
 33
0.0
 14
5176.4082969999999
 24
2316.7390179999989
 34
0.0
1001
ACAD
1000
DSTYLE
1002
{
1070
   287
1070
     4
1070
    40
1040
30.0
1070
    75
1070
     1
1070
   143
1040
0.039
1070
   172
1070
     1
1070
   271
1070
     0
1070
   279
1070
     1
1070
   288
1070
     1
1002
}
  0
DIMENSION
  5
7C27
  8
3
  6
CONTINUOUS
  2
*D12
 10
2600.3053989999989
 20
6577.5771939999986
 30
0.0
 11
1669.573596
 21
6577.5771939999986
 31
0.0
 70
   128
 13
850.30539899999985
 23
6364.8373159999992
 33
0.0
 14
2600.3053989999989
 24
6364.8373159999992
 34
0.0
1001
ACAD
1000
DSTYLE
1002
{
1070
   287
1070
     3
1070
    40
1040
30.0
1070
   143
1040
0.039
1070
   172
1070
     1
1070
   271
1070
     0
1070
   279
1070
     0
1070
   288
1070
     1
1002
}
  0
DIMENSION
  5
7C34
  8
3
  6
CONTINUOUS
  2
*D13
 10
2983.8211249999999
 20
5444.8373160000001
 30
0.0
 11
2983.8211249999999
 21
5938.7587649999996
 31
0.0
 70
   128
 13
2600.3053989999989
 23
6364.8373159999992
 33
0.0
 14
2600.3053989999989
 24
5444.8373160000001
 34
0.0
 50
90.0
1001
ACAD
1000
DSTYLE
1002
{
1070
   287
1070
     3
1070
    40
1040
30.0
1070
   143
1040
0.039
1070
   172
1070
     1
1070
   271
1070
     0
1070
   279
1070
     0
1070
   288
1070
     1
1002
}
  0
DIMENSION
  5
7C46
  8
3
  6
CONTINUOUS
  2
*D14
 10
3412.0848299999998
 20
3557.7390179999989
 30
0.0
 11
3412.0848299999989
 21
3885.8269959999998
 31
0.0
 70
   128
 13
2030.3053989999989
 23
4200.7339609917317
 33
0.0
 14
2819.9864059999991
 24
3557.7390180000002
 34
0.0
 50
90.0
1001
ACAD
1000
DSTYLE
1002
{
1070
   287
1070
     3
1070
    40
1040
30.0
1070
   143
1040
0.039
1070
   172
1070
     1
1070
   271
1070
     0
1070
   279
1070
     0
1070
   288
1070
     1
1002
}
  0
DIMENSION
  5
7C52
  8
3
  6
CONTINUOUS
  2
*D15
 10
3412.0848299999989
 20
2467.7390179999989
 30
0.0
 11
3337.0848299999989
 21
3012.7390180000002
 31
0.0
 70
     0
 13
2819.9864059999991
 23
3557.7390180000002
 33
0.0
 14
2600.3053989999989
 24
2467.7390180000002
 34
0.0
 50
90.0
1001
ACAD
1000
DSTYLE
1002
{
1070
   287
1070
     4
1070
    40
1040
30.0
1070
    75
1070
     1
1070
   143
1040
0.039
1070
   172
1070
     1
1070
   271
1070
     0
1070
   279
1070
     1
1070
   288
1070
     1
1002
}
  0
DIMENSION
  5
7C62
  8
3
  6
CONTINUOUS
  2
*D16
 10
3412.0848299999998
 20
2326.7390179999989
 30
0.0
 11
3412.0848299999989
 21
2088.8818751428571
 31
0.0
 70
   128
 13
2600.3053989999989
 23
2467.7390180000002
 33
0.0
 14
2600.3053989999989
 24
2326.7390180000002
 34
0.0
 50
90.0
1001
ACAD
1000
DSTYLE
1002
{
1070
   287
1070
     3
1070
    40
1040
30.0
1070
   143
1040
0.039
1070
   172
1070
     1
1070
   271
1070
     0
1070
   279
1070
     0
1070
   288
1070
     1
1002
}
  0
DIMENSION
  5
7C95
  8
3
  6
CONTINUOUS
  2
*D17
 10
1287.3053970000001
 20
4424.3953067318744
 30
0.0
 11
1658.805398
 21
4499.3953067318744
 31
0.0
 70
     0
 13
2030.3053989999989
 23
4325.8951861696041
 33
0.0
 14
1287.3053970000001
 24
3557.7390180000002
 34
0.0
1001
ACAD
1000
DSTYLE
1002
{
1070
   287
1070
     4
1070
    40
1040
30.0
1070
    75
1070
     1
1070
   143
1040
0.039
1070
   172
1070
     1
1070
   271
1070
     0
1070
   279
1070
     1
1070
   288
1070
     1
1002
}
  0
DIMENSION
  5
7D71
  8
3
  2
*D18
 10
850.30539899999985
 20
4608.6574239822594
 30
0.0
 11
1757.592050388502
 21
4608.6574239822594
 31
0.0
 70
   128
 13
2685.3053989999999
 23
3642.2390180000002
 33
0.0
 14
850.30539899999974
 24
2567.7390180000002
 34
0.0
1001
ACAD
1000
DSTYLE
1002
{
1070
   287
1070
     3
1070
    40
1040
30.0
1070
   143
1040
0.039
1070
   172
1070
     1
1070
   271
1070
     0
1070
   279
1070
     0
1070
   288
1070
     1
1002
}
  0
LINE
  5
7DDC
  8
1
  6
CONTINUOUS
 10
1470.3053989999989
 20
3687.7390180000002
 30
0.0
 11
2590.3053989999999
 21
3687.7390180000002
 31
0.0
  0
LINE
  5
7DDD
  8
1
 10
1470.3053990000001
 20
2567.7390180000002
 30
0.0
 11
1470.3053989999989
 21
3687.7390180000002
 31
0.0
  0
LINE
  5
7DDE
  8
1
 10
2590.3053989999999
 20
2567.7390180000002
 30
0.0
 11
2590.3053989999999
 21
3687.7390180000002
 31
0.0
  0
ENDSEC
  0
EOF
