  0
SECTION
  2
HEADER
  9
$ACADVER
  1
AC1009
  9
$INSBASE
 10
0.0
 20
0.0
 30
0.0
  9
$EXTMIN
 10
750.0
 20
900.0
 30
0.0
  9
$EXTMAX
 10
5550.0
 20
8359.9567849999985
 30
0.0
  9
$LIMMIN
 10
0.0
 20
0.0
  9
$LIMMAX
 10
297.0
 20
210.0
  9
$ORTHOMODE
 70
     0
  9
$REGENMODE
 70
     1
  9
$FILLMODE
 70
     0
  9
$QTEXTMODE
 70
     0
  9
$MIRRTEXT
 70
     1
  9
$DRAGMODE
 70
     2
  9
$LTSCALE
 40
100.0
  9
$OSMODE
 70
    37
  9
$ATTMODE
 70
     1
  9
$TEXTSIZE
 40
180.0
  9
$TRACEWID
 40
0.05
  9
$TEXTSTYLE
  7
STANDARD
  9
$CLAYER
  8
3
  9
$CELTYPE
  6
BYLAYER
  9
$CECOLOR
 62
   256
  9
$DIMSCALE
 40
30.0
  9
$DIMASZ
 40
2.0
  9
$DIMEXO
 40
0.5
  9
$DIMDLI
 40
10.0
  9
$DIMRND
 40
0.0
  9
$DIMDLE
 40
0.0
  9
$DIMEXE
 40
1.0
  9
$DIMTP
 40
1.0
  9
$DIMTM
 40
1.0
  9
$DIMTXT
 40
3.0
  9
$DIMCEN
 40
0.0
  9
$DIMTSZ
 40
0.0
  9
$DIMTOL
 70
     0
  9
$DIMLIM
 70
     0
  9
$DIMTIH
 70
     0
  9
$DIMTOH
 70
     0
  9
$DIMSE1
 70
     0
  9
$DIMSE2
 70
     0
  9
$DIMTAD
 70
     1
  9
$DIMZIN
 70
     8
  9
$DIMBLK
  1

  9
$DIMASO
 70
     1
  9
$DIMSHO
 70
     1
  9
$DIMPOST
  1

  9
$DIMAPOST
  1

  9
$DIMALT
 70
     0
  9
$DIMALTD
 70
     2
  9
$DIMALTF
 40
0.039
  9
$DIMLFAC
 40
1.0
  9
$DIMTOFL
 70
     1
  9
$DIMTVP
 40
0.0
  9
$DIMTIX
 70
     0
  9
$DIMSOXD
 70
     0
  9
$DIMSAH
 70
     1
  9
$DIMBLK1
  1
OPEN
  9
$DIMBLK2
  1
OPEN
  9
$DIMSTYLE
  2
IGA
  9
$DIMCLRD
 70
     0
  9
$DIMCLRE
 70
     0
  9
$DIMCLRT
 70
     0
  9
$DIMTFAC
 40
10.0
  9
$DIMGAP
 40
1.0
  9
$LUNITS
 70
     2
  9
$LUPREC
 70
     3
  9
$SKETCHINC
 40
0.1
  9
$FILLETRAD
 40
50.0
  9
$AUNITS
 70
     0
  9
$AUPREC
 70
     0
  9
$MENU
  1
acad
  9
$ELEVATION
 40
0.0
  9
$PELEVATION
 40
0.0
  9
$THICKNESS
 40
0.0
  9
$LIMCHECK
 70
     0
  9
$BLIPMODE
 70
     0
  9
$CHAMFERA
 40
0.5
  9
$CHAMFERB
 40
0.5
  9
$SKPOLY
 70
     0
  9
$TDCREATE
 40
2450749.6555554392
  9
$TDUPDATE
 40
2454953.7772099189
  9
$TDINDWG
 40
0.0123110648
  9
$TDUSRTIMER
 40
0.0123110648
  9
$USRTIMER
 70
     1
  9
$ANGBASE
 50
0.0
  9
$ANGDIR
 70
     0
  9
$PDMODE
 70
     0
  9
$PDSIZE
 40
0.0
  9
$PLINEWID
 40
0.0
  9
$COORDS
 70
     1
  9
$SPLFRAME
 70
     0
  9
$SPLINETYPE
 70
     6
  9
$SPLINESEGS
 70
     8
  9
$ATTDIA
 70
     0
  9
$ATTREQ
 70
     1
  9
$HANDLING
 70
 10241
  9
$HANDSEED
  5
7F0A
  9
$SURFTAB1
 70
     6
  9
$SURFTAB2
 70
     6
  9
$SURFTYPE
 70
     6
  9
$SURFU
 70
     6
  9
$SURFV
 70
     6
  9
$UCSNAME
  2

  9
$UCSORG
 10
0.0
 20
0.0
 30
0.0
  9
$UCSXDIR
 10
1.0
 20
0.0
 30
0.0
  9
$UCSYDIR
 10
0.0
 20
1.0
 30
0.0
  9
$PUCSNAME
  2

  9
$PUCSORG
 10
0.0
 20
0.0
 30
0.0
  9
$PUCSXDIR
 10
1.0
 20
0.0
 30
0.0
  9
$PUCSYDIR
 10
0.0
 20
1.0
 30
0.0
  9
$USERI1
 70
     0
  9
$USERI2
 70
     0
  9
$USERI3
 70
     0
  9
$USERI4
 70
     0
  9
$USERI5
 70
     0
  9
$USERR1
 40
0.0
  9
$USERR2
 40
0.0
  9
$USERR3
 40
0.0
  9
$USERR4
 40
0.0
  9
$USERR5
 40
0.0
  9
$WORLDVIEW
 70
     1
  9
$SHADEDGE
 70
     3
  9
$SHADEDIF
 70
    70
  9
$TILEMODE
 70
     1
  9
$MAXACTVP
 70
    16
  9
$PLIMCHECK
 70
     0
  9
$PEXTMIN
 10
1.0000000000000000E+020
 20
1.0000000000000000E+020
 30
1.0000000000000000E+020
  9
$PEXTMAX
 10
-1.0000000000000000E+020
 20
-1.0000000000000000E+020
 30
-1.0000000000000000E+020
  9
$PLIMMIN
 10
0.0
 20
0.0
  9
$PLIMMAX
 10
12.0
 20
9.0
  9
$UNITMODE
 70
     0
  9
$VISRETAIN
 70
     0
  9
$PLINEGEN
 70
     0
  9
$PSLTSCALE
 70
     1
  0
ENDSEC
  0
SECTION
  2
TABLES
  0
TABLE
  2
VPORT
 70
     2
  0
VPORT
  2
*ACTIVE
 70
     0
 10
0.0
 20
0.0
 11
1.0
 21
1.0
 12
9438.1687158055174
 22
4629.9562499988788
 13
0.0
 23
0.0
 14
10.0
 24
10.0
 15
10.0
 25
10.0
 16
0.0
 26
0.0
 36
1.0
 17
0.0
 27
0.0
 37
0.0
 40
7517.2452868940854
 41
3.1666666666666661
 42
50.0
 43
0.0
 44
0.0
 50
0.0
 51
0.0
 71
     0
 72
   100
 73
     1
 74
     0
 75
     0
 76
     0
 77
     0
 78
     0
  0
ENDTAB
  0
TABLE
  2
LTYPE
 70
     2
  0
LTYPE
  2
CONTINUOUS
 70
     0
  3
Solid line
 72
    65
 73
     0
 40
0.0
  0
LTYPE
  2
CENTER
 70
     0
  3
____ _ ____ _ ____ _ ____ _ ____ _ ____ _ ____ 
 72
    65
 73
     4
 40
2.0
 49
1.25
 49
-0.25
 49
0.25
 49
-0.25
  0
ENDTAB
  0
TABLE
  2
LAYER
 70
     6
  0
LAYER
  2
0
 70
     0
 62
     7
  6
CONTINUOUS
  0
LAYER
  2
3
 70
     0
 62
     2
  6
CONTINUOUS
  0
LAYER
  2
2
 70
     0
 62
     3
  6
CENTER
  0
LAYER
  2
1
 70
     0
 62
     4
  6
CONTINUOUS
  0
LAYER
  2
4
 70
     0
 62
     7
  6
CONTINUOUS
  0
LAYER
  2
DEFPOINTS
 70
     0
 62
     7
  6
CONTINUOUS
  0
ENDTAB
  0
TABLE
  2
STYLE
 70
     1
  0
STYLE
  2
STANDARD
 70
     0
 40
0.0
 41
1.0
 50
0.0
 71
     0
 42
180.0
  3
simplex.shx
  4
extfont.shx
  0
ENDTAB
  0
TABLE
  2
VIEW
 70
     0
  0
ENDTAB
  0
TABLE
  2
UCS
 70
     0
  0
ENDTAB
  0
TABLE
  2
APPID
 70
     1
  0
APPID
  2
ACAD
 70
     0
  0
ENDTAB
  0
TABLE
  2
DIMSTYLE
 70
     1
  0
DIMSTYLE
  2
IGA
 70
     0
  3

  4

  5

  6
OPEN
  7
OPEN
 40
2.0
 41
2.0
 42
0.5
 43
10.0
 44
1.0
 45
0.0
 46
0.0
 47
1.0
 48
1.0
140
3.0
141
0.0
142
0.0
143
0.03937
144
1.0
145
0.0
146
10.0
147
1.0
 71
     0
 72
     0
 73
     0
 74
     0
 75
     0
 76
     0
 77
     1
 78
     8
170
     0
171
     2
172
     0
173
     1
174
     0
175
     0
176
     0
177
     0
178
     0
  0
ENDTAB
  0
ENDSEC
  0
SECTION
  2
BLOCKS
  0
BLOCK
  8
0
  2
$MODEL_SPACE
 70
     0
 10
0.0
 20
0.0
 30
0.0
  3
$MODEL_SPACE
  1

  0
ENDBLK
  5
1B
  8
0
  0
BLOCK
 67
     1
  8
0
  2
$PAPER_SPACE
 70
     0
 10
0.0
 20
0.0
 30
0.0
  3
$PAPER_SPACE
  1

  0
ENDBLK
  5
18
 67
     1
  8
0
  0
BLOCK
  8
0
  2
_OPEN
 70
     0
 10
0.0
 20
0.0
 30
0.0
  3
_OPEN
  1

  0
LINE
  5
7B82
  8
0
  6
BYBLOCK
 62
     0
 10
-1.0
 20
0.166667
 30
0.0
 11
0.0
 21
0.0
 31
0.0
  0
LINE
  5
7B83
  8
0
  6
BYBLOCK
 62
     0
 10
0.0
 20
0.0
 30
0.0
 11
-1.0
 21
-0.166667
 31
0.0
  0
LINE
  5
7B84
  8
0
  6
BYBLOCK
 62
     0
 10
0.0
 20
0.0
 30
0.0
 11
-1.0
 21
0.0
 31
0.0
  0
ENDBLK
  5
7B85
  8
0
  0
BLOCK
  8
0
  2
*D1
 70
     1
 10
0.0
 20
0.0
 30
0.0
  3
*D1
  1

  0
LINE
  5
7E6C
  8
3
  6
CONTINUOUS
 62
     0
 10
2891.047806999999
 20
3879.204952
 30
0.0
 11
2891.047806999999
 21
4066.8744839999999
 31
0.0
  0
LINE
  5
7E6D
  8
3
  6
CONTINUOUS
 62
     0
 10
1966.047806999999
 20
3879.204952
 30
0.0
 11
1966.047806999999
 21
4066.8744839999999
 31
0.0
  0
LINE
  5
7E6E
  8
3
  6
CONTINUOUS
 62
     0
 10
2831.0478069999999
 20
4036.8744840000008
 30
0.0
 11
2026.0478069999999
 21
4036.8744840000008
 31
0.0
  0
INSERT
  5
7E6F
  8
3
  6
CONTINUOUS
 62
     0
  2
_OPEN
 10
2891.047806999999
 20
4036.8744840000008
 30
0.0
 41
60.0
 42
60.0
 43
60.0
  0
INSERT
  5
7E70
  8
3
  6
CONTINUOUS
 62
     0
  2
_OPEN
 10
1966.047806999999
 20
4036.8744840000008
 30
0.0
 41
60.0
 42
60.0
 43
60.0
 50
180.0
  0
TEXT
  8
3
  40
90
  5
7EF9
  62
0
  72
0
  71
0
 10
2234.40
 20
3952.57
 30
0.000000
  1
925
  0
POINT
  5
7E72
  8
DEFPOINTS
  6
CONTINUOUS
 62
     0
 10
2891.047806999999
 20
3864.204952000001
 30
0.0
  0
POINT
  5
7E73
  8
DEFPOINTS
  6
CONTINUOUS
 62
     0
 10
1966.047806999999
 20
3864.204952000001
 30
0.0
  0
POINT
  5
7E74
  8
DEFPOINTS
  6
CONTINUOUS
 62
     0
 10
1966.047806999999
 20
4036.8744840000008
 30
0.0
  0
ENDBLK
  5
7DAB
  8
0
  0
BLOCK
  8
0
  2
*D2
 70
     1
 10
0.0
 20
0.0
 30
0.0
  3
*D2
  1

  0
LINE
  5
7E75
  8
3
  6
CONTINUOUS
 62
     0
 10
1908.5478069999999
 20
3864.204952000001
 30
0.0
 11
1133.433229
 21
3864.204952000001
 31
0.0
  0
LINE
  5
7E76
  8
3
  6
CONTINUOUS
 62
     0
 10
1240.4750369999999
 20
3209.204952
 30
0.0
 11
1133.433229
 21
3209.204952
 31
0.0
  0
LINE
  5
7E77
  8
3
  6
CONTINUOUS
 62
     0
 10
1163.433229
 20
3804.204952
 30
0.0
 11
1163.433229
 21
3269.2049519999991
 31
0.0
  0
INSERT
  5
7E78
  8
3
  6
CONTINUOUS
 62
     0
  2
_OPEN
 10
1163.433229
 20
3864.204952000001
 30
0.0
 41
60.0
 42
60.0
 43
60.0
 50
90.0
  0
INSERT
  5
7E79
  8
3
  6
CONTINUOUS
 62
     0
  2
_OPEN
 10
1163.433229
 20
3209.204952
 30
0.0
 41
60.0
 42
60.0
 43
60.0
 50
270.0
  0
TEXT
  8
3
  40
90
  5
7EFA
  62
0
  72
0
  71
0
 10
908.433
 20
3370.47
 30
0.000000
  1
655
  0
POINT
  5
7E7B
  8
DEFPOINTS
  6
CONTINUOUS
 62
     0
 10
1923.5478069999999
 20
3864.204952000001
 30
0.0
  0
POINT
  5
7E7C
  8
DEFPOINTS
  6
CONTINUOUS
 62
     0
 10
1255.4750369999999
 20
3209.204952
 30
0.0
  0
POINT
  5
7E7D
  8
DEFPOINTS
  6
CONTINUOUS
 62
     0
 10
1163.433229
 20
3209.204952
 30
0.0
  0
ENDBLK
  5
7BF6
  8
0
  0
BLOCK
  8
0
  2
*D3
 70
     1
 10
0.0
 20
0.0
 30
0.0
  3
*D3
  1

  0
LINE
  5
7E7E
  8
3
  6
CONTINUOUS
 62
     0
 10
1423.0478069999999
 20
2444.204952
 30
0.0
 11
1133.433229
 21
2444.204952
 31
0.0
  0
LINE
  5
7E7F
  8
3
  6
CONTINUOUS
 62
     0
 10
1163.433229
 20
3149.204952
 30
0.0
 11
1163.433229
 21
2504.204952
 31
0.0
  0
INSERT
  5
7E80
  8
3
  6
CONTINUOUS
 62
     0
  2
_OPEN
 10
1163.433229
 20
3209.204952
 30
0.0
 41
60.0
 42
60.0
 43
60.0
 50
90.0
  0
INSERT
  5
7E81
  8
3
  6
CONTINUOUS
 62
     0
  2
_OPEN
 10
1163.433229
 20
2444.204952
 30
0.0
 41
60.0
 42
60.0
 43
60.0
 50
270.0
  0
TEXT
  8
3
  40
90
  5
7EFB
  62
0
  72
0
  71
0
 10
908.433
 20
2667.40
 30
0.000000
  1
765
  0
POINT
  5
7E83
  8
DEFPOINTS
  6
CONTINUOUS
 62
     0
 10
1255.4750369999999
 20
3209.204952
 30
0.0
  0
POINT
  5
7E84
  8
DEFPOINTS
  6
CONTINUOUS
 62
     0
 10
1438.0478069999999
 20
2444.204952
 30
0.0
  0
POINT
  5
7E85
  8
DEFPOINTS
  6
CONTINUOUS
 62
     0
 10
1163.433229
 20
2444.204952
 30
0.0
  0
ENDBLK
  5
7C02
  8
0
  0
BLOCK
  8
0
  2
*D4
 70
     1
 10
0.0
 20
0.0
 30
0.0
  3
*D4
  1

  0
LINE
  5
7E86
  8
3
  6
CONTINUOUS
 62
     0
 10
1423.0478069999999
 20
2444.204952
 30
0.0
 11
1133.127438
 21
2444.204952
 31
0.0
  0
LINE
  5
7E87
  8
3
  6
CONTINUOUS
 62
     0
 10
1423.0478069999999
 20
2303.204952
 30
0.0
 11
1133.127438
 21
2303.204952
 31
0.0
  0
LINE
  5
7E88
  8
3
  6
CONTINUOUS
 62
     0
 10
1163.127438
 20
2504.204952
 30
0.0
 11
1163.127438
 21
2564.204952
 31
0.0
  0
LINE
  5
7E89
  8
3
  6
CONTINUOUS
 62
     0
 10
1163.127438
 20
2243.204952
 30
0.0
 11
1163.127438
 21
1947.490666285714
 31
0.0
  0
LINE
  5
7E8A
  8
3
  6
CONTINUOUS
 62
     0
 10
1163.127438
 20
2444.204952
 30
0.0
 11
1163.127438
 21
2303.204952
 31
0.0
  0
INSERT
  5
7E8B
  8
3
  6
CONTINUOUS
 62
     0
  2
_OPEN
 10
1163.127438
 20
2444.204952
 30
0.0
 41
60.0
 42
60.0
 43
60.0
 50
270.0
  0
INSERT
  5
7E8C
  8
3
  6
CONTINUOUS
 62
     0
  2
_OPEN
 10
1163.127438
 20
2303.204952
 30
0.0
 41
60.0
 42
60.0
 43
60.0
 50
90.0
  0
TEXT
  8
3
  40
90
  5
7EFC
  62
0
  72
0
  71
0
 10
908.127
 20
1906.05
 30
0.000000
  1
141
  0
POINT
  5
7E8E
  8
DEFPOINTS
  6
CONTINUOUS
 62
     0
 10
1438.0478069999999
 20
2444.204952
 30
0.0
  0
POINT
  5
7E8F
  8
DEFPOINTS
  6
CONTINUOUS
 62
     0
 10
1438.0478069999999
 20
2303.204952
 30
0.0
  0
POINT
  5
7E90
  8
DEFPOINTS
  6
CONTINUOUS
 62
     0
 10
1163.127438
 20
2303.204952
 30
0.0
  0
ENDBLK
  5
7DD7
  8
0
  0
BLOCK
  8
0
  2
*D5
 70
     1
 10
0.0
 20
0.0
 30
0.0
  3
*D5
  1

  0
LINE
  5
7E91
  8
3
  6
CONTINUOUS
 62
     0
 10
1438.0478069999999
 20
2288.204952
 30
0.0
 11
1438.0478069999999
 21
2022.5696760000001
 31
0.0
  0
LINE
  5
7E92
  8
3
  6
CONTINUOUS
 62
     0
 10
2008.0478069999999
 20
2118.3230589999989
 30
0.0
 11
2008.0478069999999
 21
2022.5696760000001
 31
0.0
  0
LINE
  5
7E93
  8
3
  6
CONTINUOUS
 62
     0
 10
1498.0478069999999
 20
2052.5696760000001
 30
0.0
 11
1948.0478069999999
 21
2052.5696760000001
 31
0.0
  0
INSERT
  5
7E94
  8
3
  6
CONTINUOUS
 62
     0
  2
_OPEN
 10
1438.0478069999999
 20
2052.5696760000001
 30
0.0
 41
60.0
 42
60.0
 43
60.0
 50
180.0
  0
INSERT
  5
7E95
  8
3
  6
CONTINUOUS
 62
     0
  2
_OPEN
 10
2008.0478069999999
 20
2052.5696760000001
 30
0.0
 41
60.0
 42
60.0
 43
60.0
  0
TEXT
  8
3
  40
90
  5
7EFD
  62
0
  72
0
  71
0
 10
1556.57
 20
1968.27
 30
0.000000
  1
570
  0
POINT
  5
7E97
  8
DEFPOINTS
  6
CONTINUOUS
 62
     0
 10
1438.0478069999999
 20
2303.204952
 30
0.0
  0
POINT
  5
7E98
  8
DEFPOINTS
  6
CONTINUOUS
 62
     0
 10
2008.0478069999999
 20
2133.3230589999989
 30
0.0
  0
POINT
  5
7E99
  8
DEFPOINTS
  6
CONTINUOUS
 62
     0
 10
2008.0478069999999
 20
2052.5696760000001
 30
0.0
  0
ENDBLK
  5
7C1F
  8
0
  0
BLOCK
  8
0
  2
*D6
 70
     1
 10
0.0
 20
0.0
 30
0.0
  3
*D6
  1

  0
LINE
  5
7E9A
  8
3
  6
CONTINUOUS
 62
     0
 10
3188.0478069999999
 20
2288.204952
 30
0.0
 11
3188.0478069999999
 21
2022.5696760000001
 31
0.0
  0
LINE
  5
7E9B
  8
3
  6
CONTINUOUS
 62
     0
 10
2068.0478069999999
 20
2052.5696760000001
 30
0.0
 11
3128.0478069999999
 21
2052.5696760000001
 31
0.0
  0
INSERT
  5
7E9C
  8
3
  6
CONTINUOUS
 62
     0
  2
_OPEN
 10
2008.0478069999999
 20
2052.5696760000001
 30
0.0
 41
60.0
 42
60.0
 43
60.0
 50
180.0
  0
INSERT
  5
7E9D
  8
3
  6
CONTINUOUS
 62
     0
  2
_OPEN
 10
3188.0478069999999
 20
2052.5696760000001
 30
0.0
 41
60.0
 42
60.0
 43
60.0
  0
TEXT
  8
3
  40
90
  5
7EFE
  62
0
  72
0
  71
0
 10
2418.05
 20
1968.27
 30
0.000000
  1
1180
  0
POINT
  5
7E9F
  8
DEFPOINTS
  6
CONTINUOUS
 62
     0
 10
2008.0478069999999
 20
2133.3230589999989
 30
0.0
  0
POINT
  5
7EA0
  8
DEFPOINTS
  6
CONTINUOUS
 62
     0
 10
3188.0478069999999
 20
2303.204952
 30
0.0
  0
POINT
  5
7EA1
  8
DEFPOINTS
  6
CONTINUOUS
 62
     0
 10
3188.0478069999999
 20
2052.5696760000001
 30
0.0
  0
ENDBLK
  5
7C2B
  8
0
  0
BLOCK
  8
0
  2
*D7
 70
     1
 10
0.0
 20
0.0
 30
0.0
  3
*D7
  1

  0
LINE
  5
7EA2
  8
3
  6
CONTINUOUS
 62
     0
 10
1893.5478069999999
 20
3864.204952000001
 30
0.0
 11
939.84392500000081
 21
3864.204952000001
 31
0.0
  0
LINE
  5
7EA3
  8
3
  6
CONTINUOUS
 62
     0
 10
1423.0478069999999
 20
2303.204952
 30
0.0
 11
939.84392500000024
 21
2303.204952
 31
0.0
  0
LINE
  5
7EA4
  8
3
  6
CONTINUOUS
 62
     0
 10
969.84392500000047
 20
3804.204952000001
 30
0.0
 11
969.84392500000035
 21
2363.204952
 31
0.0
  0
INSERT
  5
7EA5
  8
3
  6
CONTINUOUS
 62
     0
  2
_OPEN
 10
969.84392500000058
 20
3864.204952000001
 30
0.0
 41
60.0
 42
60.0
 43
60.0
 50
90.0
  0
INSERT
  5
7EA6
  8
3
  6
CONTINUOUS
 62
     0
  2
_OPEN
 10
969.84392500000035
 20
2303.204952
 30
0.0
 41
60.0
 42
60.0
 43
60.0
 50
270.0
  0
TEXT
  8
3
  40
90
  5
7EFF
  62
0
  72
0
  71
0
 10
714.844
 20
2963.49
 30
0.000000
  1
1561
  0
POINT
  5
7EA8
  8
DEFPOINTS
  6
CONTINUOUS
 62
     0
 10
1908.5478069999999
 20
3864.204952000001
 30
0.0
  0
POINT
  5
7EA9
  8
DEFPOINTS
  6
CONTINUOUS
 62
     0
 10
1438.0478069999999
 20
2303.204952
 30
0.0
  0
POINT
  5
7EAA
  8
DEFPOINTS
  6
CONTINUOUS
 62
     0
 10
969.84392500000035
 20
2303.204952
 30
0.0
  0
ENDBLK
  5
7CF6
  8
0
  0
BLOCK
  8
0
  2
*D8
 70
     1
 10
0.0
 20
0.0
 30
0.0
  3
*D8
  1

  0
LINE
  5
7EAB
  8
3
  6
CONTINUOUS
 62
     0
 10
5144.0885549999994
 20
3684.204952
 30
0.0
 11
5425.2091280000022
 21
3684.204952
 31
0.0
  0
LINE
  5
7EAC
  8
3
  6
CONTINUOUS
 62
     0
 10
5144.0885549999994
 20
2734.204952
 30
0.0
 11
5425.2091280000022
 21
2734.204952
 31
0.0
  0
LINE
  5
7EAD
  8
3
  6
CONTINUOUS
 62
     0
 10
5395.2091280000013
 20
3624.204952000001
 30
0.0
 11
5395.2091280000013
 21
2794.204952
 31
0.0
  0
INSERT
  5
7EAE
  8
3
  6
CONTINUOUS
 62
     0
  2
_OPEN
 10
5395.2091280000013
 20
3684.204952
 30
0.0
 41
60.0
 42
60.0
 43
60.0
 50
90.0
  0
INSERT
  5
7EAF
  8
3
  6
CONTINUOUS
 62
     0
  2
_OPEN
 10
5395.2091280000013
 20
2734.204952
 30
0.0
 41
60.0
 42
60.0
 43
60.0
 50
270.0
  0
TEXT
  8
3
  40
90
  5
7F00
  62
0
  72
0
  71
0
 10
5140.21
 20
3046.39
 30
0.000000
  1
φ950
  0
POINT
  5
7EB1
  8
DEFPOINTS
  6
CONTINUOUS
 62
     0
 10
5129.0885549999994
 20
3684.204952
 30
0.0
  0
POINT
  5
7EB2
  8
DEFPOINTS
  6
CONTINUOUS
 62
     0
 10
5129.0885549999994
 20
2734.204952
 30
0.0
  0
POINT
  5
7EB3
  8
DEFPOINTS
  6
CONTINUOUS
 62
     0
 10
5395.2091280000013
 20
2734.204952
 30
0.0
  0
ENDBLK
  5
7E1C
  8
0
  0
BLOCK
  8
0
  2
*D9
 70
     1
 10
0.0
 20
0.0
 30
0.0
  3
*D9
  1

  0
LINE
  5
7E08
  8
0
  6
BYBLOCK
 62
     0
 10
5129.0885549999994
 20
3699.204952
 30
0.0
 11
5129.0885549999994
 21
4308.6603649999997
 31
0.0
  0
LINE
  5
7E09
  8
0
  6
BYBLOCK
 62
     0
 10
4790.0885549999994
 20
4240.8166229999988
 30
0.0
 11
4790.0885549999994
 21
4308.6603649999997
 31
0.0
  0
LINE
  5
7E0A
  8
0
  6
BYBLOCK
 62
     0
 10
5069.0885550000003
 20
4278.6603649999988
 30
0.0
 11
4850.0885549999994
 21
4278.6603649999988
 31
0.0
  0
TEXT
  5
7E0B
  8
3
 62
     0
 10
4846.0171264285709
 20
4315.8193737943539
 30
0.0
 40
90.0
  1
339
  0
INSERT
  5
7E0C
  8
0
  6
BYBLOCK
 62
     0
  2
_OPEN
 10
5129.0885549999994
 20
4278.6603649999988
 30
0.0
 41
60.0
 42
60.0
 43
60.0
  0
INSERT
  5
7E0D
  8
0
  6
BYBLOCK
 62
     0
  2
_OPEN
 10
4790.0885549999994
 20
4278.6603649999988
 30
0.0
 41
60.0
 42
60.0
 43
60.0
 50
180.0
  0
POINT
  5
7E0E
  8
DEFPOINTS
  6
BYBLOCK
 62
     0
 10
5129.0885549999994
 20
3684.204952
 30
0.0
  0
POINT
  5
7E0F
  8
DEFPOINTS
  6
BYBLOCK
 62
     0
 10
4790.0885549999994
 20
4225.8166229999997
 30
0.0
  0
POINT
  5
7E10
  8
DEFPOINTS
  6
BYBLOCK
 62
     0
 10
4790.0885549999994
 20
4278.6603649999988
 30
0.0
  0
ENDBLK
  5
7E11
  8
0
  0
BLOCK
  8
0
  2
*D10
 70
     1
 10
0.0
 20
0.0
 30
0.0
  3
*D10
  1

  0
LINE
  5
7EB4
  8
3
  6
CONTINUOUS
 62
     0
 10
4180.0885550000003
 20
3729.204952
 30
0.0
 11
4180.0885550000003
 21
4308.6603649999997
 31
0.0
  0
LINE
  5
7EB5
  8
3
  6
CONTINUOUS
 62
     0
 10
4730.0885550000003
 20
4278.6603649999988
 30
0.0
 11
4240.0885549999985
 21
4278.6603649999988
 31
0.0
  0
INSERT
  5
7EB6
  8
3
  6
CONTINUOUS
 62
     0
  2
_OPEN
 10
4790.0885549999994
 20
4278.6603649999988
 30
0.0
 41
60.0
 42
60.0
 43
60.0
  0
INSERT
  5
7EB7
  8
3
  6
CONTINUOUS
 62
     0
  2
_OPEN
 10
4180.0885550000003
 20
4278.6603649999988
 30
0.0
 41
60.0
 42
60.0
 43
60.0
 50
180.0
  0
TEXT
  8
3
  40
90
  5
7F01
  62
0
  72
0
  71
0
 10
4305.09
 20
4269.36
 30
0.000000
  1
MAX
  0
TEXT
  8
3
  40
90
  5
7F02
  62
0
  72
0
  71
0
 10
4305.09
 20
4152.36
 30
0.000000
  1
640
  0
POINT
  5
7EB9
  8
DEFPOINTS
  6
CONTINUOUS
 62
     0
 10
4790.0885549999994
 20
4225.8166229999997
 30
0.0
  0
POINT
  5
7EBA
  8
DEFPOINTS
  6
CONTINUOUS
 62
     0
 10
4180.0885550000003
 20
3714.204952000001
 30
0.0
  0
POINT
  5
7EBB
  8
DEFPOINTS
  6
CONTINUOUS
 62
     0
 10
4180.0885550000003
 20
4278.6603649999988
 30
0.0
  0
ENDBLK
  5
7E26
  8
0
  0
BLOCK
  8
0
  2
*D11
 70
     1
 10
0.0
 20
0.0
 30
0.0
  3
*D11
  1

  0
LINE
  5
7EBC
  8
3
  6
CONTINUOUS
 62
     0
 10
4257.0885549999994
 20
2288.204952
 30
0.0
 11
4257.0885549999994
 21
1999.9594119999999
 31
0.0
  0
LINE
  5
7EBD
  8
3
  6
CONTINUOUS
 62
     0
 10
4790.0885549999994
 20
2142.624753999999
 30
0.0
 11
4790.0885549999994
 21
1999.9594119999999
 31
0.0
  0
LINE
  5
7EBE
  8
3
  6
CONTINUOUS
 62
     0
 10
4317.0885549999994
 20
2029.9594119999999
 30
0.0
 11
4730.0885550000003
 21
2029.9594119999999
 31
0.0
  0
INSERT
  5
7EBF
  8
3
  6
CONTINUOUS
 62
     0
  2
_OPEN
 10
4257.0885549999994
 20
2029.9594119999999
 30
0.0
 41
60.0
 42
60.0
 43
60.0
 50
180.0
  0
INSERT
  5
7EC0
  8
3
  6
CONTINUOUS
 62
     0
  2
_OPEN
 10
4790.0885549999994
 20
2029.9594119999999
 30
0.0
 41
60.0
 42
60.0
 43
60.0
  0
TEXT
  8
3
  40
90
  5
7F03
  62
0
  72
0
  71
0
 10
4340.42
 20
1945.66
 30
0.000000
  1
533
  0
POINT
  5
7EC2
  8
DEFPOINTS
  6
CONTINUOUS
 62
     0
 10
4257.0885549999994
 20
2303.204952
 30
0.0
  0
POINT
  5
7EC3
  8
DEFPOINTS
  6
CONTINUOUS
 62
     0
 10
4790.0885549999994
 20
2157.624753999999
 30
0.0
  0
POINT
  5
7EC4
  8
DEFPOINTS
  6
CONTINUOUS
 62
     0
 10
4790.0885549999994
 20
2029.9594119999999
 30
0.0
  0
ENDBLK
  5
7C8A
  8
0
  0
BLOCK
  8
0
  2
*D12
 70
     1
 10
0.0
 20
0.0
 30
0.0
  3
*D12
  1

  0
LINE
  5
7EC5
  8
3
  6
CONTINUOUS
 62
     0
 10
5177.0885550000003
 20
2288.204952
 30
0.0
 11
5177.0885550000003
 21
1999.9594119999999
 31
0.0
  0
LINE
  5
7EC6
  8
3
  6
CONTINUOUS
 62
     0
 10
4850.0885549999994
 20
2029.9594119999999
 30
0.0
 11
5117.0885549999994
 21
2029.9594119999999
 31
0.0
  0
TEXT
  8
3
  40
90
  5
7F04
  62
0
  72
0
  71
0
 10
4791.23
 20
1941.99
 30
0.000000
  1
387
  0
INSERT
  5
7EC8
  8
3
  6
CONTINUOUS
 62
     0
  2
_OPEN
 10
4790.0885549999994
 20
2029.9594119999999
 30
0.0
 41
60.0
 42
60.0
 43
60.0
 50
180.0
  0
INSERT
  5
7EC9
  8
3
  6
CONTINUOUS
 62
     0
  2
_OPEN
 10
5177.0885550000003
 20
2029.9594119999999
 30
0.0
 41
60.0
 42
60.0
 43
60.0
  0
POINT
  5
7ECA
  8
DEFPOINTS
  6
CONTINUOUS
 62
     0
 10
4790.0885549999994
 20
2157.624753999999
 30
0.0
  0
POINT
  5
7ECB
  8
DEFPOINTS
  6
CONTINUOUS
 62
     0
 10
5177.0885550000003
 20
2303.204952
 30
0.0
  0
POINT
  5
7ECC
  8
DEFPOINTS
  6
CONTINUOUS
 62
     0
 10
5177.0885550000003
 20
2029.9594119999999
 30
0.0
  0
ENDBLK
  5
7D0C
  8
0
  0
BLOCK
  8
0
  2
*D13
 70
     1
 10
0.0
 20
0.0
 30
0.0
  3
*D13
  1

  0
LINE
  5
7ECD
  8
3
  6
CONTINUOUS
 62
     0
 10
1438.0478069999999
 20
6351.1378100000002
 30
0.0
 11
1438.0478069999999
 21
6600.1624760000004
 31
0.0
  0
LINE
  5
7ECE
  8
3
  6
CONTINUOUS
 62
     0
 10
3188.0478069999999
 20
6351.1378100000002
 30
0.0
 11
3188.0478069999999
 21
6600.1624760000004
 31
0.0
  0
LINE
  5
7ECF
  8
3
  6
CONTINUOUS
 62
     0
 10
1498.0478069999999
 20
6570.1624760000004
 30
0.0
 11
3128.0478069999999
 21
6570.1624760000004
 31
0.0
  0
INSERT
  5
7ED0
  8
3
  6
CONTINUOUS
 62
     0
  2
_OPEN
 10
1438.0478069999999
 20
6570.1624760000004
 30
0.0
 41
60.0
 42
60.0
 43
60.0
 50
180.0
  0
INSERT
  5
7ED1
  8
3
  6
CONTINUOUS
 62
     0
  2
_OPEN
 10
3188.0478069999999
 20
6570.1624760000004
 30
0.0
 41
60.0
 42
60.0
 43
60.0
  0
TEXT
  8
3
  40
90
  5
7F05
  62
0
  72
0
  71
0
 10
2167.41
 20
6485.86
 30
0.000000
  1
1750
  0
POINT
  5
7ED3
  8
DEFPOINTS
  6
CONTINUOUS
 62
     0
 10
1438.0478069999999
 20
6336.1378100000002
 30
0.0
  0
POINT
  5
7ED4
  8
DEFPOINTS
  6
CONTINUOUS
 62
     0
 10
3188.0478069999999
 20
6336.1378100000002
 30
0.0
  0
POINT
  5
7ED5
  8
DEFPOINTS
  6
CONTINUOUS
 62
     0
 10
3188.0478069999999
 20
6570.1624760000004
 30
0.0
  0
ENDBLK
  5
7CA5
  8
0
  0
BLOCK
  8
0
  2
*D14
 70
     1
 10
0.0
 20
0.0
 30
0.0
  3
*D14
  1

  0
LINE
  5
7ED6
  8
3
  6
CONTINUOUS
 62
     0
 10
3203.0478069999999
 20
6336.1378100000002
 30
0.0
 11
3531.2288110000009
 21
6336.1378100000002
 31
0.0
  0
LINE
  5
7ED7
  8
3
  6
CONTINUOUS
 62
     0
 10
3203.0478069999999
 20
5416.1378100000002
 30
0.0
 11
3531.2288110000009
 21
5416.1378100000002
 31
0.0
  0
LINE
  5
7ED8
  8
3
  6
CONTINUOUS
 62
     0
 10
3501.228811
 20
6276.1378100000002
 30
0.0
 11
3501.228811
 21
5476.1378100000002
 31
0.0
  0
INSERT
  5
7ED9
  8
3
  6
CONTINUOUS
 62
     0
  2
_OPEN
 10
3501.228811
 20
6336.1378100000002
 30
0.0
 41
60.0
 42
60.0
 43
60.0
 50
90.0
  0
INSERT
  5
7EDA
  8
3
  6
CONTINUOUS
 62
     0
  2
_OPEN
 10
3501.228811
 20
5416.1378100000002
 30
0.0
 41
60.0
 42
60.0
 43
60.0
 50
270.0
  0
TEXT
  8
3
  40
90
  5
7F06
  62
0
  72
0
  71
0
 10
3246.23
 20
5785.31
 30
0.000000
  1
920
  0
POINT
  5
7EDC
  8
DEFPOINTS
  6
CONTINUOUS
 62
     0
 10
3188.0478069999999
 20
6336.1378100000002
 30
0.0
  0
POINT
  5
7EDD
  8
DEFPOINTS
  6
CONTINUOUS
 62
     0
 10
3188.0478069999999
 20
5416.1378100000002
 30
0.0
  0
POINT
  5
7EDE
  8
DEFPOINTS
  6
CONTINUOUS
 62
     0
 10
3501.228811
 20
5416.1378100000002
 30
0.0
  0
ENDBLK
  5
7CB2
  8
0
  0
BLOCK
  8
0
  2
*D15
 70
     1
 10
0.0
 20
0.0
 30
0.0
  3
*D15
  1

  0
LINE
  5
7EDF
  8
3
  6
CONTINUOUS
 62
     0
 10
1365.052864008268
 20
3224.204952
 30
0.0
 11
1365.052864008268
 21
4283.6927269999996
 31
0.0
  0
LINE
  5
7EE0
  8
3
  6
CONTINUOUS
 62
     0
 10
2008.0478069999999
 20
4071.1831380000008
 30
0.0
 11
2008.0478069999999
 21
4283.6927269999996
 31
0.0
  0
LINE
  5
7EE1
  8
3
  6
CONTINUOUS
 62
     0
 10
1425.0528640082689
 20
4253.6927269999996
 30
0.0
 11
1948.0478069999999
 21
4253.6927269999996
 31
0.0
  0
INSERT
  5
7EE2
  8
3
  6
CONTINUOUS
 62
     0
  2
_OPEN
 10
1365.052864008268
 20
4253.6927269999996
 30
0.0
 41
60.0
 42
60.0
 43
60.0
 50
180.0
  0
INSERT
  5
7EE3
  8
3
  6
CONTINUOUS
 62
     0
  2
_OPEN
 10
2008.0478069999999
 20
4253.6927269999996
 30
0.0
 41
60.0
 42
60.0
 43
60.0
  0
TEXT
  8
3
  40
90
  5
7F07
  62
0
  72
0
  71
0
 10
1495.90
 20
4169.39
 30
0.000000
  1
643
  0
POINT
  5
7EE5
  8
DEFPOINTS
  6
CONTINUOUS
 62
     0
 10
1365.052864008268
 20
3209.204952
 30
0.0
  0
POINT
  5
7EE6
  8
DEFPOINTS
  6
CONTINUOUS
 62
     0
 10
2008.0478069999999
 20
4056.1831379999999
 30
0.0
  0
POINT
  5
7EE7
  8
DEFPOINTS
  6
CONTINUOUS
 62
     0
 10
2008.0478069999999
 20
4253.6927269999996
 30
0.0
  0
ENDBLK
  5
7DE3
  8
0
  0
BLOCK
  8
0
  2
*D16
 70
     1
 10
0.0
 20
0.0
 30
0.0
  3
*D16
  1

  0
LINE
  5
7EE8
  8
3
  6
CONTINUOUS
 62
     0
 10
2891.047806999999
 20
3879.204952
 30
0.0
 11
2891.047806999999
 21
4283.6927269999996
 31
0.0
  0
LINE
  5
7EE9
  8
3
  6
CONTINUOUS
 62
     0
 10
2068.0478069999999
 20
4253.6927269999996
 30
0.0
 11
2831.0478069999999
 21
4253.6927269999996
 31
0.0
  0
INSERT
  5
7EEA
  8
3
  6
CONTINUOUS
 62
     0
  2
_OPEN
 10
2008.0478069999999
 20
4253.6927269999996
 30
0.0
 41
60.0
 42
60.0
 43
60.0
 50
180.0
  0
INSERT
  5
7EEB
  8
3
  6
CONTINUOUS
 62
     0
  2
_OPEN
 10
2891.047806999999
 20
4253.6927269999996
 30
0.0
 41
60.0
 42
60.0
 43
60.0
  0
TEXT
  8
3
  40
90
  5
7F08
  62
0
  72
0
  71
0
 10
2269.55
 20
4169.39
 30
0.000000
  1
883
  0
POINT
  5
7EED
  8
DEFPOINTS
  6
CONTINUOUS
 62
     0
 10
2008.0478069999999
 20
4056.1831379999999
 30
0.0
  0
POINT
  5
7EEE
  8
DEFPOINTS
  6
CONTINUOUS
 62
     0
 10
2891.047806999999
 20
3864.204952000001
 30
0.0
  0
POINT
  5
7EEF
  8
DEFPOINTS
  6
CONTINUOUS
 62
     0
 10
2891.047806999999
 20
4253.6927269999996
 30
0.0
  0
ENDBLK
  5
7DB5
  8
0
  0
BLOCK
  8
0
  2
*D17
 70
     1
 10
0.0
 20
0.0
 30
0.0
  3
*D17
  1

  0
LINE
  5
7EF0
  8
3
  6
CONTINUOUS
 62
     0
 10
4455.0885549999994
 20
3879.204952
 30
0.0
 11
4455.0885549999994
 21
4080.135511
 31
0.0
  0
LINE
  5
7EF1
  8
3
  6
CONTINUOUS
 62
     0
 10
5125.0885549999994
 20
3879.204952
 30
0.0
 11
5125.0885549999994
 21
4080.135511
 31
0.0
  0
LINE
  5
7EF2
  8
3
  6
CONTINUOUS
 62
     0
 10
4515.0885549999994
 20
4050.135510999999
 30
0.0
 11
5065.0885549999994
 21
4050.135510999999
 31
0.0
  0
INSERT
  5
7EF3
  8
3
  6
CONTINUOUS
 62
     0
  2
_OPEN
 10
4455.0885549999994
 20
4050.135510999999
 30
0.0
 41
60.0
 42
60.0
 43
60.0
 50
180.0
  0
INSERT
  5
7EF4
  8
3
  6
CONTINUOUS
 62
     0
  2
_OPEN
 10
5125.0885549999994
 20
4050.135510999999
 30
0.0
 41
60.0
 42
60.0
 43
60.0
  0
TEXT
  8
3
  40
90
  5
7F09
  62
0
  72
0
  71
0
 10
4595.04
 20
3965.84
 30
0.000000
  1
670
  0
POINT
  5
7EF6
  8
DEFPOINTS
  6
CONTINUOUS
 62
     0
 10
4455.0885549999994
 20
3864.204952000001
 30
0.0
  0
POINT
  5
7EF7
  8
DEFPOINTS
  6
CONTINUOUS
 62
     0
 10
5125.0885549999994
 20
3864.204952000001
 30
0.0
  0
POINT
  5
7EF8
  8
DEFPOINTS
  6
CONTINUOUS
 62
     0
 10
5125.0885549999994
 20
4050.135510999999
 30
0.0
  0
ENDBLK
  5
7D80
  8
0
  0
ENDSEC
  0
SECTION
  2
ENTITIES
  0
LINE
  5
7AE8
  8
1
  6
CONTINUOUS
 10
3168.0478069999999
 20
2894.204952
 30
0.0
 11
2188.047806999999
 21
3714.204952000001
 31
0.0
  0
LINE
  5
7AE9
  8
1
  6
CONTINUOUS
 10
2970.8343949999999
 20
2721.2070170000002
 30
0.0
 11
1949.7517210000001
 21
2961.9852799999999
 31
0.0
  0
LINE
  5
7AEA
  8
1
  6
CONTINUOUS
 10
3028.4930909999998
 20
2857.3649
 30
0.0
 11
2145.0225019999989
 21
3423.1066420000002
 31
0.0
  0
ARC
  5
7AEB
  8
1
  6
CONTINUOUS
 10
2988.0478069999999
 20
2794.204952
 30
0.0
 40
162.0
 50
324.972283
 51
215.02771699999991
  0
LINE
  5
7AEC
  8
1
  6
CONTINUOUS
 10
1438.0478069999999
 20
2303.204952
 30
0.0
 11
3188.0478069999999
 21
2303.204952
 31
0.0
  0
LINE
  5
7AED
  8
1
  6
CONTINUOUS
 10
1438.0478069999999
 20
2403.204952
 30
0.0
 11
3188.0478069999999
 21
2403.204952
 31
0.0
  0
LINE
  5
7AEE
  8
1
  6
CONTINUOUS
 10
1438.0478069999999
 20
2444.204952
 30
0.0
 11
3188.0478069999999
 21
2444.204952
 31
0.0
  0
LINE
  5
7AEF
  8
1
  6
CONTINUOUS
 10
1438.0478069999999
 20
2544.2049519999991
 30
0.0
 11
3188.0478069999999
 21
2544.204952
 31
0.0
  0
LINE
  5
7AF0
  8
1
  6
CONTINUOUS
 10
1966.047806999999
 20
3824.204952
 30
0.0
 11
2889.7042949999991
 21
3824.204952
 31
0.0
  0
POLYLINE
  5
7AF1
  8
1
  6
CONTINUOUS
 66
     1
 10
0.0
 20
0.0
 30
0.0
  0
VERTEX
  5
7E66
  8
1
  6
CONTINUOUS
 10
2891.047806999999
 20
3864.204952000001
 30
0.0
  0
VERTEX
  5
7E67
  8
1
  6
CONTINUOUS
 10
2869.0478069999999
 20
3209.204952
 30
0.0
 42
-0.4168370000000001
  0
VERTEX
  5
7E68
  8
1
  6
CONTINUOUS
 10
2000.8738649999989
 20
2466.7649919999999
 30
0.0
 42
-0.429867
  0
VERTEX
  5
7E69
  8
1
  6
CONTINUOUS
 10
1369.6226300000001
 20
3253.0811119999998
 30
0.0
 42
-0.373172
  0
VERTEX
  5
7E6A
  8
1
  6
CONTINUOUS
 10
1966.047806999999
 20
3777.1736799999999
 30
0.0
 42
-0.34598
  0
SEQEND
  5
7E6B
  8
1
  6
CONTINUOUS
  0
LINE
  5
7AF8
  8
1
  6
CONTINUOUS
 10
1923.5478069999999
 20
3864.204952000001
 30
0.0
 11
2933.5478069999999
 21
3864.204952000001
 31
0.0
  0
LINE
  5
7AF9
  8
1
  6
CONTINUOUS
 10
1438.0478069999999
 20
2303.204952
 30
0.0
 11
1438.0478069999999
 21
2403.204952
 31
0.0
  0
LINE
  5
7AFA
  8
1
  6
CONTINUOUS
 10
1528.0478069999999
 20
3714.204952000001
 30
0.0
 11
2188.047806999999
 21
3714.204952000001
 31
0.0
  0
LINE
  5
7AFF
  8
1
  6
CONTINUOUS
 10
1528.0478069999999
 20
2544.204952
 30
0.0
 11
1528.0478069999999
 21
3714.204952000001
 31
0.0
  0
LINE
  5
7B00
  8
1
  6
CONTINUOUS
 10
1438.0478069999999
 20
2544.204952
 30
0.0
 11
1438.0478069999999
 21
2444.204952
 31
0.0
  0
LINE
  5
7B02
  8
2
  6
CENTER
 10
2008.0478069999999
 20
2133.3230589999989
 30
0.0
 11
2008.0478069999999
 21
4056.1831379999999
 31
0.0
  0
CIRCLE
  5
7B03
  8
1
  6
CONTINUOUS
 10
2008.0478069999999
 20
3209.204952
 30
0.0
 40
254.0
  0
LINE
  5
7B04
  8
2
  6
CENTER
 10
5229.3010690000001
 20
3209.204952
 30
0.0
 11
4082.7108349999999
 21
3209.204952
 31
0.0
  0
LINE
  5
7B05
  8
1
  6
CONTINUOUS
 10
2855.3901409999989
 20
2701.2213849999998
 30
0.0
 11
2800.5478069999999
 21
2634.204952
 31
0.0
  0
LINE
  5
7B06
  8
1
  6
CONTINUOUS
 10
2790.5478069999999
 20
2584.204952
 30
0.0
 11
2800.5478069999999
 21
2634.204952
 31
0.0
  0
LINE
  5
7B07
  8
1
  6
CONTINUOUS
 10
2790.5478069999999
 20
2584.204952
 30
0.0
 11
2790.5478069999999
 21
2544.204952
 31
0.0
  0
LINE
  5
7B08
  8
1
  6
CONTINUOUS
 10
1966.047806999999
 20
3777.1736799999999
 30
0.0
 11
1966.047806999999
 21
3864.204952000001
 31
0.0
  0
LINE
  5
7B09
  8
1
  6
CONTINUOUS
 10
3188.0478069999999
 20
2303.204952
 30
0.0
 11
3188.0478069999999
 21
2403.204952
 31
0.0
  0
LINE
  5
7B11
  8
1
  6
CONTINUOUS
 10
3175.5478069999999
 20
2634.204952
 30
0.0
 11
3120.7054720000001
 21
2701.2213849999998
 31
0.0
  0
LINE
  5
7B12
  8
2
  6
CENTER
 10
3068.0478069999999
 20
2794.204952
 30
0.0
 11
2908.047806999999
 21
2794.204952
 31
0.0
  0
LINE
  5
7B13
  8
2
  6
CENTER
 10
2988.0478069999999
 20
2714.204952
 30
0.0
 11
2988.0478069999999
 21
2874.204952
 31
0.0
  0
CIRCLE
  5
7B14
  8
1
  6
CONTINUOUS
 10
2988.0478069999999
 20
2794.204952
 30
0.0
 40
75.0
  0
LINE
  5
7B15
  8
1
  6
CONTINUOUS
 10
3168.0478069999999
 20
2544.204952
 30
0.0
 11
3168.0478069999999
 21
2894.204952
 31
0.0
  0
LINE
  5
7B16
  8
1
  6
CONTINUOUS
 10
3175.5478069999999
 20
2634.204952
 30
0.0
 11
3185.5478069999999
 21
2584.204952
 31
0.0
  0
LINE
  5
7B17
  8
1
  6
CONTINUOUS
 10
3185.5478069999999
 20
2584.204952
 30
0.0
 11
3185.5478069999999
 21
2544.204952
 31
0.0
  0
LINE
  5
7B18
  8
1
  6
CONTINUOUS
 10
3188.0478069999999
 20
2544.204952
 30
0.0
 11
3188.0478069999999
 21
2444.204952
 31
0.0
  0
LINE
  5
7B27
  8
1
  6
CONTINUOUS
 10
1438.0478069999999
 20
6336.1378100000002
 30
0.0
 11
3188.0478069999999
 21
6336.1378100000002
 31
0.0
  0
LINE
  5
7B28
  8
1
  6
CONTINUOUS
 10
3168.0478069999999
 20
5391.1378100000002
 30
0.0
 11
1528.0478069999999
 21
5391.1378100000002
 31
0.0
  0
LINE
  5
7B29
  8
1
  6
CONTINUOUS
 10
3168.0478069999999
 20
5561.1378100000002
 30
0.0
 11
1528.0478069999999
 21
5561.1378100000002
 31
0.0
  0
LINE
  5
7B2A
  8
1
  6
CONTINUOUS
 10
3150.047806999999
 20
5572.1378100000002
 30
0.0
 11
2826.0478069999999
 21
5572.1378100000002
 31
0.0
  0
LINE
  5
7B2B
  8
1
  6
CONTINUOUS
 10
1363.2514639999999
 20
5614.1378100000002
 30
0.0
 11
2891.047806999999
 21
5614.1378100000002
 31
0.0
  0
LINE
  5
7B2C
  8
1
  6
CONTINUOUS
 10
1363.2514639999999
 20
6284.1378100000002
 30
0.0
 11
2891.047806999999
 21
6284.1378100000002
 31
0.0
  0
LINE
  5
7B2D
  8
1
  6
CONTINUOUS
 10
1438.0478069999999
 20
5416.1378100000002
 30
0.0
 11
3188.0478069999999
 21
5416.1378100000002
 31
0.0
  0
LINE
  5
7B2E
  8
1
  6
CONTINUOUS
 10
2891.047806999999
 20
5614.1378100000002
 30
0.0
 11
1966.047806999999
 21
6284.1378100000002
 31
0.0
  0
LINE
  5
7B2F
  8
1
  6
CONTINUOUS
 10
2891.047806999999
 20
6284.1378100000002
 30
0.0
 11
1966.047806999999
 21
5614.1378100000002
 31
0.0
  0
LINE
  5
7B30
  8
1
  6
CONTINUOUS
 10
1363.2514639999999
 20
5614.1378100000002
 30
0.0
 11
1363.2514639999999
 21
6284.1378100000002
 31
0.0
  0
LINE
  5
7B31
  8
1
  6
CONTINUOUS
 10
1528.0478069999999
 20
5391.1378100000002
 30
0.0
 11
1528.0478069999999
 21
5561.1378100000002
 31
0.0
  0
LINE
  5
7B32
  8
1
  6
CONTINUOUS
 10
1438.0478069999999
 20
5416.1378100000002
 30
0.0
 11
1438.0478069999999
 21
5614.1378100000002
 31
0.0
  0
LINE
  5
7B33
  8
1
  6
CONTINUOUS
 10
1438.0478069999999
 20
6284.1378100000002
 30
0.0
 11
1438.0478069999999
 21
6336.1378100000002
 31
0.0
  0
LINE
  5
7B34
  8
1
  6
CONTINUOUS
 10
1966.047806999999
 20
5614.1378100000002
 30
0.0
 11
1966.047806999999
 21
6284.1378100000002
 31
0.0
  0
LINE
  5
7B35
  8
1
  6
CONTINUOUS
 10
2262.0478069999999
 20
5424.1378100000011
 30
0.0
 11
1754.0478069999999
 21
5424.1378100000011
 31
0.0
  0
LINE
  5
7B36
  8
1
  6
CONTINUOUS
 10
2262.0478069999999
 20
5528.1378100000002
 30
0.0
 11
1754.0478069999999
 21
5528.1378100000002
 31
0.0
  0
LINE
  5
7B37
  8
1
  6
CONTINUOUS
 10
1754.0478069999999
 20
5424.1378100000011
 30
0.0
 11
1754.0478069999999
 21
5528.1378100000002
 31
0.0
  0
LINE
  5
7B38
  8
1
  6
CONTINUOUS
 10
1983.047806999999
 20
5528.1378100000002
 30
0.0
 11
1983.047806999999
 21
5614.1378100000002
 31
0.0
  0
LINE
  5
7B39
  8
1
  6
CONTINUOUS
 10
2262.0478069999999
 20
5424.1378100000011
 30
0.0
 11
2262.0478069999999
 21
5528.1378100000002
 31
0.0
  0
LINE
  5
7B3A
  8
1
  6
CONTINUOUS
 10
2033.047806999999
 20
5528.1378100000002
 30
0.0
 11
2033.047806999999
 21
5614.1378100000002
 31
0.0
  0
LINE
  5
7B3B
  8
1
  6
CONTINUOUS
 10
2826.0478069999999
 20
5572.1378100000002
 30
0.0
 11
2826.0478069999999
 21
5614.1378100000002
 31
0.0
  0
LINE
  5
7B40
  8
1
  6
CONTINUOUS
 10
3150.047806999999
 20
5572.1378100000002
 30
0.0
 11
3150.047806999999
 21
6057.1378100000002
 31
0.0
  0
LINE
  5
7B41
  8
1
  6
CONTINUOUS
 10
3188.0478069999999
 20
5416.1378100000002
 30
0.0
 11
3188.0478069999999
 21
6336.1378100000002
 31
0.0
  0
LINE
  5
7B42
  8
1
  6
CONTINUOUS
 10
2891.047806999999
 20
5614.1378100000002
 30
0.0
 11
2891.047806999999
 21
6284.1378100000002
 31
0.0
  0
LINE
  5
7B43
  8
1
  6
CONTINUOUS
 10
3063.0478069999999
 20
5424.1378100000011
 30
0.0
 11
3063.0478069999999
 21
5528.1378100000002
 31
0.0
  0
LINE
  5
7B44
  8
1
  6
CONTINUOUS
 10
2913.047806999999
 20
5424.1378100000011
 30
0.0
 11
2913.047806999999
 21
5528.1378100000002
 31
0.0
  0
LINE
  5
7B45
  8
1
  6
CONTINUOUS
 10
3009.047806999999
 20
5528.1378100000002
 30
0.0
 11
3009.047806999999
 21
5572.1378100000002
 31
0.0
  0
LINE
  5
7B46
  8
1
  6
CONTINUOUS
 10
2967.0478069999999
 20
5528.1378100000002
 30
0.0
 11
2967.0478069999999
 21
5572.1378100000002
 31
0.0
  0
LINE
  5
7B47
  8
1
  6
CONTINUOUS
 10
3063.0478069999999
 20
5424.1378100000011
 30
0.0
 11
2913.047806999999
 21
5424.1378100000011
 31
0.0
  0
LINE
  5
7B48
  8
1
  6
CONTINUOUS
 10
3063.0478069999999
 20
5528.1378100000002
 30
0.0
 11
2913.047806999999
 21
5528.1378100000002
 31
0.0
  0
LINE
  5
7B49
  8
1
  6
CONTINUOUS
 10
3168.0478069999999
 20
5391.1378100000002
 30
0.0
 11
3168.0478069999999
 21
5561.1378100000002
 31
0.0
  0
LINE
  5
7B4A
  8
1
  6
CONTINUOUS
 10
3150.047806999999
 20
6057.1378100000002
 30
0.0
 11
2891.047806999999
 21
6057.1378100000002
 31
0.0
  0
LINE
  5
7B5C
  8
1
  6
CONTINUOUS
 10
4257.0885549999994
 20
2403.204952
 30
0.0
 11
4257.0885549999994
 21
2303.204952
 31
0.0
  0
LINE
  5
7B5D
  8
1
  6
CONTINUOUS
 10
5177.0885550000003
 20
2403.204952
 30
0.0
 11
5177.0885550000003
 21
2303.204952
 31
0.0
  0
LINE
  5
7B5E
  8
1
  6
CONTINUOUS
 10
4257.0885549999994
 20
2303.204952
 30
0.0
 11
5177.0885550000003
 21
2303.204952
 31
0.0
  0
LINE
  5
7B5F
  8
1
  6
CONTINUOUS
 10
4257.0885549999994
 20
2444.204952
 30
0.0
 11
5177.0885550000003
 21
2444.204952
 31
0.0
  0
LINE
  5
7B60
  8
1
  6
CONTINUOUS
 10
4257.0885549999994
 20
2403.204952
 30
0.0
 11
5177.0885550000003
 21
2403.204952
 31
0.0
  0
LINE
  5
7B61
  8
1
  6
CONTINUOUS
 10
4180.0885550000003
 20
3714.204952000001
 30
0.0
 11
4402.0885549999994
 21
3714.204952000001
 31
0.0
  0
LINE
  5
7B62
  8
1
  6
CONTINUOUS
 10
4265.0885549999994
 20
3463.204952
 30
0.0
 11
4369.0885550000003
 21
3463.204952
 31
0.0
  0
LINE
  5
7B63
  8
1
  6
CONTINUOUS
 10
4265.0885549999994
 20
2955.204952
 30
0.0
 11
4369.0885550000003
 21
2955.204952
 31
0.0
  0
LINE
  5
7B64
  8
1
  6
CONTINUOUS
 10
4265.0885549999994
 20
2869.204952
 30
0.0
 11
4369.0885550000003
 21
2869.204952
 31
0.0
  0
LINE
  5
7B65
  8
1
  6
CONTINUOUS
 10
4265.0885549999994
 20
2719.204952
 30
0.0
 11
4369.0885550000003
 21
2719.204952
 31
0.0
  0
LINE
  5
7B66
  8
1
  6
CONTINUOUS
 10
4257.0885549999994
 20
2544.204952
 30
0.0
 11
5177.0885550000003
 21
2544.204952
 31
0.0
  0
LINE
  5
7B6A
  8
1
  6
CONTINUOUS
 10
4265.0885549999994
 20
3463.204952
 30
0.0
 11
4265.0885549999994
 21
2955.204952
 31
0.0
  0
LINE
  5
7B6B
  8
1
  6
CONTINUOUS
 10
4180.0885550000003
 20
3714.204952000001
 30
0.0
 11
4180.0885550000003
 21
2544.204952
 31
0.0
  0
LINE
  5
7B6C
  8
1
  6
CONTINUOUS
 10
4180.0885550000003
 20
2544.204952
 30
0.0
 11
4257.0885549999994
 21
2544.204952
 31
0.0
  0
LINE
  5
7B6D
  8
1
  6
CONTINUOUS
 10
4257.0885549999994
 20
2544.204952
 30
0.0
 11
4257.0885549999994
 21
2444.204952
 31
0.0
  0
LINE
  5
7B6E
  8
1
  6
CONTINUOUS
 10
4265.0885549999994
 20
2869.204952
 30
0.0
 11
4265.0885549999994
 21
2719.204952
 31
0.0
  0
LINE
  5
7B6F
  8
1
  6
CONTINUOUS
 10
4455.0885549999994
 20
3864.204952000001
 30
0.0
 11
4455.0885549999994
 21
2544.204952
 31
0.0
  0
LINE
  5
7B70
  8
1
  6
CONTINUOUS
 10
5125.0885549999994
 20
3864.204952000001
 30
0.0
 11
5125.0885549999994
 21
2544.204952
 31
0.0
  0
LINE
  5
7B71
  8
1
  6
CONTINUOUS
 10
4369.0885550000003
 20
3463.204952
 30
0.0
 11
4369.0885550000003
 21
2955.204952
 31
0.0
  0
LINE
  5
7B72
  8
1
  6
CONTINUOUS
 10
4402.0885549999994
 20
3714.204952000001
 30
0.0
 11
4402.0885549999994
 21
2544.204952
 31
0.0
  0
LINE
  5
7B73
  8
1
  6
CONTINUOUS
 10
4369.0885550000003
 20
2815.204952
 30
0.0
 11
4455.0885549999994
 21
2815.204952
 31
0.0
  0
LINE
  5
7B74
  8
1
  6
CONTINUOUS
 10
4369.0885550000003
 20
2773.204952
 30
0.0
 11
4455.0885549999994
 21
2773.204952
 31
0.0
  0
LINE
  5
7B75
  8
1
  6
CONTINUOUS
 10
4369.0885550000003
 20
2869.204952
 30
0.0
 11
4369.0885550000003
 21
2719.204952
 31
0.0
  0
LINE
  5
7B76
  8
1
  6
CONTINUOUS
 10
4369.0885550000003
 20
3234.204952
 30
0.0
 11
4455.0885549999994
 21
3234.204952
 31
0.0
  0
LINE
  5
7B77
  8
1
  6
CONTINUOUS
 10
4369.0885550000003
 20
3184.2049519999991
 30
0.0
 11
4455.0885549999994
 21
3184.2049519999991
 31
0.0
  0
LINE
  5
7B78
  8
1
  6
CONTINUOUS
 10
5177.0885550000003
 20
2544.204952
 30
0.0
 11
5177.0885550000003
 21
2444.204952
 31
0.0
  0
LINE
  5
7B79
  8
1
  6
CONTINUOUS
 10
4455.0885549999994
 20
3824.204952
 30
0.0
 11
5125.0885549999994
 21
3824.204952
 31
0.0
  0
LINE
  5
7B7A
  8
1
  6
CONTINUOUS
 10
4413.0885549999994
 20
3864.204952000001
 30
0.0
 11
5167.0885549999994
 21
3864.204952000001
 31
0.0
  0
LINE
  5
7B9D
  8
2
  6
CENTER
 10
1162.7375099999999
 20
5949.1378100000002
 30
0.0
 11
3297.6143569999999
 21
5949.1378100000002
 31
0.0
  0
LINE
  5
7B9E
  8
2
  6
CENTER
 10
4790.0885549999994
 20
3965.4741590000008
 30
0.0
 11
4790.0885549999994
 21
2157.624753999999
 31
0.0
  0
LINE
  5
7B9F
  8
2
  6
CENTER
 10
2008.0478069999999
 20
5268.7968549999987
 30
0.0
 11
2008.0478069999999
 21
6471.0003960000004
 31
0.0
  0
LINE
  5
7BA0
  8
2
  6
CENTER
 10
3160.2410340000001
 20
3209.204952
 30
0.0
 11
1255.4750369999999
 21
3209.204952
 31
0.0
  0
LINE
  5
7BA1
  8
4
  6
CONTINUOUS
 10
5550.0
 20
1500.0
 30
0.0
 11
5550.0
 21
900.0
 31
0.0
  0
LINE
  5
7BA2
  8
4
  6
CONTINUOUS
 10
3450.0
 20
1500.0
 30
0.0
 11
3450.0
 21
900.0
 31
0.0
  0
LINE
  5
7BA3
  8
4
  6
CONTINUOUS
 10
1950.0
 20
1500.0
 30
0.0
 11
1950.0
 21
900.0
 31
0.0
  0
LINE
  5
7BA6
  8
4
  6
CONTINUOUS
 10
1950.0
 20
900.0
 30
0.0
 11
5550.0
 21
900.0
 31
0.0
  0
LINE
  5
7BA7
  8
4
  6
CONTINUOUS
 10
1950.0
 20
1200.0
 30
0.0
 11
5550.0
 21
1200.0
 31
0.0
  0
TEXT
  5
7BA8
  8
4
  6
CONTINUOUS
 10
2065.5062429999989
 20
1294.6290779999999
 30
0.0
 40
150.0
  1
機器名称
  0
TEXT
  5
7BA9
  8
4
  6
CONTINUOUS
 10
2058.7743179999989
 20
964.9354699999999
 30
0.0
 40
150.0
  1
機器型番
  0
TEXT
  5
7BAA
  8
4
  6
CONTINUOUS
 10
3533.0362359999999
 20
1267.7153069999999
 30
0.0
 40
150.0
  1
ミツヤ多翼送風機
  0
TEXT
  5
7BAB
  8
4
  6
CONTINUOUS
 10
3559.9634869999991
 20
951.47875299999987
 30
0.0
 40
150.0
  1
MF#5 1/2-4
  0
TEXT
  5
7BAD
  8
4
  6
CONTINUOUS
 10
2296.5671779999998
 20
7150.2865239999992
 30
0.0
 40
162.0
  1
床置防振ベット
  0
TEXT
  5
7BAE
  8
4
  6
CONTINUOUS
 10
948.50278000000014
 20
7601.6429289999996
 30
0.0
 40
216.0
  1
ベルト駆動式片吸込両持多翼ファン
  0
LINE
  5
7BAF
  8
4
  6
CONTINUOUS
 10
750.0
 20
7408.2262629999996
 30
0.0
 11
5550.0
 21
7408.2262629999996
 31
0.0
  0
LINE
  5
7BB0
  8
4
  6
CONTINUOUS
 10
750.0
 20
8008.2262629999996
 30
0.0
 11
5550.0
 21
8008.2262629999996
 31
0.0
  0
LINE
  5
7BB1
  8
4
  6
CONTINUOUS
 10
1950.0
 20
1500.0
 30
0.0
 11
5550.0
 21
1500.0
 31
0.0
  0
LINE
  5
7BB2
  8
4
  6
CONTINUOUS
 10
750.0
 20
8008.2262629999996
 30
0.0
 11
750.0
 21
7408.2262629999996
 31
0.0
  0
TEXT
  5
7BB3
  8
4
  6
CONTINUOUS
 10
988.99068199999999
 20
7146.9584329999998
 30
0.0
 40
162.0
  1
左回転上向
  0
TEXT
  5
7BB4
  8
4
  6
CONTINUOUS
 10
4406.9086779999989
 20
8118.1832439999989
 30
0.0
 40
168.0
  1
No.
  0
TEXT
  5
7BB5
  8
4
  6
CONTINUOUS
 10
3933.8881879999999
 20
7150.2865239999992
 30
0.0
 40
162.0
  1
縮尺：1/30
  0
LINE
  5
7BB6
  8
4
  6
CONTINUOUS
 10
5550.0
 20
8008.2262629999996
 30
0.0
 11
5550.0
 21
7408.2262629999996
 31
0.0
  0
LINE
  5
7BB8
  8
4
  6
CONTINUOUS
 10
4321.8522670000002
 20
8043.7907490000007
 30
0.0
 11
4321.8522670000002
 21
8359.9567849999985
 31
0.0
  0
LINE
  5
7BB9
  8
4
  6
CONTINUOUS
 10
4321.8522670000002
 20
8359.9567849999985
 30
0.0
 11
5550.0
 21
8359.9567849999985
 31
0.0
  0
LINE
  5
7BBA
  8
4
  6
CONTINUOUS
 10
5550.0
 20
8359.9567849999985
 30
0.0
 11
5550.0
 21
8043.7907490000007
 31
0.0
  0
LINE
  5
7BBB
  8
4
  6
CONTINUOUS
 10
5550.0
 20
8043.7907490000007
 30
0.0
 11
4321.8522670000002
 21
8043.7907490000007
 31
0.0
  0
DIMENSION
  5
7BCC
  8
3
  6
CONTINUOUS
  2
*D1
 10
1966.047806999999
 20
4036.8744840000008
 30
0.0
 11
2414.400705
 21
4036.8744840000008
 31
0.0
 70
   128
 13
2891.047806999999
 23
3864.204952000001
 33
0.0
 14
1966.047806999999
 24
3864.204952000001
 34
0.0
1001
ACAD
1000
DSTYLE
1002
{
1070
   287
1070
     3
1070
    40
1040
30.0
1070
   143
1040
0.039
1070
   172
1070
     1
1070
   271
1070
     0
1070
   279
1070
     0
1070
   288
1070
     1
1002
}
  0
DIMENSION
  5
7BF7
  8
3
  6
CONTINUOUS
  2
*D2
 10
1163.433229
 20
3209.204952
 30
0.0
 11
1163.433229
 21
3529.7723190000002
 31
0.0
 70
   128
 13
1923.5478069999999
 23
3864.204952000001
 33
0.0
 14
1255.4750369999999
 24
3209.204952
 34
0.0
 50
90.0
1001
ACAD
1000
DSTYLE
1002
{
1070
   287
1070
     3
1070
    40
1040
30.0
1070
   143
1040
0.039
1070
   172
1070
     1
1070
   271
1070
     0
1070
   279
1070
     0
1070
   288
1070
     1
1002
}
  0
DIMENSION
  5
7C03
  8
3
  6
CONTINUOUS
  2
*D3
 10
1163.433229
 20
2444.204952
 30
0.0
 11
1088.4332289999991
 21
2826.704952
 31
0.0
 70
     0
 13
1255.4750369999999
 23
3209.204952
 33
0.0
 14
1438.0478069999999
 24
2444.204952
 34
0.0
 50
90.0
1001
ACAD
1000
DSTYLE
1002
{
1070
   287
1070
     4
1070
    40
1040
30.0
1070
    75
1070
     1
1070
   143
1040
0.039
1070
   172
1070
     1
1070
   271
1070
     0
1070
   279
1070
     1
1070
   288
1070
     1
1002
}
  0
DIMENSION
  5
7C13
  8
3
  6
CONTINUOUS
  2
*D4
 10
1163.127438
 20
2303.204952
 30
0.0
 11
1163.127438
 21
2065.3478091428578
 31
0.0
 70
   128
 13
1438.0478069999999
 23
2444.204952
 33
0.0
 14
1438.0478069999999
 24
2303.204952
 34
0.0
 50
90.0
1001
ACAD
1000
DSTYLE
1002
{
1070
   287
1070
     3
1070
    40
1040
30.0
1070
   143
1040
0.039
1070
   172
1070
     1
1070
   271
1070
     0
1070
   279
1070
     0
1070
   288
1070
     1
1002
}
  0
DIMENSION
  5
7C20
  8
3
  6
CONTINUOUS
  2
*D5
 10
2008.0478069999999
 20
2052.5696760000001
 30
0.0
 11
1736.5701969999991
 21
2052.5696760000001
 31
0.0
 70
   128
 13
1438.0478069999999
 23
2303.204952
 33
0.0
 14
2008.0478069999999
 24
2133.3230589999989
 34
0.0
1001
ACAD
1000
DSTYLE
1002
{
1070
   287
1070
     3
1070
    40
1040
30.0
1070
   143
1040
0.039
1070
   172
1070
     1
1070
   271
1070
     0
1070
   279
1070
     0
1070
   288
1070
     1
1002
}
  0
DIMENSION
  5
7C2C
  8
3
  6
CONTINUOUS
  2
*D6
 10
3188.0478069999999
 20
2052.5696760000001
 30
0.0
 11
2598.0478069999999
 21
2127.5696760000001
 31
0.0
 70
     0
 13
2008.0478069999999
 23
2133.3230589999989
 33
0.0
 14
3188.0478069999999
 24
2303.204952
 34
0.0
1001
ACAD
1000
DSTYLE
1002
{
1070
   287
1070
     4
1070
    40
1040
30.0
1070
    75
1070
     1
1070
   143
1040
0.039
1070
   172
1070
     1
1070
   271
1070
     0
1070
   279
1070
     1
1070
   288
1070
     1
1002
}
  0
DIMENSION
  5
7C39
  8
3
  6
CONTINUOUS
  2
*D7
 10
969.84392500000035
 20
2303.204952
 30
0.0
 11
969.8439249999999
 21
3122.787906
 31
0.0
 70
   128
 13
1908.5478069999999
 23
3864.204952000001
 33
0.0
 14
1438.0478069999999
 24
2303.204952
 34
0.0
 50
90.0
1001
ACAD
1000
DSTYLE
1002
{
1070
   287
1070
     3
1070
    40
1040
30.0
1070
   143
1040
0.039
1070
   172
1070
     1
1070
   271
1070
     0
1070
   279
1070
     0
1070
   288
1070
     1
1002
}
  0
LINE
  5
7C47
  8
1
  6
CONTINUOUS
 10
5129.0885549999994
 20
3684.204952
 30
0.0
 11
5129.0885549999994
 21
2734.204952
 31
0.0
  0
DIMENSION
  5
7C56
  8
3
  6
CONTINUOUS
  2
*D8
 10
5395.2091280000013
 20
2734.204952
 30
0.0
 11
5395.2091280000013
 21
3205.6921440000001
 31
0.0
 70
   128
 13
5129.0885549999994
 23
3684.204952
 33
0.0
 14
5129.0885549999994
 24
2734.204952
 34
0.0
 50
90.0
1001
ACAD
1000
DSTYLE
1002
{
1070
   287
1070
     3
1070
     3
1000
φ<>
1070
    40
1040
30.0
1070
   143
1040
0.039
1070
   172
1070
     1
1070
   271
1070
     0
1070
   279
1070
     0
1070
   288
1070
     1
1002
}
  0
DIMENSION
  5
7C65
  8
3
  6
CONTINUOUS
  2
*D9
 10
4790.0885549999994
 20
4278.6603649999988
 30
0.0
 11
4959.5885549999994
 21
4360.8193737943548
 31
0.0
 70
   128
 13
5129.0885549999994
 23
3684.204952
 33
0.0
 14
4790.0885549999994
 24
4225.8166229999997
 34
0.0
1001
ACAD
1000
DSTYLE
1002
{
1070
   288
1070
     1
1070
   172
1070
     1
1070
    40
1040
30.0
1070
   271
1070
     0
1070
   143
1040
0.039
1002
}
  0
DIMENSION
  5
7C71
  8
3
  6
CONTINUOUS
  2
*D10
 10
4180.0885550000003
 20
4278.6603649999988
 30
0.0
 11
4485.0885549999994
 21
4428.6603649999988
 31
0.0
 70
     0
  1
MAX\P640
 13
4790.0885549999994
 23
4225.8166229999997
 33
0.0
 14
4180.0885550000003
 24
3714.204952000001
 34
0.0
1001
ACAD
1000
DSTYLE
1002
{
1070
   287
1070
     4
1070
    40
1040
30.0
1070
    75
1070
     1
1070
   143
1040
0.039
1070
   172
1070
     1
1070
   271
1070
     0
1070
   279
1070
     1
1070
   288
1070
     1
1002
}
  0
DIMENSION
  5
7C8B
  8
3
  6
CONTINUOUS
  2
*D11
 10
4790.0885549999994
 20
2029.9594119999999
 30
0.0
 11
4520.4210909999993
 21
2029.9594119999999
 31
0.0
 70
   128
 13
4257.0885549999994
 23
2303.204952
 33
0.0
 14
4790.0885549999994
 24
2157.624753999999
 34
0.0
1001
ACAD
1000
DSTYLE
1002
{
1070
   287
1070
     3
1070
    40
1040
30.0
1070
   143
1040
0.039
1070
   172
1070
     1
1070
   271
1070
     0
1070
   279
1070
     0
1070
   288
1070
     1
1002
}
  0
DIMENSION
  5
7C99
  8
3
  6
CONTINUOUS
  2
*D12
 10
5177.0885550000003
 20
2029.9594119999999
 30
0.0
 11
4971.2326359999988
 21
2026.287881
 31
0.0
 70
   128
 13
4790.0885549999994
 23
2157.624753999999
 33
0.0
 14
5177.0885550000003
 24
2303.204952
 34
0.0
1001
ACAD
1000
DSTYLE
1002
{
1070
   287
1070
     4
1070
    40
1040
30.0
1070
    75
1070
     1
1070
   143
1040
0.039
1070
   172
1070
     1
1070
   271
1070
     0
1070
   279
1070
     1
1070
   288
1070
     1
1002
}
  0
DIMENSION
  5
7CA6
  8
3
  6
CONTINUOUS
  2
*D13
 10
3188.0478069999999
 20
6570.1624760000004
 30
0.0
 11
2347.413591
 21
6570.1624760000004
 31
0.0
 70
   128
 13
1438.0478069999999
 23
6336.1378100000002
 33
0.0
 14
3188.0478069999999
 24
6336.1378100000002
 34
0.0
1001
ACAD
1000
DSTYLE
1002
{
1070
   287
1070
     3
1070
    40
1040
30.0
1070
   143
1040
0.039
1070
   172
1070
     1
1070
   271
1070
     0
1070
   279
1070
     0
1070
   288
1070
     1
1002
}
  0
DIMENSION
  5
7CB3
  8
3
  6
CONTINUOUS
  2
*D14
 10
3501.228811
 20
5416.1378100000002
 30
0.0
 11
3501.228811
 21
5944.6123689999986
 31
0.0
 70
   128
 13
3188.0478069999999
 23
6336.1378100000002
 33
0.0
 14
3188.0478069999999
 24
5416.1378100000002
 34
0.0
 50
90.0
1001
ACAD
1000
DSTYLE
1002
{
1070
   287
1070
     3
1070
    40
1040
30.0
1070
   143
1040
0.039
1070
   172
1070
     1
1070
   271
1070
     0
1070
   279
1070
     0
1070
   288
1070
     1
1002
}
  0
DIMENSION
  5
7CC5
  8
3
  6
CONTINUOUS
  2
*D15
 10
2008.0478069999999
 20
4253.6927269999996
 30
0.0
 11
1675.9045080000001
 21
4253.6927269999996
 31
0.0
 70
   128
 13
1365.052864008268
 23
3209.204952
 33
0.0
 14
2008.0478069999999
 24
4056.1831379999999
 34
0.0
1001
ACAD
1000
DSTYLE
1002
{
1070
   287
1070
     3
1070
    40
1040
30.0
1070
   143
1040
0.039
1070
   172
1070
     1
1070
   271
1070
     0
1070
   279
1070
     0
1070
   288
1070
     1
1002
}
  0
DIMENSION
  5
7CD1
  8
3
  6
CONTINUOUS
  2
*D16
 10
2891.047806999999
 20
4253.6927269999996
 30
0.0
 11
2449.5478069999999
 21
4328.6927269999996
 31
0.0
 70
     0
 13
2008.0478069999999
 23
4056.1831379999999
 33
0.0
 14
2891.047806999999
 24
3864.204952000001
 34
0.0
1001
ACAD
1000
DSTYLE
1002
{
1070
   287
1070
     4
1070
    40
1040
30.0
1070
    75
1070
     1
1070
   143
1040
0.039
1070
   172
1070
     1
1070
   271
1070
     0
1070
   279
1070
     1
1070
   288
1070
     1
1002
}
  0
DIMENSION
  5
7D5E
  8
3
  6
CONTINUOUS
  2
*D17
 10
5125.0885549999994
 20
4050.135510999999
 30
0.0
 11
4775.0396659999997
 21
4050.135510999999
 31
0.0
 70
   128
 13
4455.0885549999994
 23
3864.204952000001
 33
0.0
 14
5125.0885549999994
 24
3864.204952000001
 34
0.0
1001
ACAD
1000
DSTYLE
1002
{
1070
   287
1070
     3
1070
    40
1040
30.0
1070
   143
1040
0.039
1070
   172
1070
     1
1070
   271
1070
     0
1070
   279
1070
     0
1070
   288
1070
     1
1002
}
  0
LINE
  5
7E46
  8
1
  6
CONTINUOUS
 10
1448.047806999999
 20
3664.204952
 30
0.0
 11
2568.0478069999999
 21
3664.204952
 31
0.0
  0
LINE
  5
7E47
  8
1
 10
1448.0478069999999
 20
2544.204952
 30
0.0
 11
1448.047806999999
 21
3664.204952
 31
0.0
  0
LINE
  5
7E48
  8
1
 10
2568.0478069999999
 20
2544.204952
 30
0.0
 11
2568.0478069999999
 21
3664.204952
 31
0.0
  0
ENDSEC
  0
EOF
