  0
SECTION
  2
HEADER
  9
$ACADVER
  1
AC1009
  9
$INSBASE
 10
0.0
 20
0.0
 30
0.0
  9
$EXTMIN
 10
750.0
 20
900.0
 30
0.0
  9
$EXTMAX
 10
5550.0
 20
8359.9567849999985
 30
0.0
  9
$LIMMIN
 10
0.0
 20
0.0
  9
$LIMMAX
 10
297.0
 20
210.0
  9
$ORTHOMODE
 70
     0
  9
$REGENMODE
 70
     1
  9
$FILLMODE
 70
     0
  9
$QTEXTMODE
 70
     0
  9
$MIRRTEXT
 70
     1
  9
$DRAGMODE
 70
     2
  9
$LTSCALE
 40
100.0
  9
$OSMODE
 70
    37
  9
$ATTMODE
 70
     1
  9
$TEXTSIZE
 40
180.0
  9
$TRACEWID
 40
0.05
  9
$TEXTSTYLE
  7
STANDARD
  9
$CLAYER
  8
3
  9
$CELTYPE
  6
BYLAYER
  9
$CECOLOR
 62
   256
  9
$DIMSCALE
 40
30.0
  9
$DIMASZ
 40
2.0
  9
$DIMEXO
 40
0.5
  9
$DIMDLI
 40
10.0
  9
$DIMRND
 40
0.0
  9
$DIMDLE
 40
0.0
  9
$DIMEXE
 40
1.0
  9
$DIMTP
 40
1.0
  9
$DIMTM
 40
1.0
  9
$DIMTXT
 40
3.0
  9
$DIMCEN
 40
0.0
  9
$DIMTSZ
 40
0.0
  9
$DIMTOL
 70
     0
  9
$DIMLIM
 70
     0
  9
$DIMTIH
 70
     0
  9
$DIMTOH
 70
     0
  9
$DIMSE1
 70
     0
  9
$DIMSE2
 70
     0
  9
$DIMTAD
 70
     1
  9
$DIMZIN
 70
     8
  9
$DIMBLK
  1

  9
$DIMASO
 70
     1
  9
$DIMSHO
 70
     1
  9
$DIMPOST
  1

  9
$DIMAPOST
  1

  9
$DIMALT
 70
     0
  9
$DIMALTD
 70
     2
  9
$DIMALTF
 40
0.039
  9
$DIMLFAC
 40
1.0
  9
$DIMTOFL
 70
     1
  9
$DIMTVP
 40
0.0
  9
$DIMTIX
 70
     0
  9
$DIMSOXD
 70
     0
  9
$DIMSAH
 70
     1
  9
$DIMBLK1
  1
OPEN
  9
$DIMBLK2
  1
OPEN
  9
$DIMSTYLE
  2
IGA
  9
$DIMCLRD
 70
     0
  9
$DIMCLRE
 70
     0
  9
$DIMCLRT
 70
     0
  9
$DIMTFAC
 40
10.0
  9
$DIMGAP
 40
1.0
  9
$LUNITS
 70
     2
  9
$LUPREC
 70
     3
  9
$SKETCHINC
 40
0.1
  9
$FILLETRAD
 40
50.0
  9
$AUNITS
 70
     0
  9
$AUPREC
 70
     0
  9
$MENU
  1
acad
  9
$ELEVATION
 40
0.0
  9
$PELEVATION
 40
0.0
  9
$THICKNESS
 40
0.0
  9
$LIMCHECK
 70
     0
  9
$BLIPMODE
 70
     0
  9
$CHAMFERA
 40
0.5
  9
$CHAMFERB
 40
0.5
  9
$SKPOLY
 70
     0
  9
$TDCREATE
 40
2450749.5759922452
  9
$TDUPDATE
 40
2454953.7771088309
  9
$TDINDWG
 40
0.0195206829
  9
$TDUSRTIMER
 40
0.0195206829
  9
$USRTIMER
 70
     1
  9
$ANGBASE
 50
0.0
  9
$ANGDIR
 70
     0
  9
$PDMODE
 70
     0
  9
$PDSIZE
 40
0.0
  9
$PLINEWID
 40
0.0
  9
$COORDS
 70
     1
  9
$SPLFRAME
 70
     0
  9
$SPLINETYPE
 70
     6
  9
$SPLINESEGS
 70
     8
  9
$ATTDIA
 70
     0
  9
$ATTREQ
 70
     1
  9
$HANDLING
 70
 10241
  9
$HANDSEED
  5
7E66
  9
$SURFTAB1
 70
     6
  9
$SURFTAB2
 70
     6
  9
$SURFTYPE
 70
     6
  9
$SURFU
 70
     6
  9
$SURFV
 70
     6
  9
$UCSNAME
  2

  9
$UCSORG
 10
0.0
 20
0.0
 30
0.0
  9
$UCSXDIR
 10
1.0
 20
0.0
 30
0.0
  9
$UCSYDIR
 10
0.0
 20
1.0
 30
0.0
  9
$PUCSNAME
  2

  9
$PUCSORG
 10
0.0
 20
0.0
 30
0.0
  9
$PUCSXDIR
 10
1.0
 20
0.0
 30
0.0
  9
$PUCSYDIR
 10
0.0
 20
1.0
 30
0.0
  9
$USERI1
 70
     0
  9
$USERI2
 70
     0
  9
$USERI3
 70
     0
  9
$USERI4
 70
     0
  9
$USERI5
 70
     0
  9
$USERR1
 40
0.0
  9
$USERR2
 40
0.0
  9
$USERR3
 40
0.0
  9
$USERR4
 40
0.0
  9
$USERR5
 40
0.0
  9
$WORLDVIEW
 70
     1
  9
$SHADEDGE
 70
     3
  9
$SHADEDIF
 70
    70
  9
$TILEMODE
 70
     1
  9
$MAXACTVP
 70
    16
  9
$PLIMCHECK
 70
     0
  9
$PEXTMIN
 10
1.0000000000000000E+020
 20
1.0000000000000000E+020
 30
1.0000000000000000E+020
  9
$PEXTMAX
 10
-1.0000000000000000E+020
 20
-1.0000000000000000E+020
 30
-1.0000000000000000E+020
  9
$PLIMMIN
 10
0.0
 20
0.0
  9
$PLIMMAX
 10
12.0
 20
9.0
  9
$UNITMODE
 70
     0
  9
$VISRETAIN
 70
     0
  9
$PLINEGEN
 70
     0
  9
$PSLTSCALE
 70
     1
  0
ENDSEC
  0
SECTION
  2
TABLES
  0
TABLE
  2
VPORT
 70
     2
  0
VPORT
  2
*ACTIVE
 70
     0
 10
0.0
 20
0.0
 11
1.0
 21
1.0
 12
9438.4567678319436
 22
4630.0975558305709
 13
0.0
 23
0.0
 14
10.0
 24
10.0
 15
10.0
 25
10.0
 16
0.0
 26
0.0
 36
1.0
 17
0.0
 27
0.0
 37
0.0
 40
7517.4747125171307
 41
3.1666666666666661
 42
50.0
 43
0.0
 44
0.0
 50
0.0
 51
0.0
 71
     0
 72
   100
 73
     1
 74
     0
 75
     0
 76
     0
 77
     0
 78
     0
  0
ENDTAB
  0
TABLE
  2
LTYPE
 70
     2
  0
LTYPE
  2
CONTINUOUS
 70
     0
  3
Solid line
 72
    65
 73
     0
 40
0.0
  0
LTYPE
  2
CENTER
 70
     0
  3
____ _ ____ _ ____ _ ____ _ ____ _ ____ _ ____ 
 72
    65
 73
     4
 40
2.0
 49
1.25
 49
-0.25
 49
0.25
 49
-0.25
  0
ENDTAB
  0
TABLE
  2
LAYER
 70
     6
  0
LAYER
  2
0
 70
     0
 62
     7
  6
CONTINUOUS
  0
LAYER
  2
3
 70
     0
 62
     2
  6
CONTINUOUS
  0
LAYER
  2
2
 70
     0
 62
     3
  6
CENTER
  0
LAYER
  2
1
 70
     0
 62
     4
  6
CONTINUOUS
  0
LAYER
  2
4
 70
     0
 62
     7
  6
CONTINUOUS
  0
LAYER
  2
DEFPOINTS
 70
     0
 62
     7
  6
CONTINUOUS
  0
ENDTAB
  0
TABLE
  2
STYLE
 70
     1
  0
STYLE
  2
STANDARD
 70
     0
 40
0.0
 41
1.0
 50
0.0
 71
     0
 42
180.0
  3
simplex.shx
  4
extfont.shx
  0
ENDTAB
  0
TABLE
  2
VIEW
 70
     0
  0
ENDTAB
  0
TABLE
  2
UCS
 70
     0
  0
ENDTAB
  0
TABLE
  2
APPID
 70
     1
  0
APPID
  2
ACAD
 70
     0
  0
ENDTAB
  0
TABLE
  2
DIMSTYLE
 70
     1
  0
DIMSTYLE
  2
IGA
 70
     0
  3

  4

  5

  6
OPEN
  7
OPEN
 40
2.0
 41
2.0
 42
0.5
 43
10.0
 44
1.0
 45
0.0
 46
0.0
 47
1.0
 48
1.0
140
3.0
141
0.0
142
0.0
143
0.03937
144
1.0
145
0.0
146
10.0
147
1.0
 71
     0
 72
     0
 73
     0
 74
     0
 75
     0
 76
     0
 77
     1
 78
     8
170
     0
171
     2
172
     0
173
     1
174
     0
175
     0
176
     0
177
     0
178
     0
  0
ENDTAB
  0
ENDSEC
  0
SECTION
  2
BLOCKS
  0
BLOCK
  8
0
  2
$MODEL_SPACE
 70
     0
 10
0.0
 20
0.0
 30
0.0
  3
$MODEL_SPACE
  1

  0
ENDBLK
  5
1B
  8
0
  0
BLOCK
 67
     1
  8
0
  2
$PAPER_SPACE
 70
     0
 10
0.0
 20
0.0
 30
0.0
  3
$PAPER_SPACE
  1

  0
ENDBLK
  5
18
 67
     1
  8
0
  0
BLOCK
  8
0
  2
_OPEN
 70
     0
 10
0.0
 20
0.0
 30
0.0
  3
_OPEN
  1

  0
LINE
  5
7B73
  8
0
  6
BYBLOCK
 62
     0
 10
-1.0
 20
0.166667
 30
0.0
 11
0.0
 21
0.0
 31
0.0
  0
LINE
  5
7B74
  8
0
  6
BYBLOCK
 62
     0
 10
0.0
 20
0.0
 30
0.0
 11
-1.0
 21
-0.166667
 31
0.0
  0
LINE
  5
7B75
  8
0
  6
BYBLOCK
 62
     0
 10
0.0
 20
0.0
 30
0.0
 11
-1.0
 21
0.0
 31
0.0
  0
ENDBLK
  5
7B76
  8
0
  0
BLOCK
  8
0
  2
*D1
 70
     1
 10
0.0
 20
0.0
 30
0.0
  3
*D1
  1

  0
LINE
  5
7DCA
  8
3
  6
CONTINUOUS
 62
     0
 10
1643.1731520000001
 20
3425.9809229999992
 30
0.0
 11
1466.160809
 21
3425.9809229999992
 31
0.0
  0
LINE
  5
7DCB
  8
3
  6
CONTINUOUS
 62
     0
 10
1643.1731520000001
 20
2500.9809230000001
 30
0.0
 11
1466.160809
 21
2500.9809230000001
 31
0.0
  0
LINE
  5
7DCC
  8
3
  6
CONTINUOUS
 62
     0
 10
1496.160809
 20
3365.9809229999992
 30
0.0
 11
1496.160809
 21
2560.9809230000001
 31
0.0
  0
INSERT
  5
7DCD
  8
3
  6
CONTINUOUS
 62
     0
  2
_OPEN
 10
1496.160809
 20
3425.9809229999992
 30
0.0
 41
60.0
 42
60.0
 43
60.0
 50
90.0
  0
INSERT
  5
7DCE
  8
3
  6
CONTINUOUS
 62
     0
  2
_OPEN
 10
1496.160809
 20
2500.9809230000001
 30
0.0
 41
60.0
 42
60.0
 43
60.0
 50
270.0
  0
TEXT
  8
3
  40
90
  5
7E55
  62
0
  72
0
  71
0
 10
1241.16
 20
2823.87
 30
0.000000
  1
925
  0
POINT
  5
7DD0
  8
DEFPOINTS
  6
CONTINUOUS
 62
     0
 10
1658.1731519999989
 20
3425.9809229999992
 30
0.0
  0
POINT
  5
7DD1
  8
DEFPOINTS
  6
CONTINUOUS
 62
     0
 10
1658.1731519999989
 20
2500.9809230000001
 30
0.0
  0
POINT
  5
7DD2
  8
DEFPOINTS
  6
CONTINUOUS
 62
     0
 10
1496.160809
 20
2500.9809230000001
 30
0.0
  0
ENDBLK
  5
7B83
  8
0
  0
BLOCK
  8
0
  2
*D2
 70
     1
 10
0.0
 20
0.0
 30
0.0
  3
*D2
  1

  0
LINE
  5
7DD3
  8
3
  6
CONTINUOUS
 62
     0
 10
1535.9791520000001
 20
3383.9809230000001
 30
0.0
 11
1280.745066
 21
3383.9809230000001
 31
0.0
  0
LINE
  5
7DD4
  8
3
  6
CONTINUOUS
 62
     0
 10
1643.1731520000001
 20
2500.9809230000001
 30
0.0
 11
1280.745066
 21
2500.9809230000001
 31
0.0
  0
LINE
  5
7DD5
  8
3
  6
CONTINUOUS
 62
     0
 10
1310.745066
 20
3323.9809230000001
 30
0.0
 11
1310.745066
 21
2560.9809230000001
 31
0.0
  0
INSERT
  5
7DD6
  8
3
  6
CONTINUOUS
 62
     0
  2
_OPEN
 10
1310.745066
 20
3383.9809230000001
 30
0.0
 41
60.0
 42
60.0
 43
60.0
 50
90.0
  0
INSERT
  5
7DD7
  8
3
  6
CONTINUOUS
 62
     0
  2
_OPEN
 10
1310.745066
 20
2500.9809230000001
 30
0.0
 41
60.0
 42
60.0
 43
60.0
 50
270.0
  0
TEXT
  8
3
  40
90
  5
7E56
  62
0
  72
0
  71
0
 10
1055.75
 20
2831.28
 30
0.000000
  1
883
  0
POINT
  5
7DD9
  8
DEFPOINTS
  6
CONTINUOUS
 62
     0
 10
1550.9791520000001
 20
3383.9809230000001
 30
0.0
  0
POINT
  5
7DDA
  8
DEFPOINTS
  6
CONTINUOUS
 62
     0
 10
1658.1731519999989
 20
2500.9809230000001
 30
0.0
  0
POINT
  5
7DDB
  8
DEFPOINTS
  6
CONTINUOUS
 62
     0
 10
1310.745066
 20
2500.9809230000001
 30
0.0
  0
ENDBLK
  5
7B90
  8
0
  0
BLOCK
  8
0
  2
*D3
 70
     1
 10
0.0
 20
0.0
 30
0.0
  3
*D3
  1

  0
LINE
  5
7DDC
  8
3
  6
CONTINUOUS
 62
     0
 10
1743.1731519999989
 20
2278.9809230000001
 30
0.0
 11
1743.1731519999989
 21
1961.2870929999999
 31
0.0
  0
LINE
  5
7DDD
  8
3
  6
CONTINUOUS
 62
     0
 10
2313.1731519999998
 20
2128.6316400000001
 30
0.0
 11
2313.1731519999998
 21
1961.2870929999999
 31
0.0
  0
LINE
  5
7DDE
  8
3
  6
CONTINUOUS
 62
     0
 10
1803.1731519999989
 20
1991.2870929999999
 30
0.0
 11
2253.1731519999998
 21
1991.2870929999999
 31
0.0
  0
INSERT
  5
7DDF
  8
3
  6
CONTINUOUS
 62
     0
  2
_OPEN
 10
1743.1731519999989
 20
1991.2870929999999
 30
0.0
 41
60.0
 42
60.0
 43
60.0
 50
180.0
  0
INSERT
  5
7DE0
  8
3
  6
CONTINUOUS
 62
     0
  2
_OPEN
 10
2313.1731519999998
 20
1991.2870929999999
 30
0.0
 41
60.0
 42
60.0
 43
60.0
  0
TEXT
  8
3
  40
90
  5
7E57
  62
0
  72
0
  71
0
 10
1852.14
 20
1906.99
 30
0.000000
  1
570
  0
POINT
  5
7DE2
  8
DEFPOINTS
  6
CONTINUOUS
 62
     0
 10
1743.1731519999989
 20
2293.9809230000001
 30
0.0
  0
POINT
  5
7DE3
  8
DEFPOINTS
  6
CONTINUOUS
 62
     0
 10
2313.1731519999998
 20
2143.6316400000001
 30
0.0
  0
POINT
  5
7DE4
  8
DEFPOINTS
  6
CONTINUOUS
 62
     0
 10
2313.1731519999998
 20
1991.2870929999999
 30
0.0
  0
ENDBLK
  5
7CAC
  8
0
  0
BLOCK
  8
0
  2
*D4
 70
     1
 10
0.0
 20
0.0
 30
0.0
  3
*D4
  1

  0
LINE
  5
7DE5
  8
3
  6
CONTINUOUS
 62
     0
 10
3493.1731519999998
 20
2278.9809230000001
 30
0.0
 11
3493.1731519999998
 21
1961.2870929999999
 31
0.0
  0
LINE
  5
7DE6
  8
3
  6
CONTINUOUS
 62
     0
 10
2373.1731519999998
 20
1991.2870929999999
 30
0.0
 11
3433.1731519999998
 21
1991.2870929999999
 31
0.0
  0
INSERT
  5
7DE7
  8
3
  6
CONTINUOUS
 62
     0
  2
_OPEN
 10
2313.1731519999998
 20
1991.2870929999999
 30
0.0
 41
60.0
 42
60.0
 43
60.0
 50
180.0
  0
INSERT
  5
7DE8
  8
3
  6
CONTINUOUS
 62
     0
  2
_OPEN
 10
3493.1731519999998
 20
1991.2870929999999
 30
0.0
 41
60.0
 42
60.0
 43
60.0
  0
TEXT
  8
3
  40
90
  5
7E58
  62
0
  72
0
  71
0
 10
2723.17
 20
1906.99
 30
0.000000
  1
1180
  0
POINT
  5
7DEA
  8
DEFPOINTS
  6
CONTINUOUS
 62
     0
 10
2313.1731519999998
 20
2143.6316400000001
 30
0.0
  0
POINT
  5
7DEB
  8
DEFPOINTS
  6
CONTINUOUS
 62
     0
 10
3493.1731519999998
 20
2293.9809230000001
 30
0.0
  0
POINT
  5
7DEC
  8
DEFPOINTS
  6
CONTINUOUS
 62
     0
 10
3493.1731519999998
 20
1991.2870929999999
 30
0.0
  0
ENDBLK
  5
7CA1
  8
0
  0
BLOCK
  8
0
  2
*D5
 70
     1
 10
0.0
 20
0.0
 30
0.0
  3
*D5
  1

  0
LINE
  5
7DED
  8
3
  6
CONTINUOUS
 62
     0
 10
1658.1731519999989
 20
3483.4809230000001
 30
0.0
 11
1658.1731519999989
 21
4266.6318069999988
 31
0.0
  0
LINE
  5
7DEE
  8
3
  6
CONTINUOUS
 62
     0
 10
2313.1731519999998
 20
4170.1181630000001
 30
0.0
 11
2313.1731519999998
 21
4266.6318069999988
 31
0.0
  0
LINE
  5
7DEF
  8
3
  6
CONTINUOUS
 62
     0
 10
1718.1731520000001
 20
4236.6318069999998
 30
0.0
 11
2253.1731519999998
 21
4236.6318069999998
 31
0.0
  0
INSERT
  5
7DF0
  8
3
  6
CONTINUOUS
 62
     0
  2
_OPEN
 10
1658.1731519999989
 20
4236.6318069999998
 30
0.0
 41
60.0
 42
60.0
 43
60.0
 50
180.0
  0
INSERT
  5
7DF1
  8
3
  6
CONTINUOUS
 62
     0
  2
_OPEN
 10
2313.1731519999998
 20
4236.6318069999998
 30
0.0
 41
60.0
 42
60.0
 43
60.0
  0
TEXT
  8
3
  40
90
  5
7E59
  62
0
  72
0
  71
0
 10
1797.20
 20
4152.33
 30
0.000000
  1
655
  0
POINT
  5
7DF3
  8
DEFPOINTS
  6
CONTINUOUS
 62
     0
 10
1658.1731519999989
 20
3468.4809229999992
 30
0.0
  0
POINT
  5
7DF4
  8
DEFPOINTS
  6
CONTINUOUS
 62
     0
 10
2313.1731519999998
 20
4155.1181630000001
 30
0.0
  0
POINT
  5
7DF5
  8
DEFPOINTS
  6
CONTINUOUS
 62
     0
 10
2313.1731519999998
 20
4236.6318069999998
 30
0.0
  0
ENDBLK
  5
7BDC
  8
0
  0
BLOCK
  8
0
  2
*D6
 70
     1
 10
0.0
 20
0.0
 30
0.0
  3
*D6
  1

  0
LINE
  5
7DF6
  8
3
  6
CONTINUOUS
 62
     0
 10
4487.1683230034459
 20
4043.7772660000001
 30
0.0
 11
4487.1683230034459
 21
4218.6008250000014
 31
0.0
  0
LINE
  5
7DF7
  8
3
  6
CONTINUOUS
 62
     0
 10
5157.1683230034459
 20
4043.7772660000001
 30
0.0
 11
5157.1683230034459
 21
4218.6008250000014
 31
0.0
  0
LINE
  5
7DF8
  8
3
  6
CONTINUOUS
 62
     0
 10
4547.1683230034459
 20
4188.6008250000004
 30
0.0
 11
5097.1683230034459
 21
4188.6008250000004
 31
0.0
  0
INSERT
  5
7DF9
  8
3
  6
CONTINUOUS
 62
     0
  2
_OPEN
 10
4487.1683230034459
 20
4188.6008250000004
 30
0.0
 41
60.0
 42
60.0
 43
60.0
 50
180.0
  0
INSERT
  5
7DFA
  8
3
  6
CONTINUOUS
 62
     0
  2
_OPEN
 10
5157.1683230034459
 20
4188.6008250000004
 30
0.0
 41
60.0
 42
60.0
 43
60.0
  0
TEXT
  8
3
  40
90
  5
7E5A
  62
0
  72
0
  71
0
 10
4646.38
 20
4104.30
 30
0.000000
  1
670
  0
POINT
  5
7DFC
  8
DEFPOINTS
  6
CONTINUOUS
 62
     0
 10
4487.1683230034459
 20
4028.7772659999991
 30
0.0
  0
POINT
  5
7DFD
  8
DEFPOINTS
  6
CONTINUOUS
 62
     0
 10
5157.1683230034459
 20
4028.7772659999991
 30
0.0
  0
POINT
  5
7DFE
  8
DEFPOINTS
  6
CONTINUOUS
 62
     0
 10
5157.1683230034459
 20
4188.6008250000004
 30
0.0
  0
ENDBLK
  5
7BF5
  8
0
  0
BLOCK
  8
0
  2
*D7
 70
     1
 10
0.0
 20
0.0
 30
0.0
  3
*D7
  1

  0
LINE
  5
7DFF
  8
3
  6
CONTINUOUS
 62
     0
 10
5176.1683230034459
 20
3858.9809230000001
 30
0.0
 11
5440.0421750034466
 21
3858.9809230000001
 31
0.0
  0
LINE
  5
7E00
  8
3
  6
CONTINUOUS
 62
     0
 10
5176.1683230034459
 20
2908.9809230000001
 30
0.0
 11
5440.0421750034466
 21
2908.9809230000001
 31
0.0
  0
LINE
  5
7E01
  8
3
  6
CONTINUOUS
 62
     0
 10
5410.0421750034466
 20
3798.9809230000001
 30
0.0
 11
5410.0421750034466
 21
2968.9809230000001
 31
0.0
  0
INSERT
  5
7E02
  8
3
  6
CONTINUOUS
 62
     0
  2
_OPEN
 10
5410.0421750034466
 20
3858.9809230000001
 30
0.0
 41
60.0
 42
60.0
 43
60.0
 50
90.0
  0
INSERT
  5
7E03
  8
3
  6
CONTINUOUS
 62
     0
  2
_OPEN
 10
5410.0421750034466
 20
2908.9809230000001
 30
0.0
 41
60.0
 42
60.0
 43
60.0
 50
270.0
  0
TEXT
  8
3
  40
90
  5
7E5B
  62
0
  72
0
  71
0
 10
5155.04
 20
3226.50
 30
0.000000
  1
φ950
  0
POINT
  5
7E05
  8
DEFPOINTS
  6
CONTINUOUS
 62
     0
 10
5161.1683230034459
 20
3858.9809230000001
 30
0.0
  0
POINT
  5
7E06
  8
DEFPOINTS
  6
CONTINUOUS
 62
     0
 10
5161.1683230034459
 20
2908.9809230000001
 30
0.0
  0
POINT
  5
7E07
  8
DEFPOINTS
  6
CONTINUOUS
 62
     0
 10
5410.0421750034466
 20
2908.9809230000001
 30
0.0
  0
ENDBLK
  5
7D6F
  8
0
  0
BLOCK
  8
0
  2
*D8
 70
     1
 10
0.0
 20
0.0
 30
0.0
  3
*D8
  1

  0
LINE
  5
7D51
  8
0
  6
BYBLOCK
 62
     0
 10
5161.1683230034459
 20
3873.9809229999992
 30
0.0
 11
5161.1683230034459
 21
4417.5863280000003
 31
0.0
  0
LINE
  5
7D52
  8
0
  6
BYBLOCK
 62
     0
 10
4822.168323003445
 20
4340.3253499999992
 30
0.0
 11
4822.168323003445
 21
4417.5863280000003
 31
0.0
  0
LINE
  5
7D53
  8
0
  6
BYBLOCK
 62
     0
 10
5101.1683230034459
 20
4387.5863280000003
 30
0.0
 11
4882.1683230034459
 21
4387.5863280000003
 31
0.0
  0
TEXT
  5
7D54
  8
3
 62
     0
 10
4878.0968944320184
 20
4426.3444398369984
 30
0.0
 40
90.0
  1
339
  0
INSERT
  5
7D55
  8
0
  6
BYBLOCK
 62
     0
  2
_OPEN
 10
5161.1683230034459
 20
4387.5863280000003
 30
0.0
 41
60.0
 42
60.0
 43
60.0
  0
INSERT
  5
7D56
  8
0
  6
BYBLOCK
 62
     0
  2
_OPEN
 10
4822.168323003445
 20
4387.5863280000003
 30
0.0
 41
60.0
 42
60.0
 43
60.0
 50
180.0
  0
POINT
  5
7D57
  8
DEFPOINTS
  6
BYBLOCK
 62
     0
 10
5161.1683230034459
 20
3858.9809230000001
 30
0.0
  0
POINT
  5
7D58
  8
DEFPOINTS
  6
BYBLOCK
 62
     0
 10
4822.168323003445
 20
4325.3253499999992
 30
0.0
  0
POINT
  5
7D59
  8
DEFPOINTS
  6
BYBLOCK
 62
     0
 10
4822.168323003445
 20
4387.5863280000003
 30
0.0
  0
ENDBLK
  5
7D5A
  8
0
  0
BLOCK
  8
0
  2
*D9
 70
     1
 10
0.0
 20
0.0
 30
0.0
  3
*D9
  1

  0
LINE
  5
7E08
  8
3
  6
CONTINUOUS
 62
     0
 10
4212.1683230034459
 20
3838.9809229999992
 30
0.0
 11
4212.1683230034459
 21
4417.5863280000003
 31
0.0
  0
LINE
  5
7E09
  8
3
  6
CONTINUOUS
 62
     0
 10
4762.1683230034459
 20
4387.5863280000003
 30
0.0
 11
4272.168323003445
 21
4387.5863280000003
 31
0.0
  0
INSERT
  5
7E0A
  8
3
  6
CONTINUOUS
 62
     0
  2
_OPEN
 10
4822.168323003445
 20
4387.5863280000003
 30
0.0
 41
60.0
 42
60.0
 43
60.0
  0
INSERT
  5
7E0B
  8
3
  6
CONTINUOUS
 62
     0
  2
_OPEN
 10
4212.1683230034459
 20
4387.5863280000003
 30
0.0
 41
60.0
 42
60.0
 43
60.0
 50
180.0
  0
TEXT
  8
3
  40
90
  5
7E5C
  62
0
  72
0
  71
0
 10
4337.17
 20
4378.29
 30
0.000000
  1
MAX
  0
TEXT
  8
3
  40
90
  5
7E5D
  62
0
  72
0
  71
0
 10
4337.17
 20
4261.29
 30
0.000000
  1
640
  0
POINT
  5
7E0D
  8
DEFPOINTS
  6
CONTINUOUS
 62
     0
 10
4822.168323003445
 20
4325.3253499999992
 30
0.0
  0
POINT
  5
7E0E
  8
DEFPOINTS
  6
CONTINUOUS
 62
     0
 10
4212.1683230034459
 20
3823.9809230000001
 30
0.0
  0
POINT
  5
7E0F
  8
DEFPOINTS
  6
CONTINUOUS
 62
     0
 10
4212.1683230034459
 20
4387.5863280000003
 30
0.0
  0
ENDBLK
  5
7D64
  8
0
  0
BLOCK
  8
0
  2
*D10
 70
     1
 10
0.0
 20
0.0
 30
0.0
  3
*D10
  1

  0
LINE
  5
7E10
  8
3
  6
CONTINUOUS
 62
     0
 10
4289.1683230034459
 20
2278.9809230000001
 30
0.0
 11
4289.1683230034459
 21
1977.706768
 31
0.0
  0
LINE
  5
7E11
  8
3
  6
CONTINUOUS
 62
     0
 10
4822.168323003445
 20
2054.422356999999
 30
0.0
 11
4822.168323003445
 21
1977.706768
 31
0.0
  0
LINE
  5
7E12
  8
3
  6
CONTINUOUS
 62
     0
 10
4349.168323003445
 20
2007.7067679999991
 30
0.0
 11
4762.1683230034459
 21
2007.7067679999991
 31
0.0
  0
INSERT
  5
7E13
  8
3
  6
CONTINUOUS
 62
     0
  2
_OPEN
 10
4289.1683230034459
 20
2007.7067679999991
 30
0.0
 41
60.0
 42
60.0
 43
60.0
 50
180.0
  0
INSERT
  5
7E14
  8
3
  6
CONTINUOUS
 62
     0
  2
_OPEN
 10
4822.168323003445
 20
2007.7067679999991
 30
0.0
 41
60.0
 42
60.0
 43
60.0
  0
TEXT
  8
3
  40
90
  5
7E5E
  62
0
  72
0
  71
0
 10
4399.18
 20
1923.41
 30
0.000000
  1
533
  0
POINT
  5
7E16
  8
DEFPOINTS
  6
CONTINUOUS
 62
     0
 10
4289.1683230034459
 20
2293.9809230000001
 30
0.0
  0
POINT
  5
7E17
  8
DEFPOINTS
  6
CONTINUOUS
 62
     0
 10
4822.168323003445
 20
2069.4223569999999
 30
0.0
  0
POINT
  5
7E18
  8
DEFPOINTS
  6
CONTINUOUS
 62
     0
 10
4822.168323003445
 20
2007.7067679999991
 30
0.0
  0
ENDBLK
  5
7CCE
  8
0
  0
BLOCK
  8
0
  2
*D11
 70
     1
 10
0.0
 20
0.0
 30
0.0
  3
*D11
  1

  0
LINE
  5
7E19
  8
3
  6
CONTINUOUS
 62
     0
 10
5209.1683230034459
 20
2278.9809230000001
 30
0.0
 11
5209.1683230034459
 21
1977.706768
 31
0.0
  0
LINE
  5
7E1A
  8
3
  6
CONTINUOUS
 62
     0
 10
4882.1683230034459
 20
2007.7067679999991
 30
0.0
 11
5149.1683230034459
 21
2007.7067679999991
 31
0.0
  0
TEXT
  8
3
  40
90
  5
7E5F
  62
0
  72
0
  71
0
 10
4860.73
 20
1922.26
 30
0.000000
  1
387
  0
INSERT
  5
7E1C
  8
3
  6
CONTINUOUS
 62
     0
  2
_OPEN
 10
4822.168323003445
 20
2007.7067679999991
 30
0.0
 41
60.0
 42
60.0
 43
60.0
 50
180.0
  0
INSERT
  5
7E1D
  8
3
  6
CONTINUOUS
 62
     0
  2
_OPEN
 10
5209.1683230034459
 20
2007.7067679999991
 30
0.0
 41
60.0
 42
60.0
 43
60.0
  0
POINT
  5
7E1E
  8
DEFPOINTS
  6
CONTINUOUS
 62
     0
 10
4822.168323003445
 20
2069.4223569999999
 30
0.0
  0
POINT
  5
7E1F
  8
DEFPOINTS
  6
CONTINUOUS
 62
     0
 10
5209.1683230034459
 20
2293.9809230000001
 30
0.0
  0
POINT
  5
7E20
  8
DEFPOINTS
  6
CONTINUOUS
 62
     0
 10
5209.1683230034459
 20
2007.7067679999991
 30
0.0
  0
ENDBLK
  5
7CE4
  8
0
  0
BLOCK
  8
0
  2
*D12
 70
     1
 10
0.0
 20
0.0
 30
0.0
  3
*D12
  1

  0
LINE
  5
7E21
  8
3
  6
CONTINUOUS
 62
     0
 10
1743.1731519999989
 20
6463.8917060000012
 30
0.0
 11
1743.1731519999989
 21
6709.5717960000002
 31
0.0
  0
LINE
  5
7E22
  8
3
  6
CONTINUOUS
 62
     0
 10
3493.1731519999998
 20
6463.8917060000012
 30
0.0
 11
3493.1731519999998
 21
6709.5717960000002
 31
0.0
  0
LINE
  5
7E23
  8
3
  6
CONTINUOUS
 62
     0
 10
1803.1731519999989
 20
6679.5717960000011
 30
0.0
 11
3433.1731519999998
 21
6679.5717960000011
 31
0.0
  0
INSERT
  5
7E24
  8
3
  6
CONTINUOUS
 62
     0
  2
_OPEN
 10
1743.1731519999989
 20
6679.5717960000011
 30
0.0
 41
60.0
 42
60.0
 43
60.0
 50
180.0
  0
INSERT
  5
7E25
  8
3
  6
CONTINUOUS
 62
     0
  2
_OPEN
 10
3493.1731519999998
 20
6679.5717960000011
 30
0.0
 41
60.0
 42
60.0
 43
60.0
  0
TEXT
  8
3
  40
90
  5
7E60
  62
0
  72
0
  71
0
 10
2428.93
 20
6595.27
 30
0.000000
  1
1750
  0
POINT
  5
7E27
  8
DEFPOINTS
  6
CONTINUOUS
 62
     0
 10
1743.1731519999989
 20
6448.8917060000012
 30
0.0
  0
POINT
  5
7E28
  8
DEFPOINTS
  6
CONTINUOUS
 62
     0
 10
3493.1731519999998
 20
6448.8917060000012
 30
0.0
  0
POINT
  5
7E29
  8
DEFPOINTS
  6
CONTINUOUS
 62
     0
 10
3493.1731519999998
 20
6679.5717960000011
 30
0.0
  0
ENDBLK
  5
7CB7
  8
0
  0
BLOCK
  8
0
  2
*D13
 70
     1
 10
0.0
 20
0.0
 30
0.0
  3
*D13
  1

  0
LINE
  5
7E2A
  8
3
  6
CONTINUOUS
 62
     0
 10
3508.1731519999998
 20
6448.8917060000012
 30
0.0
 11
3778.7846930000001
 21
6448.8917060000012
 31
0.0
  0
LINE
  5
7E2B
  8
3
  6
CONTINUOUS
 62
     0
 10
3508.1731519999998
 20
5528.8917060000003
 30
0.0
 11
3778.7846930000001
 21
5528.8917060000003
 31
0.0
  0
LINE
  5
7E2C
  8
3
  6
CONTINUOUS
 62
     0
 10
3748.784693000001
 20
6388.8917060000003
 30
0.0
 11
3748.784693000001
 21
5588.8917060000003
 31
0.0
  0
INSERT
  5
7E2D
  8
3
  6
CONTINUOUS
 62
     0
  2
_OPEN
 10
3748.784693000001
 20
6448.8917060000012
 30
0.0
 41
60.0
 42
60.0
 43
60.0
 50
90.0
  0
INSERT
  5
7E2E
  8
3
  6
CONTINUOUS
 62
     0
  2
_OPEN
 10
3748.784693000001
 20
5528.8917060000003
 30
0.0
 41
60.0
 42
60.0
 43
60.0
 50
270.0
  0
TEXT
  8
3
  40
90
  5
7E61
  62
0
  72
0
  71
0
 10
3493.78
 20
5806.95
 30
0.000000
  1
920
  0
POINT
  5
7E30
  8
DEFPOINTS
  6
CONTINUOUS
 62
     0
 10
3493.1731519999998
 20
6448.8917060000012
 30
0.0
  0
POINT
  5
7E31
  8
DEFPOINTS
  6
CONTINUOUS
 62
     0
 10
3493.1731519999998
 20
5528.8917060000003
 30
0.0
  0
POINT
  5
7E32
  8
DEFPOINTS
  6
CONTINUOUS
 62
     0
 10
3748.784693000001
 20
5528.8917060000003
 30
0.0
  0
ENDBLK
  5
7C55
  8
0
  0
BLOCK
  8
0
  2
*D14
 70
     1
 10
0.0
 20
0.0
 30
0.0
  3
*D14
  1

  0
LINE
  5
7E33
  8
3
  6
CONTINUOUS
 62
     0
 10
2298.1731519999998
 20
4026.9758660638831
 30
0.0
 11
1073.079426
 21
4026.9758660638831
 31
0.0
  0
LINE
  5
7E34
  8
3
  6
CONTINUOUS
 62
     0
 10
1103.0794259999991
 20
3443.9809229999992
 30
0.0
 11
1103.079426
 21
3966.9758660638831
 31
0.0
  0
INSERT
  5
7E35
  8
3
  6
CONTINUOUS
 62
     0
  2
_OPEN
 10
1103.0794259999991
 20
3383.9809230000001
 30
0.0
 41
60.0
 42
60.0
 43
60.0
 50
270.0
  0
INSERT
  5
7E36
  8
3
  6
CONTINUOUS
 62
     0
  2
_OPEN
 10
1103.079426
 20
4026.9758660638831
 30
0.0
 41
60.0
 42
60.0
 43
60.0
 50
90.0
  0
TEXT
  8
3
  40
90
  5
7E62
  62
0
  72
0
  71
0
 10
848.079
 20
3546.18
 30
0.000000
  1
643
  0
POINT
  5
7E38
  8
DEFPOINTS
  6
CONTINUOUS
 62
     0
 10
1550.9791520000001
 20
3383.9809230000001
 30
0.0
  0
POINT
  5
7E39
  8
DEFPOINTS
  6
CONTINUOUS
 62
     0
 10
2313.1731519999998
 20
4026.9758660638831
 30
0.0
  0
POINT
  5
7E3A
  8
DEFPOINTS
  6
CONTINUOUS
 62
     0
 10
1103.079426
 20
4026.9758660638831
 30
0.0
  0
ENDBLK
  5
7D37
  8
0
  0
BLOCK
  8
0
  2
*D15
 70
     1
 10
0.0
 20
0.0
 30
0.0
  3
*D15
  1

  0
LINE
  5
7E3B
  8
3
  6
CONTINUOUS
 62
     0
 10
3056.1731530000002
 20
3398.9809229999992
 30
0.0
 11
3056.1731530000002
 21
4266.6318069999988
 31
0.0
  0
LINE
  5
7E3C
  8
3
  6
CONTINUOUS
 62
     0
 10
2373.1731519999998
 20
4236.6318069999998
 30
0.0
 11
2996.1731530000002
 21
4236.6318069999998
 31
0.0
  0
INSERT
  5
7E3D
  8
3
  6
CONTINUOUS
 62
     0
  2
_OPEN
 10
2313.1731519999998
 20
4236.6318069999998
 30
0.0
 41
60.0
 42
60.0
 43
60.0
 50
180.0
  0
INSERT
  5
7E3E
  8
3
  6
CONTINUOUS
 62
     0
  2
_OPEN
 10
3056.1731530000002
 20
4236.6318069999998
 30
0.0
 41
60.0
 42
60.0
 43
60.0
  0
TEXT
  8
3
  40
90
  5
7E63
  62
0
  72
0
  71
0
 10
2504.67
 20
4152.33
 30
0.000000
  1
743
  0
POINT
  5
7E40
  8
DEFPOINTS
  6
CONTINUOUS
 62
     0
 10
2313.1731519999998
 20
4155.1181630000001
 30
0.0
  0
POINT
  5
7E41
  8
DEFPOINTS
  6
CONTINUOUS
 62
     0
 10
3056.1731530000002
 20
3383.9809230000001
 30
0.0
  0
POINT
  5
7E42
  8
DEFPOINTS
  6
CONTINUOUS
 62
     0
 10
3056.1731530000002
 20
4236.6318069999998
 30
0.0
  0
ENDBLK
  5
7C96
  8
0
  0
BLOCK
  8
0
  2
*D16
 70
     1
 10
0.0
 20
0.0
 30
0.0
  3
*D16
  1

  0
LINE
  5
7E43
  8
3
  6
CONTINUOUS
 62
     0
 10
1535.9791520000001
 20
3383.9809230000001
 30
0.0
 11
1073.079426
 21
3383.9809230000001
 31
0.0
  0
LINE
  5
7E44
  8
3
  6
CONTINUOUS
 62
     0
 10
1728.1731519999989
 20
2293.9809230000001
 30
0.0
 11
1073.079426
 21
2293.9809230000001
 31
0.0
  0
LINE
  5
7E45
  8
3
  6
CONTINUOUS
 62
     0
 10
1103.079426
 20
3323.9809230000001
 30
0.0
 11
1103.079426
 21
2353.9809229999992
 31
0.0
  0
INSERT
  5
7E46
  8
3
  6
CONTINUOUS
 62
     0
  2
_OPEN
 10
1103.079426
 20
3383.9809230000001
 30
0.0
 41
60.0
 42
60.0
 43
60.0
 50
90.0
  0
INSERT
  5
7E47
  8
3
  6
CONTINUOUS
 62
     0
  2
_OPEN
 10
1103.079426
 20
2293.9809230000001
 30
0.0
 41
60.0
 42
60.0
 43
60.0
 50
270.0
  0
TEXT
  8
3
  40
90
  5
7E64
  62
0
  72
0
  71
0
 10
848.079
 20
2679.68
 30
0.000000
  1
1090
  0
POINT
  5
7E49
  8
DEFPOINTS
  6
CONTINUOUS
 62
     0
 10
1550.9791520000001
 20
3383.9809230000001
 30
0.0
  0
POINT
  5
7E4A
  8
DEFPOINTS
  6
CONTINUOUS
 62
     0
 10
1743.1731519999989
 20
2293.9809230000001
 30
0.0
  0
POINT
  5
7E4B
  8
DEFPOINTS
  6
CONTINUOUS
 62
     0
 10
1103.079426
 20
2293.9809230000001
 30
0.0
  0
ENDBLK
  5
7D21
  8
0
  0
BLOCK
  8
0
  2
*D17
 70
     1
 10
0.0
 20
0.0
 30
0.0
  3
*D17
  1

  0
LINE
  5
7E4C
  8
3
 62
     0
 10
1658.1731519999989
 20
3483.4809230000001
 30
0.0
 11
1658.1731519999989
 21
4457.3897947295227
 31
0.0
  0
LINE
  5
7E4D
  8
3
 62
     0
 10
3493.1731519999998
 20
2408.9809230000001
 30
0.0
 11
3493.1731519999998
 21
4457.3897947295227
 31
0.0
  0
LINE
  5
7E4E
  8
3
 62
     0
 10
1718.1731520000001
 20
4427.3897947295218
 30
0.0
 11
3433.1731519999998
 21
4427.3897947295218
 31
0.0
  0
INSERT
  5
7E4F
  8
3
 62
     0
  2
_OPEN
 10
1658.1731519999989
 20
4427.3897947295218
 30
0.0
 41
60.0
 42
60.0
 43
60.0
 50
180.0
  0
INSERT
  5
7E50
  8
3
 62
     0
  2
_OPEN
 10
3493.1731519999998
 20
4427.3897947295218
 30
0.0
 41
60.0
 42
60.0
 43
60.0
  0
TEXT
  8
3
  40
90
  5
7E65
  62
0
  72
0
  71
0
 10
2390.32
 20
4343.09
 30
0.000000
  1
1835
  0
POINT
  5
7E52
  8
DEFPOINTS
 62
     0
 10
1658.1731519999989
 20
3468.4809229999992
 30
0.0
  0
POINT
  5
7E53
  8
DEFPOINTS
 62
     0
 10
3493.1731519999998
 20
2393.9809230000001
 30
0.0
  0
POINT
  5
7E54
  8
DEFPOINTS
 62
     0
 10
3493.1731519999998
 20
4427.3897947295218
 30
0.0
  0
ENDBLK
  5
7D43
  8
0
  0
ENDSEC
  0
SECTION
  2
ENTITIES
  0
LINE
  5
7AB1
  8
1
  6
CONTINUOUS
 10
3455.1731519999998
 20
5684.8917060000012
 30
0.0
 11
3455.1731519999998
 21
6169.8917060000012
 31
0.0
  0
LINE
  5
7AB2
  8
1
  6
CONTINUOUS
 10
3131.1731519999998
 20
5684.8917060000012
 30
0.0
 11
3131.1731519999998
 21
6169.8917060000012
 31
0.0
  0
LINE
  5
7AB3
  8
1
  6
CONTINUOUS
 10
1698.1731520000001
 20
5726.8917060000003
 30
0.0
 11
1698.1731520000001
 21
6396.8917060000003
 31
0.0
  0
LINE
  5
7AB4
  8
1
  6
CONTINUOUS
 10
1658.1731519999989
 20
5684.8917060000012
 30
0.0
 11
1658.1731519999989
 21
6438.8917060000012
 31
0.0
  0
LINE
  5
7AB5
  8
1
  6
CONTINUOUS
 10
3058.3404230000001
 20
5726.8917060000003
 30
0.0
 11
3058.3404230000001
 21
6396.8917060000003
 31
0.0
  0
LINE
  5
7AB6
  8
1
  6
CONTINUOUS
 10
3493.1731519999998
 20
5528.8917060000003
 30
0.0
 11
3493.1731519999998
 21
6448.8917060000012
 31
0.0
  0
LINE
  5
7AB7
  8
1
  6
CONTINUOUS
 10
3473.1731519999998
 20
5503.8917060000003
 30
0.0
 11
1833.1731519999989
 21
5503.8917060000003
 31
0.0
  0
LINE
  5
7AB8
  8
1
  6
CONTINUOUS
 10
3473.1731519999998
 20
5673.8917060000003
 30
0.0
 11
1833.1731519999989
 21
5673.8917060000003
 31
0.0
  0
LINE
  5
7AB9
  8
1
  6
CONTINUOUS
 10
3455.1731519999998
 20
5684.8917060000012
 30
0.0
 11
3131.1731519999998
 21
5684.8917060000012
 31
0.0
  0
LINE
  5
7ABA
  8
1
  6
CONTINUOUS
 10
1743.1731519999989
 20
5528.8917060000003
 30
0.0
 11
3493.1731519999998
 21
5528.8917060000003
 31
0.0
  0
LINE
  5
7ABB
  8
1
  6
CONTINUOUS
 10
3473.1731519999998
 20
2733.9809230000001
 30
0.0
 11
2493.1731519999998
 21
3823.9809230000001
 31
0.0
  0
ARC
  5
7ABC
  8
1
  6
CONTINUOUS
 10
3293.1731519999998
 20
2643.9809230000001
 30
0.0
 40
162.0
 50
324.972283
 51
215.02771699999991
  0
LINE
  5
7ABD
  8
1
  6
CONTINUOUS
 10
1743.1731519999989
 20
2293.9809230000001
 30
0.0
 11
3493.1731519999998
 21
2293.9809230000001
 31
0.0
  0
LINE
  5
7ABE
  8
1
  6
CONTINUOUS
 10
1743.1731519999989
 20
2393.9809229999992
 30
0.0
 11
3493.1731519999998
 21
2393.9809230000001
 31
0.0
  0
LINE
  5
7AC0
  8
1
  6
CONTINUOUS
 10
1833.1731519999989
 20
2393.9809230000001
 30
0.0
 11
1833.1731519999989
 21
3823.9809230000001
 31
0.0
  0
LINE
  5
7AC1
  8
2
  6
CENTER
 10
3293.1731519999998
 20
2563.9809230000001
 30
0.0
 11
3293.1731519999998
 21
2723.9809230000001
 31
0.0
  0
CIRCLE
  5
7AC2
  8
1
  6
CONTINUOUS
 10
3293.1731519999998
 20
2643.9809230000001
 30
0.0
 40
75.0
  0
LINE
  5
7AC5
  8
1
  6
CONTINUOUS
 10
1698.1731520000001
 20
3425.9809229999992
 30
0.0
 11
1698.1731520000001
 21
2502.3244340000001
 31
0.0
  0
POLYLINE
  5
7AC6
  8
1
  6
CONTINUOUS
 66
     1
 10
0.0
 20
0.0
 30
0.0
  0
VERTEX
  5
7DC4
  8
1
  6
CONTINUOUS
 10
1658.1731519999989
 20
2500.9809230000001
 30
0.0
  0
VERTEX
  5
7DC5
  8
1
  6
CONTINUOUS
 10
2313.1731519999998
 20
2522.9809230000001
 30
0.0
 42
0.4168370000000001
  0
VERTEX
  5
7DC6
  8
1
  6
CONTINUOUS
 10
3055.6131110000001
 20
3391.154865
 30
0.0
 42
0.429867
  0
VERTEX
  5
7DC7
  8
1
  6
CONTINUOUS
 10
2269.2969910000002
 20
4022.4061000000002
 30
0.0
 42
0.373172
  0
VERTEX
  5
7DC8
  8
1
  6
CONTINUOUS
 10
1745.2044239999991
 20
3425.9809229999992
 30
0.0
 42
0.34598
  0
SEQEND
  5
7DC9
  8
1
  6
CONTINUOUS
  0
LINE
  5
7ACD
  8
1
  6
CONTINUOUS
 10
1658.1731519999989
 20
3468.4809229999992
 30
0.0
 11
1658.1731519999989
 21
2458.4809230000001
 31
0.0
  0
LINE
  5
7ACE
  8
1
  6
CONTINUOUS
 10
1743.1731519999989
 20
2393.9809230000001
 30
0.0
 11
1743.1731519999989
 21
2293.9809230000001
 31
0.0
  0
LINE
  5
7ACF
  8
1
  6
CONTINUOUS
 10
3160.5154859999989
 20
2540.9973559999999
 30
0.0
 11
3105.6731519999998
 21
2473.9809230000001
 31
0.0
  0
LINE
  5
7AD0
  8
1
  6
CONTINUOUS
 10
3095.6731519999989
 20
2433.9809230000001
 30
0.0
 11
3105.6731519999998
 21
2483.9809230000001
 31
0.0
  0
LINE
  5
7AD1
  8
1
  6
CONTINUOUS
 10
3095.6731519999989
 20
2423.9809230000001
 30
0.0
 11
3095.6731519999989
 21
2393.9809230000001
 31
0.0
  0
LINE
  5
7AD2
  8
1
  6
CONTINUOUS
 10
2567.1731519999998
 20
5536.8917060000003
 30
0.0
 11
2059.1731519999998
 21
5536.8917060000003
 31
0.0
  0
LINE
  5
7AD3
  8
1
  6
CONTINUOUS
 10
2567.1731519999998
 20
5640.8917060000012
 30
0.0
 11
2059.1731519999998
 21
5640.8917060000012
 31
0.0
  0
LINE
  5
7AD4
  8
1
  6
CONTINUOUS
 10
1658.1731519999989
 20
5726.8917060000003
 30
0.0
 11
3058.3404230000001
 21
5726.8917060000003
 31
0.0
  0
LINE
  5
7AD5
  8
1
  6
CONTINUOUS
 10
1833.1731519999989
 20
3823.9809230000001
 30
0.0
 11
2493.1731519999998
 21
3823.9809230000001
 31
0.0
  0
LINE
  5
7AD6
  8
2
  6
CENTER
 10
5244.5906000034447
 20
3383.9809230000001
 30
0.0
 11
4038.2043800034448
 21
3383.9809230000001
 31
0.0
  0
CIRCLE
  5
7AD7
  8
1
  6
CONTINUOUS
 10
2313.1731519999998
 20
3383.9809230000001
 30
0.0
 40
254.0
  0
LINE
  5
7ADB
  8
1
  6
CONTINUOUS
 10
1745.2044239999991
 20
3425.9809229999992
 30
0.0
 11
1658.1731519999989
 21
3425.9809229999992
 31
0.0
  0
LINE
  5
7ADC
  8
1
  6
CONTINUOUS
 10
1833.1731519999989
 20
5503.8917060000003
 30
0.0
 11
1833.1731519999989
 21
5673.8917060000003
 31
0.0
  0
LINE
  5
7ADD
  8
1
  6
CONTINUOUS
 10
1743.1731519999989
 20
5528.8917060000003
 30
0.0
 11
1743.1731519999989
 21
5726.8917060000003
 31
0.0
  0
LINE
  5
7ADE
  8
1
  6
CONTINUOUS
 10
2059.1731519999998
 20
5536.8917060000003
 30
0.0
 11
2059.1731519999998
 21
5640.8917060000012
 31
0.0
  0
LINE
  5
7AE0
  8
2
  6
CENTER
 10
2313.1731519999998
 20
2143.6316400000001
 30
0.0
 11
2313.1731519999998
 21
4155.1181630000001
 31
0.0
  0
LINE
  5
7AE1
  8
2
  6
CENTER
 10
3373.1731519999998
 20
2643.9809230000001
 30
0.0
 11
3213.1731519999998
 21
2643.9809230000001
 31
0.0
  0
LINE
  5
7AE2
  8
1
  6
CONTINUOUS
 10
2338.1731519999989
 20
5640.8917060000012
 30
0.0
 11
2338.1731519999989
 21
5726.8917060000003
 31
0.0
  0
LINE
  5
7AE3
  8
1
  6
CONTINUOUS
 10
2288.1731519999998
 20
5640.8917060000012
 30
0.0
 11
2288.1731519999998
 21
5726.8917060000003
 31
0.0
  0
LINE
  5
7AE4
  8
1
  6
CONTINUOUS
 10
2567.1731519999998
 20
5536.8917060000003
 30
0.0
 11
2567.1731519999998
 21
5640.8917060000012
 31
0.0
  0
LINE
  5
7AE5
  8
1
  6
CONTINUOUS
 10
3368.1731519999998
 20
5536.8917060000003
 30
0.0
 11
3368.1731519999998
 21
5640.8917060000012
 31
0.0
  0
LINE
  5
7AE6
  8
1
  6
CONTINUOUS
 10
3218.1731519999998
 20
5536.8917060000003
 30
0.0
 11
3218.1731519999998
 21
5640.8917060000012
 31
0.0
  0
LINE
  5
7AE7
  8
1
  6
CONTINUOUS
 10
3314.1731519999998
 20
5640.8917060000012
 30
0.0
 11
3314.1731519999998
 21
5684.8917060000012
 31
0.0
  0
LINE
  5
7AE8
  8
1
  6
CONTINUOUS
 10
3272.1731519999998
 20
5640.8917060000012
 30
0.0
 11
3272.1731519999998
 21
5684.8917060000012
 31
0.0
  0
LINE
  5
7AE9
  8
1
  6
CONTINUOUS
 10
3368.1731519999998
 20
5536.8917060000003
 30
0.0
 11
3218.1731519999998
 21
5536.8917060000003
 31
0.0
  0
LINE
  5
7AEA
  8
1
  6
CONTINUOUS
 10
3368.1731519999998
 20
5640.8917060000012
 30
0.0
 11
3218.1731519999998
 21
5640.8917060000012
 31
0.0
  0
LINE
  5
7B02
  8
1
  6
CONTINUOUS
 10
3473.1731519999998
 20
2393.9809230000001
 30
0.0
 11
3473.1731519999998
 21
2733.9809230000001
 31
0.0
  0
LINE
  5
7B03
  8
1
  6
CONTINUOUS
 10
3480.6731519999998
 20
2483.9809230000001
 30
0.0
 11
3425.830817
 21
2550.9973559999989
 31
0.0
  0
LINE
  5
7B04
  8
1
  6
CONTINUOUS
 10
3480.6731519999998
 20
2483.9809230000001
 30
0.0
 11
3490.6731519999998
 21
2433.9809230000001
 31
0.0
  0
LINE
  5
7B05
  8
1
  6
CONTINUOUS
 10
3490.6731519999998
 20
2433.9809230000001
 30
0.0
 11
3490.6731519999998
 21
2393.9809230000001
 31
0.0
  0
LINE
  5
7B06
  8
1
  6
CONTINUOUS
 10
3493.1731519999998
 20
2393.9809230000001
 30
0.0
 11
3493.1731519999998
 21
2293.9809230000001
 31
0.0
  0
LINE
  5
7B11
  8
1
  6
CONTINUOUS
 10
3473.1731519999998
 20
5503.8917060000003
 30
0.0
 11
3473.1731519999998
 21
5673.8917060000003
 31
0.0
  0
LINE
  5
7B26
  8
1
  6
CONTINUOUS
 10
4487.1683230034459
 20
4028.7772659999991
 30
0.0
 11
4487.1683230034459
 21
2393.9809230000001
 31
0.0
  0
LINE
  5
7B27
  8
1
  6
CONTINUOUS
 10
5157.1683230034459
 20
4028.7772659999991
 30
0.0
 11
5157.1683230034459
 21
2393.9809230000001
 31
0.0
  0
LINE
  5
7B28
  8
1
  6
CONTINUOUS
 10
4487.1683230034459
 20
2500.9809230000001
 30
0.0
 11
5157.1683230034459
 21
3425.9809229999992
 31
0.0
  0
LINE
  5
7B29
  8
1
  6
CONTINUOUS
 10
4487.1683230034459
 20
3425.9809229999992
 30
0.0
 11
5157.1683230034459
 21
2500.9809230000001
 31
0.0
  0
LINE
  5
7B2B
  8
1
  6
CONTINUOUS
 10
4212.1683230034459
 20
3823.9809230000001
 30
0.0
 11
4212.1683230034459
 21
2393.9809230000001
 31
0.0
  0
LINE
  5
7B2C
  8
1
  6
CONTINUOUS
 10
4434.1683230034459
 20
3823.9809230000001
 30
0.0
 11
4434.1683230034459
 21
2393.9809230000001
 31
0.0
  0
LINE
  5
7B2D
  8
1
  6
CONTINUOUS
 10
4297.1683230034459
 20
2718.9809230000001
 30
0.0
 11
4297.1683230034459
 21
2568.9809230000001
 31
0.0
  0
LINE
  5
7B2E
  8
1
  6
CONTINUOUS
 10
4401.168323003445
 20
2718.9809230000001
 30
0.0
 11
4401.168323003445
 21
2568.9809230000001
 31
0.0
  0
LINE
  5
7B2F
  8
1
  6
CONTINUOUS
 10
4289.1683230034459
 20
2293.9809230000001
 30
0.0
 11
5209.1683230034459
 21
2293.9809230000001
 31
0.0
  0
LINE
  5
7B30
  8
1
  6
CONTINUOUS
 10
4289.1683230034459
 20
2393.9809230000001
 30
0.0
 11
5209.1683230034459
 21
2393.9809230000001
 31
0.0
  0
LINE
  5
7B31
  8
1
  6
CONTINUOUS
 10
4487.1683230034459
 20
2500.9809230000001
 30
0.0
 11
5157.1683230034459
 21
2500.9809230000001
 31
0.0
  0
LINE
  5
7B33
  8
1
  6
CONTINUOUS
 10
4212.1683230034459
 20
2393.9809230000001
 30
0.0
 11
4289.1683230034459
 21
2393.9809230000001
 31
0.0
  0
LINE
  5
7B34
  8
1
  6
CONTINUOUS
 10
4289.1683230034459
 20
2393.9809230000001
 30
0.0
 11
4289.1683230034459
 21
2293.9809230000001
 31
0.0
  0
LINE
  5
7B35
  8
1
  6
CONTINUOUS
 10
4297.1683230034459
 20
2568.9809230000001
 30
0.0
 11
4401.168323003445
 21
2568.9809230000001
 31
0.0
  0
LINE
  5
7B36
  8
1
  6
CONTINUOUS
 10
5209.1683230034459
 20
2393.9809230000001
 30
0.0
 11
5209.1683230034459
 21
2293.9809230000001
 31
0.0
  0
LINE
  5
7B37
  8
1
  6
CONTINUOUS
 10
4487.1683230034459
 20
4028.7772659999991
 30
0.0
 11
5157.1683230034459
 21
4028.7772659999991
 31
0.0
  0
LINE
  5
7B38
  8
1
  6
CONTINUOUS
 10
4487.1683230034459
 20
3425.9809229999992
 30
0.0
 11
5157.1683230034459
 21
3425.9809229999992
 31
0.0
  0
LINE
  5
7B3A
  8
1
  6
CONTINUOUS
 10
4297.1683230034459
 20
3637.9809230000001
 30
0.0
 11
4297.1683230034459
 21
3129.9809230000001
 31
0.0
  0
LINE
  5
7B3B
  8
1
  6
CONTINUOUS
 10
4401.168323003445
 20
3637.9809230000001
 30
0.0
 11
4401.168323003445
 21
3129.9809230000001
 31
0.0
  0
LINE
  5
7B3C
  8
1
  6
CONTINUOUS
 10
4297.1683230034459
 20
3129.9809230000001
 30
0.0
 11
4401.168323003445
 21
3129.9809230000001
 31
0.0
  0
LINE
  5
7B3D
  8
1
  6
CONTINUOUS
 10
4297.1683230034459
 20
2718.9809230000001
 30
0.0
 11
4401.168323003445
 21
2718.9809230000001
 31
0.0
  0
LINE
  5
7B3E
  8
1
  6
CONTINUOUS
 10
4401.168323003445
 20
2664.9809230000001
 30
0.0
 11
4487.1683230034459
 21
2664.9809230000001
 31
0.0
  0
LINE
  5
7B3F
  8
1
  6
CONTINUOUS
 10
4401.168323003445
 20
2622.9809230000001
 30
0.0
 11
4487.1683230034459
 21
2622.9809230000001
 31
0.0
  0
LINE
  5
7B40
  8
1
  6
CONTINUOUS
 10
4212.1683230034459
 20
3823.9809230000001
 30
0.0
 11
4434.1683230034459
 21
3823.9809230000001
 31
0.0
  0
LINE
  5
7B41
  8
1
  6
CONTINUOUS
 10
4297.1683230034459
 20
3637.9809230000001
 30
0.0
 11
4401.168323003445
 21
3637.9809230000001
 31
0.0
  0
LINE
  5
7B42
  8
1
  6
CONTINUOUS
 10
4401.168323003445
 20
3408.9809230000001
 30
0.0
 11
4487.1683230034459
 21
3408.9809230000001
 31
0.0
  0
LINE
  5
7B43
  8
1
  6
CONTINUOUS
 10
4401.168323003445
 20
3358.9809230000001
 30
0.0
 11
4487.1683230034459
 21
3358.9809230000001
 31
0.0
  0
LINE
  5
7B46
  8
1
  6
CONTINUOUS
 10
1743.1731519999989
 20
6448.8917060000012
 30
0.0
 11
3493.1731519999998
 21
6448.8917060000012
 31
0.0
  0
LINE
  5
7B47
  8
1
  6
CONTINUOUS
 10
3455.1731519999998
 20
6169.8917060000012
 30
0.0
 11
3131.1731519999998
 21
6169.8917060000012
 31
0.0
  0
LINE
  5
7B48
  8
1
  6
CONTINUOUS
 10
1658.1731519999989
 20
6396.8917060000003
 30
0.0
 11
3058.3404230000001
 21
6396.8917060000003
 31
0.0
  0
LINE
  5
7B49
  8
1
  6
CONTINUOUS
 10
1743.1731519999989
 20
6396.8917060000003
 30
0.0
 11
1743.1731519999989
 21
6448.8917060000012
 31
0.0
  0
LINE
  5
7B4E
  8
2
  6
CENTER
 10
4822.168323003445
 20
4171.638715
 30
0.0
 11
4822.168323003445
 21
2059.4223569999999
 31
0.0
  0
LINE
  5
7B4F
  8
2
  6
CENTER
 10
3591.1340579999992
 20
6061.8917060000003
 30
0.0
 11
1507.503805999999
 21
6061.8917060000003
 31
0.0
  0
LINE
  5
7B50
  8
2
  6
CENTER
 10
2313.1731519999998
 20
5407.5579040000002
 30
0.0
 11
2313.1731519999998
 21
6645.2843999999996
 31
0.0
  0
LINE
  5
7B51
  8
2
  6
CENTER
 10
3268.6828180000002
 20
3383.9809230000001
 30
0.0
 11
1550.9791520000001
 21
3383.9809230000001
 31
0.0
  0
LINE
  5
7B52
  8
4
  6
CONTINUOUS
 10
5550.0
 20
1500.0
 30
0.0
 11
5550.0
 21
900.0
 31
0.0
  0
LINE
  5
7B53
  8
4
  6
CONTINUOUS
 10
3450.0
 20
1500.0
 30
0.0
 11
3450.0
 21
900.0
 31
0.0
  0
LINE
  5
7B54
  8
4
  6
CONTINUOUS
 10
1950.0
 20
1500.0
 30
0.0
 11
1950.0
 21
900.0
 31
0.0
  0
LINE
  5
7B57
  8
4
  6
CONTINUOUS
 10
1950.0
 20
900.0
 30
0.0
 11
5550.0
 21
900.0
 31
0.0
  0
LINE
  5
7B58
  8
4
  6
CONTINUOUS
 10
1950.0
 20
1200.0
 30
0.0
 11
5550.0
 21
1200.0
 31
0.0
  0
TEXT
  5
7B59
  8
4
  6
CONTINUOUS
 10
2065.5062429999989
 20
1294.6290779999999
 30
0.0
 40
150.0
  1
機器名称
  0
TEXT
  5
7B5A
  8
4
  6
CONTINUOUS
 10
2058.7743179999989
 20
964.9354699999999
 30
0.0
 40
150.0
  1
機器型番
  0
TEXT
  5
7B5B
  8
4
  6
CONTINUOUS
 10
3533.0362359999999
 20
1267.7153069999999
 30
0.0
 40
150.0
  1
ミツヤ多翼送風機
  0
TEXT
  5
7B5C
  8
4
  6
CONTINUOUS
 10
3559.9634869999991
 20
951.47875299999987
 30
0.0
 40
150.0
  1
MF#5 1/2-4
  0
TEXT
  5
7B5E
  8
4
  6
CONTINUOUS
 10
2714.3572960000001
 20
7150.2865239999992
 30
0.0
 40
162.0
  1
床置ベット
  0
TEXT
  5
7B5F
  8
4
  6
CONTINUOUS
 10
948.50278000000014
 20
7601.6429289999996
 30
0.0
 40
216.0
  1
ベルト駆動式片吸込両持多翼ファン
  0
LINE
  5
7B60
  8
4
  6
CONTINUOUS
 10
750.0
 20
7408.2262629999996
 30
0.0
 11
5550.0
 21
7408.2262629999996
 31
0.0
  0
LINE
  5
7B61
  8
4
  6
CONTINUOUS
 10
750.0
 20
8008.2262629999996
 30
0.0
 11
5550.0
 21
8008.2262629999996
 31
0.0
  0
LINE
  5
7B62
  8
4
  6
CONTINUOUS
 10
1950.0
 20
1500.0
 30
0.0
 11
5550.0
 21
1500.0
 31
0.0
  0
LINE
  5
7B63
  8
4
 10
750.0
 20
8008.2262629999996
 30
0.0
 11
750.0
 21
7408.2262629999996
 31
0.0
  0
TEXT
  5
7B64
  8
4
  6
CONTINUOUS
 10
1163.966615
 20
7146.9584329999998
 30
0.0
 40
162.0
  1
右回転左横向
  0
TEXT
  5
7B65
  8
4
  6
CONTINUOUS
 10
4406.9086779999989
 20
8118.1832439999989
 30
0.0
 40
168.0
  1
No.
  0
TEXT
  5
7B66
  8
4
  6
CONTINUOUS
 10
3933.8881879999999
 20
7150.2865239999992
 30
0.0
 40
162.0
  1
縮尺：1/30
  0
LINE
  5
7B67
  8
4
  6
CONTINUOUS
 10
5550.0
 20
8008.2262629999996
 30
0.0
 11
5550.0
 21
7408.2262629999996
 31
0.0
  0
LINE
  5
7B69
  8
4
  6
CONTINUOUS
 10
4321.8522670000002
 20
8043.7907490000007
 30
0.0
 11
4321.8522670000002
 21
8359.9567849999985
 31
0.0
  0
LINE
  5
7B6A
  8
4
  6
CONTINUOUS
 10
4321.8522670000002
 20
8359.9567849999985
 30
0.0
 11
5550.0
 21
8359.9567849999985
 31
0.0
  0
LINE
  5
7B6B
  8
4
  6
CONTINUOUS
 10
5550.0
 20
8359.9567849999985
 30
0.0
 11
5550.0
 21
8043.7907490000007
 31
0.0
  0
LINE
  5
7B6C
  8
4
  6
CONTINUOUS
 10
5550.0
 20
8043.7907490000007
 30
0.0
 11
4321.8522670000002
 21
8043.7907490000007
 31
0.0
  0
DIMENSION
  5
7B84
  8
3
  6
CONTINUOUS
  2
*D1
 10
1496.160809
 20
2500.9809230000001
 30
0.0
 11
1496.160809
 21
2983.1719830000002
 31
0.0
 70
   128
 13
1658.1731519999989
 23
3425.9809229999992
 33
0.0
 14
1658.1731519999989
 24
2500.9809230000001
 34
0.0
 50
90.0
1001
ACAD
1000
DSTYLE
1002
{
1070
   287
1070
     3
1070
    40
1040
30.0
1070
   143
1040
0.039
1070
   172
1070
     1
1070
   271
1070
     0
1070
   279
1070
     0
1070
   288
1070
     1
1002
}
  0
DIMENSION
  5
7B91
  8
3
  6
CONTINUOUS
  2
*D2
 10
1310.745066
 20
2500.9809230000001
 30
0.0
 11
1310.745065999999
 21
2990.5831880000001
 31
0.0
 70
   128
 13
1550.9791520000001
 23
3383.9809230000001
 33
0.0
 14
1658.1731519999989
 24
2500.9809230000001
 34
0.0
 50
90.0
1001
ACAD
1000
DSTYLE
1002
{
1070
   287
1070
     3
1070
    40
1040
30.0
1070
   143
1040
0.039
1070
   172
1070
     1
1070
   271
1070
     0
1070
   279
1070
     0
1070
   288
1070
     1
1002
}
  0
DIMENSION
  5
7BC4
  8
3
  6
CONTINUOUS
  2
*D3
 10
2313.1731519999998
 20
1991.2870929999999
 30
0.0
 11
2032.136516
 21
1991.2870929999999
 31
0.0
 70
   128
 13
1743.1731519999989
 23
2293.9809230000001
 33
0.0
 14
2313.1731519999998
 24
2143.6316400000001
 34
0.0
1001
ACAD
1000
DSTYLE
1002
{
1070
   287
1070
     3
1070
    40
1040
30.0
1070
   143
1040
0.039
1070
   172
1070
     1
1070
   271
1070
     0
1070
   279
1070
     0
1070
   288
1070
     1
1002
}
  0
DIMENSION
  5
7BD0
  8
3
  6
CONTINUOUS
  2
*D4
 10
3493.1731519999998
 20
1991.2870929999999
 30
0.0
 11
2903.1731519999998
 21
2066.2870929999999
 31
0.0
 70
     0
 13
2313.1731519999998
 23
2143.6316400000001
 33
0.0
 14
3493.1731519999998
 24
2293.9809230000001
 34
0.0
1001
ACAD
1000
DSTYLE
1002
{
1070
   287
1070
     4
1070
    40
1040
30.0
1070
    75
1070
     1
1070
   143
1040
0.039
1070
   172
1070
     1
1070
   271
1070
     0
1070
   279
1070
     1
1070
   288
1070
     1
1002
}
  0
DIMENSION
  5
7BDD
  8
3
  6
CONTINUOUS
  2
*D5
 10
2313.1731519999998
 20
4236.6318069999998
 30
0.0
 11
1977.2037899999989
 21
4236.6318069999998
 31
0.0
 70
   128
 13
1658.1731519999989
 23
3468.4809229999992
 33
0.0
 14
2313.1731519999998
 24
4155.1181630000001
 34
0.0
1001
ACAD
1000
DSTYLE
1002
{
1070
   287
1070
     3
1070
    40
1040
30.0
1070
   143
1040
0.039
1070
   172
1070
     1
1070
   271
1070
     0
1070
   279
1070
     0
1070
   288
1070
     1
1002
}
  0
DIMENSION
  5
7BF6
  8
3
  6
CONTINUOUS
  2
*D6
 10
5157.1683230034459
 20
4188.6008250000004
 30
0.0
 11
4826.3818110034472
 21
4188.6008250000004
 31
0.0
 70
   128
 13
4487.1683230034459
 23
4028.7772659999991
 33
0.0
 14
5157.1683230034459
 24
4028.7772659999991
 34
0.0
1001
ACAD
1000
DSTYLE
1002
{
1070
   287
1070
     3
1070
    40
1040
30.0
1070
   143
1040
0.039
1070
   172
1070
     1
1070
   271
1070
     0
1070
   279
1070
     0
1070
   288
1070
     1
1002
}
  0
LINE
  5
7BF7
  8
1
  6
CONTINUOUS
 10
5161.1683230034459
 20
3858.9809230000001
 30
0.0
 11
5161.1683230034459
 21
2908.9809230000001
 31
0.0
  0
DIMENSION
  5
7C06
  8
3
  6
CONTINUOUS
  2
*D7
 10
5410.0421750034466
 20
2908.9809230000001
 30
0.0
 11
5410.0421750034457
 21
3385.7971990000001
 31
0.0
 70
   128
 13
5161.1683230034459
 23
3858.9809230000001
 33
0.0
 14
5161.1683230034459
 24
2908.9809230000001
 34
0.0
 50
90.0
1001
ACAD
1000
DSTYLE
1002
{
1070
   287
1070
     3
1070
     3
1000
φ<>
1070
    40
1040
30.0
1070
   143
1040
0.039
1070
   172
1070
     1
1070
   271
1070
     0
1070
   279
1070
     0
1070
   288
1070
     1
1002
}
  0
DIMENSION
  5
7C15
  8
3
  6
CONTINUOUS
  2
*D8
 10
4822.168323003445
 20
4387.5863280000003
 30
0.0
 11
4991.668323003445
 21
4471.3444398369966
 31
0.0
 70
   128
 13
5161.1683230034459
 23
3858.9809230000001
 33
0.0
 14
4822.168323003445
 24
4325.3253499999992
 34
0.0
1001
ACAD
1000
DSTYLE
1002
{
1070
   288
1070
     1
1070
   172
1070
     1
1070
    40
1040
30.0
1070
   271
1070
     0
1070
   143
1040
0.039
1002
}
  0
DIMENSION
  5
7C21
  8
3
  6
CONTINUOUS
  2
*D9
 10
4212.1683230034459
 20
4387.5863280000003
 30
0.0
 11
4517.1683230034459
 21
4537.5863280000003
 31
0.0
 70
     0
  1
MAX\P640
 13
4822.168323003445
 23
4325.3253499999992
 33
0.0
 14
4212.1683230034459
 24
3823.9809230000001
 34
0.0
1001
ACAD
1000
DSTYLE
1002
{
1070
   287
1070
     4
1070
    40
1040
30.0
1070
    75
1070
     1
1070
   143
1040
0.039
1070
   172
1070
     1
1070
   271
1070
     0
1070
   279
1070
     1
1070
   288
1070
     1
1002
}
  0
DIMENSION
  5
7C2E
  8
3
  6
CONTINUOUS
  2
*D10
 10
4822.168323003445
 20
2007.7067679999991
 30
0.0
 11
4579.1844490034446
 21
2007.7067679999991
 31
0.0
 70
   128
 13
4289.1683230034459
 23
2293.9809230000001
 33
0.0
 14
4822.168323003445
 24
2069.4223569999999
 34
0.0
1001
ACAD
1000
DSTYLE
1002
{
1070
   287
1070
     3
1070
    40
1040
30.0
1070
   143
1040
0.039
1070
   172
1070
     1
1070
   271
1070
     0
1070
   279
1070
     0
1070
   288
1070
     1
1002
}
  0
DIMENSION
  5
7C3C
  8
3
  6
CONTINUOUS
  2
*D11
 10
5209.1683230034459
 20
2007.7067679999991
 30
0.0
 11
5040.7313450034453
 21
2006.558331
 31
0.0
 70
   128
 13
4822.168323003445
 23
2069.4223569999999
 33
0.0
 14
5209.1683230034459
 24
2293.9809230000001
 34
0.0
1001
ACAD
1000
DSTYLE
1002
{
1070
   287
1070
     4
1070
    40
1040
30.0
1070
    75
1070
     1
1070
   143
1040
0.039
1070
   172
1070
     1
1070
   271
1070
     0
1070
   279
1070
     1
1070
   288
1070
     1
1002
}
  0
DIMENSION
  5
7C49
  8
3
  6
CONTINUOUS
  2
*D12
 10
3493.1731519999998
 20
6679.5717960000011
 30
0.0
 11
2608.9302969999999
 21
6679.5717960000011
 31
0.0
 70
   128
 13
1743.1731519999989
 23
6448.8917060000012
 33
0.0
 14
3493.1731519999998
 24
6448.8917060000012
 34
0.0
1001
ACAD
1000
DSTYLE
1002
{
1070
   287
1070
     3
1070
    40
1040
30.0
1070
   143
1040
0.039
1070
   172
1070
     1
1070
   271
1070
     0
1070
   279
1070
     0
1070
   288
1070
     1
1002
}
  0
DIMENSION
  5
7C56
  8
3
  6
CONTINUOUS
  2
*D13
 10
3748.784693000001
 20
5528.8917060000003
 30
0.0
 11
3748.7846930000001
 21
5966.2543859999996
 31
0.0
 70
   128
 13
3493.1731519999998
 23
6448.8917060000012
 33
0.0
 14
3493.1731519999998
 24
5528.8917060000003
 34
0.0
 50
90.0
1001
ACAD
1000
DSTYLE
1002
{
1070
   287
1070
     3
1070
    40
1040
30.0
1070
   143
1040
0.039
1070
   172
1070
     1
1070
   271
1070
     0
1070
   279
1070
     0
1070
   288
1070
     1
1002
}
  0
DIMENSION
  5
7C7E
  8
3
  6
CONTINUOUS
  2
*D14
 10
1103.079426
 20
4026.9758660638831
 30
0.0
 11
1028.0794259999991
 21
3705.4783945319418
 31
0.0
 70
     0
 13
1550.9791520000001
 23
3383.9809230000001
 33
0.0
 14
2313.1731519999998
 24
4026.9758660638831
 34
0.0
 50
90.0
1001
ACAD
1000
DSTYLE
1002
{
1070
   287
1070
     4
1070
    40
1040
30.0
1070
    75
1070
     1
1070
   143
1040
0.039
1070
   172
1070
     1
1070
   271
1070
     0
1070
   279
1070
     1
1070
   288
1070
     1
1002
}
  0
DIMENSION
  5
7C97
  8
3
  6
CONTINUOUS
  2
*D15
 10
3056.1731530000002
 20
4236.6318069999998
 30
0.0
 11
2684.6731525
 21
4311.6318069999998
 31
0.0
 70
     0
 13
2313.1731519999998
 23
4155.1181630000001
 33
0.0
 14
3056.1731530000002
 24
3383.9809230000001
 34
0.0
1001
ACAD
1000
DSTYLE
1002
{
1070
   287
1070
     4
1070
    40
1040
30.0
1070
    75
1070
     1
1070
   143
1040
0.039
1070
   172
1070
     1
1070
   271
1070
     0
1070
   279
1070
     1
1070
   288
1070
     1
1002
}
  0
LINE
  5
7CEC
  8
1
  6
CONTINUOUS
 10
2494.1462980000001
 20
3562.2075220000002
 30
0.0
 11
3346.6101050000002
 21
2696.6068869999999
 31
0.0
  0
LINE
  5
7CED
  8
1
  6
CONTINUOUS
 10
2191.2937459999998
 20
3161.132521
 30
0.0
 11
3257.1851379999998
 21
2578.1792289999989
 31
0.0
  0
DIMENSION
  5
7CF9
  8
3
  6
CONTINUOUS
  2
*D16
 10
1103.079426
 20
2293.9809230000001
 30
0.0
 11
1028.0794259999991
 21
2838.9809230000001
 31
0.0
 70
     0
 13
1550.9791520000001
 23
3383.9809230000001
 33
0.0
 14
1743.1731519999989
 24
2293.9809230000001
 34
0.0
 50
90.0
1001
ACAD
1000
DSTYLE
1002
{
1070
   287
1070
     3
1070
    40
1040
30.0
1070
   143
1040
0.039
1070
   172
1070
     1
1070
   271
1070
     0
1070
   279
1070
     0
1070
   288
1070
     1
1002
}
  0
DIMENSION
  5
7D44
  8
3
  2
*D17
 10
3493.1731519999998
 20
4427.3897947295218
 30
0.0
 11
2570.3217692707181
 21
4427.3897947295218
 31
0.0
 70
   128
 13
1658.1731519999989
 23
3468.4809229999992
 33
0.0
 14
3493.1731519999998
 24
2393.9809230000001
 34
0.0
1001
ACAD
1000
DSTYLE
1002
{
1070
   287
1070
     3
1070
    40
1040
30.0
1070
   143
1040
0.039
1070
   172
1070
     1
1070
   271
1070
     0
1070
   279
1070
     0
1070
   288
1070
     1
1002
}
  0
LINE
  5
7D8F
  8
1
  6
CONTINUOUS
 10
1753.1731519999989
 20
3513.9809230000001
 30
0.0
 11
2873.1731519999998
 21
3513.9809230000001
 31
0.0
  0
LINE
  5
7D90
  8
1
 10
1753.1731520000001
 20
2393.9809230000001
 30
0.0
 11
1753.1731519999989
 21
3513.9809230000001
 31
0.0
  0
LINE
  5
7D91
  8
1
 10
2873.1731519999998
 20
2393.9809229999992
 30
0.0
 11
2873.1731519999998
 21
3513.9809230000001
 31
0.0
  0
ENDSEC
  0
EOF
