  0
SECTION
  2
HEADER
  9
$ACADVER
  1
AC1009
  9
$INSBASE
 10
0.0
 20
0.0
 30
0.0
  9
$EXTMIN
 10
750.0
 20
900.0
 30
0.0
  9
$EXTMAX
 10
5550.0
 20
8359.9567849999985
 30
0.0
  9
$LIMMIN
 10
0.0
 20
0.0
  9
$LIMMAX
 10
297.0
 20
210.0
  9
$ORTHOMODE
 70
     0
  9
$REGENMODE
 70
     1
  9
$FILLMODE
 70
     0
  9
$QTEXTMODE
 70
     0
  9
$MIRRTEXT
 70
     1
  9
$DRAGMODE
 70
     2
  9
$LTSCALE
 40
100.0
  9
$OSMODE
 70
    37
  9
$ATTMODE
 70
     1
  9
$TEXTSIZE
 40
180.0
  9
$TRACEWID
 40
0.05
  9
$TEXTSTYLE
  7
STANDARD
  9
$CLAYER
  8
3
  9
$CELTYPE
  6
BYLAYER
  9
$CECOLOR
 62
   256
  9
$DIMSCALE
 40
30.0
  9
$DIMASZ
 40
2.0
  9
$DIMEXO
 40
0.5
  9
$DIMDLI
 40
10.0
  9
$DIMRND
 40
0.0
  9
$DIMDLE
 40
0.0
  9
$DIMEXE
 40
1.0
  9
$DIMTP
 40
1.0
  9
$DIMTM
 40
1.0
  9
$DIMTXT
 40
3.0
  9
$DIMCEN
 40
0.0
  9
$DIMTSZ
 40
0.0
  9
$DIMTOL
 70
     0
  9
$DIMLIM
 70
     0
  9
$DIMTIH
 70
     0
  9
$DIMTOH
 70
     0
  9
$DIMSE1
 70
     0
  9
$DIMSE2
 70
     0
  9
$DIMTAD
 70
     1
  9
$DIMZIN
 70
     8
  9
$DIMBLK
  1

  9
$DIMASO
 70
     1
  9
$DIMSHO
 70
     1
  9
$DIMPOST
  1

  9
$DIMAPOST
  1

  9
$DIMALT
 70
     0
  9
$DIMALTD
 70
     2
  9
$DIMALTF
 40
0.039
  9
$DIMLFAC
 40
1.0
  9
$DIMTOFL
 70
     1
  9
$DIMTVP
 40
0.0
  9
$DIMTIX
 70
     0
  9
$DIMSOXD
 70
     0
  9
$DIMSAH
 70
     1
  9
$DIMBLK1
  1
OPEN
  9
$DIMBLK2
  1
OPEN
  9
$DIMSTYLE
  2
IGA
  9
$DIMCLRD
 70
     0
  9
$DIMCLRE
 70
     0
  9
$DIMCLRT
 70
     0
  9
$DIMTFAC
 40
10.0
  9
$DIMGAP
 40
1.0
  9
$LUNITS
 70
     2
  9
$LUPREC
 70
     3
  9
$SKETCHINC
 40
0.1
  9
$FILLETRAD
 40
50.0
  9
$AUNITS
 70
     0
  9
$AUPREC
 70
     0
  9
$MENU
  1
acad
  9
$ELEVATION
 40
0.0
  9
$PELEVATION
 40
0.0
  9
$THICKNESS
 40
0.0
  9
$LIMCHECK
 70
     0
  9
$BLIPMODE
 70
     0
  9
$CHAMFERA
 40
0.5
  9
$CHAMFERB
 40
0.5
  9
$SKPOLY
 70
     0
  9
$TDCREATE
 40
2450749.566800463
  9
$TDUPDATE
 40
2454953.7770533101
  9
$TDINDWG
 40
0.0175903472
  9
$TDUSRTIMER
 40
0.0175903472
  9
$USRTIMER
 70
     1
  9
$ANGBASE
 50
0.0
  9
$ANGDIR
 70
     0
  9
$PDMODE
 70
     0
  9
$PDSIZE
 40
0.0
  9
$PLINEWID
 40
0.0
  9
$COORDS
 70
     1
  9
$SPLFRAME
 70
     0
  9
$SPLINETYPE
 70
     6
  9
$SPLINESEGS
 70
     8
  9
$ATTDIA
 70
     0
  9
$ATTREQ
 70
     1
  9
$HANDLING
 70
 10241
  9
$HANDSEED
  5
7DA2
  9
$SURFTAB1
 70
     6
  9
$SURFTAB2
 70
     6
  9
$SURFTYPE
 70
     6
  9
$SURFU
 70
     6
  9
$SURFV
 70
     6
  9
$UCSNAME
  2

  9
$UCSORG
 10
0.0
 20
0.0
 30
0.0
  9
$UCSXDIR
 10
1.0
 20
0.0
 30
0.0
  9
$UCSYDIR
 10
0.0
 20
1.0
 30
0.0
  9
$PUCSNAME
  2

  9
$PUCSORG
 10
0.0
 20
0.0
 30
0.0
  9
$PUCSXDIR
 10
1.0
 20
0.0
 30
0.0
  9
$PUCSYDIR
 10
0.0
 20
1.0
 30
0.0
  9
$USERI1
 70
     0
  9
$USERI2
 70
     0
  9
$USERI3
 70
     0
  9
$USERI4
 70
     0
  9
$USERI5
 70
     0
  9
$USERR1
 40
0.0
  9
$USERR2
 40
0.0
  9
$USERR3
 40
0.0
  9
$USERR4
 40
0.0
  9
$USERR5
 40
0.0
  9
$WORLDVIEW
 70
     1
  9
$SHADEDGE
 70
     3
  9
$SHADEDIF
 70
    70
  9
$TILEMODE
 70
     1
  9
$MAXACTVP
 70
    16
  9
$PLIMCHECK
 70
     0
  9
$PEXTMIN
 10
1.0000000000000000E+020
 20
1.0000000000000000E+020
 30
1.0000000000000000E+020
  9
$PEXTMAX
 10
-1.0000000000000000E+020
 20
-1.0000000000000000E+020
 30
-1.0000000000000000E+020
  9
$PLIMMIN
 10
0.0
 20
0.0
  9
$PLIMMAX
 10
12.0
 20
9.0
  9
$UNITMODE
 70
     0
  9
$VISRETAIN
 70
     0
  9
$PLINEGEN
 70
     0
  9
$PSLTSCALE
 70
     1
  0
ENDSEC
  0
SECTION
  2
TABLES
  0
TABLE
  2
VPORT
 70
     2
  0
VPORT
  2
*ACTIVE
 70
     0
 10
0.0
 20
0.0
 11
1.0
 21
1.0
 12
9438.1687158055174
 22
4629.9562499988788
 13
0.0
 23
0.0
 14
10.0
 24
10.0
 15
10.0
 25
10.0
 16
0.0
 26
0.0
 36
1.0
 17
0.0
 27
0.0
 37
0.0
 40
7517.2452868940854
 41
3.1666666666666661
 42
50.0
 43
0.0
 44
0.0
 50
0.0
 51
0.0
 71
     0
 72
   100
 73
     1
 74
     0
 75
     0
 76
     0
 77
     0
 78
     0
  0
ENDTAB
  0
TABLE
  2
LTYPE
 70
     2
  0
LTYPE
  2
CONTINUOUS
 70
     0
  3
Solid line
 72
    65
 73
     0
 40
0.0
  0
LTYPE
  2
CENTER
 70
     0
  3
____ _ ____ _ ____ _ ____ _ ____ _ ____ _ ____ 
 72
    65
 73
     4
 40
2.0
 49
1.25
 49
-0.25
 49
0.25
 49
-0.25
  0
ENDTAB
  0
TABLE
  2
LAYER
 70
     6
  0
LAYER
  2
0
 70
     0
 62
     7
  6
CONTINUOUS
  0
LAYER
  2
3
 70
     0
 62
     2
  6
CONTINUOUS
  0
LAYER
  2
2
 70
     0
 62
     3
  6
CENTER
  0
LAYER
  2
1
 70
     0
 62
     4
  6
CONTINUOUS
  0
LAYER
  2
4
 70
     0
 62
     7
  6
CONTINUOUS
  0
LAYER
  2
DEFPOINTS
 70
     0
 62
     7
  6
CONTINUOUS
  0
ENDTAB
  0
TABLE
  2
STYLE
 70
     1
  0
STYLE
  2
STANDARD
 70
     0
 40
0.0
 41
1.0
 50
0.0
 71
     0
 42
180.0
  3
simplex.shx
  4
extfont.shx
  0
ENDTAB
  0
TABLE
  2
VIEW
 70
     0
  0
ENDTAB
  0
TABLE
  2
UCS
 70
     0
  0
ENDTAB
  0
TABLE
  2
APPID
 70
     1
  0
APPID
  2
ACAD
 70
     0
  0
ENDTAB
  0
TABLE
  2
DIMSTYLE
 70
     1
  0
DIMSTYLE
  2
IGA
 70
     0
  3

  4

  5

  6
OPEN
  7
OPEN
 40
2.0
 41
2.0
 42
0.5
 43
10.0
 44
1.0
 45
0.0
 46
0.0
 47
1.0
 48
1.0
140
3.0
141
0.0
142
0.0
143
0.03937
144
1.0
145
0.0
146
10.0
147
1.0
 71
     0
 72
     0
 73
     0
 74
     0
 75
     0
 76
     0
 77
     1
 78
     8
170
     0
171
     2
172
     0
173
     1
174
     0
175
     0
176
     0
177
     0
178
     0
  0
ENDTAB
  0
ENDSEC
  0
SECTION
  2
BLOCKS
  0
BLOCK
  8
0
  2
$MODEL_SPACE
 70
     0
 10
0.0
 20
0.0
 30
0.0
  3
$MODEL_SPACE
  1

  0
ENDBLK
  5
1B
  8
0
  0
BLOCK
 67
     1
  8
0
  2
$PAPER_SPACE
 70
     0
 10
0.0
 20
0.0
 30
0.0
  3
$PAPER_SPACE
  1

  0
ENDBLK
  5
18
 67
     1
  8
0
  0
BLOCK
  8
0
  2
_OPEN
 70
     0
 10
0.0
 20
0.0
 30
0.0
  3
_OPEN
  1

  0
LINE
  5
7AEA
  8
0
  6
BYBLOCK
 62
     0
 10
-1.0
 20
0.166667
 30
0.0
 11
0.0
 21
0.0
 31
0.0
  0
LINE
  5
7AEB
  8
0
  6
BYBLOCK
 62
     0
 10
0.0
 20
0.0
 30
0.0
 11
-1.0
 21
-0.166667
 31
0.0
  0
LINE
  5
7AEC
  8
0
  6
BYBLOCK
 62
     0
 10
0.0
 20
0.0
 30
0.0
 11
-1.0
 21
0.0
 31
0.0
  0
ENDBLK
  5
7AED
  8
0
  0
BLOCK
  8
0
  2
*D1
 70
     1
 10
0.0
 20
0.0
 30
0.0
  3
*D1
  1

  0
LINE
  5
7D10
  8
3
  6
CONTINUOUS
 62
     0
 10
1211.532402
 20
3777.456596
 30
0.0
 11
1211.532402
 21
3940.9820379999992
 31
0.0
  0
LINE
  5
7D11
  8
3
  6
CONTINUOUS
 62
     0
 10
2136.5324019999989
 20
3777.456596
 30
0.0
 11
2136.5324019999989
 21
3940.9820379999992
 31
0.0
  0
LINE
  5
7D12
  8
3
  6
CONTINUOUS
 62
     0
 10
1271.532402
 20
3910.9820380000001
 30
0.0
 11
2076.5324019999989
 21
3910.9820380000001
 31
0.0
  0
INSERT
  5
7D13
  8
3
  6
CONTINUOUS
 62
     0
  2
_OPEN
 10
1211.532402
 20
3910.9820380000001
 30
0.0
 41
60.0
 42
60.0
 43
60.0
 50
180.0
  0
INSERT
  5
7D14
  8
3
  6
CONTINUOUS
 62
     0
  2
_OPEN
 10
2136.5324019999989
 20
3910.9820380000001
 30
0.0
 41
60.0
 42
60.0
 43
60.0
  0
TEXT
  8
3
  40
90
  5
7D92
  62
0
  72
0
  71
0
 10
1482.72
 20
3826.68
 30
0.000000
  1
925
  0
POINT
  5
7D16
  8
DEFPOINTS
  6
CONTINUOUS
 62
     0
 10
1211.532402
 20
3762.4565959999991
 30
0.0
  0
POINT
  5
7D17
  8
DEFPOINTS
  6
CONTINUOUS
 62
     0
 10
2136.5324019999989
 20
3762.4565959999991
 30
0.0
  0
POINT
  5
7D18
  8
DEFPOINTS
  6
CONTINUOUS
 62
     0
 10
2136.5324019999989
 20
3910.9820380000001
 30
0.0
  0
ENDBLK
  5
7AFA
  8
0
  0
BLOCK
  8
0
  2
*D2
 70
     1
 10
0.0
 20
0.0
 30
0.0
  3
*D2
  1

  0
LINE
  5
7D19
  8
3
  6
CONTINUOUS
 62
     0
 10
1211.532402
 20
3777.456596
 30
0.0
 11
1211.532402
 21
4133.9038430000001
 31
0.0
  0
LINE
  5
7D1A
  8
3
  6
CONTINUOUS
 62
     0
 10
2094.5324019999998
 20
3940.2165879999998
 30
0.0
 11
2094.5324019999998
 21
4133.9038430000001
 31
0.0
  0
LINE
  5
7D1B
  8
3
  6
CONTINUOUS
 62
     0
 10
1271.532402
 20
4103.9038430000001
 30
0.0
 11
2034.5324019999989
 21
4103.9038430000001
 31
0.0
  0
INSERT
  5
7D1C
  8
3
  6
CONTINUOUS
 62
     0
  2
_OPEN
 10
1211.532402
 20
4103.9038430000001
 30
0.0
 41
60.0
 42
60.0
 43
60.0
 50
180.0
  0
INSERT
  5
7D1D
  8
3
  6
CONTINUOUS
 62
     0
  2
_OPEN
 10
2094.5324019999998
 20
4103.9038430000001
 30
0.0
 41
60.0
 42
60.0
 43
60.0
  0
TEXT
  8
3
  40
90
  5
7D93
  62
0
  72
0
  71
0
 10
1482.72
 20
4019.60
 30
0.000000
  1
883
  0
POINT
  5
7D1F
  8
DEFPOINTS
  6
CONTINUOUS
 62
     0
 10
1211.532402
 20
3762.4565959999991
 30
0.0
  0
POINT
  5
7D20
  8
DEFPOINTS
  6
CONTINUOUS
 62
     0
 10
2094.5324019999998
 20
3925.2165879999989
 30
0.0
  0
POINT
  5
7D21
  8
DEFPOINTS
  6
CONTINUOUS
 62
     0
 10
2094.5324019999998
 20
4103.9038430000001
 30
0.0
  0
ENDBLK
  5
7B07
  8
0
  0
BLOCK
  8
0
  2
*D3
 70
     1
 10
0.0
 20
0.0
 30
0.0
  3
*D3
  1

  0
LINE
  5
7D22
  8
3
  6
CONTINUOUS
 62
     0
 10
2194.0324019999989
 20
3762.4565959999991
 30
0.0
 11
3022.7062800000008
 21
3762.4565959999991
 31
0.0
  0
LINE
  5
7D23
  8
3
  6
CONTINUOUS
 62
     0
 10
2930.5862399999992
 20
3107.456596
 30
0.0
 11
3022.7062800000008
 21
3107.456596
 31
0.0
  0
LINE
  5
7D24
  8
3
  6
CONTINUOUS
 62
     0
 10
2992.7062800000008
 20
3702.456596
 30
0.0
 11
2992.7062800000008
 21
3167.456596
 31
0.0
  0
INSERT
  5
7D25
  8
3
  6
CONTINUOUS
 62
     0
  2
_OPEN
 10
2992.7062800000008
 20
3762.4565959999991
 30
0.0
 41
60.0
 42
60.0
 43
60.0
 50
90.0
  0
INSERT
  5
7D26
  8
3
  6
CONTINUOUS
 62
     0
  2
_OPEN
 10
2992.7062800000008
 20
3107.456596
 30
0.0
 41
60.0
 42
60.0
 43
60.0
 50
270.0
  0
TEXT
  8
3
  40
90
  5
7D94
  62
0
  72
0
  71
0
 10
2737.71
 20
3272.95
 30
0.000000
  1
655
  0
POINT
  5
7D28
  8
DEFPOINTS
  6
CONTINUOUS
 62
     0
 10
2179.0324019999998
 20
3762.4565959999991
 30
0.0
  0
POINT
  5
7D29
  8
DEFPOINTS
  6
CONTINUOUS
 62
     0
 10
2915.5862399999992
 20
3107.456596
 30
0.0
  0
POINT
  5
7D2A
  8
DEFPOINTS
  6
CONTINUOUS
 62
     0
 10
2992.7062800000008
 20
3107.456596
 30
0.0
  0
ENDBLK
  5
7B20
  8
0
  0
BLOCK
  8
0
  2
*D4
 70
     1
 10
0.0
 20
0.0
 30
0.0
  3
*D4
  1

  0
LINE
  5
7D2B
  8
3
  6
CONTINUOUS
 62
     0
 10
2679.5324019999989
 20
2342.4565959999991
 30
0.0
 11
3022.706279999999
 21
2342.4565959999991
 31
0.0
  0
LINE
  5
7D2C
  8
3
  6
CONTINUOUS
 62
     0
 10
2992.7062799999999
 20
3047.4565959999991
 30
0.0
 11
2992.7062799999999
 21
2402.456596
 31
0.0
  0
INSERT
  5
7D2D
  8
3
  6
CONTINUOUS
 62
     0
  2
_OPEN
 10
2992.7062799999999
 20
3107.456596
 30
0.0
 41
60.0
 42
60.0
 43
60.0
 50
90.0
  0
INSERT
  5
7D2E
  8
3
  6
CONTINUOUS
 62
     0
  2
_OPEN
 10
2992.7062799999999
 20
2342.4565959999991
 30
0.0
 41
60.0
 42
60.0
 43
60.0
 50
270.0
  0
TEXT
  8
3
  40
90
  5
7D95
  62
0
  72
0
  71
0
 10
2737.71
 20
2565.66
 30
0.000000
  1
765
  0
POINT
  5
7D30
  8
DEFPOINTS
  6
CONTINUOUS
 62
     0
 10
2915.5862399999992
 20
3107.456596
 30
0.0
  0
POINT
  5
7D31
  8
DEFPOINTS
  6
CONTINUOUS
 62
     0
 10
2664.5324019999998
 20
2342.4565959999991
 30
0.0
  0
POINT
  5
7D32
  8
DEFPOINTS
  6
CONTINUOUS
 62
     0
 10
2992.7062799999999
 20
2342.4565959999991
 30
0.0
  0
ENDBLK
  5
7B2C
  8
0
  0
BLOCK
  8
0
  2
*D5
 70
     1
 10
0.0
 20
0.0
 30
0.0
  3
*D5
  1

  0
LINE
  5
7D33
  8
3
  6
CONTINUOUS
 62
     0
 10
2209.0324019999989
 20
3762.4565959999991
 30
0.0
 11
3222.919824000001
 21
3762.4565959999991
 31
0.0
  0
LINE
  5
7D34
  8
3
  6
CONTINUOUS
 62
     0
 10
2679.5324019999989
 20
2342.4565959999991
 30
0.0
 11
3222.9198240000001
 21
2342.4565959999991
 31
0.0
  0
LINE
  5
7D35
  8
3
  6
CONTINUOUS
 62
     0
 10
3192.9198240000001
 20
3702.4565959999991
 30
0.0
 11
3192.9198240000001
 21
2402.4565959999991
 31
0.0
  0
INSERT
  5
7D36
  8
3
  6
CONTINUOUS
 62
     0
  2
_OPEN
 10
3192.9198240000001
 20
3762.4565959999991
 30
0.0
 41
60.0
 42
60.0
 43
60.0
 50
90.0
  0
INSERT
  5
7D37
  8
3
  6
CONTINUOUS
 62
     0
  2
_OPEN
 10
3192.9198240000001
 20
2342.4565959999991
 30
0.0
 41
60.0
 42
60.0
 43
60.0
 50
270.0
  0
TEXT
  8
3
  40
90
  5
7D96
  62
0
  72
0
  71
0
 10
2937.92
 20
2915.69
 30
0.000000
  1
1420
  0
POINT
  5
7D39
  8
DEFPOINTS
  6
CONTINUOUS
 62
     0
 10
2194.0324019999989
 20
3762.4565959999991
 30
0.0
  0
POINT
  5
7D3A
  8
DEFPOINTS
  6
CONTINUOUS
 62
     0
 10
2664.5324019999998
 20
2342.4565959999991
 30
0.0
  0
POINT
  5
7D3B
  8
DEFPOINTS
  6
CONTINUOUS
 62
     0
 10
3192.9198240000001
 20
2342.4565959999991
 30
0.0
  0
ENDBLK
  5
7B39
  8
0
  0
BLOCK
  8
0
  2
*D6
 70
     1
 10
0.0
 20
0.0
 30
0.0
  3
*D6
  1

  0
LINE
  5
7D3C
  8
3
  6
CONTINUOUS
 62
     0
 10
914.53240200000005
 20
2327.456596
 30
0.0
 11
914.53240200000005
 21
2020.562101999999
 31
0.0
  0
LINE
  5
7D3D
  8
3
  6
CONTINUOUS
 62
     0
 10
2094.5324019999998
 20
2130.1680940000001
 30
0.0
 11
2094.5324019999998
 21
2020.562101999999
 31
0.0
  0
LINE
  5
7D3E
  8
3
  6
CONTINUOUS
 62
     0
 10
974.53240199999993
 20
2050.5621019999999
 30
0.0
 11
2034.5324019999989
 21
2050.5621019999999
 31
0.0
  0
INSERT
  5
7D3F
  8
3
  6
CONTINUOUS
 62
     0
  2
_OPEN
 10
914.53240200000005
 20
2050.5621019999999
 30
0.0
 41
60.0
 42
60.0
 43
60.0
 50
180.0
  0
INSERT
  5
7D40
  8
3
  6
CONTINUOUS
 62
     0
  2
_OPEN
 10
2094.5324019999998
 20
2050.5621019999999
 30
0.0
 41
60.0
 42
60.0
 43
60.0
  0
TEXT
  8
3
  40
90
  5
7D97
  62
0
  72
0
  71
0
 10
1354.01
 20
1966.26
 30
0.000000
  1
1180
  0
POINT
  5
7D42
  8
DEFPOINTS
  6
CONTINUOUS
 62
     0
 10
914.53240200000005
 20
2342.4565959999991
 30
0.0
  0
POINT
  5
7D43
  8
DEFPOINTS
  6
CONTINUOUS
 62
     0
 10
2094.5324019999998
 20
2145.1680940000001
 30
0.0
  0
POINT
  5
7D44
  8
DEFPOINTS
  6
CONTINUOUS
 62
     0
 10
2094.5324019999998
 20
2050.5621019999999
 30
0.0
  0
ENDBLK
  5
7BDC
  8
0
  0
BLOCK
  8
0
  2
*D7
 70
     1
 10
0.0
 20
0.0
 30
0.0
  3
*D7
  1

  0
LINE
  5
7D45
  8
3
  6
CONTINUOUS
 62
     0
 10
2664.5324019999998
 20
2327.456596
 30
0.0
 11
2664.5324019999998
 21
2020.562101999999
 31
0.0
  0
LINE
  5
7D46
  8
3
  6
CONTINUOUS
 62
     0
 10
2154.5324019999998
 20
2050.5621019999999
 30
0.0
 11
2604.5324019999998
 21
2050.5621019999999
 31
0.0
  0
INSERT
  5
7D47
  8
3
  6
CONTINUOUS
 62
     0
  2
_OPEN
 10
2094.5324019999998
 20
2050.5621019999999
 30
0.0
 41
60.0
 42
60.0
 43
60.0
 50
180.0
  0
INSERT
  5
7D48
  8
3
  6
CONTINUOUS
 62
     0
  2
_OPEN
 10
2664.5324019999998
 20
2050.5621019999999
 30
0.0
 41
60.0
 42
60.0
 43
60.0
  0
TEXT
  8
3
  40
90
  5
7D98
  62
0
  72
0
  71
0
 10
2199.53
 20
1966.26
 30
0.000000
  1
570
  0
POINT
  5
7D4A
  8
DEFPOINTS
  6
CONTINUOUS
 62
     0
 10
2094.5324019999998
 20
2145.1680940000001
 30
0.0
  0
POINT
  5
7D4B
  8
DEFPOINTS
  6
CONTINUOUS
 62
     0
 10
2664.5324019999998
 20
2342.4565959999991
 30
0.0
  0
POINT
  5
7D4C
  8
DEFPOINTS
  6
CONTINUOUS
 62
     0
 10
2664.5324019999998
 20
2050.5621019999999
 30
0.0
  0
ENDBLK
  5
7BE6
  8
0
  0
BLOCK
  8
0
  2
*D8
 70
     1
 10
0.0
 20
0.0
 30
0.0
  3
*D8
  1

  0
LINE
  5
7D4D
  8
3
  6
CONTINUOUS
 62
     0
 10
5058.2137169999996
 20
3582.456596
 30
0.0
 11
5325.2811150000007
 21
3582.4565959999991
 31
0.0
  0
LINE
  5
7D4E
  8
3
  6
CONTINUOUS
 62
     0
 10
5058.2137169999996
 20
2632.456596
 30
0.0
 11
5325.2811150000007
 21
2632.4565959999991
 31
0.0
  0
LINE
  5
7D4F
  8
3
  6
CONTINUOUS
 62
     0
 10
5295.2811150000007
 20
3522.456596
 30
0.0
 11
5295.2811150000007
 21
2692.4565959999991
 31
0.0
  0
INSERT
  5
7D50
  8
3
  6
CONTINUOUS
 62
     0
  2
_OPEN
 10
5295.2811150000007
 20
3582.4565959999991
 30
0.0
 41
60.0
 42
60.0
 43
60.0
 50
90.0
  0
INSERT
  5
7D51
  8
3
  6
CONTINUOUS
 62
     0
  2
_OPEN
 10
5295.2811150000007
 20
2632.4565959999991
 30
0.0
 41
60.0
 42
60.0
 43
60.0
 50
270.0
  0
TEXT
  8
3
  40
90
  5
7D99
  62
0
  72
0
  71
0
 10
5040.28
 20
2951.41
 30
0.000000
  1
φ950
  0
POINT
  5
7D53
  8
DEFPOINTS
  6
CONTINUOUS
 62
     0
 10
5043.2137169999996
 20
3582.456596
 30
0.0
  0
POINT
  5
7D54
  8
DEFPOINTS
  6
CONTINUOUS
 62
     0
 10
5043.2137169999996
 20
2632.456596
 30
0.0
  0
POINT
  5
7D55
  8
DEFPOINTS
  6
CONTINUOUS
 62
     0
 10
5295.2811150000007
 20
2632.4565959999991
 30
0.0
  0
ENDBLK
  5
7CA8
  8
0
  0
BLOCK
  8
0
  2
*D9
 70
     1
 10
0.0
 20
0.0
 30
0.0
  3
*D9
  1

  0
LINE
  5
7C94
  8
0
  6
BYBLOCK
 62
     0
 10
5043.2137169999996
 20
3597.456596
 30
0.0
 11
5043.2137169999996
 21
4162.0795990000006
 31
0.0
  0
LINE
  5
7C95
  8
0
  6
BYBLOCK
 62
     0
 10
4704.2137169999996
 20
4093.9732009999989
 30
0.0
 11
4704.2137169999996
 21
4162.0795990000006
 31
0.0
  0
LINE
  5
7C96
  8
0
  6
BYBLOCK
 62
     0
 10
4983.2137170000015
 20
4132.0795989999997
 30
0.0
 11
4764.2137169999996
 21
4132.0795989999997
 31
0.0
  0
TEXT
  5
7C97
  8
3
 62
     0
 10
4760.1422884285721
 20
4173.6140384032224
 30
0.0
 40
90.0
  1
339
  0
INSERT
  5
7C98
  8
0
  6
BYBLOCK
 62
     0
  2
_OPEN
 10
5043.2137169999996
 20
4132.0795989999997
 30
0.0
 41
60.0
 42
60.0
 43
60.0
  0
INSERT
  5
7C99
  8
0
  6
BYBLOCK
 62
     0
  2
_OPEN
 10
4704.2137169999996
 20
4132.0795989999997
 30
0.0
 41
60.0
 42
60.0
 43
60.0
 50
180.0
  0
POINT
  5
7C9A
  8
DEFPOINTS
  6
BYBLOCK
 62
     0
 10
5043.2137169999996
 20
3582.456596
 30
0.0
  0
POINT
  5
7C9B
  8
DEFPOINTS
  6
BYBLOCK
 62
     0
 10
4704.2137169999996
 20
4078.9732009999998
 30
0.0
  0
POINT
  5
7C9C
  8
DEFPOINTS
  6
BYBLOCK
 62
     0
 10
4704.2137169999996
 20
4132.0795989999997
 30
0.0
  0
ENDBLK
  5
7C9D
  8
0
  0
BLOCK
  8
0
  2
*D10
 70
     1
 10
0.0
 20
0.0
 30
0.0
  3
*D10
  1

  0
LINE
  5
7D56
  8
3
  6
CONTINUOUS
 62
     0
 10
4094.2137170000001
 20
3627.456596
 30
0.0
 11
4094.2137170000001
 21
4162.0795990000006
 31
0.0
  0
LINE
  5
7D57
  8
3
  6
CONTINUOUS
 62
     0
 10
4644.2137170000015
 20
4132.0795989999997
 30
0.0
 11
4154.2137169999996
 21
4132.0795989999997
 31
0.0
  0
INSERT
  5
7D58
  8
3
  6
CONTINUOUS
 62
     0
  2
_OPEN
 10
4704.2137169999996
 20
4132.0795989999997
 30
0.0
 41
60.0
 42
60.0
 43
60.0
  0
INSERT
  5
7D59
  8
3
  6
CONTINUOUS
 62
     0
  2
_OPEN
 10
4094.2137170000001
 20
4132.0795989999997
 30
0.0
 41
60.0
 42
60.0
 43
60.0
 50
180.0
  0
TEXT
  8
3
  40
90
  5
7D9A
  62
0
  72
0
  71
0
 10
4219.21
 20
4122.78
 30
0.000000
  1
MAX
  0
TEXT
  8
3
  40
90
  5
7D9B
  62
0
  72
0
  71
0
 10
4219.21
 20
4005.78
 30
0.000000
  1
640
  0
POINT
  5
7D5B
  8
DEFPOINTS
  6
CONTINUOUS
 62
     0
 10
4704.2137169999996
 20
4078.9732009999998
 30
0.0
  0
POINT
  5
7D5C
  8
DEFPOINTS
  6
CONTINUOUS
 62
     0
 10
4094.2137170000001
 20
3612.4565959999991
 30
0.0
  0
POINT
  5
7D5D
  8
DEFPOINTS
  6
CONTINUOUS
 62
     0
 10
4094.2137170000001
 20
4132.0795989999997
 30
0.0
  0
ENDBLK
  5
7CB2
  8
0
  0
BLOCK
  8
0
  2
*D11
 70
     1
 10
0.0
 20
0.0
 30
0.0
  3
*D11
  1

  0
LINE
  5
7D5E
  8
3
  6
CONTINUOUS
 62
     0
 10
4171.2137169999996
 20
2327.456596
 30
0.0
 11
4171.2137169999996
 21
2080.3785629999988
 31
0.0
  0
LINE
  5
7D5F
  8
3
  6
CONTINUOUS
 62
     0
 10
4704.2137169999996
 20
2186.2874419999998
 30
0.0
 11
4704.2137169999996
 21
2080.3785629999988
 31
0.0
  0
LINE
  5
7D60
  8
3
  6
CONTINUOUS
 62
     0
 10
4231.2137170000015
 20
2110.3785629999988
 30
0.0
 11
4644.2137170000015
 21
2110.3785629999988
 31
0.0
  0
INSERT
  5
7D61
  8
3
  6
CONTINUOUS
 62
     0
  2
_OPEN
 10
4171.2137169999996
 20
2110.3785629999988
 30
0.0
 41
60.0
 42
60.0
 43
60.0
 50
180.0
  0
INSERT
  5
7D62
  8
3
  6
CONTINUOUS
 62
     0
  2
_OPEN
 10
4704.2137169999996
 20
2110.3785629999988
 30
0.0
 41
60.0
 42
60.0
 43
60.0
  0
TEXT
  8
3
  40
90
  5
7D9C
  62
0
  72
0
  71
0
 10
4271.52
 20
2026.08
 30
0.000000
  1
533
  0
POINT
  5
7D64
  8
DEFPOINTS
  6
CONTINUOUS
 62
     0
 10
4171.2137169999996
 20
2342.4565959999991
 30
0.0
  0
POINT
  5
7D65
  8
DEFPOINTS
  6
CONTINUOUS
 62
     0
 10
4704.2137169999996
 20
2201.2874419999998
 30
0.0
  0
POINT
  5
7D66
  8
DEFPOINTS
  6
CONTINUOUS
 62
     0
 10
4704.2137169999996
 20
2110.3785629999988
 30
0.0
  0
ENDBLK
  5
7B97
  8
0
  0
BLOCK
  8
0
  2
*D12
 70
     1
 10
0.0
 20
0.0
 30
0.0
  3
*D12
  1

  0
LINE
  5
7D67
  8
3
  6
CONTINUOUS
 62
     0
 10
5091.2137170000015
 20
2327.456596
 30
0.0
 11
5091.2137170000015
 21
2080.3785629999988
 31
0.0
  0
LINE
  5
7D68
  8
3
  6
CONTINUOUS
 62
     0
 10
4764.2137169999996
 20
2110.3785629999988
 30
0.0
 11
5031.2137169999996
 21
2110.3785629999988
 31
0.0
  0
TEXT
  8
3
  40
90
  5
7D9D
  62
0
  72
0
  71
0
 10
4751.44
 20
2026.40
 30
0.000000
  1
387
  0
INSERT
  5
7D6A
  8
3
  6
CONTINUOUS
 62
     0
  2
_OPEN
 10
4704.2137169999996
 20
2110.3785629999988
 30
0.0
 41
60.0
 42
60.0
 43
60.0
 50
180.0
  0
INSERT
  5
7D6B
  8
3
  6
CONTINUOUS
 62
     0
  2
_OPEN
 10
5091.2137170000015
 20
2110.3785629999988
 30
0.0
 41
60.0
 42
60.0
 43
60.0
  0
POINT
  5
7D6C
  8
DEFPOINTS
  6
CONTINUOUS
 62
     0
 10
4704.2137169999996
 20
2201.2874419999998
 30
0.0
  0
POINT
  5
7D6D
  8
DEFPOINTS
  6
CONTINUOUS
 62
     0
 10
5091.2137170000015
 20
2342.4565959999991
 30
0.0
  0
POINT
  5
7D6E
  8
DEFPOINTS
  6
CONTINUOUS
 62
     0
 10
5091.2137170000015
 20
2110.3785629999988
 30
0.0
  0
ENDBLK
  5
7BFC
  8
0
  0
BLOCK
  8
0
  2
*D13
 70
     1
 10
0.0
 20
0.0
 30
0.0
  3
*D13
  1

  0
LINE
  5
7D6F
  8
3
  6
CONTINUOUS
 62
     0
 10
914.53240200000005
 20
6355.547555000001
 30
0.0
 11
914.53240200000005
 21
6625.7009639999987
 31
0.0
  0
LINE
  5
7D70
  8
3
  6
CONTINUOUS
 62
     0
 10
2664.5324019999998
 20
6355.547555000001
 30
0.0
 11
2664.5324019999998
 21
6625.7009639999987
 31
0.0
  0
LINE
  5
7D71
  8
3
  6
CONTINUOUS
 62
     0
 10
974.53240199999993
 20
6595.7009639999987
 30
0.0
 11
2604.5324019999998
 21
6595.7009639999987
 31
0.0
  0
INSERT
  5
7D72
  8
3
  6
CONTINUOUS
 62
     0
  2
_OPEN
 10
914.53240200000005
 20
6595.7009639999987
 30
0.0
 41
60.0
 42
60.0
 43
60.0
 50
180.0
  0
INSERT
  5
7D73
  8
3
  6
CONTINUOUS
 62
     0
  2
_OPEN
 10
2664.5324019999998
 20
6595.7009639999987
 30
0.0
 41
60.0
 42
60.0
 43
60.0
  0
TEXT
  8
3
  40
90
  5
7D9E
  62
0
  72
0
  71
0
 10
1568.52
 20
6511.40
 30
0.000000
  1
1750
  0
POINT
  5
7D75
  8
DEFPOINTS
  6
CONTINUOUS
 62
     0
 10
914.53240200000005
 20
6340.5475550000001
 30
0.0
  0
POINT
  5
7D76
  8
DEFPOINTS
  6
CONTINUOUS
 62
     0
 10
2664.5324019999998
 20
6340.5475550000001
 30
0.0
  0
POINT
  5
7D77
  8
DEFPOINTS
  6
CONTINUOUS
 62
     0
 10
2664.5324019999998
 20
6595.7009639999987
 30
0.0
  0
ENDBLK
  5
7C7D
  8
0
  0
BLOCK
  8
0
  2
*D14
 70
     1
 10
0.0
 20
0.0
 30
0.0
  3
*D14
  1

  0
LINE
  5
7D78
  8
3
  6
CONTINUOUS
 62
     0
 10
2679.5324019999989
 20
6340.5475550000001
 30
0.0
 11
3065.6091840000008
 21
6340.5475550000001
 31
0.0
  0
LINE
  5
7D79
  8
3
  6
CONTINUOUS
 62
     0
 10
2679.5324019999989
 20
5420.5475550000001
 30
0.0
 11
3065.6091840000008
 21
5420.5475550000001
 31
0.0
  0
LINE
  5
7D7A
  8
3
  6
CONTINUOUS
 62
     0
 10
3035.6091840000008
 20
6280.5475550000001
 30
0.0
 11
3035.6091840000008
 21
5480.547555000001
 31
0.0
  0
INSERT
  5
7D7B
  8
3
  6
CONTINUOUS
 62
     0
  2
_OPEN
 10
3035.6091840000008
 20
6340.5475550000001
 30
0.0
 41
60.0
 42
60.0
 43
60.0
 50
90.0
  0
INSERT
  5
7D7C
  8
3
  6
CONTINUOUS
 62
     0
  2
_OPEN
 10
3035.6091840000008
 20
5420.5475550000001
 30
0.0
 41
60.0
 42
60.0
 43
60.0
 50
270.0
  0
TEXT
  8
3
  40
90
  5
7D9F
  62
0
  72
0
  71
0
 10
2780.61
 20
5711.33
 30
0.000000
  1
920
  0
POINT
  5
7D7E
  8
DEFPOINTS
  6
CONTINUOUS
 62
     0
 10
2664.5324019999998
 20
6340.5475550000001
 30
0.0
  0
POINT
  5
7D7F
  8
DEFPOINTS
  6
CONTINUOUS
 62
     0
 10
2664.5324019999998
 20
5420.5475550000001
 30
0.0
  0
POINT
  5
7D80
  8
DEFPOINTS
  6
CONTINUOUS
 62
     0
 10
3035.6091840000008
 20
5420.5475550000001
 30
0.0
  0
ENDBLK
  5
7BBF
  8
0
  0
BLOCK
  8
0
  2
*D15
 70
     1
 10
0.0
 20
0.0
 30
0.0
  3
*D15
  1

  0
LINE
  5
7D81
  8
3
  6
CONTINUOUS
 62
     0
 10
2737.5273439917319
 20
3122.456596
 30
0.0
 11
2737.5273439917319
 21
4133.9038430000001
 31
0.0
  0
LINE
  5
7D82
  8
3
  6
CONTINUOUS
 62
     0
 10
2154.5324019999998
 20
4103.9038430000001
 30
0.0
 11
2677.5273439917319
 21
4103.9038430000001
 31
0.0
  0
INSERT
  5
7D83
  8
3
  6
CONTINUOUS
 62
     0
  2
_OPEN
 10
2094.5324019999998
 20
4103.9038430000001
 30
0.0
 41
60.0
 42
60.0
 43
60.0
 50
180.0
  0
INSERT
  5
7D84
  8
3
  6
CONTINUOUS
 62
     0
  2
_OPEN
 10
2737.5273439917319
 20
4103.9038430000001
 30
0.0
 41
60.0
 42
60.0
 43
60.0
  0
TEXT
  8
3
  40
90
  5
7DA0
  62
0
  72
0
  71
0
 10
2236.03
 20
4019.60
 30
0.000000
  1
643
  0
POINT
  5
7D86
  8
DEFPOINTS
  6
CONTINUOUS
 62
     0
 10
2094.5324019999998
 20
3925.2165879999989
 30
0.0
  0
POINT
  5
7D87
  8
DEFPOINTS
  6
CONTINUOUS
 62
     0
 10
2737.5273439917319
 20
3107.456596
 30
0.0
  0
POINT
  5
7D88
  8
DEFPOINTS
  6
CONTINUOUS
 62
     0
 10
2737.5273439917319
 20
4103.9038430000001
 30
0.0
  0
ENDBLK
  5
7CBD
  8
0
  0
BLOCK
  8
0
  2
*D16
 70
     1
 10
0.0
 20
0.0
 30
0.0
  3
*D16
  1

  0
LINE
  5
7D89
  8
3
  6
CONTINUOUS
 62
     0
 10
4369.2137169999996
 20
3777.456596
 30
0.0
 11
4369.2137169999996
 21
3993.0341760000001
 31
0.0
  0
LINE
  5
7D8A
  8
3
  6
CONTINUOUS
 62
     0
 10
5039.2137169999996
 20
3777.456596
 30
0.0
 11
5039.2137169999996
 21
3993.0341760000001
 31
0.0
  0
LINE
  5
7D8B
  8
3
  6
CONTINUOUS
 62
     0
 10
4429.2137169999996
 20
3963.0341760000001
 30
0.0
 11
4979.2137169999996
 21
3963.0341760000001
 31
0.0
  0
INSERT
  5
7D8C
  8
3
  6
CONTINUOUS
 62
     0
  2
_OPEN
 10
4369.2137169999996
 20
3963.0341760000001
 30
0.0
 41
60.0
 42
60.0
 43
60.0
 50
180.0
  0
INSERT
  5
7D8D
  8
3
  6
CONTINUOUS
 62
     0
  2
_OPEN
 10
5039.2137169999996
 20
3963.0341760000001
 30
0.0
 41
60.0
 42
60.0
 43
60.0
  0
TEXT
  8
3
  40
90
  5
7DA1
  62
0
  72
0
  71
0
 10
4518.68
 20
3878.73
 30
0.000000
  1
670
  0
POINT
  5
7D8F
  8
DEFPOINTS
  6
CONTINUOUS
 62
     0
 10
4369.2137169999996
 20
3762.4565959999991
 30
0.0
  0
POINT
  5
7D90
  8
DEFPOINTS
  6
CONTINUOUS
 62
     0
 10
5039.2137169999996
 20
3762.4565959999991
 30
0.0
  0
POINT
  5
7D91
  8
DEFPOINTS
  6
CONTINUOUS
 62
     0
 10
5039.2137169999996
 20
3963.0341760000001
 30
0.0
  0
ENDBLK
  5
7C71
  8
0
  0
ENDSEC
  0
SECTION
  2
ENTITIES
  0
LINE
  5
7A66
  8
1
  6
CONTINUOUS
 10
2664.5324019999998
 20
6340.5475550000001
 30
0.0
 11
914.53240200000005
 21
6340.5475550000001
 31
0.0
  0
LINE
  5
7A67
  8
1
  6
CONTINUOUS
 10
934.53240199999993
 20
5395.5475550000001
 30
0.0
 11
2574.5324019999989
 21
5395.5475550000001
 31
0.0
  0
LINE
  5
7A68
  8
1
  6
CONTINUOUS
 10
934.53240199999993
 20
5565.547555000001
 30
0.0
 11
2574.5324019999989
 21
5565.547555000001
 31
0.0
  0
LINE
  5
7A69
  8
1
  6
CONTINUOUS
 10
1840.532402
 20
5428.5475550000001
 30
0.0
 11
2348.5324019999998
 21
5428.5475550000001
 31
0.0
  0
LINE
  5
7A6A
  8
1
  6
CONTINUOUS
 10
1840.532402
 20
5532.5475550000001
 30
0.0
 11
2348.5324019999998
 21
5532.5475550000001
 31
0.0
  0
LINE
  5
7A6B
  8
1
  6
CONTINUOUS
 10
2739.328743999999
 20
5618.5475550000001
 30
0.0
 11
1211.532402
 21
5618.5475550000001
 31
0.0
  0
LINE
  5
7A6C
  8
1
  6
CONTINUOUS
 10
2739.328743999999
 20
6288.5475550000001
 30
0.0
 11
1211.532402
 21
6288.5475550000001
 31
0.0
  0
LINE
  5
7A6D
  8
1
  6
CONTINUOUS
 10
2664.5324019999998
 20
5420.5475550000001
 30
0.0
 11
914.53240200000005
 21
5420.5475550000001
 31
0.0
  0
LINE
  5
7A6E
  8
1
  6
CONTINUOUS
 10
2574.5324019999989
 20
3612.4565959999991
 30
0.0
 11
1914.532402
 21
3612.4565959999991
 31
0.0
  0
LINE
  5
7A6F
  8
2
  6
CENTER
 10
1030.238648
 20
3107.456596
 30
0.0
 11
2928.424367999999
 21
3107.456596
 31
0.0
  0
CIRCLE
  5
7A70
  8
1
  6
CONTINUOUS
 10
2094.5324019999998
 20
3107.456596
 30
0.0
 40
254.0
  0
LINE
  5
7A71
  8
1
  6
CONTINUOUS
 10
2664.5324019999998
 20
2342.4565959999991
 30
0.0
 11
914.53240200000005
 21
2342.4565959999991
 31
0.0
  0
LINE
  5
7A72
  8
1
  6
CONTINUOUS
 10
2664.5324019999998
 20
2442.4565960000009
 30
0.0
 11
914.53240200000005
 21
2442.4565959999991
 31
0.0
  0
POLYLINE
  5
7A76
  8
1
  6
CONTINUOUS
 66
     1
 10
0.0
 20
0.0
 30
0.0
  0
VERTEX
  5
7D0A
  8
1
  6
CONTINUOUS
 10
1211.532402
 20
3762.4565959999991
 30
0.0
  0
VERTEX
  5
7D0B
  8
1
  6
CONTINUOUS
 10
1233.532402
 20
3107.456596
 30
0.0
 42
0.4168370000000001
  0
VERTEX
  5
7D0C
  8
1
  6
CONTINUOUS
 10
2101.7063429999998
 20
2365.0166359999998
 30
0.0
 42
0.429867
  0
VERTEX
  5
7D0D
  8
1
  6
CONTINUOUS
 10
2732.957578
 20
3151.3327559999989
 30
0.0
 42
0.373172
  0
VERTEX
  5
7D0E
  8
1
  6
CONTINUOUS
 10
2136.5324019999989
 20
3675.4253239999998
 30
0.0
 42
0.34598
  0
SEQEND
  5
7D0F
  8
1
  6
CONTINUOUS
  0
LINE
  5
7A7D
  8
1
  6
CONTINUOUS
 10
952.53240199999993
 20
5576.547555000001
 30
0.0
 11
952.53240199999993
 21
6061.5475550000001
 31
0.0
  0
LINE
  5
7A7E
  8
1
  6
CONTINUOUS
 10
914.53240200000005
 20
5420.5475550000001
 30
0.0
 11
914.53240200000005
 21
6340.5475550000001
 31
0.0
  0
LINE
  5
7A7F
  8
1
  6
CONTINUOUS
 10
1211.532402
 20
5618.5475550000001
 30
0.0
 11
1211.532402
 21
6288.5475550000001
 31
0.0
  0
LINE
  5
7A80
  8
1
  6
CONTINUOUS
 10
2136.5324019999989
 20
5618.5475550000001
 30
0.0
 11
2136.5324019999989
 21
6288.5475550000001
 31
0.0
  0
LINE
  5
7A81
  8
1
  6
CONTINUOUS
 10
1211.532402
 20
5618.5475550000001
 30
0.0
 11
2136.5324019999989
 21
6288.5475550000001
 31
0.0
  0
LINE
  5
7A82
  8
1
  6
CONTINUOUS
 10
1211.532402
 20
6288.5475550000001
 30
0.0
 11
2136.5324019999989
 21
5618.5475550000001
 31
0.0
  0
LINE
  5
7A83
  8
1
  6
CONTINUOUS
 10
934.53240199999993
 20
2442.4565959999991
 30
0.0
 11
934.53240199999993
 21
2792.456596
 31
0.0
  0
LINE
  5
7A84
  8
2
  6
CENTER
 10
1114.532402
 20
2612.456596
 30
0.0
 11
1114.532402
 21
2772.456596
 31
0.0
  0
LINE
  5
7A85
  8
1
  6
CONTINUOUS
 10
1131.7458129999991
 20
2619.4586610000001
 30
0.0
 11
2152.8284870000002
 21
2860.2369239999998
 31
0.0
  0
CIRCLE
  5
7A86
  8
1
  6
CONTINUOUS
 10
1114.532402
 20
2692.4565959999991
 30
0.0
 40
75.0
  0
ARC
  5
7A87
  8
1
  6
CONTINUOUS
 10
1114.532402
 20
2692.4565959999991
 30
0.0
 40
162.0
 50
324.972283
 51
215.02771699999991
  0
LINE
  5
7A89
  8
1
  6
CONTINUOUS
 10
927.03240200000005
 20
2532.456596
 30
0.0
 11
981.87473599999987
 21
2599.4730290000002
 31
0.0
  0
LINE
  5
7A8A
  8
1
  6
CONTINUOUS
 10
927.03240200000005
 20
2532.456596
 30
0.0
 11
917.03240199999982
 21
2482.456596
 31
0.0
  0
LINE
  5
7A8B
  8
1
  6
CONTINUOUS
 10
917.03240199999982
 20
2482.456596
 30
0.0
 11
917.03240199999982
 21
2442.4565959999991
 31
0.0
  0
LINE
  5
7A8C
  8
1
  6
CONTINUOUS
 10
914.53240200000005
 20
2442.4565959999991
 30
0.0
 11
914.53240200000005
 21
2342.4565959999991
 31
0.0
  0
LINE
  5
7A8D
  8
1
  6
CONTINUOUS
 10
1247.190067
 20
2599.4730290000002
 30
0.0
 11
1302.032402
 21
2532.456596
 31
0.0
  0
LINE
  5
7A8E
  8
1
  6
CONTINUOUS
 10
1312.032402
 20
2482.456596
 30
0.0
 11
1302.032402
 21
2532.456596
 31
0.0
  0
LINE
  5
7A8F
  8
1
  6
CONTINUOUS
 10
1312.032402
 20
2482.456596
 30
0.0
 11
1312.032402
 21
2442.4565959999991
 31
0.0
  0
LINE
  5
7A90
  8
1
  6
CONTINUOUS
 10
952.53240199999993
 20
5576.547555000001
 30
0.0
 11
1276.532402
 21
5576.547555000001
 31
0.0
  0
LINE
  5
7A91
  8
1
  6
CONTINUOUS
 10
1039.532402
 20
5428.5475550000001
 30
0.0
 11
1189.5324019999989
 21
5428.5475550000001
 31
0.0
  0
LINE
  5
7A92
  8
1
  6
CONTINUOUS
 10
1039.532402
 20
5532.5475550000001
 30
0.0
 11
1189.5324019999989
 21
5532.5475550000001
 31
0.0
  0
LINE
  5
7A93
  8
1
  6
CONTINUOUS
 10
934.53240199999993
 20
2792.456596
 30
0.0
 11
1914.532402
 21
3612.4565959999991
 31
0.0
  0
LINE
  5
7A94
  8
2
  6
CENTER
 10
1034.532402
 20
2692.4565959999991
 30
0.0
 11
1194.532402
 21
2692.4565959999991
 31
0.0
  0
LINE
  5
7A95
  8
1
  6
CONTINUOUS
 10
1074.0871179999999
 20
2755.616544
 30
0.0
 11
1957.5577059999989
 21
3321.3582860000001
 31
0.0
  0
LINE
  5
7A96
  8
1
  6
CONTINUOUS
 10
934.53240199999993
 20
5395.5475550000001
 30
0.0
 11
934.53240199999993
 21
5565.547555000001
 31
0.0
  0
LINE
  5
7A97
  8
1
  6
CONTINUOUS
 10
1039.532402
 20
5428.5475550000001
 30
0.0
 11
1039.532402
 21
5532.5475550000001
 31
0.0
  0
LINE
  5
7A98
  8
1
  6
CONTINUOUS
 10
1093.532402
 20
5532.5475550000001
 30
0.0
 11
1093.532402
 21
5576.547555000001
 31
0.0
  0
LINE
  5
7A99
  8
1
  6
CONTINUOUS
 10
1135.532402
 20
5532.5475550000001
 30
0.0
 11
1135.532402
 21
5576.547555000001
 31
0.0
  0
LINE
  5
7A9A
  8
1
  6
CONTINUOUS
 10
2136.5324019999989
 20
3722.456596
 30
0.0
 11
1212.8759130000001
 21
3722.456596
 31
0.0
  0
LINE
  5
7A9B
  8
1
  6
CONTINUOUS
 10
2179.0324019999998
 20
3762.4565959999991
 30
0.0
 11
1169.032402
 21
3762.4565959999991
 31
0.0
  0
LINE
  5
7A9C
  8
2
  6
CENTER
 10
2094.5324019999998
 20
2145.1680940000001
 30
0.0
 11
2094.5324019999998
 21
3925.2165879999989
 31
0.0
  0
LINE
  5
7A9D
  8
1
  6
CONTINUOUS
 10
2136.5324019999989
 20
3675.4253239999998
 30
0.0
 11
2136.5324019999989
 21
3762.4565959999991
 31
0.0
  0
LINE
  5
7A9E
  8
1
  6
CONTINUOUS
 10
1276.532402
 20
5576.547555000001
 30
0.0
 11
1276.532402
 21
5618.5475550000001
 31
0.0
  0
LINE
  5
7A9F
  8
1
  6
CONTINUOUS
 10
1189.5324019999989
 20
5428.5475550000001
 30
0.0
 11
1189.5324019999989
 21
5532.5475550000001
 31
0.0
  0
LINE
  5
7AA0
  8
1
  6
CONTINUOUS
 10
1840.532402
 20
5428.5475550000001
 30
0.0
 11
1840.532402
 21
5532.5475550000001
 31
0.0
  0
LINE
  5
7AA1
  8
1
  6
CONTINUOUS
 10
2069.5324019999989
 20
5532.5475550000001
 30
0.0
 11
2069.5324019999989
 21
5618.5475550000001
 31
0.0
  0
LINE
  5
7AA2
  8
1
  6
CONTINUOUS
 10
2119.5324019999989
 20
5532.5475550000001
 30
0.0
 11
2119.5324019999989
 21
5618.5475550000001
 31
0.0
  0
LINE
  5
7AA3
  8
1
  6
CONTINUOUS
 10
952.53240199999993
 20
6061.5475550000001
 30
0.0
 11
1211.532402
 21
6061.5475550000001
 31
0.0
  0
LINE
  5
7AA4
  8
1
  6
CONTINUOUS
 10
2739.328743999999
 20
5618.5475550000001
 30
0.0
 11
2739.328743999999
 21
6288.5475550000001
 31
0.0
  0
LINE
  5
7AA5
  8
1
  6
CONTINUOUS
 10
4283.2137169999996
 20
2767.456596
 30
0.0
 11
4283.2137169999996
 21
2617.456596
 31
0.0
  0
LINE
  5
7AA6
  8
1
  6
CONTINUOUS
 10
4179.2137169999996
 20
2767.456596
 30
0.0
 11
4179.2137169999996
 21
2617.456596
 31
0.0
  0
LINE
  5
7AA7
  8
1
  6
CONTINUOUS
 10
4316.2137170000015
 20
3612.4565959999991
 30
0.0
 11
4316.2137170000015
 21
2442.4565959999991
 31
0.0
  0
LINE
  5
7AA8
  8
1
  6
CONTINUOUS
 10
4094.2137170000001
 20
3612.4565959999991
 30
0.0
 11
4094.2137170000001
 21
2442.4565959999991
 31
0.0
  0
LINE
  5
7AA9
  8
1
  6
CONTINUOUS
 10
2574.5324019999989
 20
2442.4565959999991
 30
0.0
 11
2574.5324019999989
 21
3612.4565959999991
 31
0.0
  0
LINE
  5
7AAA
  8
1
  6
CONTINUOUS
 10
5039.2137169999996
 20
3762.4565959999991
 30
0.0
 11
5039.2137169999996
 21
2442.4565959999991
 31
0.0
  0
LINE
  5
7AAB
  8
1
  6
CONTINUOUS
 10
4369.2137169999996
 20
3762.4565959999991
 30
0.0
 11
4369.2137169999996
 21
2442.4565959999991
 31
0.0
  0
LINE
  5
7AAD
  8
1
  6
CONTINUOUS
 10
4171.2137169999996
 20
2442.4565959999991
 30
0.0
 11
5091.2137170000015
 21
2442.4565959999991
 31
0.0
  0
LINE
  5
7AAE
  8
1
  6
CONTINUOUS
 10
4179.2137169999996
 20
2617.456596
 30
0.0
 11
4283.2137169999996
 21
2617.456596
 31
0.0
  0
LINE
  5
7AAF
  8
1
  6
CONTINUOUS
 10
4171.2137169999996
 20
2342.4565959999991
 30
0.0
 11
5091.2137170000015
 21
2342.4565959999991
 31
0.0
  0
LINE
  5
7AB0
  8
1
  6
CONTINUOUS
 10
2664.5324019999998
 20
2442.4565959999991
 30
0.0
 11
2664.5324019999998
 21
2342.4565959999991
 31
0.0
  0
LINE
  5
7AB1
  8
1
  6
CONTINUOUS
 10
4171.2137169999996
 20
2442.4565959999991
 30
0.0
 11
4171.2137169999996
 21
2342.4565959999991
 31
0.0
  0
LINE
  5
7AB2
  8
1
  6
CONTINUOUS
 10
4094.2137170000001
 20
2442.4565959999991
 30
0.0
 11
4171.2137169999996
 21
2442.4565959999991
 31
0.0
  0
LINE
  5
7AB3
  8
1
  6
CONTINUOUS
 10
5091.2137170000015
 20
2442.4565959999991
 30
0.0
 11
5091.2137170000015
 21
2342.4565959999991
 31
0.0
  0
LINE
  5
7AB4
  8
1
  6
CONTINUOUS
 10
4179.2137169999996
 20
2767.456596
 30
0.0
 11
4283.2137169999996
 21
2767.456596
 31
0.0
  0
LINE
  5
7AB5
  8
1
  6
CONTINUOUS
 10
4179.2137169999996
 20
2853.456596
 30
0.0
 11
4283.2137169999996
 21
2853.456596
 31
0.0
  0
LINE
  5
7AB6
  8
1
  6
CONTINUOUS
 10
4179.2137169999996
 20
3361.456596
 30
0.0
 11
4283.2137169999996
 21
3361.456596
 31
0.0
  0
LINE
  5
7AB7
  8
1
  6
CONTINUOUS
 10
4094.2137170000001
 20
3612.4565959999991
 30
0.0
 11
4316.2137170000015
 21
3612.4565959999991
 31
0.0
  0
LINE
  5
7AB8
  8
1
  6
CONTINUOUS
 10
4179.2137169999996
 20
3361.456596
 30
0.0
 11
4179.2137169999996
 21
2853.456596
 31
0.0
  0
LINE
  5
7AB9
  8
1
  6
CONTINUOUS
 10
2574.5324019999989
 20
5395.5475550000001
 30
0.0
 11
2574.5324019999989
 21
5565.547555000001
 31
0.0
  0
LINE
  5
7ABA
  8
1
  6
CONTINUOUS
 10
2348.5324019999998
 20
5428.5475550000001
 30
0.0
 11
2348.5324019999998
 21
5532.5475550000001
 31
0.0
  0
LINE
  5
7ABB
  8
1
  6
CONTINUOUS
 10
2664.5324019999998
 20
5420.5475550000001
 30
0.0
 11
2664.5324019999998
 21
5618.5475550000001
 31
0.0
  0
LINE
  5
7ABC
  8
1
  6
CONTINUOUS
 10
4327.2137170000015
 20
3762.4565959999991
 30
0.0
 11
5081.2137169999996
 21
3762.4565959999991
 31
0.0
  0
LINE
  5
7ABD
  8
1
  6
CONTINUOUS
 10
4369.2137169999996
 20
3722.456596
 30
0.0
 11
5039.2137169999996
 21
3722.456596
 31
0.0
  0
LINE
  5
7ABE
  8
1
  6
CONTINUOUS
 10
4283.2137169999996
 20
3361.456596
 30
0.0
 11
4283.2137169999996
 21
2853.456596
 31
0.0
  0
LINE
  5
7ABF
  8
1
  6
CONTINUOUS
 10
4283.2137169999996
 20
2671.456596
 30
0.0
 11
4369.2137169999996
 21
2671.456596
 31
0.0
  0
LINE
  5
7AC0
  8
1
  6
CONTINUOUS
 10
4283.2137169999996
 20
2713.456596
 30
0.0
 11
4369.2137169999996
 21
2713.456596
 31
0.0
  0
LINE
  5
7AC1
  8
1
  6
CONTINUOUS
 10
4283.2137169999996
 20
3082.456596
 30
0.0
 11
4369.2137169999996
 21
3082.456596
 31
0.0
  0
LINE
  5
7AC2
  8
1
  6
CONTINUOUS
 10
4283.2137169999996
 20
3132.456596
 30
0.0
 11
4369.2137169999996
 21
3132.456596
 31
0.0
  0
LINE
  5
7AC3
  8
1
  6
CONTINUOUS
 10
2664.5324019999998
 20
6288.5475550000001
 30
0.0
 11
2664.5324019999998
 21
6340.5475550000001
 31
0.0
  0
LINE
  5
7AC5
  8
2
  6
CENTER
 10
838.03740900000003
 20
5953.5475550000001
 30
0.0
 11
2835.3956739999999
 21
5953.5475550000001
 31
0.0
  0
LINE
  5
7AC6
  8
2
  6
CENTER
 10
4704.2137169999996
 20
3846.979515
 30
0.0
 11
4704.2137169999996
 21
2201.2874419999998
 31
0.0
  0
LINE
  5
7AC7
  8
2
  6
CENTER
 10
2094.5324019999998
 20
5198.6666610000002
 30
0.0
 11
2094.5324019999998
 21
6542.3335399999996
 31
0.0
  0
LINE
  5
7AC8
  8
2
  6
CENTER
 10
3927.6758589999999
 20
3107.456596
 30
0.0
 11
5116.5190400000001
 21
3107.456596
 31
0.0
  0
LINE
  5
7AC9
  8
4
  6
CONTINUOUS
 10
5550.0
 20
1500.0
 30
0.0
 11
5550.0
 21
900.0
 31
0.0
  0
LINE
  5
7ACA
  8
4
  6
CONTINUOUS
 10
3450.0
 20
1500.0
 30
0.0
 11
3450.0
 21
900.0
 31
0.0
  0
LINE
  5
7ACB
  8
4
  6
CONTINUOUS
 10
1950.0
 20
1500.0
 30
0.0
 11
1950.0
 21
900.0
 31
0.0
  0
LINE
  5
7ACE
  8
4
  6
CONTINUOUS
 10
1950.0
 20
900.0
 30
0.0
 11
5550.0
 21
900.0
 31
0.0
  0
LINE
  5
7ACF
  8
4
  6
CONTINUOUS
 10
1950.0
 20
1200.0
 30
0.0
 11
5550.0
 21
1200.0
 31
0.0
  0
TEXT
  5
7AD0
  8
4
  6
CONTINUOUS
 10
2065.5062429999989
 20
1294.6290779999999
 30
0.0
 40
150.0
  1
機器名称
  0
TEXT
  5
7AD1
  8
4
  6
CONTINUOUS
 10
2058.7743179999989
 20
964.9354699999999
 30
0.0
 40
150.0
  1
機器型番
  0
TEXT
  5
7AD2
  8
4
  6
CONTINUOUS
 10
3533.0362359999999
 20
1267.7153069999999
 30
0.0
 40
150.0
  1
ミツヤ多翼送風機
  0
TEXT
  5
7AD3
  8
4
  6
CONTINUOUS
 10
3559.9634869999991
 20
951.47875299999987
 30
0.0
 40
150.0
  1
MF#5 1/2-4
  0
TEXT
  5
7AD5
  8
4
  6
CONTINUOUS
 10
2714.3572960000001
 20
7150.2865239999992
 30
0.0
 40
162.0
  1
床置ベット
  0
TEXT
  5
7AD6
  8
4
  6
CONTINUOUS
 10
948.50278000000014
 20
7601.6429289999996
 30
0.0
 40
216.0
  1
ベルト駆動式片吸込両持多翼ファン
  0
LINE
  5
7AD7
  8
4
  6
CONTINUOUS
 10
750.0
 20
7408.2262629999996
 30
0.0
 11
5550.0
 21
7408.2262629999996
 31
0.0
  0
LINE
  5
7AD8
  8
4
  6
CONTINUOUS
 10
750.0
 20
8008.2262629999996
 30
0.0
 11
5550.0
 21
8008.2262629999996
 31
0.0
  0
LINE
  5
7AD9
  8
4
  6
CONTINUOUS
 10
1950.0
 20
1500.0
 30
0.0
 11
5550.0
 21
1500.0
 31
0.0
  0
LINE
  5
7ADA
  8
4
  6
CONTINUOUS
 10
750.0
 20
8008.2262629999996
 30
0.0
 11
750.0
 21
7408.2262629999996
 31
0.0
  0
TEXT
  5
7ADB
  8
4
  6
CONTINUOUS
 10
1406.7807999999991
 20
7146.9584329999998
 30
0.0
 40
162.0
  1
右回転上向
  0
TEXT
  5
7ADC
  8
4
  6
CONTINUOUS
 10
4406.9086779999989
 20
8118.1832439999989
 30
0.0
 40
168.0
  1
No.
  0
TEXT
  5
7ADD
  8
4
  6
CONTINUOUS
 10
3933.8881879999999
 20
7150.2865239999992
 30
0.0
 40
162.0
  1
縮尺：1/30
  0
LINE
  5
7ADE
  8
4
  6
CONTINUOUS
 10
5550.0
 20
8008.2262629999996
 30
0.0
 11
5550.0
 21
7408.2262629999996
 31
0.0
  0
LINE
  5
7AE0
  8
4
  6
CONTINUOUS
 10
4321.8522670000002
 20
8043.7907490000007
 30
0.0
 11
4321.8522670000002
 21
8359.9567849999985
 31
0.0
  0
LINE
  5
7AE1
  8
4
  6
CONTINUOUS
 10
4321.8522670000002
 20
8359.9567849999985
 30
0.0
 11
5550.0
 21
8359.9567849999985
 31
0.0
  0
LINE
  5
7AE2
  8
4
  6
CONTINUOUS
 10
5550.0
 20
8359.9567849999985
 30
0.0
 11
5550.0
 21
8043.7907490000007
 31
0.0
  0
LINE
  5
7AE3
  8
4
  6
CONTINUOUS
 10
5550.0
 20
8043.7907490000007
 30
0.0
 11
4321.8522670000002
 21
8043.7907490000007
 31
0.0
  0
DIMENSION
  5
7AFB
  8
3
  6
CONTINUOUS
  2
*D1
 10
2136.5324019999989
 20
3910.9820380000001
 30
0.0
 11
1662.716502
 21
3910.9820380000001
 31
0.0
 70
   128
 13
1211.532402
 23
3762.4565959999991
 33
0.0
 14
2136.5324019999989
 24
3762.4565959999991
 34
0.0
1001
ACAD
1000
DSTYLE
1002
{
1070
   287
1070
     3
1070
    40
1040
30.0
1070
   143
1040
0.039
1070
   172
1070
     1
1070
   271
1070
     0
1070
   279
1070
     0
1070
   288
1070
     1
1002
}
  0
DIMENSION
  5
7B08
  8
3
  6
CONTINUOUS
  2
*D2
 10
2094.5324019999998
 20
4103.9038430000001
 30
0.0
 11
1662.716502
 21
4103.9038430000001
 31
0.0
 70
   128
 13
1211.532402
 23
3762.4565959999991
 33
0.0
 14
2094.5324019999998
 24
3925.2165879999989
 34
0.0
1001
ACAD
1000
DSTYLE
1002
{
1070
   287
1070
     3
1070
    40
1040
30.0
1070
   143
1040
0.039
1070
   172
1070
     1
1070
   271
1070
     0
1070
   279
1070
     0
1070
   288
1070
     1
1002
}
  0
DIMENSION
  5
7B21
  8
3
  6
CONTINUOUS
  2
*D3
 10
2992.7062800000008
 20
3107.456596
 30
0.0
 11
2992.7062799999999
 21
3432.2501600000001
 31
0.0
 70
   128
 13
2179.0324019999998
 23
3762.4565959999991
 33
0.0
 14
2915.5862399999992
 24
3107.456596
 34
0.0
 50
90.0
1001
ACAD
1000
DSTYLE
1002
{
1070
   287
1070
     3
1070
    40
1040
30.0
1070
   143
1040
0.039
1070
   172
1070
     1
1070
   271
1070
     0
1070
   279
1070
     0
1070
   288
1070
     1
1002
}
  0
DIMENSION
  5
7B2D
  8
3
  6
CONTINUOUS
  2
*D4
 10
2992.7062799999999
 20
2342.4565959999991
 30
0.0
 11
2917.706279999999
 21
2724.956596
 31
0.0
 70
     0
 13
2915.5862399999992
 23
3107.456596
 33
0.0
 14
2664.5324019999998
 24
2342.4565959999991
 34
0.0
 50
90.0
1001
ACAD
1000
DSTYLE
1002
{
1070
   287
1070
     4
1070
    40
1040
30.0
1070
    75
1070
     1
1070
   143
1040
0.039
1070
   172
1070
     1
1070
   271
1070
     0
1070
   279
1070
     1
1070
   288
1070
     1
1002
}
  0
DIMENSION
  5
7B3A
  8
3
  6
CONTINUOUS
  2
*D5
 10
3192.9198240000001
 20
2342.4565959999991
 30
0.0
 11
3192.9198240000001
 21
3074.9875689999999
 31
0.0
 70
   128
 13
2194.0324019999989
 23
3762.4565959999991
 33
0.0
 14
2664.5324019999998
 24
2342.4565959999991
 34
0.0
 50
90.0
1001
ACAD
1000
DSTYLE
1002
{
1070
   287
1070
     3
1070
    40
1040
30.0
1070
   143
1040
0.039
1070
   172
1070
     1
1070
   271
1070
     0
1070
   279
1070
     0
1070
   288
1070
     1
1002
}
  0
DIMENSION
  5
7B47
  8
3
  6
CONTINUOUS
  2
*D6
 10
2094.5324019999998
 20
2050.5621019999999
 30
0.0
 11
1534.007822
 21
2050.5621019999999
 31
0.0
 70
   128
 13
914.53240200000005
 23
2342.4565959999991
 33
0.0
 14
2094.5324019999998
 24
2145.1680940000001
 34
0.0
1001
ACAD
1000
DSTYLE
1002
{
1070
   287
1070
     3
1070
    40
1040
30.0
1070
   143
1040
0.039
1070
   172
1070
     1
1070
   271
1070
     0
1070
   279
1070
     0
1070
   288
1070
     1
1002
}
  0
DIMENSION
  5
7B53
  8
3
  6
CONTINUOUS
  2
*D7
 10
2664.5324019999998
 20
2050.5621019999999
 30
0.0
 11
2379.5324019999998
 21
2125.562101999999
 31
0.0
 70
     0
 13
2094.5324019999998
 23
2145.1680940000001
 33
0.0
 14
2664.5324019999998
 24
2342.4565959999991
 34
0.0
1001
ACAD
1000
DSTYLE
1002
{
1070
   287
1070
     4
1070
    40
1040
30.0
1070
    75
1070
     1
1070
   143
1040
0.039
1070
   172
1070
     1
1070
   271
1070
     0
1070
   279
1070
     1
1070
   288
1070
     1
1002
}
  0
LINE
  5
7B61
  8
1
  6
CONTINUOUS
 10
5043.2137169999996
 20
3582.456596
 30
0.0
 11
5043.2137169999996
 21
2632.456596
 31
0.0
  0
DIMENSION
  5
7B70
  8
3
  6
CONTINUOUS
  2
*D8
 10
5295.2811150000007
 20
2632.4565959999991
 30
0.0
 11
5295.2811149999998
 21
3110.7138180000002
 31
0.0
 70
   128
 13
5043.2137169999996
 23
3582.456596
 33
0.0
 14
5043.2137169999996
 24
2632.456596
 34
0.0
 50
90.0
1001
ACAD
1000
DSTYLE
1002
{
1070
   287
1070
     3
1070
     3
1000
φ<>
1070
    40
1040
30.0
1070
   143
1040
0.039
1070
   172
1070
     1
1070
   271
1070
     0
1070
   279
1070
     0
1070
   288
1070
     1
1002
}
  0
DIMENSION
  5
7B7F
  8
3
  6
CONTINUOUS
  2
*D9
 10
4704.2137169999996
 20
4132.0795989999997
 30
0.0
 11
4873.7137170000015
 21
4218.6140384032224
 31
0.0
 70
   128
 13
5043.2137169999996
 23
3582.456596
 33
0.0
 14
4704.2137169999996
 24
4078.9732009999998
 34
0.0
1001
ACAD
1000
DSTYLE
1002
{
1070
   288
1070
     1
1070
   172
1070
     1
1070
    40
1040
30.0
1070
   271
1070
     0
1070
   143
1040
0.039
1002
}
  0
DIMENSION
  5
7B8B
  8
3
  6
CONTINUOUS
  2
*D10
 10
4094.2137170000001
 20
4132.0795989999997
 30
0.0
 11
4399.2137170000015
 21
4282.0795990000006
 31
0.0
 70
     0
  1
MAX\P640
 13
4704.2137169999996
 23
4078.9732009999998
 33
0.0
 14
4094.2137170000001
 24
3612.4565959999991
 34
0.0
1001
ACAD
1000
DSTYLE
1002
{
1070
   287
1070
     4
1070
    40
1040
30.0
1070
    75
1070
     1
1070
   143
1040
0.039
1070
   172
1070
     1
1070
   271
1070
     0
1070
   279
1070
     1
1070
   288
1070
     1
1002
}
  0
DIMENSION
  5
7B98
  8
3
  6
CONTINUOUS
  2
*D11
 10
4704.2137169999996
 20
2110.3785629999988
 30
0.0
 11
4451.5241340000002
 21
2110.3785629999988
 31
0.0
 70
   128
 13
4171.2137169999996
 23
2342.4565959999991
 33
0.0
 14
4704.2137169999996
 24
2201.2874419999998
 34
0.0
1001
ACAD
1000
DSTYLE
1002
{
1070
   287
1070
     3
1070
    40
1040
30.0
1070
   143
1040
0.039
1070
   172
1070
     1
1070
   271
1070
     0
1070
   279
1070
     0
1070
   288
1070
     1
1002
}
  0
DIMENSION
  5
7BA6
  8
3
  6
CONTINUOUS
  2
*D12
 10
5091.2137170000015
 20
2110.3785629999988
 30
0.0
 11
4931.4448759999996
 21
2110.7037350000001
 31
0.0
 70
   128
 13
4704.2137169999996
 23
2201.2874419999998
 33
0.0
 14
5091.2137170000015
 24
2342.4565959999991
 34
0.0
1001
ACAD
1000
DSTYLE
1002
{
1070
   287
1070
     4
1070
    40
1040
30.0
1070
    75
1070
     1
1070
   143
1040
0.039
1070
   172
1070
     1
1070
   271
1070
     0
1070
   279
1070
     1
1070
   288
1070
     1
1002
}
  0
DIMENSION
  5
7BB3
  8
3
  6
CONTINUOUS
  2
*D13
 10
2664.5324019999998
 20
6595.7009639999987
 30
0.0
 11
1748.5222779999999
 21
6595.7009639999987
 31
0.0
 70
   128
 13
914.53240200000005
 23
6340.5475550000001
 33
0.0
 14
2664.5324019999998
 24
6340.5475550000001
 34
0.0
1001
ACAD
1000
DSTYLE
1002
{
1070
   287
1070
     3
1070
    40
1040
30.0
1070
   143
1040
0.039
1070
   172
1070
     1
1070
   271
1070
     0
1070
   279
1070
     0
1070
   288
1070
     1
1002
}
  0
DIMENSION
  5
7BC0
  8
3
  6
CONTINUOUS
  2
*D14
 10
3035.6091840000008
 20
5420.5475550000001
 30
0.0
 11
3035.6091839999999
 21
5870.6251329999986
 31
0.0
 70
   128
 13
2664.5324019999998
 23
6340.5475550000001
 33
0.0
 14
2664.5324019999998
 24
5420.5475550000001
 34
0.0
 50
90.0
1001
ACAD
1000
DSTYLE
1002
{
1070
   287
1070
     3
1070
    40
1040
30.0
1070
   143
1040
0.039
1070
   172
1070
     1
1070
   271
1070
     0
1070
   279
1070
     0
1070
   288
1070
     1
1002
}
  0
DIMENSION
  5
7BD1
  8
3
  6
CONTINUOUS
  2
*D15
 10
2737.5273439917319
 20
4103.9038430000001
 30
0.0
 11
2416.0298729958649
 21
4178.9038429999991
 31
0.0
 70
     0
 13
2094.5324019999998
 23
3925.2165879999989
 33
0.0
 14
2737.5273439917319
 24
3107.456596
 34
0.0
1001
ACAD
1000
DSTYLE
1002
{
1070
   287
1070
     4
1070
    40
1040
30.0
1070
    75
1070
     1
1070
   143
1040
0.039
1070
   172
1070
     1
1070
   271
1070
     0
1070
   279
1070
     1
1070
   288
1070
     1
1002
}
  0
DIMENSION
  5
7C20
  8
3
  6
CONTINUOUS
  2
*D16
 10
5039.2137169999996
 20
3963.0341760000001
 30
0.0
 11
4698.6754539999993
 21
3963.0341760000001
 31
0.0
 70
   128
 13
4369.2137169999996
 23
3762.4565959999991
 33
0.0
 14
5039.2137169999996
 24
3762.4565959999991
 34
0.0
1001
ACAD
1000
DSTYLE
1002
{
1070
   287
1070
     3
1070
    40
1040
30.0
1070
   143
1040
0.039
1070
   172
1070
     1
1070
   271
1070
     0
1070
   279
1070
     0
1070
   288
1070
     1
1002
}
  0
LINE
  5
7CEB
  8
1
  6
CONTINUOUS
 10
1534.5324019999989
 20
3562.456596
 30
0.0
 11
2654.5324019999998
 21
3562.456596
 31
0.0
  0
LINE
  5
7CEC
  8
1
 10
1534.532402
 20
2442.4565959999991
 30
0.0
 11
1534.5324019999989
 21
3562.456596
 31
0.0
  0
LINE
  5
7CED
  8
1
 10
2654.5324019999998
 20
2442.4565959999991
 30
0.0
 11
2654.5324019999998
 21
3562.456596
 31
0.0
  0
ENDSEC
  0
EOF
