  0
SECTION
  2
HEADER
  9
$ACADVER
  1
AC1009
  9
$INSBASE
 10
0.0
 20
0.0
 30
0.0
  9
$EXTMIN
 10
750.0
 20
900.0
 30
0.0
  9
$EXTMAX
 10
5550.0
 20
8359.9567849999985
 30
0.0
  9
$LIMMIN
 10
0.0
 20
0.0
  9
$LIMMAX
 10
297.0
 20
210.0
  9
$ORTHOMODE
 70
     0
  9
$REGENMODE
 70
     1
  9
$FILLMODE
 70
     0
  9
$QTEXTMODE
 70
     0
  9
$MIRRTEXT
 70
     1
  9
$DRAGMODE
 70
     2
  9
$LTSCALE
 40
100.0
  9
$OSMODE
 70
    37
  9
$ATTMODE
 70
     1
  9
$TEXTSIZE
 40
180.0
  9
$TRACEWID
 40
0.05
  9
$TEXTSTYLE
  7
STANDARD
  9
$CLAYER
  8
3
  9
$CELTYPE
  6
BYLAYER
  9
$CECOLOR
 62
   256
  9
$DIMSCALE
 40
30.0
  9
$DIMASZ
 40
2.0
  9
$DIMEXO
 40
0.5
  9
$DIMDLI
 40
10.0
  9
$DIMRND
 40
0.0
  9
$DIMDLE
 40
0.0
  9
$DIMEXE
 40
1.0
  9
$DIMTP
 40
1.0
  9
$DIMTM
 40
1.0
  9
$DIMTXT
 40
3.0
  9
$DIMCEN
 40
0.0
  9
$DIMTSZ
 40
0.0
  9
$DIMTOL
 70
     0
  9
$DIMLIM
 70
     0
  9
$DIMTIH
 70
     0
  9
$DIMTOH
 70
     0
  9
$DIMSE1
 70
     0
  9
$DIMSE2
 70
     0
  9
$DIMTAD
 70
     1
  9
$DIMZIN
 70
     8
  9
$DIMBLK
  1

  9
$DIMASO
 70
     1
  9
$DIMSHO
 70
     1
  9
$DIMPOST
  1

  9
$DIMAPOST
  1

  9
$DIMALT
 70
     0
  9
$DIMALTD
 70
     2
  9
$DIMALTF
 40
0.039
  9
$DIMLFAC
 40
1.0
  9
$DIMTOFL
 70
     1
  9
$DIMTVP
 40
0.0
  9
$DIMTIX
 70
     0
  9
$DIMSOXD
 70
     0
  9
$DIMSAH
 70
     1
  9
$DIMBLK1
  1
OPEN
  9
$DIMBLK2
  1
OPEN
  9
$DIMSTYLE
  2
IGA
  9
$DIMCLRD
 70
     0
  9
$DIMCLRE
 70
     0
  9
$DIMCLRT
 70
     0
  9
$DIMTFAC
 40
10.0
  9
$DIMGAP
 40
1.0
  9
$LUNITS
 70
     2
  9
$LUPREC
 70
     3
  9
$SKETCHINC
 40
0.1
  9
$FILLETRAD
 40
50.0
  9
$AUNITS
 70
     0
  9
$AUPREC
 70
     0
  9
$MENU
  1
acad
  9
$ELEVATION
 40
0.0
  9
$PELEVATION
 40
0.0
  9
$THICKNESS
 40
0.0
  9
$LIMCHECK
 70
     0
  9
$BLIPMODE
 70
     0
  9
$CHAMFERA
 40
0.5
  9
$CHAMFERB
 40
0.5
  9
$SKPOLY
 70
     0
  9
$TDCREATE
 40
2450749.5432309019
  9
$TDUPDATE
 40
2454953.777003576
  9
$TDINDWG
 40
0.0168965741
  9
$TDUSRTIMER
 40
0.0168965741
  9
$USRTIMER
 70
     1
  9
$ANGBASE
 50
0.0
  9
$ANGDIR
 70
     0
  9
$PDMODE
 70
     0
  9
$PDSIZE
 40
0.0
  9
$PLINEWID
 40
0.0
  9
$COORDS
 70
     1
  9
$SPLFRAME
 70
     0
  9
$SPLINETYPE
 70
     6
  9
$SPLINESEGS
 70
     8
  9
$ATTDIA
 70
     0
  9
$ATTREQ
 70
     1
  9
$HANDLING
 70
 10241
  9
$HANDSEED
  5
7D55
  9
$SURFTAB1
 70
     6
  9
$SURFTAB2
 70
     6
  9
$SURFTYPE
 70
     6
  9
$SURFU
 70
     6
  9
$SURFV
 70
     6
  9
$UCSNAME
  2

  9
$UCSORG
 10
0.0
 20
0.0
 30
0.0
  9
$UCSXDIR
 10
1.0
 20
0.0
 30
0.0
  9
$UCSYDIR
 10
0.0
 20
1.0
 30
0.0
  9
$PUCSNAME
  2

  9
$PUCSORG
 10
0.0
 20
0.0
 30
0.0
  9
$PUCSXDIR
 10
1.0
 20
0.0
 30
0.0
  9
$PUCSYDIR
 10
0.0
 20
1.0
 30
0.0
  9
$USERI1
 70
     0
  9
$USERI2
 70
     0
  9
$USERI3
 70
     0
  9
$USERI4
 70
     0
  9
$USERI5
 70
     0
  9
$USERR1
 40
0.0
  9
$USERR2
 40
0.0
  9
$USERR3
 40
0.0
  9
$USERR4
 40
0.0
  9
$USERR5
 40
0.0
  9
$WORLDVIEW
 70
     1
  9
$SHADEDGE
 70
     3
  9
$SHADEDIF
 70
    70
  9
$TILEMODE
 70
     1
  9
$MAXACTVP
 70
    16
  9
$PLIMCHECK
 70
     0
  9
$PEXTMIN
 10
1.0000000000000000E+020
 20
1.0000000000000000E+020
 30
1.0000000000000000E+020
  9
$PEXTMAX
 10
-1.0000000000000000E+020
 20
-1.0000000000000000E+020
 30
-1.0000000000000000E+020
  9
$PLIMMIN
 10
0.0
 20
0.0
  9
$PLIMMAX
 10
12.0
 20
9.0
  9
$UNITMODE
 70
     0
  9
$VISRETAIN
 70
     0
  9
$PLINEGEN
 70
     0
  9
$PSLTSCALE
 70
     1
  0
ENDSEC
  0
SECTION
  2
TABLES
  0
TABLE
  2
VPORT
 70
     2
  0
VPORT
  2
*ACTIVE
 70
     0
 10
0.0
 20
0.0
 11
1.0
 21
1.0
 12
9438.1687158055174
 22
4629.9562499988788
 13
0.0
 23
0.0
 14
10.0
 24
10.0
 15
10.0
 25
10.0
 16
0.0
 26
0.0
 36
1.0
 17
0.0
 27
0.0
 37
0.0
 40
7517.2452868940854
 41
3.1666666666666661
 42
50.0
 43
0.0
 44
0.0
 50
0.0
 51
0.0
 71
     0
 72
   100
 73
     1
 74
     0
 75
     0
 76
     0
 77
     0
 78
     0
  0
ENDTAB
  0
TABLE
  2
LTYPE
 70
     2
  0
LTYPE
  2
CONTINUOUS
 70
     0
  3
Solid line
 72
    65
 73
     0
 40
0.0
  0
LTYPE
  2
CENTER
 70
     0
  3
____ _ ____ _ ____ _ ____ _ ____ _ ____ _ ____ 
 72
    65
 73
     4
 40
2.0
 49
1.25
 49
-0.25
 49
0.25
 49
-0.25
  0
ENDTAB
  0
TABLE
  2
LAYER
 70
     6
  0
LAYER
  2
0
 70
     0
 62
     7
  6
CONTINUOUS
  0
LAYER
  2
3
 70
     0
 62
     2
  6
CONTINUOUS
  0
LAYER
  2
2
 70
     0
 62
     3
  6
CENTER
  0
LAYER
  2
1
 70
     0
 62
     4
  6
CONTINUOUS
  0
LAYER
  2
4
 70
     0
 62
     7
  6
CONTINUOUS
  0
LAYER
  2
DEFPOINTS
 70
     0
 62
     7
  6
CONTINUOUS
  0
ENDTAB
  0
TABLE
  2
STYLE
 70
     1
  0
STYLE
  2
STANDARD
 70
     0
 40
0.0
 41
1.0
 50
0.0
 71
     0
 42
180.0
  3
simplex.shx
  4
extfont.shx
  0
ENDTAB
  0
TABLE
  2
VIEW
 70
     0
  0
ENDTAB
  0
TABLE
  2
UCS
 70
     0
  0
ENDTAB
  0
TABLE
  2
APPID
 70
     1
  0
APPID
  2
ACAD
 70
     0
  0
ENDTAB
  0
TABLE
  2
DIMSTYLE
 70
     1
  0
DIMSTYLE
  2
IGA
 70
     0
  3

  4

  5

  6
OPEN
  7
OPEN
 40
2.0
 41
2.0
 42
0.5
 43
10.0
 44
1.0
 45
0.0
 46
0.0
 47
1.0
 48
1.0
140
3.0
141
0.0
142
0.0
143
0.03937
144
1.0
145
0.0
146
10.0
147
1.0
 71
     0
 72
     0
 73
     0
 74
     0
 75
     0
 76
     0
 77
     1
 78
     8
170
     0
171
     2
172
     0
173
     1
174
     0
175
     0
176
     0
177
     0
178
     0
  0
ENDTAB
  0
ENDSEC
  0
SECTION
  2
BLOCKS
  0
BLOCK
  8
0
  2
$MODEL_SPACE
 70
     0
 10
0.0
 20
0.0
 30
0.0
  3
$MODEL_SPACE
  1

  0
ENDBLK
  5
1B
  8
0
  0
BLOCK
 67
     1
  8
0
  2
$PAPER_SPACE
 70
     0
 10
0.0
 20
0.0
 30
0.0
  3
$PAPER_SPACE
  1

  0
ENDBLK
  5
18
 67
     1
  8
0
  0
BLOCK
  8
0
  2
_OPEN
 70
     0
 10
0.0
 20
0.0
 30
0.0
  3
_OPEN
  1

  0
LINE
  5
7AF4
  8
0
  6
BYBLOCK
 62
     0
 10
-1.0
 20
0.166667
 30
0.0
 11
0.0
 21
0.0
 31
0.0
  0
LINE
  5
7AF5
  8
0
  6
BYBLOCK
 62
     0
 10
0.0
 20
0.0
 30
0.0
 11
-1.0
 21
-0.166667
 31
0.0
  0
LINE
  5
7AF6
  8
0
  6
BYBLOCK
 62
     0
 10
0.0
 20
0.0
 30
0.0
 11
-1.0
 21
0.0
 31
0.0
  0
ENDBLK
  5
7AF7
  8
0
  0
BLOCK
  8
0
  2
*D1
 70
     1
 10
0.0
 20
0.0
 30
0.0
  3
*D1
  1

  0
LINE
  5
7CB9
  8
3
  6
CONTINUOUS
 62
     0
 10
2730.7622860000001
 20
4125.932933
 30
0.0
 11
2981.2008180000012
 21
4125.932933
 31
0.0
  0
LINE
  5
7CBA
  8
3
  6
CONTINUOUS
 62
     0
 10
2730.7622860000001
 20
3200.932933
 30
0.0
 11
2981.2008180000012
 21
3200.932933
 31
0.0
  0
LINE
  5
7CBB
  8
3
  6
CONTINUOUS
 62
     0
 10
2951.2008180000012
 20
4065.932933
 30
0.0
 11
2951.2008180000012
 21
3260.932933
 31
0.0
  0
INSERT
  5
7CBC
  8
3
  6
CONTINUOUS
 62
     0
  2
_OPEN
 10
2951.2008180000012
 20
4125.932933
 30
0.0
 41
60.0
 42
60.0
 43
60.0
 50
90.0
  0
INSERT
  5
7CBD
  8
3
  6
CONTINUOUS
 62
     0
  2
_OPEN
 10
2951.2008180000012
 20
3200.932933
 30
0.0
 41
60.0
 42
60.0
 43
60.0
 50
270.0
  0
TEXT
  8
3
  40
90
  5
7D44
  62
0
  72
0
  71
0
 10
2696.20
 20
3509.13
 30
0.000000
  1
925
  0
POINT
  5
7CBF
  8
DEFPOINTS
  6
CONTINUOUS
 62
     0
 10
2715.7622860000001
 20
4125.932933
 30
0.0
  0
POINT
  5
7CC0
  8
DEFPOINTS
  6
CONTINUOUS
 62
     0
 10
2715.7622860000001
 20
3200.932933
 30
0.0
  0
POINT
  5
7CC1
  8
DEFPOINTS
  6
CONTINUOUS
 62
     0
 10
2951.2008180000012
 20
3200.932933
 30
0.0
  0
ENDBLK
  5
7B04
  8
0
  0
BLOCK
  8
0
  2
*D2
 70
     1
 10
0.0
 20
0.0
 30
0.0
  3
*D2
  1

  0
LINE
  5
7CC2
  8
3
  6
CONTINUOUS
 62
     0
 10
2730.7622860000001
 20
4125.932933
 30
0.0
 11
3160.6548980000011
 21
4125.932933
 31
0.0
  0
LINE
  5
7CC3
  8
3
  6
CONTINUOUS
 62
     0
 10
2887.8264239999999
 20
3242.932933
 30
0.0
 11
3160.6548980000011
 21
3242.9329329999991
 31
0.0
  0
LINE
  5
7CC4
  8
3
  6
CONTINUOUS
 62
     0
 10
3130.6548980000011
 20
4065.932933
 30
0.0
 11
3130.6548980000011
 21
3302.9329329999991
 31
0.0
  0
INSERT
  5
7CC5
  8
3
  6
CONTINUOUS
 62
     0
  2
_OPEN
 10
3130.6548980000011
 20
4125.932933
 30
0.0
 41
60.0
 42
60.0
 43
60.0
 50
90.0
  0
INSERT
  5
7CC6
  8
3
  6
CONTINUOUS
 62
     0
  2
_OPEN
 10
3130.6548980000011
 20
3242.9329329999991
 30
0.0
 41
60.0
 42
60.0
 43
60.0
 50
270.0
  0
TEXT
  8
3
  40
90
  5
7D45
  62
0
  72
0
  71
0
 10
2875.65
 20
3509.13
 30
0.000000
  1
883
  0
POINT
  5
7CC8
  8
DEFPOINTS
  6
CONTINUOUS
 62
     0
 10
2715.7622860000001
 20
4125.932933
 30
0.0
  0
POINT
  5
7CC9
  8
DEFPOINTS
  6
CONTINUOUS
 62
     0
 10
2872.826423999999
 20
3242.932933
 30
0.0
  0
POINT
  5
7CCA
  8
DEFPOINTS
  6
CONTINUOUS
 62
     0
 10
3130.6548980000011
 20
3242.9329329999991
 30
0.0
  0
ENDBLK
  5
7B11
  8
0
  0
BLOCK
  8
0
  2
*D3
 70
     1
 10
0.0
 20
0.0
 30
0.0
  3
*D3
  1

  0
LINE
  5
7CCB
  8
3
  6
CONTINUOUS
 62
     0
 10
2645.7622860000001
 20
2477.9329329999991
 30
0.0
 11
3160.6548979999998
 21
2477.9329329999991
 31
0.0
  0
LINE
  5
7CCC
  8
3
  6
CONTINUOUS
 62
     0
 10
3130.6548979999998
 20
3182.932933
 30
0.0
 11
3130.6548979999998
 21
2537.932933
 31
0.0
  0
INSERT
  5
7CCD
  8
3
  6
CONTINUOUS
 62
     0
  2
_OPEN
 10
3130.6548979999998
 20
3242.9329329999991
 30
0.0
 41
60.0
 42
60.0
 43
60.0
 50
90.0
  0
INSERT
  5
7CCE
  8
3
  6
CONTINUOUS
 62
     0
  2
_OPEN
 10
3130.6548979999998
 20
2477.9329329999991
 30
0.0
 41
60.0
 42
60.0
 43
60.0
 50
270.0
  0
TEXT
  8
3
  40
90
  5
7D46
  62
0
  72
0
  71
0
 10
2875.65
 20
2701.13
 30
0.000000
  1
765
  0
POINT
  5
7CD0
  8
DEFPOINTS
  6
CONTINUOUS
 62
     0
 10
2872.826423999999
 20
3242.932933
 30
0.0
  0
POINT
  5
7CD1
  8
DEFPOINTS
  6
CONTINUOUS
 62
     0
 10
2630.7622860000001
 20
2477.9329329999991
 30
0.0
  0
POINT
  5
7CD2
  8
DEFPOINTS
  6
CONTINUOUS
 62
     0
 10
3130.6548979999998
 20
2477.9329329999991
 30
0.0
  0
ENDBLK
  5
7B1D
  8
0
  0
BLOCK
  8
0
  2
*D4
 70
     1
 10
0.0
 20
0.0
 30
0.0
  3
*D4
  1

  0
LINE
  5
7CD3
  8
3
  6
CONTINUOUS
 62
     0
 10
2730.7622860000001
 20
4168.432933
 30
0.0
 11
3387.12826
 21
4168.432933
 31
0.0
  0
LINE
  5
7CD4
  8
3
  6
CONTINUOUS
 62
     0
 10
2645.7622860000001
 20
2477.9329329999991
 30
0.0
 11
3387.12826
 21
2477.9329329999991
 31
0.0
  0
LINE
  5
7CD5
  8
3
  6
CONTINUOUS
 62
     0
 10
3357.1282600000009
 20
4108.432933
 30
0.0
 11
3357.12826
 21
2537.932933
 31
0.0
  0
INSERT
  5
7CD6
  8
3
  6
CONTINUOUS
 62
     0
  2
_OPEN
 10
3357.1282600000009
 20
4168.432933
 30
0.0
 41
60.0
 42
60.0
 43
60.0
 50
90.0
  0
INSERT
  5
7CD7
  8
3
  6
CONTINUOUS
 62
     0
  2
_OPEN
 10
3357.12826
 20
2477.9329329999991
 30
0.0
 41
60.0
 42
60.0
 43
60.0
 50
270.0
  0
TEXT
  8
3
  40
90
  5
7D47
  62
0
  72
0
  71
0
 10
3102.13
 20
3098.75
 30
0.000000
  1
1691
  0
POINT
  5
7CD9
  8
DEFPOINTS
  6
CONTINUOUS
 62
     0
 10
2715.7622860000001
 20
4168.432933
 30
0.0
  0
POINT
  5
7CDA
  8
DEFPOINTS
  6
CONTINUOUS
 62
     0
 10
2630.7622860000001
 20
2477.9329329999991
 30
0.0
  0
POINT
  5
7CDB
  8
DEFPOINTS
  6
CONTINUOUS
 62
     0
 10
3357.12826
 20
2477.9329329999991
 30
0.0
  0
ENDBLK
  5
7B2A
  8
0
  0
BLOCK
  8
0
  2
*D5
 70
     1
 10
0.0
 20
0.0
 30
0.0
  3
*D5
  1

  0
LINE
  5
7CDC
  8
3
  6
CONTINUOUS
 62
     0
 10
880.76228599999979
 20
2462.932933
 30
0.0
 11
880.76228599999979
 21
2134.536462
 31
0.0
  0
LINE
  5
7CDD
  8
3
  6
CONTINUOUS
 62
     0
 10
2060.7622860000001
 20
2307.432847
 30
0.0
 11
2060.7622860000001
 21
2134.536462
 31
0.0
  0
LINE
  5
7CDE
  8
3
  6
CONTINUOUS
 62
     0
 10
940.76228600000002
 20
2164.536462
 30
0.0
 11
2000.7622859999999
 21
2164.536462
 31
0.0
  0
INSERT
  5
7CDF
  8
3
  6
CONTINUOUS
 62
     0
  2
_OPEN
 10
880.76228599999979
 20
2164.536462
 30
0.0
 41
60.0
 42
60.0
 43
60.0
 50
180.0
  0
INSERT
  5
7CE0
  8
3
  6
CONTINUOUS
 62
     0
  2
_OPEN
 10
2060.7622860000001
 20
2164.536462
 30
0.0
 41
60.0
 42
60.0
 43
60.0
  0
TEXT
  8
3
  40
90
  5
7D48
  62
0
  72
0
  71
0
 10
1345.22
 20
2080.24
 30
0.000000
  1
1180
  0
POINT
  5
7CE2
  8
DEFPOINTS
  6
CONTINUOUS
 62
     0
 10
880.76228599999979
 20
2477.9329329999991
 30
0.0
  0
POINT
  5
7CE3
  8
DEFPOINTS
  6
CONTINUOUS
 62
     0
 10
2060.7622860000001
 20
2322.4328469999991
 30
0.0
  0
POINT
  5
7CE4
  8
DEFPOINTS
  6
CONTINUOUS
 62
     0
 10
2060.7622860000001
 20
2164.536462
 30
0.0
  0
ENDBLK
  5
7BF6
  8
0
  0
BLOCK
  8
0
  2
*D6
 70
     1
 10
0.0
 20
0.0
 30
0.0
  3
*D6
  1

  0
LINE
  5
7CE5
  8
3
  6
CONTINUOUS
 62
     0
 10
2630.7622860000001
 20
2462.932933
 30
0.0
 11
2630.7622860000001
 21
2134.536462
 31
0.0
  0
LINE
  5
7CE6
  8
3
  6
CONTINUOUS
 62
     0
 10
2120.7622860000001
 20
2164.536462
 30
0.0
 11
2570.7622860000001
 21
2164.536462
 31
0.0
  0
INSERT
  5
7CE7
  8
3
  6
CONTINUOUS
 62
     0
  2
_OPEN
 10
2060.7622860000001
 20
2164.536462
 30
0.0
 41
60.0
 42
60.0
 43
60.0
 50
180.0
  0
INSERT
  5
7CE8
  8
3
  6
CONTINUOUS
 62
     0
  2
_OPEN
 10
2630.7622860000001
 20
2164.536462
 30
0.0
 41
60.0
 42
60.0
 43
60.0
  0
TEXT
  8
3
  40
90
  5
7D49
  62
0
  72
0
  71
0
 10
2165.76
 20
2080.24
 30
0.000000
  1
570
  0
POINT
  5
7CEA
  8
DEFPOINTS
  6
CONTINUOUS
 62
     0
 10
2060.7622860000001
 20
2322.4328469999991
 30
0.0
  0
POINT
  5
7CEB
  8
DEFPOINTS
  6
CONTINUOUS
 62
     0
 10
2630.7622860000001
 20
2477.9329329999991
 30
0.0
  0
POINT
  5
7CEC
  8
DEFPOINTS
  6
CONTINUOUS
 62
     0
 10
2630.7622860000001
 20
2164.536462
 30
0.0
  0
ENDBLK
  5
7C00
  8
0
  0
BLOCK
  8
0
  2
*D7
 70
     1
 10
0.0
 20
0.0
 30
0.0
  3
*D7
  1

  0
LINE
  5
7CED
  8
3
  6
CONTINUOUS
 62
     0
 10
2715.7622860000001
 20
4183.432933
 30
0.0
 11
2715.7622860000001
 21
4363.3498
 31
0.0
  0
LINE
  5
7CEE
  8
3
  6
CONTINUOUS
 62
     0
 10
2060.7622860000001
 20
4255.2420739999989
 30
0.0
 11
2060.7622860000001
 21
4363.3498
 31
0.0
  0
LINE
  5
7CEF
  8
3
  6
CONTINUOUS
 62
     0
 10
2655.7622860000001
 20
4333.349799999999
 30
0.0
 11
2120.7622860000001
 21
4333.349799999999
 31
0.0
  0
INSERT
  5
7CF0
  8
3
  6
CONTINUOUS
 62
     0
  2
_OPEN
 10
2715.7622860000001
 20
4333.349799999999
 30
0.0
 41
60.0
 42
60.0
 43
60.0
  0
INSERT
  5
7CF1
  8
3
  6
CONTINUOUS
 62
     0
  2
_OPEN
 10
2060.7622860000001
 20
4333.349799999999
 30
0.0
 41
60.0
 42
60.0
 43
60.0
 50
180.0
  0
TEXT
  8
3
  40
90
  5
7D4A
  62
0
  72
0
  71
0
 10
2209.93
 20
4249.05
 30
0.000000
  1
655
  0
POINT
  5
7CF3
  8
DEFPOINTS
  6
CONTINUOUS
 62
     0
 10
2715.7622860000001
 20
4168.432933
 30
0.0
  0
POINT
  5
7CF4
  8
DEFPOINTS
  6
CONTINUOUS
 62
     0
 10
2060.7622860000001
 20
4240.2420739999998
 30
0.0
  0
POINT
  5
7CF5
  8
DEFPOINTS
  6
CONTINUOUS
 62
     0
 10
2060.7622860000001
 20
4333.349799999999
 30
0.0
  0
ENDBLK
  5
7B50
  8
0
  0
BLOCK
  8
0
  2
*D8
 70
     1
 10
0.0
 20
0.0
 30
0.0
  3
*D8
  1

  0
LINE
  5
7CF6
  8
3
  6
CONTINUOUS
 62
     0
 10
5082.9522850000012
 20
4140.932933
 30
0.0
 11
5082.9522850000012
 21
4344.1480329999986
 31
0.0
  0
LINE
  5
7CF7
  8
3
  6
CONTINUOUS
 62
     0
 10
4412.9522850000003
 20
4140.932933
 30
0.0
 11
4412.9522850000003
 21
4344.1480329999986
 31
0.0
  0
LINE
  5
7CF8
  8
3
  6
CONTINUOUS
 62
     0
 10
5022.9522850000003
 20
4314.1480329999986
 30
0.0
 11
4472.9522850000003
 21
4314.1480329999986
 31
0.0
  0
INSERT
  5
7CF9
  8
3
  6
CONTINUOUS
 62
     0
  2
_OPEN
 10
5082.9522850000012
 20
4314.1480329999986
 30
0.0
 41
60.0
 42
60.0
 43
60.0
  0
INSERT
  5
7CFA
  8
3
  6
CONTINUOUS
 62
     0
  2
_OPEN
 10
4412.9522850000003
 20
4314.1480329999986
 30
0.0
 41
60.0
 42
60.0
 43
60.0
 50
180.0
  0
TEXT
  8
3
  40
90
  5
7D4B
  62
0
  72
0
  71
0
 10
4564.50
 20
4229.85
 30
0.000000
  1
670
  0
POINT
  5
7CFC
  8
DEFPOINTS
  6
CONTINUOUS
 62
     0
 10
5082.9522850000012
 20
4125.932933
 30
0.0
  0
POINT
  5
7CFD
  8
DEFPOINTS
  6
CONTINUOUS
 62
     0
 10
4412.9522850000003
 20
4125.932933
 30
0.0
  0
POINT
  5
7CFE
  8
DEFPOINTS
  6
CONTINUOUS
 62
     0
 10
4412.9522850000003
 20
4314.1480329999986
 30
0.0
  0
ENDBLK
  5
7B69
  8
0
  0
BLOCK
  8
0
  2
*D9
 70
     1
 10
0.0
 20
0.0
 30
0.0
  3
*D9
  1

  0
LINE
  5
7CFF
  8
3
  6
CONTINUOUS
 62
     0
 10
5101.9522850000003
 20
3717.932933
 30
0.0
 11
5395.812503000001
 21
3717.9329329999991
 31
0.0
  0
LINE
  5
7D00
  8
3
  6
CONTINUOUS
 62
     0
 10
5101.9522850000003
 20
2767.932933
 30
0.0
 11
5395.812503000001
 21
2767.9329329999991
 31
0.0
  0
LINE
  5
7D01
  8
3
  6
CONTINUOUS
 62
     0
 10
5365.8125030000001
 20
3657.932933
 30
0.0
 11
5365.8125030000001
 21
2827.9329329999991
 31
0.0
  0
INSERT
  5
7D02
  8
3
  6
CONTINUOUS
 62
     0
  2
_OPEN
 10
5365.8125030000001
 20
3717.9329329999991
 30
0.0
 41
60.0
 42
60.0
 43
60.0
 50
90.0
  0
INSERT
  5
7D03
  8
3
  6
CONTINUOUS
 62
     0
  2
_OPEN
 10
5365.8125030000001
 20
2767.9329329999991
 30
0.0
 41
60.0
 42
60.0
 43
60.0
 50
270.0
  0
TEXT
  8
3
  40
90
  5
7D4C
  62
0
  72
0
  71
0
 10
5110.81
 20
3098.75
 30
0.000000
  1
φ950
  0
POINT
  5
7D05
  8
DEFPOINTS
  6
CONTINUOUS
 62
     0
 10
5086.9522850000003
 20
3717.932933
 30
0.0
  0
POINT
  5
7D06
  8
DEFPOINTS
  6
CONTINUOUS
 62
     0
 10
5086.9522850000003
 20
2767.932933
 30
0.0
  0
POINT
  5
7D07
  8
DEFPOINTS
  6
CONTINUOUS
 62
     0
 10
5365.8125030000001
 20
2767.9329329999991
 30
0.0
  0
ENDBLK
  5
7C64
  8
0
  0
BLOCK
  8
0
  2
*D10
 70
     1
 10
0.0
 20
0.0
 30
0.0
  3
*D10
  1

  0
LINE
  5
7C50
  8
0
  6
BYBLOCK
 62
     0
 10
5086.9522850000003
 20
3732.932933
 30
0.0
 11
5086.9522850000003
 21
4555.3673520000002
 31
0.0
  0
LINE
  5
7C51
  8
0
  6
BYBLOCK
 62
     0
 10
4747.9522850000003
 20
4464.1158399999986
 30
0.0
 11
4747.9522850000003
 21
4555.3673520000002
 31
0.0
  0
LINE
  5
7C52
  8
0
  6
BYBLOCK
 62
     0
 10
5026.9522850000003
 20
4525.3673519999993
 30
0.0
 11
4807.9522850000003
 21
4525.3673519999993
 31
0.0
  0
TEXT
  5
7C53
  8
3
 62
     0
 10
4803.880856428571
 20
4564.1253556499796
 30
0.0
 40
90.0
  1
339
  0
INSERT
  5
7C54
  8
0
  6
BYBLOCK
 62
     0
  2
_OPEN
 10
5086.9522850000003
 20
4525.3673519999993
 30
0.0
 41
60.0
 42
60.0
 43
60.0
  0
INSERT
  5
7C55
  8
0
  6
BYBLOCK
 62
     0
  2
_OPEN
 10
4747.9522850000003
 20
4525.3673519999993
 30
0.0
 41
60.0
 42
60.0
 43
60.0
 50
180.0
  0
POINT
  5
7C56
  8
DEFPOINTS
  6
BYBLOCK
 62
     0
 10
5086.9522850000003
 20
3717.932933
 30
0.0
  0
POINT
  5
7C57
  8
DEFPOINTS
  6
BYBLOCK
 62
     0
 10
4747.9522850000003
 20
4449.1158400000004
 30
0.0
  0
POINT
  5
7C58
  8
DEFPOINTS
  6
BYBLOCK
 62
     0
 10
4747.9522850000003
 20
4525.3673519999993
 30
0.0
  0
ENDBLK
  5
7C59
  8
0
  0
BLOCK
  8
0
  2
*D11
 70
     1
 10
0.0
 20
0.0
 30
0.0
  3
*D11
  1

  0
LINE
  5
7D08
  8
3
  6
CONTINUOUS
 62
     0
 10
4137.9522849999994
 20
3762.932933
 30
0.0
 11
4137.9522849999994
 21
4555.3673520000002
 31
0.0
  0
LINE
  5
7D09
  8
3
  6
CONTINUOUS
 62
     0
 10
4687.9522850000003
 20
4525.3673519999993
 30
0.0
 11
4197.9522850000003
 21
4525.3673519999993
 31
0.0
  0
INSERT
  5
7D0A
  8
3
  6
CONTINUOUS
 62
     0
  2
_OPEN
 10
4747.9522850000003
 20
4525.3673519999993
 30
0.0
 41
60.0
 42
60.0
 43
60.0
  0
INSERT
  5
7D0B
  8
3
  6
CONTINUOUS
 62
     0
  2
_OPEN
 10
4137.9522849999994
 20
4525.3673519999993
 30
0.0
 41
60.0
 42
60.0
 43
60.0
 50
180.0
  0
TEXT
  8
3
  40
90
  5
7D4D
  62
0
  72
0
  71
0
 10
4262.95
 20
4516.07
 30
0.000000
  1
MAX
  0
TEXT
  8
3
  40
90
  5
7D4E
  62
0
  72
0
  71
0
 10
4262.95
 20
4399.07
 30
0.000000
  1
640
  0
POINT
  5
7D0D
  8
DEFPOINTS
  6
CONTINUOUS
 62
     0
 10
4747.9522850000003
 20
4449.1158400000004
 30
0.0
  0
POINT
  5
7D0E
  8
DEFPOINTS
  6
CONTINUOUS
 62
     0
 10
4137.9522849999994
 20
3747.9329329999991
 30
0.0
  0
POINT
  5
7D0F
  8
DEFPOINTS
  6
CONTINUOUS
 62
     0
 10
4137.9522849999994
 20
4525.3673519999993
 30
0.0
  0
ENDBLK
  5
7C6E
  8
0
  0
BLOCK
  8
0
  2
*D12
 70
     1
 10
0.0
 20
0.0
 30
0.0
  3
*D12
  1

  0
LINE
  5
7D10
  8
3
  6
CONTINUOUS
 62
     0
 10
4214.9522850000003
 20
2462.932933
 30
0.0
 11
4214.9522850000003
 21
2173.4032269999989
 31
0.0
  0
LINE
  5
7D11
  8
3
  6
CONTINUOUS
 62
     0
 10
4747.9522850000003
 20
2284.920932999999
 30
0.0
 11
4747.9522850000003
 21
2173.4032269999989
 31
0.0
  0
LINE
  5
7D12
  8
3
  6
CONTINUOUS
 62
     0
 10
4274.9522850000003
 20
2203.4032269999989
 30
0.0
 11
4687.9522850000003
 21
2203.4032269999989
 31
0.0
  0
INSERT
  5
7D13
  8
3
  6
CONTINUOUS
 62
     0
  2
_OPEN
 10
4214.9522850000003
 20
2203.4032269999989
 30
0.0
 41
60.0
 42
60.0
 43
60.0
 50
180.0
  0
INSERT
  5
7D14
  8
3
  6
CONTINUOUS
 62
     0
  2
_OPEN
 10
4747.9522850000003
 20
2203.4032269999989
 30
0.0
 41
60.0
 42
60.0
 43
60.0
  0
TEXT
  8
3
  40
90
  5
7D4F
  62
0
  72
0
  71
0
 10
4308.29
 20
2119.10
 30
0.000000
  1
533
  0
POINT
  5
7D16
  8
DEFPOINTS
  6
CONTINUOUS
 62
     0
 10
4214.9522850000003
 20
2477.9329329999991
 30
0.0
  0
POINT
  5
7D17
  8
DEFPOINTS
  6
CONTINUOUS
 62
     0
 10
4747.9522850000003
 20
2299.9209329999999
 30
0.0
  0
POINT
  5
7D18
  8
DEFPOINTS
  6
CONTINUOUS
 62
     0
 10
4747.9522850000003
 20
2203.4032269999989
 30
0.0
  0
ENDBLK
  5
7C2D
  8
0
  0
BLOCK
  8
0
  2
*D13
 70
     1
 10
0.0
 20
0.0
 30
0.0
  3
*D13
  1

  0
LINE
  5
7D19
  8
3
  6
CONTINUOUS
 62
     0
 10
5134.9522850000003
 20
2462.932933
 30
0.0
 11
5134.9522850000003
 21
2173.4032269999989
 31
0.0
  0
LINE
  5
7D1A
  8
3
  6
CONTINUOUS
 62
     0
 10
4807.9522850000003
 20
2203.4032269999989
 30
0.0
 11
5074.9522850000012
 21
2203.4032269999989
 31
0.0
  0
TEXT
  8
3
  40
90
  5
7D50
  62
0
  72
0
  71
0
 10
4783.65
 20
2118.73
 30
0.000000
  1
387
  0
INSERT
  5
7D1C
  8
3
  6
CONTINUOUS
 62
     0
  2
_OPEN
 10
4747.9522850000003
 20
2203.4032269999989
 30
0.0
 41
60.0
 42
60.0
 43
60.0
 50
180.0
  0
INSERT
  5
7D1D
  8
3
  6
CONTINUOUS
 62
     0
  2
_OPEN
 10
5134.9522850000003
 20
2203.4032269999989
 30
0.0
 41
60.0
 42
60.0
 43
60.0
  0
POINT
  5
7D1E
  8
DEFPOINTS
  6
CONTINUOUS
 62
     0
 10
4747.9522850000003
 20
2299.9209329999999
 30
0.0
  0
POINT
  5
7D1F
  8
DEFPOINTS
  6
CONTINUOUS
 62
     0
 10
5134.9522850000003
 20
2477.9329329999991
 30
0.0
  0
POINT
  5
7D20
  8
DEFPOINTS
  6
CONTINUOUS
 62
     0
 10
5134.9522850000003
 20
2203.4032269999989
 30
0.0
  0
ENDBLK
  5
7C37
  8
0
  0
BLOCK
  8
0
  2
*D14
 70
     1
 10
0.0
 20
0.0
 30
0.0
  3
*D14
  1

  0
LINE
  5
7D21
  8
3
  6
CONTINUOUS
 62
     0
 10
880.76228599999979
 20
6445.5275519999996
 30
0.0
 11
880.76228599999979
 21
6624.6773270000003
 31
0.0
  0
LINE
  5
7D22
  8
3
  6
CONTINUOUS
 62
     0
 10
2630.7622860000001
 20
6445.5275519999996
 30
0.0
 11
2630.7622860000001
 21
6624.6773270000003
 31
0.0
  0
LINE
  5
7D23
  8
3
  6
CONTINUOUS
 62
     0
 10
940.76228600000002
 20
6594.6773270000012
 30
0.0
 11
2570.7622860000001
 21
6594.6773270000012
 31
0.0
  0
INSERT
  5
7D24
  8
3
  6
CONTINUOUS
 62
     0
  2
_OPEN
 10
880.76228599999979
 20
6594.6773270000012
 30
0.0
 41
60.0
 42
60.0
 43
60.0
 50
180.0
  0
INSERT
  5
7D25
  8
3
  6
CONTINUOUS
 62
     0
  2
_OPEN
 10
2630.7622860000001
 20
6594.6773270000012
 30
0.0
 41
60.0
 42
60.0
 43
60.0
  0
TEXT
  8
3
  40
90
  5
7D51
  62
0
  72
0
  71
0
 10
1582.22
 20
6510.38
 30
0.000000
  1
1750
  0
POINT
  5
7D27
  8
DEFPOINTS
  6
CONTINUOUS
 62
     0
 10
880.76228599999979
 20
6430.5275519999996
 30
0.0
  0
POINT
  5
7D28
  8
DEFPOINTS
  6
CONTINUOUS
 62
     0
 10
2630.7622860000001
 20
6430.5275519999996
 30
0.0
  0
POINT
  5
7D29
  8
DEFPOINTS
  6
CONTINUOUS
 62
     0
 10
2630.7622860000001
 20
6594.6773270000012
 30
0.0
  0
ENDBLK
  5
7BBC
  8
0
  0
BLOCK
  8
0
  2
*D15
 70
     1
 10
0.0
 20
0.0
 30
0.0
  3
*D15
  1

  0
LINE
  5
7D2A
  8
3
  6
CONTINUOUS
 62
     0
 10
2645.7622860000001
 20
6430.5275519999996
 30
0.0
 11
3002.8119820000011
 21
6430.5275519999996
 31
0.0
  0
LINE
  5
7D2B
  8
3
  6
CONTINUOUS
 62
     0
 10
2645.7622860000001
 20
5510.5275519999996
 30
0.0
 11
3002.8119820000011
 21
5510.5275519999996
 31
0.0
  0
LINE
  5
7D2C
  8
3
  6
CONTINUOUS
 62
     0
 10
2972.8119820000011
 20
6370.5275520000014
 30
0.0
 11
2972.8119820000011
 21
5570.5275520000014
 31
0.0
  0
INSERT
  5
7D2D
  8
3
  6
CONTINUOUS
 62
     0
  2
_OPEN
 10
2972.8119820000011
 20
6430.5275519999996
 30
0.0
 41
60.0
 42
60.0
 43
60.0
 50
90.0
  0
INSERT
  5
7D2E
  8
3
  6
CONTINUOUS
 62
     0
  2
_OPEN
 10
2972.8119820000011
 20
5510.5275519999996
 30
0.0
 41
60.0
 42
60.0
 43
60.0
 50
270.0
  0
TEXT
  8
3
  40
90
  5
7D52
  62
0
  72
0
  71
0
 10
2717.81
 20
5820.92
 30
0.000000
  1
920
  0
POINT
  5
7D30
  8
DEFPOINTS
  6
CONTINUOUS
 62
     0
 10
2630.7622860000001
 20
6430.5275519999996
 30
0.0
  0
POINT
  5
7D31
  8
DEFPOINTS
  6
CONTINUOUS
 62
     0
 10
2630.7622860000001
 20
5510.5275519999996
 30
0.0
  0
POINT
  5
7D32
  8
DEFPOINTS
  6
CONTINUOUS
 62
     0
 10
2972.8119820000011
 20
5510.5275519999996
 30
0.0
  0
ENDBLK
  5
7BC9
  8
0
  0
BLOCK
  8
0
  2
*D16
 70
     1
 10
0.0
 20
0.0
 30
0.0
  3
*D16
  1

  0
LINE
  5
7D33
  8
3
  6
CONTINUOUS
 62
     0
 10
1317.7622839999999
 20
3257.932933
 30
0.0
 11
1317.7622839999999
 21
4363.3498
 31
0.0
  0
LINE
  5
7D34
  8
3
  6
CONTINUOUS
 62
     0
 10
2000.7622859999999
 20
4333.349799999999
 30
0.0
 11
1377.7622839999999
 21
4333.349799999999
 31
0.0
  0
INSERT
  5
7D35
  8
3
  6
CONTINUOUS
 62
     0
  2
_OPEN
 10
2060.7622860000001
 20
4333.349799999999
 30
0.0
 41
60.0
 42
60.0
 43
60.0
  0
INSERT
  5
7D36
  8
3
  6
CONTINUOUS
 62
     0
  2
_OPEN
 10
1317.7622839999999
 20
4333.349799999999
 30
0.0
 41
60.0
 42
60.0
 43
60.0
 50
180.0
  0
TEXT
  8
3
  40
90
  5
7D53
  62
0
  72
0
  71
0
 10
1509.26
 20
4249.05
 30
0.000000
  1
743
  0
POINT
  5
7D38
  8
DEFPOINTS
  6
CONTINUOUS
 62
     0
 10
2060.7622860000001
 20
4240.2420739999998
 30
0.0
  0
POINT
  5
7D39
  8
DEFPOINTS
  6
CONTINUOUS
 62
     0
 10
1317.7622839999999
 20
3242.932933
 30
0.0
  0
POINT
  5
7D3A
  8
DEFPOINTS
  6
CONTINUOUS
 62
     0
 10
1317.7622839999999
 20
4333.349799999999
 30
0.0
  0
ENDBLK
  5
7C0B
  8
0
  0
BLOCK
  8
0
  2
*D17
 70
     1
 10
0.0
 20
0.0
 30
0.0
  3
*D17
  1

  0
LINE
  5
7D3B
  8
3
 62
     0
 10
2715.7622860000001
 20
4183.432933
 30
0.0
 11
2715.7622860000001
 21
4559.0651182379979
 31
0.0
  0
LINE
  5
7D3C
  8
3
 62
     0
 10
880.76228599999979
 20
2592.932933
 30
0.0
 11
880.76228600000002
 21
4559.0651182379979
 31
0.0
  0
LINE
  5
7D3D
  8
3
 62
     0
 10
2655.7622860000001
 20
4529.0651182379988
 30
0.0
 11
940.76228600000002
 21
4529.0651182379988
 31
0.0
  0
INSERT
  5
7D3E
  8
3
 62
     0
  2
_OPEN
 10
2715.7622860000001
 20
4529.0651182379988
 30
0.0
 41
60.0
 42
60.0
 43
60.0
  0
INSERT
  5
7D3F
  8
3
 62
     0
  2
_OPEN
 10
880.76228600000002
 20
4529.0651182379988
 30
0.0
 41
60.0
 42
60.0
 43
60.0
 50
180.0
  0
TEXT
  8
3
  40
90
  5
7D54
  62
0
  72
0
  71
0
 10
1667.54
 20
4444.77
 30
0.000000
  1
1835
  0
POINT
  5
7D41
  8
DEFPOINTS
 62
     0
 10
2715.7622860000001
 20
4168.432933
 30
0.0
  0
POINT
  5
7D42
  8
DEFPOINTS
 62
     0
 10
880.76228599999979
 20
2577.932933
 30
0.0
  0
POINT
  5
7D43
  8
DEFPOINTS
 62
     0
 10
880.76228600000002
 20
4529.0651182379988
 30
0.0
  0
ENDBLK
  5
7C7A
  8
0
  0
ENDSEC
  0
SECTION
  2
ENTITIES
  0
LINE
  5
7A66
  8
1
  6
CONTINUOUS
 10
880.76228599999979
 20
5510.5275519999996
 30
0.0
 11
880.76228599999979
 21
6430.5275519999996
 31
0.0
  0
LINE
  5
7A67
  8
1
  6
CONTINUOUS
 10
1315.595014
 20
5708.5275519999996
 30
0.0
 11
1315.595014
 21
6378.5275520000014
 31
0.0
  0
LINE
  5
7A68
  8
1
  6
CONTINUOUS
 10
2715.7622860000001
 20
5666.5275520000014
 30
0.0
 11
2715.7622860000001
 21
6420.5275519999996
 31
0.0
  0
LINE
  5
7A69
  8
1
  6
CONTINUOUS
 10
2675.7622860000001
 20
5708.5275519999996
 30
0.0
 11
2675.7622860000001
 21
6378.5275520000014
 31
0.0
  0
LINE
  5
7A6A
  8
1
  6
CONTINUOUS
 10
1242.7622859999999
 20
5666.5275520000014
 30
0.0
 11
1242.7622859999999
 21
6151.5275520000014
 31
0.0
  0
LINE
  5
7A6B
  8
1
  6
CONTINUOUS
 10
918.7622859999999
 20
5666.5275520000014
 30
0.0
 11
918.7622859999999
 21
6151.5275520000014
 31
0.0
  0
POLYLINE
  5
7A6C
  8
1
  6
CONTINUOUS
 66
     1
 10
0.0
 20
0.0
 30
0.0
  0
VERTEX
  5
7CB3
  8
1
  6
CONTINUOUS
 10
2715.7622860000001
 20
4125.932933
 30
0.0
  0
VERTEX
  5
7CB4
  8
1
  6
CONTINUOUS
 10
2060.7622860000001
 20
4103.932933
 30
0.0
 42
0.4168370000000001
  0
VERTEX
  5
7CB5
  8
1
  6
CONTINUOUS
 10
1318.322326
 20
3235.7589910000002
 30
0.0
 42
0.429867
  0
VERTEX
  5
7CB6
  8
1
  6
CONTINUOUS
 10
2104.6384459999999
 20
2604.507756
 30
0.0
 42
0.373172
  0
VERTEX
  5
7CB7
  8
1
  6
CONTINUOUS
 10
2628.7310130000001
 20
3200.932933
 30
0.0
 42
0.34598
  0
SEQEND
  5
7CB8
  8
1
  6
CONTINUOUS
  0
LINE
  5
7A76
  8
1
  6
CONTINUOUS
 10
2630.7622860000001
 20
2577.932933
 30
0.0
 11
880.76228599999979
 21
2577.932933
 31
0.0
  0
LINE
  5
7A77
  8
1
  6
CONTINUOUS
 10
2630.7622860000001
 20
2477.9329329999991
 30
0.0
 11
880.76228599999979
 21
2477.9329329999991
 31
0.0
  0
CIRCLE
  5
7A78
  8
1
  6
CONTINUOUS
 10
2060.7622860000001
 20
3242.932933
 30
0.0
 40
254.0
  0
LINE
  5
7A79
  8
1
  6
CONTINUOUS
 10
1097.9756970000001
 20
2754.9349980000002
 30
0.0
 11
2119.0583710000001
 21
2995.7132609999999
 31
0.0
  0
LINE
  5
7A7A
  8
2
  6
CENTER
 10
988.21850199999994
 20
3242.932933
 30
0.0
 11
2951.0770929999999
 21
3242.932933
 31
0.0
  0
LINE
  5
7A7B
  8
1
  6
CONTINUOUS
 10
2540.7622860000001
 20
3747.9329329999991
 30
0.0
 11
1880.762285999999
 21
3747.9329329999991
 31
0.0
  0
LINE
  5
7A7C
  8
1
  6
CONTINUOUS
 10
2630.7622860000001
 20
5510.5275519999996
 30
0.0
 11
880.76228599999979
 21
5510.5275519999996
 31
0.0
  0
LINE
  5
7A7D
  8
1
  6
CONTINUOUS
 10
2715.7622860000001
 20
5708.5275519999996
 30
0.0
 11
1315.595014
 21
5708.5275519999996
 31
0.0
  0
LINE
  5
7A7E
  8
1
  6
CONTINUOUS
 10
1806.7622859999999
 20
5622.5275520000014
 30
0.0
 11
2314.7622860000001
 21
5622.5275520000014
 31
0.0
  0
LINE
  5
7A7F
  8
1
  6
CONTINUOUS
 10
1806.7622859999999
 20
5518.5275520000014
 30
0.0
 11
2314.7622860000001
 21
5518.5275520000014
 31
0.0
  0
LINE
  5
7A80
  8
1
  6
CONTINUOUS
 10
900.7622859999999
 20
5655.5275520000014
 30
0.0
 11
2540.7622860000001
 21
5655.5275520000014
 31
0.0
  0
LINE
  5
7A81
  8
1
  6
CONTINUOUS
 10
900.7622859999999
 20
5485.5275519999996
 30
0.0
 11
2540.7622860000001
 21
5485.5275519999996
 31
0.0
  0
ARC
  5
7A83
  8
1
  6
CONTINUOUS
 10
1080.762285999999
 20
2827.9329329999991
 30
0.0
 40
162.0
 50
324.972283
 51
215.02771699999991
  0
CIRCLE
  5
7A84
  8
1
  6
CONTINUOUS
 10
1080.762285999999
 20
2827.9329329999991
 30
0.0
 40
75.0
  0
LINE
  5
7A85
  8
2
  6
CENTER
 10
1080.762285999999
 20
2747.932933
 30
0.0
 11
1080.762285999999
 21
2907.932933
 31
0.0
  0
LINE
  5
7A86
  8
1
  6
CONTINUOUS
 10
900.7622859999999
 20
2577.932933
 30
0.0
 11
900.7622859999999
 21
2927.932933
 31
0.0
  0
LINE
  5
7A87
  8
1
  6
CONTINUOUS
 10
893.26228599999979
 20
2667.932933
 30
0.0
 11
948.10461999999995
 21
2734.9493659999998
 31
0.0
  0
LINE
  5
7A88
  8
1
  6
CONTINUOUS
 10
880.76228599999979
 20
2577.932933
 30
0.0
 11
880.76228599999979
 21
2477.9329329999991
 31
0.0
  0
LINE
  5
7A89
  8
1
  6
CONTINUOUS
 10
883.26228599999979
 20
2617.932933
 30
0.0
 11
883.26228599999979
 21
2577.932933
 31
0.0
  0
LINE
  5
7A8A
  8
1
  6
CONTINUOUS
 10
893.26228599999979
 20
2667.932933
 30
0.0
 11
883.26228599999979
 21
2617.932933
 31
0.0
  0
LINE
  5
7A8B
  8
1
  6
CONTINUOUS
 10
1278.2622859999999
 20
2617.932933
 30
0.0
 11
1278.2622859999999
 21
2577.932933
 31
0.0
  0
LINE
  5
7A8C
  8
1
  6
CONTINUOUS
 10
1278.2622859999999
 20
2617.932933
 30
0.0
 11
1268.262285999999
 21
2667.932933
 31
0.0
  0
LINE
  5
7A8D
  8
1
  6
CONTINUOUS
 10
1213.4199510000001
 20
2734.9493659999998
 30
0.0
 11
1268.262285999999
 21
2667.932933
 31
0.0
  0
LINE
  5
7A8E
  8
1
  6
CONTINUOUS
 10
900.7622859999999
 20
2927.932933
 30
0.0
 11
1880.762285999999
 21
3747.9329329999991
 31
0.0
  0
LINE
  5
7A8F
  8
1
  6
CONTINUOUS
 10
900.7622859999999
 20
5485.5275519999996
 30
0.0
 11
900.7622859999999
 21
5655.5275520000014
 31
0.0
  0
LINE
  5
7A90
  8
1
  6
CONTINUOUS
 10
1040.317002
 20
2891.092881
 30
0.0
 11
1923.787589999999
 21
3456.8346229999988
 31
0.0
  0
LINE
  5
7A91
  8
2
  6
CENTER
 10
1000.762286
 20
2827.9329329999991
 30
0.0
 11
1160.762285999999
 21
2827.9329329999991
 31
0.0
  0
LINE
  5
7A92
  8
2
  6
CENTER
 10
2060.7622860000001
 20
2322.4328469999991
 30
0.0
 11
2060.7622860000001
 21
4240.2420739999998
 31
0.0
  0
LINE
  5
7A93
  8
1
  6
CONTINUOUS
 10
918.7622859999999
 20
5666.5275520000014
 30
0.0
 11
1242.7622859999999
 21
5666.5275520000014
 31
0.0
  0
LINE
  5
7A94
  8
1
  6
CONTINUOUS
 10
1005.762285999999
 20
5622.5275520000014
 30
0.0
 11
1155.762285999999
 21
5622.5275520000014
 31
0.0
  0
LINE
  5
7A95
  8
1
  6
CONTINUOUS
 10
1005.762285999999
 20
5518.5275520000014
 30
0.0
 11
1155.762285999999
 21
5518.5275520000014
 31
0.0
  0
LINE
  5
7A96
  8
1
  6
CONTINUOUS
 10
1101.7622859999999
 20
5622.5275520000014
 30
0.0
 11
1101.7622859999999
 21
5666.5275520000014
 31
0.0
  0
LINE
  5
7A97
  8
1
  6
CONTINUOUS
 10
1059.762285999999
 20
5622.5275520000014
 30
0.0
 11
1059.762285999999
 21
5666.5275520000014
 31
0.0
  0
LINE
  5
7A98
  8
1
  6
CONTINUOUS
 10
1155.762285999999
 20
5518.5275520000014
 30
0.0
 11
1155.762285999999
 21
5622.5275520000014
 31
0.0
  0
LINE
  5
7A99
  8
1
  6
CONTINUOUS
 10
1005.762285999999
 20
5518.5275520000014
 30
0.0
 11
1005.762285999999
 21
5622.5275520000014
 31
0.0
  0
LINE
  5
7A9A
  8
1
  6
CONTINUOUS
 10
2035.7622859999999
 20
5622.5275520000014
 30
0.0
 11
2035.7622859999999
 21
5708.5275519999996
 31
0.0
  0
LINE
  5
7A9B
  8
1
  6
CONTINUOUS
 10
1806.7622859999999
 20
5518.5275520000014
 30
0.0
 11
1806.7622859999999
 21
5622.5275520000014
 31
0.0
  0
LINE
  5
7A9D
  8
1
  6
CONTINUOUS
 10
4412.9522850000003
 20
4125.932933
 30
0.0
 11
4412.9522850000003
 21
2577.932933
 31
0.0
  0
LINE
  5
7A9E
  8
1
  6
CONTINUOUS
 10
5082.9522850000012
 20
4125.932933
 30
0.0
 11
5082.9522850000012
 21
2577.932933
 31
0.0
  0
LINE
  5
7A9F
  8
1
  6
CONTINUOUS
 10
2540.7622860000001
 20
2577.932933
 30
0.0
 11
2540.7622860000001
 21
3747.9329329999991
 31
0.0
  0
LINE
  5
7AA0
  8
1
  6
CONTINUOUS
 10
4137.9522849999994
 20
3747.9329329999991
 30
0.0
 11
4137.9522849999994
 21
2577.932933
 31
0.0
  0
LINE
  5
7AA1
  8
1
  6
CONTINUOUS
 10
4359.9522850000012
 20
3747.9329329999991
 30
0.0
 11
4359.9522850000012
 21
2577.932933
 31
0.0
  0
LINE
  5
7AA2
  8
1
  6
CONTINUOUS
 10
4222.9522850000003
 20
2902.932933
 30
0.0
 11
4222.9522850000003
 21
2752.932933
 31
0.0
  0
LINE
  5
7AA3
  8
1
  6
CONTINUOUS
 10
4326.9522849999994
 20
2902.932933
 30
0.0
 11
4326.9522849999994
 21
2752.932933
 31
0.0
  0
LINE
  5
7AA4
  8
1
  6
CONTINUOUS
 10
2630.7622860000001
 20
2577.932933
 30
0.0
 11
2630.7622860000001
 21
2477.9329329999991
 31
0.0
  0
LINE
  5
7AA5
  8
1
  6
CONTINUOUS
 10
4214.9522850000003
 20
2477.9329329999991
 30
0.0
 11
5134.9522850000003
 21
2477.9329329999991
 31
0.0
  0
LINE
  5
7AA6
  8
1
  6
CONTINUOUS
 10
4214.9522850000003
 20
2577.932933
 30
0.0
 11
5134.9522850000003
 21
2577.932933
 31
0.0
  0
LINE
  5
7AA7
  8
1
  6
CONTINUOUS
 10
4137.9522849999994
 20
2577.932933
 30
0.0
 11
4214.9522850000003
 21
2577.932933
 31
0.0
  0
LINE
  5
7AA8
  8
1
  6
CONTINUOUS
 10
4214.9522850000003
 20
2577.932933
 30
0.0
 11
4214.9522850000003
 21
2477.9329329999991
 31
0.0
  0
LINE
  5
7AA9
  8
1
  6
CONTINUOUS
 10
4222.9522850000003
 20
2752.932933
 30
0.0
 11
4326.9522849999994
 21
2752.932933
 31
0.0
  0
LINE
  5
7AAA
  8
1
  6
CONTINUOUS
 10
5134.9522850000003
 20
2577.932933
 30
0.0
 11
5134.9522850000003
 21
2477.9329329999991
 31
0.0
  0
LINE
  5
7AAB
  8
1
  6
CONTINUOUS
 10
2628.7310130000001
 20
3200.932933
 30
0.0
 11
2715.7622860000001
 21
3200.932933
 31
0.0
  0
LINE
  5
7AAC
  8
1
  6
CONTINUOUS
 10
2715.7622860000001
 20
3158.432933
 30
0.0
 11
2715.7622860000001
 21
4168.432933
 31
0.0
  0
LINE
  5
7AAD
  8
1
  6
CONTINUOUS
 10
2675.7622860000001
 20
3200.932933
 30
0.0
 11
2675.7622860000001
 21
4124.589422
 31
0.0
  0
LINE
  5
7AAE
  8
1
  6
CONTINUOUS
 10
2085.7622860000001
 20
5622.5275520000014
 30
0.0
 11
2085.7622860000001
 21
5708.5275519999996
 31
0.0
  0
LINE
  5
7AAF
  8
1
  6
CONTINUOUS
 10
2314.7622860000001
 20
5518.5275520000014
 30
0.0
 11
2314.7622860000001
 21
5622.5275520000014
 31
0.0
  0
LINE
  5
7AB0
  8
1
  6
CONTINUOUS
 10
2630.7622860000001
 20
5510.5275519999996
 30
0.0
 11
2630.7622860000001
 21
5708.5275519999996
 31
0.0
  0
LINE
  5
7AB1
  8
1
  6
CONTINUOUS
 10
2540.7622860000001
 20
5485.5275519999996
 30
0.0
 11
2540.7622860000001
 21
5655.5275520000014
 31
0.0
  0
LINE
  5
7AB2
  8
1
  6
CONTINUOUS
 10
4412.9522850000003
 20
4125.932933
 30
0.0
 11
5082.9522850000012
 21
4125.932933
 31
0.0
  0
LINE
  5
7AB3
  8
1
  6
CONTINUOUS
 10
4412.9522850000003
 20
3200.932933
 30
0.0
 11
5082.9522850000012
 21
3200.932933
 31
0.0
  0
LINE
  5
7AB4
  8
1
  6
CONTINUOUS
 10
4412.9522850000003
 20
3200.932933
 30
0.0
 11
5082.9522850000012
 21
4125.932933
 31
0.0
  0
LINE
  5
7AB5
  8
1
  6
CONTINUOUS
 10
4412.9522850000003
 20
4125.932933
 30
0.0
 11
5082.9522850000012
 21
3200.932933
 31
0.0
  0
LINE
  5
7AB6
  8
1
  6
CONTINUOUS
 10
4222.9522850000003
 20
3496.932933
 30
0.0
 11
4222.9522850000003
 21
2988.932933
 31
0.0
  0
LINE
  5
7AB7
  8
1
  6
CONTINUOUS
 10
4326.9522849999994
 20
3496.932933
 30
0.0
 11
4326.9522849999994
 21
2988.932933
 31
0.0
  0
LINE
  5
7AB8
  8
1
  6
CONTINUOUS
 10
4326.9522849999994
 20
3267.932933
 30
0.0
 11
4412.9522850000003
 21
3267.932933
 31
0.0
  0
LINE
  5
7AB9
  8
1
  6
CONTINUOUS
 10
4326.9522849999994
 20
3217.932933
 30
0.0
 11
4412.9522850000003
 21
3217.932933
 31
0.0
  0
LINE
  5
7ABA
  8
1
  6
CONTINUOUS
 10
4326.9522849999994
 20
2848.932933
 30
0.0
 11
4412.9522850000003
 21
2848.932933
 31
0.0
  0
LINE
  5
7ABB
  8
1
  6
CONTINUOUS
 10
4326.9522849999994
 20
2806.932933
 30
0.0
 11
4412.9522850000003
 21
2806.932933
 31
0.0
  0
LINE
  5
7ABC
  8
1
  6
CONTINUOUS
 10
4222.9522850000003
 20
2988.932933
 30
0.0
 11
4326.9522849999994
 21
2988.932933
 31
0.0
  0
LINE
  5
7ABD
  8
1
  6
CONTINUOUS
 10
4222.9522850000003
 20
2902.932933
 30
0.0
 11
4326.9522849999994
 21
2902.932933
 31
0.0
  0
LINE
  5
7ABE
  8
1
  6
CONTINUOUS
 10
4137.9522849999994
 20
3747.9329329999991
 30
0.0
 11
4359.9522850000012
 21
3747.9329329999991
 31
0.0
  0
LINE
  5
7ABF
  8
1
  6
CONTINUOUS
 10
4222.9522850000003
 20
3496.932933
 30
0.0
 11
4326.9522849999994
 21
3496.932933
 31
0.0
  0
LINE
  5
7AC0
  8
1
  6
CONTINUOUS
 10
2715.7622860000001
 20
6378.5275520000014
 30
0.0
 11
1315.595014
 21
6378.5275520000014
 31
0.0
  0
LINE
  5
7AC1
  8
1
  6
CONTINUOUS
 10
2630.7622860000001
 20
6430.5275519999996
 30
0.0
 11
880.76228599999979
 21
6430.5275519999996
 31
0.0
  0
LINE
  5
7AC2
  8
1
  6
CONTINUOUS
 10
918.7622859999999
 20
6151.5275520000014
 30
0.0
 11
1242.7622859999999
 21
6151.5275520000014
 31
0.0
  0
LINE
  5
7AC3
  8
1
  6
CONTINUOUS
 10
2630.7622860000001
 20
6378.5275520000014
 30
0.0
 11
2630.7622860000001
 21
6430.5275519999996
 31
0.0
  0
LINE
  5
7AC4
  8
2
  6
CENTER
 10
805.99817400000006
 20
6043.5275519999996
 30
0.0
 11
2806.2749379999991
 21
6043.5275519999996
 31
0.0
  0
LINE
  5
7AC5
  8
2
  6
CENTER
 10
4747.9522850000003
 20
4282.023267999999
 30
0.0
 11
4747.9522850000003
 21
2299.9209329999999
 31
0.0
  0
LINE
  5
7AD1
  8
2
  6
CENTER
 10
2060.7622860000001
 20
5392.187911
 30
0.0
 11
2060.7622860000001
 21
6569.7685030000002
 31
0.0
  0
LINE
  5
7AD2
  8
2
  6
CENTER
 10
4060.0547599999991
 20
3242.932933
 30
0.0
 11
5162.4036344123779
 21
3242.932933
 31
0.0
  0
LINE
  5
7AD3
  8
4
  6
CONTINUOUS
 10
5550.0
 20
1500.0
 30
0.0
 11
5550.0
 21
900.0
 31
0.0
  0
LINE
  5
7AD4
  8
4
  6
CONTINUOUS
 10
3450.0
 20
1500.0
 30
0.0
 11
3450.0
 21
900.0
 31
0.0
  0
LINE
  5
7AD5
  8
4
  6
CONTINUOUS
 10
1950.0
 20
1500.0
 30
0.0
 11
1950.0
 21
900.0
 31
0.0
  0
LINE
  5
7AD8
  8
4
  6
CONTINUOUS
 10
1950.0
 20
900.0
 30
0.0
 11
5550.0
 21
900.0
 31
0.0
  0
LINE
  5
7AD9
  8
4
  6
CONTINUOUS
 10
1950.0
 20
1200.0
 30
0.0
 11
5550.0
 21
1200.0
 31
0.0
  0
TEXT
  5
7ADA
  8
4
  6
CONTINUOUS
 10
2065.5062429999989
 20
1294.6290779999999
 30
0.0
 40
150.0
  1
機器名称
  0
TEXT
  5
7ADB
  8
4
  6
CONTINUOUS
 10
2058.7743179999989
 20
964.9354699999999
 30
0.0
 40
150.0
  1
機器型番
  0
TEXT
  5
7ADC
  8
4
  6
CONTINUOUS
 10
3533.0362359999999
 20
1267.7153069999999
 30
0.0
 40
150.0
  1
ミツヤ多翼送風機
  0
TEXT
  5
7ADD
  8
4
  6
CONTINUOUS
 10
3559.9634869999991
 20
951.47875299999987
 30
0.0
 40
150.0
  1
MF#5 1/2-4
  0
TEXT
  5
7ADF
  8
4
  6
CONTINUOUS
 10
2714.3572960000001
 20
7150.2865239999992
 30
0.0
 40
162.0
  1
床置ベット
  0
TEXT
  5
7AE0
  8
4
  6
CONTINUOUS
 10
948.50278000000014
 20
7601.6429289999996
 30
0.0
 40
216.0
  1
ベルト駆動式片吸込両持多翼ファン
  0
LINE
  5
7AE1
  8
4
  6
CONTINUOUS
 10
750.0
 20
7408.2262629999996
 30
0.0
 11
5550.0
 21
7408.2262629999996
 31
0.0
  0
LINE
  5
7AE2
  8
4
  6
CONTINUOUS
 10
750.0
 20
8008.2262629999996
 30
0.0
 11
5550.0
 21
8008.2262629999996
 31
0.0
  0
LINE
  5
7AE3
  8
4
  6
CONTINUOUS
 10
1950.0
 20
1500.0
 30
0.0
 11
5550.0
 21
1500.0
 31
0.0
  0
LINE
  5
7AE4
  8
4
  6
CONTINUOUS
 10
750.0
 20
8008.2262629999996
 30
0.0
 11
750.0
 21
7408.2262629999996
 31
0.0
  0
TEXT
  5
7AE5
  8
4
  6
CONTINUOUS
 10
1209.4942900000001
 20
7146.9584329999998
 30
0.0
 40
162.0
  1
右回転右横向
  0
TEXT
  5
7AE6
  8
4
  6
CONTINUOUS
 10
4406.9086779999989
 20
8118.1832439999989
 30
0.0
 40
168.0
  1
No.
  0
TEXT
  5
7AE7
  8
4
  6
CONTINUOUS
 10
3933.8881879999999
 20
7150.2865239999992
 30
0.0
 40
162.0
  1
縮尺：1/30
  0
LINE
  5
7AE8
  8
4
  6
CONTINUOUS
 10
5550.0
 20
8008.2262629999996
 30
0.0
 11
5550.0
 21
7408.2262629999996
 31
0.0
  0
LINE
  5
7AEA
  8
4
  6
CONTINUOUS
 10
4321.8522670000002
 20
8043.7907490000007
 30
0.0
 11
4321.8522670000002
 21
8359.9567849999985
 31
0.0
  0
LINE
  5
7AEB
  8
4
  6
CONTINUOUS
 10
4321.8522670000002
 20
8359.9567849999985
 30
0.0
 11
5550.0
 21
8359.9567849999985
 31
0.0
  0
LINE
  5
7AEC
  8
4
  6
CONTINUOUS
 10
5550.0
 20
8359.9567849999985
 30
0.0
 11
5550.0
 21
8043.7907490000007
 31
0.0
  0
LINE
  5
7AED
  8
4
  6
CONTINUOUS
 10
5550.0
 20
8043.7907490000007
 30
0.0
 11
4321.8522670000002
 21
8043.7907490000007
 31
0.0
  0
DIMENSION
  5
7B05
  8
3
  6
CONTINUOUS
  2
*D1
 10
2951.2008180000012
 20
3200.932933
 30
0.0
 11
2951.2008179999998
 21
3668.4335470000001
 31
0.0
 70
   128
 13
2715.7622860000001
 23
4125.932933
 33
0.0
 14
2715.7622860000001
 24
3200.932933
 34
0.0
 50
90.0
1001
ACAD
1000
DSTYLE
1002
{
1070
   287
1070
     3
1070
    40
1040
30.0
1070
   143
1040
0.039
1070
   172
1070
     1
1070
   271
1070
     0
1070
   279
1070
     0
1070
   288
1070
     1
1002
}
  0
DIMENSION
  5
7B12
  8
3
  6
CONTINUOUS
  2
*D2
 10
3130.6548980000011
 20
3242.9329329999991
 30
0.0
 11
3130.6548979999998
 21
3668.4335470000001
 31
0.0
 70
   128
 13
2715.7622860000001
 23
4125.932933
 33
0.0
 14
2872.826423999999
 24
3242.932933
 34
0.0
 50
90.0
1001
ACAD
1000
DSTYLE
1002
{
1070
   287
1070
     3
1070
    40
1040
30.0
1070
   143
1040
0.039
1070
   172
1070
     1
1070
   271
1070
     0
1070
   279
1070
     0
1070
   288
1070
     1
1002
}
  0
DIMENSION
  5
7B1E
  8
3
  6
CONTINUOUS
  2
*D3
 10
3130.6548979999998
 20
2477.9329329999991
 30
0.0
 11
3055.6548979999998
 21
2860.432933
 31
0.0
 70
     0
 13
2872.826423999999
 23
3242.932933
 33
0.0
 14
2630.7622860000001
 24
2477.9329329999991
 34
0.0
 50
90.0
1001
ACAD
1000
DSTYLE
1002
{
1070
   287
1070
     4
1070
    40
1040
30.0
1070
    75
1070
     1
1070
   143
1040
0.039
1070
   172
1070
     1
1070
   271
1070
     0
1070
   279
1070
     1
1070
   288
1070
     1
1002
}
  0
DIMENSION
  5
7B2B
  8
3
  6
CONTINUOUS
  2
*D4
 10
3357.12826
 20
2477.9329329999991
 30
0.0
 11
3357.12826
 21
3258.0514400000002
 31
0.0
 70
   128
 13
2715.7622860000001
 23
4168.432933
 33
0.0
 14
2630.7622860000001
 24
2477.9329329999991
 34
0.0
 50
90.0
1001
ACAD
1000
DSTYLE
1002
{
1070
   287
1070
     3
1070
    40
1040
30.0
1070
   143
1040
0.039
1070
   172
1070
     1
1070
   271
1070
     0
1070
   279
1070
     0
1070
   288
1070
     1
1002
}
  0
DIMENSION
  5
7B38
  8
3
  6
CONTINUOUS
  2
*D5
 10
2060.7622860000001
 20
2164.536462
 30
0.0
 11
1525.220679
 21
2164.536462
 31
0.0
 70
   128
 13
880.76228599999979
 23
2477.9329329999991
 33
0.0
 14
2060.7622860000001
 24
2322.4328469999991
 34
0.0
1001
ACAD
1000
DSTYLE
1002
{
1070
   287
1070
     3
1070
    40
1040
30.0
1070
   143
1040
0.039
1070
   172
1070
     1
1070
   271
1070
     0
1070
   279
1070
     0
1070
   288
1070
     1
1002
}
  0
DIMENSION
  5
7B44
  8
3
  6
CONTINUOUS
  2
*D6
 10
2630.7622860000001
 20
2164.536462
 30
0.0
 11
2345.7622860000001
 21
2239.536462
 31
0.0
 70
     0
 13
2060.7622860000001
 23
2322.4328469999991
 33
0.0
 14
2630.7622860000001
 24
2477.9329329999991
 34
0.0
1001
ACAD
1000
DSTYLE
1002
{
1070
   287
1070
     4
1070
    40
1040
30.0
1070
    75
1070
     1
1070
   143
1040
0.039
1070
   172
1070
     1
1070
   271
1070
     0
1070
   279
1070
     1
1070
   288
1070
     1
1002
}
  0
DIMENSION
  5
7B51
  8
3
  6
CONTINUOUS
  2
*D7
 10
2060.7622860000001
 20
4333.349799999999
 30
0.0
 11
2389.9323119999999
 21
4333.349799999999
 31
0.0
 70
   128
 13
2715.7622860000001
 23
4168.432933
 33
0.0
 14
2060.7622860000001
 24
4240.2420739999998
 34
0.0
1001
ACAD
1000
DSTYLE
1002
{
1070
   287
1070
     3
1070
    40
1040
30.0
1070
   143
1040
0.039
1070
   172
1070
     1
1070
   271
1070
     0
1070
   279
1070
     0
1070
   288
1070
     1
1002
}
  0
DIMENSION
  5
7B6A
  8
3
  6
CONTINUOUS
  2
*D8
 10
4412.9522850000003
 20
4314.1480329999986
 30
0.0
 11
4744.5012139999999
 21
4314.1480329999986
 31
0.0
 70
   128
 13
5082.9522850000012
 23
4125.932933
 33
0.0
 14
4412.9522850000003
 24
4125.932933
 34
0.0
1001
ACAD
1000
DSTYLE
1002
{
1070
   287
1070
     3
1070
    40
1040
30.0
1070
   143
1040
0.039
1070
   172
1070
     1
1070
   271
1070
     0
1070
   279
1070
     0
1070
   288
1070
     1
1002
}
  0
LINE
  5
7B6B
  8
1
  6
CONTINUOUS
 10
5086.9522850000003
 20
3717.932933
 30
0.0
 11
5086.9522850000003
 21
2767.932933
 31
0.0
  0
DIMENSION
  5
7B7A
  8
3
  6
CONTINUOUS
  2
*D9
 10
5365.8125030000001
 20
2767.9329329999991
 30
0.0
 11
5365.8125030000001
 21
3258.0514400000002
 31
0.0
 70
   128
 13
5086.9522850000003
 23
3717.932933
 33
0.0
 14
5086.9522850000003
 24
2767.932933
 34
0.0
 50
90.0
1001
ACAD
1000
DSTYLE
1002
{
1070
   287
1070
     3
1070
     3
1000
φ<>
1070
    40
1040
30.0
1070
   143
1040
0.039
1070
   172
1070
     1
1070
   271
1070
     0
1070
   279
1070
     0
1070
   288
1070
     1
1002
}
  0
DIMENSION
  5
7B89
  8
3
  6
CONTINUOUS
  2
*D10
 10
4747.9522850000003
 20
4525.3673519999993
 30
0.0
 11
4917.4522850000003
 21
4609.1253556499787
 31
0.0
 70
   128
 13
5086.9522850000003
 23
3717.932933
 33
0.0
 14
4747.9522850000003
 24
4449.1158400000004
 34
0.0
1001
ACAD
1000
DSTYLE
1002
{
1070
   288
1070
     1
1070
   172
1070
     1
1070
    40
1040
30.0
1070
   271
1070
     0
1070
   143
1040
0.039
1002
}
  0
DIMENSION
  5
7B95
  8
3
  6
CONTINUOUS
  2
*D11
 10
4137.9522849999994
 20
4525.3673519999993
 30
0.0
 11
4442.9522850000003
 21
4675.3673520000002
 31
0.0
 70
     0
  1
MAX\P640
 13
4747.9522850000003
 23
4449.1158400000004
 33
0.0
 14
4137.9522849999994
 24
3747.9329329999991
 34
0.0
1001
ACAD
1000
DSTYLE
1002
{
1070
   287
1070
     4
1070
    40
1040
30.0
1070
    75
1070
     1
1070
   143
1040
0.039
1070
   172
1070
     1
1070
   271
1070
     0
1070
   279
1070
     1
1070
   288
1070
     1
1002
}
  0
DIMENSION
  5
7BA2
  8
3
  6
CONTINUOUS
  2
*D12
 10
4747.9522850000003
 20
2203.4032269999989
 30
0.0
 11
4488.2903619999988
 21
2203.4032269999989
 31
0.0
 70
   128
 13
4214.9522850000003
 23
2477.9329329999991
 33
0.0
 14
4747.9522850000003
 24
2299.9209329999999
 34
0.0
1001
ACAD
1000
DSTYLE
1002
{
1070
   287
1070
     3
1070
    40
1040
30.0
1070
   143
1040
0.039
1070
   172
1070
     1
1070
   271
1070
     0
1070
   279
1070
     0
1070
   288
1070
     1
1002
}
  0
DIMENSION
  5
7BB0
  8
3
  6
CONTINUOUS
  2
*D13
 10
5134.9522850000003
 20
2203.4032269999989
 30
0.0
 11
4963.649225000001
 21
2203.0345969999989
 31
0.0
 70
   128
 13
4747.9522850000003
 23
2299.9209329999999
 33
0.0
 14
5134.9522850000003
 24
2477.9329329999991
 34
0.0
1001
ACAD
1000
DSTYLE
1002
{
1070
   287
1070
     4
1070
    40
1040
30.0
1070
    75
1070
     1
1070
   143
1040
0.039
1070
   172
1070
     1
1070
   271
1070
     0
1070
   279
1070
     1
1070
   288
1070
     1
1002
}
  0
DIMENSION
  5
7BBD
  8
3
  6
CONTINUOUS
  2
*D14
 10
2630.7622860000001
 20
6594.6773270000012
 30
0.0
 11
1762.215721999999
 21
6594.6773270000012
 31
0.0
 70
   128
 13
880.76228599999979
 23
6430.5275519999996
 33
0.0
 14
2630.7622860000001
 24
6430.5275519999996
 34
0.0
1001
ACAD
1000
DSTYLE
1002
{
1070
   287
1070
     3
1070
    40
1040
30.0
1070
   143
1040
0.039
1070
   172
1070
     1
1070
   271
1070
     0
1070
   279
1070
     0
1070
   288
1070
     1
1002
}
  0
DIMENSION
  5
7BCA
  8
3
  6
CONTINUOUS
  2
*D15
 10
2972.8119820000011
 20
5510.5275519999996
 30
0.0
 11
2972.8119820000002
 21
5980.2211180000013
 31
0.0
 70
   128
 13
2630.7622860000001
 23
6430.5275519999996
 33
0.0
 14
2630.7622860000001
 24
5510.5275519999996
 34
0.0
 50
90.0
1001
ACAD
1000
DSTYLE
1002
{
1070
   287
1070
     3
1070
    40
1040
30.0
1070
   143
1040
0.039
1070
   172
1070
     1
1070
   271
1070
     0
1070
   279
1070
     0
1070
   288
1070
     1
1002
}
  0
DIMENSION
  5
7C0C
  8
3
  6
CONTINUOUS
  2
*D16
 10
1317.7622839999999
 20
4333.349799999999
 30
0.0
 11
1689.262285
 21
4408.349799999999
 31
0.0
 70
     0
 13
2060.7622860000001
 23
4240.2420739999998
 33
0.0
 14
1317.7622839999999
 24
3242.932933
 34
0.0
1001
ACAD
1000
DSTYLE
1002
{
1070
   287
1070
     4
1070
    40
1040
30.0
1070
    75
1070
     1
1070
   143
1040
0.039
1070
   172
1070
     1
1070
   271
1070
     0
1070
   279
1070
     1
1070
   288
1070
     1
1002
}
  0
DIMENSION
  5
7C7B
  8
3
  2
*D17
 10
880.76228600000002
 20
4529.0651182379988
 30
0.0
 11
1847.54084475425
 21
4529.0651182379988
 31
0.0
 70
   128
 13
2715.7622860000001
 23
4168.432933
 33
0.0
 14
880.76228599999979
 24
2577.932933
 34
0.0
1001
ACAD
1000
DSTYLE
1002
{
1070
   287
1070
     3
1070
    40
1040
30.0
1070
   143
1040
0.039
1070
   172
1070
     1
1070
   271
1070
     0
1070
   279
1070
     0
1070
   288
1070
     1
1002
}
  0
LINE
  5
7C9C
  8
1
  6
CONTINUOUS
 10
1500.762285999999
 20
3697.932933
 30
0.0
 11
2620.7622860000001
 21
3697.932933
 31
0.0
  0
LINE
  5
7C9D
  8
1
 10
1500.7622859999999
 20
2577.932933
 30
0.0
 11
1500.762285999999
 21
3697.932933
 31
0.0
  0
LINE
  5
7C9E
  8
1
 10
2620.7622860000001
 20
2577.9329329999991
 30
0.0
 11
2620.7622860000001
 21
3697.932933
 31
0.0
  0
ENDSEC
  0
EOF
