  0
SECTION
  2
HEADER
  9
$ACADVER
  1
AC1009
  9
$INSBASE
 10
0.0
 20
0.0
 30
0.0
  9
$EXTMIN
 10
750.0
 20
900.0
 30
0.0
  9
$EXTMAX
 10
5550.0
 20
8359.9567849999985
 30
0.0
  9
$LIMMIN
 10
0.0
 20
0.0
  9
$LIMMAX
 10
297.0
 20
210.0
  9
$ORTHOMODE
 70
     0
  9
$REGENMODE
 70
     1
  9
$FILLMODE
 70
     0
  9
$QTEXTMODE
 70
     0
  9
$MIRRTEXT
 70
     1
  9
$DRAGMODE
 70
     2
  9
$LTSCALE
 40
100.0
  9
$OSMODE
 70
    37
  9
$ATTMODE
 70
     1
  9
$TEXTSIZE
 40
180.0
  9
$TRACEWID
 40
0.05
  9
$TEXTSTYLE
  7
STANDARD
  9
$CLAYER
  8
3
  9
$CELTYPE
  6
BYLAYER
  9
$CECOLOR
 62
   256
  9
$DIMSCALE
 40
30.0
  9
$DIMASZ
 40
2.0
  9
$DIMEXO
 40
0.5
  9
$DIMDLI
 40
10.0
  9
$DIMRND
 40
0.0
  9
$DIMDLE
 40
0.0
  9
$DIMEXE
 40
1.0
  9
$DIMTP
 40
1.0
  9
$DIMTM
 40
1.0
  9
$DIMTXT
 40
3.0
  9
$DIMCEN
 40
0.0
  9
$DIMTSZ
 40
0.0
  9
$DIMTOL
 70
     0
  9
$DIMLIM
 70
     0
  9
$DIMTIH
 70
     0
  9
$DIMTOH
 70
     0
  9
$DIMSE1
 70
     0
  9
$DIMSE2
 70
     0
  9
$DIMTAD
 70
     1
  9
$DIMZIN
 70
     8
  9
$DIMBLK
  1

  9
$DIMASO
 70
     1
  9
$DIMSHO
 70
     1
  9
$DIMPOST
  1

  9
$DIMAPOST
  1

  9
$DIMALT
 70
     0
  9
$DIMALTD
 70
     2
  9
$DIMALTF
 40
0.039
  9
$DIMLFAC
 40
1.0
  9
$DIMTOFL
 70
     1
  9
$DIMTVP
 40
0.0
  9
$DIMTIX
 70
     0
  9
$DIMSOXD
 70
     0
  9
$DIMSAH
 70
     1
  9
$DIMBLK1
  1
OPEN
  9
$DIMBLK2
  1
OPEN
  9
$DIMSTYLE
  2
IGA
  9
$DIMCLRD
 70
     0
  9
$DIMCLRE
 70
     0
  9
$DIMCLRT
 70
     0
  9
$DIMTFAC
 40
10.0
  9
$DIMGAP
 40
1.0
  9
$LUNITS
 70
     2
  9
$LUPREC
 70
     3
  9
$SKETCHINC
 40
0.1
  9
$FILLETRAD
 40
50.0
  9
$AUNITS
 70
     0
  9
$AUPREC
 70
     0
  9
$MENU
  1
acad
  9
$ELEVATION
 40
0.0
  9
$PELEVATION
 40
0.0
  9
$THICKNESS
 40
0.0
  9
$LIMCHECK
 70
     0
  9
$BLIPMODE
 70
     0
  9
$CHAMFERA
 40
0.5
  9
$CHAMFERB
 40
0.5
  9
$SKPOLY
 70
     0
  9
$TDCREATE
 40
2450749.6190159721
  9
$TDUPDATE
 40
2454953.7769540269
  9
$TDINDWG
 40
0.0164390394
  9
$TDUSRTIMER
 40
0.0164390394
  9
$USRTIMER
 70
     1
  9
$ANGBASE
 50
0.0
  9
$ANGDIR
 70
     0
  9
$PDMODE
 70
     0
  9
$PDSIZE
 40
0.0
  9
$PLINEWID
 40
0.0
  9
$COORDS
 70
     1
  9
$SPLFRAME
 70
     0
  9
$SPLINETYPE
 70
     6
  9
$SPLINESEGS
 70
     8
  9
$ATTDIA
 70
     0
  9
$ATTREQ
 70
     1
  9
$HANDLING
 70
 10241
  9
$HANDSEED
  5
7DEC
  9
$SURFTAB1
 70
     6
  9
$SURFTAB2
 70
     6
  9
$SURFTYPE
 70
     6
  9
$SURFU
 70
     6
  9
$SURFV
 70
     6
  9
$UCSNAME
  2

  9
$UCSORG
 10
0.0
 20
0.0
 30
0.0
  9
$UCSXDIR
 10
1.0
 20
0.0
 30
0.0
  9
$UCSYDIR
 10
0.0
 20
1.0
 30
0.0
  9
$PUCSNAME
  2

  9
$PUCSORG
 10
0.0
 20
0.0
 30
0.0
  9
$PUCSXDIR
 10
1.0
 20
0.0
 30
0.0
  9
$PUCSYDIR
 10
0.0
 20
1.0
 30
0.0
  9
$USERI1
 70
     0
  9
$USERI2
 70
     0
  9
$USERI3
 70
     0
  9
$USERI4
 70
     0
  9
$USERI5
 70
     0
  9
$USERR1
 40
0.0
  9
$USERR2
 40
0.0
  9
$USERR3
 40
0.0
  9
$USERR4
 40
0.0
  9
$USERR5
 40
0.0
  9
$WORLDVIEW
 70
     1
  9
$SHADEDGE
 70
     3
  9
$SHADEDIF
 70
    70
  9
$TILEMODE
 70
     1
  9
$MAXACTVP
 70
    16
  9
$PLIMCHECK
 70
     0
  9
$PEXTMIN
 10
1.0000000000000000E+020
 20
1.0000000000000000E+020
 30
1.0000000000000000E+020
  9
$PEXTMAX
 10
-1.0000000000000000E+020
 20
-1.0000000000000000E+020
 30
-1.0000000000000000E+020
  9
$PLIMMIN
 10
0.0
 20
0.0
  9
$PLIMMAX
 10
12.0
 20
9.0
  9
$UNITMODE
 70
     0
  9
$VISRETAIN
 70
     0
  9
$PLINEGEN
 70
     0
  9
$PSLTSCALE
 70
     1
  0
ENDSEC
  0
SECTION
  2
TABLES
  0
TABLE
  2
VPORT
 70
     2
  0
VPORT
  2
*ACTIVE
 70
     0
 10
0.0
 20
0.0
 11
1.0
 21
1.0
 12
9438.4567678319436
 22
4630.0975558305709
 13
0.0
 23
0.0
 14
10.0
 24
10.0
 15
10.0
 25
10.0
 16
0.0
 26
0.0
 36
1.0
 17
0.0
 27
0.0
 37
0.0
 40
7517.4747125171307
 41
3.1666666666666661
 42
50.0
 43
0.0
 44
0.0
 50
0.0
 51
0.0
 71
     0
 72
   100
 73
     1
 74
     0
 75
     0
 76
     0
 77
     0
 78
     0
  0
ENDTAB
  0
TABLE
  2
LTYPE
 70
     2
  0
LTYPE
  2
CONTINUOUS
 70
     0
  3
Solid line
 72
    65
 73
     0
 40
0.0
  0
LTYPE
  2
CENTER
 70
     0
  3
____ _ ____ _ ____ _ ____ _ ____ _ ____ _ ____ 
 72
    65
 73
     4
 40
2.0
 49
1.25
 49
-0.25
 49
0.25
 49
-0.25
  0
ENDTAB
  0
TABLE
  2
LAYER
 70
     6
  0
LAYER
  2
0
 70
     0
 62
    -7
  6
CONTINUOUS
  0
LAYER
  2
3
 70
     0
 62
     2
  6
CONTINUOUS
  0
LAYER
  2
2
 70
     0
 62
     3
  6
CENTER
  0
LAYER
  2
1
 70
     0
 62
     4
  6
CONTINUOUS
  0
LAYER
  2
4
 70
     0
 62
     7
  6
CONTINUOUS
  0
LAYER
  2
DEFPOINTS
 70
     0
 62
     7
  6
CONTINUOUS
  0
ENDTAB
  0
TABLE
  2
STYLE
 70
     1
  0
STYLE
  2
STANDARD
 70
     0
 40
0.0
 41
1.0
 50
0.0
 71
     0
 42
180.0
  3
simplex.shx
  4
extfont.shx
  0
ENDTAB
  0
TABLE
  2
VIEW
 70
     0
  0
ENDTAB
  0
TABLE
  2
UCS
 70
     0
  0
ENDTAB
  0
TABLE
  2
APPID
 70
     1
  0
APPID
  2
ACAD
 70
     0
  0
ENDTAB
  0
TABLE
  2
DIMSTYLE
 70
     1
  0
DIMSTYLE
  2
IGA
 70
     0
  3

  4

  5

  6
OPEN
  7
OPEN
 40
2.0
 41
2.0
 42
0.5
 43
10.0
 44
1.0
 45
0.0
 46
0.0
 47
1.0
 48
1.0
140
3.0
141
0.0
142
0.0
143
0.03937
144
1.0
145
0.0
146
10.0
147
1.0
 71
     0
 72
     0
 73
     0
 74
     0
 75
     0
 76
     0
 77
     1
 78
     8
170
     0
171
     2
172
     0
173
     1
174
     0
175
     0
176
     0
177
     0
178
     0
  0
ENDTAB
  0
ENDSEC
  0
SECTION
  2
BLOCKS
  0
BLOCK
  8
0
  2
$MODEL_SPACE
 70
     0
 10
0.0
 20
0.0
 30
0.0
  3
$MODEL_SPACE
  1

  0
ENDBLK
  5
1B
  8
0
  0
BLOCK
 67
     1
  8
0
  2
$PAPER_SPACE
 70
     0
 10
0.0
 20
0.0
 30
0.0
  3
$PAPER_SPACE
  1

  0
ENDBLK
  5
18
 67
     1
  8
0
  0
BLOCK
  8
0
  2
_OPEN
 70
     0
 10
0.0
 20
0.0
 30
0.0
  3
_OPEN
  1

  0
LINE
  5
7B0B
  8
0
  6
BYBLOCK
 62
     0
 10
-1.0
 20
0.166667
 30
0.0
 11
0.0
 21
0.0
 31
0.0
  0
LINE
  5
7B0C
  8
0
  6
BYBLOCK
 62
     0
 10
0.0
 20
0.0
 30
0.0
 11
-1.0
 21
-0.166667
 31
0.0
  0
LINE
  5
7B0D
  8
0
  6
BYBLOCK
 62
     0
 10
0.0
 20
0.0
 30
0.0
 11
-1.0
 21
0.0
 31
0.0
  0
ENDBLK
  5
7B0E
  8
0
  0
BLOCK
  8
0
  2
*D1
 70
     1
 10
0.0
 20
0.0
 30
0.0
  3
*D1
  1

  0
LINE
  5
7D50
  8
3
  6
CONTINUOUS
 62
     0
 10
2751.8017949999999
 20
3399.8065190000002
 30
0.0
 11
2992.8712409999998
 21
3399.8065190000002
 31
0.0
  0
LINE
  5
7D51
  8
3
  6
CONTINUOUS
 62
     0
 10
2751.8017949999999
 20
2474.8065190000002
 30
0.0
 11
2992.8712409999998
 21
2474.8065190000002
 31
0.0
  0
LINE
  5
7D52
  8
3
  6
CONTINUOUS
 62
     0
 10
2962.8712410000012
 20
3339.8065189999988
 30
0.0
 11
2962.8712409999998
 21
2534.8065190000002
 31
0.0
  0
INSERT
  5
7D53
  8
3
  6
CONTINUOUS
 62
     0
  2
_OPEN
 10
2962.8712410000012
 20
3399.8065190000002
 30
0.0
 41
60.0
 42
60.0
 43
60.0
 50
90.0
  0
INSERT
  5
7D54
  8
3
  6
CONTINUOUS
 62
     0
  2
_OPEN
 10
2962.8712409999998
 20
2474.8065190000002
 30
0.0
 41
60.0
 42
60.0
 43
60.0
 50
270.0
  0
TEXT
  8
3
  40
90
  5
7DDB
  62
0
  72
0
  71
0
 10
2707.87
 20
2781.43
 30
0.000000
  1
925
  0
POINT
  5
7D56
  8
DEFPOINTS
  6
CONTINUOUS
 62
     0
 10
2736.8017949999989
 20
3399.8065190000002
 30
0.0
  0
POINT
  5
7D57
  8
DEFPOINTS
  6
CONTINUOUS
 62
     0
 10
2736.8017949999989
 20
2474.8065190000002
 30
0.0
  0
POINT
  5
7D58
  8
DEFPOINTS
  6
CONTINUOUS
 62
     0
 10
2962.8712409999998
 20
2474.8065190000002
 30
0.0
  0
ENDBLK
  5
7B1B
  8
0
  0
BLOCK
  8
0
  2
*D2
 70
     1
 10
0.0
 20
0.0
 30
0.0
  3
*D2
  1

  0
LINE
  5
7D59
  8
3
  6
CONTINUOUS
 62
     0
 10
2939.8674850000002
 20
3357.8065189999988
 30
0.0
 11
3179.1386739999998
 21
3357.8065189999988
 31
0.0
  0
LINE
  5
7D5A
  8
3
  6
CONTINUOUS
 62
     0
 10
2751.8017949999999
 20
2474.8065190000002
 30
0.0
 11
3179.1386739999998
 21
2474.8065189999988
 31
0.0
  0
LINE
  5
7D5B
  8
3
  6
CONTINUOUS
 62
     0
 10
3149.1386739999998
 20
3297.8065189999988
 30
0.0
 11
3149.1386739999998
 21
2534.8065189999988
 31
0.0
  0
INSERT
  5
7D5C
  8
3
  6
CONTINUOUS
 62
     0
  2
_OPEN
 10
3149.1386739999998
 20
3357.8065189999988
 30
0.0
 41
60.0
 42
60.0
 43
60.0
 50
90.0
  0
INSERT
  5
7D5D
  8
3
  6
CONTINUOUS
 62
     0
  2
_OPEN
 10
3149.1386739999998
 20
2474.8065189999988
 30
0.0
 41
60.0
 42
60.0
 43
60.0
 50
270.0
  0
TEXT
  8
3
  40
90
  5
7DDC
  62
0
  72
0
  71
0
 10
2894.14
 20
2781.43
 30
0.000000
  1
883
  0
POINT
  5
7D5F
  8
DEFPOINTS
  6
CONTINUOUS
 62
     0
 10
2924.8674850000002
 20
3357.8065189999988
 30
0.0
  0
POINT
  5
7D60
  8
DEFPOINTS
  6
CONTINUOUS
 62
     0
 10
2736.8017949999989
 20
2474.8065190000002
 30
0.0
  0
POINT
  5
7D61
  8
DEFPOINTS
  6
CONTINUOUS
 62
     0
 10
3149.1386739999998
 20
2474.8065189999988
 30
0.0
  0
ENDBLK
  5
7B28
  8
0
  0
BLOCK
  8
0
  2
*D3
 70
     1
 10
0.0
 20
0.0
 30
0.0
  3
*D3
  1

  0
LINE
  5
7D62
  8
3
  6
CONTINUOUS
 62
     0
 10
901.80179499999986
 20
2252.8065190000002
 30
0.0
 11
901.80179499999986
 21
1928.1882299999991
 31
0.0
  0
LINE
  5
7D63
  8
3
  6
CONTINUOUS
 62
     0
 10
2081.8017949999999
 20
2061.729327999999
 30
0.0
 11
2081.8017949999999
 21
1928.1882299999991
 31
0.0
  0
LINE
  5
7D64
  8
3
  6
CONTINUOUS
 62
     0
 10
961.80179499999997
 20
1958.18823
 30
0.0
 11
2021.8017950000001
 21
1958.18823
 31
0.0
  0
INSERT
  5
7D65
  8
3
  6
CONTINUOUS
 62
     0
  2
_OPEN
 10
901.80179499999986
 20
1958.18823
 30
0.0
 41
60.0
 42
60.0
 43
60.0
 50
180.0
  0
INSERT
  5
7D66
  8
3
  6
CONTINUOUS
 62
     0
  2
_OPEN
 10
2081.8017949999999
 20
1958.18823
 30
0.0
 41
60.0
 42
60.0
 43
60.0
  0
TEXT
  8
3
  40
90
  5
7DDD
  62
0
  72
0
  71
0
 10
1305.58
 20
1873.89
 30
0.000000
  1
1180
  0
POINT
  5
7D68
  8
DEFPOINTS
  6
CONTINUOUS
 62
     0
 10
901.80179499999986
 20
2267.8065190000002
 30
0.0
  0
POINT
  5
7D69
  8
DEFPOINTS
  6
CONTINUOUS
 62
     0
 10
2081.8017949999999
 20
2076.7293279999999
 30
0.0
  0
POINT
  5
7D6A
  8
DEFPOINTS
  6
CONTINUOUS
 62
     0
 10
2081.8017949999999
 20
1958.18823
 30
0.0
  0
ENDBLK
  5
7C15
  8
0
  0
BLOCK
  8
0
  2
*D4
 70
     1
 10
0.0
 20
0.0
 30
0.0
  3
*D4
  1

  0
LINE
  5
7D6B
  8
3
  6
CONTINUOUS
 62
     0
 10
2651.8017949999999
 20
2252.8065190000002
 30
0.0
 11
2651.8017949999999
 21
1928.1882299999991
 31
0.0
  0
LINE
  5
7D6C
  8
3
  6
CONTINUOUS
 62
     0
 10
2141.8017949999999
 20
1958.18823
 30
0.0
 11
2591.8017949999999
 21
1958.18823
 31
0.0
  0
INSERT
  5
7D6D
  8
3
  6
CONTINUOUS
 62
     0
  2
_OPEN
 10
2081.8017949999999
 20
1958.18823
 30
0.0
 41
60.0
 42
60.0
 43
60.0
 50
180.0
  0
INSERT
  5
7D6E
  8
3
  6
CONTINUOUS
 62
     0
  2
_OPEN
 10
2651.8017949999999
 20
1958.18823
 30
0.0
 41
60.0
 42
60.0
 43
60.0
  0
TEXT
  8
3
  40
90
  5
7DDE
  62
0
  72
0
  71
0
 10
2186.80
 20
1873.89
 30
0.000000
  1
570
  0
POINT
  5
7D70
  8
DEFPOINTS
  6
CONTINUOUS
 62
     0
 10
2081.8017949999999
 20
2076.7293279999999
 30
0.0
  0
POINT
  5
7D71
  8
DEFPOINTS
  6
CONTINUOUS
 62
     0
 10
2651.8017949999999
 20
2267.8065190000002
 30
0.0
  0
POINT
  5
7D72
  8
DEFPOINTS
  6
CONTINUOUS
 62
     0
 10
2651.8017949999999
 20
1958.18823
 30
0.0
  0
ENDBLK
  5
7C1F
  8
0
  0
BLOCK
  8
0
  2
*D5
 70
     1
 10
0.0
 20
0.0
 30
0.0
  3
*D5
  1

  0
LINE
  5
7D73
  8
3
  6
CONTINUOUS
 62
     0
 10
2736.8017949999989
 20
3457.3065190000002
 30
0.0
 11
2736.8017949999989
 21
4215.8792249999997
 31
0.0
  0
LINE
  5
7D74
  8
3
  6
CONTINUOUS
 62
     0
 10
2081.8017949999999
 20
4180.8445709999996
 30
0.0
 11
2081.8017949999999
 21
4215.8792249999997
 31
0.0
  0
LINE
  5
7D75
  8
3
  6
CONTINUOUS
 62
     0
 10
2676.8017949999999
 20
4185.8792249999988
 30
0.0
 11
2141.8017949999999
 21
4185.8792249999988
 31
0.0
  0
INSERT
  5
7D76
  8
3
  6
CONTINUOUS
 62
     0
  2
_OPEN
 10
2736.8017949999989
 20
4185.8792249999988
 30
0.0
 41
60.0
 42
60.0
 43
60.0
  0
INSERT
  5
7D77
  8
3
  6
CONTINUOUS
 62
     0
  2
_OPEN
 10
2081.8017949999999
 20
4185.8792249999988
 30
0.0
 41
60.0
 42
60.0
 43
60.0
 50
180.0
  0
TEXT
  8
3
  40
90
  5
7DDF
  62
0
  72
0
  71
0
 10
2204.80
 20
4101.58
 30
0.000000
  1
655
  0
POINT
  5
7D79
  8
DEFPOINTS
  6
CONTINUOUS
 62
     0
 10
2736.8017949999989
 20
3442.3065189999988
 30
0.0
  0
POINT
  5
7D7A
  8
DEFPOINTS
  6
CONTINUOUS
 62
     0
 10
2081.8017949999999
 20
4165.8445709999996
 30
0.0
  0
POINT
  5
7D7B
  8
DEFPOINTS
  6
CONTINUOUS
 62
     0
 10
2081.8017949999999
 20
4185.8792249999988
 30
0.0
  0
ENDBLK
  5
7B74
  8
0
  0
BLOCK
  8
0
  2
*D6
 70
     1
 10
0.0
 20
0.0
 30
0.0
  3
*D6
  1

  0
LINE
  5
7D7C
  8
3
  6
CONTINUOUS
 62
     0
 10
5157.7180289999997
 20
4017.6028619999988
 30
0.0
 11
5157.7180289999997
 21
4170.951008
 31
0.0
  0
LINE
  5
7D7D
  8
3
  6
CONTINUOUS
 62
     0
 10
4487.7180289999988
 20
4017.6028619999988
 30
0.0
 11
4487.7180289999988
 21
4170.951008
 31
0.0
  0
LINE
  5
7D7E
  8
3
  6
CONTINUOUS
 62
     0
 10
5097.7180289999997
 20
4140.951008
 30
0.0
 11
4547.7180289999997
 21
4140.951008
 31
0.0
  0
INSERT
  5
7D7F
  8
3
  6
CONTINUOUS
 62
     0
  2
_OPEN
 10
5157.7180289999997
 20
4140.951008
 30
0.0
 41
60.0
 42
60.0
 43
60.0
  0
INSERT
  5
7D80
  8
3
  6
CONTINUOUS
 62
     0
  2
_OPEN
 10
4487.7180289999988
 20
4140.951008
 30
0.0
 41
60.0
 42
60.0
 43
60.0
 50
180.0
  0
TEXT
  8
3
  40
90
  5
7DE0
  62
0
  72
0
  71
0
 10
4648.79
 20
4056.65
 30
0.000000
  1
670
  0
POINT
  5
7D82
  8
DEFPOINTS
  6
CONTINUOUS
 62
     0
 10
5157.7180289999997
 20
4002.6028619999988
 30
0.0
  0
POINT
  5
7D83
  8
DEFPOINTS
  6
CONTINUOUS
 62
     0
 10
4487.7180289999988
 20
4002.6028619999988
 30
0.0
  0
POINT
  5
7D84
  8
DEFPOINTS
  6
CONTINUOUS
 62
     0
 10
4487.7180289999988
 20
4140.951008
 30
0.0
  0
ENDBLK
  5
7B8D
  8
0
  0
BLOCK
  8
0
  2
*D7
 70
     1
 10
0.0
 20
0.0
 30
0.0
  3
*D7
  1

  0
LINE
  5
7D85
  8
3
  6
CONTINUOUS
 62
     0
 10
5176.7180289999988
 20
3832.8065190000002
 30
0.0
 11
5475.4036760000008
 21
3832.8065190000002
 31
0.0
  0
LINE
  5
7D86
  8
3
  6
CONTINUOUS
 62
     0
 10
5176.7180289999988
 20
2882.8065190000002
 30
0.0
 11
5475.4036760000008
 21
2882.8065190000002
 31
0.0
  0
LINE
  5
7D87
  8
3
  6
CONTINUOUS
 62
     0
 10
5445.4036760000008
 20
3772.8065189999988
 30
0.0
 11
5445.4036760000008
 21
2942.8065190000002
 31
0.0
  0
INSERT
  5
7D88
  8
3
  6
CONTINUOUS
 62
     0
  2
_OPEN
 10
5445.4036760000008
 20
3832.8065190000002
 30
0.0
 41
60.0
 42
60.0
 43
60.0
 50
90.0
  0
INSERT
  5
7D89
  8
3
  6
CONTINUOUS
 62
     0
  2
_OPEN
 10
5445.4036760000008
 20
2882.8065190000002
 30
0.0
 41
60.0
 42
60.0
 43
60.0
 50
270.0
  0
TEXT
  8
3
  40
90
  5
7DE1
  62
0
  72
0
  71
0
 10
5190.40
 20
3185.78
 30
0.000000
  1
φ950
  0
POINT
  5
7D8B
  8
DEFPOINTS
  6
CONTINUOUS
 62
     0
 10
5161.7180289999997
 20
3832.8065190000002
 30
0.0
  0
POINT
  5
7D8C
  8
DEFPOINTS
  6
CONTINUOUS
 62
     0
 10
5161.7180289999997
 20
2882.8065190000002
 30
0.0
  0
POINT
  5
7D8D
  8
DEFPOINTS
  6
CONTINUOUS
 62
     0
 10
5445.4036760000008
 20
2882.8065190000002
 30
0.0
  0
ENDBLK
  5
7CDA
  8
0
  0
BLOCK
  8
0
  2
*D8
 70
     1
 10
0.0
 20
0.0
 30
0.0
  3
*D8
  1

  0
LINE
  5
7CC6
  8
0
  6
BYBLOCK
 62
     0
 10
5161.7180289999997
 20
3847.8065189999988
 30
0.0
 11
5161.7180289999997
 21
4376.3371079999997
 31
0.0
  0
LINE
  5
7CC7
  8
0
  6
BYBLOCK
 62
     0
 10
4822.7180289999997
 20
4299.9529769999999
 30
0.0
 11
4822.7180289999997
 21
4376.3371079999997
 31
0.0
  0
LINE
  5
7CC8
  8
0
  6
BYBLOCK
 62
     0
 10
5101.7180289999997
 20
4346.3371079999988
 30
0.0
 11
4882.7180289999997
 21
4346.3371079999988
 31
0.0
  0
TEXT
  5
7CC9
  8
3
 62
     0
 10
4878.6466004285712
 20
4377.9369910187806
 30
0.0
 40
90.0
  1
339
  0
INSERT
  5
7CCA
  8
0
  6
BYBLOCK
 62
     0
  2
_OPEN
 10
5161.7180289999997
 20
4346.3371079999988
 30
0.0
 41
60.0
 42
60.0
 43
60.0
  0
INSERT
  5
7CCB
  8
0
  6
BYBLOCK
 62
     0
  2
_OPEN
 10
4822.7180289999997
 20
4346.3371079999988
 30
0.0
 41
60.0
 42
60.0
 43
60.0
 50
180.0
  0
POINT
  5
7CCC
  8
DEFPOINTS
  6
BYBLOCK
 62
     0
 10
5161.7180289999997
 20
3832.8065190000002
 30
0.0
  0
POINT
  5
7CCD
  8
DEFPOINTS
  6
BYBLOCK
 62
     0
 10
4822.7180289999997
 20
4284.952976999999
 30
0.0
  0
POINT
  5
7CCE
  8
DEFPOINTS
  6
BYBLOCK
 62
     0
 10
4822.7180289999997
 20
4346.3371079999988
 30
0.0
  0
ENDBLK
  5
7CCF
  8
0
  0
BLOCK
  8
0
  2
*D9
 70
     1
 10
0.0
 20
0.0
 30
0.0
  3
*D9
  1

  0
LINE
  5
7D8E
  8
3
  6
CONTINUOUS
 62
     0
 10
4212.7180289999997
 20
3812.8065190000002
 30
0.0
 11
4212.7180289999997
 21
4376.3371079999997
 31
0.0
  0
LINE
  5
7D8F
  8
3
  6
CONTINUOUS
 62
     0
 10
4762.7180289999997
 20
4346.3371079999988
 30
0.0
 11
4272.7180289999988
 21
4346.3371079999988
 31
0.0
  0
INSERT
  5
7D90
  8
3
  6
CONTINUOUS
 62
     0
  2
_OPEN
 10
4822.7180289999997
 20
4346.3371079999988
 30
0.0
 41
60.0
 42
60.0
 43
60.0
  0
INSERT
  5
7D91
  8
3
  6
CONTINUOUS
 62
     0
  2
_OPEN
 10
4212.7180289999997
 20
4346.3371079999988
 30
0.0
 41
60.0
 42
60.0
 43
60.0
 50
180.0
  0
TEXT
  8
3
  40
90
  5
7DE2
  62
0
  72
0
  71
0
 10
4337.72
 20
4337.04
 30
0.000000
  1
MAX
  0
TEXT
  8
3
  40
90
  5
7DE3
  62
0
  72
0
  71
0
 10
4337.72
 20
4220.04
 30
0.000000
  1
640
  0
POINT
  5
7D93
  8
DEFPOINTS
  6
CONTINUOUS
 62
     0
 10
4822.7180289999997
 20
4284.952976999999
 30
0.0
  0
POINT
  5
7D94
  8
DEFPOINTS
  6
CONTINUOUS
 62
     0
 10
4212.7180289999997
 20
3797.8065189999988
 30
0.0
  0
POINT
  5
7D95
  8
DEFPOINTS
  6
CONTINUOUS
 62
     0
 10
4212.7180289999997
 20
4346.3371079999988
 30
0.0
  0
ENDBLK
  5
7CF2
  8
0
  0
BLOCK
  8
0
  2
*D10
 70
     1
 10
0.0
 20
0.0
 30
0.0
  3
*D10
  1

  0
LINE
  5
7D96
  8
3
  6
CONTINUOUS
 62
     0
 10
4289.7180289999988
 20
2252.8065190000002
 30
0.0
 11
4289.7180289999988
 21
1970.8152659999989
 31
0.0
  0
LINE
  5
7D97
  8
3
  6
CONTINUOUS
 62
     0
 10
4822.7180289999997
 20
2103.5997689999999
 30
0.0
 11
4822.7180289999997
 21
1970.8152659999989
 31
0.0
  0
LINE
  5
7D98
  8
3
  6
CONTINUOUS
 62
     0
 10
4349.7180289999988
 20
2000.8152660000001
 30
0.0
 11
4762.7180289999997
 21
2000.8152660000001
 31
0.0
  0
INSERT
  5
7D99
  8
3
  6
CONTINUOUS
 62
     0
  2
_OPEN
 10
4289.7180289999988
 20
2000.8152660000001
 30
0.0
 41
60.0
 42
60.0
 43
60.0
 50
180.0
  0
INSERT
  5
7D9A
  8
3
  6
CONTINUOUS
 62
     0
  2
_OPEN
 10
4822.7180289999997
 20
2000.8152660000001
 30
0.0
 41
60.0
 42
60.0
 43
60.0
  0
TEXT
  8
3
  40
90
  5
7DE4
  62
0
  72
0
  71
0
 10
4353.34
 20
1916.52
 30
0.000000
  1
533
  0
POINT
  5
7D9C
  8
DEFPOINTS
  6
CONTINUOUS
 62
     0
 10
4289.7180289999988
 20
2267.8065190000002
 30
0.0
  0
POINT
  5
7D9D
  8
DEFPOINTS
  6
CONTINUOUS
 62
     0
 10
4822.7180289999997
 20
2118.5997689999999
 30
0.0
  0
POINT
  5
7D9E
  8
DEFPOINTS
  6
CONTINUOUS
 62
     0
 10
4822.7180289999997
 20
2000.8152660000001
 30
0.0
  0
ENDBLK
  5
7BC5
  8
0
  0
BLOCK
  8
0
  2
*D11
 70
     1
 10
0.0
 20
0.0
 30
0.0
  3
*D11
  1

  0
LINE
  5
7D9F
  8
3
  6
CONTINUOUS
 62
     0
 10
5209.7180289999997
 20
2252.8065190000002
 30
0.0
 11
5209.7180289999997
 21
1970.8152659999989
 31
0.0
  0
LINE
  5
7DA0
  8
3
  6
CONTINUOUS
 62
     0
 10
4882.7180289999997
 20
2000.8152660000001
 30
0.0
 11
5149.7180289999988
 21
2000.8152660000001
 31
0.0
  0
TEXT
  8
3
  40
90
  5
7DE5
  62
0
  72
0
  71
0
 10
4839.20
 20
1916.04
 30
0.000000
  1
387
  0
INSERT
  5
7DA2
  8
3
  6
CONTINUOUS
 62
     0
  2
_OPEN
 10
4822.7180289999997
 20
2000.8152660000001
 30
0.0
 41
60.0
 42
60.0
 43
60.0
 50
180.0
  0
INSERT
  5
7DA3
  8
3
  6
CONTINUOUS
 62
     0
  2
_OPEN
 10
5209.7180289999997
 20
2000.8152660000001
 30
0.0
 41
60.0
 42
60.0
 43
60.0
  0
POINT
  5
7DA4
  8
DEFPOINTS
  6
CONTINUOUS
 62
     0
 10
4822.7180289999997
 20
2118.5997689999999
 30
0.0
  0
POINT
  5
7DA5
  8
DEFPOINTS
  6
CONTINUOUS
 62
     0
 10
5209.7180289999997
 20
2267.8065190000002
 30
0.0
  0
POINT
  5
7DA6
  8
DEFPOINTS
  6
CONTINUOUS
 62
     0
 10
5209.7180289999997
 20
2000.8152660000001
 30
0.0
  0
ENDBLK
  5
7C5B
  8
0
  0
BLOCK
  8
0
  2
*D12
 70
     1
 10
0.0
 20
0.0
 30
0.0
  3
*D12
  1

  0
LINE
  5
7DA7
  8
3
  6
CONTINUOUS
 62
     0
 10
901.80179499999986
 20
6149.5739170000006
 30
0.0
 11
901.80179499999986
 21
6368.587544
 31
0.0
  0
LINE
  5
7DA8
  8
3
  6
CONTINUOUS
 62
     0
 10
2651.8017949999999
 20
6149.5739170000006
 30
0.0
 11
2651.8017949999999
 21
6368.587544
 31
0.0
  0
LINE
  5
7DA9
  8
3
  6
CONTINUOUS
 62
     0
 10
961.80179499999997
 20
6338.587544
 30
0.0
 11
2591.8017949999999
 21
6338.587544
 31
0.0
  0
INSERT
  5
7DAA
  8
3
  6
CONTINUOUS
 62
     0
  2
_OPEN
 10
901.80179499999986
 20
6338.587544
 30
0.0
 41
60.0
 42
60.0
 43
60.0
 50
180.0
  0
INSERT
  5
7DAB
  8
3
  6
CONTINUOUS
 62
     0
  2
_OPEN
 10
2651.8017949999999
 20
6338.587544
 30
0.0
 41
60.0
 42
60.0
 43
60.0
  0
TEXT
  8
3
  40
90
  5
7DE6
  62
0
  72
0
  71
0
 10
1523.96
 20
6254.29
 30
0.000000
  1
1750
  0
POINT
  5
7DAD
  8
DEFPOINTS
  6
CONTINUOUS
 62
     0
 10
901.80179499999986
 20
6134.5739169999997
 30
0.0
  0
POINT
  5
7DAE
  8
DEFPOINTS
  6
CONTINUOUS
 62
     0
 10
2651.8017949999999
 20
6134.5739169999997
 30
0.0
  0
POINT
  5
7DAF
  8
DEFPOINTS
  6
CONTINUOUS
 62
     0
 10
2651.8017949999999
 20
6338.587544
 30
0.0
  0
ENDBLK
  5
7BF7
  8
0
  0
BLOCK
  8
0
  2
*D13
 70
     1
 10
0.0
 20
0.0
 30
0.0
  3
*D13
  1

  0
LINE
  5
7DB0
  8
3
  6
CONTINUOUS
 62
     0
 10
2666.8017949999999
 20
6134.5739169999997
 30
0.0
 11
3024.9863160000009
 21
6134.5739169999997
 31
0.0
  0
LINE
  5
7DB1
  8
3
  6
CONTINUOUS
 62
     0
 10
2666.8017949999999
 20
5214.5739169999997
 30
0.0
 11
3024.9863160000009
 21
5214.5739169999997
 31
0.0
  0
LINE
  5
7DB2
  8
3
  6
CONTINUOUS
 62
     0
 10
2994.9863160000009
 20
6074.5739170000006
 30
0.0
 11
2994.9863160000009
 21
5274.5739170000006
 31
0.0
  0
INSERT
  5
7DB3
  8
3
  6
CONTINUOUS
 62
     0
  2
_OPEN
 10
2994.9863160000009
 20
6134.5739169999997
 30
0.0
 41
60.0
 42
60.0
 43
60.0
 50
90.0
  0
INSERT
  5
7DB4
  8
3
  6
CONTINUOUS
 62
     0
  2
_OPEN
 10
2994.9863160000009
 20
5214.5739169999997
 30
0.0
 41
60.0
 42
60.0
 43
60.0
 50
270.0
  0
TEXT
  8
3
  40
90
  5
7DE7
  62
0
  72
0
  71
0
 10
2739.99
 20
5466.85
 30
0.000000
  1
920
  0
POINT
  5
7DB6
  8
DEFPOINTS
  6
CONTINUOUS
 62
     0
 10
2651.8017949999999
 20
6134.5739169999997
 30
0.0
  0
POINT
  5
7DB7
  8
DEFPOINTS
  6
CONTINUOUS
 62
     0
 10
2651.8017949999999
 20
5214.5739169999997
 30
0.0
  0
POINT
  5
7DB8
  8
DEFPOINTS
  6
CONTINUOUS
 62
     0
 10
2994.9863160000009
 20
5214.5739169999997
 30
0.0
  0
ENDBLK
  5
7C04
  8
0
  0
BLOCK
  8
0
  2
*D14
 70
     1
 10
0.0
 20
0.0
 30
0.0
  3
*D14
  1

  0
LINE
  5
7DB9
  8
3
  6
CONTINUOUS
 62
     0
 10
2096.8017949999999
 20
4000.8014619917308
 30
0.0
 11
3400.281402000001
 21
4000.8014619917308
 31
0.0
  0
LINE
  5
7DBA
  8
3
  6
CONTINUOUS
 62
     0
 10
2939.8674850000002
 20
3357.8065189999988
 30
0.0
 11
3400.281402000001
 21
3357.8065189999988
 31
0.0
  0
LINE
  5
7DBB
  8
3
  6
CONTINUOUS
 62
     0
 10
3370.281402000001
 20
3940.8014619917308
 30
0.0
 11
3370.281402000001
 21
3417.8065189999988
 31
0.0
  0
INSERT
  5
7DBC
  8
3
  6
CONTINUOUS
 62
     0
  2
_OPEN
 10
3370.281402000001
 20
4000.8014619917308
 30
0.0
 41
60.0
 42
60.0
 43
60.0
 50
90.0
  0
INSERT
  5
7DBD
  8
3
  6
CONTINUOUS
 62
     0
  2
_OPEN
 10
3370.281402000001
 20
3357.8065189999988
 30
0.0
 41
60.0
 42
60.0
 43
60.0
 50
270.0
  0
TEXT
  8
3
  40
90
  5
7DE8
  62
0
  72
0
  71
0
 10
3115.28
 20
3543.15
 30
0.000000
  1
643
  0
POINT
  5
7DBF
  8
DEFPOINTS
  6
CONTINUOUS
 62
     0
 10
2081.8017949999999
 20
4000.8014619917308
 30
0.0
  0
POINT
  5
7DC0
  8
DEFPOINTS
  6
CONTINUOUS
 62
     0
 10
2924.8674850000002
 20
3357.8065189999988
 30
0.0
  0
POINT
  5
7DC1
  8
DEFPOINTS
  6
CONTINUOUS
 62
     0
 10
3370.281402000001
 20
3357.8065189999988
 30
0.0
  0
ENDBLK
  5
7CB9
  8
0
  0
BLOCK
  8
0
  2
*D15
 70
     1
 10
0.0
 20
0.0
 30
0.0
  3
*D15
  1

  0
LINE
  5
7DC2
  8
3
  6
CONTINUOUS
 62
     0
 10
1338.8017930000001
 20
3372.8065189999988
 30
0.0
 11
1338.8017930000001
 21
4215.8792249999997
 31
0.0
  0
LINE
  5
7DC3
  8
3
  6
CONTINUOUS
 62
     0
 10
2021.8017950000001
 20
4185.8792249999988
 30
0.0
 11
1398.801792999999
 21
4185.8792249999988
 31
0.0
  0
INSERT
  5
7DC4
  8
3
  6
CONTINUOUS
 62
     0
  2
_OPEN
 10
2081.8017949999999
 20
4185.8792249999988
 30
0.0
 41
60.0
 42
60.0
 43
60.0
  0
INSERT
  5
7DC5
  8
3
  6
CONTINUOUS
 62
     0
  2
_OPEN
 10
1338.8017930000001
 20
4185.8792249999988
 30
0.0
 41
60.0
 42
60.0
 43
60.0
 50
180.0
  0
TEXT
  8
3
  40
90
  5
7DE9
  62
0
  72
0
  71
0
 10
1530.30
 20
4101.58
 30
0.000000
  1
743
  0
POINT
  5
7DC7
  8
DEFPOINTS
  6
CONTINUOUS
 62
     0
 10
2081.8017949999999
 20
4165.8445709999996
 30
0.0
  0
POINT
  5
7DC8
  8
DEFPOINTS
  6
CONTINUOUS
 62
     0
 10
1338.8017930000001
 20
3357.8065189999988
 30
0.0
  0
POINT
  5
7DC9
  8
DEFPOINTS
  6
CONTINUOUS
 62
     0
 10
1338.8017930000001
 20
4185.8792249999988
 30
0.0
  0
ENDBLK
  5
7C72
  8
0
  0
BLOCK
  8
0
  2
*D16
 70
     1
 10
0.0
 20
0.0
 30
0.0
  3
*D16
  1

  0
LINE
  5
7DCA
  8
3
  6
CONTINUOUS
 62
     0
 10
2666.8017949999999
 20
2267.8065190000002
 30
0.0
 11
3400.2814020000001
 21
2267.8065190000002
 31
0.0
  0
LINE
  5
7DCB
  8
3
  6
CONTINUOUS
 62
     0
 10
3370.281402000001
 20
3297.8065189999988
 30
0.0
 11
3370.2814020000001
 21
2327.8065190000002
 31
0.0
  0
INSERT
  5
7DCC
  8
3
  6
CONTINUOUS
 62
     0
  2
_OPEN
 10
3370.281402000001
 20
3357.8065189999988
 30
0.0
 41
60.0
 42
60.0
 43
60.0
 50
90.0
  0
INSERT
  5
7DCD
  8
3
  6
CONTINUOUS
 62
     0
  2
_OPEN
 10
3370.2814020000001
 20
2267.8065190000002
 30
0.0
 41
60.0
 42
60.0
 43
60.0
 50
270.0
  0
TEXT
  8
3
  40
90
  5
7DEA
  62
0
  72
0
  71
0
 10
3115.28
 20
2653.51
 30
0.000000
  1
1090
  0
POINT
  5
7DCF
  8
DEFPOINTS
  6
CONTINUOUS
 62
     0
 10
2924.8674850000002
 20
3357.8065189999988
 30
0.0
  0
POINT
  5
7DD0
  8
DEFPOINTS
  6
CONTINUOUS
 62
     0
 10
2651.8017949999999
 20
2267.8065190000002
 30
0.0
  0
POINT
  5
7DD1
  8
DEFPOINTS
  6
CONTINUOUS
 62
     0
 10
3370.2814020000001
 20
2267.8065190000002
 30
0.0
  0
ENDBLK
  5
7C7F
  8
0
  0
BLOCK
  8
0
  2
*D17
 70
     1
 10
0.0
 20
0.0
 30
0.0
  3
*D17
  1

  0
LINE
  5
7DD2
  8
3
 62
     0
 10
2736.8017949999989
 20
3457.3065190000002
 30
0.0
 11
2736.8017949999989
 21
4399.0804753101729
 31
0.0
  0
LINE
  5
7DD3
  8
3
 62
     0
 10
901.80179499999986
 20
2382.8065190000002
 30
0.0
 11
901.80179499999986
 21
4399.0804753101729
 31
0.0
  0
LINE
  5
7DD4
  8
3
 62
     0
 10
2676.8017949999999
 20
4369.080475310172
 30
0.0
 11
961.80179499999997
 21
4369.080475310172
 31
0.0
  0
INSERT
  5
7DD5
  8
3
 62
     0
  2
_OPEN
 10
2736.8017949999989
 20
4369.080475310172
 30
0.0
 41
60.0
 42
60.0
 43
60.0
  0
INSERT
  5
7DD6
  8
3
 62
     0
  2
_OPEN
 10
901.80179499999986
 20
4369.080475310172
 30
0.0
 41
60.0
 42
60.0
 43
60.0
 50
180.0
  0
TEXT
  8
3
  40
90
  5
7DEB
  62
0
  72
0
  71
0
 10
1698.86
 20
4284.78
 30
0.000000
  1
1835
  0
POINT
  5
7DD8
  8
DEFPOINTS
 62
     0
 10
2736.8017949999989
 20
3442.3065189999988
 30
0.0
  0
POINT
  5
7DD9
  8
DEFPOINTS
 62
     0
 10
901.80179499999986
 20
2367.8065190000002
 30
0.0
  0
POINT
  5
7DDA
  8
DEFPOINTS
 62
     0
 10
901.80179499999986
 20
4369.080475310172
 30
0.0
  0
ENDBLK
  5
7CE6
  8
0
  0
ENDSEC
  0
SECTION
  2
ENTITIES
  0
LINE
  5
7A67
  8
1
  6
CONTINUOUS
 10
901.80179499999986
 20
5214.5739169999997
 30
0.0
 11
901.80179499999986
 21
6134.5739169999997
 31
0.0
  0
LINE
  5
7A68
  8
1
  6
CONTINUOUS
 10
1336.6345229999999
 20
5412.5739170000006
 30
0.0
 11
1336.6345229999999
 21
6082.5739170000006
 31
0.0
  0
LINE
  5
7A69
  8
1
  6
CONTINUOUS
 10
2736.8017949999989
 20
5370.5739170000006
 30
0.0
 11
2736.8017949999989
 21
6124.5739170000006
 31
0.0
  0
LINE
  5
7A6A
  8
1
  6
CONTINUOUS
 10
2696.8017949999999
 20
5412.5739170000006
 30
0.0
 11
2696.8017949999999
 21
6082.5739170000006
 31
0.0
  0
LINE
  5
7A6B
  8
1
  6
CONTINUOUS
 10
1263.8017950000001
 20
5370.5739170000006
 30
0.0
 11
1263.8017950000001
 21
5855.5739169999997
 31
0.0
  0
LINE
  5
7A6C
  8
1
  6
CONTINUOUS
 10
939.80179499999986
 20
5370.5739170000006
 30
0.0
 11
939.80179499999986
 21
5855.5739169999997
 31
0.0
  0
POLYLINE
  5
7A6D
  8
1
  6
CONTINUOUS
 66
     1
 10
0.0
 20
0.0
 30
0.0
  0
VERTEX
  5
7D4A
  8
1
  6
CONTINUOUS
 10
2736.8017949999989
 20
2474.8065190000002
 30
0.0
  0
VERTEX
  5
7D4B
  8
1
  6
CONTINUOUS
 10
2081.8017949999999
 20
2496.8065190000002
 30
0.0
 42
-0.4168370000000001
  0
VERTEX
  5
7D4C
  8
1
  6
CONTINUOUS
 10
1339.3618349999999
 20
3364.9804610000001
 30
0.0
 42
-0.429867
  0
VERTEX
  5
7D4D
  8
1
  6
CONTINUOUS
 10
2125.6779550000001
 20
3996.2316959999998
 30
0.0
 42
-0.373172
  0
VERTEX
  5
7D4E
  8
1
  6
CONTINUOUS
 10
2649.7705219999998
 20
3399.8065190000002
 30
0.0
 42
-0.34598
  0
SEQEND
  5
7D4F
  8
1
  6
CONTINUOUS
  0
LINE
  5
7A77
  8
1
  6
CONTINUOUS
 10
2651.8017949999989
 20
2367.8065190000011
 30
0.0
 11
901.80179499999986
 21
2367.8065190000002
 31
0.0
  0
LINE
  5
7A78
  8
1
  6
CONTINUOUS
 10
2651.8017949999999
 20
2267.8065190000002
 30
0.0
 11
901.80179499999986
 21
2267.8065190000002
 31
0.0
  0
LINE
  5
7A79
  8
1
  6
CONTINUOUS
 10
2561.8017949999999
 20
3797.8065189999988
 30
0.0
 11
1901.8017949999989
 21
3797.8065189999988
 31
0.0
  0
LINE
  5
7A7A
  8
1
  6
CONTINUOUS
 10
2651.8017949999999
 20
5214.5739169999997
 30
0.0
 11
901.80179499999986
 21
5214.5739169999997
 31
0.0
  0
LINE
  5
7A7B
  8
1
  6
CONTINUOUS
 10
2736.8017949999989
 20
5412.5739170000006
 30
0.0
 11
1336.6345229999999
 21
5412.5739170000006
 31
0.0
  0
LINE
  5
7A7C
  8
1
  6
CONTINUOUS
 10
921.80179499999997
 20
5359.5739170000006
 30
0.0
 11
2561.8017949999999
 21
5359.5739170000006
 31
0.0
  0
LINE
  5
7A7D
  8
1
  6
CONTINUOUS
 10
921.80179499999997
 20
5189.5739169999997
 30
0.0
 11
2561.8017949999999
 21
5189.5739169999997
 31
0.0
  0
ARC
  5
7A7F
  8
1
  6
CONTINUOUS
 10
1101.8017949999989
 20
2617.8065190000002
 30
0.0
 40
162.0
 50
324.972283
 51
215.02771699999991
  0
CIRCLE
  5
7A80
  8
1
  6
CONTINUOUS
 10
1101.8017949999989
 20
2617.8065190000002
 30
0.0
 40
75.0
  0
LINE
  5
7A81
  8
2
  6
CENTER
 10
1101.8017949999989
 20
2537.8065190000002
 30
0.0
 11
1101.8017949999989
 21
2697.8065190000002
 31
0.0
  0
LINE
  5
7A82
  8
1
  6
CONTINUOUS
 10
921.80179499999997
 20
2367.8065190000002
 30
0.0
 11
921.80179499999997
 21
2707.8065190000002
 31
0.0
  0
LINE
  5
7A83
  8
1
  6
CONTINUOUS
 10
1138.2619460000001
 20
2542.2652539999999
 30
0.0
 11
2205.2801739999991
 21
3135.840103
 31
0.0
  0
LINE
  5
7A84
  8
1
  6
CONTINUOUS
 10
901.80179499999986
 20
2367.8065190000002
 30
0.0
 11
901.80179499999986
 21
2267.8065190000002
 31
0.0
  0
LINE
  5
7A85
  8
1
  6
CONTINUOUS
 10
904.30179499999986
 20
2407.8065190000002
 30
0.0
 11
904.30179499999986
 21
2367.8065190000002
 31
0.0
  0
LINE
  5
7A86
  8
1
  6
CONTINUOUS
 10
914.30179499999986
 20
2457.8065190000002
 30
0.0
 11
904.30179499999986
 21
2407.8065190000002
 31
0.0
  0
LINE
  5
7A87
  8
1
  6
CONTINUOUS
 10
914.30179499999986
 20
2457.8065190000002
 30
0.0
 11
969.14412899999979
 21
2524.822952
 31
0.0
  0
LINE
  5
7A88
  8
1
  6
CONTINUOUS
 10
1299.3017949999989
 20
2407.8065190000002
 30
0.0
 11
1299.3017949999989
 21
2367.8065190000002
 31
0.0
  0
LINE
  5
7A89
  8
1
  6
CONTINUOUS
 10
1299.3017949999989
 20
2407.8065190000002
 30
0.0
 11
1289.3017950000001
 21
2457.8065190000002
 31
0.0
  0
LINE
  5
7A8A
  8
1
  6
CONTINUOUS
 10
1234.45946
 20
2524.822952
 30
0.0
 11
1289.3017950000001
 21
2457.8065190000002
 31
0.0
  0
LINE
  5
7A8B
  8
1
  6
CONTINUOUS
 10
921.80179499999997
 20
2707.8065190000002
 30
0.0
 11
1901.8017949999989
 21
3797.8065189999988
 31
0.0
  0
LINE
  5
7A8C
  8
1
  6
CONTINUOUS
 10
1048.063423999999
 20
2660.1246569999998
 30
0.0
 11
1899.8078459999999
 21
3534.9906120000001
 31
0.0
  0
LINE
  5
7A8D
  8
2
  6
CENTER
 10
1021.801795
 20
2617.8065190000002
 30
0.0
 11
1181.8017949999989
 21
2617.8065190000002
 31
0.0
  0
LINE
  5
7A8E
  8
1
  6
CONTINUOUS
 10
1026.8017949999989
 20
5326.5739170000006
 30
0.0
 11
1176.8017950000001
 21
5326.5739170000006
 31
0.0
  0
LINE
  5
7A8F
  8
1
  6
CONTINUOUS
 10
1026.8017949999989
 20
5222.5739169999997
 30
0.0
 11
1176.8017950000001
 21
5222.5739169999997
 31
0.0
  0
LINE
  5
7A90
  8
1
  6
CONTINUOUS
 10
939.80179499999986
 20
5370.5739170000006
 30
0.0
 11
1263.8017950000001
 21
5370.5739170000006
 31
0.0
  0
LINE
  5
7A91
  8
1
  6
CONTINUOUS
 10
1026.8017949999989
 20
5222.5739169999997
 30
0.0
 11
1026.8017949999989
 21
5326.5739170000006
 31
0.0
  0
LINE
  5
7A92
  8
1
  6
CONTINUOUS
 10
921.80179499999997
 20
5189.5739169999997
 30
0.0
 11
921.80179499999997
 21
5359.5739170000006
 31
0.0
  0
LINE
  5
7A93
  8
1
  6
CONTINUOUS
 10
1122.8017949999989
 20
5326.5739170000006
 30
0.0
 11
1122.8017949999989
 21
5370.5739170000006
 31
0.0
  0
LINE
  5
7A94
  8
1
  6
CONTINUOUS
 10
1080.8017949999989
 20
5326.5739170000006
 30
0.0
 11
1080.8017949999989
 21
5370.5739170000006
 31
0.0
  0
LINE
  5
7A95
  8
1
  6
CONTINUOUS
 10
1176.8017950000001
 20
5222.5739169999997
 30
0.0
 11
1176.8017950000001
 21
5326.5739170000006
 31
0.0
  0
CIRCLE
  5
7A96
  8
1
  6
CONTINUOUS
 10
2081.8017949999999
 20
3357.8065189999988
 30
0.0
 40
254.0
  0
LINE
  5
7A97
  8
2
  6
CENTER
 10
1081.651496
 20
3357.8065189999988
 30
0.0
 11
2924.8674850000002
 21
3357.8065189999988
 31
0.0
  0
LINE
  5
7A98
  8
2
  6
CENTER
 10
2081.8017949999999
 20
2076.7293279999999
 30
0.0
 11
2081.8017949999999
 21
4165.8445709999996
 31
0.0
  0
LINE
  5
7A99
  8
1
  6
CONTINUOUS
 10
1827.8017950000001
 20
5326.5739170000006
 30
0.0
 11
2335.8017949999999
 21
5326.5739170000006
 31
0.0
  0
LINE
  5
7A9A
  8
1
  6
CONTINUOUS
 10
1827.8017950000001
 20
5222.5739169999997
 30
0.0
 11
2335.8017949999999
 21
5222.5739169999997
 31
0.0
  0
LINE
  5
7A9B
  8
1
  6
CONTINUOUS
 10
1827.8017950000001
 20
5222.5739169999997
 30
0.0
 11
1827.8017950000001
 21
5326.5739170000006
 31
0.0
  0
LINE
  5
7A9C
  8
1
  6
CONTINUOUS
 10
2106.8017949999989
 20
5326.5739170000006
 30
0.0
 11
2106.8017949999989
 21
5412.5739170000006
 31
0.0
  0
LINE
  5
7A9D
  8
1
  6
CONTINUOUS
 10
2056.8017949999989
 20
5326.5739170000006
 30
0.0
 11
2056.8017949999989
 21
5412.5739170000006
 31
0.0
  0
LINE
  5
7A9E
  8
1
  6
CONTINUOUS
 10
2335.8017949999999
 20
5222.5739169999997
 30
0.0
 11
2335.8017949999999
 21
5326.5739170000006
 31
0.0
  0
LINE
  5
7A9F
  8
1
  6
CONTINUOUS
 10
2736.8017949999989
 20
3442.3065189999988
 30
0.0
 11
2736.8017949999989
 21
2432.3065190000002
 31
0.0
  0
LINE
  5
7AA0
  8
1
  6
CONTINUOUS
 10
2696.8017949999999
 20
3399.8065190000002
 30
0.0
 11
2696.8017949999999
 21
2476.1500299999998
 31
0.0
  0
LINE
  5
7AA2
  8
1
  6
CONTINUOUS
 10
4487.7180289999988
 20
4002.6028619999988
 30
0.0
 11
4487.7180289999988
 21
2367.8065190000002
 31
0.0
  0
LINE
  5
7AA3
  8
1
  6
CONTINUOUS
 10
5157.7180289999997
 20
4002.6028619999988
 30
0.0
 11
5157.7180289999997
 21
2367.8065190000002
 31
0.0
  0
LINE
  5
7AA4
  8
1
  6
CONTINUOUS
 10
4487.7180289999988
 20
2474.8065190000002
 30
0.0
 11
5157.7180289999997
 21
3399.8065190000002
 31
0.0
  0
LINE
  5
7AA5
  8
1
  6
CONTINUOUS
 10
4487.7180289999988
 20
3399.8065190000002
 30
0.0
 11
5157.7180289999997
 21
2474.8065190000002
 31
0.0
  0
LINE
  5
7AA6
  8
1
  6
CONTINUOUS
 10
2561.8017949999999
 20
2367.8065190000002
 30
0.0
 11
2561.8017949999999
 21
3797.8065189999988
 31
0.0
  0
LINE
  5
7AA7
  8
1
  6
CONTINUOUS
 10
4212.7180289999997
 20
3797.8065189999988
 30
0.0
 11
4212.7180289999997
 21
2367.8065190000002
 31
0.0
  0
LINE
  5
7AA8
  8
1
  6
CONTINUOUS
 10
4434.7180289999988
 20
3797.8065189999988
 30
0.0
 11
4434.7180289999988
 21
2367.8065190000002
 31
0.0
  0
LINE
  5
7AA9
  8
1
  6
CONTINUOUS
 10
4297.7180289999997
 20
2692.8065190000002
 30
0.0
 11
4297.7180289999997
 21
2542.8065190000002
 31
0.0
  0
LINE
  5
7AAA
  8
1
  6
CONTINUOUS
 10
4401.7180289999997
 20
2692.8065190000002
 30
0.0
 11
4401.7180289999997
 21
2542.8065190000002
 31
0.0
  0
LINE
  5
7AAB
  8
1
  6
CONTINUOUS
 10
4289.7180289999988
 20
2267.8065190000002
 30
0.0
 11
5209.7180289999997
 21
2267.8065190000002
 31
0.0
  0
LINE
  5
7AAC
  8
1
  6
CONTINUOUS
 10
4289.7180289999988
 20
2367.8065190000002
 30
0.0
 11
5209.7180289999997
 21
2367.8065190000002
 31
0.0
  0
LINE
  5
7AAD
  8
1
  6
CONTINUOUS
 10
4487.7180289999988
 20
2474.8065190000002
 30
0.0
 11
5157.7180289999997
 21
2474.8065190000002
 31
0.0
  0
LINE
  5
7AAE
  8
1
  6
CONTINUOUS
 10
2651.8017949999999
 20
2367.8065190000002
 30
0.0
 11
2651.8017949999999
 21
2267.8065190000002
 31
0.0
  0
LINE
  5
7AAF
  8
1
  6
CONTINUOUS
 10
4212.7180289999997
 20
2367.8065190000002
 30
0.0
 11
4289.7180289999988
 21
2367.8065190000002
 31
0.0
  0
LINE
  5
7AB0
  8
1
  6
CONTINUOUS
 10
4289.7180289999988
 20
2367.8065190000002
 30
0.0
 11
4289.7180289999988
 21
2267.8065190000002
 31
0.0
  0
LINE
  5
7AB1
  8
1
  6
CONTINUOUS
 10
4297.7180289999997
 20
2542.8065190000002
 30
0.0
 11
4401.7180289999997
 21
2542.8065190000002
 31
0.0
  0
LINE
  5
7AB2
  8
1
  6
CONTINUOUS
 10
5209.7180289999997
 20
2367.8065190000002
 30
0.0
 11
5209.7180289999997
 21
2267.8065190000002
 31
0.0
  0
LINE
  5
7AB3
  8
1
  6
CONTINUOUS
 10
4487.7180289999988
 20
4002.6028619999988
 30
0.0
 11
5157.7180289999997
 21
4002.6028619999988
 31
0.0
  0
LINE
  5
7AB4
  8
1
  6
CONTINUOUS
 10
4487.7180289999988
 20
3399.8065190000002
 30
0.0
 11
5157.7180289999997
 21
3399.8065190000002
 31
0.0
  0
LINE
  5
7AB5
  8
1
  6
CONTINUOUS
 10
2649.7705219999998
 20
3399.8065190000002
 30
0.0
 11
2736.8017949999989
 21
3399.8065190000002
 31
0.0
  0
LINE
  5
7AB6
  8
1
  6
CONTINUOUS
 10
4297.7180289999997
 20
3611.8065189999988
 30
0.0
 11
4297.7180289999997
 21
3103.8065190000002
 31
0.0
  0
LINE
  5
7AB7
  8
1
  6
CONTINUOUS
 10
4401.7180289999997
 20
3611.8065189999988
 30
0.0
 11
4401.7180289999997
 21
3103.8065190000002
 31
0.0
  0
LINE
  5
7AB8
  8
1
  6
CONTINUOUS
 10
4297.7180289999997
 20
3103.8065190000002
 30
0.0
 11
4401.7180289999997
 21
3103.8065190000002
 31
0.0
  0
LINE
  5
7AB9
  8
1
  6
CONTINUOUS
 10
4297.7180289999997
 20
2692.8065190000002
 30
0.0
 11
4401.7180289999997
 21
2692.8065190000002
 31
0.0
  0
LINE
  5
7ABA
  8
1
  6
CONTINUOUS
 10
4401.7180289999997
 20
2638.8065190000002
 30
0.0
 11
4487.7180289999988
 21
2638.8065190000002
 31
0.0
  0
LINE
  5
7ABB
  8
1
  6
CONTINUOUS
 10
4401.7180289999997
 20
2596.8065190000002
 30
0.0
 11
4487.7180289999988
 21
2596.8065190000002
 31
0.0
  0
LINE
  5
7ABC
  8
1
  6
CONTINUOUS
 10
4212.7180289999997
 20
3797.8065189999988
 30
0.0
 11
4434.7180289999988
 21
3797.8065189999988
 31
0.0
  0
LINE
  5
7ABD
  8
1
  6
CONTINUOUS
 10
4297.7180289999997
 20
3611.8065189999988
 30
0.0
 11
4401.7180289999997
 21
3611.8065189999988
 31
0.0
  0
LINE
  5
7ABE
  8
1
  6
CONTINUOUS
 10
4401.7180289999997
 20
3382.8065189999988
 30
0.0
 11
4487.7180289999988
 21
3382.8065189999988
 31
0.0
  0
LINE
  5
7ABF
  8
1
  6
CONTINUOUS
 10
4401.7180289999997
 20
3332.8065190000002
 30
0.0
 11
4487.7180289999988
 21
3332.8065190000002
 31
0.0
  0
LINE
  5
7AC0
  8
1
  6
CONTINUOUS
 10
2651.8017949999999
 20
5214.5739169999997
 30
0.0
 11
2651.8017949999999
 21
5412.5739170000006
 31
0.0
  0
LINE
  5
7AC1
  8
1
  6
CONTINUOUS
 10
2561.8017949999999
 20
5189.5739169999997
 30
0.0
 11
2561.8017949999999
 21
5359.5739170000006
 31
0.0
  0
LINE
  5
7AC2
  8
1
  6
CONTINUOUS
 10
2736.8017949999989
 20
6082.5739170000006
 30
0.0
 11
1336.6345229999999
 21
6082.5739170000006
 31
0.0
  0
LINE
  5
7AC3
  8
1
  6
CONTINUOUS
 10
2651.8017949999999
 20
6134.5739169999997
 30
0.0
 11
901.80179499999986
 21
6134.5739169999997
 31
0.0
  0
LINE
  5
7AC4
  8
1
  6
CONTINUOUS
 10
939.80179499999986
 20
5855.5739169999997
 30
0.0
 11
1263.8017950000001
 21
5855.5739169999997
 31
0.0
  0
LINE
  5
7AC5
  8
1
  6
CONTINUOUS
 10
2651.8017949999999
 20
6082.5739170000006
 30
0.0
 11
2651.8017949999999
 21
6134.5739169999997
 31
0.0
  0
LINE
  5
7AC6
  8
2
  6
CENTER
 10
776.65429200000005
 20
5747.5739169999997
 30
0.0
 11
2802.2958950000002
 21
5747.5739169999997
 31
0.0
  0
LINE
  5
7AC7
  8
2
  6
CENTER
 10
4822.7180289999997
 20
4152.4570030000014
 30
0.0
 11
4822.7180289999997
 21
2108.5997689999999
 31
0.0
  0
LINE
  5
7AC8
  8
2
  6
CENTER
 10
2081.8017949999999
 20
5027.7762219999986
 30
0.0
 11
2081.8017949999999
 21
6229.4761650000009
 31
0.0
  0
LINE
  5
7AC9
  8
2
  6
CENTER
 10
4162.4345539999986
 20
3357.8065189999988
 30
0.0
 11
5265.5592649999999
 21
3357.8065189999988
 31
0.0
  0
LINE
  5
7AE9
  8
4
  6
CONTINUOUS
 10
5550.0
 20
1500.0
 30
0.0
 11
5550.0
 21
900.0
 31
0.0
  0
LINE
  5
7AEA
  8
4
  6
CONTINUOUS
 10
3450.0
 20
1500.0
 30
0.0
 11
3450.0
 21
900.0
 31
0.0
  0
LINE
  5
7AEB
  8
4
  6
CONTINUOUS
 10
1950.0
 20
1500.0
 30
0.0
 11
1950.0
 21
900.0
 31
0.0
  0
LINE
  5
7AEE
  8
4
  6
CONTINUOUS
 10
1950.0
 20
900.0
 30
0.0
 11
5550.0
 21
900.0
 31
0.0
  0
LINE
  5
7AEF
  8
4
  6
CONTINUOUS
 10
1950.0
 20
1200.0
 30
0.0
 11
5550.0
 21
1200.0
 31
0.0
  0
TEXT
  5
7AF0
  8
4
  6
CONTINUOUS
 10
2065.5062429999989
 20
1294.6290779999999
 30
0.0
 40
150.0
  1
機器名称
  0
TEXT
  5
7AF1
  8
4
  6
CONTINUOUS
 10
2058.7743179999989
 20
964.9354699999999
 30
0.0
 40
150.0
  1
機器型番
  0
TEXT
  5
7AF2
  8
4
  6
CONTINUOUS
 10
3533.0362359999999
 20
1267.7153069999999
 30
0.0
 40
150.0
  1
ミツヤ多翼送風機
  0
TEXT
  5
7AF3
  8
4
  6
CONTINUOUS
 10
3559.9634869999991
 20
951.47875299999987
 30
0.0
 40
150.0
  1
MF#5 1/2-4
  0
TEXT
  5
7AF5
  8
4
  6
CONTINUOUS
 10
2714.3572960000001
 20
7150.2865239999992
 30
0.0
 40
162.0
  1
床置ベット
  0
TEXT
  5
7AF6
  8
4
  6
CONTINUOUS
 10
948.50278000000014
 20
7601.6429289999996
 30
0.0
 40
216.0
  1
ベルト駆動式片吸込両持多翼ファン
  0
LINE
  5
7AF7
  8
4
  6
CONTINUOUS
 10
750.0
 20
7408.2262629999996
 30
0.0
 11
5550.0
 21
7408.2262629999996
 31
0.0
  0
LINE
  5
7AF8
  8
4
  6
CONTINUOUS
 10
750.0
 20
8008.2262629999996
 30
0.0
 11
5550.0
 21
8008.2262629999996
 31
0.0
  0
LINE
  5
7AF9
  8
4
  6
CONTINUOUS
 10
1950.0
 20
1500.0
 30
0.0
 11
5550.0
 21
1500.0
 31
0.0
  0
LINE
  5
7AFA
  8
4
  6
CONTINUOUS
 10
750.0
 20
8008.2262629999996
 30
0.0
 11
750.0
 21
7408.2262629999996
 31
0.0
  0
TEXT
  5
7AFB
  8
4
  6
CONTINUOUS
 10
1270.1978059999999
 20
7146.9584329999998
 30
0.0
 40
162.0
  1
左回転右横向
  0
TEXT
  5
7AFC
  8
4
  6
CONTINUOUS
 10
4406.9086779999989
 20
8118.1832439999989
 30
0.0
 40
168.0
  1
No.
  0
TEXT
  5
7AFD
  8
4
  6
CONTINUOUS
 10
3933.8881879999999
 20
7150.2865239999992
 30
0.0
 40
162.0
  1
縮尺：1/30
  0
LINE
  5
7AFE
  8
4
  6
CONTINUOUS
 10
5550.0
 20
8008.2262629999996
 30
0.0
 11
5550.0
 21
7408.2262629999996
 31
0.0
  0
LINE
  5
7B00
  8
4
  6
CONTINUOUS
 10
4321.8522670000002
 20
8043.7907490000007
 30
0.0
 11
4321.8522670000002
 21
8359.9567849999985
 31
0.0
  0
LINE
  5
7B01
  8
4
  6
CONTINUOUS
 10
4321.8522670000002
 20
8359.9567849999985
 30
0.0
 11
5550.0
 21
8359.9567849999985
 31
0.0
  0
LINE
  5
7B02
  8
4
  6
CONTINUOUS
 10
5550.0
 20
8359.9567849999985
 30
0.0
 11
5550.0
 21
8043.7907490000007
 31
0.0
  0
LINE
  5
7B03
  8
4
  6
CONTINUOUS
 10
5550.0
 20
8043.7907490000007
 30
0.0
 11
4321.8522670000002
 21
8043.7907490000007
 31
0.0
  0
DIMENSION
  5
7B1C
  8
3
  6
CONTINUOUS
  2
*D1
 10
2962.8712409999998
 20
2474.8065190000002
 30
0.0
 11
2962.8712409999998
 21
2940.725989
 31
0.0
 70
   128
 13
2736.8017949999989
 23
3399.8065190000002
 33
0.0
 14
2736.8017949999989
 24
2474.8065190000002
 34
0.0
 50
90.0
1001
ACAD
1000
DSTYLE
1002
{
1070
   287
1070
     3
1070
    40
1040
30.0
1070
   143
1040
0.039
1070
   172
1070
     1
1070
   271
1070
     0
1070
   279
1070
     0
1070
   288
1070
     1
1002
}
  0
DIMENSION
  5
7B29
  8
3
  6
CONTINUOUS
  2
*D2
 10
3149.1386739999998
 20
2474.8065189999988
 30
0.0
 11
3149.1386739999998
 21
2940.725989
 31
0.0
 70
   128
 13
2924.8674850000002
 23
3357.8065189999988
 33
0.0
 14
2736.8017949999989
 24
2474.8065190000002
 34
0.0
 50
90.0
1001
ACAD
1000
DSTYLE
1002
{
1070
   287
1070
     3
1070
    40
1040
30.0
1070
   143
1040
0.039
1070
   172
1070
     1
1070
   271
1070
     0
1070
   279
1070
     0
1070
   288
1070
     1
1002
}
  0
DIMENSION
  5
7B5C
  8
3
  6
CONTINUOUS
  2
*D3
 10
2081.8017949999999
 20
1958.18823
 30
0.0
 11
1485.577957
 21
1958.18823
 31
0.0
 70
   128
 13
901.80179499999986
 23
2267.8065190000002
 33
0.0
 14
2081.8017949999999
 24
2076.7293279999999
 34
0.0
1001
ACAD
1000
DSTYLE
1002
{
1070
   287
1070
     3
1070
    40
1040
30.0
1070
   143
1040
0.039
1070
   172
1070
     1
1070
   271
1070
     0
1070
   279
1070
     0
1070
   288
1070
     1
1002
}
  0
DIMENSION
  5
7B68
  8
3
  6
CONTINUOUS
  2
*D4
 10
2651.8017949999999
 20
1958.18823
 30
0.0
 11
2366.8017949999999
 21
2033.1882299999991
 31
0.0
 70
     0
 13
2081.8017949999999
 23
2076.7293279999999
 33
0.0
 14
2651.8017949999999
 24
2267.8065190000002
 34
0.0
1001
ACAD
1000
DSTYLE
1002
{
1070
   287
1070
     4
1070
    40
1040
30.0
1070
    75
1070
     1
1070
   143
1040
0.039
1070
   172
1070
     1
1070
   271
1070
     0
1070
   279
1070
     1
1070
   288
1070
     1
1002
}
  0
DIMENSION
  5
7B75
  8
3
  6
CONTINUOUS
  2
*D5
 10
2081.8017949999999
 20
4185.8792249999988
 30
0.0
 11
2384.799978
 21
4185.8792249999988
 31
0.0
 70
   128
 13
2736.8017949999989
 23
3442.3065189999988
 33
0.0
 14
2081.8017949999999
 24
4165.8445709999996
 34
0.0
1001
ACAD
1000
DSTYLE
1002
{
1070
   287
1070
     3
1070
    40
1040
30.0
1070
   143
1040
0.039
1070
   172
1070
     1
1070
   271
1070
     0
1070
   279
1070
     0
1070
   288
1070
     1
1002
}
  0
DIMENSION
  5
7B8E
  8
3
  6
CONTINUOUS
  2
*D6
 10
4487.7180289999988
 20
4140.951008
 30
0.0
 11
4828.7942819999998
 21
4140.951008
 31
0.0
 70
   128
 13
5157.7180289999997
 23
4002.6028619999988
 33
0.0
 14
4487.7180289999988
 24
4002.6028619999988
 34
0.0
1001
ACAD
1000
DSTYLE
1002
{
1070
   287
1070
     3
1070
    40
1040
30.0
1070
   143
1040
0.039
1070
   172
1070
     1
1070
   271
1070
     0
1070
   279
1070
     0
1070
   288
1070
     1
1002
}
  0
LINE
  5
7B8F
  8
1
  6
CONTINUOUS
 10
5161.7180289999997
 20
3832.8065190000002
 30
0.0
 11
5161.7180289999997
 21
2882.8065190000002
 31
0.0
  0
DIMENSION
  5
7B9E
  8
3
  6
CONTINUOUS
  2
*D7
 10
5445.4036760000008
 20
2882.8065190000002
 30
0.0
 11
5445.4036759999999
 21
3345.0798599999998
 31
0.0
 70
   128
 13
5161.7180289999997
 23
3832.8065190000002
 33
0.0
 14
5161.7180289999997
 24
2882.8065190000002
 34
0.0
 50
90.0
1001
ACAD
1000
DSTYLE
1002
{
1070
   287
1070
     3
1070
     3
1000
φ<>
1070
    40
1040
30.0
1070
   143
1040
0.039
1070
   172
1070
     1
1070
   271
1070
     0
1070
   279
1070
     0
1070
   288
1070
     1
1002
}
  0
DIMENSION
  5
7BAD
  8
3
  6
CONTINUOUS
  2
*D8
 10
4822.7180289999997
 20
4346.3371079999988
 30
0.0
 11
4992.2180289999997
 21
4422.9369910187806
 31
0.0
 70
   128
 13
5161.7180289999997
 23
3832.8065190000002
 33
0.0
 14
4822.7180289999997
 24
4284.952976999999
 34
0.0
1001
ACAD
1000
DSTYLE
1002
{
1070
   288
1070
     1
1070
   172
1070
     1
1070
    40
1040
30.0
1070
   271
1070
     0
1070
   143
1040
0.039
1002
}
  0
DIMENSION
  5
7BB9
  8
3
  6
CONTINUOUS
  2
*D9
 10
4212.7180289999997
 20
4346.3371079999988
 30
0.0
 11
4517.7180289999997
 21
4496.3371079999988
 31
0.0
 70
     0
  1
MAX\P640
 13
4822.7180289999997
 23
4284.952976999999
 33
0.0
 14
4212.7180289999997
 24
3797.8065189999988
 34
0.0
1001
ACAD
1000
DSTYLE
1002
{
1070
   287
1070
     4
1070
    40
1040
30.0
1070
    75
1070
     1
1070
   143
1040
0.039
1070
   172
1070
     1
1070
   271
1070
     0
1070
   279
1070
     1
1070
   288
1070
     1
1002
}
  0
DIMENSION
  5
7BC6
  8
3
  6
CONTINUOUS
  2
*D10
 10
4822.7180289999997
 20
2000.8152660000001
 30
0.0
 11
4533.3356450000001
 21
2000.8152660000001
 31
0.0
 70
   128
 13
4289.7180289999988
 23
2267.8065190000002
 33
0.0
 14
4822.7180289999997
 24
2118.5997689999999
 34
0.0
1001
ACAD
1000
DSTYLE
1002
{
1070
   287
1070
     3
1070
    40
1040
30.0
1070
   143
1040
0.039
1070
   172
1070
     1
1070
   271
1070
     0
1070
   279
1070
     0
1070
   288
1070
     1
1002
}
  0
DIMENSION
  5
7BD4
  8
3
  6
CONTINUOUS
  2
*D11
 10
5209.7180289999997
 20
2000.8152660000001
 30
0.0
 11
5019.201857
 21
2000.3368059999989
 31
0.0
 70
   128
 13
4822.7180289999997
 23
2118.5997689999999
 33
0.0
 14
5209.7180289999997
 24
2267.8065190000002
 34
0.0
1001
ACAD
1000
DSTYLE
1002
{
1070
   287
1070
     4
1070
    40
1040
30.0
1070
    75
1070
     1
1070
   143
1040
0.039
1070
   172
1070
     1
1070
   271
1070
     0
1070
   279
1070
     1
1070
   288
1070
     1
1002
}
  0
DIMENSION
  5
7BF8
  8
3
  6
CONTINUOUS
  2
*D12
 10
2651.8017949999999
 20
6338.587544
 30
0.0
 11
1703.960464999999
 21
6338.587544
 31
0.0
 70
   128
 13
901.80179499999986
 23
6134.5739169999997
 33
0.0
 14
2651.8017949999999
 24
6134.5739169999997
 34
0.0
1001
ACAD
1000
DSTYLE
1002
{
1070
   287
1070
     3
1070
    40
1040
30.0
1070
   143
1040
0.039
1070
   172
1070
     1
1070
   271
1070
     0
1070
   279
1070
     0
1070
   288
1070
     1
1002
}
  0
DIMENSION
  5
7C05
  8
3
  6
CONTINUOUS
  2
*D13
 10
2994.9863160000009
 20
5214.5739169999997
 30
0.0
 11
2994.986316
 21
5626.1545020000012
 31
0.0
 70
   128
 13
2651.8017949999999
 23
6134.5739169999997
 33
0.0
 14
2651.8017949999999
 24
5214.5739169999997
 34
0.0
 50
90.0
1001
ACAD
1000
DSTYLE
1002
{
1070
   287
1070
     3
1070
    40
1040
30.0
1070
   143
1040
0.039
1070
   172
1070
     1
1070
   271
1070
     0
1070
   279
1070
     0
1070
   288
1070
     1
1002
}
  0
DIMENSION
  5
7C2C
  8
3
  6
CONTINUOUS
  2
*D14
 10
3370.281402000001
 20
3357.8065189999988
 30
0.0
 11
3370.2814020000001
 21
3702.447189
 31
0.0
 70
   128
 13
2081.8017949999999
 23
4000.8014619917308
 33
0.0
 14
2924.8674850000002
 24
3357.8065189999988
 34
0.0
 50
90.0
1001
ACAD
1000
DSTYLE
1002
{
1070
   287
1070
     3
1070
    40
1040
30.0
1070
   143
1040
0.039
1070
   172
1070
     1
1070
   271
1070
     0
1070
   279
1070
     0
1070
   288
1070
     1
1002
}
  0
DIMENSION
  5
7C73
  8
3
  6
CONTINUOUS
  2
*D15
 10
1338.8017930000001
 20
4185.8792249999988
 30
0.0
 11
1710.301794
 21
4260.8792249999997
 31
0.0
 70
     0
 13
2081.8017949999999
 23
4165.8445709999996
 33
0.0
 14
1338.8017930000001
 24
3357.8065189999988
 34
0.0
1001
ACAD
1000
DSTYLE
1002
{
1070
   287
1070
     4
1070
    40
1040
30.0
1070
    75
1070
     1
1070
   143
1040
0.039
1070
   172
1070
     1
1070
   271
1070
     0
1070
   279
1070
     1
1070
   288
1070
     1
1002
}
  0
DIMENSION
  5
7C80
  8
3
  6
CONTINUOUS
  2
*D16
 10
3370.2814020000001
 20
2267.8065190000002
 30
0.0
 11
3295.2814020000001
 21
2812.8065190000002
 31
0.0
 70
     0
 13
2924.8674850000002
 23
3357.8065189999988
 33
0.0
 14
2651.8017949999999
 24
2267.8065190000002
 34
0.0
 50
90.0
1001
ACAD
1000
DSTYLE
1002
{
1070
   287
1070
     4
1070
    40
1040
30.0
1070
    75
1070
     1
1070
   143
1040
0.039
1070
   172
1070
     1
1070
   271
1070
     0
1070
   279
1070
     1
1070
   288
1070
     1
1002
}
  0
DIMENSION
  5
7CE7
  8
3
  2
*D17
 10
901.80179499999986
 20
4369.080475310172
 30
0.0
 11
1878.8602241427029
 21
4369.080475310172
 31
0.0
 70
   128
 13
2736.8017949999989
 23
3442.3065189999988
 33
0.0
 14
901.80179499999986
 24
2367.8065190000002
 34
0.0
1001
ACAD
1000
DSTYLE
1002
{
1070
   287
1070
     3
1070
    40
1040
30.0
1070
   143
1040
0.039
1070
   172
1070
     1
1070
   271
1070
     0
1070
   279
1070
     0
1070
   288
1070
     1
1002
}
  0
LINE
  5
7D12
  8
1
  6
CONTINUOUS
 10
1521.8017949999989
 20
3487.8065190000002
 30
0.0
 11
2641.8017949999999
 21
3487.8065190000002
 31
0.0
  0
LINE
  5
7D13
  8
1
 10
1521.8017950000001
 20
2367.8065190000002
 30
0.0
 11
1521.8017949999989
 21
3487.8065190000002
 31
0.0
  0
LINE
  5
7D14
  8
1
 10
2641.8017949999999
 20
2367.8065189999988
 30
0.0
 11
2641.8017949999999
 21
3487.8065190000002
 31
0.0
  0
ENDSEC
  0
EOF
