  0
SECTION
  2
HEADER
  9
$ACADVER
  1
AC1009
  9
$INSBASE
 10
0.0
 20
0.0
 30
0.0
  9
$EXTMIN
 10
750.0
 20
900.0
 30
0.0
  9
$EXTMAX
 10
5550.0
 20
8359.9567849999985
 30
0.0
  9
$LIMMIN
 10
0.0
 20
0.0
  9
$LIMMAX
 10
297.0
 20
210.0
  9
$ORTHOMODE
 70
     0
  9
$REGENMODE
 70
     1
  9
$FILLMODE
 70
     0
  9
$QTEXTMODE
 70
     0
  9
$MIRRTEXT
 70
     1
  9
$DRAGMODE
 70
     2
  9
$LTSCALE
 40
100.0
  9
$OSMODE
 70
    37
  9
$ATTMODE
 70
     1
  9
$TEXTSIZE
 40
180.0
  9
$TRACEWID
 40
0.05
  9
$TEXTSTYLE
  7
STANDARD
  9
$CLAYER
  8
3
  9
$CELTYPE
  6
BYLAYER
  9
$CECOLOR
 62
   256
  9
$DIMSCALE
 40
30.0
  9
$DIMASZ
 40
2.0
  9
$DIMEXO
 40
0.5
  9
$DIMDLI
 40
10.0
  9
$DIMRND
 40
0.0
  9
$DIMDLE
 40
0.0
  9
$DIMEXE
 40
1.0
  9
$DIMTP
 40
1.0
  9
$DIMTM
 40
1.0
  9
$DIMTXT
 40
3.0
  9
$DIMCEN
 40
0.0
  9
$DIMTSZ
 40
0.0
  9
$DIMTOL
 70
     0
  9
$DIMLIM
 70
     0
  9
$DIMTIH
 70
     0
  9
$DIMTOH
 70
     0
  9
$DIMSE1
 70
     0
  9
$DIMSE2
 70
     0
  9
$DIMTAD
 70
     1
  9
$DIMZIN
 70
     8
  9
$DIMBLK
  1

  9
$DIMASO
 70
     1
  9
$DIMSHO
 70
     1
  9
$DIMPOST
  1

  9
$DIMAPOST
  1

  9
$DIMALT
 70
     0
  9
$DIMALTD
 70
     2
  9
$DIMALTF
 40
0.039
  9
$DIMLFAC
 40
1.0
  9
$DIMTOFL
 70
     1
  9
$DIMTVP
 40
0.0
  9
$DIMTIX
 70
     0
  9
$DIMSOXD
 70
     0
  9
$DIMSAH
 70
     1
  9
$DIMBLK1
  1
OPEN
  9
$DIMBLK2
  1
OPEN
  9
$DIMSTYLE
  2
IGA
  9
$DIMCLRD
 70
     0
  9
$DIMCLRE
 70
     0
  9
$DIMCLRT
 70
     0
  9
$DIMTFAC
 40
10.0
  9
$DIMGAP
 40
1.0
  9
$LUNITS
 70
     2
  9
$LUPREC
 70
     3
  9
$SKETCHINC
 40
0.1
  9
$FILLETRAD
 40
50.0
  9
$AUNITS
 70
     0
  9
$AUPREC
 70
     0
  9
$MENU
  1
acad
  9
$ELEVATION
 40
0.0
  9
$PELEVATION
 40
0.0
  9
$THICKNESS
 40
0.0
  9
$LIMCHECK
 70
     0
  9
$BLIPMODE
 70
     0
  9
$CHAMFERA
 40
0.5
  9
$CHAMFERB
 40
0.5
  9
$SKPOLY
 70
     0
  9
$TDCREATE
 40
2450749.554111111
  9
$TDUPDATE
 40
2454953.776899409
  9
$TDINDWG
 40
0.015878287
  9
$TDUSRTIMER
 40
0.015878287
  9
$USRTIMER
 70
     1
  9
$ANGBASE
 50
0.0
  9
$ANGDIR
 70
     0
  9
$PDMODE
 70
     0
  9
$PDSIZE
 40
0.0
  9
$PLINEWID
 40
0.0
  9
$COORDS
 70
     1
  9
$SPLFRAME
 70
     0
  9
$SPLINETYPE
 70
     6
  9
$SPLINESEGS
 70
     8
  9
$ATTDIA
 70
     0
  9
$ATTREQ
 70
     1
  9
$HANDLING
 70
 10241
  9
$HANDSEED
  5
7E07
  9
$SURFTAB1
 70
     6
  9
$SURFTAB2
 70
     6
  9
$SURFTYPE
 70
     6
  9
$SURFU
 70
     6
  9
$SURFV
 70
     6
  9
$UCSNAME
  2

  9
$UCSORG
 10
0.0
 20
0.0
 30
0.0
  9
$UCSXDIR
 10
1.0
 20
0.0
 30
0.0
  9
$UCSYDIR
 10
0.0
 20
1.0
 30
0.0
  9
$PUCSNAME
  2

  9
$PUCSORG
 10
0.0
 20
0.0
 30
0.0
  9
$PUCSXDIR
 10
1.0
 20
0.0
 30
0.0
  9
$PUCSYDIR
 10
0.0
 20
1.0
 30
0.0
  9
$USERI1
 70
     0
  9
$USERI2
 70
     0
  9
$USERI3
 70
     0
  9
$USERI4
 70
     0
  9
$USERI5
 70
     0
  9
$USERR1
 40
0.0
  9
$USERR2
 40
0.0
  9
$USERR3
 40
0.0
  9
$USERR4
 40
0.0
  9
$USERR5
 40
0.0
  9
$WORLDVIEW
 70
     1
  9
$SHADEDGE
 70
     3
  9
$SHADEDIF
 70
    70
  9
$TILEMODE
 70
     1
  9
$MAXACTVP
 70
    16
  9
$PLIMCHECK
 70
     0
  9
$PEXTMIN
 10
1.0000000000000000E+020
 20
1.0000000000000000E+020
 30
1.0000000000000000E+020
  9
$PEXTMAX
 10
-1.0000000000000000E+020
 20
-1.0000000000000000E+020
 30
-1.0000000000000000E+020
  9
$PLIMMIN
 10
0.0
 20
0.0
  9
$PLIMMAX
 10
12.0
 20
9.0
  9
$UNITMODE
 70
     0
  9
$VISRETAIN
 70
     0
  9
$PLINEGEN
 70
     0
  9
$PSLTSCALE
 70
     1
  0
ENDSEC
  0
SECTION
  2
TABLES
  0
TABLE
  2
VPORT
 70
     2
  0
VPORT
  2
*ACTIVE
 70
     0
 10
0.0
 20
0.0
 11
1.0
 21
1.0
 12
9438.1687158055174
 22
4629.9562499988788
 13
0.0
 23
0.0
 14
10.0
 24
10.0
 15
10.0
 25
10.0
 16
0.0
 26
0.0
 36
1.0
 17
0.0
 27
0.0
 37
0.0
 40
7517.2452868940854
 41
3.1666666666666661
 42
50.0
 43
0.0
 44
0.0
 50
0.0
 51
0.0
 71
     0
 72
   100
 73
     1
 74
     0
 75
     0
 76
     0
 77
     0
 78
     0
  0
ENDTAB
  0
TABLE
  2
LTYPE
 70
     2
  0
LTYPE
  2
CONTINUOUS
 70
     0
  3
Solid line
 72
    65
 73
     0
 40
0.0
  0
LTYPE
  2
CENTER
 70
     0
  3
____ _ ____ _ ____ _ ____ _ ____ _ ____ _ ____ 
 72
    65
 73
     4
 40
2.0
 49
1.25
 49
-0.25
 49
0.25
 49
-0.25
  0
ENDTAB
  0
TABLE
  2
LAYER
 70
     6
  0
LAYER
  2
0
 70
     0
 62
     7
  6
CONTINUOUS
  0
LAYER
  2
3
 70
     0
 62
     2
  6
CONTINUOUS
  0
LAYER
  2
2
 70
     0
 62
     3
  6
CENTER
  0
LAYER
  2
1
 70
     0
 62
     4
  6
CONTINUOUS
  0
LAYER
  2
4
 70
     0
 62
     7
  6
CONTINUOUS
  0
LAYER
  2
DEFPOINTS
 70
     0
 62
     7
  6
CONTINUOUS
  0
ENDTAB
  0
TABLE
  2
STYLE
 70
     1
  0
STYLE
  2
STANDARD
 70
     0
 40
0.0
 41
1.0
 50
0.0
 71
     0
 42
180.0
  3
simplex.shx
  4
extfont.shx
  0
ENDTAB
  0
TABLE
  2
VIEW
 70
     0
  0
ENDTAB
  0
TABLE
  2
UCS
 70
     0
  0
ENDTAB
  0
TABLE
  2
APPID
 70
     1
  0
APPID
  2
ACAD
 70
     0
  0
ENDTAB
  0
TABLE
  2
DIMSTYLE
 70
     1
  0
DIMSTYLE
  2
IGA
 70
     0
  3

  4

  5

  6
OPEN
  7
OPEN
 40
2.0
 41
2.0
 42
0.5
 43
10.0
 44
1.0
 45
0.0
 46
0.0
 47
1.0
 48
1.0
140
3.0
141
0.0
142
0.0
143
0.03937
144
1.0
145
0.0
146
10.0
147
1.0
 71
     0
 72
     0
 73
     0
 74
     0
 75
     0
 76
     0
 77
     1
 78
     8
170
     0
171
     2
172
     0
173
     1
174
     0
175
     0
176
     0
177
     0
178
     0
  0
ENDTAB
  0
ENDSEC
  0
SECTION
  2
BLOCKS
  0
BLOCK
  8
0
  2
$MODEL_SPACE
 70
     0
 10
0.0
 20
0.0
 30
0.0
  3
$MODEL_SPACE
  1

  0
ENDBLK
  5
1B
  8
0
  0
BLOCK
 67
     1
  8
0
  2
$PAPER_SPACE
 70
     0
 10
0.0
 20
0.0
 30
0.0
  3
$PAPER_SPACE
  1

  0
ENDBLK
  5
18
 67
     1
  8
0
  0
BLOCK
  8
0
  2
_OPEN
 70
     0
 10
0.0
 20
0.0
 30
0.0
  3
_OPEN
  1

  0
LINE
  5
7B75
  8
0
  6
BYBLOCK
 62
     0
 10
-1.0
 20
0.166667
 30
0.0
 11
0.0
 21
0.0
 31
0.0
  0
LINE
  5
7B76
  8
0
  6
BYBLOCK
 62
     0
 10
0.0
 20
0.0
 30
0.0
 11
-1.0
 21
-0.166667
 31
0.0
  0
LINE
  5
7B77
  8
0
  6
BYBLOCK
 62
     0
 10
0.0
 20
0.0
 30
0.0
 11
-1.0
 21
0.0
 31
0.0
  0
ENDBLK
  5
7B78
  8
0
  0
BLOCK
  8
0
  2
*D1
 70
     1
 10
0.0
 20
0.0
 30
0.0
  3
*D1
  1

  0
LINE
  5
7D75
  8
3
  6
CONTINUOUS
 62
     0
 10
2963.127825
 20
3656.8447740000001
 30
0.0
 11
2963.127825
 21
3864.846732
 31
0.0
  0
LINE
  5
7D76
  8
3
  6
CONTINUOUS
 62
     0
 10
2038.127825
 20
3656.8447740000001
 30
0.0
 11
2038.127825
 21
3864.846732
 31
0.0
  0
LINE
  5
7D77
  8
3
  6
CONTINUOUS
 62
     0
 10
2903.127825
 20
3834.8467319999991
 30
0.0
 11
2098.127825
 21
3834.8467319999991
 31
0.0
  0
INSERT
  5
7D78
  8
3
  6
CONTINUOUS
 62
     0
  2
_OPEN
 10
2963.127825
 20
3834.8467319999991
 30
0.0
 41
60.0
 42
60.0
 43
60.0
  0
INSERT
  5
7D79
  8
3
  6
CONTINUOUS
 62
     0
  2
_OPEN
 10
2038.127825
 20
3834.8467319999991
 30
0.0
 41
60.0
 42
60.0
 43
60.0
 50
180.0
  0
TEXT
  8
3
  40
90
  5
7DF7
  62
0
  72
0
  71
0
 10
2326.11
 20
3750.55
 30
0.000000
  1
925
  0
POINT
  5
7D7B
  8
DEFPOINTS
  6
CONTINUOUS
 62
     0
 10
2963.127825
 20
3641.8447740000001
 30
0.0
  0
POINT
  5
7D7C
  8
DEFPOINTS
  6
CONTINUOUS
 62
     0
 10
2038.127825
 20
3641.8447740000001
 30
0.0
  0
POINT
  5
7D7D
  8
DEFPOINTS
  6
CONTINUOUS
 62
     0
 10
2038.127825
 20
3834.8467319999991
 30
0.0
  0
ENDBLK
  5
7C8A
  8
0
  0
BLOCK
  8
0
  2
*D2
 70
     1
 10
0.0
 20
0.0
 30
0.0
  3
*D2
  1

  0
LINE
  5
7D7E
  8
3
  6
CONTINUOUS
 62
     0
 10
2963.127825
 20
3656.8447740000001
 30
0.0
 11
2963.127825
 21
4043.3858489999998
 31
0.0
  0
LINE
  5
7D7F
  8
3
  6
CONTINUOUS
 62
     0
 10
2080.1278249999991
 20
3855.7275169999998
 30
0.0
 11
2080.1278249999991
 21
4043.3858489999998
 31
0.0
  0
LINE
  5
7D80
  8
3
  6
CONTINUOUS
 62
     0
 10
2903.127825
 20
4013.3858489999998
 30
0.0
 11
2140.1278249999991
 21
4013.3858489999998
 31
0.0
  0
INSERT
  5
7D81
  8
3
  6
CONTINUOUS
 62
     0
  2
_OPEN
 10
2963.127825
 20
4013.3858489999998
 30
0.0
 41
60.0
 42
60.0
 43
60.0
  0
INSERT
  5
7D82
  8
3
  6
CONTINUOUS
 62
     0
  2
_OPEN
 10
2080.1278249999991
 20
4013.3858489999998
 30
0.0
 41
60.0
 42
60.0
 43
60.0
 50
180.0
  0
TEXT
  8
3
  40
90
  5
7DF8
  62
0
  72
0
  71
0
 10
2326.11
 20
3929.09
 30
0.000000
  1
883
  0
POINT
  5
7D84
  8
DEFPOINTS
  6
CONTINUOUS
 62
     0
 10
2963.127825
 20
3641.8447740000001
 30
0.0
  0
POINT
  5
7D85
  8
DEFPOINTS
  6
CONTINUOUS
 62
     0
 10
2080.1278249999991
 20
3840.7275169999998
 30
0.0
  0
POINT
  5
7D86
  8
DEFPOINTS
  6
CONTINUOUS
 62
     0
 10
2080.1278249999991
 20
4013.3858489999998
 30
0.0
  0
ENDBLK
  5
7C7F
  8
0
  0
BLOCK
  8
0
  2
*D3
 70
     1
 10
0.0
 20
0.0
 30
0.0
  3
*D3
  1

  0
LINE
  5
7D87
  8
3
  6
CONTINUOUS
 62
     0
 10
1510.127825
 20
2206.8447739999988
 30
0.0
 11
1510.127825
 21
1962.811301
 31
0.0
  0
LINE
  5
7D88
  8
3
  6
CONTINUOUS
 62
     0
 10
2080.1278249999991
 20
2047.7382660000001
 30
0.0
 11
2080.1278249999991
 21
1962.811301
 31
0.0
  0
LINE
  5
7D89
  8
3
  6
CONTINUOUS
 62
     0
 10
1570.127825
 20
1992.811301
 30
0.0
 11
2020.127825
 21
1992.811301
 31
0.0
  0
INSERT
  5
7D8A
  8
3
  6
CONTINUOUS
 62
     0
  2
_OPEN
 10
1510.127825
 20
1992.811301
 30
0.0
 41
60.0
 42
60.0
 43
60.0
 50
180.0
  0
INSERT
  5
7D8B
  8
3
  6
CONTINUOUS
 62
     0
  2
_OPEN
 10
2080.1278249999991
 20
1992.811301
 30
0.0
 41
60.0
 42
60.0
 43
60.0
  0
TEXT
  8
3
  40
90
  5
7DF9
  62
0
  72
0
  71
0
 10
1605.27
 20
1908.51
 30
0.000000
  1
570
  0
POINT
  5
7D8D
  8
DEFPOINTS
  6
CONTINUOUS
 62
     0
 10
1510.127825
 20
2221.8447740000001
 30
0.0
  0
POINT
  5
7D8E
  8
DEFPOINTS
  6
CONTINUOUS
 62
     0
 10
2080.1278249999991
 20
2062.7382659999989
 30
0.0
  0
POINT
  5
7D8F
  8
DEFPOINTS
  6
CONTINUOUS
 62
     0
 10
2080.1278249999991
 20
1992.811301
 30
0.0
  0
ENDBLK
  5
7BAB
  8
0
  0
BLOCK
  8
0
  2
*D4
 70
     1
 10
0.0
 20
0.0
 30
0.0
  3
*D4
  1

  0
LINE
  5
7D90
  8
3
  6
CONTINUOUS
 62
     0
 10
3260.127825
 20
2206.8447739999988
 30
0.0
 11
3260.127825
 21
1962.811301
 31
0.0
  0
LINE
  5
7D91
  8
3
  6
CONTINUOUS
 62
     0
 10
2140.1278249999991
 20
1992.811301
 30
0.0
 11
3200.127825
 21
1992.811301
 31
0.0
  0
INSERT
  5
7D92
  8
3
  6
CONTINUOUS
 62
     0
  2
_OPEN
 10
2080.1278249999991
 20
1992.811301
 30
0.0
 41
60.0
 42
60.0
 43
60.0
 50
180.0
  0
INSERT
  5
7D93
  8
3
  6
CONTINUOUS
 62
     0
  2
_OPEN
 10
3260.127825
 20
1992.811301
 30
0.0
 41
60.0
 42
60.0
 43
60.0
  0
TEXT
  8
3
  40
90
  5
7DFA
  62
0
  72
0
  71
0
 10
2490.13
 20
1908.51
 30
0.000000
  1
1180
  0
POINT
  5
7D95
  8
DEFPOINTS
  6
CONTINUOUS
 62
     0
 10
2080.1278249999991
 20
2062.7382659999989
 30
0.0
  0
POINT
  5
7D96
  8
DEFPOINTS
  6
CONTINUOUS
 62
     0
 10
3260.127825
 20
2221.8447740000001
 30
0.0
  0
POINT
  5
7D97
  8
DEFPOINTS
  6
CONTINUOUS
 62
     0
 10
3260.127825
 20
1992.811301
 30
0.0
  0
ENDBLK
  5
7BB7
  8
0
  0
BLOCK
  8
0
  2
*D5
 70
     1
 10
0.0
 20
0.0
 30
0.0
  3
*D5
  1

  0
LINE
  5
7D98
  8
3
  6
CONTINUOUS
 62
     0
 10
1980.627825
 20
3641.8447740000001
 30
0.0
 11
1256.2274970000001
 21
3641.8447740000001
 31
0.0
  0
LINE
  5
7D99
  8
3
  6
CONTINUOUS
 62
     0
 10
1335.3422449999989
 20
2986.8447739999988
 30
0.0
 11
1256.2274970000001
 21
2986.8447739999988
 31
0.0
  0
LINE
  5
7D9A
  8
3
  6
CONTINUOUS
 62
     0
 10
1286.2274970000001
 20
3581.8447740000001
 30
0.0
 11
1286.2274970000001
 21
3046.8447740000001
 31
0.0
  0
INSERT
  5
7D9B
  8
3
  6
CONTINUOUS
 62
     0
  2
_OPEN
 10
1286.2274970000001
 20
3641.8447740000001
 30
0.0
 41
60.0
 42
60.0
 43
60.0
 50
90.0
  0
INSERT
  5
7D9C
  8
3
  6
CONTINUOUS
 62
     0
  2
_OPEN
 10
1286.2274970000001
 20
2986.8447739999988
 30
0.0
 41
60.0
 42
60.0
 43
60.0
 50
270.0
  0
TEXT
  8
3
  40
90
  5
7DFB
  62
0
  72
0
  71
0
 10
1031.23
 20
3120.22
 30
0.000000
  1
655
  0
POINT
  5
7D9E
  8
DEFPOINTS
  6
CONTINUOUS
 62
     0
 10
1995.627825
 20
3641.8447740000001
 30
0.0
  0
POINT
  5
7D9F
  8
DEFPOINTS
  6
CONTINUOUS
 62
     0
 10
1350.3422449999989
 20
2986.8447739999988
 30
0.0
  0
POINT
  5
7DA0
  8
DEFPOINTS
  6
CONTINUOUS
 62
     0
 10
1286.2274970000001
 20
2986.8447739999988
 30
0.0
  0
ENDBLK
  5
7BC4
  8
0
  0
BLOCK
  8
0
  2
*D6
 70
     1
 10
0.0
 20
0.0
 30
0.0
  3
*D6
  1

  0
LINE
  5
7DA1
  8
3
  6
CONTINUOUS
 62
     0
 10
1495.127825
 20
2221.8447740000001
 30
0.0
 11
1256.2274970000001
 21
2221.8447740000001
 31
0.0
  0
LINE
  5
7DA2
  8
3
  6
CONTINUOUS
 62
     0
 10
1286.2274970000001
 20
2926.8447740000001
 30
0.0
 11
1286.2274970000001
 21
2281.8447739999988
 31
0.0
  0
INSERT
  5
7DA3
  8
3
  6
CONTINUOUS
 62
     0
  2
_OPEN
 10
1286.2274970000001
 20
2986.8447739999988
 30
0.0
 41
60.0
 42
60.0
 43
60.0
 50
90.0
  0
INSERT
  5
7DA4
  8
3
  6
CONTINUOUS
 62
     0
  2
_OPEN
 10
1286.2274970000001
 20
2221.8447740000001
 30
0.0
 41
60.0
 42
60.0
 43
60.0
 50
270.0
  0
TEXT
  8
3
  40
90
  5
7DFC
  62
0
  72
0
  71
0
 10
1031.23
 20
2445.04
 30
0.000000
  1
765
  0
POINT
  5
7DA6
  8
DEFPOINTS
  6
CONTINUOUS
 62
     0
 10
1350.3422449999989
 20
2986.8447739999988
 30
0.0
  0
POINT
  5
7DA7
  8
DEFPOINTS
  6
CONTINUOUS
 62
     0
 10
1510.127825
 20
2221.8447740000001
 30
0.0
  0
POINT
  5
7DA8
  8
DEFPOINTS
  6
CONTINUOUS
 62
     0
 10
1286.2274970000001
 20
2221.8447740000001
 30
0.0
  0
ENDBLK
  5
7BD0
  8
0
  0
BLOCK
  8
0
  2
*D7
 70
     1
 10
0.0
 20
0.0
 30
0.0
  3
*D7
  1

  0
LINE
  5
7DA9
  8
3
  6
CONTINUOUS
 62
     0
 10
1965.627825
 20
3641.8447740000001
 30
0.0
 11
997.46429200000046
 21
3641.8447740000001
 31
0.0
  0
LINE
  5
7DAA
  8
3
  6
CONTINUOUS
 62
     0
 10
1495.127825
 20
2221.8447740000001
 30
0.0
 11
997.464292
 21
2221.8447740000001
 31
0.0
  0
LINE
  5
7DAB
  8
3
  6
CONTINUOUS
 62
     0
 10
1027.4642919999999
 20
3581.8447740000001
 30
0.0
 11
1027.4642919999999
 21
2281.8447739999988
 31
0.0
  0
INSERT
  5
7DAC
  8
3
  6
CONTINUOUS
 62
     0
  2
_OPEN
 10
1027.4642919999999
 20
3641.8447740000001
 30
0.0
 41
60.0
 42
60.0
 43
60.0
 50
90.0
  0
INSERT
  5
7DAD
  8
3
  6
CONTINUOUS
 62
     0
  2
_OPEN
 10
1027.4642919999999
 20
2221.8447740000001
 30
0.0
 41
60.0
 42
60.0
 43
60.0
 50
270.0
  0
TEXT
  8
3
  40
90
  5
7DFD
  62
0
  72
0
  71
0
 10
772.464
 20
2707.74
 30
0.000000
  1
1420
  0
POINT
  5
7DAF
  8
DEFPOINTS
  6
CONTINUOUS
 62
     0
 10
1980.627825
 20
3641.8447740000001
 30
0.0
  0
POINT
  5
7DB0
  8
DEFPOINTS
  6
CONTINUOUS
 62
     0
 10
1510.127825
 20
2221.8447740000001
 30
0.0
  0
POINT
  5
7DB1
  8
DEFPOINTS
  6
CONTINUOUS
 62
     0
 10
1027.4642919999999
 20
2221.8447740000001
 30
0.0
  0
ENDBLK
  5
7BDD
  8
0
  0
BLOCK
  8
0
  2
*D8
 70
     1
 10
0.0
 20
0.0
 30
0.0
  3
*D8
  1

  0
LINE
  5
7DB2
  8
3
  6
CONTINUOUS
 62
     0
 10
5178.8801329999988
 20
3656.8447740000001
 30
0.0
 11
5178.8801329999988
 21
3819.0399579999989
 31
0.0
  0
LINE
  5
7DB3
  8
3
  6
CONTINUOUS
 62
     0
 10
4508.8801329999988
 20
3656.8447740000001
 30
0.0
 11
4508.8801329999988
 21
3819.0399579999989
 31
0.0
  0
LINE
  5
7DB4
  8
3
  6
CONTINUOUS
 62
     0
 10
5118.8801329999997
 20
3789.0399579999998
 30
0.0
 11
4568.8801329999988
 21
3789.0399579999998
 31
0.0
  0
INSERT
  5
7DB5
  8
3
  6
CONTINUOUS
 62
     0
  2
_OPEN
 10
5178.8801329999988
 20
3789.0399579999998
 30
0.0
 41
60.0
 42
60.0
 43
60.0
  0
INSERT
  5
7DB6
  8
3
  6
CONTINUOUS
 62
     0
  2
_OPEN
 10
4508.8801329999988
 20
3789.0399579999998
 30
0.0
 41
60.0
 42
60.0
 43
60.0
 50
180.0
  0
TEXT
  8
3
  40
90
  5
7DFE
  62
0
  72
0
  71
0
 10
4660.95
 20
3704.74
 30
0.000000
  1
670
  0
POINT
  5
7DB8
  8
DEFPOINTS
  6
CONTINUOUS
 62
     0
 10
5178.8801329999988
 20
3641.8447740000001
 30
0.0
  0
POINT
  5
7DB9
  8
DEFPOINTS
  6
CONTINUOUS
 62
     0
 10
4508.8801329999988
 20
3641.8447740000001
 30
0.0
  0
POINT
  5
7DBA
  8
DEFPOINTS
  6
CONTINUOUS
 62
     0
 10
4508.8801329999988
 20
3789.0399579999998
 30
0.0
  0
ENDBLK
  5
7CE1
  8
0
  0
BLOCK
  8
0
  2
*D9
 70
     1
 10
0.0
 20
0.0
 30
0.0
  3
*D9
  1

  0
LINE
  5
7DBB
  8
3
  6
CONTINUOUS
 62
     0
 10
5197.8801329999988
 20
3461.8447740000001
 30
0.0
 11
5450.0914249999996
 21
3461.8447740000001
 31
0.0
  0
LINE
  5
7DBC
  8
3
  6
CONTINUOUS
 62
     0
 10
5197.8801329999988
 20
2511.8447740000001
 30
0.0
 11
5450.0914249999996
 21
2511.8447740000001
 31
0.0
  0
LINE
  5
7DBD
  8
3
  6
CONTINUOUS
 62
     0
 10
5420.0914249999996
 20
3401.8447740000001
 30
0.0
 11
5420.0914249999996
 21
2571.8447740000001
 31
0.0
  0
INSERT
  5
7DBE
  8
3
  6
CONTINUOUS
 62
     0
  2
_OPEN
 10
5420.0914249999996
 20
3461.8447740000001
 30
0.0
 41
60.0
 42
60.0
 43
60.0
 50
90.0
  0
INSERT
  5
7DBF
  8
3
  6
CONTINUOUS
 62
     0
  2
_OPEN
 10
5420.0914249999996
 20
2511.8447740000001
 30
0.0
 41
60.0
 42
60.0
 43
60.0
 50
270.0
  0
TEXT
  8
3
  40
90
  5
7DFF
  62
0
  72
0
  71
0
 10
5165.09
 20
2837.02
 30
0.000000
  1
φ950
  0
POINT
  5
7DC1
  8
DEFPOINTS
  6
CONTINUOUS
 62
     0
 10
5182.8801329999997
 20
3461.8447740000001
 30
0.0
  0
POINT
  5
7DC2
  8
DEFPOINTS
  6
CONTINUOUS
 62
     0
 10
5182.8801329999997
 20
2511.8447740000001
 30
0.0
  0
POINT
  5
7DC3
  8
DEFPOINTS
  6
CONTINUOUS
 62
     0
 10
5420.0914249999996
 20
2511.8447740000001
 30
0.0
  0
ENDBLK
  5
7D18
  8
0
  0
BLOCK
  8
0
  2
*D10
 70
     1
 10
0.0
 20
0.0
 30
0.0
  3
*D10
  1

  0
LINE
  5
7CFA
  8
0
  6
BYBLOCK
 62
     0
 10
5182.8801329999997
 20
3476.8447739999988
 30
0.0
 11
5182.8801329999997
 21
3997.5790950000001
 31
0.0
  0
LINE
  5
7CFB
  8
0
  6
BYBLOCK
 62
     0
 10
4843.8801329999988
 20
3950.368907
 30
0.0
 11
4843.8801329999988
 21
3997.5790950000001
 31
0.0
  0
LINE
  5
7CFC
  8
0
  6
BYBLOCK
 62
     0
 10
5122.8801329999988
 20
3967.579095000001
 30
0.0
 11
4903.8801329999997
 21
3967.579095000001
 31
0.0
  0
TEXT
  5
7CFD
  8
3
 62
     0
 10
4899.8087044285712
 20
4003.4772350023381
 30
0.0
 40
90.0
  1
339
  0
INSERT
  5
7CFE
  8
0
  6
BYBLOCK
 62
     0
  2
_OPEN
 10
5182.8801329999997
 20
3967.579095000001
 30
0.0
 41
60.0
 42
60.0
 43
60.0
  0
INSERT
  5
7CFF
  8
0
  6
BYBLOCK
 62
     0
  2
_OPEN
 10
4843.8801329999988
 20
3967.579095000001
 30
0.0
 41
60.0
 42
60.0
 43
60.0
 50
180.0
  0
POINT
  5
7D00
  8
DEFPOINTS
  6
BYBLOCK
 62
     0
 10
5182.8801329999997
 20
3461.8447740000001
 30
0.0
  0
POINT
  5
7D01
  8
DEFPOINTS
  6
BYBLOCK
 62
     0
 10
4843.8801329999988
 20
3935.368907
 30
0.0
  0
POINT
  5
7D02
  8
DEFPOINTS
  6
BYBLOCK
 62
     0
 10
4843.8801329999988
 20
3967.579095000001
 30
0.0
  0
ENDBLK
  5
7D03
  8
0
  0
BLOCK
  8
0
  2
*D11
 70
     1
 10
0.0
 20
0.0
 30
0.0
  3
*D11
  1

  0
LINE
  5
7DC4
  8
3
  6
CONTINUOUS
 62
     0
 10
4233.8801329999988
 20
3506.8447740000001
 30
0.0
 11
4233.8801329999988
 21
3997.5790950000001
 31
0.0
  0
LINE
  5
7DC5
  8
3
  6
CONTINUOUS
 62
     0
 10
4783.8801329999988
 20
3967.579095000001
 30
0.0
 11
4293.8801329999997
 21
3967.579095000001
 31
0.0
  0
INSERT
  5
7DC6
  8
3
  6
CONTINUOUS
 62
     0
  2
_OPEN
 10
4843.8801329999988
 20
3967.579095000001
 30
0.0
 41
60.0
 42
60.0
 43
60.0
  0
INSERT
  5
7DC7
  8
3
  6
CONTINUOUS
 62
     0
  2
_OPEN
 10
4233.8801329999988
 20
3967.579095000001
 30
0.0
 41
60.0
 42
60.0
 43
60.0
 50
180.0
  0
TEXT
  8
3
  40
90
  5
7E00
  62
0
  72
0
  71
0
 10
4358.88
 20
3958.28
 30
0.000000
  1
MAX
  0
TEXT
  8
3
  40
90
  5
7E01
  62
0
  72
0
  71
0
 10
4358.88
 20
3841.28
 30
0.000000
  1
640
  0
POINT
  5
7DC9
  8
DEFPOINTS
  6
CONTINUOUS
 62
     0
 10
4843.8801329999988
 20
3935.368907
 30
0.0
  0
POINT
  5
7DCA
  8
DEFPOINTS
  6
CONTINUOUS
 62
     0
 10
4233.8801329999988
 20
3491.8447740000001
 30
0.0
  0
POINT
  5
7DCB
  8
DEFPOINTS
  6
CONTINUOUS
 62
     0
 10
4233.8801329999988
 20
3967.579095000001
 30
0.0
  0
ENDBLK
  5
7D0D
  8
0
  0
BLOCK
  8
0
  2
*D12
 70
     1
 10
0.0
 20
0.0
 30
0.0
  3
*D12
  1

  0
LINE
  5
7DCC
  8
3
  6
CONTINUOUS
 62
     0
 10
4310.8801329999997
 20
2206.8447739999988
 30
0.0
 11
4310.8801329999997
 21
1960.1001920000001
 31
0.0
  0
LINE
  5
7DCD
  8
3
  6
CONTINUOUS
 62
     0
 10
4843.8801329999988
 20
2042.3336389999999
 30
0.0
 11
4843.8801329999988
 21
1960.1001920000001
 31
0.0
  0
LINE
  5
7DCE
  8
3
  6
CONTINUOUS
 62
     0
 10
4370.8801329999997
 20
1990.1001920000001
 30
0.0
 11
4783.8801329999988
 21
1990.1001920000001
 31
0.0
  0
INSERT
  5
7DCF
  8
3
  6
CONTINUOUS
 62
     0
  2
_OPEN
 10
4310.8801329999997
 20
1990.1001920000001
 30
0.0
 41
60.0
 42
60.0
 43
60.0
 50
180.0
  0
INSERT
  5
7DD0
  8
3
  6
CONTINUOUS
 62
     0
  2
_OPEN
 10
4843.8801329999988
 20
1990.1001920000001
 30
0.0
 41
60.0
 42
60.0
 43
60.0
  0
TEXT
  8
3
  40
90
  5
7E02
  62
0
  72
0
  71
0
 10
4420.67
 20
1905.80
 30
0.000000
  1
533
  0
POINT
  5
7DD2
  8
DEFPOINTS
  6
CONTINUOUS
 62
     0
 10
4310.8801329999997
 20
2221.8447740000001
 30
0.0
  0
POINT
  5
7DD3
  8
DEFPOINTS
  6
CONTINUOUS
 62
     0
 10
4843.8801329999988
 20
2057.3336389999999
 30
0.0
  0
POINT
  5
7DD4
  8
DEFPOINTS
  6
CONTINUOUS
 62
     0
 10
4843.8801329999988
 20
1990.1001920000001
 30
0.0
  0
ENDBLK
  5
7CB5
  8
0
  0
BLOCK
  8
0
  2
*D13
 70
     1
 10
0.0
 20
0.0
 30
0.0
  3
*D13
  1

  0
LINE
  5
7DD5
  8
3
  6
CONTINUOUS
 62
     0
 10
5230.8801329999988
 20
2206.8447739999988
 30
0.0
 11
5230.8801329999988
 21
1960.1001920000001
 31
0.0
  0
LINE
  5
7DD6
  8
3
  6
CONTINUOUS
 62
     0
 10
4903.8801329999997
 20
1990.1001920000001
 30
0.0
 11
5170.8801329999997
 21
1990.1001920000001
 31
0.0
  0
TEXT
  8
3
  40
90
  5
7E03
  62
0
  72
0
  71
0
 10
4875.17
 20
1903.39
 30
0.000000
  1
387
  0
INSERT
  5
7DD8
  8
3
  6
CONTINUOUS
 62
     0
  2
_OPEN
 10
4843.8801329999988
 20
1990.1001920000001
 30
0.0
 41
60.0
 42
60.0
 43
60.0
 50
180.0
  0
INSERT
  5
7DD9
  8
3
  6
CONTINUOUS
 62
     0
  2
_OPEN
 10
5230.8801329999988
 20
1990.1001920000001
 30
0.0
 41
60.0
 42
60.0
 43
60.0
  0
POINT
  5
7DDA
  8
DEFPOINTS
  6
CONTINUOUS
 62
     0
 10
4843.8801329999988
 20
2057.3336389999999
 30
0.0
  0
POINT
  5
7DDB
  8
DEFPOINTS
  6
CONTINUOUS
 62
     0
 10
5230.8801329999988
 20
2221.8447740000001
 30
0.0
  0
POINT
  5
7DDC
  8
DEFPOINTS
  6
CONTINUOUS
 62
     0
 10
5230.8801329999988
 20
1990.1001920000001
 30
0.0
  0
ENDBLK
  5
7CBF
  8
0
  0
BLOCK
  8
0
  2
*D14
 70
     1
 10
0.0
 20
0.0
 30
0.0
  3
*D14
  1

  0
LINE
  5
7DDD
  8
3
  6
CONTINUOUS
 62
     0
 10
1510.127825
 20
6356.2592359999999
 30
0.0
 11
1510.127825
 21
6545.5005729999993
 31
0.0
  0
LINE
  5
7DDE
  8
3
  6
CONTINUOUS
 62
     0
 10
3260.127825
 20
6356.2592359999999
 30
0.0
 11
3260.127825
 21
6545.5005729999993
 31
0.0
  0
LINE
  5
7DDF
  8
3
  6
CONTINUOUS
 62
     0
 10
1570.127825
 20
6515.5005730000003
 30
0.0
 11
3200.127825
 21
6515.5005730000003
 31
0.0
  0
INSERT
  5
7DE0
  8
3
  6
CONTINUOUS
 62
     0
  2
_OPEN
 10
1510.127825
 20
6515.5005730000003
 30
0.0
 41
60.0
 42
60.0
 43
60.0
 50
180.0
  0
INSERT
  5
7DE1
  8
3
  6
CONTINUOUS
 62
     0
  2
_OPEN
 10
3260.127825
 20
6515.5005730000003
 30
0.0
 41
60.0
 42
60.0
 43
60.0
  0
TEXT
  8
3
  40
90
  5
7E04
  62
0
  72
0
  71
0
 10
2178.25
 20
6431.20
 30
0.000000
  1
1750
  0
POINT
  5
7DE3
  8
DEFPOINTS
  6
CONTINUOUS
 62
     0
 10
1510.127825
 20
6341.259235999999
 30
0.0
  0
POINT
  5
7DE4
  8
DEFPOINTS
  6
CONTINUOUS
 62
     0
 10
3260.127825
 20
6341.259235999999
 30
0.0
  0
POINT
  5
7DE5
  8
DEFPOINTS
  6
CONTINUOUS
 62
     0
 10
3260.127825
 20
6515.5005730000003
 30
0.0
  0
ENDBLK
  5
7C54
  8
0
  0
BLOCK
  8
0
  2
*D15
 70
     1
 10
0.0
 20
0.0
 30
0.0
  3
*D15
  1

  0
LINE
  5
7DE6
  8
3
  6
CONTINUOUS
 62
     0
 10
3275.127825
 20
6341.259235999999
 30
0.0
 11
3552.6808409999999
 21
6341.259235999999
 31
0.0
  0
LINE
  5
7DE7
  8
3
  6
CONTINUOUS
 62
     0
 10
3275.127825
 20
5421.2592359999999
 30
0.0
 11
3552.6808409999999
 21
5421.2592359999999
 31
0.0
  0
LINE
  5
7DE8
  8
3
  6
CONTINUOUS
 62
     0
 10
3522.6808409999999
 20
6281.2592359999999
 30
0.0
 11
3522.6808409999999
 21
5481.259235999999
 31
0.0
  0
INSERT
  5
7DE9
  8
3
  6
CONTINUOUS
 62
     0
  2
_OPEN
 10
3522.6808409999999
 20
6341.259235999999
 30
0.0
 41
60.0
 42
60.0
 43
60.0
 50
90.0
  0
INSERT
  5
7DEA
  8
3
  6
CONTINUOUS
 62
     0
  2
_OPEN
 10
3522.6808409999999
 20
5421.2592359999999
 30
0.0
 41
60.0
 42
60.0
 43
60.0
 50
270.0
  0
TEXT
  8
3
  40
90
  5
7E05
  62
0
  72
0
  71
0
 10
3267.68
 20
5691.30
 30
0.000000
  1
920
  0
POINT
  5
7DEC
  8
DEFPOINTS
  6
CONTINUOUS
 62
     0
 10
3260.127825
 20
6341.259235999999
 30
0.0
  0
POINT
  5
7DED
  8
DEFPOINTS
  6
CONTINUOUS
 62
     0
 10
3260.127825
 20
5421.2592359999999
 30
0.0
  0
POINT
  5
7DEE
  8
DEFPOINTS
  6
CONTINUOUS
 62
     0
 10
3522.6808409999999
 20
5421.2592359999999
 30
0.0
  0
ENDBLK
  5
7C61
  8
0
  0
BLOCK
  8
0
  2
*D16
 70
     1
 10
0.0
 20
0.0
 30
0.0
  3
*D16
  1

  0
LINE
  5
7DEF
  8
3
  6
CONTINUOUS
 62
     0
 10
1437.1328820082681
 20
3001.8447740000001
 30
0.0
 11
1437.1328820082681
 21
4043.3858489999998
 31
0.0
  0
LINE
  5
7DF0
  8
3
  6
CONTINUOUS
 62
     0
 10
2020.127825
 20
4013.3858489999998
 30
0.0
 11
1497.1328820082681
 21
4013.3858489999998
 31
0.0
  0
INSERT
  5
7DF1
  8
3
  6
CONTINUOUS
 62
     0
  2
_OPEN
 10
2080.1278249999991
 20
4013.3858489999998
 30
0.0
 41
60.0
 42
60.0
 43
60.0
  0
INSERT
  5
7DF2
  8
3
  6
CONTINUOUS
 62
     0
  2
_OPEN
 10
1437.1328820082681
 20
4013.3858489999998
 30
0.0
 41
60.0
 42
60.0
 43
60.0
 50
180.0
  0
TEXT
  8
3
  40
90
  5
7E06
  62
0
  72
0
  71
0
 10
1578.63
 20
3929.09
 30
0.000000
  1
643
  0
POINT
  5
7DF4
  8
DEFPOINTS
  6
CONTINUOUS
 62
     0
 10
2080.1278249999991
 20
3840.7275169999998
 30
0.0
  0
POINT
  5
7DF5
  8
DEFPOINTS
  6
CONTINUOUS
 62
     0
 10
1437.1328820082681
 20
2986.8447740000001
 30
0.0
  0
POINT
  5
7DF6
  8
DEFPOINTS
  6
CONTINUOUS
 62
     0
 10
1437.1328820082681
 20
4013.3858489999998
 30
0.0
  0
ENDBLK
  5
7D23
  8
0
  0
ENDSEC
  0
SECTION
  2
ENTITIES
  0
LINE
  5
7AC9
  8
1
  6
CONTINUOUS
 10
2963.127825
 20
6289.2592359999999
 30
0.0
 11
2038.127825
 21
5619.2592359999999
 31
0.0
  0
LINE
  5
7ACA
  8
1
  6
CONTINUOUS
 10
2963.127825
 20
5619.2592359999999
 30
0.0
 11
2038.127825
 21
6289.2592359999999
 31
0.0
  0
LINE
  5
7ACB
  8
1
  6
CONTINUOUS
 10
2038.127825
 20
5619.2592359999999
 30
0.0
 11
2038.127825
 21
6289.2592359999999
 31
0.0
  0
LINE
  5
7ACC
  8
1
  6
CONTINUOUS
 10
1435.3314820000001
 20
5619.2592359999999
 30
0.0
 11
1435.3314820000001
 21
6289.2592359999999
 31
0.0
  0
LINE
  5
7ACD
  8
1
  6
CONTINUOUS
 10
2963.127825
 20
5619.2592359999999
 30
0.0
 11
2963.127825
 21
6289.2592359999999
 31
0.0
  0
LINE
  5
7ACE
  8
1
  6
CONTINUOUS
 10
3260.127825
 20
5421.2592359999999
 30
0.0
 11
3260.127825
 21
6341.259235999999
 31
0.0
  0
LINE
  5
7ACF
  8
1
  6
CONTINUOUS
 10
3222.1278249999991
 20
5577.259235999999
 30
0.0
 11
3222.1278249999991
 21
6062.2592359999999
 31
0.0
  0
LINE
  5
7AD0
  8
1
  6
CONTINUOUS
 10
1995.627825
 20
3641.8447740000001
 30
0.0
 11
3005.627825
 21
3641.8447740000001
 31
0.0
  0
POLYLINE
  5
7AD1
  8
1
  6
CONTINUOUS
 66
     1
 10
0.0
 20
0.0
 30
0.0
  0
VERTEX
  5
7D6F
  8
1
  6
CONTINUOUS
 10
2963.127825
 20
3641.8447740000001
 30
0.0
  0
VERTEX
  5
7D70
  8
1
  6
CONTINUOUS
 10
2941.127825
 20
2986.8447739999988
 30
0.0
 42
-0.4168370000000001
  0
VERTEX
  5
7D71
  8
1
  6
CONTINUOUS
 10
2072.9538829999992
 20
2244.404814
 30
0.0
 42
-0.429867
  0
VERTEX
  5
7D72
  8
1
  6
CONTINUOUS
 10
1441.702648
 20
3030.7209339999999
 30
0.0
 42
-0.373172
  0
VERTEX
  5
7D73
  8
1
  6
CONTINUOUS
 10
2038.127825
 20
3554.813502
 30
0.0
 42
-0.34598
  0
SEQEND
  5
7D74
  8
1
  6
CONTINUOUS
  0
LINE
  5
7AD8
  8
1
  6
CONTINUOUS
 10
2038.127825
 20
3601.8447739999988
 30
0.0
 11
2961.7843130000001
 21
3601.8447739999988
 31
0.0
  0
LINE
  5
7AD9
  8
1
  6
CONTINUOUS
 10
1510.127825
 20
2321.8447740000001
 30
0.0
 11
3260.127825
 21
2321.8447740000001
 31
0.0
  0
LINE
  5
7ADA
  8
1
  6
CONTINUOUS
 10
1510.127825
 20
2221.8447740000001
 30
0.0
 11
3260.127825
 21
2221.8447740000001
 31
0.0
  0
ARC
  5
7ADB
  8
1
  6
CONTINUOUS
 10
3060.127825
 20
2571.8447740000001
 30
0.0
 40
162.0
 50
324.972283
 51
215.02771699999991
  0
LINE
  5
7ADC
  8
1
  6
CONTINUOUS
 10
3100.5731089999999
 20
2635.0047219999992
 30
0.0
 11
2217.1025199999999
 21
3200.7464639999998
 31
0.0
  0
LINE
  5
7ADD
  8
1
  6
CONTINUOUS
 10
3042.914413
 20
2498.8468389999998
 30
0.0
 11
2021.831739
 21
2739.625102
 31
0.0
  0
LINE
  5
7ADE
  8
1
  6
CONTINUOUS
 10
3240.127825
 20
2671.8447740000001
 30
0.0
 11
2260.127825
 21
3491.8447740000001
 31
0.0
  0
LINE
  5
7ADF
  8
1
  6
CONTINUOUS
 10
1510.127825
 20
5421.2592359999999
 30
0.0
 11
3260.127825
 21
5421.2592359999999
 31
0.0
  0
LINE
  5
7AE0
  8
1
  6
CONTINUOUS
 10
1435.3314820000001
 20
5619.2592359999999
 30
0.0
 11
2963.127825
 21
5619.2592359999999
 31
0.0
  0
LINE
  5
7AE1
  8
1
  6
CONTINUOUS
 10
3222.1278249999991
 20
5577.259235999999
 30
0.0
 11
2898.127825
 21
5577.259235999999
 31
0.0
  0
LINE
  5
7AE2
  8
1
  6
CONTINUOUS
 10
3240.127825
 20
5566.2592359999999
 30
0.0
 11
1600.127825
 21
5566.2592359999999
 31
0.0
  0
LINE
  5
7AE3
  8
1
  6
CONTINUOUS
 10
3240.127825
 20
5396.2592359999999
 30
0.0
 11
1600.127825
 21
5396.2592359999999
 31
0.0
  0
LINE
  5
7AE8
  8
1
  6
CONTINUOUS
 10
1600.127825
 20
2321.8447740000001
 30
0.0
 11
1600.127825
 21
3491.8447740000001
 31
0.0
  0
LINE
  5
7AE9
  8
1
  6
CONTINUOUS
 10
1510.127825
 20
2321.8447740000001
 30
0.0
 11
1510.127825
 21
2221.8447740000001
 31
0.0
  0
LINE
  5
7AEA
  8
1
  6
CONTINUOUS
 10
2862.627825
 20
2361.8447739999988
 30
0.0
 11
2862.627825
 21
2321.8447740000001
 31
0.0
  0
LINE
  5
7AEB
  8
1
  6
CONTINUOUS
 10
2862.627825
 20
2361.8447739999988
 30
0.0
 11
2872.627825
 21
2411.8447739999988
 31
0.0
  0
LINE
  5
7AEC
  8
1
  6
CONTINUOUS
 10
2927.470159
 20
2478.8612069999999
 30
0.0
 11
2872.627825
 21
2411.8447739999988
 31
0.0
  0
LINE
  5
7AEE
  8
1
  6
CONTINUOUS
 10
1600.127825
 20
3491.8447740000001
 30
0.0
 11
2260.127825
 21
3491.8447740000001
 31
0.0
  0
LINE
  5
7AEF
  8
1
  6
CONTINUOUS
 10
1510.127825
 20
5421.2592359999999
 30
0.0
 11
1510.127825
 21
5619.2592359999999
 31
0.0
  0
LINE
  5
7AF0
  8
1
  6
CONTINUOUS
 10
1600.127825
 20
5396.2592359999999
 30
0.0
 11
1600.127825
 21
5566.2592359999999
 31
0.0
  0
CIRCLE
  5
7AF1
  8
1
  6
CONTINUOUS
 10
2080.1278249999991
 20
2986.8447739999988
 30
0.0
 40
254.0
  0
LINE
  5
7AF2
  8
2
  6
CENTER
 10
2080.1278249999991
 20
2062.7382659999989
 30
0.0
 11
2080.1278249999991
 21
3840.7275169999998
 31
0.0
  0
LINE
  5
7AF3
  8
2
  6
CENTER
 10
5253.7436550000002
 20
2986.8447739999988
 30
0.0
 11
4119.6126359999998
 21
2986.8447739999988
 31
0.0
  0
LINE
  5
7AF4
  8
1
  6
CONTINUOUS
 10
2038.127825
 20
3554.813502
 30
0.0
 11
2038.127825
 21
3641.8447740000001
 31
0.0
  0
LINE
  5
7AF5
  8
1
  6
CONTINUOUS
 10
2334.127825
 20
5533.2592359999999
 30
0.0
 11
1826.127825
 21
5533.2592359999999
 31
0.0
  0
LINE
  5
7AF6
  8
1
  6
CONTINUOUS
 10
2334.127825
 20
5429.2592359999999
 30
0.0
 11
1826.127825
 21
5429.2592359999999
 31
0.0
  0
LINE
  5
7AF7
  8
1
  6
CONTINUOUS
 10
2055.127825
 20
5533.2592359999999
 30
0.0
 11
2055.127825
 21
5619.2592359999999
 31
0.0
  0
LINE
  5
7AF8
  8
1
  6
CONTINUOUS
 10
1826.127825
 20
5429.2592359999999
 30
0.0
 11
1826.127825
 21
5533.2592359999999
 31
0.0
  0
LINE
  5
7AF9
  8
1
  6
CONTINUOUS
 10
2105.1278249999991
 20
5533.2592359999999
 30
0.0
 11
2105.1278249999991
 21
5619.2592359999999
 31
0.0
  0
LINE
  5
7AFA
  8
1
  6
CONTINUOUS
 10
2334.127825
 20
5429.2592359999999
 30
0.0
 11
2334.127825
 21
5533.2592359999999
 31
0.0
  0
LINE
  5
7AFB
  8
1
  6
CONTINUOUS
 10
2898.127825
 20
5577.259235999999
 30
0.0
 11
2898.127825
 21
5619.2592359999999
 31
0.0
  0
CIRCLE
  5
7B02
  8
1
  6
CONTINUOUS
 10
3060.127825
 20
2571.8447740000001
 30
0.0
 40
75.0
  0
LINE
  5
7B03
  8
2
  6
CENTER
 10
3060.127825
 20
2491.8447740000001
 30
0.0
 11
3060.127825
 21
2651.8447740000001
 31
0.0
  0
LINE
  5
7B04
  8
1
  6
CONTINUOUS
 10
3240.127825
 20
2321.8447740000001
 30
0.0
 11
3240.127825
 21
2671.8447740000001
 31
0.0
  0
LINE
  5
7B05
  8
1
  6
CONTINUOUS
 10
3247.627825
 20
2411.8447739999988
 30
0.0
 11
3192.7854900000002
 21
2478.8612069999999
 31
0.0
  0
LINE
  5
7B06
  8
1
  6
CONTINUOUS
 10
3260.127825
 20
2321.8447740000001
 30
0.0
 11
3260.127825
 21
2221.8447740000001
 31
0.0
  0
LINE
  5
7B07
  8
1
  6
CONTINUOUS
 10
3257.627825
 20
2361.8447739999988
 30
0.0
 11
3257.627825
 21
2321.8447740000001
 31
0.0
  0
LINE
  5
7B08
  8
1
  6
CONTINUOUS
 10
3247.627825
 20
2411.8447739999988
 30
0.0
 11
3257.627825
 21
2361.8447739999988
 31
0.0
  0
LINE
  5
7B16
  8
2
  6
CENTER
 10
3140.127825
 20
2571.8447740000001
 30
0.0
 11
2980.127825
 21
2571.8447740000001
 31
0.0
  0
LINE
  5
7B17
  8
1
  6
CONTINUOUS
 10
3135.127825
 20
5533.2592359999999
 30
0.0
 11
2985.127825
 21
5533.2592359999999
 31
0.0
  0
LINE
  5
7B18
  8
1
  6
CONTINUOUS
 10
3135.127825
 20
5429.2592359999999
 30
0.0
 11
2985.127825
 21
5429.2592359999999
 31
0.0
  0
LINE
  5
7B19
  8
1
  6
CONTINUOUS
 10
3039.127825
 20
5533.2592359999999
 30
0.0
 11
3039.127825
 21
5577.259235999999
 31
0.0
  0
LINE
  5
7B1A
  8
1
  6
CONTINUOUS
 10
3081.127825
 20
5533.2592359999999
 30
0.0
 11
3081.127825
 21
5577.259235999999
 31
0.0
  0
LINE
  5
7B1B
  8
1
  6
CONTINUOUS
 10
2985.127825
 20
5429.2592359999999
 30
0.0
 11
2985.127825
 21
5533.2592359999999
 31
0.0
  0
LINE
  5
7B1C
  8
1
  6
CONTINUOUS
 10
3135.127825
 20
5429.2592359999999
 30
0.0
 11
3135.127825
 21
5533.2592359999999
 31
0.0
  0
LINE
  5
7B1D
  8
1
  6
CONTINUOUS
 10
3240.127825
 20
5396.2592359999999
 30
0.0
 11
3240.127825
 21
5566.2592359999999
 31
0.0
  0
LINE
  5
7B2B
  8
1
  6
CONTINUOUS
 10
1435.3314820000001
 20
6289.2592359999999
 30
0.0
 11
2963.127825
 21
6289.2592359999999
 31
0.0
  0
LINE
  5
7B2C
  8
1
  6
CONTINUOUS
 10
1510.127825
 20
6341.259235999999
 30
0.0
 11
3260.127825
 21
6341.259235999999
 31
0.0
  0
LINE
  5
7B2D
  8
1
  6
CONTINUOUS
 10
1510.127825
 20
6289.2592359999999
 30
0.0
 11
1510.127825
 21
6341.259235999999
 31
0.0
  0
LINE
  5
7B2F
  8
1
  6
CONTINUOUS
 10
3222.1278249999991
 20
6062.2592359999999
 30
0.0
 11
2963.127825
 21
6062.2592359999999
 31
0.0
  0
LINE
  5
7B31
  8
1
  6
CONTINUOUS
 10
4422.8801329999988
 20
2646.8447739999988
 30
0.0
 11
4422.8801329999988
 21
2496.8447739999988
 31
0.0
  0
LINE
  5
7B32
  8
1
  6
CONTINUOUS
 10
4318.8801329999988
 20
2646.8447739999988
 30
0.0
 11
4318.8801329999988
 21
2496.8447739999988
 31
0.0
  0
LINE
  5
7B33
  8
1
  6
CONTINUOUS
 10
4455.8801329999988
 20
3491.8447740000001
 30
0.0
 11
4455.8801329999988
 21
2321.8447740000001
 31
0.0
  0
LINE
  5
7B34
  8
1
  6
CONTINUOUS
 10
4233.8801329999988
 20
3491.8447740000001
 30
0.0
 11
4233.8801329999988
 21
2321.8447740000001
 31
0.0
  0
LINE
  5
7B36
  8
1
  6
CONTINUOUS
 10
5178.8801329999988
 20
3641.8447740000001
 30
0.0
 11
5178.8801329999988
 21
2321.8447740000001
 31
0.0
  0
LINE
  5
7B37
  8
1
  6
CONTINUOUS
 10
4508.8801329999988
 20
3641.8447740000001
 30
0.0
 11
4508.8801329999988
 21
2321.8447740000001
 31
0.0
  0
LINE
  5
7B39
  8
1
  6
CONTINUOUS
 10
4310.8801329999997
 20
2321.8447740000001
 30
0.0
 11
5230.8801329999988
 21
2321.8447740000001
 31
0.0
  0
LINE
  5
7B3A
  8
1
  6
CONTINUOUS
 10
4318.8801329999988
 20
2496.8447739999988
 30
0.0
 11
4422.8801329999988
 21
2496.8447739999988
 31
0.0
  0
LINE
  5
7B3B
  8
1
  6
CONTINUOUS
 10
4310.8801329999997
 20
2221.8447740000001
 30
0.0
 11
5230.8801329999988
 21
2221.8447740000001
 31
0.0
  0
LINE
  5
7B3D
  8
1
  6
CONTINUOUS
 10
4310.8801329999997
 20
2321.8447740000001
 30
0.0
 11
4310.8801329999997
 21
2221.8447740000001
 31
0.0
  0
LINE
  5
7B3E
  8
1
  6
CONTINUOUS
 10
4233.8801329999988
 20
2321.8447740000001
 30
0.0
 11
4310.8801329999997
 21
2321.8447740000001
 31
0.0
  0
LINE
  5
7B3F
  8
1
  6
CONTINUOUS
 10
5230.8801329999988
 20
2321.8447740000001
 30
0.0
 11
5230.8801329999988
 21
2221.8447740000001
 31
0.0
  0
LINE
  5
7B40
  8
1
  6
CONTINUOUS
 10
4318.8801329999988
 20
2646.8447739999988
 30
0.0
 11
4422.8801329999988
 21
2646.8447739999988
 31
0.0
  0
LINE
  5
7B41
  8
1
  6
CONTINUOUS
 10
4318.8801329999988
 20
2732.8447740000001
 30
0.0
 11
4422.8801329999988
 21
2732.8447740000001
 31
0.0
  0
LINE
  5
7B42
  8
1
  6
CONTINUOUS
 10
4318.8801329999988
 20
3240.8447740000001
 30
0.0
 11
4422.8801329999988
 21
3240.8447740000001
 31
0.0
  0
LINE
  5
7B43
  8
1
  6
CONTINUOUS
 10
4233.8801329999988
 20
3491.8447740000001
 30
0.0
 11
4455.8801329999988
 21
3491.8447740000001
 31
0.0
  0
LINE
  5
7B44
  8
1
  6
CONTINUOUS
 10
4318.8801329999988
 20
3240.8447740000001
 30
0.0
 11
4318.8801329999988
 21
2732.8447740000001
 31
0.0
  0
LINE
  5
7B48
  8
1
  6
CONTINUOUS
 10
4466.8801329999997
 20
3641.8447740000001
 30
0.0
 11
5220.8801329999997
 21
3641.8447740000001
 31
0.0
  0
LINE
  5
7B49
  8
1
  6
CONTINUOUS
 10
4508.8801329999988
 20
3601.8447739999988
 30
0.0
 11
5178.8801329999988
 21
3601.8447739999988
 31
0.0
  0
LINE
  5
7B4A
  8
1
  6
CONTINUOUS
 10
4422.8801329999988
 20
3240.8447740000001
 30
0.0
 11
4422.8801329999988
 21
2732.8447740000001
 31
0.0
  0
LINE
  5
7B4B
  8
1
  6
CONTINUOUS
 10
4422.8801329999988
 20
2550.8447739999988
 30
0.0
 11
4508.8801329999988
 21
2550.8447739999988
 31
0.0
  0
LINE
  5
7B4C
  8
1
  6
CONTINUOUS
 10
4422.8801329999988
 20
2592.8447739999988
 30
0.0
 11
4508.8801329999988
 21
2592.8447739999988
 31
0.0
  0
LINE
  5
7B4D
  8
1
  6
CONTINUOUS
 10
4422.8801329999988
 20
2961.8447739999988
 30
0.0
 11
4508.8801329999988
 21
2961.8447739999988
 31
0.0
  0
LINE
  5
7B4E
  8
1
  6
CONTINUOUS
 10
4422.8801329999988
 20
3011.8447740000001
 30
0.0
 11
4508.8801329999988
 21
3011.8447740000001
 31
0.0
  0
LINE
  5
7B50
  8
2
  6
CENTER
 10
1305.459609999999
 20
5954.2592359999999
 30
0.0
 11
3337.850003999999
 21
5954.2592359999999
 31
0.0
  0
LINE
  5
7B51
  8
2
  6
CENTER
 10
4843.8801329999988
 20
3738.1524610000001
 30
0.0
 11
4843.8801329999988
 21
2057.3336389999999
 31
0.0
  0
LINE
  5
7B52
  8
2
  6
CENTER
 10
2080.1278249999991
 20
5261.2229390000002
 30
0.0
 11
2080.1278249999991
 21
6477.8811569999998
 31
0.0
  0
LINE
  5
7B53
  8
2
  6
CENTER
 10
3144.9815170000002
 20
2986.8447739999988
 30
0.0
 11
1316.825450999999
 21
2986.8447739999988
 31
0.0
  0
LINE
  5
7B54
  8
4
  6
CONTINUOUS
 10
5550.0
 20
1500.0
 30
0.0
 11
5550.0
 21
900.0
 31
0.0
  0
LINE
  5
7B55
  8
4
  6
CONTINUOUS
 10
3450.0
 20
1500.0
 30
0.0
 11
3450.0
 21
900.0
 31
0.0
  0
LINE
  5
7B56
  8
4
  6
CONTINUOUS
 10
1950.0
 20
1500.0
 30
0.0
 11
1950.0
 21
900.0
 31
0.0
  0
LINE
  5
7B59
  8
4
  6
CONTINUOUS
 10
1950.0
 20
900.0
 30
0.0
 11
5550.0
 21
900.0
 31
0.0
  0
LINE
  5
7B5A
  8
4
  6
CONTINUOUS
 10
1950.0
 20
1200.0
 30
0.0
 11
5550.0
 21
1200.0
 31
0.0
  0
TEXT
  5
7B5B
  8
4
  6
CONTINUOUS
 10
2065.5062429999989
 20
1294.6290779999999
 30
0.0
 40
150.0
  1
機器名称
  0
TEXT
  5
7B5C
  8
4
  6
CONTINUOUS
 10
2058.7743179999989
 20
964.9354699999999
 30
0.0
 40
150.0
  1
機器型番
  0
TEXT
  5
7B5D
  8
4
  6
CONTINUOUS
 10
3533.0362359999999
 20
1267.7153069999999
 30
0.0
 40
150.0
  1
ミツヤ多翼送風機
  0
TEXT
  5
7B5E
  8
4
  6
CONTINUOUS
 10
3559.9634869999991
 20
951.47875299999987
 30
0.0
 40
150.0
  1
MF#5 1/2-4
  0
TEXT
  5
7B60
  8
4
  6
CONTINUOUS
 10
2714.3572960000001
 20
7150.2865239999992
 30
0.0
 40
162.0
  1
床置ベット
  0
TEXT
  5
7B61
  8
4
  6
CONTINUOUS
 10
948.50278000000014
 20
7601.6429289999996
 30
0.0
 40
216.0
  1
ベルト駆動式片吸込両持多翼ファン
  0
LINE
  5
7B62
  8
4
  6
CONTINUOUS
 10
750.0
 20
7408.2262629999996
 30
0.0
 11
5550.0
 21
7408.2262629999996
 31
0.0
  0
LINE
  5
7B63
  8
4
  6
CONTINUOUS
 10
750.0
 20
8008.2262629999996
 30
0.0
 11
5550.0
 21
8008.2262629999996
 31
0.0
  0
LINE
  5
7B64
  8
4
  6
CONTINUOUS
 10
1950.0
 20
1500.0
 30
0.0
 11
5550.0
 21
1500.0
 31
0.0
  0
LINE
  5
7B65
  8
4
  6
CONTINUOUS
 10
750.0
 20
8008.2262629999996
 30
0.0
 11
750.0
 21
7408.2262629999996
 31
0.0
  0
TEXT
  5
7B66
  8
4
  6
CONTINUOUS
 10
1406.7807999999991
 20
7146.9584329999998
 30
0.0
 40
162.0
  1
左回転上向
  0
TEXT
  5
7B67
  8
4
  6
CONTINUOUS
 10
4406.9086779999989
 20
8118.1832439999989
 30
0.0
 40
168.0
  1
No.
  0
TEXT
  5
7B68
  8
4
  6
CONTINUOUS
 10
3933.8881879999999
 20
7150.2865239999992
 30
0.0
 40
162.0
  1
縮尺：1/30
  0
LINE
  5
7B69
  8
4
  6
CONTINUOUS
 10
5550.0
 20
8008.2262629999996
 30
0.0
 11
5550.0
 21
7408.2262629999996
 31
0.0
  0
LINE
  5
7B6B
  8
4
  6
CONTINUOUS
 10
4321.8522670000002
 20
8043.7907490000007
 30
0.0
 11
4321.8522670000002
 21
8359.9567849999985
 31
0.0
  0
LINE
  5
7B6C
  8
4
  6
CONTINUOUS
 10
4321.8522670000002
 20
8359.9567849999985
 30
0.0
 11
5550.0
 21
8359.9567849999985
 31
0.0
  0
LINE
  5
7B6D
  8
4
  6
CONTINUOUS
 10
5550.0
 20
8359.9567849999985
 30
0.0
 11
5550.0
 21
8043.7907490000007
 31
0.0
  0
LINE
  5
7B6E
  8
4
  6
CONTINUOUS
 10
5550.0
 20
8043.7907490000007
 30
0.0
 11
4321.8522670000002
 21
8043.7907490000007
 31
0.0
  0
DIMENSION
  5
7B86
  8
3
  6
CONTINUOUS
  2
*D1
 10
2038.127825
 20
3834.8467319999991
 30
0.0
 11
2506.1111199999991
 21
3834.8467319999991
 31
0.0
 70
   128
 13
2963.127825
 23
3641.8447740000001
 33
0.0
 14
2038.127825
 24
3641.8447740000001
 34
0.0
1001
ACAD
1000
DSTYLE
1002
{
1070
   287
1070
     3
1070
    40
1040
30.0
1070
   143
1040
0.039
1070
   172
1070
     1
1070
   271
1070
     0
1070
   279
1070
     0
1070
   288
1070
     1
1002
}
  0
DIMENSION
  5
7B93
  8
3
  6
CONTINUOUS
  2
*D2
 10
2080.1278249999991
 20
4013.3858489999998
 30
0.0
 11
2506.1111199999991
 21
4013.3858489999998
 31
0.0
 70
   128
 13
2963.127825
 23
3641.8447740000001
 33
0.0
 14
2080.1278249999991
 24
3840.7275169999998
 34
0.0
1001
ACAD
1000
DSTYLE
1002
{
1070
   287
1070
     3
1070
    40
1040
30.0
1070
   143
1040
0.039
1070
   172
1070
     1
1070
   271
1070
     0
1070
   279
1070
     0
1070
   288
1070
     1
1002
}
  0
DIMENSION
  5
7BAC
  8
3
  6
CONTINUOUS
  2
*D3
 10
2080.1278249999991
 20
1992.811301
 30
0.0
 11
1785.2707729999991
 21
1992.811301
 31
0.0
 70
   128
 13
1510.127825
 23
2221.8447740000001
 33
0.0
 14
2080.1278249999991
 24
2062.7382659999989
 34
0.0
1001
ACAD
1000
DSTYLE
1002
{
1070
   287
1070
     3
1070
    40
1040
30.0
1070
   143
1040
0.039
1070
   172
1070
     1
1070
   271
1070
     0
1070
   279
1070
     0
1070
   288
1070
     1
1002
}
  0
DIMENSION
  5
7BB8
  8
3
  6
CONTINUOUS
  2
*D4
 10
3260.127825
 20
1992.811301
 30
0.0
 11
2670.127825
 21
2067.8113010000002
 31
0.0
 70
     0
 13
2080.1278249999991
 23
2062.7382659999989
 33
0.0
 14
3260.127825
 24
2221.8447740000001
 34
0.0
1001
ACAD
1000
DSTYLE
1002
{
1070
   287
1070
     4
1070
    40
1040
30.0
1070
    75
1070
     1
1070
   143
1040
0.039
1070
   172
1070
     1
1070
   271
1070
     0
1070
   279
1070
     1
1070
   288
1070
     1
1002
}
  0
DIMENSION
  5
7BC5
  8
3
  6
CONTINUOUS
  2
*D5
 10
1286.2274970000001
 20
2986.8447739999988
 30
0.0
 11
1286.2274970000001
 21
3279.524288999999
 31
0.0
 70
   128
 13
1995.627825
 23
3641.8447740000001
 33
0.0
 14
1350.3422449999989
 24
2986.8447739999988
 34
0.0
 50
90.0
1001
ACAD
1000
DSTYLE
1002
{
1070
   287
1070
     3
1070
    40
1040
30.0
1070
   143
1040
0.039
1070
   172
1070
     1
1070
   271
1070
     0
1070
   279
1070
     0
1070
   288
1070
     1
1002
}
  0
DIMENSION
  5
7BD1
  8
3
  6
CONTINUOUS
  2
*D6
 10
1286.2274970000001
 20
2221.8447740000001
 30
0.0
 11
1211.2274970000001
 21
2604.3447740000001
 31
0.0
 70
     0
 13
1350.3422449999989
 23
2986.8447739999988
 33
0.0
 14
1510.127825
 24
2221.8447740000001
 34
0.0
 50
90.0
1001
ACAD
1000
DSTYLE
1002
{
1070
   287
1070
     4
1070
    40
1040
30.0
1070
    75
1070
     1
1070
   143
1040
0.039
1070
   172
1070
     1
1070
   271
1070
     0
1070
   279
1070
     1
1070
   288
1070
     1
1002
}
  0
DIMENSION
  5
7BDE
  8
3
  6
CONTINUOUS
  2
*D7
 10
1027.4642919999999
 20
2221.8447740000001
 30
0.0
 11
1027.4642919999999
 21
2867.0373399999989
 31
0.0
 70
   128
 13
1980.627825
 23
3641.8447740000001
 33
0.0
 14
1510.127825
 24
2221.8447740000001
 34
0.0
 50
90.0
1001
ACAD
1000
DSTYLE
1002
{
1070
   287
1070
     3
1070
    40
1040
30.0
1070
   143
1040
0.039
1070
   172
1070
     1
1070
   271
1070
     0
1070
   279
1070
     0
1070
   288
1070
     1
1002
}
  0
DIMENSION
  5
7BEB
  8
3
  6
CONTINUOUS
  2
*D8
 10
4508.8801329999988
 20
3789.0399579999998
 30
0.0
 11
4840.9547469999998
 21
3789.0399579999998
 31
0.0
 70
   128
 13
5178.8801329999988
 23
3641.8447740000001
 33
0.0
 14
4508.8801329999988
 24
3641.8447740000001
 34
0.0
1001
ACAD
1000
DSTYLE
1002
{
1070
   287
1070
     3
1070
    40
1040
30.0
1070
   143
1040
0.039
1070
   172
1070
     1
1070
   271
1070
     0
1070
   279
1070
     0
1070
   288
1070
     1
1002
}
  0
LINE
  5
7BEC
  8
1
  6
CONTINUOUS
 10
5182.8801329999997
 20
3461.8447740000001
 30
0.0
 11
5182.8801329999997
 21
2511.8447740000001
 31
0.0
  0
DIMENSION
  5
7BFB
  8
3
  6
CONTINUOUS
  2
*D9
 10
5420.0914249999996
 20
2511.8447740000001
 30
0.0
 11
5420.0914249999987
 21
2996.3242959999998
 31
0.0
 70
   128
 13
5182.8801329999997
 23
3461.8447740000001
 33
0.0
 14
5182.8801329999997
 24
2511.8447740000001
 34
0.0
 50
90.0
1001
ACAD
1000
DSTYLE
1002
{
1070
   287
1070
     3
1070
     3
1000
φ<>
1070
    40
1040
30.0
1070
   143
1040
0.039
1070
   172
1070
     1
1070
   271
1070
     0
1070
   279
1070
     0
1070
   288
1070
     1
1002
}
  0
DIMENSION
  5
7C0A
  8
3
  6
CONTINUOUS
  2
*D10
 10
4843.8801329999988
 20
3967.579095000001
 30
0.0
 11
5013.3801329999997
 21
4048.4772350023368
 31
0.0
 70
   128
 13
5182.8801329999997
 23
3461.8447740000001
 33
0.0
 14
4843.8801329999988
 24
3935.368907
 34
0.0
1001
ACAD
1000
DSTYLE
1002
{
1070
   288
1070
     1
1070
   172
1070
     1
1070
    40
1040
30.0
1070
   271
1070
     0
1070
   143
1040
0.039
1002
}
  0
DIMENSION
  5
7C16
  8
3
  6
CONTINUOUS
  2
*D11
 10
4233.8801329999988
 20
3967.579095000001
 30
0.0
 11
4538.8801329999997
 21
4117.579095000001
 31
0.0
 70
     0
  1
MAX\P640
 13
4843.8801329999988
 23
3935.368907
 33
0.0
 14
4233.8801329999988
 24
3491.8447740000001
 34
0.0
1001
ACAD
1000
DSTYLE
1002
{
1070
   287
1070
     4
1070
    40
1040
30.0
1070
    75
1070
     1
1070
   143
1040
0.039
1070
   172
1070
     1
1070
   271
1070
     0
1070
   279
1070
     1
1070
   288
1070
     1
1002
}
  0
DIMENSION
  5
7C23
  8
3
  6
CONTINUOUS
  2
*D12
 10
4843.8801329999988
 20
1990.1001920000001
 30
0.0
 11
4600.6746419999999
 21
1990.1001920000001
 31
0.0
 70
   128
 13
4310.8801329999997
 23
2221.8447740000001
 33
0.0
 14
4843.8801329999988
 24
2057.3336389999999
 34
0.0
1001
ACAD
1000
DSTYLE
1002
{
1070
   287
1070
     3
1070
    40
1040
30.0
1070
   143
1040
0.039
1070
   172
1070
     1
1070
   271
1070
     0
1070
   279
1070
     0
1070
   288
1070
     1
1002
}
  0
DIMENSION
  5
7C31
  8
3
  6
CONTINUOUS
  2
*D13
 10
5230.8801329999988
 20
1990.1001920000001
 30
0.0
 11
5055.1679880000002
 21
1987.6887710000001
 31
0.0
 70
   128
 13
4843.8801329999988
 23
2057.3336389999999
 33
0.0
 14
5230.8801329999988
 24
2221.8447740000001
 34
0.0
1001
ACAD
1000
DSTYLE
1002
{
1070
   287
1070
     4
1070
    40
1040
30.0
1070
    75
1070
     1
1070
   143
1040
0.039
1070
   172
1070
     1
1070
   271
1070
     0
1070
   279
1070
     1
1070
   288
1070
     1
1002
}
  0
DIMENSION
  5
7C55
  8
3
  6
CONTINUOUS
  2
*D14
 10
3260.127825
 20
6515.5005730000003
 30
0.0
 11
2358.246451
 21
6515.5005730000003
 31
0.0
 70
   128
 13
1510.127825
 23
6341.259235999999
 33
0.0
 14
3260.127825
 24
6341.259235999999
 34
0.0
1001
ACAD
1000
DSTYLE
1002
{
1070
   287
1070
     3
1070
    40
1040
30.0
1070
   143
1040
0.039
1070
   172
1070
     1
1070
   271
1070
     0
1070
   279
1070
     0
1070
   288
1070
     1
1002
}
  0
DIMENSION
  5
7C62
  8
3
  6
CONTINUOUS
  2
*D15
 10
3522.6808409999999
 20
5421.2592359999999
 30
0.0
 11
3522.680840999999
 21
5850.5962659999996
 31
0.0
 70
   128
 13
3260.127825
 23
6341.259235999999
 33
0.0
 14
3260.127825
 24
5421.2592359999999
 34
0.0
 50
90.0
1001
ACAD
1000
DSTYLE
1002
{
1070
   287
1070
     3
1070
    40
1040
30.0
1070
   143
1040
0.039
1070
   172
1070
     1
1070
   271
1070
     0
1070
   279
1070
     0
1070
   288
1070
     1
1002
}
  0
DIMENSION
  5
7C74
  8
3
  6
CONTINUOUS
  2
*D16
 10
1437.1328820082681
 20
4013.3858489999998
 30
0.0
 11
1758.6303535041341
 21
4088.3858489999998
 31
0.0
 70
     0
 13
2080.1278249999991
 23
3840.7275169999998
 33
0.0
 14
1437.1328820082681
 24
2986.8447740000001
 34
0.0
1001
ACAD
1000
DSTYLE
1002
{
1070
   287
1070
     4
1070
    40
1040
30.0
1070
    75
1070
     1
1070
   143
1040
0.039
1070
   172
1070
     1
1070
   271
1070
     0
1070
   279
1070
     1
1070
   288
1070
     1
1002
}
  0
LINE
  5
7D50
  8
1
  6
CONTINUOUS
 10
1520.1278249999989
 20
3441.8447739999988
 30
0.0
 11
2640.127825
 21
3441.8447739999988
 31
0.0
  0
LINE
  5
7D51
  8
1
 10
1520.127825
 20
2321.8447740000001
 30
0.0
 11
1520.1278249999989
 21
3441.8447739999988
 31
0.0
  0
LINE
  5
7D52
  8
1
 10
2640.127825
 20
2321.8447739999988
 30
0.0
 11
2640.127825
 21
3441.8447739999988
 31
0.0
  0
ENDSEC
  0
EOF
