  0
SECTION
  2
HEADER
  9
$ACADVER
  1
AC1009
  9
$INSBASE
 10
0.0
 20
0.0
 30
0.0
  9
$EXTMIN
 10
750.0
 20
900.0
 30
0.0
  9
$EXTMAX
 10
5550.0
 20
8359.9567849999985
 30
0.0
  9
$LIMMIN
 10
0.0
 20
0.0
  9
$LIMMAX
 10
297.0
 20
210.0
  9
$ORTHOMODE
 70
     0
  9
$REGENMODE
 70
     1
  9
$FILLMODE
 70
     0
  9
$QTEXTMODE
 70
     0
  9
$MIRRTEXT
 70
     1
  9
$DRAGMODE
 70
     2
  9
$LTSCALE
 40
100.0
  9
$OSMODE
 70
    37
  9
$ATTMODE
 70
     1
  9
$TEXTSIZE
 40
180.0
  9
$TRACEWID
 40
0.05
  9
$TEXTSTYLE
  7
STANDARD
  9
$CLAYER
  8
3
  9
$CELTYPE
  6
BYLAYER
  9
$CECOLOR
 62
   256
  9
$DIMSCALE
 40
30.0
  9
$DIMASZ
 40
2.0
  9
$DIMEXO
 40
0.5
  9
$DIMDLI
 40
10.0
  9
$DIMRND
 40
0.0
  9
$DIMDLE
 40
0.0
  9
$DIMEXE
 40
1.0
  9
$DIMTP
 40
1.0
  9
$DIMTM
 40
1.0
  9
$DIMTXT
 40
3.0
  9
$DIMCEN
 40
0.0
  9
$DIMTSZ
 40
0.0
  9
$DIMTOL
 70
     0
  9
$DIMLIM
 70
     0
  9
$DIMTIH
 70
     0
  9
$DIMTOH
 70
     0
  9
$DIMSE1
 70
     0
  9
$DIMSE2
 70
     0
  9
$DIMTAD
 70
     1
  9
$DIMZIN
 70
     8
  9
$DIMBLK
  1

  9
$DIMASO
 70
     1
  9
$DIMSHO
 70
     1
  9
$DIMPOST
  1

  9
$DIMAPOST
  1

  9
$DIMALT
 70
     0
  9
$DIMALTD
 70
     2
  9
$DIMALTF
 40
0.039
  9
$DIMLFAC
 40
1.0
  9
$DIMTOFL
 70
     1
  9
$DIMTVP
 40
0.0
  9
$DIMTIX
 70
     0
  9
$DIMSOXD
 70
     0
  9
$DIMSAH
 70
     1
  9
$DIMBLK1
  1
OPEN
  9
$DIMBLK2
  1
OPEN
  9
$DIMSTYLE
  2
IGA
  9
$DIMCLRD
 70
     0
  9
$DIMCLRE
 70
     0
  9
$DIMCLRT
 70
     0
  9
$DIMTFAC
 40
10.0
  9
$DIMGAP
 40
1.0
  9
$LUNITS
 70
     2
  9
$LUPREC
 70
     3
  9
$SKETCHINC
 40
0.1
  9
$FILLETRAD
 40
50.0
  9
$AUNITS
 70
     0
  9
$AUPREC
 70
     0
  9
$MENU
  1
acad
  9
$ELEVATION
 40
0.0
  9
$PELEVATION
 40
0.0
  9
$THICKNESS
 40
0.0
  9
$LIMCHECK
 70
     0
  9
$BLIPMODE
 70
     0
  9
$CHAMFERA
 40
0.5
  9
$CHAMFERB
 40
0.5
  9
$SKPOLY
 70
     0
  9
$TDCREATE
 40
2450752.5434349529
  9
$TDUPDATE
 40
2454953.7768003009
  9
$TDINDWG
 40
0.0212750926
  9
$TDUSRTIMER
 40
0.0212750926
  9
$USRTIMER
 70
     1
  9
$ANGBASE
 50
0.0
  9
$ANGDIR
 70
     0
  9
$PDMODE
 70
     0
  9
$PDSIZE
 40
0.0
  9
$PLINEWID
 40
0.0
  9
$COORDS
 70
     1
  9
$SPLFRAME
 70
     0
  9
$SPLINETYPE
 70
     6
  9
$SPLINESEGS
 70
     8
  9
$ATTDIA
 70
     0
  9
$ATTREQ
 70
     1
  9
$HANDLING
 70
 10241
  9
$HANDSEED
  5
7F5C
  9
$SURFTAB1
 70
     6
  9
$SURFTAB2
 70
     6
  9
$SURFTYPE
 70
     6
  9
$SURFU
 70
     6
  9
$SURFV
 70
     6
  9
$UCSNAME
  2

  9
$UCSORG
 10
0.0
 20
0.0
 30
0.0
  9
$UCSXDIR
 10
1.0
 20
0.0
 30
0.0
  9
$UCSYDIR
 10
0.0
 20
1.0
 30
0.0
  9
$PUCSNAME
  2

  9
$PUCSORG
 10
0.0
 20
0.0
 30
0.0
  9
$PUCSXDIR
 10
1.0
 20
0.0
 30
0.0
  9
$PUCSYDIR
 10
0.0
 20
1.0
 30
0.0
  9
$USERI1
 70
     0
  9
$USERI2
 70
     0
  9
$USERI3
 70
     0
  9
$USERI4
 70
     0
  9
$USERI5
 70
     0
  9
$USERR1
 40
0.0
  9
$USERR2
 40
0.0
  9
$USERR3
 40
0.0
  9
$USERR4
 40
0.0
  9
$USERR5
 40
0.0
  9
$WORLDVIEW
 70
     1
  9
$SHADEDGE
 70
     3
  9
$SHADEDIF
 70
    70
  9
$TILEMODE
 70
     1
  9
$MAXACTVP
 70
    16
  9
$PLIMCHECK
 70
     0
  9
$PEXTMIN
 10
1.0000000000000000E+020
 20
1.0000000000000000E+020
 30
1.0000000000000000E+020
  9
$PEXTMAX
 10
-1.0000000000000000E+020
 20
-1.0000000000000000E+020
 30
-1.0000000000000000E+020
  9
$PLIMMIN
 10
0.0
 20
0.0
  9
$PLIMMAX
 10
12.0
 20
9.0
  9
$UNITMODE
 70
     0
  9
$VISRETAIN
 70
     0
  9
$PLINEGEN
 70
     0
  9
$PSLTSCALE
 70
     1
  0
ENDSEC
  0
SECTION
  2
TABLES
  0
TABLE
  2
VPORT
 70
     2
  0
VPORT
  2
*ACTIVE
 70
     0
 10
0.0
 20
0.0
 11
1.0
 21
1.0
 12
9438.1687158055174
 22
4629.9562499988788
 13
0.0
 23
0.0
 14
10.0
 24
10.0
 15
10.0
 25
10.0
 16
0.0
 26
0.0
 36
1.0
 17
0.0
 27
0.0
 37
0.0
 40
7517.2452868940854
 41
3.1666666666666661
 42
50.0
 43
0.0
 44
0.0
 50
0.0
 51
0.0
 71
     0
 72
   100
 73
     1
 74
     0
 75
     0
 76
     0
 77
     0
 78
     0
  0
ENDTAB
  0
TABLE
  2
LTYPE
 70
     2
  0
LTYPE
  2
CONTINUOUS
 70
     0
  3
Solid line
 72
    65
 73
     0
 40
0.0
  0
LTYPE
  2
CENTER
 70
     0
  3
____ _ ____ _ ____ _ ____ _ ____ _ ____ _ ____ 
 72
    65
 73
     4
 40
2.0
 49
1.25
 49
-0.25
 49
0.25
 49
-0.25
  0
ENDTAB
  0
TABLE
  2
LAYER
 70
     6
  0
LAYER
  2
0
 70
     0
 62
     7
  6
CONTINUOUS
  0
LAYER
  2
3
 70
     0
 62
     2
  6
CONTINUOUS
  0
LAYER
  2
2
 70
     0
 62
     3
  6
CENTER
  0
LAYER
  2
1
 70
     0
 62
     4
  6
CONTINUOUS
  0
LAYER
  2
4
 70
     0
 62
     7
  6
CONTINUOUS
  0
LAYER
  2
DEFPOINTS
 70
     0
 62
    -7
  6
CONTINUOUS
  0
ENDTAB
  0
TABLE
  2
STYLE
 70
     1
  0
STYLE
  2
STANDARD
 70
     0
 40
0.0
 41
1.0
 50
0.0
 71
     0
 42
180.0
  3
simplex.shx
  4
extfont.shx
  0
ENDTAB
  0
TABLE
  2
VIEW
 70
     0
  0
ENDTAB
  0
TABLE
  2
UCS
 70
     0
  0
ENDTAB
  0
TABLE
  2
APPID
 70
     1
  0
APPID
  2
ACAD
 70
     0
  0
ENDTAB
  0
TABLE
  2
DIMSTYLE
 70
     1
  0
DIMSTYLE
  2
IGA
 70
     0
  3

  4

  5

  6
OPEN
  7
OPEN
 40
2.0
 41
2.0
 42
0.5
 43
10.0
 44
1.0
 45
0.0
 46
0.0
 47
1.0
 48
1.0
140
3.0
141
0.0
142
0.0
143
0.03937
144
1.0
145
0.0
146
10.0
147
1.0
 71
     0
 72
     0
 73
     0
 74
     0
 75
     0
 76
     0
 77
     1
 78
     8
170
     0
171
     2
172
     0
173
     1
174
     0
175
     0
176
     0
177
     0
178
     0
  0
ENDTAB
  0
ENDSEC
  0
SECTION
  2
BLOCKS
  0
BLOCK
  8
0
  2
$MODEL_SPACE
 70
     0
 10
0.0
 20
0.0
 30
0.0
  3
$MODEL_SPACE
  1

  0
ENDBLK
  5
1B
  8
0
  0
BLOCK
 67
     1
  8
0
  2
$PAPER_SPACE
 70
     0
 10
0.0
 20
0.0
 30
0.0
  3
$PAPER_SPACE
  1

  0
ENDBLK
  5
18
 67
     1
  8
0
  0
BLOCK
  8
0
  2
_OPEN
 70
     0
 10
0.0
 20
0.0
 30
0.0
  3
_OPEN
  1

  0
LINE
  5
7BE0
  8
0
  6
BYBLOCK
 62
     0
 10
-1.0
 20
0.166667
 30
0.0
 11
0.0
 21
0.0
 31
0.0
  0
LINE
  5
7BE1
  8
0
  6
BYBLOCK
 62
     0
 10
0.0
 20
0.0
 30
0.0
 11
-1.0
 21
-0.166667
 31
0.0
  0
LINE
  5
7BE2
  8
0
  6
BYBLOCK
 62
     0
 10
0.0
 20
0.0
 30
0.0
 11
-1.0
 21
0.0
 31
0.0
  0
ENDBLK
  5
7BE3
  8
0
  0
BLOCK
  8
0
  2
*D1
 70
     1
 10
0.0
 20
0.0
 30
0.0
  3
*D1
  1

  0
LINE
  5
7EBE
  8
3
  6
CONTINUOUS
 62
     0
 10
1497.7172009999999
 20
3236.5402309999999
 30
0.0
 11
1300.7154408449289
 21
3236.5402309999999
 31
0.0
  0
LINE
  5
7EBF
  8
3
  6
CONTINUOUS
 62
     0
 10
1497.7172009999999
 20
2311.540230999999
 30
0.0
 11
1300.7154408449289
 21
2311.540230999999
 31
0.0
  0
LINE
  5
7EC0
  8
3
  6
CONTINUOUS
 62
     0
 10
1330.7154408449289
 20
3176.5402309999999
 30
0.0
 11
1330.7154408449289
 21
2371.540230999999
 31
0.0
  0
INSERT
  5
7EC1
  8
3
  6
CONTINUOUS
 62
     0
  2
_OPEN
 10
1330.7154408449289
 20
3236.5402309999999
 30
0.0
 41
60.0
 42
60.0
 43
60.0
 50
90.0
  0
INSERT
  5
7EC2
  8
3
  6
CONTINUOUS
 62
     0
  2
_OPEN
 10
1330.7154408449289
 20
2311.540230999999
 30
0.0
 41
60.0
 42
60.0
 43
60.0
 50
270.0
  0
TEXT
  8
3
  40
90
  5
7F4C
  62
0
  72
0
  71
0
 10
1075.72
 20
2606.16
 30
0.000000
  1
925
  0
POINT
  5
7EC4
  8
DEFPOINTS
  6
CONTINUOUS
 62
     0
 10
1512.7172009999999
 20
3236.5402309999999
 30
0.0
  0
POINT
  5
7EC5
  8
DEFPOINTS
  6
CONTINUOUS
 62
     0
 10
1512.7172009999999
 20
2311.540230999999
 30
0.0
  0
POINT
  5
7EC6
  8
DEFPOINTS
  6
CONTINUOUS
 62
     0
 10
1330.7154408449289
 20
2311.540230999999
 30
0.0
  0
ENDBLK
  5
7DCE
  8
0
  0
BLOCK
  8
0
  2
*D2
 70
     1
 10
0.0
 20
0.0
 30
0.0
  3
*D2
  1

  0
LINE
  5
7EC7
  8
3
  6
CONTINUOUS
 62
     0
 10
1457.7172009999999
 20
2311.540230999999
 30
0.0
 11
1098.5348768449289
 21
2311.540230999999
 31
0.0
  0
LINE
  5
7EC8
  8
3
  6
CONTINUOUS
 62
     0
 10
1265.726345
 20
3194.540230999999
 30
0.0
 11
1098.5348768449289
 21
3194.540230999999
 31
0.0
  0
LINE
  5
7EC9
  8
3
  6
CONTINUOUS
 62
     0
 10
1128.5348768449289
 20
2371.540230999999
 30
0.0
 11
1128.5348768449289
 21
3134.5402309999999
 31
0.0
  0
INSERT
  5
7ECA
  8
3
  6
CONTINUOUS
 62
     0
  2
_OPEN
 10
1128.5348768449289
 20
2311.540230999999
 30
0.0
 41
60.0
 42
60.0
 43
60.0
 50
270.0
  0
INSERT
  5
7ECB
  8
3
  6
CONTINUOUS
 62
     0
  2
_OPEN
 10
1128.5348768449289
 20
3194.540230999999
 30
0.0
 41
60.0
 42
60.0
 43
60.0
 50
90.0
  0
TEXT
  8
3
  40
90
  5
7F4D
  62
0
  72
0
  71
0
 10
873.535
 20
2606.16
 30
0.000000
  1
883
  0
POINT
  5
7ECD
  8
DEFPOINTS
  6
CONTINUOUS
 62
     0
 10
1472.7172009999999
 20
2311.540230999999
 30
0.0
  0
POINT
  5
7ECE
  8
DEFPOINTS
  6
CONTINUOUS
 62
     0
 10
1280.726345
 20
3194.540230999999
 30
0.0
  0
POINT
  5
7ECF
  8
DEFPOINTS
  6
CONTINUOUS
 62
     0
 10
1128.5348768449289
 20
3194.540230999999
 30
0.0
  0
ENDBLK
  5
7DD9
  8
0
  0
BLOCK
  8
0
  2
*D3
 70
     1
 10
0.0
 20
0.0
 30
0.0
  3
*D3
  1

  0
LINE
  5
7ED0
  8
3
  6
CONTINUOUS
 62
     0
 10
1407.7172009999999
 20
1973.5402309999999
 30
0.0
 11
1407.7172009999999
 21
1687.741653
 31
0.0
  0
LINE
  5
7ED1
  8
3
  6
CONTINUOUS
 62
     0
 10
2167.7172009999999
 20
1822.216107
 30
0.0
 11
2167.7172009999999
 21
1687.741653
 31
0.0
  0
LINE
  5
7ED2
  8
3
  6
CONTINUOUS
 62
     0
 10
1467.7172009999999
 20
1717.741653
 30
0.0
 11
2107.7172009999999
 21
1717.741653
 31
0.0
  0
INSERT
  5
7ED3
  8
3
  6
CONTINUOUS
 62
     0
  2
_OPEN
 10
1407.7172009999999
 20
1717.741653
 30
0.0
 41
60.0
 42
60.0
 43
60.0
 50
180.0
  0
INSERT
  5
7ED4
  8
3
  6
CONTINUOUS
 62
     0
  2
_OPEN
 10
2167.7172009999999
 20
1717.741653
 30
0.0
 41
60.0
 42
60.0
 43
60.0
  0
TEXT
  8
3
  40
90
  5
7F4E
  62
0
  72
0
  71
0
 10
1606.28
 20
1633.44
 30
0.000000
  1
760
  0
POINT
  5
7ED6
  8
DEFPOINTS
  6
CONTINUOUS
 62
     0
 10
1407.7172009999999
 20
1988.540230999999
 30
0.0
  0
POINT
  5
7ED7
  8
DEFPOINTS
  6
CONTINUOUS
 62
     0
 10
2167.7172009999999
 20
1837.216107
 30
0.0
  0
POINT
  5
7ED8
  8
DEFPOINTS
  6
CONTINUOUS
 62
     0
 10
2167.7172009999999
 20
1717.741653
 30
0.0
  0
ENDBLK
  5
7C6C
  8
0
  0
BLOCK
  8
0
  2
*D4
 70
     1
 10
0.0
 20
0.0
 30
0.0
  3
*D4
  1

  0
LINE
  5
7ED9
  8
3
  6
CONTINUOUS
 62
     0
 10
3507.7172009999999
 20
1973.5402309999999
 30
0.0
 11
3507.7172009999999
 21
1687.741653
 31
0.0
  0
LINE
  5
7EDA
  8
3
  6
CONTINUOUS
 62
     0
 10
2227.7172009999999
 20
1717.741653
 30
0.0
 11
3447.717200999999
 21
1717.741653
 31
0.0
  0
INSERT
  5
7EDB
  8
3
  6
CONTINUOUS
 62
     0
  2
_OPEN
 10
2167.7172009999999
 20
1717.741653
 30
0.0
 41
60.0
 42
60.0
 43
60.0
 50
180.0
  0
INSERT
  5
7EDC
  8
3
  6
CONTINUOUS
 62
     0
  2
_OPEN
 10
3507.7172009999999
 20
1717.741653
 30
0.0
 41
60.0
 42
60.0
 43
60.0
  0
TEXT
  8
3
  40
90
  5
7F4F
  62
0
  72
0
  71
0
 10
2657.72
 20
1633.44
 30
0.000000
  1
1340
  0
POINT
  5
7EDE
  8
DEFPOINTS
  6
CONTINUOUS
 62
     0
 10
2167.7172009999999
 20
1837.216107
 30
0.0
  0
POINT
  5
7EDF
  8
DEFPOINTS
  6
CONTINUOUS
 62
     0
 10
3507.7172009999999
 20
1988.540230999999
 30
0.0
  0
POINT
  5
7EE0
  8
DEFPOINTS
  6
CONTINUOUS
 62
     0
 10
3507.7172009999999
 20
1717.741653
 30
0.0
  0
ENDBLK
  5
7C78
  8
0
  0
BLOCK
  8
0
  2
*D5
 70
     1
 10
0.0
 20
0.0
 30
0.0
  3
*D5
  1

  0
LINE
  5
7EE1
  8
3
  6
CONTINUOUS
 62
     0
 10
1512.7172009999999
 20
3294.0402309999999
 30
0.0
 11
1512.7172009999999
 21
4217.3535849999998
 31
0.0
  0
LINE
  5
7EE2
  8
3
  6
CONTINUOUS
 62
     0
 10
2167.7172009999999
 20
4080.5186816913078
 30
0.0
 11
2167.7172009999999
 21
4217.3535849999998
 31
0.0
  0
LINE
  5
7EE3
  8
3
  6
CONTINUOUS
 62
     0
 10
1572.7172009999999
 20
4187.3535849999989
 30
0.0
 11
2107.7172009999999
 21
4187.3535849999989
 31
0.0
  0
INSERT
  5
7EE4
  8
3
  6
CONTINUOUS
 62
     0
  2
_OPEN
 10
1512.7172009999999
 20
4187.3535849999989
 30
0.0
 41
60.0
 42
60.0
 43
60.0
 50
180.0
  0
INSERT
  5
7EE5
  8
3
  6
CONTINUOUS
 62
     0
  2
_OPEN
 10
2167.7172009999999
 20
4187.3535849999989
 30
0.0
 41
60.0
 42
60.0
 43
60.0
  0
TEXT
  8
3
  40
90
  5
7F50
  62
0
  72
0
  71
0
 10
1636.23
 20
4103.05
 30
0.000000
  1
655
  0
POINT
  5
7EE7
  8
DEFPOINTS
  6
CONTINUOUS
 62
     0
 10
1512.7172009999999
 20
3279.040230999999
 30
0.0
  0
POINT
  5
7EE8
  8
DEFPOINTS
  6
CONTINUOUS
 62
     0
 10
2167.7172009999999
 20
4065.5186816913078
 30
0.0
  0
POINT
  5
7EE9
  8
DEFPOINTS
  6
CONTINUOUS
 62
     0
 10
2167.7172009999999
 20
4187.3535849999989
 30
0.0
  0
ENDBLK
  5
7C85
  8
0
  0
BLOCK
  8
0
  2
*D6
 70
     1
 10
0.0
 20
0.0
 30
0.0
  3
*D6
  1

  0
LINE
  5
7EEA
  8
3
  6
CONTINUOUS
 62
     0
 10
4390.6088570000002
 20
3854.3365739999999
 30
0.0
 11
4390.6088570000002
 21
4202.3862439999994
 31
0.0
  0
LINE
  5
7EEB
  8
3
  6
CONTINUOUS
 62
     0
 10
5060.6088570000002
 20
3854.3365739999999
 30
0.0
 11
5060.6088570000002
 21
4202.3862439999994
 31
0.0
  0
LINE
  5
7EEC
  8
3
  6
CONTINUOUS
 62
     0
 10
4450.6088570000002
 20
4172.3862440000003
 30
0.0
 11
5000.6088570000002
 21
4172.3862440000003
 31
0.0
  0
INSERT
  5
7EED
  8
3
  6
CONTINUOUS
 62
     0
  2
_OPEN
 10
4390.6088570000002
 20
4172.3862440000003
 30
0.0
 41
60.0
 42
60.0
 43
60.0
 50
180.0
  0
INSERT
  5
7EEE
  8
3
  6
CONTINUOUS
 62
     0
  2
_OPEN
 10
5060.6088570000002
 20
4172.3862440000003
 30
0.0
 41
60.0
 42
60.0
 43
60.0
  0
TEXT
  8
3
  40
90
  5
7F51
  62
0
  72
0
  71
0
 10
4545.03
 20
4088.09
 30
0.000000
  1
670
  0
POINT
  5
7EF0
  8
DEFPOINTS
  6
CONTINUOUS
 62
     0
 10
4390.6088570000002
 20
3839.3365739999999
 30
0.0
  0
POINT
  5
7EF1
  8
DEFPOINTS
  6
CONTINUOUS
 62
     0
 10
5060.6088570000002
 20
3839.3365739999999
 30
0.0
  0
POINT
  5
7EF2
  8
DEFPOINTS
  6
CONTINUOUS
 62
     0
 10
5060.6088570000002
 20
4172.3862440000003
 30
0.0
  0
ENDBLK
  5
7C92
  8
0
  0
BLOCK
  8
0
  2
*D7
 70
     1
 10
0.0
 20
0.0
 30
0.0
  3
*D7
  1

  0
LINE
  5
7EF3
  8
3
  6
CONTINUOUS
 62
     0
 10
5079.6088570000002
 20
3669.5402309999999
 30
0.0
 11
5535.767600000001
 21
3669.5402309999999
 31
0.0
  0
LINE
  5
7EF4
  8
3
  6
CONTINUOUS
 62
     0
 10
5079.6088570000002
 20
2719.540230999999
 30
0.0
 11
5535.767600000001
 21
2719.540230999999
 31
0.0
  0
LINE
  5
7EF5
  8
3
  6
CONTINUOUS
 62
     0
 10
5505.7676000000019
 20
3609.540230999999
 30
0.0
 11
5505.7676000000019
 21
2779.540230999999
 31
0.0
  0
INSERT
  5
7EF6
  8
3
  6
CONTINUOUS
 62
     0
  2
_OPEN
 10
5505.7676000000019
 20
3669.5402309999999
 30
0.0
 41
60.0
 42
60.0
 43
60.0
 50
90.0
  0
INSERT
  5
7EF7
  8
3
  6
CONTINUOUS
 62
     0
  2
_OPEN
 10
5505.7676000000019
 20
2719.540230999999
 30
0.0
 41
60.0
 42
60.0
 43
60.0
 50
270.0
  0
TEXT
  8
3
  40
90
  5
7F52
  62
0
  72
0
  71
0
 10
5250.77
 20
3025.24
 30
0.000000
  1
φ950
  0
POINT
  5
7EF9
  8
DEFPOINTS
  6
CONTINUOUS
 62
     0
 10
5064.6088570000002
 20
3669.5402309999999
 30
0.0
  0
POINT
  5
7EFA
  8
DEFPOINTS
  6
CONTINUOUS
 62
     0
 10
5064.6088570000002
 20
2719.540230999999
 30
0.0
  0
POINT
  5
7EFB
  8
DEFPOINTS
  6
CONTINUOUS
 62
     0
 10
5505.7676000000019
 20
2719.540230999999
 30
0.0
  0
ENDBLK
  5
7E23
  8
0
  0
BLOCK
  8
0
  2
*D8
 70
     1
 10
0.0
 20
0.0
 30
0.0
  3
*D8
  1

  0
LINE
  5
7E0F
  8
0
  6
BYBLOCK
 62
     0
 10
5064.6088570000002
 20
3684.5402309999999
 30
0.0
 11
5064.6088570000002
 21
4419.4127459999991
 31
0.0
  0
LINE
  5
7E10
  8
0
  6
BYBLOCK
 62
     0
 10
4725.6088570000002
 20
4343.1011119999994
 30
0.0
 11
4725.6088570000002
 21
4419.4127459999991
 31
0.0
  0
LINE
  5
7E11
  8
0
  6
BYBLOCK
 62
     0
 10
5004.6088570000002
 20
4389.412746
 30
0.0
 11
4785.6088570000002
 21
4389.412746
 31
0.0
  0
TEXT
  5
7E12
  8
3
 62
     0
 10
4781.5374284285708
 20
4423.3406722930113
 30
0.0
 40
90.0
  1
339
  0
INSERT
  5
7E13
  8
0
  6
BYBLOCK
 62
     0
  2
_OPEN
 10
5064.6088570000002
 20
4389.412746
 30
0.0
 41
60.0
 42
60.0
 43
60.0
  0
INSERT
  5
7E14
  8
0
  6
BYBLOCK
 62
     0
  2
_OPEN
 10
4725.6088570000002
 20
4389.412746
 30
0.0
 41
60.0
 42
60.0
 43
60.0
 50
180.0
  0
POINT
  5
7E15
  8
DEFPOINTS
  6
BYBLOCK
 62
     0
 10
5064.6088570000002
 20
3669.5402309999999
 30
0.0
  0
POINT
  5
7E16
  8
DEFPOINTS
  6
BYBLOCK
 62
     0
 10
4725.6088570000002
 20
4328.1011119999994
 30
0.0
  0
POINT
  5
7E17
  8
DEFPOINTS
  6
BYBLOCK
 62
     0
 10
4725.6088570000002
 20
4389.412746
 30
0.0
  0
ENDBLK
  5
7E18
  8
0
  0
BLOCK
  8
0
  2
*D9
 70
     1
 10
0.0
 20
0.0
 30
0.0
  3
*D9
  1

  0
LINE
  5
7EFC
  8
3
  6
CONTINUOUS
 62
     0
 10
3960.6088570000002
 20
3988.5402309999999
 30
0.0
 11
3759.0132350000008
 21
3988.5402309999999
 31
0.0
  0
LINE
  5
7EFD
  8
3
  6
CONTINUOUS
 62
     0
 10
3960.6088570000002
 20
1988.540230999999
 30
0.0
 11
3759.0132350000008
 21
1988.540230999999
 31
0.0
  0
LINE
  5
7EFE
  8
3
  6
CONTINUOUS
 62
     0
 10
3789.0132350000008
 20
3928.5402309999999
 30
0.0
 11
3789.0132349999999
 21
2048.5402309999999
 31
0.0
  0
INSERT
  5
7EFF
  8
3
  6
CONTINUOUS
 62
     0
  2
_OPEN
 10
3789.0132350000008
 20
3988.5402309999999
 30
0.0
 41
60.0
 42
60.0
 43
60.0
 50
90.0
  0
INSERT
  5
7F00
  8
3
  6
CONTINUOUS
 62
     0
  2
_OPEN
 10
3789.0132349999999
 20
1988.540230999999
 30
0.0
 41
60.0
 42
60.0
 43
60.0
 50
270.0
  0
TEXT
  8
3
  40
90
  5
7F53
  62
0
  72
0
  71
0
 10
3534.01
 20
2770.80
 30
0.000000
  1
2000
  0
POINT
  5
7F02
  8
DEFPOINTS
  6
CONTINUOUS
 62
     0
 10
3975.6088570000002
 20
3988.5402309999999
 30
0.0
  0
POINT
  5
7F03
  8
DEFPOINTS
  6
CONTINUOUS
 62
     0
 10
3975.6088570000002
 20
1988.540230999999
 30
0.0
  0
POINT
  5
7F04
  8
DEFPOINTS
  6
CONTINUOUS
 62
     0
 10
3789.0132349999999
 20
1988.540230999999
 30
0.0
  0
ENDBLK
  5
7CBE
  8
0
  0
BLOCK
  8
0
  2
*D10
 70
     1
 10
0.0
 20
0.0
 30
0.0
  3
*D10
  1

  0
LINE
  5
7F05
  8
3
  6
CONTINUOUS
 62
     0
 10
3975.6088570000002
 20
1973.5402309999999
 30
0.0
 11
3975.6088570000002
 21
1684.7640389999999
 31
0.0
  0
LINE
  5
7F06
  8
3
  6
CONTINUOUS
 62
     0
 10
4725.6088570000002
 20
1804.1246590000001
 30
0.0
 11
4725.6088570000002
 21
1684.7640389999999
 31
0.0
  0
LINE
  5
7F07
  8
3
  6
CONTINUOUS
 62
     0
 10
4035.6088570000002
 20
1714.7640389999999
 30
0.0
 11
4665.6088570000002
 21
1714.7640389999999
 31
0.0
  0
INSERT
  5
7F08
  8
3
  6
CONTINUOUS
 62
     0
  2
_OPEN
 10
3975.6088570000002
 20
1714.7640389999999
 30
0.0
 41
60.0
 42
60.0
 43
60.0
 50
180.0
  0
INSERT
  5
7F09
  8
3
  6
CONTINUOUS
 62
     0
  2
_OPEN
 10
4725.6088570000002
 20
1714.7640389999999
 30
0.0
 41
60.0
 42
60.0
 43
60.0
  0
TEXT
  8
3
  40
90
  5
7F54
  62
0
  72
0
  71
0
 10
4200.58
 20
1630.46
 30
0.000000
  1
750
  0
POINT
  5
7F0B
  8
DEFPOINTS
  6
CONTINUOUS
 62
     0
 10
3975.6088570000002
 20
1988.540230999999
 30
0.0
  0
POINT
  5
7F0C
  8
DEFPOINTS
  6
CONTINUOUS
 62
     0
 10
4725.6088570000002
 20
1819.1246590000001
 30
0.0
  0
POINT
  5
7F0D
  8
DEFPOINTS
  6
CONTINUOUS
 62
     0
 10
4725.6088570000002
 20
1714.7640389999999
 30
0.0
  0
ENDBLK
  5
7DB3
  8
0
  0
BLOCK
  8
0
  2
*D11
 70
     1
 10
0.0
 20
0.0
 30
0.0
  3
*D11
  1

  0
LINE
  5
7F0E
  8
3
  6
CONTINUOUS
 62
     0
 10
5275.6088570000002
 20
1973.5402309999999
 30
0.0
 11
5275.6088570000002
 21
1684.7640389999999
 31
0.0
  0
LINE
  5
7F0F
  8
3
  6
CONTINUOUS
 62
     0
 10
4785.6088570000002
 20
1714.7640389999999
 30
0.0
 11
5215.6088570000002
 21
1714.7640389999999
 31
0.0
  0
INSERT
  5
7F10
  8
3
  6
CONTINUOUS
 62
     0
  2
_OPEN
 10
4725.6088570000002
 20
1714.7640389999999
 30
0.0
 41
60.0
 42
60.0
 43
60.0
 50
180.0
  0
INSERT
  5
7F11
  8
3
  6
CONTINUOUS
 62
     0
  2
_OPEN
 10
5275.6088570000002
 20
1714.7640389999999
 30
0.0
 41
60.0
 42
60.0
 43
60.0
  0
TEXT
  8
3
  40
90
  5
7F55
  62
0
  72
0
  71
0
 10
4820.61
 20
1630.46
 30
0.000000
  1
550
  0
POINT
  5
7F13
  8
DEFPOINTS
  6
CONTINUOUS
 62
     0
 10
4725.6088570000002
 20
1819.1246590000001
 30
0.0
  0
POINT
  5
7F14
  8
DEFPOINTS
  6
CONTINUOUS
 62
     0
 10
5275.6088570000002
 20
1988.540230999999
 30
0.0
  0
POINT
  5
7F15
  8
DEFPOINTS
  6
CONTINUOUS
 62
     0
 10
5275.6088570000002
 20
1714.7640389999999
 30
0.0
  0
ENDBLK
  5
7DA8
  8
0
  0
BLOCK
  8
0
  2
*D12
 70
     1
 10
0.0
 20
0.0
 30
0.0
  3
*D12
  1

  0
LINE
  5
7F16
  8
3
  6
CONTINUOUS
 62
     0
 10
1407.7172009999999
 20
6359.4096454229457
 30
0.0
 11
1407.7172009999999
 21
6593.3132574229458
 31
0.0
  0
LINE
  5
7F17
  8
3
  6
CONTINUOUS
 62
     0
 10
3507.7172009999999
 20
6359.4096454229457
 30
0.0
 11
3507.7172009999999
 21
6593.3132574229458
 31
0.0
  0
LINE
  5
7F18
  8
3
  6
CONTINUOUS
 62
     0
 10
1467.7172009999999
 20
6563.3132574229458
 30
0.0
 11
3447.717200999999
 21
6563.3132574229458
 31
0.0
  0
INSERT
  5
7F19
  8
3
  6
CONTINUOUS
 62
     0
  2
_OPEN
 10
1407.7172009999999
 20
6563.3132574229458
 30
0.0
 41
60.0
 42
60.0
 43
60.0
 50
180.0
  0
INSERT
  5
7F1A
  8
3
  6
CONTINUOUS
 62
     0
  2
_OPEN
 10
3507.7172009999999
 20
6563.3132574229458
 30
0.0
 41
60.0
 42
60.0
 43
60.0
  0
TEXT
  8
3
  40
90
  5
7F56
  62
0
  72
0
  71
0
 10
2242.77
 20
6479.01
 30
0.000000
  1
2100
  0
POINT
  5
7F1C
  8
DEFPOINTS
  6
CONTINUOUS
 62
     0
 10
1407.7172009999999
 20
6344.4096454229457
 30
0.0
  0
POINT
  5
7F1D
  8
DEFPOINTS
  6
CONTINUOUS
 62
     0
 10
3507.7172009999999
 20
6344.4096454229457
 30
0.0
  0
POINT
  5
7F1E
  8
DEFPOINTS
  6
CONTINUOUS
 62
     0
 10
3507.7172009999999
 20
6563.3132574229458
 30
0.0
  0
ENDBLK
  5
7CF1
  8
0
  0
BLOCK
  8
0
  2
*D13
 70
     1
 10
0.0
 20
0.0
 30
0.0
  3
*D13
  1

  0
LINE
  5
7F1F
  8
3
  6
CONTINUOUS
 62
     0
 10
3331.419746
 20
6344.4096454229457
 30
0.0
 11
3843.806216904738
 21
6344.4096454229457
 31
0.0
  0
LINE
  5
7F20
  8
3
  6
CONTINUOUS
 62
     0
 10
3331.419746
 20
5044.4096454229466
 30
0.0
 11
3843.806216904738
 21
5044.4096454229466
 31
0.0
  0
LINE
  5
7F21
  8
3
  6
CONTINUOUS
 62
     0
 10
3813.806216904738
 20
6284.4096454229466
 30
0.0
 11
3813.8062169047371
 21
5104.4096454229466
 31
0.0
  0
INSERT
  5
7F22
  8
3
  6
CONTINUOUS
 62
     0
  2
_OPEN
 10
3813.806216904738
 20
6344.4096454229457
 30
0.0
 41
60.0
 42
60.0
 43
60.0
 50
90.0
  0
INSERT
  5
7F23
  8
3
  6
CONTINUOUS
 62
     0
  2
_OPEN
 10
3813.8062169047371
 20
5044.4096454229466
 30
0.0
 41
60.0
 42
60.0
 43
60.0
 50
270.0
  0
TEXT
  8
3
  40
90
  5
7F57
  62
0
  72
0
  71
0
 10
3558.81
 20
5573.33
 30
0.000000
  1
1300
  0
POINT
  5
7F25
  8
DEFPOINTS
  6
CONTINUOUS
 62
     0
 10
3316.419746
 20
6344.4096454229457
 30
0.0
  0
POINT
  5
7F26
  8
DEFPOINTS
  6
CONTINUOUS
 62
     0
 10
3316.419746
 20
5044.4096454229466
 30
0.0
  0
POINT
  5
7F27
  8
DEFPOINTS
  6
CONTINUOUS
 62
     0
 10
3813.8062169047371
 20
5044.4096454229466
 30
0.0
  0
ENDBLK
  5
7E48
  8
0
  0
BLOCK
  8
0
  2
*D14
 70
     1
 10
0.0
 20
0.0
 30
0.0
  3
*D14
  1

  0
LINE
  5
7F28
  8
3
  6
CONTINUOUS
 62
     0
 10
1250.726345
 20
3194.540230999999
 30
0.0
 11
921.26042784492915
 21
3194.5402309999999
 31
0.0
  0
LINE
  5
7F29
  8
3
  6
CONTINUOUS
 62
     0
 10
1582.7172009999999
 20
2104.5402309999999
 30
0.0
 11
921.26042784492904
 21
2104.5402309999999
 31
0.0
  0
LINE
  5
7F2A
  8
3
  6
CONTINUOUS
 62
     0
 10
951.26042784492927
 20
3134.5402309999999
 30
0.0
 11
951.26042784492893
 21
2164.5402309999999
 31
0.0
  0
INSERT
  5
7F2B
  8
3
  6
CONTINUOUS
 62
     0
  2
_OPEN
 10
951.26042784492927
 20
3194.5402309999999
 30
0.0
 41
60.0
 42
60.0
 43
60.0
 50
90.0
  0
INSERT
  5
7F2C
  8
3
  6
CONTINUOUS
 62
     0
  2
_OPEN
 10
951.26042784492893
 20
2104.5402309999999
 30
0.0
 41
60.0
 42
60.0
 43
60.0
 50
270.0
  0
TEXT
  8
3
  40
90
  5
7F58
  62
0
  72
0
  71
0
 10
696.260
 20
2478.09
 30
0.000000
  1
1090
  0
POINT
  5
7F2E
  8
DEFPOINTS
  6
CONTINUOUS
 62
     0
 10
1265.726345
 20
3194.540230999999
 30
0.0
  0
POINT
  5
7F2F
  8
DEFPOINTS
  6
CONTINUOUS
 62
     0
 10
1597.7172009999999
 20
2104.5402309999999
 30
0.0
  0
POINT
  5
7F30
  8
DEFPOINTS
  6
CONTINUOUS
 62
     0
 10
951.26042784492893
 20
2104.5402309999999
 30
0.0
  0
ENDBLK
  5
7DE4
  8
0
  0
BLOCK
  8
0
  2
*D15
 70
     1
 10
0.0
 20
0.0
 30
0.0
  3
*D15
  1

  0
LINE
  5
7F31
  8
3
  6
CONTINUOUS
 62
     0
 10
1582.7172009999999
 20
2104.5402309999999
 30
0.0
 11
921.26042784492904
 21
2104.5402309999999
 31
0.0
  0
LINE
  5
7F32
  8
3
  6
CONTINUOUS
 62
     0
 10
1392.717200999999
 20
1988.540230999999
 30
0.0
 11
921.26042784492904
 21
1988.540230999999
 31
0.0
  0
LINE
  5
7F33
  8
3
  6
CONTINUOUS
 62
     0
 10
951.26042784492893
 20
2164.5402309999999
 30
0.0
 11
951.26042784492893
 21
2224.5402309999999
 31
0.0
  0
LINE
  5
7F34
  8
3
  6
CONTINUOUS
 62
     0
 10
951.26042784492893
 20
1928.540230999999
 30
0.0
 11
951.26042784492893
 21
1615.6830881428571
 31
0.0
  0
LINE
  5
7F35
  8
3
  6
CONTINUOUS
 62
     0
 10
951.26042784492893
 20
2104.5402309999999
 30
0.0
 11
951.26042784492893
 21
1988.540230999999
 31
0.0
  0
INSERT
  5
7F36
  8
3
  6
CONTINUOUS
 62
     0
  2
_OPEN
 10
951.26042784492893
 20
2104.5402309999999
 30
0.0
 41
60.0
 42
60.0
 43
60.0
 50
270.0
  0
INSERT
  5
7F37
  8
3
  6
CONTINUOUS
 62
     0
  2
_OPEN
 10
951.26042784492893
 20
1988.540230999999
 30
0.0
 41
60.0
 42
60.0
 43
60.0
 50
90.0
  0
TEXT
  8
3
  40
90
  5
7F59
  62
0
  72
0
  71
0
 10
696.260
 20
1582.81
 30
0.000000
  1
116
  0
POINT
  5
7F39
  8
DEFPOINTS
  6
CONTINUOUS
 62
     0
 10
1597.7172009999999
 20
2104.5402309999999
 30
0.0
  0
POINT
  5
7F3A
  8
DEFPOINTS
  6
CONTINUOUS
 62
     0
 10
1407.7172009999999
 20
1988.540230999999
 30
0.0
  0
POINT
  5
7F3B
  8
DEFPOINTS
  6
CONTINUOUS
 62
     0
 10
951.26042784492893
 20
1988.540230999999
 30
0.0
  0
ENDBLK
  5
7E02
  8
0
  0
BLOCK
  8
0
  2
*D16
 70
     1
 10
0.0
 20
0.0
 30
0.0
  3
*D16
  1

  0
LINE
  5
7F3C
  8
3
 62
     0
 10
2910.7172009999999
 20
3209.5402309999999
 30
0.0
 11
2910.7172009999999
 21
4217.3535849999998
 31
0.0
  0
LINE
  5
7F3D
  8
3
 62
     0
 10
2227.7172009999999
 20
4187.3535849999989
 30
0.0
 11
2850.7172009999999
 21
4187.3535849999989
 31
0.0
  0
INSERT
  5
7F3E
  8
3
 62
     0
  2
_OPEN
 10
2167.7172009999999
 20
4187.3535849999989
 30
0.0
 41
60.0
 42
60.0
 43
60.0
 50
180.0
  0
INSERT
  5
7F3F
  8
3
 62
     0
  2
_OPEN
 10
2910.7172009999999
 20
4187.3535849999989
 30
0.0
 41
60.0
 42
60.0
 43
60.0
  0
TEXT
  8
3
  40
90
  5
7F5A
  62
0
  72
0
  71
0
 10
2359.22
 20
4103.05
 30
0.000000
  1
743
  0
POINT
  5
7F41
  8
DEFPOINTS
 62
     0
 10
2167.7172009999999
 20
4065.5186816913078
 30
0.0
  0
POINT
  5
7F42
  8
DEFPOINTS
 62
     0
 10
2910.7172009999999
 20
3194.540230999999
 30
0.0
  0
POINT
  5
7F43
  8
DEFPOINTS
 62
     0
 10
2910.7172009999999
 20
4187.3535849999989
 30
0.0
  0
ENDBLK
  5
7E2F
  8
0
  0
BLOCK
  8
0
  2
*D17
 70
     1
 10
0.0
 20
0.0
 30
0.0
  3
*D17
  1

  0
LINE
  5
7F44
  8
3
 62
     0
 10
2152.7172009999999
 20
3837.5351740638821
 30
0.0
 11
921.26042784492847
 21
3837.5351740638821
 31
0.0
  0
LINE
  5
7F45
  8
3
 62
     0
 10
951.26042784492836
 20
3254.5402309999999
 30
0.0
 11
951.26042784492859
 21
3777.5351740638821
 31
0.0
  0
INSERT
  5
7F46
  8
3
 62
     0
  2
_OPEN
 10
951.26042784492836
 20
3194.5402309999999
 30
0.0
 41
60.0
 42
60.0
 43
60.0
 50
270.0
  0
INSERT
  5
7F47
  8
3
 62
     0
  2
_OPEN
 10
951.26042784492859
 20
3837.5351740638821
 30
0.0
 41
60.0
 42
60.0
 43
60.0
 50
90.0
  0
TEXT
  8
3
  40
90
  5
7F5B
  62
0
  72
0
  71
0
 10
696.260
 20
3356.74
 30
0.000000
  1
643
  0
POINT
  5
7F49
  8
DEFPOINTS
 62
     0
 10
1265.726345
 20
3194.540230999999
 30
0.0
  0
POINT
  5
7F4A
  8
DEFPOINTS
 62
     0
 10
2167.7172009999999
 20
3837.5351740638821
 30
0.0
  0
POINT
  5
7F4B
  8
DEFPOINTS
 62
     0
 10
951.26042784492859
 20
3837.5351740638821
 30
0.0
  0
ENDBLK
  5
7E3C
  8
0
  0
ENDSEC
  0
SECTION
  2
ENTITIES
  0
POLYLINE
  5
7AFE
  8
1
  6
CONTINUOUS
 66
     1
 10
0.0
 20
0.0
 30
0.0
 70
     1
  0
VERTEX
  5
7E9A
  8
1
  6
CONTINUOUS
 10
1472.7172009999999
 20
2053.540230999999
 30
0.0
  0
VERTEX
  5
7E9B
  8
1
  6
CONTINUOUS
 10
3442.7172009999999
 20
2053.540230999999
 30
0.0
  0
VERTEX
  5
7E9C
  8
1
  6
CONTINUOUS
 10
3442.7172009999999
 20
3923.5402309999999
 30
0.0
  0
VERTEX
  5
7E9D
  8
1
  6
CONTINUOUS
 10
1472.7172009999999
 20
3923.5402309999999
 30
0.0
  0
SEQEND
  5
7E9E
  8
1
  6
CONTINUOUS
  0
POLYLINE
  5
7B04
  8
1
  6
CONTINUOUS
 66
     1
 10
0.0
 20
0.0
 30
0.0
 70
     1
  0
VERTEX
  5
7E9F
  8
1
  6
CONTINUOUS
 10
1407.7172009999999
 20
1988.540230999999
 30
0.0
  0
VERTEX
  5
7EA0
  8
1
  6
CONTINUOUS
 10
3507.7172009999999
 20
1988.540230999999
 30
0.0
  0
VERTEX
  5
7EA1
  8
1
  6
CONTINUOUS
 10
3507.7172009999999
 20
3988.5402309999999
 30
0.0
  0
VERTEX
  5
7EA2
  8
1
  6
CONTINUOUS
 10
1407.7172009999999
 20
3988.5402309999999
 30
0.0
  0
SEQEND
  5
7EA3
  8
1
  6
CONTINUOUS
  0
POLYLINE
  5
7B16
  8
1
  6
CONTINUOUS
 66
     1
 10
0.0
 20
0.0
 30
0.0
 70
     1
  0
VERTEX
  5
7EA4
  8
1
  6
CONTINUOUS
 10
3975.6088570000002
 20
1988.540230999999
 30
0.0
  0
VERTEX
  5
7EA5
  8
1
  6
CONTINUOUS
 10
5275.6088570000002
 20
1988.540230999999
 30
0.0
  0
VERTEX
  5
7EA6
  8
1
  6
CONTINUOUS
 10
5275.6088570000002
 20
3988.5402309999999
 30
0.0
  0
VERTEX
  5
7EA7
  8
1
  6
CONTINUOUS
 10
3975.6088570000002
 20
3988.5402309999999
 30
0.0
  0
SEQEND
  5
7EA8
  8
1
  6
CONTINUOUS
  0
POLYLINE
  5
7B1C
  8
1
  6
CONTINUOUS
 66
     1
 10
0.0
 20
0.0
 30
0.0
 70
     1
  0
VERTEX
  5
7EA9
  8
1
  6
CONTINUOUS
 10
4040.6088570000002
 20
2053.540230999999
 30
0.0
  0
VERTEX
  5
7EAA
  8
1
  6
CONTINUOUS
 10
5210.6088570000002
 20
2053.540230999999
 30
0.0
  0
VERTEX
  5
7EAB
  8
1
  6
CONTINUOUS
 10
5210.6088570000002
 20
3923.5402309999999
 30
0.0
  0
VERTEX
  5
7EAC
  8
1
  6
CONTINUOUS
 10
4040.6088570000002
 20
3923.5402309999999
 30
0.0
  0
SEQEND
  5
7EAD
  8
1
  6
CONTINUOUS
  0
POLYLINE
  5
7B22
  8
1
  6
CONTINUOUS
 66
     1
 10
0.0
 20
0.0
 30
0.0
  0
VERTEX
  5
7EAE
  8
1
  6
CONTINUOUS
 10
1512.7172009999999
 20
2311.540230999999
 30
0.0
  0
VERTEX
  5
7EAF
  8
1
  6
CONTINUOUS
 10
2167.7172009999999
 20
2333.5402309999999
 30
0.0
 42
0.4168370000000001
  0
VERTEX
  5
7EB0
  8
1
  6
CONTINUOUS
 10
2910.1571600000002
 20
3201.7141729999998
 30
0.0
 42
0.429867
  0
VERTEX
  5
7EB1
  8
1
  6
CONTINUOUS
 10
2123.8410399999989
 20
3832.965408
 30
0.0
 42
0.373172
  0
VERTEX
  5
7EB2
  8
1
  6
CONTINUOUS
 10
1599.7484730000001
 20
3236.5402309999999
 30
0.0
 42
0.34598
  0
SEQEND
  5
7EB3
  8
1
  6
CONTINUOUS
  0
LINE
  5
7B2C
  8
1
  6
CONTINUOUS
 10
5060.6088570000002
 20
3839.3365739999999
 30
0.0
 11
5060.6088570000002
 21
2204.5402309999999
 31
0.0
  0
LINE
  5
7B2D
  8
1
  6
CONTINUOUS
 10
4390.6088570000002
 20
3839.3365739999999
 30
0.0
 11
4390.6088570000002
 21
2204.5402309999999
 31
0.0
  0
LINE
  5
7B38
  8
1
  6
CONTINUOUS
 10
1597.717200999999
 20
2204.5402309999999
 30
0.0
 11
3347.7172009999999
 21
2204.5402309999999
 31
0.0
  0
LINE
  5
7B39
  8
1
  6
CONTINUOUS
 10
1597.7172009999999
 20
2104.5402309999999
 30
0.0
 11
3347.7172009999999
 21
2104.5402309999999
 31
0.0
  0
ARC
  5
7B3A
  8
1
  6
CONTINUOUS
 10
3147.7172009999999
 20
2454.5402309999999
 30
0.0
 40
162.0
 50
324.972283
 51
215.02771699999991
  0
LINE
  5
7B3B
  8
1
  6
CONTINUOUS
 10
3327.7172009999999
 20
2544.5402309999999
 30
0.0
 11
2347.7172009999999
 21
3634.5402309999999
 31
0.0
  0
CIRCLE
  5
7B3D
  8
1
  6
CONTINUOUS
 10
2167.7172009999999
 20
3194.540230999999
 30
0.0
 40
254.0
  0
LINE
  5
7B3E
  8
2
  6
CENTER
 10
5369.0167959999999
 20
3194.540230999999
 30
0.0
 11
3890.104104999999
 21
3194.540230999999
 31
0.0
  0
LINE
  5
7B3F
  8
1
  6
CONTINUOUS
 10
1687.7172009999999
 20
3634.5402309999999
 30
0.0
 11
2347.7172009999999
 21
3634.5402309999999
 31
0.0
  0
LINE
  5
7B40
  8
1
  6
CONTINUOUS
 10
3111.2570489999998
 20
2378.9989660000001
 30
0.0
 11
2044.238820999999
 21
2972.5738150000002
 31
0.0
  0
LINE
  5
7B41
  8
1
  6
CONTINUOUS
 10
1512.7172009999999
 20
3279.040230999999
 30
0.0
 11
1512.7172009999999
 21
2269.040230999999
 31
0.0
  0
LINE
  5
7B42
  8
1
  6
CONTINUOUS
 10
1687.7172009999999
 20
2204.5402309999999
 30
0.0
 11
1687.7172009999999
 21
3634.5402309999999
 31
0.0
  0
LINE
  5
7B43
  8
1
  6
CONTINUOUS
 10
1597.7172009999999
 20
2204.5402309999999
 30
0.0
 11
1597.7172009999999
 21
2104.5402309999999
 31
0.0
  0
LINE
  5
7B44
  8
1
  6
CONTINUOUS
 10
1552.7172009999999
 20
3236.5402309999999
 30
0.0
 11
1552.7172009999999
 21
2312.8837419999991
 31
0.0
  0
LINE
  5
7B45
  8
1
  6
CONTINUOUS
 10
1599.7484730000001
 20
3236.5402309999999
 30
0.0
 11
1512.7172009999999
 21
3236.5402309999999
 31
0.0
  0
LINE
  5
7B46
  8
1
  6
CONTINUOUS
 10
3015.0595349999999
 20
2361.5566640000002
 30
0.0
 11
2960.2172009999999
 21
2294.5402309999999
 31
0.0
  0
LINE
  5
7B47
  8
1
  6
CONTINUOUS
 10
2950.2172009999999
 20
2244.540230999999
 30
0.0
 11
2950.2172009999999
 21
2204.5402309999999
 31
0.0
  0
LINE
  5
7B48
  8
1
  6
CONTINUOUS
 10
2950.2172009999999
 20
2244.540230999999
 30
0.0
 11
2960.2172009999999
 21
2294.5402309999999
 31
0.0
  0
LINE
  5
7B49
  8
1
  6
CONTINUOUS
 10
3201.455571
 20
2496.858369
 30
0.0
 11
2349.7111489999988
 21
3371.7243239999998
 31
0.0
  0
LINE
  5
7B4A
  8
2
  6
CENTER
 10
2167.7172009999999
 20
1837.216107
 30
0.0
 11
2167.7172009999999
 21
4065.5186816913078
 31
0.0
  0
CIRCLE
  5
7B4B
  8
1
  6
CONTINUOUS
 10
3147.7172009999999
 20
2454.5402309999999
 30
0.0
 40
75.0
  0
LINE
  5
7B4C
  8
2
  6
CENTER
 10
3147.7172009999999
 20
2374.5402309999999
 30
0.0
 11
3147.7172009999999
 21
2534.5402309999999
 31
0.0
  0
LINE
  5
7B4D
  8
2
  6
CENTER
 10
3227.7172009999999
 20
2454.5402309999999
 30
0.0
 11
3067.7172009999999
 21
2454.5402309999999
 31
0.0
  0
LINE
  5
7B55
  8
1
  6
CONTINUOUS
 10
3335.2172009999999
 20
2294.5402309999999
 30
0.0
 11
3280.3748660000001
 21
2361.5566640000002
 31
0.0
  0
LINE
  5
7B56
  8
1
  6
CONTINUOUS
 10
3327.7172009999999
 20
2204.5402309999999
 30
0.0
 11
3327.7172009999999
 21
2544.5402309999999
 31
0.0
  0
LINE
  5
7B5B
  8
1
  6
CONTINUOUS
 10
3347.7172009999999
 20
2204.5402309999999
 30
0.0
 11
3347.7172009999999
 21
2104.5402309999999
 31
0.0
  0
LINE
  5
7B5C
  8
1
  6
CONTINUOUS
 10
3345.2172009999999
 20
2244.540230999999
 30
0.0
 11
3345.2172009999999
 21
2204.5402309999999
 31
0.0
  0
LINE
  5
7B5D
  8
1
  6
CONTINUOUS
 10
3335.2172009999999
 20
2294.5402309999999
 30
0.0
 11
3345.2172009999999
 21
2244.540230999999
 31
0.0
  0
LINE
  5
7B69
  8
1
  6
CONTINUOUS
 10
4390.6088570000002
 20
2311.540230999999
 30
0.0
 11
5060.6088570000002
 21
2311.540230999999
 31
0.0
  0
LINE
  5
7B6A
  8
1
  6
CONTINUOUS
 10
4390.6088570000002
 20
3236.5402309999999
 30
0.0
 11
5060.6088570000002
 21
3236.5402309999999
 31
0.0
  0
LINE
  5
7B6B
  8
1
  6
CONTINUOUS
 10
4192.6088570000002
 20
2204.5402309999999
 30
0.0
 11
5112.6088570000002
 21
2204.5402309999999
 31
0.0
  0
LINE
  5
7B6C
  8
1
  6
CONTINUOUS
 10
4390.6088570000002
 20
3236.5402309999999
 30
0.0
 11
5060.6088570000002
 21
2311.540230999999
 31
0.0
  0
LINE
  5
7B6D
  8
1
  6
CONTINUOUS
 10
4390.6088570000002
 20
2311.540230999999
 30
0.0
 11
5060.6088570000002
 21
3236.5402309999999
 31
0.0
  0
LINE
  5
7B6E
  8
1
  6
CONTINUOUS
 10
4192.6088570000002
 20
2104.5402309999999
 30
0.0
 11
5112.6088570000002
 21
2104.5402309999999
 31
0.0
  0
LINE
  5
7B6F
  8
1
  6
CONTINUOUS
 10
4337.6088570000002
 20
3634.5402309999999
 30
0.0
 11
4337.6088570000002
 21
2204.5402309999999
 31
0.0
  0
LINE
  5
7B70
  8
1
  6
CONTINUOUS
 10
4167.6088570000002
 20
3634.5402309999999
 30
0.0
 11
4167.6088570000002
 21
2204.5402309999999
 31
0.0
  0
LINE
  5
7B75
  8
1
  6
CONTINUOUS
 10
4192.6088570000002
 20
2204.5402309999999
 30
0.0
 11
4192.6088570000002
 21
2104.5402309999999
 31
0.0
  0
LINE
  5
7B76
  8
1
  6
CONTINUOUS
 10
4167.6088570000002
 20
2204.5402309999999
 30
0.0
 11
4192.6088570000002
 21
2204.5402309999999
 31
0.0
  0
LINE
  5
7B79
  8
1
  6
CONTINUOUS
 10
4304.6088570000002
 20
3448.5402309999999
 30
0.0
 11
4304.6088570000002
 21
2940.540230999999
 31
0.0
  0
LINE
  5
7B7A
  8
1
  6
CONTINUOUS
 10
4200.6088570000002
 20
3448.5402309999999
 30
0.0
 11
4200.6088570000002
 21
2940.540230999999
 31
0.0
  0
LINE
  5
7B7B
  8
1
  6
CONTINUOUS
 10
4304.6088570000002
 20
2529.5402309999999
 30
0.0
 11
4304.6088570000002
 21
2379.5402309999999
 31
0.0
  0
LINE
  5
7B7C
  8
1
  6
CONTINUOUS
 10
4200.6088570000002
 20
2529.5402309999999
 30
0.0
 11
4200.6088570000002
 21
2379.5402309999999
 31
0.0
  0
LINE
  5
7B7D
  8
1
  6
CONTINUOUS
 10
4304.6088570000002
 20
2433.5402309999999
 30
0.0
 11
4390.6088570000002
 21
2433.5402309999999
 31
0.0
  0
LINE
  5
7B7E
  8
1
  6
CONTINUOUS
 10
4304.6088570000002
 20
2475.5402309999999
 30
0.0
 11
4390.6088570000002
 21
2475.5402309999999
 31
0.0
  0
LINE
  5
7B7F
  8
1
  6
CONTINUOUS
 10
4200.6088570000002
 20
2379.5402309999999
 30
0.0
 11
4304.6088570000002
 21
2379.5402309999999
 31
0.0
  0
LINE
  5
7B80
  8
1
  6
CONTINUOUS
 10
4200.6088570000002
 20
2529.5402309999999
 30
0.0
 11
4304.6088570000002
 21
2529.5402309999999
 31
0.0
  0
LINE
  5
7B81
  8
1
  6
CONTINUOUS
 10
4200.6088570000002
 20
2940.540230999999
 30
0.0
 11
4304.6088570000002
 21
2940.540230999999
 31
0.0
  0
LINE
  5
7B82
  8
1
  6
CONTINUOUS
 10
4167.6088570000002
 20
3634.5402309999999
 30
0.0
 11
4337.6088570000002
 21
3634.5402309999999
 31
0.0
  0
LINE
  5
7B83
  8
1
  6
CONTINUOUS
 10
4304.6088570000002
 20
3169.5402309999999
 30
0.0
 11
4390.6088570000002
 21
3169.5402309999999
 31
0.0
  0
LINE
  5
7B84
  8
1
  6
CONTINUOUS
 10
4304.6088570000002
 20
3219.540230999999
 30
0.0
 11
4390.6088570000002
 21
3219.540230999999
 31
0.0
  0
LINE
  5
7B85
  8
1
  6
CONTINUOUS
 10
4200.6088570000002
 20
3448.5402309999999
 30
0.0
 11
4304.6088570000002
 21
3448.5402309999999
 31
0.0
  0
LINE
  5
7B86
  8
1
  6
CONTINUOUS
 10
5112.6088570000002
 20
2204.5402309999999
 30
0.0
 11
5112.6088570000002
 21
2104.5402309999999
 31
0.0
  0
POLYLINE
  5
7B87
  8
1
  6
CONTINUOUS
 66
     1
 10
0.0
 20
0.0
 30
0.0
 70
     1
  0
VERTEX
  5
7EB4
  8
1
  6
CONTINUOUS
 10
1472.7172009999999
 20
5109.4096454229457
 30
0.0
  0
VERTEX
  5
7EB5
  8
1
  6
CONTINUOUS
 10
3442.7172009999999
 20
5109.4096454229457
 30
0.0
  0
VERTEX
  5
7EB6
  8
1
  6
CONTINUOUS
 10
3442.7172009999999
 20
6279.4096454229466
 30
0.0
  0
VERTEX
  5
7EB7
  8
1
  6
CONTINUOUS
 10
1472.7172009999999
 20
6279.4096454229466
 30
0.0
  0
SEQEND
  5
7EB8
  8
1
  6
CONTINUOUS
  0
POLYLINE
  5
7B8D
  8
1
  6
CONTINUOUS
 66
     1
 10
0.0
 20
0.0
 30
0.0
 70
     1
  0
VERTEX
  5
7EB9
  8
1
  6
CONTINUOUS
 10
1407.7172009999999
 20
5044.4096454229466
 30
0.0
  0
VERTEX
  5
7EBA
  8
1
  6
CONTINUOUS
 10
3507.7172009999999
 20
5044.4096454229466
 30
0.0
  0
VERTEX
  5
7EBB
  8
1
  6
CONTINUOUS
 10
3507.7172009999999
 20
6344.4096454229457
 30
0.0
  0
VERTEX
  5
7EBC
  8
1
  6
CONTINUOUS
 10
1407.7172009999999
 20
6344.4096454229457
 30
0.0
  0
SEQEND
  5
7EBD
  8
1
  6
CONTINUOUS
  0
LINE
  5
7B93
  8
1
  6
CONTINUOUS
 10
1597.7172009999999
 20
5261.4096454229466
 30
0.0
 11
3347.7172009999999
 21
5261.4096454229466
 31
0.0
  0
LINE
  5
7B94
  8
1
  6
CONTINUOUS
 10
3309.7172009999999
 20
5417.4096454229466
 30
0.0
 11
2985.7172009999999
 21
5417.4096454229466
 31
0.0
  0
LINE
  5
7B95
  8
1
  6
CONTINUOUS
 10
3309.7172009999999
 20
5902.4096454229457
 30
0.0
 11
2985.7172009999999
 21
5902.4096454229457
 31
0.0
  0
LINE
  5
7B96
  8
1
  6
CONTINUOUS
 10
3327.7172009999999
 20
5406.4096454229466
 30
0.0
 11
1687.7172009999999
 21
5406.4096454229466
 31
0.0
  0
LINE
  5
7B97
  8
1
  6
CONTINUOUS
 10
3327.7172009999999
 20
5236.4096454229466
 30
0.0
 11
1687.7172009999999
 21
5236.4096454229466
 31
0.0
  0
LINE
  5
7B98
  8
1
  6
CONTINUOUS
 10
1597.7172009999999
 20
6181.4096454229457
 30
0.0
 11
3347.7172009999999
 21
6181.4096454229457
 31
0.0
  0
LINE
  5
7B9A
  8
1
  6
CONTINUOUS
 10
1512.7172009999999
 20
6129.4096454229457
 30
0.0
 11
2912.8844720000002
 21
6129.4096454229457
 31
0.0
  0
LINE
  5
7B9B
  8
1
  6
CONTINUOUS
 10
1512.7172009999999
 20
5459.4096454229466
 30
0.0
 11
2912.8844720000002
 21
5459.4096454229466
 31
0.0
  0
LINE
  5
7B9C
  8
1
  6
CONTINUOUS
 10
2421.7172009999999
 20
5373.4096454229457
 30
0.0
 11
1913.7172009999999
 21
5373.4096454229457
 31
0.0
  0
LINE
  5
7B9D
  8
1
  6
CONTINUOUS
 10
2421.7172009999999
 20
5269.4096454229457
 30
0.0
 11
1913.7172009999999
 21
5269.4096454229457
 31
0.0
  0
LINE
  5
7B9E
  8
1
  6
CONTINUOUS
 10
1597.7172009999999
 20
5261.4096454229466
 30
0.0
 11
1597.7172009999999
 21
5459.4096454229466
 31
0.0
  0
LINE
  5
7B9F
  8
1
  6
CONTINUOUS
 10
1512.7172009999999
 20
5417.4096454229466
 30
0.0
 11
1512.7172009999999
 21
6171.4096454229466
 31
0.0
  0
LINE
  5
7BA0
  8
1
  6
CONTINUOUS
 10
1687.7172009999999
 20
5236.4096454229466
 30
0.0
 11
1687.7172009999999
 21
5406.4096454229466
 31
0.0
  0
LINE
  5
7BA1
  8
1
  6
CONTINUOUS
 10
1913.7172009999999
 20
5269.4096454229457
 30
0.0
 11
1913.7172009999999
 21
5373.4096454229457
 31
0.0
  0
LINE
  5
7BA2
  8
1
  6
CONTINUOUS
 10
1597.7172009999999
 20
6129.4096454229457
 30
0.0
 11
1597.7172009999999
 21
6181.4096454229457
 31
0.0
  0
LINE
  5
7BA3
  8
1
  6
CONTINUOUS
 10
1552.7172009999999
 20
5459.4096454229466
 30
0.0
 11
1552.7172009999999
 21
6129.4096454229457
 31
0.0
  0
LINE
  5
7BA4
  8
1
  6
CONTINUOUS
 10
2142.7172009999999
 20
5373.4096454229457
 30
0.0
 11
2142.7172009999999
 21
5459.4096454229466
 31
0.0
  0
LINE
  5
7BA5
  8
1
  6
CONTINUOUS
 10
2192.7172009999999
 20
5373.4096454229457
 30
0.0
 11
2192.7172009999999
 21
5459.4096454229466
 31
0.0
  0
LINE
  5
7BA6
  8
1
  6
CONTINUOUS
 10
2985.7172009999999
 20
5417.4096454229466
 30
0.0
 11
2985.7172009999999
 21
5902.4096454229457
 31
0.0
  0
LINE
  5
7BA7
  8
1
  6
CONTINUOUS
 10
2421.7172009999999
 20
5269.4096454229457
 30
0.0
 11
2421.7172009999999
 21
5373.4096454229457
 31
0.0
  0
LINE
  5
7BA8
  8
1
  6
CONTINUOUS
 10
3222.7172009999999
 20
5373.4096454229457
 30
0.0
 11
3072.7172009999999
 21
5373.4096454229457
 31
0.0
  0
LINE
  5
7BA9
  8
1
  6
CONTINUOUS
 10
3222.7172009999999
 20
5269.4096454229457
 30
0.0
 11
3072.7172009999999
 21
5269.4096454229457
 31
0.0
  0
LINE
  5
7BAA
  8
1
  6
CONTINUOUS
 10
3126.7172009999999
 20
5373.4096454229457
 30
0.0
 11
3126.7172009999999
 21
5417.4096454229466
 31
0.0
  0
LINE
  5
7BAB
  8
1
  6
CONTINUOUS
 10
3168.7172009999999
 20
5373.4096454229457
 30
0.0
 11
3168.7172009999999
 21
5417.4096454229466
 31
0.0
  0
LINE
  5
7BAC
  8
1
  6
CONTINUOUS
 10
3072.7172009999999
 20
5269.4096454229457
 30
0.0
 11
3072.7172009999999
 21
5373.4096454229457
 31
0.0
  0
LINE
  5
7BAD
  8
1
  6
CONTINUOUS
 10
3222.7172009999999
 20
5269.4096454229457
 30
0.0
 11
3222.7172009999999
 21
5373.4096454229457
 31
0.0
  0
LINE
  5
7BAE
  8
1
  6
CONTINUOUS
 10
2912.8844720000002
 20
5459.4096454229466
 30
0.0
 11
2912.8844720000002
 21
6129.4096454229457
 31
0.0
  0
LINE
  5
7BC2
  8
1
  6
CONTINUOUS
 10
3347.7172009999999
 20
5261.4096454229466
 30
0.0
 11
3347.7172009999999
 21
6181.4096454229457
 31
0.0
  0
LINE
  5
7BC3
  8
1
  6
CONTINUOUS
 10
3309.7172009999999
 20
5417.4096454229466
 30
0.0
 11
3309.7172009999999
 21
5902.4096454229457
 31
0.0
  0
LINE
  5
7BC7
  8
1
  6
CONTINUOUS
 10
3327.7172009999999
 20
5236.4096454229466
 30
0.0
 11
3327.7172009999999
 21
5406.4096454229466
 31
0.0
  0
LINE
  5
7BD8
  8
1
  6
CONTINUOUS
 10
4390.6088570000002
 20
3839.3365739999999
 30
0.0
 11
5060.6088570000002
 21
3839.3365739999999
 31
0.0
  0
LINE
  5
7BFB
  8
2
  6
CENTER
 10
3603.6743809999998
 20
5794.4096454229466
 30
0.0
 11
1255.4428250000001
 21
5794.4096454229466
 31
0.0
  0
LINE
  5
7BFC
  8
2
  6
CENTER
 10
4725.6088570000002
 20
4188.2351770000014
 30
0.0
 11
4725.6088570000002
 21
1819.1246590000001
 31
0.0
  0
LINE
  5
7BFD
  8
2
  6
CENTER
 10
2167.7172009999999
 20
4951.7237654229466
 30
0.0
 11
2167.7172009999999
 21
6489.3775084229464
 31
0.0
  0
LINE
  5
7BFE
  8
2
  6
CENTER
 10
3582.4354818686952
 20
3194.540230999999
 30
0.0
 11
1280.726345
 21
3194.540230999999
 31
0.0
  0
LINE
  5
7BFF
  8
4
  6
CONTINUOUS
 10
5550.0
 20
1500.0
 30
0.0
 11
5550.0
 21
900.0
 31
0.0
  0
LINE
  5
7C00
  8
4
  6
CONTINUOUS
 10
3450.0
 20
1500.0
 30
0.0
 11
3450.0
 21
900.0
 31
0.0
  0
LINE
  5
7C01
  8
4
  6
CONTINUOUS
 10
1950.0
 20
1500.0
 30
0.0
 11
1950.0
 21
900.0
 31
0.0
  0
LINE
  5
7C04
  8
4
  6
CONTINUOUS
 10
1950.0
 20
900.0
 30
0.0
 11
5550.0
 21
900.0
 31
0.0
  0
LINE
  5
7C05
  8
4
  6
CONTINUOUS
 10
1950.0
 20
1200.0
 30
0.0
 11
5550.0
 21
1200.0
 31
0.0
  0
TEXT
  5
7C06
  8
4
  6
CONTINUOUS
 10
2065.5062429999989
 20
1294.6290779999999
 30
0.0
 40
150.0
  1
機器名称
  0
TEXT
  5
7C07
  8
4
  6
CONTINUOUS
 10
2058.7743179999989
 20
964.9354699999999
 30
0.0
 40
150.0
  1
機器型番
  0
TEXT
  5
7C08
  8
4
  6
CONTINUOUS
 10
3533.0362359999999
 20
1267.7153069999999
 30
0.0
 40
150.0
  1
ミツヤ多翼送風機
  0
TEXT
  5
7C09
  8
4
  6
CONTINUOUS
 10
3559.9634869999991
 20
951.47875299999987
 30
0.0
 40
150.0
  1
MF#5 1/2-4
  0
TEXT
  5
7C0B
  8
4
  6
CONTINUOUS
 10
2123.688517999999
 20
7150.2865239999992
 30
0.0
 40
162.0
  1
天井吊枠防振ベット
  0
TEXT
  5
7C0C
  8
4
  6
CONTINUOUS
 10
948.50278000000014
 20
7601.6429289999996
 30
0.0
 40
216.0
  1
ベルト駆動式片吸込両持多翼ファン
  0
LINE
  5
7C0D
  8
4
  6
CONTINUOUS
 10
750.0
 20
7408.2262629999996
 30
0.0
 11
5550.0
 21
7408.2262629999996
 31
0.0
  0
LINE
  5
7C0E
  8
4
  6
CONTINUOUS
 10
750.0
 20
8008.2262629999996
 30
0.0
 11
5550.0
 21
8008.2262629999996
 31
0.0
  0
LINE
  5
7C0F
  8
4
  6
CONTINUOUS
 10
1950.0
 20
1500.0
 30
0.0
 11
5550.0
 21
1500.0
 31
0.0
  0
LINE
  5
7C10
  8
4
  6
CONTINUOUS
 10
750.0
 20
8008.2262629999996
 30
0.0
 11
750.0
 21
7408.2262629999996
 31
0.0
  0
TEXT
  5
7C11
  8
4
  6
CONTINUOUS
 10
816.11202099999991
 20
7146.9584329999998
 30
0.0
 40
162.0
  1
右回転左横向
  0
TEXT
  5
7C12
  8
4
  6
CONTINUOUS
 10
4406.9086779999989
 20
8118.1832439999989
 30
0.0
 40
168.0
  1
No.
  0
TEXT
  5
7C13
  8
4
  6
CONTINUOUS
 10
4164.3930520000004
 20
7150.2865239999992
 30
0.0
 40
162.0
  1
縮尺：1/30
  0
LINE
  5
7C14
  8
4
  6
CONTINUOUS
 10
5550.0
 20
8008.2262629999996
 30
0.0
 11
5550.0
 21
7408.2262629999996
 31
0.0
  0
LINE
  5
7C16
  8
4
  6
CONTINUOUS
 10
4321.8522670000002
 20
8043.7907490000007
 30
0.0
 11
4321.8522670000002
 21
8359.9567849999985
 31
0.0
  0
LINE
  5
7C17
  8
4
  6
CONTINUOUS
 10
4321.8522670000002
 20
8359.9567849999985
 30
0.0
 11
5550.0
 21
8359.9567849999985
 31
0.0
  0
LINE
  5
7C18
  8
4
  6
CONTINUOUS
 10
5550.0
 20
8359.9567849999985
 30
0.0
 11
5550.0
 21
8043.7907490000007
 31
0.0
  0
LINE
  5
7C19
  8
4
  6
CONTINUOUS
 10
5550.0
 20
8043.7907490000007
 30
0.0
 11
4321.8522670000002
 21
8043.7907490000007
 31
0.0
  0
DIMENSION
  5
7C2A
  8
3
  6
CONTINUOUS
  2
*D1
 10
1330.7154408449289
 20
2311.540230999999
 30
0.0
 11
1330.715440844928
 21
2765.455821999999
 31
0.0
 70
   128
 13
1512.7172009999999
 23
3236.5402309999999
 33
0.0
 14
1512.7172009999999
 24
2311.540230999999
 34
0.0
 50
90.0
1001
ACAD
1000
DSTYLE
1002
{
1070
   287
1070
     3
1070
    40
1040
30.0
1070
   143
1040
0.039
1070
   172
1070
     1
1070
   271
1070
     0
1070
   279
1070
     0
1070
   288
1070
     1
1002
}
  0
DIMENSION
  5
7C37
  8
3
  6
CONTINUOUS
  2
*D2
 10
1128.5348768449289
 20
3194.540230999999
 30
0.0
 11
1128.534876844928
 21
2765.455821999999
 31
0.0
 70
   128
 13
1472.7172009999999
 23
2311.540230999999
 33
0.0
 14
1280.726345
 24
3194.540230999999
 34
0.0
 50
90.0
1001
ACAD
1000
DSTYLE
1002
{
1070
   287
1070
     3
1070
    40
1040
30.0
1070
   143
1040
0.039
1070
   172
1070
     1
1070
   271
1070
     0
1070
   279
1070
     0
1070
   288
1070
     1
1002
}
  0
DIMENSION
  5
7C6D
  8
3
  6
CONTINUOUS
  2
*D3
 10
2167.7172009999999
 20
1717.741653
 30
0.0
 11
1786.277317
 21
1717.741653
 31
0.0
 70
   128
 13
1407.7172009999999
 23
1988.540230999999
 33
0.0
 14
2167.7172009999999
 24
1837.216107
 34
0.0
1001
ACAD
1000
DSTYLE
1002
{
1070
   287
1070
     3
1070
    40
1040
30.0
1070
   143
1040
0.039
1070
   172
1070
     1
1070
   271
1070
     0
1070
   279
1070
     0
1070
   288
1070
     1
1002
}
  0
DIMENSION
  5
7C79
  8
3
  6
CONTINUOUS
  2
*D4
 10
3507.7172009999999
 20
1717.741653
 30
0.0
 11
2837.7172009999999
 21
1792.741653
 31
0.0
 70
     0
 13
2167.7172009999999
 23
1837.216107
 33
0.0
 14
3507.7172009999999
 24
1988.540230999999
 34
0.0
1001
ACAD
1000
DSTYLE
1002
{
1070
   287
1070
     4
1070
    40
1040
30.0
1070
    75
1070
     1
1070
   143
1040
0.039
1070
   172
1070
     1
1070
   271
1070
     0
1070
   279
1070
     1
1070
   288
1070
     1
1002
}
  0
DIMENSION
  5
7C86
  8
3
  6
CONTINUOUS
  2
*D5
 10
2167.7172009999999
 20
4187.3535849999989
 30
0.0
 11
1816.229971
 21
4187.3535849999989
 31
0.0
 70
   128
 13
1512.7172009999999
 23
3279.040230999999
 33
0.0
 14
2167.7172009999999
 24
4065.5186816913078
 34
0.0
1001
ACAD
1000
DSTYLE
1002
{
1070
   287
1070
     3
1070
    40
1040
30.0
1070
   143
1040
0.039
1070
   172
1070
     1
1070
   271
1070
     0
1070
   279
1070
     0
1070
   288
1070
     1
1002
}
  0
DIMENSION
  5
7C93
  8
3
  6
CONTINUOUS
  2
*D6
 10
5060.6088570000002
 20
4172.3862440000003
 30
0.0
 11
4725.0342959999989
 21
4172.3862440000003
 31
0.0
 70
   128
 13
4390.6088570000002
 23
3839.3365739999999
 33
0.0
 14
5060.6088570000002
 24
3839.3365739999999
 34
0.0
1001
ACAD
1000
DSTYLE
1002
{
1070
   287
1070
     3
1070
    40
1040
30.0
1070
   143
1040
0.039
1070
   172
1070
     1
1070
   271
1070
     0
1070
   279
1070
     0
1070
   288
1070
     1
1002
}
  0
LINE
  5
7C94
  8
1
  6
CONTINUOUS
 10
5064.6088570000002
 20
3669.5402309999999
 30
0.0
 11
5064.6088570000002
 21
2719.540230999999
 31
0.0
  0
DIMENSION
  5
7CA3
  8
3
  6
CONTINUOUS
  2
*D7
 10
5505.7676000000019
 20
2719.540230999999
 30
0.0
 11
5505.7676000000001
 21
3184.5414850000002
 31
0.0
 70
   128
 13
5064.6088570000002
 23
3669.5402309999999
 33
0.0
 14
5064.6088570000002
 24
2719.540230999999
 34
0.0
 50
90.0
1001
ACAD
1000
DSTYLE
1002
{
1070
   287
1070
     3
1070
     3
1000
φ<>
1070
    40
1040
30.0
1070
   143
1040
0.039
1070
   172
1070
     1
1070
   271
1070
     0
1070
   279
1070
     0
1070
   288
1070
     1
1002
}
  0
DIMENSION
  5
7CB2
  8
3
  6
CONTINUOUS
  2
*D8
 10
4725.6088570000002
 20
4389.412746
 30
0.0
 11
4895.1088570000002
 21
4468.3406722930122
 31
0.0
 70
   128
 13
5064.6088570000002
 23
3669.5402309999999
 33
0.0
 14
4725.6088570000002
 24
4328.1011119999994
 34
0.0
1001
ACAD
1000
DSTYLE
1002
{
1070
   288
1070
     1
1070
   172
1070
     1
1070
    40
1040
30.0
1070
   271
1070
     0
1070
   143
1040
0.039
1002
}
  0
DIMENSION
  5
7CBF
  8
3
  6
CONTINUOUS
  2
*D9
 10
3789.0132349999999
 20
1988.540230999999
 30
0.0
 11
3789.0132349999999
 21
2930.0966189999999
 31
0.0
 70
   128
 13
3975.6088570000002
 23
3988.5402309999999
 33
0.0
 14
3975.6088570000002
 24
1988.540230999999
 34
0.0
 50
90.0
1001
ACAD
1000
DSTYLE
1002
{
1070
   287
1070
     3
1070
    40
1040
30.0
1070
   143
1040
0.039
1070
   172
1070
     1
1070
   271
1070
     0
1070
   279
1070
     0
1070
   288
1070
     1
1002
}
  0
DIMENSION
  5
7CCC
  8
3
  6
CONTINUOUS
  2
*D10
 10
4725.6088570000002
 20
1714.7640389999999
 30
0.0
 11
4380.5785470000001
 21
1714.7640389999999
 31
0.0
 70
   128
 13
3975.6088570000002
 23
1988.540230999999
 33
0.0
 14
4725.6088570000002
 24
1819.1246590000001
 34
0.0
1001
ACAD
1000
DSTYLE
1002
{
1070
   287
1070
     3
1070
    40
1040
30.0
1070
   143
1040
0.039
1070
   172
1070
     1
1070
   271
1070
     0
1070
   279
1070
     0
1070
   288
1070
     1
1002
}
  0
DIMENSION
  5
7CD8
  8
3
  6
CONTINUOUS
  2
*D11
 10
5275.6088570000002
 20
1714.7640389999999
 30
0.0
 11
5000.6088570000002
 21
1789.7640389999999
 31
0.0
 70
     0
 13
4725.6088570000002
 23
1819.1246590000001
 33
0.0
 14
5275.6088570000002
 24
1988.540230999999
 34
0.0
1001
ACAD
1000
DSTYLE
1002
{
1070
   287
1070
     4
1070
    40
1040
30.0
1070
    75
1070
     1
1070
   143
1040
0.039
1070
   172
1070
     1
1070
   271
1070
     0
1070
   279
1070
     1
1070
   288
1070
     1
1002
}
  0
DIMENSION
  5
7CF2
  8
3
  6
CONTINUOUS
  2
*D12
 10
3507.7172009999999
 20
6563.3132574229458
 30
0.0
 11
2422.7715920000001
 21
6563.3132574229458
 31
0.0
 70
   128
 13
1407.7172009999999
 23
6344.4096454229457
 33
0.0
 14
3507.7172009999999
 24
6344.4096454229457
 34
0.0
1001
ACAD
1000
DSTYLE
1002
{
1070
   287
1070
     3
1070
    40
1040
30.0
1070
   143
1040
0.039
1070
   172
1070
     1
1070
   271
1070
     0
1070
   279
1070
     0
1070
   288
1070
     1
1002
}
  0
DIMENSION
  5
7CFF
  8
3
  6
CONTINUOUS
  2
*D13
 10
3813.8062169047371
 20
5044.4096454229466
 30
0.0
 11
3813.8062169047371
 21
5732.6255904229474
 31
0.0
 70
   128
 13
3316.419746
 23
6344.4096454229457
 33
0.0
 14
3316.419746
 24
5044.4096454229466
 34
0.0
 50
90.0
1001
ACAD
1000
DSTYLE
1002
{
1070
   287
1070
     3
1070
    40
1040
30.0
1070
   143
1040
0.039
1070
   172
1070
     1
1070
   271
1070
     0
1070
   279
1070
     0
1070
   288
1070
     1
1002
}
  0
DIMENSION
  5
7D74
  8
3
  6
CONTINUOUS
  2
*D14
 10
951.26042784492893
 20
2104.5402309999999
 30
0.0
 11
951.26042784492859
 21
2637.3938159999989
 31
0.0
 70
   128
 13
1265.726345
 23
3194.540230999999
 33
0.0
 14
1597.7172009999999
 24
2104.5402309999999
 34
0.0
 50
90.0
1001
ACAD
1000
DSTYLE
1002
{
1070
   287
1070
     3
1070
    40
1040
30.0
1070
   143
1040
0.039
1070
   172
1070
     1
1070
   271
1070
     0
1070
   279
1070
     0
1070
   288
1070
     1
1002
}
  0
DIMENSION
  5
7D84
  8
3
  6
CONTINUOUS
  2
*D15
 10
951.26042784492893
 20
1988.540230999999
 30
0.0
 11
951.26042784492859
 21
1742.1116595714279
 31
0.0
 70
   128
 13
1597.7172009999999
 23
2104.5402309999999
 33
0.0
 14
1407.7172009999999
 24
1988.540230999999
 34
0.0
 50
90.0
1001
ACAD
1000
DSTYLE
1002
{
1070
   287
1070
     3
1070
    40
1040
30.0
1070
   143
1040
0.039
1070
   172
1070
     1
1070
   271
1070
     0
1070
   279
1070
     0
1070
   288
1070
     1
1002
}
  0
DIMENSION
  5
7E30
  8
3
  2
*D16
 10
2910.7172009999999
 20
4187.3535849999989
 30
0.0
 11
2539.2172009999999
 21
4262.3535849999989
 31
0.0
 70
     0
 13
2167.7172009999999
 23
4065.5186816913078
 33
0.0
 14
2910.7172009999999
 24
3194.540230999999
 34
0.0
1001
ACAD
1000
DSTYLE
1002
{
1070
   287
1070
     4
1070
    40
1040
30.0
1070
    75
1070
     1
1070
   143
1040
0.039
1070
   172
1070
     1
1070
   271
1070
     0
1070
   279
1070
     1
1070
   288
1070
     1
1002
}
  0
DIMENSION
  5
7E3D
  8
3
  2
*D17
 10
951.26042784492859
 20
3837.5351740638821
 30
0.0
 11
876.26042784492813
 21
3516.0377025319408
 31
0.0
 70
     0
 13
1265.726345
 23
3194.540230999999
 33
0.0
 14
2167.7172009999999
 24
3837.5351740638821
 34
0.0
 50
90.0
1001
ACAD
1000
DSTYLE
1002
{
1070
   287
1070
     4
1070
    40
1040
30.0
1070
    75
1070
     1
1070
   143
1040
0.039
1070
   172
1070
     1
1070
   271
1070
     0
1070
   279
1070
     1
1070
   288
1070
     1
1002
}
  0
LINE
  5
7E68
  8
1
  6
CONTINUOUS
 10
1607.7172009999999
 20
3324.5402309999999
 30
0.0
 11
2727.7172009999999
 21
3324.5402309999999
 31
0.0
  0
LINE
  5
7E69
  8
1
 10
1607.7172009999999
 20
2204.5402309999999
 30
0.0
 11
1607.7172009999999
 21
3324.5402309999999
 31
0.0
  0
LINE
  5
7E6A
  8
1
 10
2727.7172009999999
 20
2204.5402309999999
 30
0.0
 11
2727.7172009999999
 21
3324.5402309999999
 31
0.0
  0
ENDSEC
  0
EOF
