  0
SECTION
  2
HEADER
  9
$ACADVER
  1
AC1009
  9
$INSBASE
 10
0.0
 20
0.0
 30
0.0
  9
$EXTMIN
 10
750.0
 20
900.0
 30
0.0
  9
$EXTMAX
 10
5550.0
 20
8359.9567849999985
 30
0.0
  9
$LIMMIN
 10
0.0
 20
0.0
  9
$LIMMAX
 10
297.0
 20
210.0
  9
$ORTHOMODE
 70
     0
  9
$REGENMODE
 70
     1
  9
$FILLMODE
 70
     0
  9
$QTEXTMODE
 70
     0
  9
$MIRRTEXT
 70
     1
  9
$DRAGMODE
 70
     2
  9
$LTSCALE
 40
100.0
  9
$OSMODE
 70
    37
  9
$ATTMODE
 70
     1
  9
$TEXTSIZE
 40
180.0
  9
$TRACEWID
 40
0.05
  9
$TEXTSTYLE
  7
STANDARD
  9
$CLAYER
  8
3
  9
$CELTYPE
  6
BYLAYER
  9
$CECOLOR
 62
   256
  9
$DIMSCALE
 40
30.0
  9
$DIMASZ
 40
2.0
  9
$DIMEXO
 40
0.5
  9
$DIMDLI
 40
10.0
  9
$DIMRND
 40
0.0
  9
$DIMDLE
 40
0.0
  9
$DIMEXE
 40
1.0
  9
$DIMTP
 40
1.0
  9
$DIMTM
 40
1.0
  9
$DIMTXT
 40
3.0
  9
$DIMCEN
 40
0.0
  9
$DIMTSZ
 40
0.0
  9
$DIMTOL
 70
     0
  9
$DIMLIM
 70
     0
  9
$DIMTIH
 70
     0
  9
$DIMTOH
 70
     0
  9
$DIMSE1
 70
     0
  9
$DIMSE2
 70
     0
  9
$DIMTAD
 70
     1
  9
$DIMZIN
 70
     8
  9
$DIMBLK
  1

  9
$DIMASO
 70
     1
  9
$DIMSHO
 70
     1
  9
$DIMPOST
  1

  9
$DIMAPOST
  1

  9
$DIMALT
 70
     0
  9
$DIMALTD
 70
     2
  9
$DIMALTF
 40
0.039
  9
$DIMLFAC
 40
1.0
  9
$DIMTOFL
 70
     1
  9
$DIMTVP
 40
0.0
  9
$DIMTIX
 70
     0
  9
$DIMSOXD
 70
     0
  9
$DIMSAH
 70
     1
  9
$DIMBLK1
  1
OPEN
  9
$DIMBLK2
  1
OPEN
  9
$DIMSTYLE
  2
IGA
  9
$DIMCLRD
 70
     0
  9
$DIMCLRE
 70
     0
  9
$DIMCLRT
 70
     0
  9
$DIMTFAC
 40
10.0
  9
$DIMGAP
 40
1.0
  9
$LUNITS
 70
     2
  9
$LUPREC
 70
     3
  9
$SKETCHINC
 40
0.1
  9
$FILLETRAD
 40
50.0
  9
$AUNITS
 70
     0
  9
$AUPREC
 70
     0
  9
$MENU
  1
acad
  9
$ELEVATION
 40
0.0
  9
$PELEVATION
 40
0.0
  9
$THICKNESS
 40
0.0
  9
$LIMCHECK
 70
     0
  9
$BLIPMODE
 70
     0
  9
$CHAMFERA
 40
0.5
  9
$CHAMFERB
 40
0.5
  9
$SKPOLY
 70
     0
  9
$TDCREATE
 40
2450752.4798065969
  9
$TDUPDATE
 40
2454953.7766948729
  9
$TDINDWG
 40
0.0252243866
  9
$TDUSRTIMER
 40
0.0252243866
  9
$USRTIMER
 70
     1
  9
$ANGBASE
 50
0.0
  9
$ANGDIR
 70
     0
  9
$PDMODE
 70
     0
  9
$PDSIZE
 40
0.0
  9
$PLINEWID
 40
0.0
  9
$COORDS
 70
     1
  9
$SPLFRAME
 70
     0
  9
$SPLINETYPE
 70
     6
  9
$SPLINESEGS
 70
     8
  9
$ATTDIA
 70
     0
  9
$ATTREQ
 70
     1
  9
$HANDLING
 70
 10241
  9
$HANDSEED
  5
7D91
  9
$SURFTAB1
 70
     6
  9
$SURFTAB2
 70
     6
  9
$SURFTYPE
 70
     6
  9
$SURFU
 70
     6
  9
$SURFV
 70
     6
  9
$UCSNAME
  2

  9
$UCSORG
 10
0.0
 20
0.0
 30
0.0
  9
$UCSXDIR
 10
1.0
 20
0.0
 30
0.0
  9
$UCSYDIR
 10
0.0
 20
1.0
 30
0.0
  9
$PUCSNAME
  2

  9
$PUCSORG
 10
0.0
 20
0.0
 30
0.0
  9
$PUCSXDIR
 10
1.0
 20
0.0
 30
0.0
  9
$PUCSYDIR
 10
0.0
 20
1.0
 30
0.0
  9
$USERI1
 70
     0
  9
$USERI2
 70
     0
  9
$USERI3
 70
     0
  9
$USERI4
 70
     0
  9
$USERI5
 70
     0
  9
$USERR1
 40
0.0
  9
$USERR2
 40
0.0
  9
$USERR3
 40
0.0
  9
$USERR4
 40
0.0
  9
$USERR5
 40
0.0
  9
$WORLDVIEW
 70
     1
  9
$SHADEDGE
 70
     3
  9
$SHADEDIF
 70
    70
  9
$TILEMODE
 70
     1
  9
$MAXACTVP
 70
    16
  9
$PLIMCHECK
 70
     0
  9
$PEXTMIN
 10
1.0000000000000000E+020
 20
1.0000000000000000E+020
 30
1.0000000000000000E+020
  9
$PEXTMAX
 10
-1.0000000000000000E+020
 20
-1.0000000000000000E+020
 30
-1.0000000000000000E+020
  9
$PLIMMIN
 10
0.0
 20
0.0
  9
$PLIMMAX
 10
12.0
 20
9.0
  9
$UNITMODE
 70
     0
  9
$VISRETAIN
 70
     0
  9
$PLINEGEN
 70
     0
  9
$PSLTSCALE
 70
     1
  0
ENDSEC
  0
SECTION
  2
TABLES
  0
TABLE
  2
VPORT
 70
     2
  0
VPORT
  2
*ACTIVE
 70
     0
 10
0.0
 20
0.0
 11
1.0
 21
1.0
 12
9438.1687158055174
 22
4629.9562499988788
 13
0.0
 23
0.0
 14
10.0
 24
10.0
 15
10.0
 25
10.0
 16
0.0
 26
0.0
 36
1.0
 17
0.0
 27
0.0
 37
0.0
 40
7517.2452868940854
 41
3.1666666666666661
 42
50.0
 43
0.0
 44
0.0
 50
0.0
 51
0.0
 71
     0
 72
   100
 73
     1
 74
     0
 75
     0
 76
     0
 77
     0
 78
     0
  0
ENDTAB
  0
TABLE
  2
LTYPE
 70
     2
  0
LTYPE
  2
CONTINUOUS
 70
     0
  3
Solid line
 72
    65
 73
     0
 40
0.0
  0
LTYPE
  2
CENTER
 70
     0
  3
____ _ ____ _ ____ _ ____ _ ____ _ ____ _ ____ 
 72
    65
 73
     4
 40
2.0
 49
1.25
 49
-0.25
 49
0.25
 49
-0.25
  0
ENDTAB
  0
TABLE
  2
LAYER
 70
     6
  0
LAYER
  2
0
 70
     0
 62
     7
  6
CONTINUOUS
  0
LAYER
  2
3
 70
     0
 62
     2
  6
CONTINUOUS
  0
LAYER
  2
2
 70
     0
 62
     3
  6
CENTER
  0
LAYER
  2
1
 70
     0
 62
     4
  6
CONTINUOUS
  0
LAYER
  2
4
 70
     0
 62
     7
  6
CONTINUOUS
  0
LAYER
  2
DEFPOINTS
 70
     0
 62
    -7
  6
CONTINUOUS
  0
ENDTAB
  0
TABLE
  2
STYLE
 70
     1
  0
STYLE
  2
STANDARD
 70
     0
 40
0.0
 41
1.0
 50
0.0
 71
     0
 42
180.0
  3
simplex.shx
  4
extfont.shx
  0
ENDTAB
  0
TABLE
  2
VIEW
 70
     0
  0
ENDTAB
  0
TABLE
  2
UCS
 70
     0
  0
ENDTAB
  0
TABLE
  2
APPID
 70
     1
  0
APPID
  2
ACAD
 70
     0
  0
ENDTAB
  0
TABLE
  2
DIMSTYLE
 70
     1
  0
DIMSTYLE
  2
IGA
 70
     0
  3

  4

  5

  6
OPEN
  7
OPEN
 40
2.0
 41
2.0
 42
0.5
 43
10.0
 44
1.0
 45
0.0
 46
0.0
 47
1.0
 48
1.0
140
3.0
141
0.0
142
0.0
143
0.03937
144
1.0
145
0.0
146
10.0
147
1.0
 71
     0
 72
     0
 73
     0
 74
     0
 75
     0
 76
     0
 77
     1
 78
     8
170
     0
171
     2
172
     0
173
     1
174
     0
175
     0
176
     0
177
     0
178
     0
  0
ENDTAB
  0
ENDSEC
  0
SECTION
  2
BLOCKS
  0
BLOCK
  8
0
  2
$MODEL_SPACE
 70
     0
 10
0.0
 20
0.0
 30
0.0
  3
$MODEL_SPACE
  1

  0
ENDBLK
  5
1B
  8
0
  0
BLOCK
 67
     1
  8
0
  2
$PAPER_SPACE
 70
     0
 10
0.0
 20
0.0
 30
0.0
  3
$PAPER_SPACE
  1

  0
ENDBLK
  5
18
 67
     1
  8
0
  0
BLOCK
  8
0
  2
_OPEN
 70
     0
 10
0.0
 20
0.0
 30
0.0
  3
_OPEN
  1

  0
LINE
  5
7B26
  8
0
  6
BYBLOCK
 62
     0
 10
-1.0
 20
0.166667
 30
0.0
 11
0.0
 21
0.0
 31
0.0
  0
LINE
  5
7B27
  8
0
  6
BYBLOCK
 62
     0
 10
0.0
 20
0.0
 30
0.0
 11
-1.0
 21
-0.166667
 31
0.0
  0
LINE
  5
7B28
  8
0
  6
BYBLOCK
 62
     0
 10
0.0
 20
0.0
 30
0.0
 11
-1.0
 21
0.0
 31
0.0
  0
ENDBLK
  5
7B29
  8
0
  0
BLOCK
  8
0
  2
*D1
 70
     1
 10
0.0
 20
0.0
 30
0.0
  3
*D1
  1

  0
LINE
  5
7CFD
  8
3
  6
CONTINUOUS
 62
     0
 10
2855.9549059999999
 20
3948.1734470000001
 30
0.0
 11
3220.8137489999999
 21
3948.1734469999992
 31
0.0
  0
LINE
  5
7CFE
  8
3
  6
CONTINUOUS
 62
     0
 10
2855.9549059999999
 20
3023.1734469999992
 30
0.0
 11
3220.8137489999999
 21
3023.1734469999992
 31
0.0
  0
LINE
  5
7CFF
  8
3
  6
CONTINUOUS
 62
     0
 10
3190.8137490000008
 20
3888.1734469999992
 30
0.0
 11
3190.8137490000008
 21
3083.1734469999992
 31
0.0
  0
INSERT
  5
7D00
  8
3
  6
CONTINUOUS
 62
     0
  2
_OPEN
 10
3190.8137490000008
 20
3948.1734469999992
 30
0.0
 41
60.0
 42
60.0
 43
60.0
 50
90.0
  0
INSERT
  5
7D01
  8
3
  6
CONTINUOUS
 62
     0
  2
_OPEN
 10
3190.8137489999999
 20
3023.1734469999992
 30
0.0
 41
60.0
 42
60.0
 43
60.0
 50
270.0
  0
TEXT
  8
3
  40
90
  5
7D82
  62
0
  72
0
  71
0
 10
2935.81
 20
3366.09
 30
0.000000
  1
925
  0
POINT
  5
7D03
  8
DEFPOINTS
  6
CONTINUOUS
 62
     0
 10
2840.9549059999999
 20
3948.1734470000001
 30
0.0
  0
POINT
  5
7D04
  8
DEFPOINTS
  6
CONTINUOUS
 62
     0
 10
2840.9549059999999
 20
3023.1734469999992
 30
0.0
  0
POINT
  5
7D05
  8
DEFPOINTS
  6
CONTINUOUS
 62
     0
 10
3190.8137489999999
 20
3023.1734469999992
 30
0.0
  0
ENDBLK
  5
7B6F
  8
0
  0
BLOCK
  8
0
  2
*D2
 70
     1
 10
0.0
 20
0.0
 30
0.0
  3
*D2
  1

  0
LINE
  5
7D06
  8
3
  6
CONTINUOUS
 62
     0
 10
2895.9549059999999
 20
3948.1734470000001
 30
0.0
 11
3403.164764000001
 21
3948.1734469999992
 31
0.0
  0
LINE
  5
7D07
  8
3
  6
CONTINUOUS
 62
     0
 10
3098.518466
 20
3065.1734469999992
 30
0.0
 11
3403.1647640000001
 21
3065.1734469999992
 31
0.0
  0
LINE
  5
7D08
  8
3
  6
CONTINUOUS
 62
     0
 10
3373.164764000001
 20
3888.1734469999992
 30
0.0
 11
3373.164764000001
 21
3125.1734469999992
 31
0.0
  0
INSERT
  5
7D09
  8
3
  6
CONTINUOUS
 62
     0
  2
_OPEN
 10
3373.164764000001
 20
3948.1734469999992
 30
0.0
 41
60.0
 42
60.0
 43
60.0
 50
90.0
  0
INSERT
  5
7D0A
  8
3
  6
CONTINUOUS
 62
     0
  2
_OPEN
 10
3373.1647640000001
 20
3065.1734469999992
 30
0.0
 41
60.0
 42
60.0
 43
60.0
 50
270.0
  0
TEXT
  8
3
  40
90
  5
7D83
  62
0
  72
0
  71
0
 10
3118.16
 20
3376.81
 30
0.000000
  1
883
  0
POINT
  5
7D0C
  8
DEFPOINTS
  6
CONTINUOUS
 62
     0
 10
2880.954905999999
 20
3948.1734470000001
 30
0.0
  0
POINT
  5
7D0D
  8
DEFPOINTS
  6
CONTINUOUS
 62
     0
 10
3083.518466
 20
3065.1734469999992
 30
0.0
  0
POINT
  5
7D0E
  8
DEFPOINTS
  6
CONTINUOUS
 62
     0
 10
3373.1647640000001
 20
3065.1734469999992
 30
0.0
  0
ENDBLK
  5
7B7C
  8
0
  0
BLOCK
  8
0
  2
*D3
 70
     1
 10
0.0
 20
0.0
 30
0.0
  3
*D3
  1

  0
LINE
  5
7D0F
  8
3
  6
CONTINUOUS
 62
     0
 10
2770.9549059999999
 20
2300.1734470000001
 30
0.0
 11
3403.1647640000001
 21
2300.1734469999992
 31
0.0
  0
LINE
  5
7D10
  8
3
  6
CONTINUOUS
 62
     0
 10
3373.1647640000001
 20
3005.1734469999992
 30
0.0
 11
3373.1647640000001
 21
2360.1734469999992
 31
0.0
  0
INSERT
  5
7D11
  8
3
  6
CONTINUOUS
 62
     0
  2
_OPEN
 10
3373.1647640000001
 20
3065.1734469999992
 30
0.0
 41
60.0
 42
60.0
 43
60.0
 50
90.0
  0
INSERT
  5
7D12
  8
3
  6
CONTINUOUS
 62
     0
  2
_OPEN
 10
3373.1647640000001
 20
2300.1734469999992
 30
0.0
 41
60.0
 42
60.0
 43
60.0
 50
270.0
  0
TEXT
  8
3
  40
90
  5
7D84
  62
0
  72
0
  71
0
 10
3118.16
 20
2523.37
 30
0.000000
  1
765
  0
POINT
  5
7D14
  8
DEFPOINTS
  6
CONTINUOUS
 62
     0
 10
3083.518466
 20
3065.1734469999992
 30
0.0
  0
POINT
  5
7D15
  8
DEFPOINTS
  6
CONTINUOUS
 62
     0
 10
2755.954905999999
 20
2300.1734470000001
 30
0.0
  0
POINT
  5
7D16
  8
DEFPOINTS
  6
CONTINUOUS
 62
     0
 10
3373.1647640000001
 20
2300.1734469999992
 30
0.0
  0
ENDBLK
  5
7B88
  8
0
  0
BLOCK
  8
0
  2
*D4
 70
     1
 10
0.0
 20
0.0
 30
0.0
  3
*D4
  1

  0
LINE
  5
7D17
  8
3
  6
CONTINUOUS
 62
     0
 10
2770.9549059999999
 20
2300.1734470000001
 30
0.0
 11
3404.972088
 21
2300.1734469999992
 31
0.0
  0
LINE
  5
7D18
  8
3
  6
CONTINUOUS
 62
     0
 10
2960.954905999999
 20
2194.1734469999992
 30
0.0
 11
3404.972088
 21
2194.1734469999992
 31
0.0
  0
LINE
  5
7D19
  8
3
  6
CONTINUOUS
 62
     0
 10
3374.9720880000009
 20
2360.1734469999992
 30
0.0
 11
3374.9720880000009
 21
2420.1734469999992
 31
0.0
  0
LINE
  5
7D1A
  8
3
  6
CONTINUOUS
 62
     0
 10
3374.9720880000009
 20
2134.1734469999992
 30
0.0
 11
3374.9720880000009
 21
1804.173446999999
 31
0.0
  0
LINE
  5
7D1B
  8
3
  6
CONTINUOUS
 62
     0
 10
3374.9720880000009
 20
2300.1734469999992
 30
0.0
 11
3374.9720880000009
 21
2194.1734469999992
 31
0.0
  0
INSERT
  5
7D1C
  8
3
  6
CONTINUOUS
 62
     0
  2
_OPEN
 10
3374.9720880000009
 20
2300.1734469999992
 30
0.0
 41
60.0
 42
60.0
 43
60.0
 50
270.0
  0
INSERT
  5
7D1D
  8
3
  6
CONTINUOUS
 62
     0
  2
_OPEN
 10
3374.9720880000009
 20
2194.1734469999992
 30
0.0
 41
60.0
 42
60.0
 43
60.0
 50
90.0
  0
TEXT
  8
3
  40
90
  5
7D85
  62
0
  72
0
  71
0
 10
3119.97
 20
1779.87
 30
0.000000
  1
106
  0
POINT
  5
7D1F
  8
DEFPOINTS
  6
CONTINUOUS
 62
     0
 10
2755.954905999999
 20
2300.1734470000001
 30
0.0
  0
POINT
  5
7D20
  8
DEFPOINTS
  6
CONTINUOUS
 62
     0
 10
2945.9549059999999
 20
2194.1734469999992
 30
0.0
  0
POINT
  5
7D21
  8
DEFPOINTS
  6
CONTINUOUS
 62
     0
 10
3374.9720880000009
 20
2194.1734469999992
 30
0.0
  0
ENDBLK
  5
7C73
  8
0
  0
BLOCK
  8
0
  2
*D5
 70
     1
 10
0.0
 20
0.0
 30
0.0
  3
*D5
  1

  0
LINE
  5
7D22
  8
3
  6
CONTINUOUS
 62
     0
 10
2840.9549059999999
 20
4005.6734469999992
 30
0.0
 11
2840.9549059999999
 21
4364.7542869999988
 31
0.0
  0
LINE
  5
7D23
  8
3
  6
CONTINUOUS
 62
     0
 10
2185.9549059999999
 20
4337.2967479999988
 30
0.0
 11
2185.9549059999999
 21
4364.7542869999988
 31
0.0
  0
LINE
  5
7D24
  8
3
  6
CONTINUOUS
 62
     0
 10
2780.954905999999
 20
4334.7542869999988
 30
0.0
 11
2245.9549059999999
 21
4334.7542869999988
 31
0.0
  0
INSERT
  5
7D25
  8
3
  6
CONTINUOUS
 62
     0
  2
_OPEN
 10
2840.9549059999999
 20
4334.7542869999988
 30
0.0
 41
60.0
 42
60.0
 43
60.0
  0
INSERT
  5
7D26
  8
3
  6
CONTINUOUS
 62
     0
  2
_OPEN
 10
2185.9549059999999
 20
4334.7542869999988
 30
0.0
 41
60.0
 42
60.0
 43
60.0
 50
180.0
  0
TEXT
  8
3
  40
90
  5
7D86
  62
0
  72
0
  71
0
 10
2318.95
 20
4250.45
 30
0.000000
  1
655
  0
POINT
  5
7D28
  8
DEFPOINTS
  6
CONTINUOUS
 62
     0
 10
2840.9549059999999
 20
3990.6734469999992
 30
0.0
  0
POINT
  5
7D29
  8
DEFPOINTS
  6
CONTINUOUS
 62
     0
 10
2185.9549059999999
 20
4322.2967479999998
 30
0.0
  0
POINT
  5
7D2A
  8
DEFPOINTS
  6
CONTINUOUS
 62
     0
 10
2185.9549059999999
 20
4334.7542869999988
 30
0.0
  0
ENDBLK
  5
7BA5
  8
0
  0
BLOCK
  8
0
  2
*D6
 70
     1
 10
0.0
 20
0.0
 30
0.0
  3
*D6
  1

  0
LINE
  5
7D2B
  8
3
  6
CONTINUOUS
 62
     0
 10
845.95490600000005
 20
2179.1734469999992
 30
0.0
 11
845.95490600000005
 21
1940.4402369999989
 31
0.0
  0
LINE
  5
7D2C
  8
3
  6
CONTINUOUS
 62
     0
 10
2185.9549059999999
 20
2072.2588799999999
 30
0.0
 11
2185.9549059999999
 21
1940.4402369999989
 31
0.0
  0
LINE
  5
7D2D
  8
3
  6
CONTINUOUS
 62
     0
 10
905.95490600000005
 20
1970.440237
 30
0.0
 11
2125.9549059999999
 21
1970.440237
 31
0.0
  0
INSERT
  5
7D2E
  8
3
  6
CONTINUOUS
 62
     0
  2
_OPEN
 10
845.95490600000005
 20
1970.440237
 30
0.0
 41
60.0
 42
60.0
 43
60.0
 50
180.0
  0
INSERT
  5
7D2F
  8
3
  6
CONTINUOUS
 62
     0
  2
_OPEN
 10
2185.9549059999999
 20
1970.440237
 30
0.0
 41
60.0
 42
60.0
 43
60.0
  0
TEXT
  8
3
  40
90
  5
7D87
  62
0
  72
0
  71
0
 10
1332.11
 20
1886.14
 30
0.000000
  1
1340
  0
POINT
  5
7D31
  8
DEFPOINTS
  6
CONTINUOUS
 62
     0
 10
845.95490600000005
 20
2194.1734469999992
 30
0.0
  0
POINT
  5
7D32
  8
DEFPOINTS
  6
CONTINUOUS
 62
     0
 10
2185.9549059999999
 20
2087.258879999999
 30
0.0
  0
POINT
  5
7D33
  8
DEFPOINTS
  6
CONTINUOUS
 62
     0
 10
2185.9549059999999
 20
1970.440237
 30
0.0
  0
ENDBLK
  5
7BB2
  8
0
  0
BLOCK
  8
0
  2
*D7
 70
     1
 10
0.0
 20
0.0
 30
0.0
  3
*D7
  1

  0
LINE
  5
7D34
  8
3
  6
CONTINUOUS
 62
     0
 10
2945.9549059999999
 20
2179.1734469999992
 30
0.0
 11
2945.9549059999999
 21
1940.4402369999989
 31
0.0
  0
LINE
  5
7D35
  8
3
  6
CONTINUOUS
 62
     0
 10
2245.9549059999999
 20
1970.440237
 30
0.0
 11
2885.9549059999999
 21
1970.440237
 31
0.0
  0
INSERT
  5
7D36
  8
3
  6
CONTINUOUS
 62
     0
  2
_OPEN
 10
2185.9549059999999
 20
1970.440237
 30
0.0
 41
60.0
 42
60.0
 43
60.0
 50
180.0
  0
INSERT
  5
7D37
  8
3
  6
CONTINUOUS
 62
     0
  2
_OPEN
 10
2945.9549059999999
 20
1970.440237
 30
0.0
 41
60.0
 42
60.0
 43
60.0
  0
TEXT
  8
3
  40
90
  5
7D88
  62
0
  72
0
  71
0
 10
2385.95
 20
1886.14
 30
0.000000
  1
760
  0
POINT
  5
7D39
  8
DEFPOINTS
  6
CONTINUOUS
 62
     0
 10
2185.9549059999999
 20
2087.258879999999
 30
0.0
  0
POINT
  5
7D3A
  8
DEFPOINTS
  6
CONTINUOUS
 62
     0
 10
2945.9549059999999
 20
2194.1734469999992
 30
0.0
  0
POINT
  5
7D3B
  8
DEFPOINTS
  6
CONTINUOUS
 62
     0
 10
2945.9549059999999
 20
1970.440237
 30
0.0
  0
ENDBLK
  5
7BBE
  8
0
  0
BLOCK
  8
0
  2
*D8
 70
     1
 10
0.0
 20
0.0
 30
0.0
  3
*D8
  1

  0
LINE
  5
7D3C
  8
3
  6
CONTINUOUS
 62
     0
 10
4400.5161120000002
 20
3963.1734469999992
 30
0.0
 11
4400.5161120000002
 21
4353.5000719999998
 31
0.0
  0
LINE
  5
7D3D
  8
3
  6
CONTINUOUS
 62
     0
 10
5070.5161119999993
 20
3963.1734469999992
 30
0.0
 11
5070.5161119999993
 21
4353.5000719999998
 31
0.0
  0
LINE
  5
7D3E
  8
3
  6
CONTINUOUS
 62
     0
 10
4460.5161119999993
 20
4323.5000719999998
 30
0.0
 11
5010.5161119999993
 21
4323.5000719999998
 31
0.0
  0
INSERT
  5
7D3F
  8
3
  6
CONTINUOUS
 62
     0
  2
_OPEN
 10
4400.5161120000002
 20
4323.5000719999998
 30
0.0
 41
60.0
 42
60.0
 43
60.0
 50
180.0
  0
INSERT
  5
7D40
  8
3
  6
CONTINUOUS
 62
     0
  2
_OPEN
 10
5070.5161119999993
 20
4323.5000719999998
 30
0.0
 41
60.0
 42
60.0
 43
60.0
  0
TEXT
  8
3
  40
90
  5
7D89
  62
0
  72
0
  71
0
 10
4563.34
 20
4239.20
 30
0.000000
  1
670
  0
POINT
  5
7D42
  8
DEFPOINTS
  6
CONTINUOUS
 62
     0
 10
4400.5161120000002
 20
3948.1734470000001
 30
0.0
  0
POINT
  5
7D43
  8
DEFPOINTS
  6
CONTINUOUS
 62
     0
 10
5070.5161119999993
 20
3948.1734470000001
 30
0.0
  0
POINT
  5
7D44
  8
DEFPOINTS
  6
CONTINUOUS
 62
     0
 10
5070.5161119999993
 20
4323.5000719999998
 30
0.0
  0
ENDBLK
  5
7BCB
  8
0
  0
BLOCK
  8
0
  2
*D9
 70
     1
 10
0.0
 20
0.0
 30
0.0
  3
*D9
  1

  0
LINE
  5
7D45
  8
3
  6
CONTINUOUS
 62
     0
 10
5089.5161120000002
 20
3540.1734470000001
 30
0.0
 11
5545.6543180000008
 21
3540.1734469999992
 31
0.0
  0
LINE
  5
7D46
  8
3
  6
CONTINUOUS
 62
     0
 10
5089.5161120000002
 20
2590.1734469999992
 30
0.0
 11
5545.6543180000008
 21
2590.1734469999992
 31
0.0
  0
LINE
  5
7D47
  8
3
  6
CONTINUOUS
 62
     0
 10
5515.6543180000008
 20
3480.1734469999992
 30
0.0
 11
5515.6543180000008
 21
2650.1734469999992
 31
0.0
  0
INSERT
  5
7D48
  8
3
  6
CONTINUOUS
 62
     0
  2
_OPEN
 10
5515.6543180000008
 20
3540.1734469999992
 30
0.0
 41
60.0
 42
60.0
 43
60.0
 50
90.0
  0
INSERT
  5
7D49
  8
3
  6
CONTINUOUS
 62
     0
  2
_OPEN
 10
5515.6543180000008
 20
2590.1734469999992
 30
0.0
 41
60.0
 42
60.0
 43
60.0
 50
270.0
  0
TEXT
  8
3
  40
90
  5
7D8A
  62
0
  72
0
  71
0
 10
5260.65
 20
2915.31
 30
0.000000
  1
φ950
  0
POINT
  5
7D4B
  8
DEFPOINTS
  6
CONTINUOUS
 62
     0
 10
5074.5161119999993
 20
3540.1734470000001
 30
0.0
  0
POINT
  5
7D4C
  8
DEFPOINTS
  6
CONTINUOUS
 62
     0
 10
5074.5161119999993
 20
2590.1734469999992
 30
0.0
  0
POINT
  5
7D4D
  8
DEFPOINTS
  6
CONTINUOUS
 62
     0
 10
5515.6543180000008
 20
2590.1734469999992
 30
0.0
  0
ENDBLK
  5
7C94
  8
0
  0
BLOCK
  8
0
  2
*D10
 70
     1
 10
0.0
 20
0.0
 30
0.0
  3
*D10
  1

  0
LINE
  5
7C80
  8
0
  6
BYBLOCK
 62
     0
 10
5074.5161119999993
 20
3555.1734470000001
 30
0.0
 11
5074.5161119999993
 21
4562.5418369999998
 31
0.0
  0
LINE
  5
7C81
  8
0
  6
BYBLOCK
 62
     0
 10
4735.5161119999993
 20
4477.4374040000002
 30
0.0
 11
4735.5161119999993
 21
4562.5418369999998
 31
0.0
  0
LINE
  5
7C82
  8
0
  6
BYBLOCK
 62
     0
 10
5014.5161119999993
 20
4532.5418369999998
 30
0.0
 11
4795.5161119999993
 21
4532.5418369999998
 31
0.0
  0
TEXT
  5
7C83
  8
3
 62
     0
 10
4791.4446834285709
 20
4569.8309999222511
 30
0.0
 40
90.0
  1
339
  0
INSERT
  5
7C84
  8
0
  6
BYBLOCK
 62
     0
  2
_OPEN
 10
5074.5161119999993
 20
4532.5418369999998
 30
0.0
 41
60.0
 42
60.0
 43
60.0
  0
INSERT
  5
7C85
  8
0
  6
BYBLOCK
 62
     0
  2
_OPEN
 10
4735.5161119999993
 20
4532.5418369999998
 30
0.0
 41
60.0
 42
60.0
 43
60.0
 50
180.0
  0
POINT
  5
7C86
  8
DEFPOINTS
  6
BYBLOCK
 62
     0
 10
5074.5161119999993
 20
3540.1734470000001
 30
0.0
  0
POINT
  5
7C87
  8
DEFPOINTS
  6
BYBLOCK
 62
     0
 10
4735.5161119999993
 20
4462.4374040000002
 30
0.0
  0
POINT
  5
7C88
  8
DEFPOINTS
  6
BYBLOCK
 62
     0
 10
4735.5161119999993
 20
4532.5418369999998
 30
0.0
  0
ENDBLK
  5
7C89
  8
0
  0
BLOCK
  8
0
  2
*D11
 70
     1
 10
0.0
 20
0.0
 30
0.0
  3
*D11
  1

  0
LINE
  5
7D4E
  8
3
  6
CONTINUOUS
 62
     0
 10
3970.5161119999998
 20
4194.1734469999992
 30
0.0
 11
3774.772660000001
 21
4194.1734469999992
 31
0.0
  0
LINE
  5
7D4F
  8
3
  6
CONTINUOUS
 62
     0
 10
3970.5161119999998
 20
2194.1734469999992
 30
0.0
 11
3774.7726600000001
 21
2194.1734469999992
 31
0.0
  0
LINE
  5
7D50
  8
3
  6
CONTINUOUS
 62
     0
 10
3804.772660000001
 20
4134.1734470000001
 30
0.0
 11
3804.7726600000001
 21
2254.1734469999992
 31
0.0
  0
INSERT
  5
7D51
  8
3
  6
CONTINUOUS
 62
     0
  2
_OPEN
 10
3804.772660000001
 20
4194.1734469999992
 30
0.0
 41
60.0
 42
60.0
 43
60.0
 50
90.0
  0
INSERT
  5
7D52
  8
3
  6
CONTINUOUS
 62
     0
  2
_OPEN
 10
3804.7726600000001
 20
2194.1734469999992
 30
0.0
 41
60.0
 42
60.0
 43
60.0
 50
270.0
  0
TEXT
  8
3
  40
90
  5
7D8B
  62
0
  72
0
  71
0
 10
3549.77
 20
3060.03
 30
0.000000
  1
2000
  0
POINT
  5
7D54
  8
DEFPOINTS
  6
CONTINUOUS
 62
     0
 10
3985.5161119999989
 20
4194.1734469999992
 30
0.0
  0
POINT
  5
7D55
  8
DEFPOINTS
  6
CONTINUOUS
 62
     0
 10
3985.5161119999989
 20
2194.1734469999992
 30
0.0
  0
POINT
  5
7D56
  8
DEFPOINTS
  6
CONTINUOUS
 62
     0
 10
3804.7726600000001
 20
2194.1734469999992
 30
0.0
  0
ENDBLK
  5
7BF7
  8
0
  0
BLOCK
  8
0
  2
*D12
 70
     1
 10
0.0
 20
0.0
 30
0.0
  3
*D12
  1

  0
LINE
  5
7D57
  8
3
  6
CONTINUOUS
 62
     0
 10
3985.5161119999989
 20
2179.1734469999992
 30
0.0
 11
3985.5161119999989
 21
1935.0801659999991
 31
0.0
  0
LINE
  5
7D58
  8
3
  6
CONTINUOUS
 62
     0
 10
4735.5161119999993
 20
2018.507501
 30
0.0
 11
4735.5161119999993
 21
1935.0801659999991
 31
0.0
  0
LINE
  5
7D59
  8
3
  6
CONTINUOUS
 62
     0
 10
4045.5161119999998
 20
1965.0801659999991
 30
0.0
 11
4675.5161119999993
 21
1965.0801659999991
 31
0.0
  0
INSERT
  5
7D5A
  8
3
  6
CONTINUOUS
 62
     0
  2
_OPEN
 10
3985.5161119999989
 20
1965.0801659999991
 30
0.0
 41
60.0
 42
60.0
 43
60.0
 50
180.0
  0
INSERT
  5
7D5B
  8
3
  6
CONTINUOUS
 62
     0
  2
_OPEN
 10
4735.5161119999993
 20
1965.0801659999991
 30
0.0
 41
60.0
 42
60.0
 43
60.0
  0
TEXT
  8
3
  40
90
  5
7D8C
  62
0
  72
0
  71
0
 10
4198.64
 20
1880.78
 30
0.000000
  1
750
  0
POINT
  5
7D5D
  8
DEFPOINTS
  6
CONTINUOUS
 62
     0
 10
3985.5161119999989
 20
2194.1734469999992
 30
0.0
  0
POINT
  5
7D5E
  8
DEFPOINTS
  6
CONTINUOUS
 62
     0
 10
4735.5161119999993
 20
2033.507501
 30
0.0
  0
POINT
  5
7D5F
  8
DEFPOINTS
  6
CONTINUOUS
 62
     0
 10
4735.5161119999993
 20
1965.0801659999991
 30
0.0
  0
ENDBLK
  5
7C04
  8
0
  0
BLOCK
  8
0
  2
*D13
 70
     1
 10
0.0
 20
0.0
 30
0.0
  3
*D13
  1

  0
LINE
  5
7D60
  8
3
  6
CONTINUOUS
 62
     0
 10
5285.5161119999993
 20
2179.1734469999992
 30
0.0
 11
5285.5161119999993
 21
1935.0801659999991
 31
0.0
  0
LINE
  5
7D61
  8
3
  6
CONTINUOUS
 62
     0
 10
4795.5161119999993
 20
1965.0801659999991
 30
0.0
 11
5225.5161120000002
 21
1965.0801659999991
 31
0.0
  0
INSERT
  5
7D62
  8
3
  6
CONTINUOUS
 62
     0
  2
_OPEN
 10
4735.5161119999993
 20
1965.0801659999991
 30
0.0
 41
60.0
 42
60.0
 43
60.0
 50
180.0
  0
INSERT
  5
7D63
  8
3
  6
CONTINUOUS
 62
     0
  2
_OPEN
 10
5285.5161119999993
 20
1965.0801659999991
 30
0.0
 41
60.0
 42
60.0
 43
60.0
  0
TEXT
  8
3
  40
90
  5
7D8D
  62
0
  72
0
  71
0
 10
4830.52
 20
1880.78
 30
0.000000
  1
550
  0
POINT
  5
7D65
  8
DEFPOINTS
  6
CONTINUOUS
 62
     0
 10
4735.5161119999993
 20
2033.507501
 30
0.0
  0
POINT
  5
7D66
  8
DEFPOINTS
  6
CONTINUOUS
 62
     0
 10
5285.5161119999993
 20
2194.1734469999992
 30
0.0
  0
POINT
  5
7D67
  8
DEFPOINTS
  6
CONTINUOUS
 62
     0
 10
5285.5161119999993
 20
1965.0801659999991
 30
0.0
  0
ENDBLK
  5
7C10
  8
0
  0
BLOCK
  8
0
  2
*D14
 70
     1
 10
0.0
 20
0.0
 30
0.0
  3
*D14
  1

  0
LINE
  5
7D68
  8
3
  6
CONTINUOUS
 62
     0
 10
845.95490600000005
 20
6586.5584869999993
 30
0.0
 11
845.95490600000005
 21
6783.9834499999997
 31
0.0
  0
LINE
  5
7D69
  8
3
  6
CONTINUOUS
 62
     0
 10
2945.9549059999999
 20
6586.5584869999993
 30
0.0
 11
2945.9549059999999
 21
6783.9834499999997
 31
0.0
  0
LINE
  5
7D6A
  8
3
  6
CONTINUOUS
 62
     0
 10
905.95490600000005
 20
6753.9834499999988
 30
0.0
 11
2885.9549059999999
 21
6753.9834499999988
 31
0.0
  0
INSERT
  5
7D6B
  8
3
  6
CONTINUOUS
 62
     0
  2
_OPEN
 10
845.95490600000005
 20
6753.9834499999988
 30
0.0
 41
60.0
 42
60.0
 43
60.0
 50
180.0
  0
INSERT
  5
7D6C
  8
3
  6
CONTINUOUS
 62
     0
  2
_OPEN
 10
2945.9549059999999
 20
6753.9834499999988
 30
0.0
 41
60.0
 42
60.0
 43
60.0
  0
TEXT
  8
3
  40
90
  5
7D8E
  62
0
  72
0
  71
0
 10
1771.36
 20
6669.68
 30
0.000000
  1
2100
  0
POINT
  5
7D6E
  8
DEFPOINTS
  6
CONTINUOUS
 62
     0
 10
845.95490600000005
 20
6571.5584870000002
 30
0.0
  0
POINT
  5
7D6F
  8
DEFPOINTS
  6
CONTINUOUS
 62
     0
 10
2945.9549059999999
 20
6571.5584870000002
 30
0.0
  0
POINT
  5
7D70
  8
DEFPOINTS
  6
CONTINUOUS
 62
     0
 10
2945.9549059999999
 20
6753.9834499999988
 30
0.0
  0
ENDBLK
  5
7C1D
  8
0
  0
BLOCK
  8
0
  2
*D15
 70
     1
 10
0.0
 20
0.0
 30
0.0
  3
*D15
  1

  0
LINE
  5
7D71
  8
3
  6
CONTINUOUS
 62
     0
 10
2960.954905999999
 20
6571.5584870000002
 30
0.0
 11
3273.9113750000001
 21
6571.5584870000002
 31
0.0
  0
LINE
  5
7D72
  8
3
  6
CONTINUOUS
 62
     0
 10
2960.954905999999
 20
5271.5584870000002
 30
0.0
 11
3273.9113750000001
 21
5271.5584870000002
 31
0.0
  0
LINE
  5
7D73
  8
3
  6
CONTINUOUS
 62
     0
 10
3243.911375000001
 20
6511.5584869999993
 30
0.0
 11
3243.911375000001
 21
5331.5584869999993
 31
0.0
  0
INSERT
  5
7D74
  8
3
  6
CONTINUOUS
 62
     0
  2
_OPEN
 10
3243.911375000001
 20
6571.5584870000002
 30
0.0
 41
60.0
 42
60.0
 43
60.0
 50
90.0
  0
INSERT
  5
7D75
  8
3
  6
CONTINUOUS
 62
     0
  2
_OPEN
 10
3243.911375000001
 20
5271.5584870000002
 30
0.0
 41
60.0
 42
60.0
 43
60.0
 50
270.0
  0
TEXT
  8
3
  40
90
  5
7D8F
  62
0
  72
0
  71
0
 10
2988.91
 20
5796.04
 30
0.000000
  1
1300
  0
POINT
  5
7D77
  8
DEFPOINTS
  6
CONTINUOUS
 62
     0
 10
2945.9549059999999
 20
6571.5584870000002
 30
0.0
  0
POINT
  5
7D78
  8
DEFPOINTS
  6
CONTINUOUS
 62
     0
 10
2945.9549059999999
 20
5271.5584870000002
 30
0.0
  0
POINT
  5
7D79
  8
DEFPOINTS
  6
CONTINUOUS
 62
     0
 10
3243.911375000001
 20
5271.5584870000002
 30
0.0
  0
ENDBLK
  5
7C2A
  8
0
  0
BLOCK
  8
0
  2
*D16
 70
     1
 10
0.0
 20
0.0
 30
0.0
  3
*D16
  1

  0
LINE
  5
7D7A
  8
3
 62
     0
 10
1442.954905999999
 20
3080.1734203198362
 30
0.0
 11
1442.954905999999
 21
4364.7542869999988
 31
0.0
  0
LINE
  5
7D7B
  8
3
 62
     0
 10
2125.9549059999999
 20
4334.7542869999988
 30
0.0
 11
1502.9549059999999
 21
4334.7542869999988
 31
0.0
  0
INSERT
  5
7D7C
  8
3
 62
     0
  2
_OPEN
 10
2185.9549059999999
 20
4334.7542869999988
 30
0.0
 41
60.0
 42
60.0
 43
60.0
  0
INSERT
  5
7D7D
  8
3
 62
     0
  2
_OPEN
 10
1442.954905999999
 20
4334.7542869999988
 30
0.0
 41
60.0
 42
60.0
 43
60.0
 50
180.0
  0
TEXT
  8
3
  40
90
  5
7D90
  62
0
  72
0
  71
0
 10
1634.45
 20
4250.45
 30
0.000000
  1
743
  0
POINT
  5
7D7F
  8
DEFPOINTS
 62
     0
 10
2185.9549059999999
 20
4322.2967479999998
 30
0.0
  0
POINT
  5
7D80
  8
DEFPOINTS
 62
     0
 10
1442.954905999999
 20
3065.1734203198362
 30
0.0
  0
POINT
  5
7D81
  8
DEFPOINTS
 62
     0
 10
1442.954905999999
 20
4334.7542869999988
 30
0.0
  0
ENDBLK
  5
7CA0
  8
0
  0
ENDSEC
  0
SECTION
  2
ENTITIES
  0
POLYLINE
  5
7AA1
  8
1
  6
CONTINUOUS
 66
     1
 10
0.0
 20
0.0
 30
0.0
 70
     1
  0
VERTEX
  5
7CD9
  8
1
  6
CONTINUOUS
 10
4050.5161119999989
 20
2259.1734469999992
 30
0.0
  0
VERTEX
  5
7CDA
  8
1
  6
CONTINUOUS
 10
5220.5161119999993
 20
2259.1734469999992
 30
0.0
  0
VERTEX
  5
7CDB
  8
1
  6
CONTINUOUS
 10
5220.5161119999993
 20
4129.1734470000001
 30
0.0
  0
VERTEX
  5
7CDC
  8
1
  6
CONTINUOUS
 10
4050.5161119999989
 20
4129.1734470000001
 30
0.0
  0
SEQEND
  5
7CDD
  8
1
  6
CONTINUOUS
  0
POLYLINE
  5
7AA7
  8
1
  6
CONTINUOUS
 66
     1
 10
0.0
 20
0.0
 30
0.0
 70
     1
  0
VERTEX
  5
7CDE
  8
1
  6
CONTINUOUS
 10
3985.5161119999989
 20
2194.1734469999992
 30
0.0
  0
VERTEX
  5
7CDF
  8
1
  6
CONTINUOUS
 10
5285.5161119999993
 20
2194.1734469999992
 30
0.0
  0
VERTEX
  5
7CE0
  8
1
  6
CONTINUOUS
 10
5285.5161119999993
 20
4194.1734469999992
 30
0.0
  0
VERTEX
  5
7CE1
  8
1
  6
CONTINUOUS
 10
3985.5161119999989
 20
4194.1734469999992
 30
0.0
  0
SEQEND
  5
7CE2
  8
1
  6
CONTINUOUS
  0
POLYLINE
  5
7AAD
  8
1
  6
CONTINUOUS
 66
     1
 10
0.0
 20
0.0
 30
0.0
 70
     1
  0
VERTEX
  5
7CE3
  8
1
  6
CONTINUOUS
 10
2945.9549059999999
 20
2194.1734469999992
 30
0.0
  0
VERTEX
  5
7CE4
  8
1
  6
CONTINUOUS
 10
845.95490600000005
 20
2194.1734469999992
 30
0.0
  0
VERTEX
  5
7CE5
  8
1
  6
CONTINUOUS
 10
845.95490600000005
 20
4194.1734469999992
 30
0.0
  0
VERTEX
  5
7CE6
  8
1
  6
CONTINUOUS
 10
2945.9549059999999
 20
4194.1734469999992
 30
0.0
  0
SEQEND
  5
7CE7
  8
1
  6
CONTINUOUS
  0
POLYLINE
  5
7AB3
  8
1
  6
CONTINUOUS
 66
     1
 10
0.0
 20
0.0
 30
0.0
 70
     1
  0
VERTEX
  5
7CE8
  8
1
  6
CONTINUOUS
 10
2880.954905999999
 20
2259.1734469999992
 30
0.0
  0
VERTEX
  5
7CE9
  8
1
  6
CONTINUOUS
 10
910.95490600000005
 20
2259.1734469999992
 30
0.0
  0
VERTEX
  5
7CEA
  8
1
  6
CONTINUOUS
 10
910.95490600000005
 20
4129.1734470000001
 30
0.0
  0
VERTEX
  5
7CEB
  8
1
  6
CONTINUOUS
 10
2880.954905999999
 20
4129.1734470000001
 30
0.0
  0
SEQEND
  5
7CEC
  8
1
  6
CONTINUOUS
  0
LINE
  5
7AB9
  8
1
  6
CONTINUOUS
 10
4400.5161120000002
 20
3948.1734470000001
 30
0.0
 11
5070.5161119999993
 21
3023.1734469999992
 31
0.0
  0
LINE
  5
7ABA
  8
1
  6
CONTINUOUS
 10
4400.5161120000002
 20
3023.1734469999992
 30
0.0
 11
5070.5161119999993
 21
3948.1734470000001
 31
0.0
  0
LINE
  5
7ABB
  8
1
  6
CONTINUOUS
 10
5070.5161119999993
 20
3948.1734470000001
 30
0.0
 11
5070.5161119999993
 21
2400.1734470000001
 31
0.0
  0
LINE
  5
7ABC
  8
1
  6
CONTINUOUS
 10
4400.5161120000002
 20
3948.1734470000001
 30
0.0
 11
4400.5161120000002
 21
2400.1734470000001
 31
0.0
  0
LINE
  5
7ABD
  8
1
  6
CONTINUOUS
 10
2800.9549059999999
 20
3023.1734469999992
 30
0.0
 11
2800.9549059999999
 21
3946.8299360000001
 31
0.0
  0
POLYLINE
  5
7ABE
  8
1
  6
CONTINUOUS
 66
     1
 10
0.0
 20
0.0
 30
0.0
  0
VERTEX
  5
7CED
  8
1
  6
CONTINUOUS
 10
2840.9549059999999
 20
3948.1734470000001
 30
0.0
  0
VERTEX
  5
7CEE
  8
1
  6
CONTINUOUS
 10
2185.9549059999999
 20
3926.1734470000001
 30
0.0
 42
0.4168370000000001
  0
VERTEX
  5
7CEF
  8
1
  6
CONTINUOUS
 10
1443.514946
 20
3057.9995050000002
 30
0.0
 42
0.429867
  0
VERTEX
  5
7CF0
  8
1
  6
CONTINUOUS
 10
2229.8310660000002
 20
2426.74827
 30
0.0
 42
0.373172
  0
VERTEX
  5
7CF1
  8
1
  6
CONTINUOUS
 10
2753.923632999999
 20
3023.1734469999992
 30
0.0
 42
0.34598
  0
SEQEND
  5
7CF2
  8
1
  6
CONTINUOUS
  0
LINE
  5
7AC5
  8
1
  6
CONTINUOUS
 10
2840.9549059999999
 20
2980.6734470000001
 30
0.0
 11
2840.9549059999999
 21
3990.6734469999992
 31
0.0
  0
LINE
  5
7AC6
  8
1
  6
CONTINUOUS
 10
2665.9549059999999
 20
3570.1734470000001
 30
0.0
 11
2005.954905999999
 21
3570.1734470000001
 31
0.0
  0
LINE
  5
7AC7
  8
2
  6
CENTER
 10
781.87275499999998
 20
3065.1734469999992
 30
0.0
 11
3083.518466
 21
3065.1734469999992
 31
0.0
  0
LINE
  5
7AC8
  8
1
  6
CONTINUOUS
 10
1223.168316999999
 20
2577.1755119999998
 30
0.0
 11
2244.250990999999
 21
2817.953775
 31
0.0
  0
CIRCLE
  5
7AC9
  8
1
  6
CONTINUOUS
 10
2185.9549059999999
 20
3065.1734469999992
 30
0.0
 40
254.0
  0
LINE
  5
7ACA
  8
1
  6
CONTINUOUS
 10
2755.954905999999
 20
2300.1734470000001
 30
0.0
 11
1005.9549060000001
 21
2300.1734470000001
 31
0.0
  0
LINE
  5
7ACB
  8
1
  6
CONTINUOUS
 10
2755.954905999999
 20
2400.1734470000001
 30
0.0
 11
1005.9549060000001
 21
2400.1734470000001
 31
0.0
  0
LINE
  5
7ACF
  8
1
  6
CONTINUOUS
 10
1025.9549059999999
 20
2750.1734469999992
 30
0.0
 11
2005.954905999999
 21
3570.1734470000001
 31
0.0
  0
LINE
  5
7AD0
  8
1
  6
CONTINUOUS
 10
1018.4549060000001
 20
2490.1734470000001
 30
0.0
 11
1073.2972400000001
 21
2557.1898799999999
 31
0.0
  0
LINE
  5
7AD1
  8
1
  6
CONTINUOUS
 10
1025.9549059999999
 20
2400.1734470000001
 30
0.0
 11
1025.9549059999999
 21
2750.1734469999992
 31
0.0
  0
LINE
  5
7AD2
  8
1
  6
CONTINUOUS
 10
1018.4549060000001
 20
2490.1734470000001
 30
0.0
 11
1008.4549060000001
 21
2440.1734469999992
 31
0.0
  0
LINE
  5
7AD3
  8
1
  6
CONTINUOUS
 10
1008.4549060000001
 20
2440.1734469999992
 30
0.0
 11
1008.4549060000001
 21
2400.1734470000001
 31
0.0
  0
LINE
  5
7AD4
  8
1
  6
CONTINUOUS
 10
1005.9549060000001
 20
2400.1734470000001
 30
0.0
 11
1005.9549060000001
 21
2300.1734470000001
 31
0.0
  0
LINE
  5
7AD5
  8
1
  6
CONTINUOUS
 10
1338.6125709999999
 20
2557.1898799999999
 30
0.0
 11
1393.4549059999999
 21
2490.1734470000001
 31
0.0
  0
ARC
  5
7AD6
  8
1
  6
CONTINUOUS
 10
1205.9549059999999
 20
2650.1734470000001
 30
0.0
 40
162.0
 50
324.972283
 51
215.02771699999991
  0
LINE
  5
7AD8
  8
1
  6
CONTINUOUS
 10
1403.4549059999999
 20
2440.1734469999992
 30
0.0
 11
1393.4549059999999
 21
2490.1734470000001
 31
0.0
  0
LINE
  5
7AD9
  8
1
  6
CONTINUOUS
 10
1403.4549059999999
 20
2440.1734469999992
 30
0.0
 11
1403.4549059999999
 21
2400.1734470000001
 31
0.0
  0
LINE
  5
7ADA
  8
1
  6
CONTINUOUS
 10
1165.509622
 20
2713.3333950000001
 30
0.0
 11
2048.9802100000002
 21
3279.0751369999998
 31
0.0
  0
LINE
  5
7ADB
  8
2
  6
CENTER
 10
1125.9549059999999
 20
2650.1734470000001
 30
0.0
 11
1285.9549059999999
 21
2650.1734470000001
 31
0.0
  0
LINE
  5
7ADC
  8
2
  6
CENTER
 10
1205.9549059999999
 20
2570.1734470000001
 30
0.0
 11
1205.9549059999999
 21
2730.1734469999992
 31
0.0
  0
CIRCLE
  5
7ADD
  8
1
  6
CONTINUOUS
 10
1205.9549059999999
 20
2650.1734470000001
 30
0.0
 40
75.0
  0
LINE
  5
7ADE
  8
2
  6
CENTER
 10
2185.9549059999999
 20
2087.258879999999
 30
0.0
 11
2185.9549059999999
 21
4322.2967479999998
 31
0.0
  0
LINE
  5
7AE0
  8
1
  6
CONTINUOUS
 10
2665.9549059999999
 20
2400.1734470000001
 30
0.0
 11
2665.9549059999999
 21
3570.1734470000001
 31
0.0
  0
LINE
  5
7AE2
  8
1
  6
CONTINUOUS
 10
2755.954905999999
 20
2400.1734470000001
 30
0.0
 11
2755.954905999999
 21
2300.1734470000001
 31
0.0
  0
LINE
  5
7AE3
  8
1
  6
CONTINUOUS
 10
2753.923632999999
 20
3023.1734469999992
 30
0.0
 11
2840.9549059999999
 21
3023.1734469999992
 31
0.0
  0
LINE
  5
7AE4
  8
1
  6
CONTINUOUS
 10
4347.5161120000002
 20
3570.1734470000001
 30
0.0
 11
4347.5161120000002
 21
2400.1734470000001
 31
0.0
  0
LINE
  5
7AE5
  8
1
  6
CONTINUOUS
 10
4177.5161119999993
 20
3570.1734470000001
 30
0.0
 11
4177.5161119999993
 21
2400.1734470000001
 31
0.0
  0
LINE
  5
7AE6
  8
1
  6
CONTINUOUS
 10
4202.5161119999993
 20
2400.1734470000001
 30
0.0
 11
5122.5161119999993
 21
2400.1734470000001
 31
0.0
  0
LINE
  5
7AE7
  8
1
  6
CONTINUOUS
 10
4202.5161119999993
 20
2300.1734470000001
 30
0.0
 11
5122.5161119999993
 21
2300.1734470000001
 31
0.0
  0
LINE
  5
7AE8
  8
1
  6
CONTINUOUS
 10
4202.5161119999993
 20
2400.1734470000001
 30
0.0
 11
4202.5161119999993
 21
2300.1734470000001
 31
0.0
  0
LINE
  5
7AE9
  8
1
  6
CONTINUOUS
 10
4177.5161119999993
 20
2400.1734470000001
 30
0.0
 11
4202.5161119999993
 21
2400.1734470000001
 31
0.0
  0
LINE
  5
7AEA
  8
1
  6
CONTINUOUS
 10
5122.5161119999993
 20
2400.1734470000001
 30
0.0
 11
5122.5161119999993
 21
2300.1734470000001
 31
0.0
  0
LINE
  5
7AEB
  8
1
  6
CONTINUOUS
 10
4400.5161120000002
 20
3023.1734469999992
 30
0.0
 11
5070.5161119999993
 21
3023.1734469999992
 31
0.0
  0
LINE
  5
7AEC
  8
1
  6
CONTINUOUS
 10
4314.5161119999993
 20
3319.1734470000001
 30
0.0
 11
4314.5161119999993
 21
2811.1734469999992
 31
0.0
  0
LINE
  5
7AED
  8
1
  6
CONTINUOUS
 10
4210.5161119999993
 20
3319.1734470000001
 30
0.0
 11
4210.5161119999993
 21
2811.1734469999992
 31
0.0
  0
LINE
  5
7AEE
  8
1
  6
CONTINUOUS
 10
4314.5161119999993
 20
2629.1734469999992
 30
0.0
 11
4400.5161120000002
 21
2629.1734469999992
 31
0.0
  0
LINE
  5
7AEF
  8
1
  6
CONTINUOUS
 10
4314.5161119999993
 20
2671.1734469999992
 30
0.0
 11
4400.5161120000002
 21
2671.1734469999992
 31
0.0
  0
LINE
  5
7AF0
  8
1
  6
CONTINUOUS
 10
4314.5161119999993
 20
3040.1734469999992
 30
0.0
 11
4400.5161120000002
 21
3040.1734469999992
 31
0.0
  0
LINE
  5
7AF1
  8
1
  6
CONTINUOUS
 10
4314.5161119999993
 20
3090.1734469999992
 30
0.0
 11
4400.5161120000002
 21
3090.1734469999992
 31
0.0
  0
LINE
  5
7AF2
  8
1
  6
CONTINUOUS
 10
4314.5161119999993
 20
2725.1734469999992
 30
0.0
 11
4314.5161119999993
 21
2575.1734470000001
 31
0.0
  0
LINE
  5
7AF3
  8
1
  6
CONTINUOUS
 10
4210.5161119999993
 20
2725.1734469999992
 30
0.0
 11
4210.5161119999993
 21
2575.1734470000001
 31
0.0
  0
LINE
  5
7AF4
  8
1
  6
CONTINUOUS
 10
4210.5161119999993
 20
2575.1734470000001
 30
0.0
 11
4314.5161119999993
 21
2575.1734470000001
 31
0.0
  0
LINE
  5
7AF5
  8
1
  6
CONTINUOUS
 10
4210.5161119999993
 20
2725.1734469999992
 30
0.0
 11
4314.5161119999993
 21
2725.1734469999992
 31
0.0
  0
LINE
  5
7AF6
  8
1
  6
CONTINUOUS
 10
4210.5161119999993
 20
2811.1734469999992
 30
0.0
 11
4314.5161119999993
 21
2811.1734469999992
 31
0.0
  0
LINE
  5
7AF7
  8
1
  6
CONTINUOUS
 10
4210.5161119999993
 20
3319.1734470000001
 30
0.0
 11
4314.5161119999993
 21
3319.1734470000001
 31
0.0
  0
LINE
  5
7AF8
  8
1
  6
CONTINUOUS
 10
4177.5161119999993
 20
3570.1734470000001
 30
0.0
 11
4347.5161120000002
 21
3570.1734470000001
 31
0.0
  0
POLYLINE
  5
7AF9
  8
1
  6
CONTINUOUS
 66
     1
 10
0.0
 20
0.0
 30
0.0
 70
     1
  0
VERTEX
  5
7CF3
  8
1
  6
CONTINUOUS
 10
2880.954905999999
 20
5336.5584869999993
 30
0.0
  0
VERTEX
  5
7CF4
  8
1
  6
CONTINUOUS
 10
910.95490600000005
 20
5336.5584869999993
 30
0.0
  0
VERTEX
  5
7CF5
  8
1
  6
CONTINUOUS
 10
910.95490600000005
 20
6506.5584869999993
 30
0.0
  0
VERTEX
  5
7CF6
  8
1
  6
CONTINUOUS
 10
2880.954905999999
 20
6506.5584869999993
 30
0.0
  0
SEQEND
  5
7CF7
  8
1
  6
CONTINUOUS
  0
POLYLINE
  5
7AFF
  8
1
  6
CONTINUOUS
 66
     1
 10
0.0
 20
0.0
 30
0.0
 70
     1
  0
VERTEX
  5
7CF8
  8
1
  6
CONTINUOUS
 10
2945.9549059999999
 20
5271.5584870000002
 30
0.0
  0
VERTEX
  5
7CF9
  8
1
  6
CONTINUOUS
 10
845.95490600000005
 20
5271.5584870000002
 30
0.0
  0
VERTEX
  5
7CFA
  8
1
  6
CONTINUOUS
 10
845.95490600000005
 20
6571.5584870000002
 30
0.0
  0
VERTEX
  5
7CFB
  8
1
  6
CONTINUOUS
 10
2945.9549059999999
 20
6571.5584870000002
 30
0.0
  0
SEQEND
  5
7CFC
  8
1
  6
CONTINUOUS
  0
LINE
  5
7B05
  8
1
  6
CONTINUOUS
 10
2755.954905999999
 20
6408.5584869999993
 30
0.0
 11
1005.9549060000001
 21
6408.5584869999993
 31
0.0
  0
LINE
  5
7B06
  8
1
  6
CONTINUOUS
 10
1025.9549059999999
 20
5463.5584870000002
 30
0.0
 11
2665.9549059999999
 21
5463.5584870000002
 31
0.0
  0
LINE
  5
7B07
  8
1
  6
CONTINUOUS
 10
1025.9549059999999
 20
5633.5584869999993
 30
0.0
 11
2665.9549059999999
 21
5633.5584869999993
 31
0.0
  0
LINE
  5
7B08
  8
1
  6
CONTINUOUS
 10
1931.954905999999
 20
5496.5584869999993
 30
0.0
 11
2439.9549059999999
 21
5496.5584869999993
 31
0.0
  0
LINE
  5
7B09
  8
1
  6
CONTINUOUS
 10
1931.954905999999
 20
5600.5584869999993
 30
0.0
 11
2439.9549059999999
 21
5600.5584869999993
 31
0.0
  0
LINE
  5
7B0A
  8
1
  6
CONTINUOUS
 10
2840.9549059999999
 20
5686.5584869999993
 30
0.0
 11
1440.787634
 21
5686.5584869999993
 31
0.0
  0
LINE
  5
7B0B
  8
1
  6
CONTINUOUS
 10
2840.9549059999999
 20
6356.5584870000002
 30
0.0
 11
1440.787634
 21
6356.5584870000002
 31
0.0
  0
LINE
  5
7B0C
  8
1
  6
CONTINUOUS
 10
2755.954905999999
 20
5488.5584869999993
 30
0.0
 11
1005.9549060000001
 21
5488.5584869999993
 31
0.0
  0
LINE
  5
7B0D
  8
1
  6
CONTINUOUS
 10
1005.9549060000001
 20
5488.5584869999993
 30
0.0
 11
1005.9549060000001
 21
6408.5584869999993
 31
0.0
  0
LINE
  5
7B0E
  8
1
  6
CONTINUOUS
 10
1025.9549059999999
 20
5463.5584870000002
 30
0.0
 11
1025.9549059999999
 21
5633.5584869999993
 31
0.0
  0
LINE
  5
7B0F
  8
1
  6
CONTINUOUS
 10
1043.9549059999999
 20
5644.5584870000002
 30
0.0
 11
1043.9549059999999
 21
6129.5584869999993
 31
0.0
  0
LINE
  5
7B10
  8
1
  6
CONTINUOUS
 10
1367.9549059999999
 20
5644.5584870000002
 30
0.0
 11
1367.9549059999999
 21
6129.5584869999993
 31
0.0
  0
LINE
  5
7B11
  8
1
  6
CONTINUOUS
 10
2160.9549059999999
 20
5600.5584869999993
 30
0.0
 11
2160.9549059999999
 21
5686.5584869999993
 31
0.0
  0
LINE
  5
7B12
  8
1
  6
CONTINUOUS
 10
1043.9549059999999
 20
5644.5584870000002
 30
0.0
 11
1367.9549059999999
 21
5644.5584870000002
 31
0.0
  0
LINE
  5
7B13
  8
1
  6
CONTINUOUS
 10
1130.9549059999999
 20
5496.5584869999993
 30
0.0
 11
1130.9549059999999
 21
5600.5584869999993
 31
0.0
  0
LINE
  5
7B14
  8
1
  6
CONTINUOUS
 10
1280.9549059999999
 20
5496.5584869999993
 30
0.0
 11
1280.9549059999999
 21
5600.5584869999993
 31
0.0
  0
LINE
  5
7B15
  8
1
  6
CONTINUOUS
 10
1184.9549059999999
 20
5600.5584869999993
 30
0.0
 11
1184.9549059999999
 21
5644.5584870000002
 31
0.0
  0
LINE
  5
7B16
  8
1
  6
CONTINUOUS
 10
1226.9549059999999
 20
5600.5584869999993
 30
0.0
 11
1226.9549059999999
 21
5644.5584870000002
 31
0.0
  0
LINE
  5
7B17
  8
1
  6
CONTINUOUS
 10
1130.9549059999999
 20
5496.5584869999993
 30
0.0
 11
1280.9549059999999
 21
5496.5584869999993
 31
0.0
  0
LINE
  5
7B18
  8
1
  6
CONTINUOUS
 10
1130.9549059999999
 20
5600.5584869999993
 30
0.0
 11
1280.9549059999999
 21
5600.5584869999993
 31
0.0
  0
LINE
  5
7B19
  8
1
  6
CONTINUOUS
 10
1931.954905999999
 20
5496.5584869999993
 30
0.0
 11
1931.954905999999
 21
5600.5584869999993
 31
0.0
  0
LINE
  5
7B1A
  8
1
  6
CONTINUOUS
 10
1043.9549059999999
 20
6129.5584869999993
 30
0.0
 11
1367.9549059999999
 21
6129.5584869999993
 31
0.0
  0
LINE
  5
7B1B
  8
1
  6
CONTINUOUS
 10
1440.787634
 20
5686.5584869999993
 30
0.0
 11
1440.787634
 21
6356.5584870000002
 31
0.0
  0
LINE
  5
7B1C
  8
1
  6
CONTINUOUS
 10
2210.954905999999
 20
5600.5584869999993
 30
0.0
 11
2210.954905999999
 21
5686.5584869999993
 31
0.0
  0
LINE
  5
7B1D
  8
1
  6
CONTINUOUS
 10
2840.9549059999999
 20
5644.5584870000002
 30
0.0
 11
2840.9549059999999
 21
6398.5584869999993
 31
0.0
  0
LINE
  5
7B1E
  8
1
  6
CONTINUOUS
 10
2755.954905999999
 20
5488.5584869999993
 30
0.0
 11
2755.954905999999
 21
5686.5584869999993
 31
0.0
  0
LINE
  5
7B1F
  8
1
  6
CONTINUOUS
 10
2439.9549059999999
 20
5496.5584869999993
 30
0.0
 11
2439.9549059999999
 21
5600.5584869999993
 31
0.0
  0
LINE
  5
7B20
  8
1
  6
CONTINUOUS
 10
2665.9549059999999
 20
5463.5584870000002
 30
0.0
 11
2665.9549059999999
 21
5633.5584869999993
 31
0.0
  0
LINE
  5
7B21
  8
1
  6
CONTINUOUS
 10
2755.954905999999
 20
6356.5584870000002
 30
0.0
 11
2755.954905999999
 21
6408.5584869999993
 31
0.0
  0
LINE
  5
7B22
  8
1
  6
CONTINUOUS
 10
2800.9549059999999
 20
5686.5584869999993
 30
0.0
 11
2800.9549059999999
 21
6356.5584870000002
 31
0.0
  0
LINE
  5
7B23
  8
1
  6
CONTINUOUS
 10
4400.5161120000002
 20
3948.1734470000001
 30
0.0
 11
5070.5161119999993
 21
3948.1734470000001
 31
0.0
  0
LINE
  5
7B41
  8
2
  6
CENTER
 10
750.80224099999987
 20
6021.5584870000002
 30
0.0
 11
3083.518466
 21
6021.5584870000002
 31
0.0
  0
LINE
  5
7B42
  8
2
  6
CENTER
 10
4735.5161119999993
 20
4337.6496500000003
 30
0.0
 11
4735.5161119999993
 21
2033.507501
 31
0.0
  0
LINE
  5
7B43
  8
2
  6
CENTER
 10
2185.9549059999999
 20
5174.0765979999996
 30
0.0
 11
2185.9549059999999
 21
6714.6078150000003
 31
0.0
  0
LINE
  5
7B44
  8
2
  6
CENTER
 10
3861.642531
 20
3065.1734469999992
 30
0.0
 11
5354.7563490000002
 21
3065.1734469999992
 31
0.0
  0
LINE
  5
7B45
  8
4
  6
CONTINUOUS
 10
5550.0
 20
1500.0
 30
0.0
 11
5550.0
 21
900.0
 31
0.0
  0
LINE
  5
7B46
  8
4
  6
CONTINUOUS
 10
3450.0
 20
1500.0
 30
0.0
 11
3450.0
 21
900.0
 31
0.0
  0
LINE
  5
7B47
  8
4
  6
CONTINUOUS
 10
1950.0
 20
1500.0
 30
0.0
 11
1950.0
 21
900.0
 31
0.0
  0
LINE
  5
7B4A
  8
4
  6
CONTINUOUS
 10
1950.0
 20
900.0
 30
0.0
 11
5550.0
 21
900.0
 31
0.0
  0
LINE
  5
7B4B
  8
4
  6
CONTINUOUS
 10
1950.0
 20
1200.0
 30
0.0
 11
5550.0
 21
1200.0
 31
0.0
  0
TEXT
  5
7B4C
  8
4
  6
CONTINUOUS
 10
2065.5062429999989
 20
1294.6290779999999
 30
0.0
 40
150.0
  1
機器名称
  0
TEXT
  5
7B4D
  8
4
  6
CONTINUOUS
 10
2058.7743179999989
 20
964.9354699999999
 30
0.0
 40
150.0
  1
機器型番
  0
TEXT
  5
7B4E
  8
4
  6
CONTINUOUS
 10
3533.0362359999999
 20
1267.7153069999999
 30
0.0
 40
150.0
  1
ミツヤ多翼送風機
  0
TEXT
  5
7B4F
  8
4
  6
CONTINUOUS
 10
3559.9634869999991
 20
951.47875299999987
 30
0.0
 40
150.0
  1
MF#5 1/2-4
  0
TEXT
  5
7B51
  8
4
  6
CONTINUOUS
 10
2138.0950899999989
 20
7150.2865239999992
 30
0.0
 40
162.0
  1
天井吊枠防振ベット
  0
TEXT
  5
7B52
  8
4
  6
CONTINUOUS
 10
948.50278000000014
 20
7601.6429289999996
 30
0.0
 40
216.0
  1
ベルト駆動式片吸込両持多翼ファン
  0
LINE
  5
7B53
  8
4
  6
CONTINUOUS
 10
750.0
 20
7408.2262629999996
 30
0.0
 11
5550.0
 21
7408.2262629999996
 31
0.0
  0
LINE
  5
7B54
  8
4
  6
CONTINUOUS
 10
750.0
 20
8008.2262629999996
 30
0.0
 11
5550.0
 21
8008.2262629999996
 31
0.0
  0
LINE
  5
7B55
  8
4
  6
CONTINUOUS
 10
1950.0
 20
1500.0
 30
0.0
 11
5550.0
 21
1500.0
 31
0.0
  0
LINE
  5
7B56
  8
4
  6
CONTINUOUS
 10
750.0
 20
8008.2262629999996
 30
0.0
 11
750.0
 21
7408.2262629999996
 31
0.0
  0
TEXT
  5
7B57
  8
4
  6
CONTINUOUS
 10
830.51859300000001
 20
7146.9584329999998
 30
0.0
 40
162.0
  1
右回転右横向
  0
TEXT
  5
7B58
  8
4
  6
CONTINUOUS
 10
4406.9086779999989
 20
8118.1832439999989
 30
0.0
 40
168.0
  1
No.
  0
TEXT
  5
7B59
  8
4
  6
CONTINUOUS
 10
4106.7668590000003
 20
7150.2865239999992
 30
0.0
 40
162.0
  1
縮尺：1/30
  0
LINE
  5
7B5A
  8
4
  6
CONTINUOUS
 10
5550.0
 20
8008.2262629999996
 30
0.0
 11
5550.0
 21
7408.2262629999996
 31
0.0
  0
LINE
  5
7B5C
  8
4
  6
CONTINUOUS
 10
4321.8522670000002
 20
8043.7907490000007
 30
0.0
 11
4321.8522670000002
 21
8359.9567849999985
 31
0.0
  0
LINE
  5
7B5D
  8
4
  6
CONTINUOUS
 10
4321.8522670000002
 20
8359.9567849999985
 30
0.0
 11
5550.0
 21
8359.9567849999985
 31
0.0
  0
LINE
  5
7B5E
  8
4
  6
CONTINUOUS
 10
5550.0
 20
8359.9567849999985
 30
0.0
 11
5550.0
 21
8043.7907490000007
 31
0.0
  0
LINE
  5
7B5F
  8
4
  6
CONTINUOUS
 10
5550.0
 20
8043.7907490000007
 30
0.0
 11
4321.8522670000002
 21
8043.7907490000007
 31
0.0
  0
DIMENSION
  5
7B70
  8
3
  6
CONTINUOUS
  2
*D1
 10
3190.8137489999999
 20
3023.1734469999992
 30
0.0
 11
3190.8137489999999
 21
3525.3874759999999
 31
0.0
 70
   128
 13
2840.9549059999999
 23
3948.1734470000001
 33
0.0
 14
2840.9549059999999
 24
3023.1734469999992
 34
0.0
 50
90.0
1001
ACAD
1000
DSTYLE
1002
{
1070
   287
1070
     3
1070
    40
1040
30.0
1070
   143
1040
0.039
1070
   172
1070
     1
1070
   271
1070
     0
1070
   279
1070
     0
1070
   288
1070
     1
1002
}
  0
DIMENSION
  5
7B7D
  8
3
  6
CONTINUOUS
  2
*D2
 10
3373.1647640000001
 20
3065.1734469999992
 30
0.0
 11
3373.1647640000001
 21
3536.1075559999999
 31
0.0
 70
   128
 13
2880.954905999999
 23
3948.1734470000001
 33
0.0
 14
3083.518466
 24
3065.1734469999992
 34
0.0
 50
90.0
1001
ACAD
1000
DSTYLE
1002
{
1070
   287
1070
     3
1070
    40
1040
30.0
1070
   143
1040
0.039
1070
   172
1070
     1
1070
   271
1070
     0
1070
   279
1070
     0
1070
   288
1070
     1
1002
}
  0
DIMENSION
  5
7B89
  8
3
  6
CONTINUOUS
  2
*D3
 10
3373.1647640000001
 20
2300.1734469999992
 30
0.0
 11
3298.1647640000001
 21
2682.6734470000001
 31
0.0
 70
     0
 13
3083.518466
 23
3065.1734469999992
 33
0.0
 14
2755.954905999999
 24
2300.1734470000001
 34
0.0
 50
90.0
1001
ACAD
1000
DSTYLE
1002
{
1070
   287
1070
     4
1070
    40
1040
30.0
1070
    75
1070
     1
1070
   143
1040
0.039
1070
   172
1070
     1
1070
   271
1070
     0
1070
   279
1070
     1
1070
   288
1070
     1
1002
}
  0
DIMENSION
  5
7B99
  8
3
  6
CONTINUOUS
  2
*D4
 10
3374.9720880000009
 20
2194.1734469999992
 30
0.0
 11
3374.972088
 21
1939.173446999999
 31
0.0
 70
   128
 13
2755.954905999999
 23
2300.1734470000001
 33
0.0
 14
2945.9549059999999
 24
2194.1734469999992
 34
0.0
 50
90.0
1001
ACAD
1000
DSTYLE
1002
{
1070
   287
1070
     3
1070
    40
1040
30.0
1070
   143
1040
0.039
1070
   172
1070
     1
1070
   271
1070
     0
1070
   279
1070
     0
1070
   288
1070
     1
1002
}
  0
DIMENSION
  5
7BA6
  8
3
  6
CONTINUOUS
  2
*D5
 10
2185.9549059999999
 20
4334.7542869999988
 30
0.0
 11
2498.952518999999
 21
4334.7542869999988
 31
0.0
 70
   128
 13
2840.9549059999999
 23
3990.6734469999992
 33
0.0
 14
2185.9549059999999
 24
4322.2967479999998
 34
0.0
1001
ACAD
1000
DSTYLE
1002
{
1070
   287
1070
     3
1070
    40
1040
30.0
1070
   143
1040
0.039
1070
   172
1070
     1
1070
   271
1070
     0
1070
   279
1070
     0
1070
   288
1070
     1
1002
}
  0
DIMENSION
  5
7BB3
  8
3
  6
CONTINUOUS
  2
*D6
 10
2185.9549059999999
 20
1970.440237
 30
0.0
 11
1512.11169
 21
1970.440237
 31
0.0
 70
   128
 13
845.95490600000005
 23
2194.1734469999992
 33
0.0
 14
2185.9549059999999
 24
2087.258879999999
 34
0.0
1001
ACAD
1000
DSTYLE
1002
{
1070
   287
1070
     3
1070
    40
1040
30.0
1070
   143
1040
0.039
1070
   172
1070
     1
1070
   271
1070
     0
1070
   279
1070
     0
1070
   288
1070
     1
1002
}
  0
DIMENSION
  5
7BBF
  8
3
  6
CONTINUOUS
  2
*D7
 10
2945.9549059999999
 20
1970.440237
 30
0.0
 11
2565.954905999999
 21
2045.440237
 31
0.0
 70
     0
 13
2185.9549059999999
 23
2087.258879999999
 33
0.0
 14
2945.9549059999999
 24
2194.1734469999992
 34
0.0
1001
ACAD
1000
DSTYLE
1002
{
1070
   287
1070
     4
1070
    40
1040
30.0
1070
    75
1070
     1
1070
   143
1040
0.039
1070
   172
1070
     1
1070
   271
1070
     0
1070
   279
1070
     1
1070
   288
1070
     1
1002
}
  0
DIMENSION
  5
7BCC
  8
3
  6
CONTINUOUS
  2
*D8
 10
5070.5161119999993
 20
4323.5000719999998
 30
0.0
 11
4743.3441039999998
 21
4323.5000719999998
 31
0.0
 70
   128
 13
4400.5161120000002
 23
3948.1734470000001
 33
0.0
 14
5070.5161119999993
 24
3948.1734470000001
 34
0.0
1001
ACAD
1000
DSTYLE
1002
{
1070
   287
1070
     3
1070
    40
1040
30.0
1070
   143
1040
0.039
1070
   172
1070
     1
1070
   271
1070
     0
1070
   279
1070
     0
1070
   288
1070
     1
1002
}
  0
LINE
  5
7BCD
  8
1
  6
CONTINUOUS
 10
5074.5161119999993
 20
3540.1734470000001
 30
0.0
 11
5074.5161119999993
 21
2590.1734469999992
 31
0.0
  0
DIMENSION
  5
7BDC
  8
3
  6
CONTINUOUS
  2
*D9
 10
5515.6543180000008
 20
2590.1734469999992
 30
0.0
 11
5515.6543179999999
 21
3074.6095310000001
 31
0.0
 70
   128
 13
5074.5161119999993
 23
3540.1734470000001
 33
0.0
 14
5074.5161119999993
 24
2590.1734469999992
 34
0.0
 50
90.0
1001
ACAD
1000
DSTYLE
1002
{
1070
   287
1070
     3
1070
     3
1000
φ<>
1070
    40
1040
30.0
1070
   143
1040
0.039
1070
   172
1070
     1
1070
   271
1070
     0
1070
   279
1070
     0
1070
   288
1070
     1
1002
}
  0
DIMENSION
  5
7BEB
  8
3
  6
CONTINUOUS
  2
*D10
 10
4735.5161119999993
 20
4532.5418369999998
 30
0.0
 11
4905.0161119999993
 21
4614.8309999222511
 31
0.0
 70
   128
 13
5074.5161119999993
 23
3540.1734470000001
 33
0.0
 14
4735.5161119999993
 24
4462.4374040000002
 34
0.0
1001
ACAD
1000
DSTYLE
1002
{
1070
   288
1070
     1
1070
   172
1070
     1
1070
    40
1040
30.0
1070
   271
1070
     0
1070
   143
1040
0.039
1002
}
  0
DIMENSION
  5
7BF8
  8
3
  6
CONTINUOUS
  2
*D11
 10
3804.7726600000001
 20
2194.1734469999992
 30
0.0
 11
3804.7726600000001
 21
3219.3307570000002
 31
0.0
 70
   128
 13
3985.5161119999989
 23
4194.1734469999992
 33
0.0
 14
3985.5161119999989
 24
2194.1734469999992
 34
0.0
 50
90.0
1001
ACAD
1000
DSTYLE
1002
{
1070
   287
1070
     3
1070
    40
1040
30.0
1070
   143
1040
0.039
1070
   172
1070
     1
1070
   271
1070
     0
1070
   279
1070
     0
1070
   288
1070
     1
1002
}
  0
DIMENSION
  5
7C05
  8
3
  6
CONTINUOUS
  2
*D12
 10
4735.5161119999993
 20
1965.0801659999991
 30
0.0
 11
4378.6420429999998
 21
1965.0801659999991
 31
0.0
 70
   128
 13
3985.5161119999989
 23
2194.1734469999992
 33
0.0
 14
4735.5161119999993
 24
2033.507501
 34
0.0
1001
ACAD
1000
DSTYLE
1002
{
1070
   287
1070
     3
1070
    40
1040
30.0
1070
   143
1040
0.039
1070
   172
1070
     1
1070
   271
1070
     0
1070
   279
1070
     0
1070
   288
1070
     1
1002
}
  0
DIMENSION
  5
7C11
  8
3
  6
CONTINUOUS
  2
*D13
 10
5285.5161119999993
 20
1965.0801659999991
 30
0.0
 11
5010.5161119999993
 21
2040.080166
 31
0.0
 70
     0
 13
4735.5161119999993
 23
2033.507501
 33
0.0
 14
5285.5161119999993
 24
2194.1734469999992
 34
0.0
1001
ACAD
1000
DSTYLE
1002
{
1070
   287
1070
     4
1070
    40
1040
30.0
1070
    75
1070
     1
1070
   143
1040
0.039
1070
   172
1070
     1
1070
   271
1070
     0
1070
   279
1070
     1
1070
   288
1070
     1
1002
}
  0
DIMENSION
  5
7C1E
  8
3
  6
CONTINUOUS
  2
*D14
 10
2945.9549059999999
 20
6753.9834499999988
 30
0.0
 11
1951.364392
 21
6753.9834499999988
 31
0.0
 70
   128
 13
845.95490600000005
 23
6571.5584870000002
 33
0.0
 14
2945.9549059999999
 24
6571.5584870000002
 34
0.0
1001
ACAD
1000
DSTYLE
1002
{
1070
   287
1070
     3
1070
    40
1040
30.0
1070
   143
1040
0.039
1070
   172
1070
     1
1070
   271
1070
     0
1070
   279
1070
     0
1070
   288
1070
     1
1002
}
  0
DIMENSION
  5
7C2B
  8
3
  6
CONTINUOUS
  2
*D15
 10
3243.911375000001
 20
5271.5584870000002
 30
0.0
 11
3243.9113750000001
 21
5955.3367189999999
 31
0.0
 70
   128
 13
2945.9549059999999
 23
6571.5584870000002
 33
0.0
 14
2945.9549059999999
 24
5271.5584870000002
 34
0.0
 50
90.0
1001
ACAD
1000
DSTYLE
1002
{
1070
   287
1070
     3
1070
    40
1040
30.0
1070
   143
1040
0.039
1070
   172
1070
     1
1070
   271
1070
     0
1070
   279
1070
     0
1070
   288
1070
     1
1002
}
  0
DIMENSION
  5
7CA1
  8
3
  2
*D16
 10
1442.954905999999
 20
4334.7542869999988
 30
0.0
 11
1814.454905999999
 21
4409.7542869999997
 31
0.0
 70
     0
 13
2185.9549059999999
 23
4322.2967479999998
 33
0.0
 14
1442.954905999999
 24
3065.1734203198362
 34
0.0
1001
ACAD
1000
DSTYLE
1002
{
1070
   287
1070
     4
1070
    40
1040
30.0
1070
    75
1070
     1
1070
   143
1040
0.039
1070
   172
1070
     1
1070
   271
1070
     0
1070
   279
1070
     1
1070
   288
1070
     1
1002
}
  0
LINE
  5
7CC1
  8
1
  6
CONTINUOUS
 10
1625.954905999999
 20
3520.1734469999992
 30
0.0
 11
2745.9549059999999
 21
3520.1734469999992
 31
0.0
  0
LINE
  5
7CC2
  8
1
 10
1625.9549059999999
 20
2400.1734470000001
 30
0.0
 11
1625.954905999999
 21
3520.1734469999992
 31
0.0
  0
LINE
  5
7CC3
  8
1
 10
2745.9549059999999
 20
2400.1734469999992
 30
0.0
 11
2745.9549059999999
 21
3520.1734469999992
 31
0.0
  0
ENDSEC
  0
EOF
