  0
SECTION
  2
HEADER
  9
$ACADVER
  1
AC1009
  9
$INSBASE
 10
0.0
 20
0.0
 30
0.0
  9
$EXTMIN
 10
741.73664400000007
 20
900.0
 30
0.0
  9
$EXTMAX
 10
5567.4563479999997
 20
8359.9567849999985
 30
0.0
  9
$LIMMIN
 10
0.0
 20
0.0
  9
$LIMMAX
 10
297.0
 20
210.0
  9
$ORTHOMODE
 70
     0
  9
$REGENMODE
 70
     1
  9
$FILLMODE
 70
     0
  9
$QTEXTMODE
 70
     0
  9
$MIRRTEXT
 70
     1
  9
$DRAGMODE
 70
     2
  9
$LTSCALE
 40
100.0
  9
$OSMODE
 70
    37
  9
$ATTMODE
 70
     1
  9
$TEXTSIZE
 40
180.0
  9
$TRACEWID
 40
0.05
  9
$TEXTSTYLE
  7
STANDARD
  9
$CLAYER
  8
3
  9
$CELTYPE
  6
BYLAYER
  9
$CECOLOR
 62
   256
  9
$DIMSCALE
 40
30.0
  9
$DIMASZ
 40
2.0
  9
$DIMEXO
 40
0.5
  9
$DIMDLI
 40
10.0
  9
$DIMRND
 40
0.0
  9
$DIMDLE
 40
0.0
  9
$DIMEXE
 40
1.0
  9
$DIMTP
 40
1.0
  9
$DIMTM
 40
1.0
  9
$DIMTXT
 40
3.0
  9
$DIMCEN
 40
0.0
  9
$DIMTSZ
 40
0.0
  9
$DIMTOL
 70
     0
  9
$DIMLIM
 70
     0
  9
$DIMTIH
 70
     0
  9
$DIMTOH
 70
     0
  9
$DIMSE1
 70
     0
  9
$DIMSE2
 70
     0
  9
$DIMTAD
 70
     1
  9
$DIMZIN
 70
     8
  9
$DIMBLK
  1

  9
$DIMASO
 70
     1
  9
$DIMSHO
 70
     1
  9
$DIMPOST
  1

  9
$DIMAPOST
  1

  9
$DIMALT
 70
     0
  9
$DIMALTD
 70
     2
  9
$DIMALTF
 40
0.039
  9
$DIMLFAC
 40
1.0
  9
$DIMTOFL
 70
     1
  9
$DIMTVP
 40
0.0
  9
$DIMTIX
 70
     0
  9
$DIMSOXD
 70
     0
  9
$DIMSAH
 70
     1
  9
$DIMBLK1
  1
OPEN
  9
$DIMBLK2
  1
OPEN
  9
$DIMSTYLE
  2
IGA
  9
$DIMCLRD
 70
     0
  9
$DIMCLRE
 70
     0
  9
$DIMCLRT
 70
     0
  9
$DIMTFAC
 40
10.0
  9
$DIMGAP
 40
1.0
  9
$LUNITS
 70
     2
  9
$LUPREC
 70
     3
  9
$SKETCHINC
 40
0.1
  9
$FILLETRAD
 40
50.0
  9
$AUNITS
 70
     0
  9
$AUPREC
 70
     0
  9
$MENU
  1
acad
  9
$ELEVATION
 40
0.0
  9
$PELEVATION
 40
0.0
  9
$THICKNESS
 40
0.0
  9
$LIMCHECK
 70
     0
  9
$BLIPMODE
 70
     0
  9
$CHAMFERA
 40
0.5
  9
$CHAMFERB
 40
0.5
  9
$SKPOLY
 70
     0
  9
$TDCREATE
 40
2450752.5528142359
  9
$TDUPDATE
 40
2454953.7766453242
  9
$TDINDWG
 40
0.0198870139
  9
$TDUSRTIMER
 40
0.0198870139
  9
$USRTIMER
 70
     1
  9
$ANGBASE
 50
0.0
  9
$ANGDIR
 70
     0
  9
$PDMODE
 70
     0
  9
$PDSIZE
 40
0.0
  9
$PLINEWID
 40
0.0
  9
$COORDS
 70
     1
  9
$SPLFRAME
 70
     0
  9
$SPLINETYPE
 70
     6
  9
$SPLINESEGS
 70
     8
  9
$ATTDIA
 70
     0
  9
$ATTREQ
 70
     1
  9
$HANDLING
 70
 10241
  9
$HANDSEED
  5
7EB6
  9
$SURFTAB1
 70
     6
  9
$SURFTAB2
 70
     6
  9
$SURFTYPE
 70
     6
  9
$SURFU
 70
     6
  9
$SURFV
 70
     6
  9
$UCSNAME
  2

  9
$UCSORG
 10
0.0
 20
0.0
 30
0.0
  9
$UCSXDIR
 10
1.0
 20
0.0
 30
0.0
  9
$UCSYDIR
 10
0.0
 20
1.0
 30
0.0
  9
$PUCSNAME
  2

  9
$PUCSORG
 10
0.0
 20
0.0
 30
0.0
  9
$PUCSXDIR
 10
1.0
 20
0.0
 30
0.0
  9
$PUCSYDIR
 10
0.0
 20
1.0
 30
0.0
  9
$USERI1
 70
     0
  9
$USERI2
 70
     0
  9
$USERI3
 70
     0
  9
$USERI4
 70
     0
  9
$USERI5
 70
     0
  9
$USERR1
 40
0.0
  9
$USERR2
 40
0.0
  9
$USERR3
 40
0.0
  9
$USERR4
 40
0.0
  9
$USERR5
 40
0.0
  9
$WORLDVIEW
 70
     1
  9
$SHADEDGE
 70
     3
  9
$SHADEDIF
 70
    70
  9
$TILEMODE
 70
     1
  9
$MAXACTVP
 70
    16
  9
$PLIMCHECK
 70
     0
  9
$PEXTMIN
 10
1.0000000000000000E+020
 20
1.0000000000000000E+020
 30
1.0000000000000000E+020
  9
$PEXTMAX
 10
-1.0000000000000000E+020
 20
-1.0000000000000000E+020
 30
-1.0000000000000000E+020
  9
$PLIMMIN
 10
0.0
 20
0.0
  9
$PLIMMAX
 10
12.0
 20
9.0
  9
$UNITMODE
 70
     0
  9
$VISRETAIN
 70
     0
  9
$PLINEGEN
 70
     0
  9
$PSLTSCALE
 70
     1
  0
ENDSEC
  0
SECTION
  2
TABLES
  0
TABLE
  2
VPORT
 70
     2
  0
VPORT
  2
*ACTIVE
 70
     0
 10
0.0
 20
0.0
 11
1.0
 21
1.0
 12
9442.7666707101871
 22
4629.9562499988788
 13
0.0
 23
0.0
 14
10.0
 24
10.0
 15
10.0
 25
10.0
 16
0.0
 26
0.0
 36
1.0
 17
0.0
 27
0.0
 37
0.0
 40
7517.2452868940854
 41
3.1666666666666661
 42
50.0
 43
0.0
 44
0.0
 50
0.0
 51
0.0
 71
     0
 72
   100
 73
     1
 74
     0
 75
     0
 76
     0
 77
     0
 78
     0
  0
ENDTAB
  0
TABLE
  2
LTYPE
 70
     2
  0
LTYPE
  2
CONTINUOUS
 70
     0
  3
Solid line
 72
    65
 73
     0
 40
0.0
  0
LTYPE
  2
CENTER
 70
     0
  3
____ _ ____ _ ____ _ ____ _ ____ _ ____ _ ____ 
 72
    65
 73
     4
 40
2.0
 49
1.25
 49
-0.25
 49
0.25
 49
-0.25
  0
ENDTAB
  0
TABLE
  2
LAYER
 70
     6
  0
LAYER
  2
0
 70
     0
 62
     7
  6
CONTINUOUS
  0
LAYER
  2
3
 70
     0
 62
     2
  6
CONTINUOUS
  0
LAYER
  2
2
 70
     0
 62
     3
  6
CENTER
  0
LAYER
  2
1
 70
     0
 62
     4
  6
CONTINUOUS
  0
LAYER
  2
4
 70
     0
 62
     7
  6
CONTINUOUS
  0
LAYER
  2
DEFPOINTS
 70
     0
 62
    -7
  6
CONTINUOUS
  0
ENDTAB
  0
TABLE
  2
STYLE
 70
     1
  0
STYLE
  2
STANDARD
 70
     0
 40
0.0
 41
1.0
 50
0.0
 71
     0
 42
180.0
  3
simplex.shx
  4
extfont.shx
  0
ENDTAB
  0
TABLE
  2
VIEW
 70
     0
  0
ENDTAB
  0
TABLE
  2
UCS
 70
     0
  0
ENDTAB
  0
TABLE
  2
APPID
 70
     1
  0
APPID
  2
ACAD
 70
     0
  0
ENDTAB
  0
TABLE
  2
DIMSTYLE
 70
     1
  0
DIMSTYLE
  2
IGA
 70
     0
  3

  4

  5

  6
OPEN
  7
OPEN
 40
2.0
 41
2.0
 42
0.5
 43
10.0
 44
1.0
 45
0.0
 46
0.0
 47
1.0
 48
1.0
140
3.0
141
0.0
142
0.0
143
0.03937
144
1.0
145
0.0
146
10.0
147
1.0
 71
     0
 72
     0
 73
     0
 74
     0
 75
     0
 76
     0
 77
     1
 78
     8
170
     0
171
     2
172
     0
173
     1
174
     0
175
     0
176
     0
177
     0
178
     0
  0
ENDTAB
  0
ENDSEC
  0
SECTION
  2
BLOCKS
  0
BLOCK
  8
0
  2
$MODEL_SPACE
 70
     0
 10
0.0
 20
0.0
 30
0.0
  3
$MODEL_SPACE
  1

  0
ENDBLK
  5
1B
  8
0
  0
BLOCK
 67
     1
  8
0
  2
$PAPER_SPACE
 70
     0
 10
0.0
 20
0.0
 30
0.0
  3
$PAPER_SPACE
  1

  0
ENDBLK
  5
18
 67
     1
  8
0
  0
BLOCK
  8
0
  2
_OPEN
 70
     0
 10
0.0
 20
0.0
 30
0.0
  3
_OPEN
  1

  0
LINE
  5
7B28
  8
0
  6
BYBLOCK
 62
     0
 10
-1.0
 20
0.166667
 30
0.0
 11
0.0
 21
0.0
 31
0.0
  0
LINE
  5
7B29
  8
0
  6
BYBLOCK
 62
     0
 10
0.0
 20
0.0
 30
0.0
 11
-1.0
 21
-0.166667
 31
0.0
  0
LINE
  5
7B2A
  8
0
  6
BYBLOCK
 62
     0
 10
0.0
 20
0.0
 30
0.0
 11
-1.0
 21
0.0
 31
0.0
  0
ENDBLK
  5
7B2B
  8
0
  0
BLOCK
  8
0
  2
*D1
 70
     1
 10
0.0
 20
0.0
 30
0.0
  3
*D1
  1

  0
LINE
  5
7E18
  8
3
  6
CONTINUOUS
 62
     0
 10
2863.9437589999998
 20
3294.8430279999998
 30
0.0
 11
3202.2700610000011
 21
3294.8430279999989
 31
0.0
  0
LINE
  5
7E19
  8
3
  6
CONTINUOUS
 62
     0
 10
2863.9437589999998
 20
2369.8430279999998
 30
0.0
 11
3202.2700610000002
 21
2369.8430279999989
 31
0.0
  0
LINE
  5
7E1A
  8
3
  6
CONTINUOUS
 62
     0
 10
3172.2700610000002
 20
3234.8430279999989
 30
0.0
 11
3172.2700610000002
 21
2429.8430279999998
 31
0.0
  0
INSERT
  5
7E1B
  8
3
  6
CONTINUOUS
 62
     0
  2
_OPEN
 10
3172.2700610000002
 20
3294.8430279999989
 30
0.0
 41
60.0
 42
60.0
 43
60.0
 50
90.0
  0
INSERT
  5
7E1C
  8
3
  6
CONTINUOUS
 62
     0
  2
_OPEN
 10
3172.2700610000002
 20
2369.8430279999989
 30
0.0
 41
60.0
 42
60.0
 43
60.0
 50
270.0
  0
TEXT
  8
3
  40
90
  5
7EA6
  62
0
  72
0
  71
0
 10
2917.27
 20
2641.40
 30
0.000000
  1
925
  0
POINT
  5
7E1E
  8
DEFPOINTS
  6
CONTINUOUS
 62
     0
 10
2848.9437589999989
 20
3294.8430279999998
 30
0.0
  0
POINT
  5
7E1F
  8
DEFPOINTS
  6
CONTINUOUS
 62
     0
 10
2848.9437589999989
 20
2369.8430279999998
 30
0.0
  0
POINT
  5
7E20
  8
DEFPOINTS
  6
CONTINUOUS
 62
     0
 10
3172.2700610000002
 20
2369.8430279999989
 30
0.0
  0
ENDBLK
  5
7B71
  8
0
  0
BLOCK
  8
0
  2
*D2
 70
     1
 10
0.0
 20
0.0
 30
0.0
  3
*D2
  1

  0
LINE
  5
7E21
  8
3
  6
CONTINUOUS
 62
     0
 10
2903.9437589999998
 20
2369.8430279999998
 30
0.0
 11
3382.835822
 21
2369.8430279999989
 31
0.0
  0
LINE
  5
7E22
  8
3
  6
CONTINUOUS
 62
     0
 10
3089.799634
 20
3252.8430279999998
 30
0.0
 11
3382.8358220000009
 21
3252.8430279999998
 31
0.0
  0
LINE
  5
7E23
  8
3
  6
CONTINUOUS
 62
     0
 10
3352.8358220000009
 20
2429.8430279999998
 30
0.0
 11
3352.8358220000009
 21
3192.8430279999998
 31
0.0
  0
INSERT
  5
7E24
  8
3
  6
CONTINUOUS
 62
     0
  2
_OPEN
 10
3352.8358220000009
 20
2369.8430279999989
 30
0.0
 41
60.0
 42
60.0
 43
60.0
 50
270.0
  0
INSERT
  5
7E25
  8
3
  6
CONTINUOUS
 62
     0
  2
_OPEN
 10
3352.8358220000009
 20
3252.8430279999998
 30
0.0
 41
60.0
 42
60.0
 43
60.0
 50
90.0
  0
TEXT
  8
3
  40
90
  5
7EA7
  62
0
  72
0
  71
0
 10
3097.84
 20
2633.88
 30
0.000000
  1
883
  0
POINT
  5
7E27
  8
DEFPOINTS
  6
CONTINUOUS
 62
     0
 10
2888.9437589999998
 20
2369.8430279999998
 30
0.0
  0
POINT
  5
7E28
  8
DEFPOINTS
  6
CONTINUOUS
 62
     0
 10
3074.799634
 20
3252.8430279999998
 30
0.0
  0
POINT
  5
7E29
  8
DEFPOINTS
  6
CONTINUOUS
 62
     0
 10
3352.8358220000009
 20
3252.8430279999998
 30
0.0
  0
ENDBLK
  5
7B7E
  8
0
  0
BLOCK
  8
0
  2
*D3
 70
     1
 10
0.0
 20
0.0
 30
0.0
  3
*D3
  1

  0
LINE
  5
7E2A
  8
3
  6
CONTINUOUS
 62
     0
 10
853.943759
 20
2031.843028
 30
0.0
 11
853.943759
 21
1734.6776729999999
 31
0.0
  0
LINE
  5
7E2B
  8
3
  6
CONTINUOUS
 62
     0
 10
2193.9437589999989
 20
1948.295509
 30
0.0
 11
2193.9437589999989
 21
1734.6776729999999
 31
0.0
  0
LINE
  5
7E2C
  8
3
  6
CONTINUOUS
 62
     0
 10
913.943759
 20
1764.6776729999999
 30
0.0
 11
2133.9437589999998
 21
1764.6776729999999
 31
0.0
  0
INSERT
  5
7E2D
  8
3
  6
CONTINUOUS
 62
     0
  2
_OPEN
 10
853.943759
 20
1764.6776729999999
 30
0.0
 41
60.0
 42
60.0
 43
60.0
 50
180.0
  0
INSERT
  5
7E2E
  8
3
  6
CONTINUOUS
 62
     0
  2
_OPEN
 10
2193.9437589999989
 20
1764.6776729999999
 30
0.0
 41
60.0
 42
60.0
 43
60.0
  0
TEXT
  8
3
  40
90
  5
7EA8
  62
0
  72
0
  71
0
 10
1352.13
 20
1680.38
 30
0.000000
  1
1340
  0
POINT
  5
7E30
  8
DEFPOINTS
  6
CONTINUOUS
 62
     0
 10
853.943759
 20
2046.843028
 30
0.0
  0
POINT
  5
7E31
  8
DEFPOINTS
  6
CONTINUOUS
 62
     0
 10
2193.9437589999989
 20
1963.2955089999989
 30
0.0
  0
POINT
  5
7E32
  8
DEFPOINTS
  6
CONTINUOUS
 62
     0
 10
2193.9437589999989
 20
1764.6776729999999
 30
0.0
  0
ENDBLK
  5
7D08
  8
0
  0
BLOCK
  8
0
  2
*D4
 70
     1
 10
0.0
 20
0.0
 30
0.0
  3
*D4
  1

  0
LINE
  5
7E33
  8
3
  6
CONTINUOUS
 62
     0
 10
2953.9437589999989
 20
2031.843028
 30
0.0
 11
2953.9437589999989
 21
1734.6776729999999
 31
0.0
  0
LINE
  5
7E34
  8
3
  6
CONTINUOUS
 62
     0
 10
2253.9437589999989
 20
1764.6776729999999
 30
0.0
 11
2893.9437589999989
 21
1764.6776729999999
 31
0.0
  0
INSERT
  5
7E35
  8
3
  6
CONTINUOUS
 62
     0
  2
_OPEN
 10
2193.9437589999989
 20
1764.6776729999999
 30
0.0
 41
60.0
 42
60.0
 43
60.0
 50
180.0
  0
INSERT
  5
7E36
  8
3
  6
CONTINUOUS
 62
     0
  2
_OPEN
 10
2953.9437589999989
 20
1764.6776729999999
 30
0.0
 41
60.0
 42
60.0
 43
60.0
  0
TEXT
  8
3
  40
90
  5
7EA9
  62
0
  72
0
  71
0
 10
2393.94
 20
1680.38
 30
0.000000
  1
760
  0
POINT
  5
7E38
  8
DEFPOINTS
  6
CONTINUOUS
 62
     0
 10
2193.9437589999989
 20
1963.2955089999989
 30
0.0
  0
POINT
  5
7E39
  8
DEFPOINTS
  6
CONTINUOUS
 62
     0
 10
2953.9437589999989
 20
2046.843028
 30
0.0
  0
POINT
  5
7E3A
  8
DEFPOINTS
  6
CONTINUOUS
 62
     0
 10
2953.9437589999989
 20
1764.6776729999999
 30
0.0
  0
ENDBLK
  5
7D12
  8
0
  0
BLOCK
  8
0
  2
*D5
 70
     1
 10
0.0
 20
0.0
 30
0.0
  3
*D5
  1

  0
LINE
  5
7E3B
  8
3
  6
CONTINUOUS
 62
     0
 10
2848.9437589999989
 20
3352.3430279999989
 30
0.0
 11
2848.9437589999989
 21
4206.6853920000003
 31
0.0
  0
LINE
  5
7E3C
  8
3
  6
CONTINUOUS
 62
     0
 10
2193.9437589999989
 20
4099.35044659091
 30
0.0
 11
2193.9437589999989
 21
4206.6853920000003
 31
0.0
  0
LINE
  5
7E3D
  8
3
  6
CONTINUOUS
 62
     0
 10
2788.9437589999998
 20
4176.6853920000003
 30
0.0
 11
2253.9437589999989
 21
4176.6853920000003
 31
0.0
  0
INSERT
  5
7E3E
  8
3
  6
CONTINUOUS
 62
     0
  2
_OPEN
 10
2848.9437589999989
 20
4176.6853920000003
 30
0.0
 41
60.0
 42
60.0
 43
60.0
  0
INSERT
  5
7E3F
  8
3
  6
CONTINUOUS
 62
     0
  2
_OPEN
 10
2193.9437589999989
 20
4176.6853920000003
 30
0.0
 41
60.0
 42
60.0
 43
60.0
 50
180.0
  0
TEXT
  8
3
  40
90
  5
7EAA
  62
0
  72
0
  71
0
 10
2328.09
 20
4092.39
 30
0.000000
  1
655
  0
POINT
  5
7E41
  8
DEFPOINTS
  6
CONTINUOUS
 62
     0
 10
2848.9437589999989
 20
3337.3430279999998
 30
0.0
  0
POINT
  5
7E42
  8
DEFPOINTS
  6
CONTINUOUS
 62
     0
 10
2193.9437589999989
 20
4084.3504465909091
 30
0.0
  0
POINT
  5
7E43
  8
DEFPOINTS
  6
CONTINUOUS
 62
     0
 10
2193.9437589999989
 20
4176.6853920000003
 30
0.0
  0
ENDBLK
  5
7D76
  8
0
  0
BLOCK
  8
0
  2
*D6
 70
     1
 10
0.0
 20
0.0
 30
0.0
  3
*D6
  1

  0
LINE
  5
7E44
  8
3
  6
CONTINUOUS
 62
     0
 10
4371.8766829999986
 20
3912.6393710000002
 30
0.0
 11
4371.8766829999986
 21
4206.6853920000003
 31
0.0
  0
LINE
  5
7E45
  8
3
  6
CONTINUOUS
 62
     0
 10
5041.8766829999986
 20
3912.6393710000002
 30
0.0
 11
5041.8766829999986
 21
4206.6853920000003
 31
0.0
  0
LINE
  5
7E46
  8
3
  6
CONTINUOUS
 62
     0
 10
4431.8766829999986
 20
4176.6853920000003
 30
0.0
 11
4981.8766829999986
 21
4176.6853920000003
 31
0.0
  0
INSERT
  5
7E47
  8
3
  6
CONTINUOUS
 62
     0
  2
_OPEN
 10
4371.8766829999986
 20
4176.6853920000003
 30
0.0
 41
60.0
 42
60.0
 43
60.0
 50
180.0
  0
INSERT
  5
7E48
  8
3
  6
CONTINUOUS
 62
     0
  2
_OPEN
 10
5041.8766829999986
 20
4176.6853920000003
 30
0.0
 41
60.0
 42
60.0
 43
60.0
  0
TEXT
  8
3
  40
90
  5
7EAB
  62
0
  72
0
  71
0
 10
4529.86
 20
4092.39
 30
0.000000
  1
670
  0
POINT
  5
7E4A
  8
DEFPOINTS
  6
CONTINUOUS
 62
     0
 10
4371.8766829999986
 20
3897.6393710000002
 30
0.0
  0
POINT
  5
7E4B
  8
DEFPOINTS
  6
CONTINUOUS
 62
     0
 10
5041.8766829999986
 20
3897.6393710000002
 30
0.0
  0
POINT
  5
7E4C
  8
DEFPOINTS
  6
CONTINUOUS
 62
     0
 10
5041.8766829999986
 20
4176.6853920000003
 30
0.0
  0
ENDBLK
  5
7BE6
  8
0
  0
BLOCK
  8
0
  2
*D7
 70
     1
 10
0.0
 20
0.0
 30
0.0
  3
*D7
  1

  0
LINE
  5
7E4D
  8
3
  6
CONTINUOUS
 62
     0
 10
5060.8766830000004
 20
3727.8430279999998
 30
0.0
 11
5567.4563480000006
 21
3727.8430279999998
 31
0.0
  0
LINE
  5
7E4E
  8
3
  6
CONTINUOUS
 62
     0
 10
5060.8766830000004
 20
2777.8430279999998
 30
0.0
 11
5567.4563480000006
 21
2777.8430279999989
 31
0.0
  0
LINE
  5
7E4F
  8
3
  6
CONTINUOUS
 62
     0
 10
5537.4563479999997
 20
3667.8430279999998
 30
0.0
 11
5537.4563479999997
 21
2837.8430279999989
 31
0.0
  0
INSERT
  5
7E50
  8
3
  6
CONTINUOUS
 62
     0
  2
_OPEN
 10
5537.4563479999997
 20
3727.8430279999998
 30
0.0
 41
60.0
 42
60.0
 43
60.0
 50
90.0
  0
INSERT
  5
7E51
  8
3
  6
CONTINUOUS
 62
     0
  2
_OPEN
 10
5537.4563479999997
 20
2777.8430279999989
 30
0.0
 41
60.0
 42
60.0
 43
60.0
 50
270.0
  0
TEXT
  8
3
  40
90
  5
7EAC
  62
0
  72
0
  71
0
 10
5282.46
 20
3092.54
 30
0.000000
  1
φ950
  0
POINT
  5
7E53
  8
DEFPOINTS
  6
CONTINUOUS
 62
     0
 10
5045.8766829999986
 20
3727.8430279999998
 30
0.0
  0
POINT
  5
7E54
  8
DEFPOINTS
  6
CONTINUOUS
 62
     0
 10
5045.8766829999986
 20
2777.8430279999998
 30
0.0
  0
POINT
  5
7E55
  8
DEFPOINTS
  6
CONTINUOUS
 62
     0
 10
5537.4563479999997
 20
2777.8430279999989
 30
0.0
  0
ENDBLK
  5
7D49
  8
0
  0
BLOCK
  8
0
  2
*D8
 70
     1
 10
0.0
 20
0.0
 30
0.0
  3
*D8
  1

  0
LINE
  5
7D56
  8
0
  6
BYBLOCK
 62
     0
 10
5045.8766829999986
 20
3742.8430279999998
 30
0.0
 11
5045.8766829999986
 21
4402.1808559999999
 31
0.0
  0
LINE
  5
7D57
  8
0
  6
BYBLOCK
 62
     0
 10
4706.8766829999986
 20
4327.679396999999
 30
0.0
 11
4706.8766829999986
 21
4402.1808559999999
 31
0.0
  0
LINE
  5
7D58
  8
0
  6
BYBLOCK
 62
     0
 10
4985.8766829999986
 20
4372.180855999999
 30
0.0
 11
4766.8766829999986
 21
4372.180855999999
 31
0.0
  0
TEXT
  5
7D59
  8
3
 62
     0
 10
4762.8052544285702
 20
4446.1783899951506
 30
0.0
 40
90.0
  1
339
  0
INSERT
  5
7D5A
  8
0
  6
BYBLOCK
 62
     0
  2
_OPEN
 10
5045.8766829999986
 20
4372.180855999999
 30
0.0
 41
60.0
 42
60.0
 43
60.0
  0
INSERT
  5
7D5B
  8
0
  6
BYBLOCK
 62
     0
  2
_OPEN
 10
4706.8766829999986
 20
4372.180855999999
 30
0.0
 41
60.0
 42
60.0
 43
60.0
 50
180.0
  0
POINT
  5
7D5C
  8
DEFPOINTS
  6
BYBLOCK
 62
     0
 10
5045.8766829999986
 20
3727.8430279999998
 30
0.0
  0
POINT
  5
7D5D
  8
DEFPOINTS
  6
BYBLOCK
 62
     0
 10
4706.8766829999986
 20
4312.6793969999999
 30
0.0
  0
POINT
  5
7D5E
  8
DEFPOINTS
  6
BYBLOCK
 62
     0
 10
4706.8766829999986
 20
4372.180855999999
 30
0.0
  0
ENDBLK
  5
7D5F
  8
0
  0
BLOCK
  8
0
  2
*D9
 70
     1
 10
0.0
 20
0.0
 30
0.0
  3
*D9
  1

  0
LINE
  5
7E56
  8
3
  6
CONTINUOUS
 62
     0
 10
3941.876683
 20
4046.8430279999998
 30
0.0
 11
3792.08158
 21
4046.8430279999998
 31
0.0
  0
LINE
  5
7E57
  8
3
  6
CONTINUOUS
 62
     0
 10
3941.876683
 20
2046.843028
 30
0.0
 11
3792.08158
 21
2046.843028
 31
0.0
  0
LINE
  5
7E58
  8
3
  6
CONTINUOUS
 62
     0
 10
3822.08158
 20
3986.8430279999998
 30
0.0
 11
3822.08158
 21
2106.8430279999998
 31
0.0
  0
INSERT
  5
7E59
  8
3
  6
CONTINUOUS
 62
     0
  2
_OPEN
 10
3822.08158
 20
4046.8430279999998
 30
0.0
 41
60.0
 42
60.0
 43
60.0
 50
90.0
  0
INSERT
  5
7E5A
  8
3
  6
CONTINUOUS
 62
     0
  2
_OPEN
 10
3822.08158
 20
2046.843028
 30
0.0
 41
60.0
 42
60.0
 43
60.0
 50
270.0
  0
TEXT
  8
3
  40
90
  5
7EAD
  62
0
  72
0
  71
0
 10
3567.08
 20
2972.24
 30
0.000000
  1
2000
  0
POINT
  5
7E5C
  8
DEFPOINTS
  6
CONTINUOUS
 62
     0
 10
3956.876683
 20
4046.8430279999998
 30
0.0
  0
POINT
  5
7E5D
  8
DEFPOINTS
  6
CONTINUOUS
 62
     0
 10
3956.876683
 20
2046.843028
 30
0.0
  0
POINT
  5
7E5E
  8
DEFPOINTS
  6
CONTINUOUS
 62
     0
 10
3822.08158
 20
2046.843028
 30
0.0
  0
ENDBLK
  5
7C12
  8
0
  0
BLOCK
  8
0
  2
*D10
 70
     1
 10
0.0
 20
0.0
 30
0.0
  3
*D10
  1

  0
LINE
  5
7E5F
  8
3
  6
CONTINUOUS
 62
     0
 10
3956.876683
 20
2031.843028
 30
0.0
 11
3956.876683
 21
1759.004265999999
 31
0.0
  0
LINE
  5
7E60
  8
3
  6
CONTINUOUS
 62
     0
 10
4706.8766829999986
 20
1891.3876079999991
 30
0.0
 11
4706.8766829999986
 21
1759.004265999999
 31
0.0
  0
LINE
  5
7E61
  8
3
  6
CONTINUOUS
 62
     0
 10
4016.876683
 20
1789.0042659999999
 30
0.0
 11
4646.8766829999986
 21
1789.0042659999999
 31
0.0
  0
INSERT
  5
7E62
  8
3
  6
CONTINUOUS
 62
     0
  2
_OPEN
 10
3956.876683
 20
1789.0042659999999
 30
0.0
 41
60.0
 42
60.0
 43
60.0
 50
180.0
  0
INSERT
  5
7E63
  8
3
  6
CONTINUOUS
 62
     0
  2
_OPEN
 10
4706.8766829999986
 20
1789.0042659999999
 30
0.0
 41
60.0
 42
60.0
 43
60.0
  0
TEXT
  8
3
  40
90
  5
7EAE
  62
0
  72
0
  71
0
 10
4165.93
 20
1704.70
 30
0.000000
  1
750
  0
POINT
  5
7E65
  8
DEFPOINTS
  6
CONTINUOUS
 62
     0
 10
3956.876683
 20
2046.843028
 30
0.0
  0
POINT
  5
7E66
  8
DEFPOINTS
  6
CONTINUOUS
 62
     0
 10
4706.8766829999986
 20
1906.3876079999991
 30
0.0
  0
POINT
  5
7E67
  8
DEFPOINTS
  6
CONTINUOUS
 62
     0
 10
4706.8766829999986
 20
1789.0042659999999
 30
0.0
  0
ENDBLK
  5
7D27
  8
0
  0
BLOCK
  8
0
  2
*D11
 70
     1
 10
0.0
 20
0.0
 30
0.0
  3
*D11
  1

  0
LINE
  5
7E68
  8
3
  6
CONTINUOUS
 62
     0
 10
5256.8766829999986
 20
2031.843028
 30
0.0
 11
5256.8766829999986
 21
1759.004265999999
 31
0.0
  0
LINE
  5
7E69
  8
3
  6
CONTINUOUS
 62
     0
 10
4766.8766829999986
 20
1789.0042659999999
 30
0.0
 11
5196.8766829999986
 21
1789.0042659999999
 31
0.0
  0
INSERT
  5
7E6A
  8
3
  6
CONTINUOUS
 62
     0
  2
_OPEN
 10
4706.8766829999986
 20
1789.0042659999999
 30
0.0
 41
60.0
 42
60.0
 43
60.0
 50
180.0
  0
INSERT
  5
7E6B
  8
3
  6
CONTINUOUS
 62
     0
  2
_OPEN
 10
5256.8766829999986
 20
1789.0042659999999
 30
0.0
 41
60.0
 42
60.0
 43
60.0
  0
TEXT
  8
3
  40
90
  5
7EAF
  62
0
  72
0
  71
0
 10
4801.88
 20
1704.70
 30
0.000000
  1
550
  0
POINT
  5
7E6D
  8
DEFPOINTS
  6
CONTINUOUS
 62
     0
 10
4706.8766829999986
 20
1906.3876079999991
 30
0.0
  0
POINT
  5
7E6E
  8
DEFPOINTS
  6
CONTINUOUS
 62
     0
 10
5256.8766829999986
 20
2046.843028
 30
0.0
  0
POINT
  5
7E6F
  8
DEFPOINTS
  6
CONTINUOUS
 62
     0
 10
5256.8766829999986
 20
1789.0042659999999
 30
0.0
  0
ENDBLK
  5
7D1C
  8
0
  0
BLOCK
  8
0
  2
*D12
 70
     1
 10
0.0
 20
0.0
 30
0.0
  3
*D12
  1

  0
LINE
  5
7E70
  8
3
  6
CONTINUOUS
 62
     0
 10
853.943759
 20
6510.9192700000012
 30
0.0
 11
853.943759
 21
6742.323641
 31
0.0
  0
LINE
  5
7E71
  8
3
  6
CONTINUOUS
 62
     0
 10
2953.9437589999989
 20
6510.9192700000012
 30
0.0
 11
2953.9437589999989
 21
6742.323641
 31
0.0
  0
LINE
  5
7E72
  8
3
  6
CONTINUOUS
 62
     0
 10
913.943759
 20
6712.3236410000009
 30
0.0
 11
2893.9437589999989
 21
6712.3236410000009
 31
0.0
  0
INSERT
  5
7E73
  8
3
  6
CONTINUOUS
 62
     0
  2
_OPEN
 10
853.943759
 20
6712.3236410000009
 30
0.0
 41
60.0
 42
60.0
 43
60.0
 50
180.0
  0
INSERT
  5
7E74
  8
3
  6
CONTINUOUS
 62
     0
  2
_OPEN
 10
2953.9437589999989
 20
6712.3236410000009
 30
0.0
 41
60.0
 42
60.0
 43
60.0
  0
TEXT
  8
3
  40
90
  5
7EB0
  62
0
  72
0
  71
0
 10
1706.50
 20
6628.02
 30
0.000000
  1
2100
  0
POINT
  5
7E76
  8
DEFPOINTS
  6
CONTINUOUS
 62
     0
 10
853.943759
 20
6495.9192700000003
 30
0.0
  0
POINT
  5
7E77
  8
DEFPOINTS
  6
CONTINUOUS
 62
     0
 10
2953.9437589999989
 20
6495.9192700000003
 30
0.0
  0
POINT
  5
7E78
  8
DEFPOINTS
  6
CONTINUOUS
 62
     0
 10
2953.9437589999989
 20
6712.3236410000009
 30
0.0
  0
ENDBLK
  5
7C38
  8
0
  0
BLOCK
  8
0
  2
*D13
 70
     1
 10
0.0
 20
0.0
 30
0.0
  3
*D13
  1

  0
LINE
  5
7E79
  8
3
  6
CONTINUOUS
 62
     0
 10
2968.9437589999998
 20
6495.9192700000003
 30
0.0
 11
3284.2681459999999
 21
6495.9192700000003
 31
0.0
  0
LINE
  5
7E7A
  8
3
  6
CONTINUOUS
 62
     0
 10
2968.9437589999998
 20
5195.9192700000003
 30
0.0
 11
3284.2681459999999
 21
5195.9192700000003
 31
0.0
  0
LINE
  5
7E7B
  8
3
  6
CONTINUOUS
 62
     0
 10
3254.2681460000008
 20
6435.9192700000012
 30
0.0
 11
3254.2681460000008
 21
5255.9192700000003
 31
0.0
  0
INSERT
  5
7E7C
  8
3
  6
CONTINUOUS
 62
     0
  2
_OPEN
 10
3254.2681460000008
 20
6495.9192700000003
 30
0.0
 41
60.0
 42
60.0
 43
60.0
 50
90.0
  0
INSERT
  5
7E7D
  8
3
  6
CONTINUOUS
 62
     0
  2
_OPEN
 10
3254.2681460000008
 20
5195.9192700000003
 30
0.0
 41
60.0
 42
60.0
 43
60.0
 50
270.0
  0
TEXT
  8
3
  40
90
  5
7EB1
  62
0
  72
0
  71
0
 10
2999.27
 20
5714.22
 30
0.000000
  1
1300
  0
POINT
  5
7E7F
  8
DEFPOINTS
  6
CONTINUOUS
 62
     0
 10
2953.9437589999989
 20
6495.9192700000003
 30
0.0
  0
POINT
  5
7E80
  8
DEFPOINTS
  6
CONTINUOUS
 62
     0
 10
2953.9437589999989
 20
5195.9192700000003
 30
0.0
  0
POINT
  5
7E81
  8
DEFPOINTS
  6
CONTINUOUS
 62
     0
 10
3254.2681460000008
 20
5195.9192700000003
 30
0.0
  0
ENDBLK
  5
7C45
  8
0
  0
BLOCK
  8
0
  2
*D14
 70
     1
 10
0.0
 20
0.0
 30
0.0
  3
*D14
  1

  0
LINE
  5
7E82
  8
3
  6
CONTINUOUS
 62
     0
 10
3104.799634
 20
3252.8430279999998
 30
0.0
 11
3601.3001870000012
 21
3252.8430279999998
 31
0.0
  0
LINE
  5
7E83
  8
3
  6
CONTINUOUS
 62
     0
 10
2778.9437589999998
 20
2162.8430279999998
 30
0.0
 11
3601.3001869999998
 21
2162.8430279999998
 31
0.0
  0
LINE
  5
7E84
  8
3
  6
CONTINUOUS
 62
     0
 10
3571.3001869999998
 20
3192.8430279999998
 30
0.0
 11
3571.3001869999998
 21
2222.8430279999989
 31
0.0
  0
INSERT
  5
7E85
  8
3
  6
CONTINUOUS
 62
     0
  2
_OPEN
 10
3571.3001869999998
 20
3252.8430279999998
 30
0.0
 41
60.0
 42
60.0
 43
60.0
 50
90.0
  0
INSERT
  5
7E86
  8
3
  6
CONTINUOUS
 62
     0
  2
_OPEN
 10
3571.3001869999998
 20
2162.8430279999998
 30
0.0
 41
60.0
 42
60.0
 43
60.0
 50
270.0
  0
TEXT
  8
3
  40
90
  5
7EB2
  62
0
  72
0
  71
0
 10
3316.30
 20
2542.21
 30
0.000000
  1
1090
  0
POINT
  5
7E88
  8
DEFPOINTS
  6
CONTINUOUS
 62
     0
 10
3089.799634
 20
3252.8430279999998
 30
0.0
  0
POINT
  5
7E89
  8
DEFPOINTS
  6
CONTINUOUS
 62
     0
 10
2763.9437589999998
 20
2162.8430279999998
 30
0.0
  0
POINT
  5
7E8A
  8
DEFPOINTS
  6
CONTINUOUS
 62
     0
 10
3571.3001869999998
 20
2162.8430279999998
 30
0.0
  0
ENDBLK
  5
7CD2
  8
0
  0
BLOCK
  8
0
  2
*D15
 70
     1
 10
0.0
 20
0.0
 30
0.0
  3
*D15
  1

  0
LINE
  5
7E8B
  8
3
  6
CONTINUOUS
 62
     0
 10
2778.9437589999998
 20
2162.8430279999998
 30
0.0
 11
3601.3001869999998
 21
2162.8430279999998
 31
0.0
  0
LINE
  5
7E8C
  8
3
  6
CONTINUOUS
 62
     0
 10
2968.9437589999998
 20
2046.843028
 30
0.0
 11
3601.3001869999998
 21
2046.843028
 31
0.0
  0
LINE
  5
7E8D
  8
3
  6
CONTINUOUS
 62
     0
 10
3571.3001869999998
 20
2222.8430279999989
 30
0.0
 11
3571.3001869999998
 21
2282.8430279999989
 31
0.0
  0
LINE
  5
7E8E
  8
3
  6
CONTINUOUS
 62
     0
 10
3571.3001869999998
 20
1986.843028
 30
0.0
 11
3571.3001869999998
 21
1673.9858851428569
 31
0.0
  0
LINE
  5
7E8F
  8
3
  6
CONTINUOUS
 62
     0
 10
3571.3001869999998
 20
2162.8430279999998
 30
0.0
 11
3571.3001869999998
 21
2046.843028
 31
0.0
  0
INSERT
  5
7E90
  8
3
  6
CONTINUOUS
 62
     0
  2
_OPEN
 10
3571.3001869999998
 20
2162.8430279999998
 30
0.0
 41
60.0
 42
60.0
 43
60.0
 50
270.0
  0
INSERT
  5
7E91
  8
3
  6
CONTINUOUS
 62
     0
  2
_OPEN
 10
3571.3001869999998
 20
2046.843028
 30
0.0
 41
60.0
 42
60.0
 43
60.0
 50
90.0
  0
TEXT
  8
3
  40
90
  5
7EB3
  62
0
  72
0
  71
0
 10
3316.30
 20
1641.11
 30
0.000000
  1
116
  0
POINT
  5
7E93
  8
DEFPOINTS
  6
CONTINUOUS
 62
     0
 10
2763.9437589999998
 20
2162.8430279999998
 30
0.0
  0
POINT
  5
7E94
  8
DEFPOINTS
  6
CONTINUOUS
 62
     0
 10
2953.9437589999989
 20
2046.843028
 30
0.0
  0
POINT
  5
7E95
  8
DEFPOINTS
  6
CONTINUOUS
 62
     0
 10
3571.3001869999998
 20
2046.843028
 30
0.0
  0
ENDBLK
  5
7D3E
  8
0
  0
BLOCK
  8
0
  2
*D16
 70
     1
 10
0.0
 20
0.0
 30
0.0
  3
*D16
  1

  0
LINE
  5
7E96
  8
3
 62
     0
 10
1450.9437589999991
 20
3267.8430279999998
 30
0.0
 11
1450.9437589999991
 21
4206.6853920000003
 31
0.0
  0
LINE
  5
7E97
  8
3
 62
     0
 10
2133.9437589999998
 20
4176.6853920000003
 30
0.0
 11
1510.9437589999991
 21
4176.6853920000003
 31
0.0
  0
INSERT
  5
7E98
  8
3
 62
     0
  2
_OPEN
 10
2193.9437589999989
 20
4176.6853920000003
 30
0.0
 41
60.0
 42
60.0
 43
60.0
  0
INSERT
  5
7E99
  8
3
 62
     0
  2
_OPEN
 10
1450.9437589999991
 20
4176.6853920000003
 30
0.0
 41
60.0
 42
60.0
 43
60.0
 50
180.0
  0
TEXT
  8
3
  40
90
  5
7EB4
  62
0
  72
0
  71
0
 10
1642.44
 20
4092.39
 30
0.000000
  1
743
  0
POINT
  5
7E9B
  8
DEFPOINTS
 62
     0
 10
2193.9437589999989
 20
4168.454522
 30
0.0
  0
POINT
  5
7E9C
  8
DEFPOINTS
 62
     0
 10
1450.9437589999991
 20
3252.8430279999998
 30
0.0
  0
POINT
  5
7E9D
  8
DEFPOINTS
 62
     0
 10
1450.9437589999991
 20
4176.6853920000003
 30
0.0
  0
ENDBLK
  5
7D81
  8
0
  0
BLOCK
  8
0
  2
*D17
 70
     1
 10
0.0
 20
0.0
 30
0.0
  3
*D17
  1

  0
LINE
  5
7E9E
  8
3
 62
     0
 10
2208.9437589999989
 20
3895.8379709917308
 30
0.0
 11
3601.3001869999989
 21
3895.8379709917299
 31
0.0
  0
LINE
  5
7E9F
  8
3
 62
     0
 10
3571.3001869999998
 20
3312.8430279999998
 30
0.0
 11
3571.3001869999998
 21
3835.8379709917299
 31
0.0
  0
INSERT
  5
7EA0
  8
3
 62
     0
  2
_OPEN
 10
3571.3001869999998
 20
3252.8430279999998
 30
0.0
 41
60.0
 42
60.0
 43
60.0
 50
270.0
  0
INSERT
  5
7EA1
  8
3
 62
     0
  2
_OPEN
 10
3571.3001869999998
 20
3895.8379709917299
 30
0.0
 41
60.0
 42
60.0
 43
60.0
 50
90.0
  0
TEXT
  8
3
  40
90
  5
7EB5
  62
0
  72
0
  71
0
 10
3316.30
 20
3415.04
 30
0.000000
  1
643
  0
POINT
  5
7EA3
  8
DEFPOINTS
 62
     0
 10
3089.799634
 20
3252.8430279999998
 30
0.0
  0
POINT
  5
7EA4
  8
DEFPOINTS
 62
     0
 10
2193.9437589999989
 20
3895.8379709917308
 30
0.0
  0
POINT
  5
7EA5
  8
DEFPOINTS
 62
     0
 10
3571.3001869999998
 20
3895.8379709917299
 30
0.0
  0
ENDBLK
  5
7D8E
  8
0
  0
ENDSEC
  0
SECTION
  2
ENTITIES
  0
POLYLINE
  5
7AA2
  8
1
  6
CONTINUOUS
 66
     1
 10
0.0
 20
0.0
 30
0.0
 70
     1
  0
VERTEX
  5
7DF4
  8
1
  6
CONTINUOUS
 10
2953.9437589999989
 20
2046.843028
 30
0.0
  0
VERTEX
  5
7DF5
  8
1
  6
CONTINUOUS
 10
853.943759
 20
2046.843028
 30
0.0
  0
VERTEX
  5
7DF6
  8
1
  6
CONTINUOUS
 10
853.943759
 20
4046.8430279999998
 30
0.0
  0
VERTEX
  5
7DF7
  8
1
  6
CONTINUOUS
 10
2953.9437589999989
 20
4046.8430279999998
 30
0.0
  0
SEQEND
  5
7DF8
  8
1
  6
CONTINUOUS
  0
POLYLINE
  5
7AA8
  8
1
  6
CONTINUOUS
 66
     1
 10
0.0
 20
0.0
 30
0.0
 70
     1
  0
VERTEX
  5
7DF9
  8
1
  6
CONTINUOUS
 10
2888.9437589999998
 20
2111.8430279999998
 30
0.0
  0
VERTEX
  5
7DFA
  8
1
  6
CONTINUOUS
 10
918.943759
 20
2111.8430279999998
 30
0.0
  0
VERTEX
  5
7DFB
  8
1
  6
CONTINUOUS
 10
918.943759
 20
3981.8430279999998
 30
0.0
  0
VERTEX
  5
7DFC
  8
1
  6
CONTINUOUS
 10
2888.9437589999998
 20
3981.8430279999998
 30
0.0
  0
SEQEND
  5
7DFD
  8
1
  6
CONTINUOUS
  0
POLYLINE
  5
7AAE
  8
1
  6
CONTINUOUS
 66
     1
 10
0.0
 20
0.0
 30
0.0
 70
     1
  0
VERTEX
  5
7DFE
  8
1
  6
CONTINUOUS
 10
3956.876683
 20
2046.843028
 30
0.0
  0
VERTEX
  5
7DFF
  8
1
  6
CONTINUOUS
 10
5256.8766829999986
 20
2046.843028
 30
0.0
  0
VERTEX
  5
7E00
  8
1
  6
CONTINUOUS
 10
5256.8766829999986
 20
4046.8430279999998
 30
0.0
  0
VERTEX
  5
7E01
  8
1
  6
CONTINUOUS
 10
3956.876683
 20
4046.8430279999998
 30
0.0
  0
SEQEND
  5
7E02
  8
1
  6
CONTINUOUS
  0
POLYLINE
  5
7AB4
  8
1
  6
CONTINUOUS
 66
     1
 10
0.0
 20
0.0
 30
0.0
 70
     1
  0
VERTEX
  5
7E03
  8
1
  6
CONTINUOUS
 10
4021.876683
 20
2111.8430279999998
 30
0.0
  0
VERTEX
  5
7E04
  8
1
  6
CONTINUOUS
 10
5191.8766830000004
 20
2111.8430279999998
 30
0.0
  0
VERTEX
  5
7E05
  8
1
  6
CONTINUOUS
 10
5191.8766830000004
 20
3981.8430279999998
 30
0.0
  0
VERTEX
  5
7E06
  8
1
  6
CONTINUOUS
 10
4021.876683
 20
3981.8430279999998
 30
0.0
  0
SEQEND
  5
7E07
  8
1
  6
CONTINUOUS
  0
LINE
  5
7ABA
  8
1
  6
CONTINUOUS
 10
5041.8766829999986
 20
3897.6393710000002
 30
0.0
 11
5041.8766829999986
 21
2252.8430279999998
 31
0.0
  0
LINE
  5
7ABB
  8
1
  6
CONTINUOUS
 10
4371.8766829999986
 20
3897.6393710000002
 30
0.0
 11
4371.8766829999986
 21
2252.8430279999998
 31
0.0
  0
POLYLINE
  5
7ABF
  8
1
  6
CONTINUOUS
 66
     1
 10
0.0
 20
0.0
 30
0.0
  0
VERTEX
  5
7E08
  8
1
  6
CONTINUOUS
 10
2848.9437589999989
 20
2369.8430279999998
 30
0.0
  0
VERTEX
  5
7E09
  8
1
  6
CONTINUOUS
 10
2193.9437589999989
 20
2391.8430279999998
 30
0.0
 42
-0.4168370000000001
  0
VERTEX
  5
7E0A
  8
1
  6
CONTINUOUS
 10
1451.5037990000001
 20
3260.0169700000001
 30
0.0
 42
-0.429867
  0
VERTEX
  5
7E0B
  8
1
  6
CONTINUOUS
 10
2237.819919
 20
3891.2682049999999
 30
0.0
 42
-0.373172
  0
VERTEX
  5
7E0C
  8
1
  6
CONTINUOUS
 10
2761.9124859999988
 20
3294.8430279999998
 30
0.0
 42
-0.34598
  0
SEQEND
  5
7E0D
  8
1
  6
CONTINUOUS
  0
LINE
  5
7AC6
  8
1
  6
CONTINUOUS
 10
2673.9437589999998
 20
3692.8430279999998
 30
0.0
 11
2013.943759
 21
3692.8430279999998
 31
0.0
  0
LINE
  5
7AC7
  8
1
  6
CONTINUOUS
 10
2763.9437589999998
 20
2162.8430279999998
 30
0.0
 11
1013.943759
 21
2162.8430279999998
 31
0.0
  0
LINE
  5
7AC8
  8
1
  6
CONTINUOUS
 10
2763.9437589999998
 20
2262.8430279999998
 30
0.0
 11
1013.943759
 21
2262.8430279999998
 31
0.0
  0
LINE
  5
7ACA
  8
1
  6
CONTINUOUS
 10
1250.40391
 20
2437.3017629999999
 30
0.0
 11
2317.422137999999
 21
3030.876612
 31
0.0
  0
LINE
  5
7ACB
  8
1
  6
CONTINUOUS
 10
1160.2053880000001
 20
2555.161165999999
 30
0.0
 11
2011.9498100000001
 21
3430.0271210000001
 31
0.0
  0
LINE
  5
7ACC
  8
1
  6
CONTINUOUS
 10
1033.943759
 20
2602.8430279999998
 30
0.0
 11
2013.943759
 21
3692.8430279999998
 31
0.0
  0
LINE
  5
7ACD
  8
1
  6
CONTINUOUS
 10
1033.943759
 20
2262.8430279999998
 30
0.0
 11
1033.943759
 21
2602.8430279999998
 31
0.0
  0
LINE
  5
7ACE
  8
1
  6
CONTINUOUS
 10
1346.601424
 20
2419.859461
 30
0.0
 11
1401.443759
 21
2352.8430279999998
 31
0.0
  0
LINE
  5
7ACF
  8
1
  6
CONTINUOUS
 10
1026.4437589999991
 20
2352.8430279999998
 30
0.0
 11
1081.286092999999
 21
2419.859461
 31
0.0
  0
ARC
  5
7AD0
  8
1
  6
CONTINUOUS
 10
1213.943759
 20
2512.8430279999998
 30
0.0
 40
162.0
 50
324.972283
 51
215.02771699999991
  0
LINE
  5
7AD1
  8
1
  6
CONTINUOUS
 10
1026.4437589999991
 20
2352.8430279999998
 30
0.0
 11
1016.443759
 21
2302.8430279999998
 31
0.0
  0
LINE
  5
7AD2
  8
1
  6
CONTINUOUS
 10
1016.443759
 20
2302.8430279999998
 30
0.0
 11
1016.443759
 21
2262.8430279999998
 31
0.0
  0
LINE
  5
7AD3
  8
1
  6
CONTINUOUS
 10
1013.943759
 20
2262.8430279999998
 30
0.0
 11
1013.943759
 21
2162.8430279999998
 31
0.0
  0
LINE
  5
7AD4
  8
1
  6
CONTINUOUS
 10
1411.4437589999991
 20
2302.8430279999998
 30
0.0
 11
1401.443759
 21
2352.8430279999998
 31
0.0
  0
LINE
  5
7AD5
  8
1
  6
CONTINUOUS
 10
1411.4437589999991
 20
2302.8430279999998
 30
0.0
 11
1411.4437589999991
 21
2262.8430279999998
 31
0.0
  0
LINE
  5
7AD6
  8
2
  6
CENTER
 10
1133.943759
 20
2512.8430279999998
 30
0.0
 11
1293.943759
 21
2512.8430279999998
 31
0.0
  0
CIRCLE
  5
7AD7
  8
1
  6
CONTINUOUS
 10
1213.943759
 20
2512.8430279999998
 30
0.0
 40
75.0
  0
LINE
  5
7AD8
  8
2
  6
CENTER
 10
1213.943759
 20
2432.8430279999998
 30
0.0
 11
1213.943759
 21
2592.8430279999998
 31
0.0
  0
LINE
  5
7AD9
  8
2
  6
CENTER
 10
741.73664400000007
 20
3252.8430279999998
 30
0.0
 11
3074.799634
 21
3252.8430279999998
 31
0.0
  0
CIRCLE
  5
7ADA
  8
1
  6
CONTINUOUS
 10
2193.9437589999989
 20
3252.8430279999998
 30
0.0
 40
254.0
  0
LINE
  5
7ADB
  8
2
  6
CENTER
 10
2193.9437589999989
 20
1958.6263284100421
 30
0.0
 11
2193.9437589999989
 21
4084.3504465909091
 31
0.0
  0
LINE
  5
7ADC
  8
1
  6
CONTINUOUS
 10
4371.8766829999986
 20
2369.8430279999998
 30
0.0
 11
5041.8766829999986
 21
2369.8430279999998
 31
0.0
  0
LINE
  5
7ADD
  8
1
  6
CONTINUOUS
 10
4371.8766829999986
 20
3294.8430279999998
 30
0.0
 11
5041.8766829999986
 21
3294.8430279999998
 31
0.0
  0
LINE
  5
7ADE
  8
1
  6
CONTINUOUS
 10
4173.8766829999986
 20
2252.8430279999998
 30
0.0
 11
5093.8766830000004
 21
2252.8430279999998
 31
0.0
  0
LINE
  5
7ADF
  8
1
  6
CONTINUOUS
 10
4371.8766829999986
 20
3294.8430279999998
 30
0.0
 11
5041.8766829999986
 21
2369.8430279999998
 31
0.0
  0
LINE
  5
7AE0
  8
1
  6
CONTINUOUS
 10
4371.8766829999986
 20
2369.8430279999998
 30
0.0
 11
5041.8766829999986
 21
3294.8430279999998
 31
0.0
  0
LINE
  5
7AE1
  8
1
  6
CONTINUOUS
 10
4173.8766829999986
 20
2152.8430279999998
 30
0.0
 11
5093.8766830000004
 21
2152.8430279999998
 31
0.0
  0
LINE
  5
7AE2
  8
1
  6
CONTINUOUS
 10
4318.8766830000004
 20
3692.8430279999998
 30
0.0
 11
4318.8766830000004
 21
2252.8430279999998
 31
0.0
  0
LINE
  5
7AE3
  8
1
  6
CONTINUOUS
 10
4148.8766830000004
 20
3692.8430279999998
 30
0.0
 11
4148.8766830000004
 21
2252.8430279999998
 31
0.0
  0
LINE
  5
7AE4
  8
1
  6
CONTINUOUS
 10
2673.9437589999998
 20
2262.8430279999998
 30
0.0
 11
2673.9437589999998
 21
3692.8430279999998
 31
0.0
  0
LINE
  5
7AE5
  8
1
  6
CONTINUOUS
 10
2848.9437589999989
 20
3337.3430279999998
 30
0.0
 11
2848.9437589999989
 21
2327.3430279999998
 31
0.0
  0
LINE
  5
7AE7
  8
1
  6
CONTINUOUS
 10
2763.9437589999998
 20
2262.8430279999998
 30
0.0
 11
2763.9437589999998
 21
2162.8430279999998
 31
0.0
  0
LINE
  5
7AE8
  8
1
  6
CONTINUOUS
 10
4173.8766829999986
 20
2252.8430279999998
 30
0.0
 11
4173.8766829999986
 21
2152.8430279999998
 31
0.0
  0
LINE
  5
7AE9
  8
1
  6
CONTINUOUS
 10
4148.8766830000004
 20
2252.8430279999998
 30
0.0
 11
4173.8766829999986
 21
2252.8430279999998
 31
0.0
  0
LINE
  5
7AEA
  8
1
  6
CONTINUOUS
 10
2808.9437589999989
 20
3294.8430279999998
 30
0.0
 11
2808.9437589999989
 21
2371.1865389999998
 31
0.0
  0
LINE
  5
7AEB
  8
1
  6
CONTINUOUS
 10
2761.9124859999988
 20
3294.8430279999998
 30
0.0
 11
2848.9437589999989
 21
3294.8430279999998
 31
0.0
  0
LINE
  5
7AEC
  8
1
  6
CONTINUOUS
 10
4285.8766829999986
 20
3506.8430279999998
 30
0.0
 11
4285.8766829999986
 21
2998.8430279999998
 31
0.0
  0
LINE
  5
7AED
  8
1
  6
CONTINUOUS
 10
4181.8766829999986
 20
3506.8430279999998
 30
0.0
 11
4181.8766829999986
 21
2998.8430279999998
 31
0.0
  0
LINE
  5
7AEE
  8
1
  6
CONTINUOUS
 10
4285.8766829999986
 20
2577.8430279999998
 30
0.0
 11
4285.8766829999986
 21
2427.8430279999998
 31
0.0
  0
LINE
  5
7AEF
  8
1
  6
CONTINUOUS
 10
4181.8766829999986
 20
2577.8430279999998
 30
0.0
 11
4181.8766829999986
 21
2427.8430279999998
 31
0.0
  0
LINE
  5
7AF0
  8
1
  6
CONTINUOUS
 10
4285.8766829999986
 20
2481.8430279999998
 30
0.0
 11
4371.8766829999986
 21
2481.8430279999998
 31
0.0
  0
LINE
  5
7AF1
  8
1
  6
CONTINUOUS
 10
4285.8766829999986
 20
2523.8430279999998
 30
0.0
 11
4371.8766829999986
 21
2523.8430279999998
 31
0.0
  0
LINE
  5
7AF2
  8
1
  6
CONTINUOUS
 10
4181.8766829999986
 20
2427.8430279999998
 30
0.0
 11
4285.8766829999986
 21
2427.8430279999998
 31
0.0
  0
LINE
  5
7AF3
  8
1
  6
CONTINUOUS
 10
4181.8766829999986
 20
2577.8430279999998
 30
0.0
 11
4285.8766829999986
 21
2577.8430279999998
 31
0.0
  0
LINE
  5
7AF4
  8
1
  6
CONTINUOUS
 10
4181.8766829999986
 20
2998.8430279999998
 30
0.0
 11
4285.8766829999986
 21
2998.8430279999998
 31
0.0
  0
LINE
  5
7AF5
  8
1
  6
CONTINUOUS
 10
4148.8766830000004
 20
3692.8430279999998
 30
0.0
 11
4318.8766830000004
 21
3692.8430279999998
 31
0.0
  0
LINE
  5
7AF6
  8
1
  6
CONTINUOUS
 10
4285.8766829999986
 20
3227.8430279999998
 30
0.0
 11
4371.8766829999986
 21
3227.8430279999998
 31
0.0
  0
LINE
  5
7AF7
  8
1
  6
CONTINUOUS
 10
4285.8766829999986
 20
3277.8430279999998
 30
0.0
 11
4371.8766829999986
 21
3277.8430279999998
 31
0.0
  0
LINE
  5
7AF8
  8
1
  6
CONTINUOUS
 10
4181.8766829999986
 20
3506.8430279999998
 30
0.0
 11
4285.8766829999986
 21
3506.8430279999998
 31
0.0
  0
LINE
  5
7AF9
  8
1
  6
CONTINUOUS
 10
5093.8766830000004
 20
2252.8430279999998
 30
0.0
 11
5093.8766830000004
 21
2152.8430279999998
 31
0.0
  0
POLYLINE
  5
7AFA
  8
1
  6
CONTINUOUS
 66
     1
 10
0.0
 20
0.0
 30
0.0
 70
     1
  0
VERTEX
  5
7E0E
  8
1
  6
CONTINUOUS
 10
2888.9437589999998
 20
5260.9192700000003
 30
0.0
  0
VERTEX
  5
7E0F
  8
1
  6
CONTINUOUS
 10
918.943759
 20
5260.9192700000003
 30
0.0
  0
VERTEX
  5
7E10
  8
1
  6
CONTINUOUS
 10
918.943759
 20
6430.9192700000012
 30
0.0
  0
VERTEX
  5
7E11
  8
1
  6
CONTINUOUS
 10
2888.9437589999998
 20
6430.9192700000012
 30
0.0
  0
SEQEND
  5
7E12
  8
1
  6
CONTINUOUS
  0
POLYLINE
  5
7B00
  8
1
  6
CONTINUOUS
 66
     1
 10
0.0
 20
0.0
 30
0.0
 70
     1
  0
VERTEX
  5
7E13
  8
1
  6
CONTINUOUS
 10
2953.9437589999989
 20
5195.9192700000003
 30
0.0
  0
VERTEX
  5
7E14
  8
1
  6
CONTINUOUS
 10
853.943759
 20
5195.9192700000003
 30
0.0
  0
VERTEX
  5
7E15
  8
1
  6
CONTINUOUS
 10
853.943759
 20
6495.9192700000003
 30
0.0
  0
VERTEX
  5
7E16
  8
1
  6
CONTINUOUS
 10
2953.9437589999989
 20
6495.9192700000003
 30
0.0
  0
SEQEND
  5
7E17
  8
1
  6
CONTINUOUS
  0
LINE
  5
7B06
  8
1
  6
CONTINUOUS
 10
2763.9437589999998
 20
6332.9192700000012
 30
0.0
 11
1013.943759
 21
6332.9192700000012
 31
0.0
  0
LINE
  5
7B07
  8
1
  6
CONTINUOUS
 10
1033.943759
 20
5387.9192700000012
 30
0.0
 11
2673.9437589999998
 21
5387.9192700000012
 31
0.0
  0
LINE
  5
7B08
  8
1
  6
CONTINUOUS
 10
1033.943759
 20
5557.9192700000012
 30
0.0
 11
2673.9437589999998
 21
5557.9192700000012
 31
0.0
  0
LINE
  5
7B09
  8
1
  6
CONTINUOUS
 10
2848.9437589999989
 20
5610.9192700000003
 30
0.0
 11
1448.776486999999
 21
5610.9192700000003
 31
0.0
  0
LINE
  5
7B0A
  8
1
  6
CONTINUOUS
 10
2848.9437589999989
 20
6280.9192700000003
 30
0.0
 11
1448.776486999999
 21
6280.9192700000003
 31
0.0
  0
LINE
  5
7B0B
  8
1
  6
CONTINUOUS
 10
2763.9437589999998
 20
5412.9192700000003
 30
0.0
 11
1013.943759
 21
5412.9192700000003
 31
0.0
  0
LINE
  5
7B0D
  8
1
  6
CONTINUOUS
 10
1051.943759
 20
5568.9192700000012
 30
0.0
 11
1051.943759
 21
6053.9192700000003
 31
0.0
  0
LINE
  5
7B0E
  8
1
  6
CONTINUOUS
 10
1375.943759
 20
5568.9192700000012
 30
0.0
 11
1375.943759
 21
6053.9192700000003
 31
0.0
  0
LINE
  5
7B0F
  8
1
  6
CONTINUOUS
 10
1013.943759
 20
5412.9192700000003
 30
0.0
 11
1013.943759
 21
6332.9192700000012
 31
0.0
  0
LINE
  5
7B10
  8
1
  6
CONTINUOUS
 10
1051.943759
 20
5568.9192700000012
 30
0.0
 11
1375.943759
 21
5568.9192700000012
 31
0.0
  0
LINE
  5
7B11
  8
1
  6
CONTINUOUS
 10
1138.943759
 20
5420.9192700000003
 30
0.0
 11
1288.943759
 21
5420.9192700000003
 31
0.0
  0
LINE
  5
7B12
  8
1
  6
CONTINUOUS
 10
1138.943759
 20
5524.9192700000003
 30
0.0
 11
1288.943759
 21
5524.9192700000003
 31
0.0
  0
LINE
  5
7B13
  8
1
  6
CONTINUOUS
 10
1033.943759
 20
5387.9192700000012
 30
0.0
 11
1033.943759
 21
5557.9192700000012
 31
0.0
  0
LINE
  5
7B14
  8
1
  6
CONTINUOUS
 10
1138.943759
 20
5420.9192700000003
 30
0.0
 11
1138.943759
 21
5524.9192700000003
 31
0.0
  0
LINE
  5
7B15
  8
1
  6
CONTINUOUS
 10
1288.943759
 20
5420.9192700000003
 30
0.0
 11
1288.943759
 21
5524.9192700000003
 31
0.0
  0
LINE
  5
7B16
  8
1
  6
CONTINUOUS
 10
1192.943759
 20
5524.9192700000003
 30
0.0
 11
1192.943759
 21
5568.9192700000012
 31
0.0
  0
LINE
  5
7B17
  8
1
  6
CONTINUOUS
 10
1234.943759
 20
5524.9192700000003
 30
0.0
 11
1234.943759
 21
5568.9192700000012
 31
0.0
  0
LINE
  5
7B18
  8
1
  6
CONTINUOUS
 10
1051.943759
 20
6053.9192700000003
 30
0.0
 11
1375.943759
 21
6053.9192700000003
 31
0.0
  0
LINE
  5
7B19
  8
1
  6
CONTINUOUS
 10
1448.776486999999
 20
5610.9192700000003
 30
0.0
 11
1448.776486999999
 21
6280.9192700000003
 31
0.0
  0
LINE
  5
7B1A
  8
1
  6
CONTINUOUS
 10
2168.9437589999989
 20
5524.9192700000003
 30
0.0
 11
2168.9437589999989
 21
5610.9192700000003
 31
0.0
  0
LINE
  5
7B1B
  8
1
  6
CONTINUOUS
 10
2218.9437589999989
 20
5524.9192700000003
 30
0.0
 11
2218.9437589999989
 21
5610.9192700000003
 31
0.0
  0
LINE
  5
7B1C
  8
1
  6
CONTINUOUS
 10
1939.943759
 20
5420.9192700000003
 30
0.0
 11
2447.9437589999998
 21
5420.9192700000003
 31
0.0
  0
LINE
  5
7B1D
  8
1
  6
CONTINUOUS
 10
1939.943759
 20
5524.9192700000003
 30
0.0
 11
2447.9437589999998
 21
5524.9192700000003
 31
0.0
  0
LINE
  5
7B1E
  8
1
  6
CONTINUOUS
 10
1939.943759
 20
5420.9192700000003
 30
0.0
 11
1939.943759
 21
5524.9192700000003
 31
0.0
  0
LINE
  5
7B1F
  8
1
  6
CONTINUOUS
 10
2447.9437589999998
 20
5420.9192700000003
 30
0.0
 11
2447.9437589999998
 21
5524.9192700000003
 31
0.0
  0
LINE
  5
7B20
  8
1
  6
CONTINUOUS
 10
4371.8766829999986
 20
3897.6393710000002
 30
0.0
 11
5041.8766829999986
 21
3897.6393710000002
 31
0.0
  0
LINE
  5
7B21
  8
1
  6
CONTINUOUS
 10
2848.9437589999989
 20
5568.9192700000012
 30
0.0
 11
2848.9437589999989
 21
6322.9192700000003
 31
0.0
  0
LINE
  5
7B22
  8
1
  6
CONTINUOUS
 10
2763.9437589999998
 20
5412.9192700000003
 30
0.0
 11
2763.9437589999998
 21
5610.9192700000003
 31
0.0
  0
LINE
  5
7B23
  8
1
  6
CONTINUOUS
 10
2673.9437589999998
 20
5387.9192700000012
 30
0.0
 11
2673.9437589999998
 21
5557.9192700000012
 31
0.0
  0
LINE
  5
7B24
  8
1
  6
CONTINUOUS
 10
2763.9437589999998
 20
6280.9192700000003
 30
0.0
 11
2763.9437589999998
 21
6332.9192700000012
 31
0.0
  0
LINE
  5
7B25
  8
1
  6
CONTINUOUS
 10
2808.9437589999989
 20
5610.9192700000003
 30
0.0
 11
2808.9437589999989
 21
6280.9192700000003
 31
0.0
  0
LINE
  5
7B43
  8
2
  6
CENTER
 10
771.15268099999992
 20
5945.9192700000003
 30
0.0
 11
3052.2115279999998
 21
5945.9192700000003
 31
0.0
  0
LINE
  5
7B44
  8
2
  6
CENTER
 10
4706.8766829999986
 20
4192.9433509999999
 30
0.0
 11
4706.8766829999986
 21
1906.3876079999991
 31
0.0
  0
LINE
  5
7B45
  8
2
  6
CENTER
 10
2193.9437589999989
 20
5108.3606520000003
 30
0.0
 11
2193.9437589999989
 21
6624.7377100000012
 31
0.0
  0
LINE
  5
7B46
  8
2
  6
CENTER
 10
3919.6137130000002
 20
3252.8430279999998
 30
0.0
 11
5356.8905859999986
 21
3252.8430279999998
 31
0.0
  0
LINE
  5
7B47
  8
4
  6
CONTINUOUS
 10
5550.0
 20
1500.0
 30
0.0
 11
5550.0
 21
900.0
 31
0.0
  0
LINE
  5
7B48
  8
4
  6
CONTINUOUS
 10
3450.0
 20
1500.0
 30
0.0
 11
3450.0
 21
900.0
 31
0.0
  0
LINE
  5
7B49
  8
4
  6
CONTINUOUS
 10
1950.0
 20
1500.0
 30
0.0
 11
1950.0
 21
900.0
 31
0.0
  0
LINE
  5
7B4C
  8
4
  6
CONTINUOUS
 10
1950.0
 20
900.0
 30
0.0
 11
5550.0
 21
900.0
 31
0.0
  0
LINE
  5
7B4D
  8
4
  6
CONTINUOUS
 10
1950.0
 20
1200.0
 30
0.0
 11
5550.0
 21
1200.0
 31
0.0
  0
TEXT
  5
7B4E
  8
4
  6
CONTINUOUS
 10
2065.5062429999989
 20
1294.6290779999999
 30
0.0
 40
150.0
  1
機器名称
  0
TEXT
  5
7B4F
  8
4
  6
CONTINUOUS
 10
2058.7743179999989
 20
964.9354699999999
 30
0.0
 40
150.0
  1
機器型番
  0
TEXT
  5
7B50
  8
4
  6
CONTINUOUS
 10
3533.0362359999999
 20
1267.7153069999999
 30
0.0
 40
150.0
  1
ミツヤ多翼送風機
  0
TEXT
  5
7B51
  8
4
  6
CONTINUOUS
 10
3559.9634869999991
 20
951.47875299999987
 30
0.0
 40
150.0
  1
MF#5 1/2-4
  0
TEXT
  5
7B53
  8
4
  6
CONTINUOUS
 10
2213.974537999999
 20
7150.2865239999992
 30
0.0
 40
162.0
  1
天井吊枠防振ベット
  0
TEXT
  5
7B54
  8
4
  6
CONTINUOUS
 10
948.50278000000014
 20
7601.6429289999996
 30
0.0
 40
216.0
  1
ベルト駆動式片吸込両持多翼ファン
  0
LINE
  5
7B55
  8
4
  6
CONTINUOUS
 10
750.0
 20
7408.2262629999996
 30
0.0
 11
5550.0
 21
7408.2262629999996
 31
0.0
  0
LINE
  5
7B56
  8
4
  6
CONTINUOUS
 10
750.0
 20
8008.2262629999996
 30
0.0
 11
5550.0
 21
8008.2262629999996
 31
0.0
  0
LINE
  5
7B57
  8
4
  6
CONTINUOUS
 10
1950.0
 20
1500.0
 30
0.0
 11
5550.0
 21
1500.0
 31
0.0
  0
LINE
  5
7B58
  8
4
  6
CONTINUOUS
 10
750.0
 20
8008.2262629999996
 30
0.0
 11
750.0
 21
7408.2262629999996
 31
0.0
  0
TEXT
  5
7B59
  8
4
  6
CONTINUOUS
 10
906.39804100000003
 20
7146.9584329999998
 30
0.0
 40
162.0
  1
左回転右横向
  0
TEXT
  5
7B5A
  8
4
  6
CONTINUOUS
 10
4406.9086779999989
 20
8118.1832439999989
 30
0.0
 40
168.0
  1
No.
  0
TEXT
  5
7B5B
  8
4
  6
CONTINUOUS
 10
4168.2397359999986
 20
7150.2865239999992
 30
0.0
 40
162.0
  1
縮尺：1/30
  0
LINE
  5
7B5C
  8
4
  6
CONTINUOUS
 10
5550.0
 20
8008.2262629999996
 30
0.0
 11
5550.0
 21
7408.2262629999996
 31
0.0
  0
LINE
  5
7B5E
  8
4
  6
CONTINUOUS
 10
4321.8522670000002
 20
8043.7907490000007
 30
0.0
 11
4321.8522670000002
 21
8359.9567849999985
 31
0.0
  0
LINE
  5
7B5F
  8
4
  6
CONTINUOUS
 10
4321.8522670000002
 20
8359.9567849999985
 30
0.0
 11
5550.0
 21
8359.9567849999985
 31
0.0
  0
LINE
  5
7B60
  8
4
  6
CONTINUOUS
 10
5550.0
 20
8359.9567849999985
 30
0.0
 11
5550.0
 21
8043.7907490000007
 31
0.0
  0
LINE
  5
7B61
  8
4
  6
CONTINUOUS
 10
5550.0
 20
8043.7907490000007
 30
0.0
 11
4321.8522670000002
 21
8043.7907490000007
 31
0.0
  0
DIMENSION
  5
7B72
  8
3
  6
CONTINUOUS
  2
*D1
 10
3172.2700610000002
 20
2369.8430279999989
 30
0.0
 11
3172.2700609999988
 21
2800.6980749999989
 31
0.0
 70
   128
 13
2848.9437589999989
 23
3294.8430279999998
 33
0.0
 14
2848.9437589999989
 24
2369.8430279999998
 34
0.0
 50
90.0
1001
ACAD
1000
DSTYLE
1002
{
1070
   287
1070
     3
1070
    40
1040
30.0
1070
   143
1040
0.039
1070
   172
1070
     1
1070
   271
1070
     0
1070
   279
1070
     0
1070
   288
1070
     1
1002
}
  0
DIMENSION
  5
7B7F
  8
3
  6
CONTINUOUS
  2
*D2
 10
3352.8358220000009
 20
3252.8430279999998
 30
0.0
 11
3352.835822
 21
2793.1790019999999
 31
0.0
 70
   128
 13
2888.9437589999998
 23
2369.8430279999998
 33
0.0
 14
3074.799634
 24
3252.8430279999998
 34
0.0
 50
90.0
1001
ACAD
1000
DSTYLE
1002
{
1070
   287
1070
     3
1070
    40
1040
30.0
1070
   143
1040
0.039
1070
   172
1070
     1
1070
   271
1070
     0
1070
   279
1070
     0
1070
   288
1070
     1
1002
}
  0
DIMENSION
  5
7BB5
  8
3
  6
CONTINUOUS
  2
*D3
 10
2193.9437589999989
 20
1764.6776729999999
 30
0.0
 11
1532.131028
 21
1764.6776729999999
 31
0.0
 70
   128
 13
853.943759
 23
2046.843028
 33
0.0
 14
2193.9437589999989
 24
1963.2955089999989
 34
0.0
1001
ACAD
1000
DSTYLE
1002
{
1070
   287
1070
     3
1070
    40
1040
30.0
1070
   143
1040
0.039
1070
   172
1070
     1
1070
   271
1070
     0
1070
   279
1070
     0
1070
   288
1070
     1
1002
}
  0
DIMENSION
  5
7BC1
  8
3
  6
CONTINUOUS
  2
*D4
 10
2953.9437589999989
 20
1764.6776729999999
 30
0.0
 11
2573.9437589999998
 21
1839.6776729999999
 31
0.0
 70
     0
 13
2193.9437589999989
 23
1963.2955089999989
 33
0.0
 14
2953.9437589999989
 24
2046.843028
 34
0.0
1001
ACAD
1000
DSTYLE
1002
{
1070
   287
1070
     4
1070
    40
1040
30.0
1070
    75
1070
     1
1070
   143
1040
0.039
1070
   172
1070
     1
1070
   271
1070
     0
1070
   279
1070
     1
1070
   288
1070
     1
1002
}
  0
DIMENSION
  5
7BCE
  8
3
  6
CONTINUOUS
  2
*D5
 10
2193.9437589999989
 20
4176.6853920000003
 30
0.0
 11
2508.0880966959812
 21
4176.6853920000003
 31
0.0
 70
   128
 13
2848.9437589999989
 23
3337.3430279999998
 33
0.0
 14
2193.9437589999989
 24
4084.3504465909091
 34
0.0
1001
ACAD
1000
DSTYLE
1002
{
1070
   287
1070
     3
1070
    40
1040
30.0
1070
   143
1040
0.039
1070
   172
1070
     1
1070
   271
1070
     0
1070
   279
1070
     0
1070
   288
1070
     1
1002
}
  0
DIMENSION
  5
7BE7
  8
3
  6
CONTINUOUS
  2
*D6
 10
5041.8766829999986
 20
4176.6853920000003
 30
0.0
 11
4709.863276
 21
4176.6853920000003
 31
0.0
 70
   128
 13
4371.8766829999986
 23
3897.6393710000002
 33
0.0
 14
5041.8766829999986
 24
3897.6393710000002
 34
0.0
1001
ACAD
1000
DSTYLE
1002
{
1070
   287
1070
     3
1070
    40
1040
30.0
1070
   143
1040
0.039
1070
   172
1070
     1
1070
   271
1070
     0
1070
   279
1070
     0
1070
   288
1070
     1
1002
}
  0
LINE
  5
7BE8
  8
1
  6
CONTINUOUS
 10
5045.8766829999986
 20
3727.8430279999998
 30
0.0
 11
5045.8766829999986
 21
2777.8430279999998
 31
0.0
  0
DIMENSION
  5
7BF7
  8
3
  6
CONTINUOUS
  2
*D7
 10
5537.4563479999997
 20
2777.8430279999989
 30
0.0
 11
5537.4563479999997
 21
3251.8414409999991
 31
0.0
 70
   128
 13
5045.8766829999986
 23
3727.8430279999998
 33
0.0
 14
5045.8766829999986
 24
2777.8430279999998
 34
0.0
 50
90.0
1001
ACAD
1000
DSTYLE
1002
{
1070
   287
1070
     3
1070
     3
1000
φ<>
1070
    40
1040
30.0
1070
   143
1040
0.039
1070
   172
1070
     1
1070
   271
1070
     0
1070
   279
1070
     0
1070
   288
1070
     1
1002
}
  0
DIMENSION
  5
7C06
  8
3
  6
CONTINUOUS
  2
*D8
 10
4706.8766829999986
 20
4372.180855999999
 30
0.0
 11
4876.3766830000004
 21
4491.1783899951506
 31
0.0
 70
   128
 13
5045.8766829999986
 23
3727.8430279999998
 33
0.0
 14
4706.8766829999986
 24
4312.6793969999999
 34
0.0
1001
ACAD
1000
DSTYLE
1002
{
1070
   288
1070
     1
1070
   172
1070
     1
1070
    40
1040
30.0
1070
   271
1070
     0
1070
   143
1040
0.039
1002
}
  0
DIMENSION
  5
7C13
  8
3
  6
CONTINUOUS
  2
*D9
 10
3822.08158
 20
2046.843028
 30
0.0
 11
3822.0815799999991
 21
3131.5365390000002
 31
0.0
 70
   128
 13
3956.876683
 23
4046.8430279999998
 33
0.0
 14
3956.876683
 24
2046.843028
 34
0.0
 50
90.0
1001
ACAD
1000
DSTYLE
1002
{
1070
   287
1070
     3
1070
    40
1040
30.0
1070
   143
1040
0.039
1070
   172
1070
     1
1070
   271
1070
     0
1070
   279
1070
     0
1070
   288
1070
     1
1002
}
  0
DIMENSION
  5
7C20
  8
3
  6
CONTINUOUS
  2
*D10
 10
4706.8766829999986
 20
1789.0042659999999
 30
0.0
 11
4345.9347100000005
 21
1789.0042659999999
 31
0.0
 70
   128
 13
3956.876683
 23
2046.843028
 33
0.0
 14
4706.8766829999986
 24
1906.3876079999991
 34
0.0
1001
ACAD
1000
DSTYLE
1002
{
1070
   287
1070
     3
1070
    40
1040
30.0
1070
   143
1040
0.039
1070
   172
1070
     1
1070
   271
1070
     0
1070
   279
1070
     0
1070
   288
1070
     1
1002
}
  0
DIMENSION
  5
7C2C
  8
3
  6
CONTINUOUS
  2
*D11
 10
5256.8766829999986
 20
1789.0042659999999
 30
0.0
 11
4981.8766829999986
 21
1864.0042659999999
 31
0.0
 70
     0
 13
4706.8766829999986
 23
1906.3876079999991
 33
0.0
 14
5256.8766829999986
 24
2046.843028
 34
0.0
1001
ACAD
1000
DSTYLE
1002
{
1070
   287
1070
     4
1070
    40
1040
30.0
1070
    75
1070
     1
1070
   143
1040
0.039
1070
   172
1070
     1
1070
   271
1070
     0
1070
   279
1070
     1
1070
   288
1070
     1
1002
}
  0
DIMENSION
  5
7C39
  8
3
  6
CONTINUOUS
  2
*D12
 10
2953.9437589999989
 20
6712.3236410000009
 30
0.0
 11
1886.5001629999999
 21
6712.3236410000009
 31
0.0
 70
   128
 13
853.943759
 23
6495.9192700000003
 33
0.0
 14
2953.9437589999989
 24
6495.9192700000003
 34
0.0
1001
ACAD
1000
DSTYLE
1002
{
1070
   287
1070
     3
1070
    40
1040
30.0
1070
   143
1040
0.039
1070
   172
1070
     1
1070
   271
1070
     0
1070
   279
1070
     0
1070
   288
1070
     1
1002
}
  0
DIMENSION
  5
7C46
  8
3
  6
CONTINUOUS
  2
*D13
 10
3254.2681460000008
 20
5195.9192700000003
 30
0.0
 11
3254.268145999999
 21
5873.5154080000002
 31
0.0
 70
   128
 13
2953.9437589999989
 23
6495.9192700000003
 33
0.0
 14
2953.9437589999989
 24
5195.9192700000003
 34
0.0
 50
90.0
1001
ACAD
1000
DSTYLE
1002
{
1070
   287
1070
     3
1070
    40
1040
30.0
1070
   143
1040
0.039
1070
   172
1070
     1
1070
   271
1070
     0
1070
   279
1070
     0
1070
   288
1070
     1
1002
}
  0
DIMENSION
  5
7CD3
  8
3
  6
CONTINUOUS
  2
*D14
 10
3571.3001869999998
 20
2162.8430279999998
 30
0.0
 11
3571.3001869999998
 21
2701.514764
 31
0.0
 70
   128
 13
3089.799634
 23
3252.8430279999998
 33
0.0
 14
2763.9437589999998
 24
2162.8430279999998
 34
0.0
 50
90.0
1001
ACAD
1000
DSTYLE
1002
{
1070
   287
1070
     3
1070
    40
1040
30.0
1070
   143
1040
0.039
1070
   172
1070
     1
1070
   271
1070
     0
1070
   279
1070
     0
1070
   288
1070
     1
1002
}
  0
DIMENSION
  5
7CE3
  8
3
  6
CONTINUOUS
  2
*D15
 10
3571.3001869999998
 20
2046.843028
 30
0.0
 11
3571.3001869999998
 21
1800.4144565714289
 31
0.0
 70
   128
 13
2763.9437589999998
 23
2162.8430279999998
 33
0.0
 14
2953.9437589999989
 24
2046.843028
 34
0.0
 50
90.0
1001
ACAD
1000
DSTYLE
1002
{
1070
   287
1070
     3
1070
    40
1040
30.0
1070
   143
1040
0.039
1070
   172
1070
     1
1070
   271
1070
     0
1070
   279
1070
     0
1070
   288
1070
     1
1002
}
  0
DIMENSION
  5
7D82
  8
3
  2
*D16
 10
1450.9437589999991
 20
4176.6853920000003
 30
0.0
 11
1822.4437589999991
 21
4251.6853920000003
 31
0.0
 70
     0
 13
2193.9437589999989
 23
4168.454522
 33
0.0
 14
1450.9437589999991
 24
3252.8430279999998
 34
0.0
1001
ACAD
1000
DSTYLE
1002
{
1070
   287
1070
     4
1070
    40
1040
30.0
1070
    75
1070
     1
1070
   143
1040
0.039
1070
   172
1070
     1
1070
   271
1070
     0
1070
   279
1070
     1
1070
   288
1070
     1
1002
}
  0
DIMENSION
  5
7D8F
  8
3
  2
*D17
 10
3571.3001869999998
 20
3895.8379709917299
 30
0.0
 11
3496.3001869999989
 21
3574.340499495866
 31
0.0
 70
     0
 13
3089.799634
 23
3252.8430279999998
 33
0.0
 14
2193.9437589999989
 24
3895.8379709917308
 34
0.0
 50
90.0
1001
ACAD
1000
DSTYLE
1002
{
1070
   287
1070
     4
1070
    40
1040
30.0
1070
    75
1070
     1
1070
   143
1040
0.039
1070
   172
1070
     1
1070
   271
1070
     0
1070
   279
1070
     1
1070
   288
1070
     1
1002
}
  0
LINE
  5
7DAF
  8
1
  6
CONTINUOUS
 10
1633.9437589999991
 20
3382.8430279999998
 30
0.0
 11
2753.9437589999998
 21
3382.8430279999998
 31
0.0
  0
LINE
  5
7DB0
  8
1
 10
1633.943759
 20
2262.8430279999998
 30
0.0
 11
1633.9437589999991
 21
3382.8430279999998
 31
0.0
  0
LINE
  5
7DB1
  8
1
 10
2753.9437589999998
 20
2262.8430279999998
 30
0.0
 11
2753.9437589999998
 21
3382.8430279999998
 31
0.0
  0
ENDSEC
  0
EOF
