  0
SECTION
  2
HEADER
  9
$ACADVER
  1
AC1009
  9
$INSBASE
 10
0.0
 20
0.0
 30
0.0
  9
$EXTMIN
 10
750.0
 20
900.0
 30
0.0
  9
$EXTMAX
 10
5550.0
 20
8359.9567849999985
 30
0.0
  9
$LIMMIN
 10
0.0
 20
0.0
  9
$LIMMAX
 10
297.0
 20
210.0
  9
$ORTHOMODE
 70
     0
  9
$REGENMODE
 70
     1
  9
$FILLMODE
 70
     0
  9
$QTEXTMODE
 70
     0
  9
$MIRRTEXT
 70
     1
  9
$DRAGMODE
 70
     2
  9
$LTSCALE
 40
100.0
  9
$OSMODE
 70
    37
  9
$ATTMODE
 70
     1
  9
$TEXTSIZE
 40
180.0
  9
$TRACEWID
 40
0.05
  9
$TEXTSTYLE
  7
STANDARD
  9
$CLAYER
  8
3
  9
$CELTYPE
  6
BYLAYER
  9
$CECOLOR
 62
   256
  9
$DIMSCALE
 40
30.0
  9
$DIMASZ
 40
2.0
  9
$DIMEXO
 40
0.5
  9
$DIMDLI
 40
10.0
  9
$DIMRND
 40
0.0
  9
$DIMDLE
 40
0.0
  9
$DIMEXE
 40
1.0
  9
$DIMTP
 40
1.0
  9
$DIMTM
 40
1.0
  9
$DIMTXT
 40
3.0
  9
$DIMCEN
 40
0.0
  9
$DIMTSZ
 40
0.0
  9
$DIMTOL
 70
     0
  9
$DIMLIM
 70
     0
  9
$DIMTIH
 70
     0
  9
$DIMTOH
 70
     0
  9
$DIMSE1
 70
     0
  9
$DIMSE2
 70
     0
  9
$DIMTAD
 70
     1
  9
$DIMZIN
 70
     8
  9
$DIMBLK
  1

  9
$DIMASO
 70
     1
  9
$DIMSHO
 70
     1
  9
$DIMPOST
  1

  9
$DIMAPOST
  1

  9
$DIMALT
 70
     0
  9
$DIMALTD
 70
     2
  9
$DIMALTF
 40
0.039
  9
$DIMLFAC
 40
1.0
  9
$DIMTOFL
 70
     1
  9
$DIMTVP
 40
0.0
  9
$DIMTIX
 70
     0
  9
$DIMSOXD
 70
     0
  9
$DIMSAH
 70
     1
  9
$DIMBLK1
  1
OPEN
  9
$DIMBLK2
  1
OPEN
  9
$DIMSTYLE
  2
IGA
  9
$DIMCLRD
 70
     0
  9
$DIMCLRE
 70
     0
  9
$DIMCLRT
 70
     0
  9
$DIMTFAC
 40
10.0
  9
$DIMGAP
 40
1.0
  9
$LUNITS
 70
     2
  9
$LUPREC
 70
     3
  9
$SKETCHINC
 40
0.1
  9
$FILLETRAD
 40
50.0
  9
$AUNITS
 70
     0
  9
$AUPREC
 70
     0
  9
$MENU
  1
acad
  9
$ELEVATION
 40
0.0
  9
$PELEVATION
 40
0.0
  9
$THICKNESS
 40
0.0
  9
$LIMCHECK
 70
     0
  9
$BLIPMODE
 70
     0
  9
$CHAMFERA
 40
0.5
  9
$CHAMFERB
 40
0.5
  9
$SKPOLY
 70
     0
  9
$TDCREATE
 40
2450752.489404514
  9
$TDUPDATE
 40
2454953.7765910639
  9
$TDINDWG
 40
0.020416331
  9
$TDUSRTIMER
 40
0.020416331
  9
$USRTIMER
 70
     1
  9
$ANGBASE
 50
0.0
  9
$ANGDIR
 70
     0
  9
$PDMODE
 70
     0
  9
$PDSIZE
 40
0.0
  9
$PLINEWID
 40
0.0
  9
$COORDS
 70
     1
  9
$SPLFRAME
 70
     0
  9
$SPLINETYPE
 70
     6
  9
$SPLINESEGS
 70
     8
  9
$ATTDIA
 70
     0
  9
$ATTREQ
 70
     1
  9
$HANDLING
 70
 10241
  9
$HANDSEED
  5
7EEB
  9
$SURFTAB1
 70
     6
  9
$SURFTAB2
 70
     6
  9
$SURFTYPE
 70
     6
  9
$SURFU
 70
     6
  9
$SURFV
 70
     6
  9
$UCSNAME
  2

  9
$UCSORG
 10
0.0
 20
0.0
 30
0.0
  9
$UCSXDIR
 10
1.0
 20
0.0
 30
0.0
  9
$UCSYDIR
 10
0.0
 20
1.0
 30
0.0
  9
$PUCSNAME
  2

  9
$PUCSORG
 10
0.0
 20
0.0
 30
0.0
  9
$PUCSXDIR
 10
1.0
 20
0.0
 30
0.0
  9
$PUCSYDIR
 10
0.0
 20
1.0
 30
0.0
  9
$USERI1
 70
     0
  9
$USERI2
 70
     0
  9
$USERI3
 70
     0
  9
$USERI4
 70
     0
  9
$USERI5
 70
     0
  9
$USERR1
 40
0.0
  9
$USERR2
 40
0.0
  9
$USERR3
 40
0.0
  9
$USERR4
 40
0.0
  9
$USERR5
 40
0.0
  9
$WORLDVIEW
 70
     1
  9
$SHADEDGE
 70
     3
  9
$SHADEDIF
 70
    70
  9
$TILEMODE
 70
     1
  9
$MAXACTVP
 70
    16
  9
$PLIMCHECK
 70
     0
  9
$PEXTMIN
 10
1.0000000000000000E+020
 20
1.0000000000000000E+020
 30
1.0000000000000000E+020
  9
$PEXTMAX
 10
-1.0000000000000000E+020
 20
-1.0000000000000000E+020
 30
-1.0000000000000000E+020
  9
$PLIMMIN
 10
0.0
 20
0.0
  9
$PLIMMAX
 10
12.0
 20
9.0
  9
$UNITMODE
 70
     0
  9
$VISRETAIN
 70
     0
  9
$PLINEGEN
 70
     0
  9
$PSLTSCALE
 70
     1
  0
ENDSEC
  0
SECTION
  2
TABLES
  0
TABLE
  2
VPORT
 70
     2
  0
VPORT
  2
*ACTIVE
 70
     0
 10
0.0
 20
0.0
 11
1.0
 21
1.0
 12
9438.1687158055174
 22
4629.9562499988788
 13
0.0
 23
0.0
 14
10.0
 24
10.0
 15
10.0
 25
10.0
 16
0.0
 26
0.0
 36
1.0
 17
0.0
 27
0.0
 37
0.0
 40
7517.2452868940854
 41
3.1666666666666661
 42
50.0
 43
0.0
 44
0.0
 50
0.0
 51
0.0
 71
     0
 72
   100
 73
     1
 74
     0
 75
     0
 76
     0
 77
     0
 78
     0
  0
ENDTAB
  0
TABLE
  2
LTYPE
 70
     2
  0
LTYPE
  2
CONTINUOUS
 70
     0
  3
Solid line
 72
    65
 73
     0
 40
0.0
  0
LTYPE
  2
CENTER
 70
     0
  3
____ _ ____ _ ____ _ ____ _ ____ _ ____ _ ____ 
 72
    65
 73
     4
 40
2.0
 49
1.25
 49
-0.25
 49
0.25
 49
-0.25
  0
ENDTAB
  0
TABLE
  2
LAYER
 70
     6
  0
LAYER
  2
0
 70
     0
 62
     7
  6
CONTINUOUS
  0
LAYER
  2
3
 70
     0
 62
     2
  6
CONTINUOUS
  0
LAYER
  2
2
 70
     0
 62
     3
  6
CENTER
  0
LAYER
  2
1
 70
     0
 62
     4
  6
CONTINUOUS
  0
LAYER
  2
4
 70
     0
 62
     7
  6
CONTINUOUS
  0
LAYER
  2
DEFPOINTS
 70
     0
 62
    -7
  6
CONTINUOUS
  0
ENDTAB
  0
TABLE
  2
STYLE
 70
     1
  0
STYLE
  2
STANDARD
 70
     0
 40
0.0
 41
1.0
 50
0.0
 71
     0
 42
180.0
  3
simplex.shx
  4
extfont.shx
  0
ENDTAB
  0
TABLE
  2
VIEW
 70
     0
  0
ENDTAB
  0
TABLE
  2
UCS
 70
     0
  0
ENDTAB
  0
TABLE
  2
APPID
 70
     1
  0
APPID
  2
ACAD
 70
     0
  0
ENDTAB
  0
TABLE
  2
DIMSTYLE
 70
     1
  0
DIMSTYLE
  2
IGA
 70
     0
  3

  4

  5

  6
OPEN
  7
OPEN
 40
2.0
 41
2.0
 42
0.5
 43
10.0
 44
1.0
 45
0.0
 46
0.0
 47
1.0
 48
1.0
140
3.0
141
0.0
142
0.0
143
0.03937
144
1.0
145
0.0
146
10.0
147
1.0
 71
     0
 72
     0
 73
     0
 74
     0
 75
     0
 76
     0
 77
     1
 78
     8
170
     0
171
     2
172
     0
173
     1
174
     0
175
     0
176
     0
177
     0
178
     0
  0
ENDTAB
  0
ENDSEC
  0
SECTION
  2
BLOCKS
  0
BLOCK
  8
0
  2
$MODEL_SPACE
 70
     0
 10
0.0
 20
0.0
 30
0.0
  3
$MODEL_SPACE
  1

  0
ENDBLK
  5
1B
  8
0
  0
BLOCK
 67
     1
  8
0
  2
$PAPER_SPACE
 70
     0
 10
0.0
 20
0.0
 30
0.0
  3
$PAPER_SPACE
  1

  0
ENDBLK
  5
18
 67
     1
  8
0
  0
BLOCK
  8
0
  2
_OPEN
 70
     0
 10
0.0
 20
0.0
 30
0.0
  3
_OPEN
  1

  0
LINE
  5
7BE2
  8
0
  6
BYBLOCK
 62
     0
 10
-1.0
 20
0.166667
 30
0.0
 11
0.0
 21
0.0
 31
0.0
  0
LINE
  5
7BE3
  8
0
  6
BYBLOCK
 62
     0
 10
0.0
 20
0.0
 30
0.0
 11
-1.0
 21
-0.166667
 31
0.0
  0
LINE
  5
7BE4
  8
0
  6
BYBLOCK
 62
     0
 10
0.0
 20
0.0
 30
0.0
 11
-1.0
 21
0.0
 31
0.0
  0
ENDBLK
  5
7BE5
  8
0
  0
BLOCK
  8
0
  2
*D1
 70
     1
 10
0.0
 20
0.0
 30
0.0
  3
*D1
  1

  0
LINE
  5
7E57
  8
3
  6
CONTINUOUS
 62
     0
 10
1871.4607929999991
 20
3583.8001020000002
 30
0.0
 11
1871.4607929999991
 21
3802.4078330000002
 31
0.0
  0
LINE
  5
7E58
  8
3
  6
CONTINUOUS
 62
     0
 10
2796.4607930000002
 20
3583.8001020000002
 30
0.0
 11
2796.4607930000002
 21
3802.4078330000002
 31
0.0
  0
LINE
  5
7E59
  8
3
  6
CONTINUOUS
 62
     0
 10
1931.460793
 20
3772.4078329999988
 30
0.0
 11
2736.4607930000002
 21
3772.4078329999988
 31
0.0
  0
INSERT
  5
7E5A
  8
3
  6
CONTINUOUS
 62
     0
  2
_OPEN
 10
1871.4607929999991
 20
3772.4078329999988
 30
0.0
 41
60.0
 42
60.0
 43
60.0
 50
180.0
  0
INSERT
  5
7E5B
  8
3
  6
CONTINUOUS
 62
     0
  2
_OPEN
 10
2796.4607930000002
 20
3772.4078329999988
 30
0.0
 41
60.0
 42
60.0
 43
60.0
  0
TEXT
  8
3
  40
90
  5
7EDC
  62
0
  72
0
  71
0
 10
2104.56
 20
3688.11
 30
0.000000
  1
925
  0
POINT
  5
7E5D
  8
DEFPOINTS
  6
CONTINUOUS
 62
     0
 10
1871.4607929999991
 20
3568.8001020000002
 30
0.0
  0
POINT
  5
7E5E
  8
DEFPOINTS
  6
CONTINUOUS
 62
     0
 10
2796.4607930000002
 20
3568.8001020000002
 30
0.0
  0
POINT
  5
7E5F
  8
DEFPOINTS
  6
CONTINUOUS
 62
     0
 10
2796.4607930000002
 20
3772.4078329999988
 30
0.0
  0
ENDBLK
  5
7C44
  8
0
  0
BLOCK
  8
0
  2
*D2
 70
     1
 10
0.0
 20
0.0
 30
0.0
  3
*D2
  1

  0
LINE
  5
7E60
  8
3
  6
CONTINUOUS
 62
     0
 10
2796.4607930000002
 20
3583.8001020000002
 30
0.0
 11
2796.4607930000002
 21
4207.0402001796137
 31
0.0
  0
LINE
  5
7E61
  8
3
  6
CONTINUOUS
 62
     0
 10
1913.460793
 20
4114.3898506401893
 30
0.0
 11
1913.460793
 21
4207.0402001796137
 31
0.0
  0
LINE
  5
7E62
  8
3
  6
CONTINUOUS
 62
     0
 10
2736.4607930000002
 20
4177.0402001796137
 30
0.0
 11
1973.460793
 21
4177.0402001796137
 31
0.0
  0
INSERT
  5
7E63
  8
3
  6
CONTINUOUS
 62
     0
  2
_OPEN
 10
2796.4607930000002
 20
4177.0402001796137
 30
0.0
 41
60.0
 42
60.0
 43
60.0
  0
INSERT
  5
7E64
  8
3
  6
CONTINUOUS
 62
     0
  2
_OPEN
 10
1913.460793
 20
4177.0402001796137
 30
0.0
 41
60.0
 42
60.0
 43
60.0
 50
180.0
  0
TEXT
  8
3
  40
90
  5
7EDD
  62
0
  72
0
  71
0
 10
2088.30
 20
4092.74
 30
0.000000
  1
883
  0
POINT
  5
7E66
  8
DEFPOINTS
  6
CONTINUOUS
 62
     0
 10
2796.4607930000002
 20
3568.8001020000002
 30
0.0
  0
POINT
  5
7E67
  8
DEFPOINTS
  6
CONTINUOUS
 62
     0
 10
1913.460793
 20
4099.3898506401883
 30
0.0
  0
POINT
  5
7E68
  8
DEFPOINTS
  6
CONTINUOUS
 62
     0
 10
1913.460793
 20
4177.0402001796137
 30
0.0
  0
ENDBLK
  5
7C38
  8
0
  0
BLOCK
  8
0
  2
*D3
 70
     1
 10
0.0
 20
0.0
 30
0.0
  3
*D3
  1

  0
LINE
  5
7E69
  8
3
  6
CONTINUOUS
 62
     0
 10
1813.960793
 20
3568.8001020000002
 30
0.0
 11
881.35235700000055
 21
3568.8001020000002
 31
0.0
  0
LINE
  5
7E6A
  8
3
  6
CONTINUOUS
 62
     0
 10
964.04624999999987
 20
2913.8001020000002
 30
0.0
 11
881.35235700000044
 21
2913.8001020000002
 31
0.0
  0
LINE
  5
7E6B
  8
3
  6
CONTINUOUS
 62
     0
 10
911.35235700000055
 20
3508.8001020000002
 30
0.0
 11
911.35235700000055
 21
2973.8001020000002
 31
0.0
  0
INSERT
  5
7E6C
  8
3
  6
CONTINUOUS
 62
     0
  2
_OPEN
 10
911.35235700000055
 20
3568.8001020000002
 30
0.0
 41
60.0
 42
60.0
 43
60.0
 50
90.0
  0
INSERT
  5
7E6D
  8
3
  6
CONTINUOUS
 62
     0
  2
_OPEN
 10
911.35235700000055
 20
2913.8001020000002
 30
0.0
 41
60.0
 42
60.0
 43
60.0
 50
270.0
  0
TEXT
  8
3
  40
90
  5
7EDE
  62
0
  72
0
  71
0
 10
656.352
 20
3052.79
 30
0.000000
  1
655
  0
POINT
  5
7E6F
  8
DEFPOINTS
  6
CONTINUOUS
 62
     0
 10
1828.960793
 20
3568.8001020000002
 30
0.0
  0
POINT
  5
7E70
  8
DEFPOINTS
  6
CONTINUOUS
 62
     0
 10
979.04624999999999
 20
2913.8001020000002
 30
0.0
  0
POINT
  5
7E71
  8
DEFPOINTS
  6
CONTINUOUS
 62
     0
 10
911.35235700000055
 20
2913.8001020000002
 30
0.0
  0
ENDBLK
  5
7C68
  8
0
  0
BLOCK
  8
0
  2
*D4
 70
     1
 10
0.0
 20
0.0
 30
0.0
  3
*D4
  1

  0
LINE
  5
7E72
  8
3
  6
CONTINUOUS
 62
     0
 10
1328.460793
 20
2148.8001020000002
 30
0.0
 11
881.35235699999987
 21
2148.8001020000002
 31
0.0
  0
LINE
  5
7E73
  8
3
  6
CONTINUOUS
 62
     0
 10
911.3523570000001
 20
2853.8001020000002
 30
0.0
 11
911.35235699999987
 21
2208.8001020000002
 31
0.0
  0
INSERT
  5
7E74
  8
3
  6
CONTINUOUS
 62
     0
  2
_OPEN
 10
911.3523570000001
 20
2913.8001020000002
 30
0.0
 41
60.0
 42
60.0
 43
60.0
 50
90.0
  0
INSERT
  5
7E75
  8
3
  6
CONTINUOUS
 62
     0
  2
_OPEN
 10
911.35235699999987
 20
2148.8001020000002
 30
0.0
 41
60.0
 42
60.0
 43
60.0
 50
270.0
  0
TEXT
  8
3
  40
90
  5
7EDF
  62
0
  72
0
  71
0
 10
656.352
 20
2372.00
 30
0.000000
  1
765
  0
POINT
  5
7E77
  8
DEFPOINTS
  6
CONTINUOUS
 62
     0
 10
979.04624999999999
 20
2913.8001020000002
 30
0.0
  0
POINT
  5
7E78
  8
DEFPOINTS
  6
CONTINUOUS
 62
     0
 10
1343.460793
 20
2148.8001020000002
 30
0.0
  0
POINT
  5
7E79
  8
DEFPOINTS
  6
CONTINUOUS
 62
     0
 10
911.35235699999987
 20
2148.8001020000002
 30
0.0
  0
ENDBLK
  5
7C74
  8
0
  0
BLOCK
  8
0
  2
*D5
 70
     1
 10
0.0
 20
0.0
 30
0.0
  3
*D5
  1

  0
LINE
  5
7E7A
  8
3
  6
CONTINUOUS
 62
     0
 10
1328.460793
 20
2148.8001020000002
 30
0.0
 11
881.35235700000021
 21
2148.8001020000002
 31
0.0
  0
LINE
  5
7E7B
  8
3
  6
CONTINUOUS
 62
     0
 10
1138.4607929999991
 20
2042.8001019999999
 30
0.0
 11
881.35235700000021
 21
2042.8001019999999
 31
0.0
  0
LINE
  5
7E7C
  8
3
  6
CONTINUOUS
 62
     0
 10
911.35235700000032
 20
2208.8001020000002
 30
0.0
 11
911.35235700000032
 21
2268.8001020000002
 31
0.0
  0
LINE
  5
7E7D
  8
3
  6
CONTINUOUS
 62
     0
 10
911.35235700000032
 20
1982.800101999999
 30
0.0
 11
911.3523570000001
 21
1652.800101999999
 31
0.0
  0
LINE
  5
7E7E
  8
3
  6
CONTINUOUS
 62
     0
 10
911.35235700000032
 20
2148.8001020000002
 30
0.0
 11
911.35235700000032
 21
2042.8001019999999
 31
0.0
  0
INSERT
  5
7E7F
  8
3
  6
CONTINUOUS
 62
     0
  2
_OPEN
 10
911.35235700000032
 20
2148.8001020000002
 30
0.0
 41
60.0
 42
60.0
 43
60.0
 50
270.0
  0
INSERT
  5
7E80
  8
3
  6
CONTINUOUS
 62
     0
  2
_OPEN
 10
911.35235700000032
 20
2042.8001019999999
 30
0.0
 41
60.0
 42
60.0
 43
60.0
 50
90.0
  0
TEXT
  8
3
  40
90
  5
7EE0
  62
0
  72
0
  71
0
 10
656.352
 20
1628.50
 30
0.000000
  1
106
  0
POINT
  5
7E82
  8
DEFPOINTS
  6
CONTINUOUS
 62
     0
 10
1343.460793
 20
2148.8001020000002
 30
0.0
  0
POINT
  5
7E83
  8
DEFPOINTS
  6
CONTINUOUS
 62
     0
 10
1153.460793
 20
2042.8001019999999
 30
0.0
  0
POINT
  5
7E84
  8
DEFPOINTS
  6
CONTINUOUS
 62
     0
 10
911.35235700000032
 20
2042.8001019999999
 30
0.0
  0
ENDBLK
  5
7DBE
  8
0
  0
BLOCK
  8
0
  2
*D6
 70
     1
 10
0.0
 20
0.0
 30
0.0
  3
*D6
  1

  0
LINE
  5
7E85
  8
3
  6
CONTINUOUS
 62
     0
 10
1153.460793
 20
2027.8001019999999
 30
0.0
 11
1153.460793
 21
1769.1067
 31
0.0
  0
LINE
  5
7E86
  8
3
  6
CONTINUOUS
 62
     0
 10
1913.460793
 20
1917.6974299999999
 30
0.0
 11
1913.460793
 21
1769.1067
 31
0.0
  0
LINE
  5
7E87
  8
3
  6
CONTINUOUS
 62
     0
 10
1213.460793
 20
1799.1067
 30
0.0
 11
1853.4607929999991
 21
1799.1067
 31
0.0
  0
INSERT
  5
7E88
  8
3
  6
CONTINUOUS
 62
     0
  2
_OPEN
 10
1153.460793
 20
1799.1067
 30
0.0
 41
60.0
 42
60.0
 43
60.0
 50
180.0
  0
INSERT
  5
7E89
  8
3
  6
CONTINUOUS
 62
     0
  2
_OPEN
 10
1913.460793
 20
1799.1067
 30
0.0
 41
60.0
 42
60.0
 43
60.0
  0
TEXT
  8
3
  40
90
  5
7EE1
  62
0
  72
0
  71
0
 10
1332.64
 20
1714.81
 30
0.000000
  1
760
  0
POINT
  5
7E8B
  8
DEFPOINTS
  6
CONTINUOUS
 62
     0
 10
1153.460793
 20
2042.8001019999999
 30
0.0
  0
POINT
  5
7E8C
  8
DEFPOINTS
  6
CONTINUOUS
 62
     0
 10
1913.460793
 20
1932.6974299999999
 30
0.0
  0
POINT
  5
7E8D
  8
DEFPOINTS
  6
CONTINUOUS
 62
     0
 10
1913.460793
 20
1799.1067
 30
0.0
  0
ENDBLK
  5
7C9F
  8
0
  0
BLOCK
  8
0
  2
*D7
 70
     1
 10
0.0
 20
0.0
 30
0.0
  3
*D7
  1

  0
LINE
  5
7E8E
  8
3
  6
CONTINUOUS
 62
     0
 10
3253.4607930000002
 20
2027.8001019999999
 30
0.0
 11
3253.4607930000002
 21
1769.1067
 31
0.0
  0
LINE
  5
7E8F
  8
3
  6
CONTINUOUS
 62
     0
 10
1973.460793
 20
1799.1067
 30
0.0
 11
3193.4607930000002
 21
1799.1067
 31
0.0
  0
INSERT
  5
7E90
  8
3
  6
CONTINUOUS
 62
     0
  2
_OPEN
 10
1913.460793
 20
1799.1067
 30
0.0
 41
60.0
 42
60.0
 43
60.0
 50
180.0
  0
INSERT
  5
7E91
  8
3
  6
CONTINUOUS
 62
     0
  2
_OPEN
 10
3253.4607930000002
 20
1799.1067
 30
0.0
 41
60.0
 42
60.0
 43
60.0
  0
TEXT
  8
3
  40
90
  5
7EE2
  62
0
  72
0
  71
0
 10
2403.46
 20
1714.81
 30
0.000000
  1
1340
  0
POINT
  5
7E93
  8
DEFPOINTS
  6
CONTINUOUS
 62
     0
 10
1913.460793
 20
1932.6974299999999
 30
0.0
  0
POINT
  5
7E94
  8
DEFPOINTS
  6
CONTINUOUS
 62
     0
 10
3253.4607930000002
 20
2042.8001019999999
 30
0.0
  0
POINT
  5
7E95
  8
DEFPOINTS
  6
CONTINUOUS
 62
     0
 10
3253.4607930000002
 20
1799.1067
 30
0.0
  0
ENDBLK
  5
7CAB
  8
0
  0
BLOCK
  8
0
  2
*D8
 70
     1
 10
0.0
 20
0.0
 30
0.0
  3
*D8
  1

  0
LINE
  5
7E96
  8
3
  6
CONTINUOUS
 62
     0
 10
4332.6219340000007
 20
3583.8001020000002
 30
0.0
 11
4332.6219340000007
 21
4240.9191929999988
 31
0.0
  0
LINE
  5
7E97
  8
3
  6
CONTINUOUS
 62
     0
 10
5002.6219340000007
 20
3583.8001020000002
 30
0.0
 11
5002.6219340000007
 21
4240.9191929999988
 31
0.0
  0
LINE
  5
7E98
  8
3
  6
CONTINUOUS
 62
     0
 10
4392.6219340000007
 20
4210.9191929999997
 30
0.0
 11
4942.6219340000007
 21
4210.9191929999997
 31
0.0
  0
INSERT
  5
7E99
  8
3
  6
CONTINUOUS
 62
     0
  2
_OPEN
 10
4332.6219340000007
 20
4210.9191929999997
 30
0.0
 41
60.0
 42
60.0
 43
60.0
 50
180.0
  0
INSERT
  5
7E9A
  8
3
  6
CONTINUOUS
 62
     0
  2
_OPEN
 10
5002.6219340000007
 20
4210.9191929999997
 30
0.0
 41
60.0
 42
60.0
 43
60.0
  0
TEXT
  8
3
  40
90
  5
7EE3
  62
0
  72
0
  71
0
 10
4486.40
 20
4126.62
 30
0.000000
  1
670
  0
POINT
  5
7E9C
  8
DEFPOINTS
  6
CONTINUOUS
 62
     0
 10
4332.6219340000007
 20
3568.8001020000002
 30
0.0
  0
POINT
  5
7E9D
  8
DEFPOINTS
  6
CONTINUOUS
 62
     0
 10
5002.6219340000007
 20
3568.8001020000002
 30
0.0
  0
POINT
  5
7E9E
  8
DEFPOINTS
  6
CONTINUOUS
 62
     0
 10
5002.6219340000007
 20
4210.9191929999997
 30
0.0
  0
ENDBLK
  5
7CB8
  8
0
  0
BLOCK
  8
0
  2
*D9
 70
     1
 10
0.0
 20
0.0
 30
0.0
  3
*D9
  1

  0
LINE
  5
7E9F
  8
3
  6
CONTINUOUS
 62
     0
 10
5021.6219340000007
 20
3388.8001020000002
 30
0.0
 11
5508.9494690000001
 21
3388.8001019999988
 31
0.0
  0
LINE
  5
7EA0
  8
3
  6
CONTINUOUS
 62
     0
 10
5021.6219340000007
 20
2438.8001020000002
 30
0.0
 11
5508.9494690000001
 21
2438.8001020000002
 31
0.0
  0
LINE
  5
7EA1
  8
3
  6
CONTINUOUS
 62
     0
 10
5478.949469000001
 20
3328.8001019999988
 30
0.0
 11
5478.949469000001
 21
2498.8001020000002
 31
0.0
  0
INSERT
  5
7EA2
  8
3
  6
CONTINUOUS
 62
     0
  2
_OPEN
 10
5478.949469000001
 20
3388.8001019999988
 30
0.0
 41
60.0
 42
60.0
 43
60.0
 50
90.0
  0
INSERT
  5
7EA3
  8
3
  6
CONTINUOUS
 62
     0
  2
_OPEN
 10
5478.949469000001
 20
2438.8001020000002
 30
0.0
 41
60.0
 42
60.0
 43
60.0
 50
270.0
  0
TEXT
  8
3
  40
90
  5
7EE4
  62
0
  72
0
  71
0
 10
5223.95
 20
2752.33
 30
0.000000
  1
φ950
  0
POINT
  5
7EA5
  8
DEFPOINTS
  6
CONTINUOUS
 62
     0
 10
5006.6219340000007
 20
3388.8001020000002
 30
0.0
  0
POINT
  5
7EA6
  8
DEFPOINTS
  6
CONTINUOUS
 62
     0
 10
5006.6219340000007
 20
2438.8001020000002
 30
0.0
  0
POINT
  5
7EA7
  8
DEFPOINTS
  6
CONTINUOUS
 62
     0
 10
5478.949469000001
 20
2438.8001020000002
 30
0.0
  0
ENDBLK
  5
7D99
  8
0
  0
BLOCK
  8
0
  2
*D10
 70
     1
 10
0.0
 20
0.0
 30
0.0
  3
*D10
  1

  0
LINE
  5
7D85
  8
0
  6
BYBLOCK
 62
     0
 10
5006.6219340000007
 20
3403.8001020000002
 30
0.0
 11
5006.6219340000007
 21
4460.1748839999991
 31
0.0
  0
LINE
  5
7D86
  8
0
  6
BYBLOCK
 62
     0
 10
4667.6219340000007
 20
4381.2869280000004
 30
0.0
 11
4667.6219340000007
 21
4460.1748839999991
 31
0.0
  0
LINE
  5
7D87
  8
0
  6
BYBLOCK
 62
     0
 10
4946.6219340000007
 20
4430.174884
 30
0.0
 11
4727.6219339999998
 21
4430.174884
 31
0.0
  0
TEXT
  5
7D88
  8
3
 62
     0
 10
4723.5505054285723
 20
4454.5859290632607
 30
0.0
 40
90.0
  1
339
  0
INSERT
  5
7D89
  8
0
  6
BYBLOCK
 62
     0
  2
_OPEN
 10
5006.6219340000007
 20
4430.174884
 30
0.0
 41
60.0
 42
60.0
 43
60.0
  0
INSERT
  5
7D8A
  8
0
  6
BYBLOCK
 62
     0
  2
_OPEN
 10
4667.6219340000007
 20
4430.174884
 30
0.0
 41
60.0
 42
60.0
 43
60.0
 50
180.0
  0
POINT
  5
7D8B
  8
DEFPOINTS
  6
BYBLOCK
 62
     0
 10
5006.6219340000007
 20
3388.8001020000002
 30
0.0
  0
POINT
  5
7D8C
  8
DEFPOINTS
  6
BYBLOCK
 62
     0
 10
4667.6219340000007
 20
4366.2869280000004
 30
0.0
  0
POINT
  5
7D8D
  8
DEFPOINTS
  6
BYBLOCK
 62
     0
 10
4667.6219340000007
 20
4430.174884
 30
0.0
  0
ENDBLK
  5
7D8E
  8
0
  0
BLOCK
  8
0
  2
*D11
 70
     1
 10
0.0
 20
0.0
 30
0.0
  3
*D11
  1

  0
LINE
  5
7EA8
  8
3
  6
CONTINUOUS
 62
     0
 10
3902.6219339999998
 20
4042.8001020000002
 30
0.0
 11
3718.2266180000011
 21
4042.8001020000002
 31
0.0
  0
LINE
  5
7EA9
  8
3
  6
CONTINUOUS
 62
     0
 10
3902.6219339999998
 20
2042.8001019999999
 30
0.0
 11
3718.2266180000001
 21
2042.8001019999999
 31
0.0
  0
LINE
  5
7EAA
  8
3
  6
CONTINUOUS
 62
     0
 10
3748.2266180000011
 20
3982.8001020000002
 30
0.0
 11
3748.2266180000001
 21
2102.8001020000002
 31
0.0
  0
INSERT
  5
7EAB
  8
3
  6
CONTINUOUS
 62
     0
  2
_OPEN
 10
3748.2266180000011
 20
4042.8001020000002
 30
0.0
 41
60.0
 42
60.0
 43
60.0
 50
90.0
  0
INSERT
  5
7EAC
  8
3
  6
CONTINUOUS
 62
     0
  2
_OPEN
 10
3748.2266180000001
 20
2042.8001019999999
 30
0.0
 41
60.0
 42
60.0
 43
60.0
 50
270.0
  0
TEXT
  8
3
  40
90
  5
7EE5
  62
0
  72
0
  71
0
 10
3493.23
 20
2841.65
 30
0.000000
  1
2000
  0
POINT
  5
7EAE
  8
DEFPOINTS
  6
CONTINUOUS
 62
     0
 10
3917.6219339999998
 20
4042.8001020000002
 30
0.0
  0
POINT
  5
7EAF
  8
DEFPOINTS
  6
CONTINUOUS
 62
     0
 10
3917.6219339999998
 20
2042.8001019999999
 30
0.0
  0
POINT
  5
7EB0
  8
DEFPOINTS
  6
CONTINUOUS
 62
     0
 10
3748.2266180000001
 20
2042.8001019999999
 30
0.0
  0
ENDBLK
  5
7CE4
  8
0
  0
BLOCK
  8
0
  2
*D12
 70
     1
 10
0.0
 20
0.0
 30
0.0
  3
*D12
  1

  0
LINE
  5
7EB1
  8
3
  6
CONTINUOUS
 62
     0
 10
3917.6219339999998
 20
2027.8001019999999
 30
0.0
 11
3917.6219339999998
 21
1760.986122
 31
0.0
  0
LINE
  5
7EB2
  8
3
  6
CONTINUOUS
 62
     0
 10
4667.6219340000007
 20
1921.8284609999989
 30
0.0
 11
4667.6219340000007
 21
1760.986122
 31
0.0
  0
LINE
  5
7EB3
  8
3
  6
CONTINUOUS
 62
     0
 10
3977.6219339999998
 20
1790.986122
 30
0.0
 11
4607.6219339999998
 21
1790.986122
 31
0.0
  0
INSERT
  5
7EB4
  8
3
  6
CONTINUOUS
 62
     0
  2
_OPEN
 10
3917.6219339999998
 20
1790.986122
 30
0.0
 41
60.0
 42
60.0
 43
60.0
 50
180.0
  0
INSERT
  5
7EB5
  8
3
  6
CONTINUOUS
 62
     0
  2
_OPEN
 10
4667.6219340000007
 20
1790.986122
 30
0.0
 41
60.0
 42
60.0
 43
60.0
  0
TEXT
  8
3
  40
90
  5
7EE6
  62
0
  72
0
  71
0
 10
4104.51
 20
1706.69
 30
0.000000
  1
750
  0
POINT
  5
7EB7
  8
DEFPOINTS
  6
CONTINUOUS
 62
     0
 10
3917.6219339999998
 20
2042.8001019999999
 30
0.0
  0
POINT
  5
7EB8
  8
DEFPOINTS
  6
CONTINUOUS
 62
     0
 10
4667.6219340000007
 20
1936.8284610000001
 30
0.0
  0
POINT
  5
7EB9
  8
DEFPOINTS
  6
CONTINUOUS
 62
     0
 10
4667.6219340000007
 20
1790.986122
 30
0.0
  0
ENDBLK
  5
7CF1
  8
0
  0
BLOCK
  8
0
  2
*D13
 70
     1
 10
0.0
 20
0.0
 30
0.0
  3
*D13
  1

  0
LINE
  5
7EBA
  8
3
  6
CONTINUOUS
 62
     0
 10
5217.6219340000007
 20
2027.8001019999999
 30
0.0
 11
5217.6219340000007
 21
1760.986122
 31
0.0
  0
LINE
  5
7EBB
  8
3
  6
CONTINUOUS
 62
     0
 10
4727.6219339999998
 20
1790.986122
 30
0.0
 11
5157.6219340000007
 21
1790.986122
 31
0.0
  0
INSERT
  5
7EBC
  8
3
  6
CONTINUOUS
 62
     0
  2
_OPEN
 10
4667.6219340000007
 20
1790.986122
 30
0.0
 41
60.0
 42
60.0
 43
60.0
 50
180.0
  0
INSERT
  5
7EBD
  8
3
  6
CONTINUOUS
 62
     0
  2
_OPEN
 10
5217.6219340000007
 20
1790.986122
 30
0.0
 41
60.0
 42
60.0
 43
60.0
  0
TEXT
  8
3
  40
90
  5
7EE7
  62
0
  72
0
  71
0
 10
4762.62
 20
1706.69
 30
0.000000
  1
550
  0
POINT
  5
7EBF
  8
DEFPOINTS
  6
CONTINUOUS
 62
     0
 10
4667.6219340000007
 20
1936.8284610000001
 30
0.0
  0
POINT
  5
7EC0
  8
DEFPOINTS
  6
CONTINUOUS
 62
     0
 10
5217.6219340000007
 20
2042.8001019999999
 30
0.0
  0
POINT
  5
7EC1
  8
DEFPOINTS
  6
CONTINUOUS
 62
     0
 10
5217.6219340000007
 20
1790.986122
 30
0.0
  0
ENDBLK
  5
7CFD
  8
0
  0
BLOCK
  8
0
  2
*D14
 70
     1
 10
0.0
 20
0.0
 30
0.0
  3
*D14
  1

  0
LINE
  5
7EC2
  8
3
  6
CONTINUOUS
 62
     0
 10
1153.460793
 20
6435.1851619999998
 30
0.0
 11
1153.460793
 21
6679.614829000001
 31
0.0
  0
LINE
  5
7EC3
  8
3
  6
CONTINUOUS
 62
     0
 10
3253.4607930000002
 20
6435.1851619999998
 30
0.0
 11
3253.4607930000002
 21
6679.614829000001
 31
0.0
  0
LINE
  5
7EC4
  8
3
  6
CONTINUOUS
 62
     0
 10
1213.460793
 20
6649.6148290000001
 30
0.0
 11
3193.4607930000002
 21
6649.6148290000001
 31
0.0
  0
INSERT
  5
7EC5
  8
3
  6
CONTINUOUS
 62
     0
  2
_OPEN
 10
1153.460793
 20
6649.6148290000001
 30
0.0
 41
60.0
 42
60.0
 43
60.0
 50
180.0
  0
INSERT
  5
7EC6
  8
3
  6
CONTINUOUS
 62
     0
  2
_OPEN
 10
3253.4607930000002
 20
6649.6148290000001
 30
0.0
 41
60.0
 42
60.0
 43
60.0
  0
TEXT
  8
3
  40
90
  5
7EE8
  62
0
  72
0
  71
0
 10
2039.55
 20
6565.31
 30
0.000000
  1
2100
  0
POINT
  5
7EC8
  8
DEFPOINTS
  6
CONTINUOUS
 62
     0
 10
1153.460793
 20
6420.1851619999998
 30
0.0
  0
POINT
  5
7EC9
  8
DEFPOINTS
  6
CONTINUOUS
 62
     0
 10
3253.4607930000002
 20
6420.1851619999998
 30
0.0
  0
POINT
  5
7ECA
  8
DEFPOINTS
  6
CONTINUOUS
 62
     0
 10
3253.4607930000002
 20
6649.6148290000001
 30
0.0
  0
ENDBLK
  5
7D61
  8
0
  0
BLOCK
  8
0
  2
*D15
 70
     1
 10
0.0
 20
0.0
 30
0.0
  3
*D15
  1

  0
LINE
  5
7ECB
  8
3
  6
CONTINUOUS
 62
     0
 10
3268.4607930000002
 20
6420.1851619999998
 30
0.0
 11
3590.2521560000009
 21
6420.1851619999998
 31
0.0
  0
LINE
  5
7ECC
  8
3
  6
CONTINUOUS
 62
     0
 10
3268.4607930000002
 20
5120.1851619999998
 30
0.0
 11
3590.2521560000009
 21
5120.1851619999998
 31
0.0
  0
LINE
  5
7ECD
  8
3
  6
CONTINUOUS
 62
     0
 10
3560.252156
 20
6360.1851619999998
 30
0.0
 11
3560.252156
 21
5180.1851619999998
 31
0.0
  0
INSERT
  5
7ECE
  8
3
  6
CONTINUOUS
 62
     0
  2
_OPEN
 10
3560.252156
 20
6420.1851619999998
 30
0.0
 41
60.0
 42
60.0
 43
60.0
 50
90.0
  0
INSERT
  5
7ECF
  8
3
  6
CONTINUOUS
 62
     0
  2
_OPEN
 10
3560.252156
 20
5120.1851619999998
 30
0.0
 41
60.0
 42
60.0
 43
60.0
 50
270.0
  0
TEXT
  8
3
  40
90
  5
7EE9
  62
0
  72
0
  71
0
 10
3305.25
 20
5623.46
 30
0.000000
  1
1300
  0
POINT
  5
7ED1
  8
DEFPOINTS
  6
CONTINUOUS
 62
     0
 10
3253.4607930000002
 20
6420.1851619999998
 30
0.0
  0
POINT
  5
7ED2
  8
DEFPOINTS
  6
CONTINUOUS
 62
     0
 10
3253.4607930000002
 20
5120.1851619999998
 30
0.0
  0
POINT
  5
7ED3
  8
DEFPOINTS
  6
CONTINUOUS
 62
     0
 10
3560.252156
 20
5120.1851619999998
 30
0.0
  0
ENDBLK
  5
7D17
  8
0
  0
BLOCK
  8
0
  2
*D16
 70
     1
 10
0.0
 20
0.0
 30
0.0
  3
*D16
  1

  0
LINE
  5
7ED4
  8
3
  6
CONTINUOUS
 62
     0
 10
1270.4658500082689
 20
2928.8001020000002
 30
0.0
 11
1270.4658500082689
 21
4207.0402001796137
 31
0.0
  0
LINE
  5
7ED5
  8
3
  6
CONTINUOUS
 62
     0
 10
1853.4607929999991
 20
4177.0402001796137
 30
0.0
 11
1330.4658500082689
 21
4177.0402001796137
 31
0.0
  0
INSERT
  5
7ED6
  8
3
  6
CONTINUOUS
 62
     0
  2
_OPEN
 10
1913.460793
 20
4177.0402001796137
 30
0.0
 41
60.0
 42
60.0
 43
60.0
  0
INSERT
  5
7ED7
  8
3
  6
CONTINUOUS
 62
     0
  2
_OPEN
 10
1270.4658500082689
 20
4177.0402001796137
 30
0.0
 41
60.0
 42
60.0
 43
60.0
 50
180.0
  0
TEXT
  8
3
  40
90
  5
7EEA
  62
0
  72
0
  71
0
 10
1411.96
 20
4092.74
 30
0.000000
  1
643
  0
POINT
  5
7ED9
  8
DEFPOINTS
  6
CONTINUOUS
 62
     0
 10
1913.460793
 20
4099.3898506401883
 30
0.0
  0
POINT
  5
7EDA
  8
DEFPOINTS
  6
CONTINUOUS
 62
     0
 10
1270.4658500082689
 20
2913.8001020000002
 30
0.0
  0
POINT
  5
7EDB
  8
DEFPOINTS
  6
CONTINUOUS
 62
     0
 10
1270.4658500082689
 20
4177.0402001796137
 30
0.0
  0
ENDBLK
  5
7DA4
  8
0
  0
ENDSEC
  0
SECTION
  2
ENTITIES
  0
POLYLINE
  5
7B2E
  8
1
  6
CONTINUOUS
 66
     1
 10
0.0
 20
0.0
 30
0.0
 70
     1
  0
VERTEX
  5
7E33
  8
1
  6
CONTINUOUS
 10
1218.460793
 20
2107.8001020000002
 30
0.0
  0
VERTEX
  5
7E34
  8
1
  6
CONTINUOUS
 10
3188.4607930000002
 20
2107.8001020000002
 30
0.0
  0
VERTEX
  5
7E35
  8
1
  6
CONTINUOUS
 10
3188.4607930000002
 20
3977.8001020000002
 30
0.0
  0
VERTEX
  5
7E36
  8
1
  6
CONTINUOUS
 10
1218.460793
 20
3977.8001020000002
 30
0.0
  0
SEQEND
  5
7E37
  8
1
  6
CONTINUOUS
  0
POLYLINE
  5
7B34
  8
1
  6
CONTINUOUS
 66
     1
 10
0.0
 20
0.0
 30
0.0
 70
     1
  0
VERTEX
  5
7E38
  8
1
  6
CONTINUOUS
 10
1153.460793
 20
2042.8001019999999
 30
0.0
  0
VERTEX
  5
7E39
  8
1
  6
CONTINUOUS
 10
3253.4607930000002
 20
2042.8001019999999
 30
0.0
  0
VERTEX
  5
7E3A
  8
1
  6
CONTINUOUS
 10
3253.4607930000002
 20
4042.8001020000002
 30
0.0
  0
VERTEX
  5
7E3B
  8
1
  6
CONTINUOUS
 10
1153.460793
 20
4042.8001020000002
 30
0.0
  0
SEQEND
  5
7E3C
  8
1
  6
CONTINUOUS
  0
LINE
  5
7B3A
  8
1
  6
CONTINUOUS
 10
3073.4607930000002
 20
2598.8001020000002
 30
0.0
 11
2093.4607930000002
 21
3418.8001020000002
 31
0.0
  0
LINE
  5
7B3B
  8
1
  6
CONTINUOUS
 10
2876.2473809999992
 20
2425.8021669999998
 30
0.0
 11
1855.1647069999999
 21
2666.58043
 31
0.0
  0
LINE
  5
7B3C
  8
1
  6
CONTINUOUS
 10
2933.9060770000001
 20
2561.9600500000001
 30
0.0
 11
2050.4354880000001
 21
3127.7017919999998
 31
0.0
  0
ARC
  5
7B3D
  8
1
  6
CONTINUOUS
 10
2893.4607930000002
 20
2498.8001020000002
 30
0.0
 40
162.0
 50
324.972283
 51
215.02771699999991
  0
LINE
  5
7B3E
  8
1
  6
CONTINUOUS
 10
1343.460793
 20
2148.8001020000002
 30
0.0
 11
3093.4607930000002
 21
2148.8001020000002
 31
0.0
  0
LINE
  5
7B3F
  8
1
  6
CONTINUOUS
 10
1343.4607929999991
 20
2248.8001020000002
 30
0.0
 11
3093.4607930000002
 21
2248.8001020000002
 31
0.0
  0
LINE
  5
7B40
  8
1
  6
CONTINUOUS
 10
1871.4607929999991
 20
3528.8001020000002
 30
0.0
 11
2795.1172809999998
 21
3528.8001020000002
 31
0.0
  0
POLYLINE
  5
7B41
  8
1
  6
CONTINUOUS
 66
     1
 10
0.0
 20
0.0
 30
0.0
  0
VERTEX
  5
7E3D
  8
1
  6
CONTINUOUS
 10
2796.4607930000002
 20
3568.8001020000002
 30
0.0
  0
VERTEX
  5
7E3E
  8
1
  6
CONTINUOUS
 10
2774.4607930000002
 20
2913.8001020000002
 30
0.0
 42
-0.4168370000000001
  0
VERTEX
  5
7E3F
  8
1
  6
CONTINUOUS
 10
1906.2868510000001
 20
2171.360142
 30
0.0
 42
-0.429867
  0
VERTEX
  5
7E40
  8
1
  6
CONTINUOUS
 10
1275.0356159999999
 20
2957.676262
 30
0.0
 42
-0.373172
  0
VERTEX
  5
7E41
  8
1
  6
CONTINUOUS
 10
1871.4607929999991
 20
3481.7688299999991
 30
0.0
 42
-0.34598
  0
SEQEND
  5
7E42
  8
1
  6
CONTINUOUS
  0
LINE
  5
7B48
  8
1
  6
CONTINUOUS
 10
1828.960793
 20
3568.8001020000002
 30
0.0
 11
2838.9607930000002
 21
3568.8001020000002
 31
0.0
  0
LINE
  5
7B49
  8
1
  6
CONTINUOUS
 10
1433.460793
 20
3418.8001020000002
 30
0.0
 11
2093.4607930000002
 21
3418.8001020000002
 31
0.0
  0
LINE
  5
7B4D
  8
1
  6
CONTINUOUS
 10
1433.460793
 20
2248.8001020000002
 30
0.0
 11
1433.460793
 21
3418.8001020000002
 31
0.0
  0
LINE
  5
7B4F
  8
1
  6
CONTINUOUS
 10
1343.460793
 20
2248.8001020000002
 30
0.0
 11
1343.460793
 21
2148.8001020000002
 31
0.0
  0
LINE
  5
7B50
  8
1
  6
CONTINUOUS
 10
2760.8031270000001
 20
2405.8165349999999
 30
0.0
 11
2705.9607930000002
 21
2338.8001019999988
 31
0.0
  0
LINE
  5
7B52
  8
1
  6
CONTINUOUS
 10
2695.9607930000002
 20
2288.8001020000002
 30
0.0
 11
2705.9607930000002
 21
2338.8001019999988
 31
0.0
  0
LINE
  5
7B53
  8
1
  6
CONTINUOUS
 10
2695.9607930000002
 20
2288.8001020000002
 30
0.0
 11
2695.9607930000002
 21
2248.8001020000002
 31
0.0
  0
LINE
  5
7B54
  8
2
  6
CENTER
 10
1913.460793
 20
1932.6974299999999
 30
0.0
 11
1913.460793
 21
4099.3898506401883
 31
0.0
  0
CIRCLE
  5
7B55
  8
1
  6
CONTINUOUS
 10
1913.460793
 20
2913.8001020000002
 30
0.0
 40
254.0
  0
LINE
  5
7B56
  8
2
  6
CENTER
 10
5324.5657440000004
 20
2913.8001020000002
 30
0.0
 11
3800.0367940000001
 21
2913.8001020000002
 31
0.0
  0
LINE
  5
7B57
  8
1
  6
CONTINUOUS
 10
1871.4607929999991
 20
3481.7688299999991
 30
0.0
 11
1871.4607929999991
 21
3568.8001020000002
 31
0.0
  0
LINE
  5
7B5E
  8
1
  6
CONTINUOUS
 10
3073.4607930000002
 20
2248.8001020000002
 30
0.0
 11
3073.4607930000002
 21
2598.8001020000002
 31
0.0
  0
LINE
  5
7B5F
  8
1
  6
CONTINUOUS
 10
3080.9607930000002
 20
2338.8001019999988
 30
0.0
 11
3026.1184579999999
 21
2405.8165349999999
 31
0.0
  0
LINE
  5
7B62
  8
1
  6
CONTINUOUS
 10
3080.9607930000002
 20
2338.8001019999988
 30
0.0
 11
3090.9607930000002
 21
2288.8001020000002
 31
0.0
  0
LINE
  5
7B63
  8
1
  6
CONTINUOUS
 10
3090.9607930000002
 20
2288.8001020000002
 30
0.0
 11
3090.9607930000002
 21
2248.8001020000002
 31
0.0
  0
LINE
  5
7B64
  8
1
  6
CONTINUOUS
 10
3093.4607930000002
 20
2248.8001020000002
 30
0.0
 11
3093.4607930000002
 21
2148.8001020000002
 31
0.0
  0
LINE
  5
7B68
  8
2
  6
CENTER
 10
2973.4607930000002
 20
2498.8001020000002
 30
0.0
 11
2813.4607930000002
 21
2498.8001020000002
 31
0.0
  0
LINE
  5
7B69
  8
2
  6
CENTER
 10
2893.4607930000002
 20
2418.8001020000002
 30
0.0
 11
2893.4607930000002
 21
2578.8001020000002
 31
0.0
  0
CIRCLE
  5
7B6A
  8
1
  6
CONTINUOUS
 10
2893.4607930000002
 20
2498.8001020000002
 30
0.0
 40
75.0
  0
POLYLINE
  5
7B74
  8
1
  6
CONTINUOUS
 66
     1
 10
0.0
 20
0.0
 30
0.0
 70
     1
  0
VERTEX
  5
7E43
  8
1
  6
CONTINUOUS
 10
1218.460793
 20
5185.1851619999989
 30
0.0
  0
VERTEX
  5
7E44
  8
1
  6
CONTINUOUS
 10
3188.4607930000002
 20
5185.1851619999989
 30
0.0
  0
VERTEX
  5
7E45
  8
1
  6
CONTINUOUS
 10
3188.4607930000002
 20
6355.1851619999998
 30
0.0
  0
VERTEX
  5
7E46
  8
1
  6
CONTINUOUS
 10
1218.460793
 20
6355.1851619999998
 30
0.0
  0
SEQEND
  5
7E47
  8
1
  6
CONTINUOUS
  0
POLYLINE
  5
7B7A
  8
1
  6
CONTINUOUS
 66
     1
 10
0.0
 20
0.0
 30
0.0
 70
     1
  0
VERTEX
  5
7E48
  8
1
  6
CONTINUOUS
 10
1153.460793
 20
5120.1851619999998
 30
0.0
  0
VERTEX
  5
7E49
  8
1
  6
CONTINUOUS
 10
3253.4607930000002
 20
5120.1851619999998
 30
0.0
  0
VERTEX
  5
7E4A
  8
1
  6
CONTINUOUS
 10
3253.4607930000002
 20
6420.1851619999998
 30
0.0
  0
VERTEX
  5
7E4B
  8
1
  6
CONTINUOUS
 10
1153.460793
 20
6420.1851619999998
 30
0.0
  0
SEQEND
  5
7E4C
  8
1
  6
CONTINUOUS
  0
LINE
  5
7B80
  8
1
  6
CONTINUOUS
 10
1343.460793
 20
6257.1851619999989
 30
0.0
 11
3093.4607930000002
 21
6257.1851619999989
 31
0.0
  0
LINE
  5
7B81
  8
1
  6
CONTINUOUS
 10
3073.4607930000002
 20
5312.1851619999998
 30
0.0
 11
1433.460793
 21
5312.1851619999998
 31
0.0
  0
LINE
  5
7B82
  8
1
  6
CONTINUOUS
 10
3073.4607930000002
 20
5482.1851619999998
 30
0.0
 11
1433.460793
 21
5482.1851619999998
 31
0.0
  0
LINE
  5
7B83
  8
1
  6
CONTINUOUS
 10
3055.4607930000002
 20
5493.1851619999989
 30
0.0
 11
2731.4607930000002
 21
5493.1851619999989
 31
0.0
  0
LINE
  5
7B84
  8
1
  6
CONTINUOUS
 10
1268.66445
 20
5535.1851619999998
 30
0.0
 11
2796.4607930000002
 21
5535.1851619999998
 31
0.0
  0
LINE
  5
7B85
  8
1
  6
CONTINUOUS
 10
1268.66445
 20
6205.1851619999998
 30
0.0
 11
2796.4607930000002
 21
6205.1851619999998
 31
0.0
  0
LINE
  5
7B86
  8
1
  6
CONTINUOUS
 10
1343.460793
 20
5337.1851619999998
 30
0.0
 11
3093.4607930000002
 21
5337.1851619999998
 31
0.0
  0
LINE
  5
7B87
  8
1
  6
CONTINUOUS
 10
2796.4607930000002
 20
5535.1851619999998
 30
0.0
 11
1871.4607929999991
 21
6205.1851619999998
 31
0.0
  0
LINE
  5
7B88
  8
1
  6
CONTINUOUS
 10
2796.4607930000002
 20
6205.1851619999998
 30
0.0
 11
1871.4607929999991
 21
5535.1851619999998
 31
0.0
  0
LINE
  5
7B89
  8
1
  6
CONTINUOUS
 10
1343.460793
 20
5337.1851619999998
 30
0.0
 11
1343.460793
 21
5535.1851619999998
 31
0.0
  0
LINE
  5
7B8A
  8
1
  6
CONTINUOUS
 10
1433.460793
 20
5312.1851619999998
 30
0.0
 11
1433.460793
 21
5482.1851619999998
 31
0.0
  0
LINE
  5
7B8B
  8
1
  6
CONTINUOUS
 10
1343.460793
 20
6205.1851619999998
 30
0.0
 11
1343.460793
 21
6257.1851619999989
 31
0.0
  0
LINE
  5
7B8C
  8
1
  6
CONTINUOUS
 10
1268.66445
 20
5535.1851619999998
 30
0.0
 11
1268.66445
 21
6205.1851619999998
 31
0.0
  0
LINE
  5
7B8D
  8
1
  6
CONTINUOUS
 10
2731.4607930000002
 20
5493.1851619999989
 30
0.0
 11
2731.4607930000002
 21
5535.1851619999998
 31
0.0
  0
LINE
  5
7B8E
  8
1
  6
CONTINUOUS
 10
1938.460793
 20
5449.1851619999998
 30
0.0
 11
1938.460793
 21
5535.1851619999998
 31
0.0
  0
LINE
  5
7B8F
  8
1
  6
CONTINUOUS
 10
1888.460793
 20
5449.1851619999998
 30
0.0
 11
1888.460793
 21
5535.1851619999998
 31
0.0
  0
LINE
  5
7B90
  8
1
  6
CONTINUOUS
 10
2167.4607930000002
 20
5345.1851619999989
 30
0.0
 11
1659.460793
 21
5345.1851619999989
 31
0.0
  0
LINE
  5
7B91
  8
1
  6
CONTINUOUS
 10
2167.4607930000002
 20
5449.1851619999998
 30
0.0
 11
1659.460793
 21
5449.1851619999998
 31
0.0
  0
LINE
  5
7B92
  8
1
  6
CONTINUOUS
 10
1659.460793
 20
5345.1851619999989
 30
0.0
 11
1659.460793
 21
5449.1851619999998
 31
0.0
  0
LINE
  5
7B93
  8
1
  6
CONTINUOUS
 10
2167.4607930000002
 20
5345.1851619999989
 30
0.0
 11
2167.4607930000002
 21
5449.1851619999998
 31
0.0
  0
LINE
  5
7B94
  8
1
  6
CONTINUOUS
 10
1871.4607929999991
 20
5535.1851619999998
 30
0.0
 11
1871.4607929999991
 21
6205.1851619999998
 31
0.0
  0
LINE
  5
7B99
  8
1
  6
CONTINUOUS
 10
3055.4607930000002
 20
5493.1851619999989
 30
0.0
 11
3055.4607930000002
 21
5978.1851619999989
 31
0.0
  0
LINE
  5
7B9A
  8
1
  6
CONTINUOUS
 10
3093.4607930000002
 20
5337.1851619999998
 30
0.0
 11
3093.4607930000002
 21
6257.1851619999989
 31
0.0
  0
LINE
  5
7B9D
  8
1
  6
CONTINUOUS
 10
2968.4607930000002
 20
5345.1851619999989
 30
0.0
 11
2968.4607930000002
 21
5449.1851619999998
 31
0.0
  0
LINE
  5
7B9E
  8
1
  6
CONTINUOUS
 10
2818.4607930000002
 20
5345.1851619999989
 30
0.0
 11
2818.4607930000002
 21
5449.1851619999998
 31
0.0
  0
LINE
  5
7B9F
  8
1
  6
CONTINUOUS
 10
2914.4607930000002
 20
5449.1851619999998
 30
0.0
 11
2914.4607930000002
 21
5493.1851619999989
 31
0.0
  0
LINE
  5
7BA0
  8
1
  6
CONTINUOUS
 10
2872.4607930000002
 20
5449.1851619999998
 30
0.0
 11
2872.4607930000002
 21
5493.1851619999989
 31
0.0
  0
LINE
  5
7BA1
  8
1
  6
CONTINUOUS
 10
2968.4607930000002
 20
5345.1851619999989
 30
0.0
 11
2818.4607930000002
 21
5345.1851619999989
 31
0.0
  0
LINE
  5
7BA2
  8
1
  6
CONTINUOUS
 10
2968.4607930000002
 20
5449.1851619999998
 30
0.0
 11
2818.4607930000002
 21
5449.1851619999998
 31
0.0
  0
LINE
  5
7BA3
  8
1
  6
CONTINUOUS
 10
3073.4607930000002
 20
5312.1851619999998
 30
0.0
 11
3073.4607930000002
 21
5482.1851619999998
 31
0.0
  0
LINE
  5
7BA8
  8
1
  6
CONTINUOUS
 10
3055.4607930000002
 20
5978.1851619999989
 30
0.0
 11
2796.4607930000002
 21
5978.1851619999989
 31
0.0
  0
LINE
  5
7BA9
  8
1
  6
CONTINUOUS
 10
2796.4607930000002
 20
5535.1851619999998
 30
0.0
 11
2796.4607930000002
 21
6205.1851619999998
 31
0.0
  0
POLYLINE
  5
7BB3
  8
1
  6
CONTINUOUS
 66
     1
 10
0.0
 20
0.0
 30
0.0
 70
     1
  0
VERTEX
  5
7E4D
  8
1
  6
CONTINUOUS
 10
3917.6219339999998
 20
2042.8001019999999
 30
0.0
  0
VERTEX
  5
7E4E
  8
1
  6
CONTINUOUS
 10
5217.6219340000007
 20
2042.8001019999999
 30
0.0
  0
VERTEX
  5
7E4F
  8
1
  6
CONTINUOUS
 10
5217.6219340000007
 20
4042.8001020000002
 30
0.0
  0
VERTEX
  5
7E50
  8
1
  6
CONTINUOUS
 10
3917.6219339999998
 20
4042.8001020000002
 30
0.0
  0
SEQEND
  5
7E51
  8
1
  6
CONTINUOUS
  0
POLYLINE
  5
7BB9
  8
1
  6
CONTINUOUS
 66
     1
 10
0.0
 20
0.0
 30
0.0
 70
     1
  0
VERTEX
  5
7E52
  8
1
  6
CONTINUOUS
 10
3982.6219339999998
 20
2107.8001020000002
 30
0.0
  0
VERTEX
  5
7E53
  8
1
  6
CONTINUOUS
 10
5152.6219340000007
 20
2107.8001020000002
 30
0.0
  0
VERTEX
  5
7E54
  8
1
  6
CONTINUOUS
 10
5152.6219340000007
 20
3977.8001020000002
 30
0.0
  0
VERTEX
  5
7E55
  8
1
  6
CONTINUOUS
 10
3982.6219339999998
 20
3977.8001020000002
 30
0.0
  0
SEQEND
  5
7E56
  8
1
  6
CONTINUOUS
  0
LINE
  5
7BBF
  8
1
  6
CONTINUOUS
 10
4134.6219339999998
 20
2148.8001020000002
 30
0.0
 11
5054.6219339999998
 21
2148.8001020000002
 31
0.0
  0
LINE
  5
7BC0
  8
1
  6
CONTINUOUS
 10
4109.6219339999998
 20
3418.8001020000002
 30
0.0
 11
4279.6219339999998
 21
3418.8001020000002
 31
0.0
  0
LINE
  5
7BC1
  8
1
  6
CONTINUOUS
 10
4142.6219340000007
 20
3167.8001020000002
 30
0.0
 11
4246.6219340000007
 21
3167.8001020000002
 31
0.0
  0
LINE
  5
7BC2
  8
1
  6
CONTINUOUS
 10
4142.6219340000007
 20
2659.8001020000002
 30
0.0
 11
4246.6219340000007
 21
2659.8001020000002
 31
0.0
  0
LINE
  5
7BC3
  8
1
  6
CONTINUOUS
 10
4142.6219340000007
 20
2573.8001020000002
 30
0.0
 11
4246.6219340000007
 21
2573.8001020000002
 31
0.0
  0
LINE
  5
7BC4
  8
1
  6
CONTINUOUS
 10
4142.6219340000007
 20
2423.8001020000002
 30
0.0
 11
4246.6219340000007
 21
2423.8001020000002
 31
0.0
  0
LINE
  5
7BC5
  8
1
  6
CONTINUOUS
 10
4134.6219339999998
 20
2248.8001020000002
 30
0.0
 11
5054.6219339999998
 21
2248.8001020000002
 31
0.0
  0
LINE
  5
7BC8
  8
1
  6
CONTINUOUS
 10
4109.6219339999998
 20
3418.8001020000002
 30
0.0
 11
4109.6219339999998
 21
2248.8001020000002
 31
0.0
  0
LINE
  5
7BCB
  8
1
  6
CONTINUOUS
 10
4109.6219339999998
 20
2248.8001020000002
 30
0.0
 11
4134.6219339999998
 21
2248.8001020000002
 31
0.0
  0
LINE
  5
7BCC
  8
1
  6
CONTINUOUS
 10
4134.6219339999998
 20
2248.8001020000002
 30
0.0
 11
4134.6219339999998
 21
2148.8001020000002
 31
0.0
  0
LINE
  5
7BCD
  8
1
  6
CONTINUOUS
 10
4142.6219340000007
 20
3167.8001020000002
 30
0.0
 11
4142.6219340000007
 21
2659.8001020000002
 31
0.0
  0
LINE
  5
7BCE
  8
1
  6
CONTINUOUS
 10
4142.6219340000007
 20
2573.8001020000002
 30
0.0
 11
4142.6219340000007
 21
2423.8001020000002
 31
0.0
  0
LINE
  5
7BCF
  8
1
  6
CONTINUOUS
 10
4332.6219340000007
 20
3568.8001020000002
 30
0.0
 11
4332.6219340000007
 21
2248.8001020000002
 31
0.0
  0
LINE
  5
7BD0
  8
1
  6
CONTINUOUS
 10
5002.6219340000007
 20
3568.8001020000002
 30
0.0
 11
5002.6219340000007
 21
2248.8001020000002
 31
0.0
  0
LINE
  5
7BD1
  8
1
  6
CONTINUOUS
 10
4279.6219339999998
 20
3418.8001020000002
 30
0.0
 11
4279.6219339999998
 21
2248.8001020000002
 31
0.0
  0
LINE
  5
7BD2
  8
1
  6
CONTINUOUS
 10
5054.6219339999998
 20
2248.8001020000002
 30
0.0
 11
5054.6219339999998
 21
2148.8001020000002
 31
0.0
  0
LINE
  5
7BD3
  8
1
  6
CONTINUOUS
 10
4332.6219340000007
 20
3528.8001020000002
 30
0.0
 11
5002.6219340000007
 21
3528.8001020000002
 31
0.0
  0
LINE
  5
7BD4
  8
1
  6
CONTINUOUS
 10
4290.6219339999998
 20
3568.8001020000002
 30
0.0
 11
5044.6219340000007
 21
3568.8001020000002
 31
0.0
  0
LINE
  5
7BD5
  8
1
  6
CONTINUOUS
 10
4246.6219340000007
 20
3167.8001020000002
 30
0.0
 11
4246.6219340000007
 21
2659.8001020000002
 31
0.0
  0
LINE
  5
7BD6
  8
1
  6
CONTINUOUS
 10
4246.6219340000007
 20
2938.8001020000002
 30
0.0
 11
4332.6219340000007
 21
2938.8001020000002
 31
0.0
  0
LINE
  5
7BD7
  8
1
  6
CONTINUOUS
 10
4246.6219340000007
 20
2888.8001020000002
 30
0.0
 11
4332.6219340000007
 21
2888.8001020000002
 31
0.0
  0
LINE
  5
7BD8
  8
1
  6
CONTINUOUS
 10
4246.6219340000007
 20
2519.8001020000002
 30
0.0
 11
4332.6219340000007
 21
2519.8001020000002
 31
0.0
  0
LINE
  5
7BD9
  8
1
  6
CONTINUOUS
 10
4246.6219340000007
 20
2477.8001020000002
 30
0.0
 11
4332.6219340000007
 21
2477.8001020000002
 31
0.0
  0
LINE
  5
7BDA
  8
1
  6
CONTINUOUS
 10
4246.6219340000007
 20
2573.8001020000002
 30
0.0
 11
4246.6219340000007
 21
2423.8001020000002
 31
0.0
  0
LINE
  5
7BFD
  8
2
  6
CENTER
 10
4667.6219340000007
 20
4233.9643589999996
 30
0.0
 11
4667.6219340000007
 21
1936.8284610000001
 31
0.0
  0
LINE
  5
7BFE
  8
2
  6
CENTER
 10
1048.7620489999999
 20
5870.1851619999998
 30
0.0
 11
3401.4011759999999
 21
5870.1851619999998
 31
0.0
  0
LINE
  5
7BFF
  8
2
  6
CENTER
 10
1913.460793
 20
5021.2014349999999
 30
0.0
 11
1913.460793
 21
6559.5940579999997
 31
0.0
  0
LINE
  5
7C00
  8
2
  6
CENTER
 10
3429.4265770000002
 20
2913.8001020000002
 30
0.0
 11
1007.071651
 21
2913.8001020000002
 31
0.0
  0
LINE
  5
7C01
  8
4
  6
CONTINUOUS
 10
5550.0
 20
1500.0
 30
0.0
 11
5550.0
 21
900.0
 31
0.0
  0
LINE
  5
7C02
  8
4
  6
CONTINUOUS
 10
3450.0
 20
1500.0
 30
0.0
 11
3450.0
 21
900.0
 31
0.0
  0
LINE
  5
7C03
  8
4
  6
CONTINUOUS
 10
1950.0
 20
1500.0
 30
0.0
 11
1950.0
 21
900.0
 31
0.0
  0
LINE
  5
7C06
  8
4
  6
CONTINUOUS
 10
1950.0
 20
900.0
 30
0.0
 11
5550.0
 21
900.0
 31
0.0
  0
LINE
  5
7C07
  8
4
  6
CONTINUOUS
 10
1950.0
 20
1200.0
 30
0.0
 11
5550.0
 21
1200.0
 31
0.0
  0
TEXT
  5
7C08
  8
4
  6
CONTINUOUS
 10
2065.5062429999989
 20
1294.6290779999999
 30
0.0
 40
150.0
  1
機器名称
  0
TEXT
  5
7C09
  8
4
  6
CONTINUOUS
 10
2058.7743179999989
 20
964.9354699999999
 30
0.0
 40
150.0
  1
機器型番
  0
TEXT
  5
7C0A
  8
4
  6
CONTINUOUS
 10
3533.0362359999999
 20
1267.7153069999999
 30
0.0
 40
150.0
  1
ミツヤ多翼送風機
  0
TEXT
  5
7C0B
  8
4
  6
CONTINUOUS
 10
3559.9634869999991
 20
951.47875299999987
 30
0.0
 40
150.0
  1
MF#5 1/2-4
  0
TEXT
  5
7C0D
  8
4
  6
CONTINUOUS
 10
2224.5343939999998
 20
7150.2865239999992
 30
0.0
 40
162.0
  1
天井吊枠防振ベット
  0
TEXT
  5
7C0E
  8
4
  6
CONTINUOUS
 10
948.50278000000014
 20
7601.6429289999996
 30
0.0
 40
216.0
  1
ベルト駆動式片吸込両持多翼ファン
  0
LINE
  5
7C0F
  8
4
  6
CONTINUOUS
 10
750.0
 20
7408.2262629999996
 30
0.0
 11
5550.0
 21
7408.2262629999996
 31
0.0
  0
LINE
  5
7C10
  8
4
  6
CONTINUOUS
 10
750.0
 20
8008.2262629999996
 30
0.0
 11
5550.0
 21
8008.2262629999996
 31
0.0
  0
LINE
  5
7C11
  8
4
  6
CONTINUOUS
 10
1950.0
 20
1500.0
 30
0.0
 11
5550.0
 21
1500.0
 31
0.0
  0
LINE
  5
7C12
  8
4
  6
CONTINUOUS
 10
750.0
 20
8008.2262629999996
 30
0.0
 11
750.0
 21
7408.2262629999996
 31
0.0
  0
TEXT
  5
7C13
  8
4
  6
CONTINUOUS
 10
916.95789700000012
 20
7146.9584329999998
 30
0.0
 40
162.0
  1
左回転上向
  0
TEXT
  5
7C14
  8
4
  6
CONTINUOUS
 10
4406.9086779999989
 20
8118.1832439999989
 30
0.0
 40
168.0
  1
No.
  0
TEXT
  5
7C15
  8
4
  6
CONTINUOUS
 10
4178.799622999999
 20
7150.2865239999992
 30
0.0
 40
162.0
  1
縮尺：1/30
  0
LINE
  5
7C16
  8
4
  6
CONTINUOUS
 10
5550.0
 20
8008.2262629999996
 30
0.0
 11
5550.0
 21
7408.2262629999996
 31
0.0
  0
LINE
  5
7C18
  8
4
  6
CONTINUOUS
 10
4321.8522670000002
 20
8043.7907490000007
 30
0.0
 11
4321.8522670000002
 21
8359.9567849999985
 31
0.0
  0
LINE
  5
7C19
  8
4
  6
CONTINUOUS
 10
4321.8522670000002
 20
8359.9567849999985
 30
0.0
 11
5550.0
 21
8359.9567849999985
 31
0.0
  0
LINE
  5
7C1A
  8
4
  6
CONTINUOUS
 10
5550.0
 20
8359.9567849999985
 30
0.0
 11
5550.0
 21
8043.7907490000007
 31
0.0
  0
LINE
  5
7C1B
  8
4
  6
CONTINUOUS
 10
5550.0
 20
8043.7907490000007
 30
0.0
 11
4321.8522670000002
 21
8043.7907490000007
 31
0.0
  0
DIMENSION
  5
7C2C
  8
3
  6
CONTINUOUS
  2
*D1
 10
2796.4607930000002
 20
3772.4078329999988
 30
0.0
 11
2284.5550079999989
 21
3772.4078329999988
 31
0.0
 70
   128
 13
1871.4607929999991
 23
3568.8001020000002
 33
0.0
 14
2796.4607930000002
 24
3568.8001020000002
 34
0.0
1001
ACAD
1000
DSTYLE
1002
{
1070
   287
1070
     3
1070
    40
1040
30.0
1070
   143
1040
0.039
1070
   172
1070
     1
1070
   271
1070
     0
1070
   279
1070
     0
1070
   288
1070
     1
1002
}
  0
DIMENSION
  5
7C39
  8
3
  6
CONTINUOUS
  2
*D2
 10
1913.460793
 20
4177.0402001796137
 30
0.0
 11
2268.3041020000001
 21
4177.0402001796137
 31
0.0
 70
   128
 13
2796.4607930000002
 23
3568.8001020000002
 33
0.0
 14
1913.460793
 24
4099.3898506401883
 34
0.0
1001
ACAD
1000
DSTYLE
1002
{
1070
   287
1070
     3
1070
    40
1040
30.0
1070
   143
1040
0.039
1070
   172
1070
     1
1070
   271
1070
     0
1070
   279
1070
     0
1070
   288
1070
     1
1002
}
  0
DIMENSION
  5
7C69
  8
3
  6
CONTINUOUS
  2
*D3
 10
911.35235700000055
 20
2913.8001020000002
 30
0.0
 11
911.35235699999987
 21
3212.087747
 31
0.0
 70
   128
 13
1828.960793
 23
3568.8001020000002
 33
0.0
 14
979.04624999999999
 24
2913.8001020000002
 34
0.0
 50
90.0
1001
ACAD
1000
DSTYLE
1002
{
1070
   287
1070
     3
1070
    40
1040
30.0
1070
   143
1040
0.039
1070
   172
1070
     1
1070
   271
1070
     0
1070
   279
1070
     0
1070
   288
1070
     1
1002
}
  0
DIMENSION
  5
7C75
  8
3
  6
CONTINUOUS
  2
*D4
 10
911.35235699999987
 20
2148.8001020000002
 30
0.0
 11
836.35235699999964
 21
2531.3001020000002
 31
0.0
 70
     0
 13
979.04624999999999
 23
2913.8001020000002
 33
0.0
 14
1343.460793
 24
2148.8001020000002
 34
0.0
 50
90.0
1001
ACAD
1000
DSTYLE
1002
{
1070
   287
1070
     4
1070
    40
1040
30.0
1070
    75
1070
     1
1070
   143
1040
0.039
1070
   172
1070
     1
1070
   271
1070
     0
1070
   279
1070
     1
1070
   288
1070
     1
1002
}
  0
DIMENSION
  5
7C85
  8
3
  6
CONTINUOUS
  2
*D5
 10
911.35235700000032
 20
2042.8001019999999
 30
0.0
 11
911.35235699999987
 21
1787.8001019999999
 31
0.0
 70
   128
 13
1343.460793
 23
2148.8001020000002
 33
0.0
 14
1153.460793
 24
2042.8001019999999
 34
0.0
 50
90.0
1001
ACAD
1000
DSTYLE
1002
{
1070
   287
1070
     3
1070
    40
1040
30.0
1070
   143
1040
0.039
1070
   172
1070
     1
1070
   271
1070
     0
1070
   279
1070
     0
1070
   288
1070
     1
1002
}
  0
DIMENSION
  5
7CA0
  8
3
  6
CONTINUOUS
  2
*D6
 10
1913.460793
 20
1799.1067
 30
0.0
 11
1512.6363490000001
 21
1799.1067
 31
0.0
 70
   128
 13
1153.460793
 23
2042.8001019999999
 33
0.0
 14
1913.460793
 24
1932.6974299999999
 34
0.0
1001
ACAD
1000
DSTYLE
1002
{
1070
   287
1070
     3
1070
    40
1040
30.0
1070
   143
1040
0.039
1070
   172
1070
     1
1070
   271
1070
     0
1070
   279
1070
     0
1070
   288
1070
     1
1002
}
  0
DIMENSION
  5
7CAC
  8
3
  6
CONTINUOUS
  2
*D7
 10
3253.4607930000002
 20
1799.1067
 30
0.0
 11
2583.4607930000002
 21
1874.1067
 31
0.0
 70
     0
 13
1913.460793
 23
1932.6974299999999
 33
0.0
 14
3253.4607930000002
 24
2042.8001019999999
 34
0.0
1001
ACAD
1000
DSTYLE
1002
{
1070
   287
1070
     4
1070
    40
1040
30.0
1070
    75
1070
     1
1070
   143
1040
0.039
1070
   172
1070
     1
1070
   271
1070
     0
1070
   279
1070
     1
1070
   288
1070
     1
1002
}
  0
DIMENSION
  5
7CB9
  8
3
  6
CONTINUOUS
  2
*D8
 10
5002.6219340000007
 20
4210.9191929999997
 30
0.0
 11
4666.4035299999987
 21
4210.9191929999997
 31
0.0
 70
   128
 13
4332.6219340000007
 23
3568.8001020000002
 33
0.0
 14
5002.6219340000007
 24
3568.8001020000002
 34
0.0
1001
ACAD
1000
DSTYLE
1002
{
1070
   287
1070
     3
1070
    40
1040
30.0
1070
   143
1040
0.039
1070
   172
1070
     1
1070
   271
1070
     0
1070
   279
1070
     0
1070
   288
1070
     1
1002
}
  0
LINE
  5
7CBA
  8
1
  6
CONTINUOUS
 10
5006.6219340000007
 20
3388.8001020000002
 30
0.0
 11
5006.6219340000007
 21
2438.8001020000002
 31
0.0
  0
DIMENSION
  5
7CC9
  8
3
  6
CONTINUOUS
  2
*D9
 10
5478.949469000001
 20
2438.8001020000002
 30
0.0
 11
5478.9494690000001
 21
2911.6262689999999
 31
0.0
 70
   128
 13
5006.6219340000007
 23
3388.8001020000002
 33
0.0
 14
5006.6219340000007
 24
2438.8001020000002
 34
0.0
 50
90.0
1001
ACAD
1000
DSTYLE
1002
{
1070
   287
1070
     3
1070
     3
1000
φ<>
1070
    40
1040
30.0
1070
   143
1040
0.039
1070
   172
1070
     1
1070
   271
1070
     0
1070
   279
1070
     0
1070
   288
1070
     1
1002
}
  0
DIMENSION
  5
7CD8
  8
3
  6
CONTINUOUS
  2
*D10
 10
4667.6219340000007
 20
4430.174884
 30
0.0
 11
4837.1219340000007
 21
4499.5859290632607
 31
0.0
 70
   128
 13
5006.6219340000007
 23
3388.8001020000002
 33
0.0
 14
4667.6219340000007
 24
4366.2869280000004
 34
0.0
1001
ACAD
1000
DSTYLE
1002
{
1070
   288
1070
     1
1070
   172
1070
     1
1070
    40
1040
30.0
1070
   271
1070
     0
1070
   143
1040
0.039
1002
}
  0
DIMENSION
  5
7CE5
  8
3
  6
CONTINUOUS
  2
*D11
 10
3748.2266180000001
 20
2042.8001019999999
 30
0.0
 11
3748.2266180000001
 21
3000.9526569999998
 31
0.0
 70
   128
 13
3917.6219339999998
 23
4042.8001020000002
 33
0.0
 14
3917.6219339999998
 24
2042.8001019999999
 34
0.0
 50
90.0
1001
ACAD
1000
DSTYLE
1002
{
1070
   287
1070
     3
1070
    40
1040
30.0
1070
   143
1040
0.039
1070
   172
1070
     1
1070
   271
1070
     0
1070
   279
1070
     0
1070
   288
1070
     1
1002
}
  0
DIMENSION
  5
7CF2
  8
3
  6
CONTINUOUS
  2
*D12
 10
4667.6219340000007
 20
1790.986122
 30
0.0
 11
4284.5069540000004
 21
1790.986122
 31
0.0
 70
   128
 13
3917.6219339999998
 23
2042.8001019999999
 33
0.0
 14
4667.6219340000007
 24
1936.8284610000001
 34
0.0
1001
ACAD
1000
DSTYLE
1002
{
1070
   287
1070
     3
1070
    40
1040
30.0
1070
   143
1040
0.039
1070
   172
1070
     1
1070
   271
1070
     0
1070
   279
1070
     0
1070
   288
1070
     1
1002
}
  0
DIMENSION
  5
7CFE
  8
3
  6
CONTINUOUS
  2
*D13
 10
5217.6219340000007
 20
1790.986122
 30
0.0
 11
4942.6219340000007
 21
1865.9861219999991
 31
0.0
 70
     0
 13
4667.6219340000007
 23
1936.8284610000001
 33
0.0
 14
5217.6219340000007
 24
2042.8001019999999
 34
0.0
1001
ACAD
1000
DSTYLE
1002
{
1070
   287
1070
     4
1070
    40
1040
30.0
1070
    75
1070
     1
1070
   143
1040
0.039
1070
   172
1070
     1
1070
   271
1070
     0
1070
   279
1070
     1
1070
   288
1070
     1
1002
}
  0
DIMENSION
  5
7D0B
  8
3
  6
CONTINUOUS
  2
*D14
 10
3253.4607930000002
 20
6649.6148290000001
 30
0.0
 11
2219.5513149999988
 21
6649.6148290000001
 31
0.0
 70
   128
 13
1153.460793
 23
6420.1851619999998
 33
0.0
 14
3253.4607930000002
 24
6420.1851619999998
 34
0.0
1001
ACAD
1000
DSTYLE
1002
{
1070
   287
1070
     3
1070
    40
1040
30.0
1070
   143
1040
0.039
1070
   172
1070
     1
1070
   271
1070
     0
1070
   279
1070
     0
1070
   288
1070
     1
1002
}
  0
DIMENSION
  5
7D18
  8
3
  6
CONTINUOUS
  2
*D15
 10
3560.252156
 20
5120.1851619999998
 30
0.0
 11
3560.252156
 21
5782.7567200000003
 31
0.0
 70
   128
 13
3253.4607930000002
 23
6420.1851619999998
 33
0.0
 14
3253.4607930000002
 24
5120.1851619999998
 34
0.0
 50
90.0
1001
ACAD
1000
DSTYLE
1002
{
1070
   287
1070
     3
1070
    40
1040
30.0
1070
   143
1040
0.039
1070
   172
1070
     1
1070
   271
1070
     0
1070
   279
1070
     0
1070
   288
1070
     1
1002
}
  0
DIMENSION
  5
7D56
  8
3
  6
CONTINUOUS
  2
*D16
 10
1270.4658500082689
 20
4177.0402001796137
 30
0.0
 11
1591.9633215041349
 21
4252.0402001796128
 31
0.0
 70
     0
 13
1913.460793
 23
4099.3898506401883
 33
0.0
 14
1270.4658500082689
 24
2913.8001020000002
 34
0.0
1001
ACAD
1000
DSTYLE
1002
{
1070
   287
1070
     4
1070
    40
1040
30.0
1070
    75
1070
     1
1070
   143
1040
0.039
1070
   172
1070
     1
1070
   271
1070
     0
1070
   279
1070
     1
1070
   288
1070
     1
1002
}
  0
LINE
  5
7DE0
  8
1
  6
CONTINUOUS
 10
1353.4607929999991
 20
3368.8001020000002
 30
0.0
 11
2473.4607930000002
 21
3368.8001020000011
 31
0.0
  0
LINE
  5
7DE1
  8
1
 10
1353.460793
 20
2248.8001020000002
 30
0.0
 11
1353.4607929999991
 21
3368.8001020000002
 31
0.0
  0
LINE
  5
7DE2
  8
1
 10
2473.4607930000002
 20
2248.8001020000002
 30
0.0
 11
2473.4607930000002
 21
3368.8001020000011
 31
0.0
  0
ENDSEC
  0
EOF
