  0
SECTION
  2
HEADER
  9
$ACADVER
  1
AC1009
  9
$INSBASE
 10
0.0
 20
0.0
 30
0.0
  9
$EXTMIN
 10
750.0
 20
900.0
 30
0.0
  9
$EXTMAX
 10
5594.8770750000003
 20
8359.9567849999985
 30
0.0
  9
$LIMMIN
 10
0.0
 20
0.0
  9
$LIMMAX
 10
297.0
 20
210.0
  9
$ORTHOMODE
 70
     0
  9
$REGENMODE
 70
     1
  9
$FILLMODE
 70
     0
  9
$QTEXTMODE
 70
     0
  9
$MIRRTEXT
 70
     1
  9
$DRAGMODE
 70
     2
  9
$LTSCALE
 40
100.0
  9
$OSMODE
 70
    37
  9
$ATTMODE
 70
     1
  9
$TEXTSIZE
 40
180.0
  9
$TRACEWID
 40
0.05
  9
$TEXTSTYLE
  7
STANDARD
  9
$CLAYER
  8
3
  9
$CELTYPE
  6
BYLAYER
  9
$CECOLOR
 62
   256
  9
$DIMSCALE
 40
30.0
  9
$DIMASZ
 40
2.0
  9
$DIMEXO
 40
0.5
  9
$DIMDLI
 40
10.0
  9
$DIMRND
 40
0.0
  9
$DIMDLE
 40
0.0
  9
$DIMEXE
 40
1.0
  9
$DIMTP
 40
1.0
  9
$DIMTM
 40
1.0
  9
$DIMTXT
 40
3.0
  9
$DIMCEN
 40
0.0
  9
$DIMTSZ
 40
0.0
  9
$DIMTOL
 70
     0
  9
$DIMLIM
 70
     0
  9
$DIMTIH
 70
     0
  9
$DIMTOH
 70
     0
  9
$DIMSE1
 70
     0
  9
$DIMSE2
 70
     0
  9
$DIMTAD
 70
     1
  9
$DIMZIN
 70
     8
  9
$DIMBLK
  1

  9
$DIMASO
 70
     1
  9
$DIMSHO
 70
     1
  9
$DIMPOST
  1

  9
$DIMAPOST
  1

  9
$DIMALT
 70
     0
  9
$DIMALTD
 70
     2
  9
$DIMALTF
 40
0.039
  9
$DIMLFAC
 40
1.0
  9
$DIMTOFL
 70
     1
  9
$DIMTVP
 40
0.0
  9
$DIMTIX
 70
     0
  9
$DIMSOXD
 70
     0
  9
$DIMSAH
 70
     1
  9
$DIMBLK1
  1
OPEN
  9
$DIMBLK2
  1
OPEN
  9
$DIMSTYLE
  2
IGA
  9
$DIMCLRD
 70
     0
  9
$DIMCLRE
 70
     0
  9
$DIMCLRT
 70
     0
  9
$DIMTFAC
 40
10.0
  9
$DIMGAP
 40
1.0
  9
$LUNITS
 70
     2
  9
$LUPREC
 70
     3
  9
$SKETCHINC
 40
0.1
  9
$FILLETRAD
 40
50.0
  9
$AUNITS
 70
     0
  9
$AUPREC
 70
     0
  9
$MENU
  1
acad
  9
$ELEVATION
 40
0.0
  9
$PELEVATION
 40
0.0
  9
$THICKNESS
 40
0.0
  9
$LIMCHECK
 70
     0
  9
$BLIPMODE
 70
     0
  9
$CHAMFERA
 40
0.5
  9
$CHAMFERB
 40
0.5
  9
$SKPOLY
 70
     0
  9
$TDCREATE
 40
2450752.4674997679
  9
$TDUPDATE
 40
2454953.7765413299
  9
$TDINDWG
 40
0.0194631944
  9
$TDUSRTIMER
 40
0.0194631944
  9
$USRTIMER
 70
     1
  9
$ANGBASE
 50
0.0
  9
$ANGDIR
 70
     0
  9
$PDMODE
 70
     0
  9
$PDSIZE
 40
0.0
  9
$PLINEWID
 40
0.0
  9
$COORDS
 70
     1
  9
$SPLFRAME
 70
     0
  9
$SPLINETYPE
 70
     6
  9
$SPLINESEGS
 70
     8
  9
$ATTDIA
 70
     0
  9
$ATTREQ
 70
     1
  9
$HANDLING
 70
 10241
  9
$HANDSEED
  5
7E5F
  9
$SURFTAB1
 70
     6
  9
$SURFTAB2
 70
     6
  9
$SURFTYPE
 70
     6
  9
$SURFU
 70
     6
  9
$SURFV
 70
     6
  9
$UCSNAME
  2

  9
$UCSORG
 10
0.0
 20
0.0
 30
0.0
  9
$UCSXDIR
 10
1.0
 20
0.0
 30
0.0
  9
$UCSYDIR
 10
0.0
 20
1.0
 30
0.0
  9
$PUCSNAME
  2

  9
$PUCSORG
 10
0.0
 20
0.0
 30
0.0
  9
$PUCSXDIR
 10
1.0
 20
0.0
 30
0.0
  9
$PUCSYDIR
 10
0.0
 20
1.0
 30
0.0
  9
$USERI1
 70
     0
  9
$USERI2
 70
     0
  9
$USERI3
 70
     0
  9
$USERI4
 70
     0
  9
$USERI5
 70
     0
  9
$USERR1
 40
0.0
  9
$USERR2
 40
0.0
  9
$USERR3
 40
0.0
  9
$USERR4
 40
0.0
  9
$USERR5
 40
0.0
  9
$WORLDVIEW
 70
     1
  9
$SHADEDGE
 70
     3
  9
$SHADEDIF
 70
    70
  9
$TILEMODE
 70
     1
  9
$MAXACTVP
 70
    16
  9
$PLIMCHECK
 70
     0
  9
$PEXTMIN
 10
1.0000000000000000E+020
 20
1.0000000000000000E+020
 30
1.0000000000000000E+020
  9
$PEXTMAX
 10
-1.0000000000000000E+020
 20
-1.0000000000000000E+020
 30
-1.0000000000000000E+020
  9
$PLIMMIN
 10
0.0
 20
0.0
  9
$PLIMMAX
 10
12.0
 20
9.0
  9
$UNITMODE
 70
     0
  9
$VISRETAIN
 70
     0
  9
$PLINEGEN
 70
     0
  9
$PSLTSCALE
 70
     1
  0
ENDSEC
  0
SECTION
  2
TABLES
  0
TABLE
  2
VPORT
 70
     2
  0
VPORT
  2
*ACTIVE
 70
     0
 10
0.0
 20
0.0
 11
1.0
 21
1.0
 12
9460.6510850741397
 22
4629.9562499988788
 13
0.0
 23
0.0
 14
10.0
 24
10.0
 15
10.0
 25
10.0
 16
0.0
 26
0.0
 36
1.0
 17
0.0
 27
0.0
 37
0.0
 40
7517.2452868940854
 41
3.1666666666666661
 42
50.0
 43
0.0
 44
0.0
 50
0.0
 51
0.0
 71
     0
 72
   100
 73
     1
 74
     0
 75
     0
 76
     0
 77
     0
 78
     0
  0
ENDTAB
  0
TABLE
  2
LTYPE
 70
     2
  0
LTYPE
  2
CONTINUOUS
 70
     0
  3
Solid line
 72
    65
 73
     0
 40
0.0
  0
LTYPE
  2
CENTER
 70
     0
  3
____ _ ____ _ ____ _ ____ _ ____ _ ____ _ ____ 
 72
    65
 73
     4
 40
2.0
 49
1.25
 49
-0.25
 49
0.25
 49
-0.25
  0
ENDTAB
  0
TABLE
  2
LAYER
 70
     6
  0
LAYER
  2
0
 70
     0
 62
     7
  6
CONTINUOUS
  0
LAYER
  2
3
 70
     0
 62
     2
  6
CONTINUOUS
  0
LAYER
  2
2
 70
     0
 62
     3
  6
CENTER
  0
LAYER
  2
1
 70
     0
 62
     4
  6
CONTINUOUS
  0
LAYER
  2
4
 70
     0
 62
     7
  6
CONTINUOUS
  0
LAYER
  2
DEFPOINTS
 70
     0
 62
    -7
  6
CONTINUOUS
  0
ENDTAB
  0
TABLE
  2
STYLE
 70
     1
  0
STYLE
  2
STANDARD
 70
     0
 40
0.0
 41
1.0
 50
0.0
 71
     0
 42
180.0
  3
simplex.shx
  4
extfont.shx
  0
ENDTAB
  0
TABLE
  2
VIEW
 70
     0
  0
ENDTAB
  0
TABLE
  2
UCS
 70
     0
  0
ENDTAB
  0
TABLE
  2
APPID
 70
     1
  0
APPID
  2
ACAD
 70
     0
  0
ENDTAB
  0
TABLE
  2
DIMSTYLE
 70
     1
  0
DIMSTYLE
  2
IGA
 70
     0
  3

  4

  5

  6
OPEN
  7
OPEN
 40
2.0
 41
2.0
 42
0.5
 43
10.0
 44
1.0
 45
0.0
 46
0.0
 47
1.0
 48
1.0
140
3.0
141
0.0
142
0.0
143
0.03937
144
1.0
145
0.0
146
10.0
147
1.0
 71
     0
 72
     0
 73
     0
 74
     0
 75
     0
 76
     0
 77
     1
 78
     8
170
     0
171
     2
172
     0
173
     1
174
     0
175
     0
176
     0
177
     0
178
     0
  0
ENDTAB
  0
ENDSEC
  0
SECTION
  2
BLOCKS
  0
BLOCK
  8
0
  2
$MODEL_SPACE
 70
     0
 10
0.0
 20
0.0
 30
0.0
  3
$MODEL_SPACE
  1

  0
ENDBLK
  5
1B
  8
0
  0
BLOCK
 67
     1
  8
0
  2
$PAPER_SPACE
 70
     0
 10
0.0
 20
0.0
 30
0.0
  3
$PAPER_SPACE
  1

  0
ENDBLK
  5
18
 67
     1
  8
0
  0
BLOCK
  8
0
  2
_OPEN
 70
     0
 10
0.0
 20
0.0
 30
0.0
  3
_OPEN
  1

  0
LINE
  5
7BDE
  8
0
  6
BYBLOCK
 62
     0
 10
-1.0
 20
0.166667
 30
0.0
 11
0.0
 21
0.0
 31
0.0
  0
LINE
  5
7BDF
  8
0
  6
BYBLOCK
 62
     0
 10
0.0
 20
0.0
 30
0.0
 11
-1.0
 21
-0.166667
 31
0.0
  0
LINE
  5
7BE0
  8
0
  6
BYBLOCK
 62
     0
 10
0.0
 20
0.0
 30
0.0
 11
-1.0
 21
0.0
 31
0.0
  0
ENDBLK
  5
7BE1
  8
0
  0
BLOCK
  8
0
  2
*D1
 70
     1
 10
0.0
 20
0.0
 30
0.0
  3
*D1
  1

  0
LINE
  5
7DCB
  8
3
  6
CONTINUOUS
 62
     0
 10
1398.9920400000001
 20
3782.3658
 30
0.0
 11
1103.9437390000001
 21
3782.3658
 31
0.0
  0
LINE
  5
7DCC
  8
3
  6
CONTINUOUS
 62
     0
 10
1398.9920400000001
 20
2857.3658
 30
0.0
 11
1103.9437390000001
 21
2857.3658
 31
0.0
  0
LINE
  5
7DCD
  8
3
  6
CONTINUOUS
 62
     0
 10
1133.9437390000001
 20
3722.3658
 30
0.0
 11
1133.9437390000001
 21
2917.3658
 31
0.0
  0
INSERT
  5
7DCE
  8
3
  6
CONTINUOUS
 62
     0
  2
_OPEN
 10
1133.9437390000001
 20
3782.3658
 30
0.0
 41
60.0
 42
60.0
 43
60.0
 50
90.0
  0
INSERT
  5
7DCF
  8
3
  6
CONTINUOUS
 62
     0
  2
_OPEN
 10
1133.9437390000001
 20
2857.3658
 30
0.0
 41
60.0
 42
60.0
 43
60.0
 50
270.0
  0
TEXT
  8
3
  40
90
  5
7E50
  62
0
  72
0
  71
0
 10
878.944
 20
3141.06
 30
0.000000
  1
925
  0
POINT
  5
7DD1
  8
DEFPOINTS
  6
CONTINUOUS
 62
     0
 10
1413.9920400000001
 20
3782.3658
 30
0.0
  0
POINT
  5
7DD2
  8
DEFPOINTS
  6
CONTINUOUS
 62
     0
 10
1413.9920400000001
 20
2857.3658
 30
0.0
  0
POINT
  5
7DD3
  8
DEFPOINTS
  6
CONTINUOUS
 62
     0
 10
1133.9437390000001
 20
2857.3658
 30
0.0
  0
ENDBLK
  5
7C27
  8
0
  0
BLOCK
  8
0
  2
*D2
 70
     1
 10
0.0
 20
0.0
 30
0.0
  3
*D2
  1

  0
LINE
  5
7DD4
  8
3
  6
CONTINUOUS
 62
     0
 10
1293.9920400000001
 20
3782.3658
 30
0.0
 11
908.14332600000057
 21
3782.3658
 31
0.0
  0
LINE
  5
7DD5
  8
3
  6
CONTINUOUS
 62
     0
 10
1184.8223609999991
 20
2899.3657999999991
 30
0.0
 11
908.14332600000046
 21
2899.3658
 31
0.0
  0
LINE
  5
7DD6
  8
3
  6
CONTINUOUS
 62
     0
 10
938.14332600000057
 20
3722.3658
 30
0.0
 11
938.14332600000046
 21
2959.3658
 31
0.0
  0
INSERT
  5
7DD7
  8
3
  6
CONTINUOUS
 62
     0
  2
_OPEN
 10
938.14332600000057
 20
3782.3658
 30
0.0
 41
60.0
 42
60.0
 43
60.0
 50
90.0
  0
INSERT
  5
7DD8
  8
3
  6
CONTINUOUS
 62
     0
  2
_OPEN
 10
938.14332600000046
 20
2899.3658
 30
0.0
 41
60.0
 42
60.0
 43
60.0
 50
270.0
  0
TEXT
  8
3
  40
90
  5
7E51
  62
0
  72
0
  71
0
 10
683.143
 20
3150.38
 30
0.000000
  1
883
  0
POINT
  5
7DDA
  8
DEFPOINTS
  6
CONTINUOUS
 62
     0
 10
1308.9920400000001
 20
3782.3658
 30
0.0
  0
POINT
  5
7DDB
  8
DEFPOINTS
  6
CONTINUOUS
 62
     0
 10
1199.822361
 20
2899.3657999999991
 30
0.0
  0
POINT
  5
7DDC
  8
DEFPOINTS
  6
CONTINUOUS
 62
     0
 10
938.14332600000046
 20
2899.3658
 30
0.0
  0
ENDBLK
  5
7C34
  8
0
  0
BLOCK
  8
0
  2
*D3
 70
     1
 10
0.0
 20
0.0
 30
0.0
  3
*D3
  1

  0
LINE
  5
7DDD
  8
3
  6
CONTINUOUS
 62
     0
 10
1483.9920400000001
 20
2134.3658
 30
0.0
 11
908.143326
 21
2134.3658
 31
0.0
  0
LINE
  5
7DDE
  8
3
  6
CONTINUOUS
 62
     0
 10
938.14332600000034
 20
2839.3658
 30
0.0
 11
938.14332599999989
 21
2194.3658
 31
0.0
  0
INSERT
  5
7DDF
  8
3
  6
CONTINUOUS
 62
     0
  2
_OPEN
 10
938.14332600000034
 20
2899.3658
 30
0.0
 41
60.0
 42
60.0
 43
60.0
 50
90.0
  0
INSERT
  5
7DE0
  8
3
  6
CONTINUOUS
 62
     0
  2
_OPEN
 10
938.14332599999989
 20
2134.3658
 30
0.0
 41
60.0
 42
60.0
 43
60.0
 50
270.0
  0
TEXT
  8
3
  40
90
  5
7E52
  62
0
  72
0
  71
0
 10
683.143
 20
2357.57
 30
0.000000
  1
765
  0
POINT
  5
7DE2
  8
DEFPOINTS
  6
CONTINUOUS
 62
     0
 10
1199.822361
 20
2899.3657999999991
 30
0.0
  0
POINT
  5
7DE3
  8
DEFPOINTS
  6
CONTINUOUS
 62
     0
 10
1498.9920400000001
 20
2134.3658
 30
0.0
  0
POINT
  5
7DE4
  8
DEFPOINTS
  6
CONTINUOUS
 62
     0
 10
938.14332599999989
 20
2134.3658
 30
0.0
  0
ENDBLK
  5
7C40
  8
0
  0
BLOCK
  8
0
  2
*D4
 70
     1
 10
0.0
 20
0.0
 30
0.0
  3
*D4
  1

  0
LINE
  5
7DE5
  8
3
  6
CONTINUOUS
 62
     0
 10
1483.9920400000001
 20
2134.3658
 30
0.0
 11
912.59122400000035
 21
2134.3658
 31
0.0
  0
LINE
  5
7DE6
  8
3
  6
CONTINUOUS
 62
     0
 10
1293.9920400000001
 20
2028.3657999999989
 30
0.0
 11
912.59122400000035
 21
2028.3657999999989
 31
0.0
  0
LINE
  5
7DE7
  8
3
  6
CONTINUOUS
 62
     0
 10
942.59122400000035
 20
2194.3658
 30
0.0
 11
942.59122400000035
 21
2254.3658
 31
0.0
  0
LINE
  5
7DE8
  8
3
  6
CONTINUOUS
 62
     0
 10
942.59122400000035
 20
1968.3658
 30
0.0
 11
942.59122400000024
 21
1638.3658
 31
0.0
  0
LINE
  5
7DE9
  8
3
  6
CONTINUOUS
 62
     0
 10
942.59122400000035
 20
2134.3658
 30
0.0
 11
942.59122400000035
 21
2028.3657999999989
 31
0.0
  0
INSERT
  5
7DEA
  8
3
  6
CONTINUOUS
 62
     0
  2
_OPEN
 10
942.59122400000035
 20
2134.3658
 30
0.0
 41
60.0
 42
60.0
 43
60.0
 50
270.0
  0
INSERT
  5
7DEB
  8
3
  6
CONTINUOUS
 62
     0
  2
_OPEN
 10
942.59122400000035
 20
2028.3657999999989
 30
0.0
 41
60.0
 42
60.0
 43
60.0
 50
90.0
  0
TEXT
  8
3
  40
90
  5
7E53
  62
0
  72
0
  71
0
 10
687.591
 20
1614.07
 30
0.000000
  1
106
  0
POINT
  5
7DED
  8
DEFPOINTS
  6
CONTINUOUS
 62
     0
 10
1498.9920400000001
 20
2134.3658
 30
0.0
  0
POINT
  5
7DEE
  8
DEFPOINTS
  6
CONTINUOUS
 62
     0
 10
1308.9920400000001
 20
2028.3657999999989
 30
0.0
  0
POINT
  5
7DEF
  8
DEFPOINTS
  6
CONTINUOUS
 62
     0
 10
942.59122400000035
 20
2028.3657999999989
 30
0.0
  0
ENDBLK
  5
7D61
  8
0
  0
BLOCK
  8
0
  2
*D5
 70
     1
 10
0.0
 20
0.0
 30
0.0
  3
*D5
  1

  0
LINE
  5
7DF0
  8
3
  6
CONTINUOUS
 62
     0
 10
1308.9920400000001
 20
2013.3658
 30
0.0
 11
1308.9920400000001
 21
1759.875526
 31
0.0
  0
LINE
  5
7DF1
  8
3
  6
CONTINUOUS
 62
     0
 10
2068.9920399999992
 20
1911.4497149999991
 30
0.0
 11
2068.9920399999992
 21
1759.875526
 31
0.0
  0
LINE
  5
7DF2
  8
3
  6
CONTINUOUS
 62
     0
 10
1368.9920400000001
 20
1789.875526
 30
0.0
 11
2008.992039999999
 21
1789.875526
 31
0.0
  0
INSERT
  5
7DF3
  8
3
  6
CONTINUOUS
 62
     0
  2
_OPEN
 10
1308.9920400000001
 20
1789.875526
 30
0.0
 41
60.0
 42
60.0
 43
60.0
 50
180.0
  0
INSERT
  5
7DF4
  8
3
  6
CONTINUOUS
 62
     0
  2
_OPEN
 10
2068.9920399999992
 20
1789.875526
 30
0.0
 41
60.0
 42
60.0
 43
60.0
  0
TEXT
  8
3
  40
90
  5
7E54
  62
0
  72
0
  71
0
 10
1512.44
 20
1705.58
 30
0.000000
  1
760
  0
POINT
  5
7DF6
  8
DEFPOINTS
  6
CONTINUOUS
 62
     0
 10
1308.9920400000001
 20
2028.3657999999989
 30
0.0
  0
POINT
  5
7DF7
  8
DEFPOINTS
  6
CONTINUOUS
 62
     0
 10
2068.9920399999992
 20
1926.4497149999991
 30
0.0
  0
POINT
  5
7DF8
  8
DEFPOINTS
  6
CONTINUOUS
 62
     0
 10
2068.9920399999992
 20
1789.875526
 30
0.0
  0
ENDBLK
  5
7C5D
  8
0
  0
BLOCK
  8
0
  2
*D6
 70
     1
 10
0.0
 20
0.0
 30
0.0
  3
*D6
  1

  0
LINE
  5
7DF9
  8
3
  6
CONTINUOUS
 62
     0
 10
3408.9920399999992
 20
2013.3658
 30
0.0
 11
3408.9920399999992
 21
1759.875526
 31
0.0
  0
LINE
  5
7DFA
  8
3
  6
CONTINUOUS
 62
     0
 10
2128.9920399999992
 20
1789.875526
 30
0.0
 11
3348.9920399999992
 21
1789.875526
 31
0.0
  0
INSERT
  5
7DFB
  8
3
  6
CONTINUOUS
 62
     0
  2
_OPEN
 10
2068.9920399999992
 20
1789.875526
 30
0.0
 41
60.0
 42
60.0
 43
60.0
 50
180.0
  0
INSERT
  5
7DFC
  8
3
  6
CONTINUOUS
 62
     0
  2
_OPEN
 10
3408.9920399999992
 20
1789.875526
 30
0.0
 41
60.0
 42
60.0
 43
60.0
  0
TEXT
  8
3
  40
90
  5
7E55
  62
0
  72
0
  71
0
 10
2558.99
 20
1705.58
 30
0.000000
  1
1340
  0
POINT
  5
7DFE
  8
DEFPOINTS
  6
CONTINUOUS
 62
     0
 10
2068.9920399999992
 20
1926.4497149999991
 30
0.0
  0
POINT
  5
7DFF
  8
DEFPOINTS
  6
CONTINUOUS
 62
     0
 10
3408.9920399999992
 20
2028.3657999999989
 30
0.0
  0
POINT
  5
7E00
  8
DEFPOINTS
  6
CONTINUOUS
 62
     0
 10
3408.9920399999992
 20
1789.875526
 30
0.0
  0
ENDBLK
  5
7C69
  8
0
  0
BLOCK
  8
0
  2
*D7
 70
     1
 10
0.0
 20
0.0
 30
0.0
  3
*D7
  1

  0
LINE
  5
7E01
  8
3
  6
CONTINUOUS
 62
     0
 10
1413.9920400000001
 20
3839.8658
 30
0.0
 11
1413.9920400000001
 21
4261.2523769999998
 31
0.0
  0
LINE
  5
7E02
  8
3
  6
CONTINUOUS
 62
     0
 10
2068.9920399999992
 20
4175.1883799999987
 30
0.0
 11
2068.9920399999992
 21
4261.2523769999998
 31
0.0
  0
LINE
  5
7E03
  8
3
  6
CONTINUOUS
 62
     0
 10
1473.9920400000001
 20
4231.2523769999998
 30
0.0
 11
2008.992039999999
 21
4231.2523769999998
 31
0.0
  0
INSERT
  5
7E04
  8
3
  6
CONTINUOUS
 62
     0
  2
_OPEN
 10
1413.9920400000001
 20
4231.2523769999998
 30
0.0
 41
60.0
 42
60.0
 43
60.0
 50
180.0
  0
INSERT
  5
7E05
  8
3
  6
CONTINUOUS
 62
     0
  2
_OPEN
 10
2068.9920399999992
 20
4231.2523769999998
 30
0.0
 41
60.0
 42
60.0
 43
60.0
  0
TEXT
  8
3
  40
90
  5
7E56
  62
0
  72
0
  71
0
 10
1540.41
 20
4146.95
 30
0.000000
  1
655
  0
POINT
  5
7E07
  8
DEFPOINTS
  6
CONTINUOUS
 62
     0
 10
1413.9920400000001
 20
3824.8657999999991
 30
0.0
  0
POINT
  5
7E08
  8
DEFPOINTS
  6
CONTINUOUS
 62
     0
 10
2068.9920399999992
 20
4160.1883799999996
 30
0.0
  0
POINT
  5
7E09
  8
DEFPOINTS
  6
CONTINUOUS
 62
     0
 10
2068.9920399999992
 20
4231.2523769999998
 30
0.0
  0
ENDBLK
  5
7C76
  8
0
  0
BLOCK
  8
0
  2
*D8
 70
     1
 10
0.0
 20
0.0
 30
0.0
  3
*D8
  1

  0
LINE
  5
7E0A
  8
3
  6
CONTINUOUS
 62
     0
 10
4413.3857199999993
 20
3797.3658
 30
0.0
 11
4413.3857199999993
 21
4196.0247639999989
 31
0.0
  0
LINE
  5
7E0B
  8
3
  6
CONTINUOUS
 62
     0
 10
5083.3857200000002
 20
3797.3658
 30
0.0
 11
5083.3857200000002
 21
4196.0247639999989
 31
0.0
  0
LINE
  5
7E0C
  8
3
  6
CONTINUOUS
 62
     0
 10
4473.3857200000002
 20
4166.0247639999998
 30
0.0
 11
5023.3857200000002
 21
4166.0247639999998
 31
0.0
  0
INSERT
  5
7E0D
  8
3
  6
CONTINUOUS
 62
     0
  2
_OPEN
 10
4413.3857199999993
 20
4166.0247639999998
 30
0.0
 41
60.0
 42
60.0
 43
60.0
 50
180.0
  0
INSERT
  5
7E0E
  8
3
  6
CONTINUOUS
 62
     0
  2
_OPEN
 10
5083.3857200000002
 20
4166.0247639999998
 30
0.0
 41
60.0
 42
60.0
 43
60.0
  0
TEXT
  8
3
  40
90
  5
7E57
  62
0
  72
0
  71
0
 10
4573.70
 20
4081.72
 30
0.000000
  1
670
  0
POINT
  5
7E10
  8
DEFPOINTS
  6
CONTINUOUS
 62
     0
 10
4413.3857199999993
 20
3782.3658
 30
0.0
  0
POINT
  5
7E11
  8
DEFPOINTS
  6
CONTINUOUS
 62
     0
 10
5083.3857200000002
 20
3782.3658
 30
0.0
  0
POINT
  5
7E12
  8
DEFPOINTS
  6
CONTINUOUS
 62
     0
 10
5083.3857200000002
 20
4166.0247639999998
 30
0.0
  0
ENDBLK
  5
7C83
  8
0
  0
BLOCK
  8
0
  2
*D9
 70
     1
 10
0.0
 20
0.0
 30
0.0
  3
*D9
  1

  0
LINE
  5
7E13
  8
3
  6
CONTINUOUS
 62
     0
 10
5102.3857200000002
 20
3374.3658
 30
0.0
 11
5594.8770750000022
 21
3374.3657999999991
 31
0.0
  0
LINE
  5
7E14
  8
3
  6
CONTINUOUS
 62
     0
 10
5102.3857200000002
 20
2424.3658
 30
0.0
 11
5594.8770750000022
 21
2424.3657999999991
 31
0.0
  0
LINE
  5
7E15
  8
3
  6
CONTINUOUS
 62
     0
 10
5564.8770750000012
 20
3314.3657999999991
 30
0.0
 11
5564.8770750000012
 21
2484.3657999999991
 31
0.0
  0
INSERT
  5
7E16
  8
3
  6
CONTINUOUS
 62
     0
  2
_OPEN
 10
5564.8770750000012
 20
3374.3657999999991
 30
0.0
 41
60.0
 42
60.0
 43
60.0
 50
90.0
  0
INSERT
  5
7E17
  8
3
  6
CONTINUOUS
 62
     0
  2
_OPEN
 10
5564.8770750000012
 20
2424.3657999999991
 30
0.0
 41
60.0
 42
60.0
 43
60.0
 50
270.0
  0
TEXT
  8
3
  40
90
  5
7E58
  62
0
  72
0
  71
0
 10
5309.88
 20
2739.45
 30
0.000000
  1
φ950
  0
POINT
  5
7E19
  8
DEFPOINTS
  6
CONTINUOUS
 62
     0
 10
5087.3857200000002
 20
3374.3658
 30
0.0
  0
POINT
  5
7E1A
  8
DEFPOINTS
  6
CONTINUOUS
 62
     0
 10
5087.3857200000002
 20
2424.3658
 30
0.0
  0
POINT
  5
7E1B
  8
DEFPOINTS
  6
CONTINUOUS
 62
     0
 10
5564.8770750000012
 20
2424.3657999999991
 30
0.0
  0
ENDBLK
  5
7D54
  8
0
  0
BLOCK
  8
0
  2
*D10
 70
     1
 10
0.0
 20
0.0
 30
0.0
  3
*D10
  1

  0
LINE
  5
7D40
  8
0
  6
BYBLOCK
 62
     0
 10
5087.3857200000002
 20
3389.3658
 30
0.0
 11
5087.3857200000002
 21
4456.9352589999999
 31
0.0
  0
LINE
  5
7D41
  8
0
  6
BYBLOCK
 62
     0
 10
4748.3857200000002
 20
4341.0463929999996
 30
0.0
 11
4748.3857200000002
 21
4456.9352589999999
 31
0.0
  0
LINE
  5
7D42
  8
0
  6
BYBLOCK
 62
     0
 10
5027.3857200000002
 20
4426.9352590000008
 30
0.0
 11
4808.3857200000002
 21
4426.9352590000008
 31
0.0
  0
TEXT
  5
7D43
  8
3
 62
     0
 10
4804.3142914285709
 20
4481.5745415928832
 30
0.0
 40
90.0
  1
339
  0
INSERT
  5
7D44
  8
0
  6
BYBLOCK
 62
     0
  2
_OPEN
 10
5087.3857200000002
 20
4426.9352590000008
 30
0.0
 41
60.0
 42
60.0
 43
60.0
  0
INSERT
  5
7D45
  8
0
  6
BYBLOCK
 62
     0
  2
_OPEN
 10
4748.3857200000002
 20
4426.9352590000008
 30
0.0
 41
60.0
 42
60.0
 43
60.0
 50
180.0
  0
POINT
  5
7D46
  8
DEFPOINTS
  6
BYBLOCK
 62
     0
 10
5087.3857200000002
 20
3374.3658
 30
0.0
  0
POINT
  5
7D47
  8
DEFPOINTS
  6
BYBLOCK
 62
     0
 10
4748.3857200000002
 20
4326.0463929999996
 30
0.0
  0
POINT
  5
7D48
  8
DEFPOINTS
  6
BYBLOCK
 62
     0
 10
4748.3857200000002
 20
4426.9352590000008
 30
0.0
  0
ENDBLK
  5
7D49
  8
0
  0
BLOCK
  8
0
  2
*D11
 70
     1
 10
0.0
 20
0.0
 30
0.0
  3
*D11
  1

  0
LINE
  5
7E1C
  8
3
  6
CONTINUOUS
 62
     0
 10
3983.3857200000002
 20
4028.3658
 30
0.0
 11
3772.6731350000009
 21
4028.3658
 31
0.0
  0
LINE
  5
7E1D
  8
3
  6
CONTINUOUS
 62
     0
 10
3983.3857200000002
 20
2028.3657999999989
 30
0.0
 11
3772.6731350000009
 21
2028.3657999999989
 31
0.0
  0
LINE
  5
7E1E
  8
3
  6
CONTINUOUS
 62
     0
 10
3802.6731350000009
 20
3968.3658
 30
0.0
 11
3802.673135
 21
2088.3658
 31
0.0
  0
INSERT
  5
7E1F
  8
3
  6
CONTINUOUS
 62
     0
  2
_OPEN
 10
3802.6731350000009
 20
4028.3658
 30
0.0
 41
60.0
 42
60.0
 43
60.0
 50
90.0
  0
INSERT
  5
7E20
  8
3
  6
CONTINUOUS
 62
     0
  2
_OPEN
 10
3802.673135
 20
2028.3657999999989
 30
0.0
 41
60.0
 42
60.0
 43
60.0
 50
270.0
  0
TEXT
  8
3
  40
90
  5
7E59
  62
0
  72
0
  71
0
 10
3547.67
 20
2823.31
 30
0.000000
  1
2000
  0
POINT
  5
7E22
  8
DEFPOINTS
  6
CONTINUOUS
 62
     0
 10
3998.3857200000002
 20
4028.3658
 30
0.0
  0
POINT
  5
7E23
  8
DEFPOINTS
  6
CONTINUOUS
 62
     0
 10
3998.3857200000002
 20
2028.3657999999989
 30
0.0
  0
POINT
  5
7E24
  8
DEFPOINTS
  6
CONTINUOUS
 62
     0
 10
3802.673135
 20
2028.3657999999989
 30
0.0
  0
ENDBLK
  5
7CAF
  8
0
  0
BLOCK
  8
0
  2
*D12
 70
     1
 10
0.0
 20
0.0
 30
0.0
  3
*D12
  1

  0
LINE
  5
7E25
  8
3
  6
CONTINUOUS
 62
     0
 10
3998.3857200000002
 20
2013.3658
 30
0.0
 11
3998.3857200000002
 21
1762.5220969999989
 31
0.0
  0
LINE
  5
7E26
  8
3
  6
CONTINUOUS
 62
     0
 10
4748.3857200000002
 20
1874.0192280000001
 30
0.0
 11
4748.3857200000002
 21
1762.5220969999989
 31
0.0
  0
LINE
  5
7E27
  8
3
  6
CONTINUOUS
 62
     0
 10
4058.3857200000002
 20
1792.5220969999989
 30
0.0
 11
4688.3857200000002
 21
1792.5220969999989
 31
0.0
  0
INSERT
  5
7E28
  8
3
  6
CONTINUOUS
 62
     0
  2
_OPEN
 10
3998.3857200000002
 20
1792.5220969999989
 30
0.0
 41
60.0
 42
60.0
 43
60.0
 50
180.0
  0
INSERT
  5
7E29
  8
3
  6
CONTINUOUS
 62
     0
  2
_OPEN
 10
4748.3857200000002
 20
1792.5220969999989
 30
0.0
 41
60.0
 42
60.0
 43
60.0
  0
TEXT
  8
3
  40
90
  5
7E5A
  62
0
  72
0
  71
0
 10
4210.07
 20
1708.22
 30
0.000000
  1
750
  0
POINT
  5
7E2B
  8
DEFPOINTS
  6
CONTINUOUS
 62
     0
 10
3998.3857200000002
 20
2028.3657999999989
 30
0.0
  0
POINT
  5
7E2C
  8
DEFPOINTS
  6
CONTINUOUS
 62
     0
 10
4748.3857200000002
 20
1889.0192280000001
 30
0.0
  0
POINT
  5
7E2D
  8
DEFPOINTS
  6
CONTINUOUS
 62
     0
 10
4748.3857200000002
 20
1792.5220969999989
 30
0.0
  0
ENDBLK
  5
7D29
  8
0
  0
BLOCK
  8
0
  2
*D13
 70
     1
 10
0.0
 20
0.0
 30
0.0
  3
*D13
  1

  0
LINE
  5
7E2E
  8
3
  6
CONTINUOUS
 62
     0
 10
5298.3857200000002
 20
2013.3658
 30
0.0
 11
5298.3857200000002
 21
1762.5220969999989
 31
0.0
  0
LINE
  5
7E2F
  8
3
  6
CONTINUOUS
 62
     0
 10
4808.3857200000002
 20
1792.5220969999989
 30
0.0
 11
5238.3857200000002
 21
1792.5220969999989
 31
0.0
  0
INSERT
  5
7E30
  8
3
  6
CONTINUOUS
 62
     0
  2
_OPEN
 10
4748.3857200000002
 20
1792.5220969999989
 30
0.0
 41
60.0
 42
60.0
 43
60.0
 50
180.0
  0
INSERT
  5
7E31
  8
3
  6
CONTINUOUS
 62
     0
  2
_OPEN
 10
5298.3857200000002
 20
1792.5220969999989
 30
0.0
 41
60.0
 42
60.0
 43
60.0
  0
TEXT
  8
3
  40
90
  5
7E5B
  62
0
  72
0
  71
0
 10
4843.39
 20
1708.22
 30
0.000000
  1
550
  0
POINT
  5
7E33
  8
DEFPOINTS
  6
CONTINUOUS
 62
     0
 10
4748.3857200000002
 20
1889.0192280000001
 30
0.0
  0
POINT
  5
7E34
  8
DEFPOINTS
  6
CONTINUOUS
 62
     0
 10
5298.3857200000002
 20
2028.3657999999989
 30
0.0
  0
POINT
  5
7E35
  8
DEFPOINTS
  6
CONTINUOUS
 62
     0
 10
5298.3857200000002
 20
1792.5220969999989
 30
0.0
  0
ENDBLK
  5
7D1E
  8
0
  0
BLOCK
  8
0
  2
*D14
 70
     1
 10
0.0
 20
0.0
 30
0.0
  3
*D14
  1

  0
LINE
  5
7E36
  8
3
  6
CONTINUOUS
 62
     0
 10
1308.9920400000001
 20
6479.5743839999996
 30
0.0
 11
1308.9920400000001
 21
6676.4370289999997
 31
0.0
  0
LINE
  5
7E37
  8
3
  6
CONTINUOUS
 62
     0
 10
3408.9920399999992
 20
6479.5743839999996
 30
0.0
 11
3408.9920399999992
 21
6676.4370289999997
 31
0.0
  0
LINE
  5
7E38
  8
3
  6
CONTINUOUS
 62
     0
 10
1368.9920400000001
 20
6646.4370290000006
 30
0.0
 11
3348.9920399999992
 21
6646.4370290000006
 31
0.0
  0
INSERT
  5
7E39
  8
3
  6
CONTINUOUS
 62
     0
  2
_OPEN
 10
1308.9920400000001
 20
6646.4370290000006
 30
0.0
 41
60.0
 42
60.0
 43
60.0
 50
180.0
  0
INSERT
  5
7E3A
  8
3
  6
CONTINUOUS
 62
     0
  2
_OPEN
 10
3408.9920399999992
 20
6646.4370290000006
 30
0.0
 41
60.0
 42
60.0
 43
60.0
  0
TEXT
  8
3
  40
90
  5
7E5C
  62
0
  72
0
  71
0
 10
2155.79
 20
6562.14
 30
0.000000
  1
2100
  0
POINT
  5
7E3C
  8
DEFPOINTS
  6
CONTINUOUS
 62
     0
 10
1308.9920400000001
 20
6464.5743840000014
 30
0.0
  0
POINT
  5
7E3D
  8
DEFPOINTS
  6
CONTINUOUS
 62
     0
 10
3408.9920399999992
 20
6464.5743840000014
 30
0.0
  0
POINT
  5
7E3E
  8
DEFPOINTS
  6
CONTINUOUS
 62
     0
 10
3408.9920399999992
 20
6646.4370290000006
 30
0.0
  0
ENDBLK
  5
7CD5
  8
0
  0
BLOCK
  8
0
  2
*D15
 70
     1
 10
0.0
 20
0.0
 30
0.0
  3
*D15
  1

  0
LINE
  5
7E3F
  8
3
  6
CONTINUOUS
 62
     0
 10
3423.9920399999992
 20
6464.5743840000014
 30
0.0
 11
3736.390710000001
 21
6464.5743840000014
 31
0.0
  0
LINE
  5
7E40
  8
3
  6
CONTINUOUS
 62
     0
 10
3423.9920399999992
 20
5164.5743840000014
 30
0.0
 11
3736.390710000001
 21
5164.5743840000014
 31
0.0
  0
LINE
  5
7E41
  8
3
  6
CONTINUOUS
 62
     0
 10
3706.3907100000001
 20
6404.5743839999996
 30
0.0
 11
3706.3907100000001
 21
5224.5743839999996
 31
0.0
  0
INSERT
  5
7E42
  8
3
  6
CONTINUOUS
 62
     0
  2
_OPEN
 10
3706.3907100000001
 20
6464.5743840000014
 30
0.0
 41
60.0
 42
60.0
 43
60.0
 50
90.0
  0
INSERT
  5
7E43
  8
3
  6
CONTINUOUS
 62
     0
  2
_OPEN
 10
3706.3907100000001
 20
5164.5743840000014
 30
0.0
 41
60.0
 42
60.0
 43
60.0
 50
270.0
  0
TEXT
  8
3
  40
90
  5
7E5D
  62
0
  72
0
  71
0
 10
3451.39
 20
5657.81
 30
0.000000
  1
1300
  0
POINT
  5
7E45
  8
DEFPOINTS
  6
CONTINUOUS
 62
     0
 10
3408.9920399999992
 20
6464.5743840000014
 30
0.0
  0
POINT
  5
7E46
  8
DEFPOINTS
  6
CONTINUOUS
 62
     0
 10
3408.9920399999992
 20
5164.5743840000014
 30
0.0
  0
POINT
  5
7E47
  8
DEFPOINTS
  6
CONTINUOUS
 62
     0
 10
3706.3907100000001
 20
5164.5743840000014
 30
0.0
  0
ENDBLK
  5
7CE2
  8
0
  0
BLOCK
  8
0
  2
*D16
 70
     1
 10
0.0
 20
0.0
 30
0.0
  3
*D16
  1

  0
LINE
  5
7E48
  8
3
 62
     0
 10
2811.9920399999992
 20
2914.3658
 30
0.0
 11
2811.9920399999992
 21
4261.2523769999998
 31
0.0
  0
LINE
  5
7E49
  8
3
 62
     0
 10
2128.9920399999992
 20
4231.2523769999998
 30
0.0
 11
2751.9920399999992
 21
4231.2523769999998
 31
0.0
  0
INSERT
  5
7E4A
  8
3
 62
     0
  2
_OPEN
 10
2068.9920399999992
 20
4231.2523769999998
 30
0.0
 41
60.0
 42
60.0
 43
60.0
 50
180.0
  0
INSERT
  5
7E4B
  8
3
 62
     0
  2
_OPEN
 10
2811.9920399999992
 20
4231.2523769999998
 30
0.0
 41
60.0
 42
60.0
 43
60.0
  0
TEXT
  8
3
  40
90
  5
7E5E
  62
0
  72
0
  71
0
 10
2260.49
 20
4146.95
 30
0.000000
  1
743
  0
POINT
  5
7E4D
  8
DEFPOINTS
 62
     0
 10
2068.9920399999992
 20
4160.1883799999996
 30
0.0
  0
POINT
  5
7E4E
  8
DEFPOINTS
 62
     0
 10
2811.9920399999992
 20
2899.3657999999991
 30
0.0
  0
POINT
  5
7E4F
  8
DEFPOINTS
 62
     0
 10
2811.9920399999992
 20
4231.2523769999998
 30
0.0
  0
ENDBLK
  5
7D6D
  8
0
  0
ENDSEC
  0
SECTION
  2
ENTITIES
  0
POLYLINE
  5
7AFD
  8
1
  6
CONTINUOUS
 66
     1
 10
0.0
 20
0.0
 30
0.0
 70
     1
  0
VERTEX
  5
7DA7
  8
1
  6
CONTINUOUS
 10
1373.9920400000001
 20
5229.5743840000014
 30
0.0
  0
VERTEX
  5
7DA8
  8
1
  6
CONTINUOUS
 10
3343.9920399999992
 20
5229.5743840000014
 30
0.0
  0
VERTEX
  5
7DA9
  8
1
  6
CONTINUOUS
 10
3343.9920399999992
 20
6399.5743840000014
 30
0.0
  0
VERTEX
  5
7DAA
  8
1
  6
CONTINUOUS
 10
1373.9920400000001
 20
6399.5743840000014
 30
0.0
  0
SEQEND
  5
7DAB
  8
1
  6
CONTINUOUS
  0
POLYLINE
  5
7B03
  8
1
  6
CONTINUOUS
 66
     1
 10
0.0
 20
0.0
 30
0.0
 70
     1
  0
VERTEX
  5
7DAC
  8
1
  6
CONTINUOUS
 10
1308.9920400000001
 20
5164.5743840000014
 30
0.0
  0
VERTEX
  5
7DAD
  8
1
  6
CONTINUOUS
 10
3408.9920399999992
 20
5164.5743840000014
 30
0.0
  0
VERTEX
  5
7DAE
  8
1
  6
CONTINUOUS
 10
3408.9920399999992
 20
6464.5743840000014
 30
0.0
  0
VERTEX
  5
7DAF
  8
1
  6
CONTINUOUS
 10
1308.9920400000001
 20
6464.5743840000014
 30
0.0
  0
SEQEND
  5
7DB0
  8
1
  6
CONTINUOUS
  0
POLYLINE
  5
7B09
  8
1
  6
CONTINUOUS
 66
     1
 10
0.0
 20
0.0
 30
0.0
 70
     1
  0
VERTEX
  5
7DB1
  8
1
  6
CONTINUOUS
 10
1373.9920400000001
 20
2093.3658
 30
0.0
  0
VERTEX
  5
7DB2
  8
1
  6
CONTINUOUS
 10
3343.9920399999992
 20
2093.3658
 30
0.0
  0
VERTEX
  5
7DB3
  8
1
  6
CONTINUOUS
 10
3343.9920399999992
 20
3963.3658
 30
0.0
  0
VERTEX
  5
7DB4
  8
1
  6
CONTINUOUS
 10
1373.9920400000001
 20
3963.3658
 30
0.0
  0
SEQEND
  5
7DB5
  8
1
  6
CONTINUOUS
  0
POLYLINE
  5
7B0F
  8
1
  6
CONTINUOUS
 66
     1
 10
0.0
 20
0.0
 30
0.0
 70
     1
  0
VERTEX
  5
7DB6
  8
1
  6
CONTINUOUS
 10
1308.9920400000001
 20
2028.3657999999989
 30
0.0
  0
VERTEX
  5
7DB7
  8
1
  6
CONTINUOUS
 10
3408.9920399999992
 20
2028.3657999999989
 30
0.0
  0
VERTEX
  5
7DB8
  8
1
  6
CONTINUOUS
 10
3408.9920399999992
 20
4028.3658
 30
0.0
  0
VERTEX
  5
7DB9
  8
1
  6
CONTINUOUS
 10
1308.9920400000001
 20
4028.3658
 30
0.0
  0
SEQEND
  5
7DBA
  8
1
  6
CONTINUOUS
  0
POLYLINE
  5
7B15
  8
1
  6
CONTINUOUS
 66
     1
 10
0.0
 20
0.0
 30
0.0
  0
VERTEX
  5
7DBB
  8
1
  6
CONTINUOUS
 10
1413.9920400000001
 20
3782.3658
 30
0.0
  0
VERTEX
  5
7DBC
  8
1
  6
CONTINUOUS
 10
2068.9920399999992
 20
3760.3658
 30
0.0
 42
-0.4168370000000001
  0
VERTEX
  5
7DBD
  8
1
  6
CONTINUOUS
 10
2811.431998999999
 20
2892.1918579999988
 30
0.0
 42
-0.429867
  0
VERTEX
  5
7DBE
  8
1
  6
CONTINUOUS
 10
2025.1158789999999
 20
2260.940623
 30
0.0
 42
-0.373172
  0
VERTEX
  5
7DBF
  8
1
  6
CONTINUOUS
 10
1501.023312
 20
2857.3658
 30
0.0
 42
-0.34598
  0
SEQEND
  5
7DC0
  8
1
  6
CONTINUOUS
  0
LINE
  5
7B1C
  8
1
  6
CONTINUOUS
 10
1498.9920400000001
 20
2234.3658
 30
0.0
 11
3248.9920399999992
 21
2234.3658
 31
0.0
  0
LINE
  5
7B1D
  8
1
  6
CONTINUOUS
 10
1498.9920400000001
 20
2134.3658
 30
0.0
 11
3248.9920399999992
 21
2134.3658
 31
0.0
  0
LINE
  5
7B1E
  8
1
  6
CONTINUOUS
 10
3089.437324
 20
2547.5257479999991
 30
0.0
 11
2205.966735
 21
3113.2674900000002
 31
0.0
  0
LINE
  5
7B1F
  8
1
  6
CONTINUOUS
 10
3031.778628
 20
2411.3678649999988
 30
0.0
 11
2010.695954
 21
2652.1461279999999
 31
0.0
  0
LINE
  5
7B20
  8
1
  6
CONTINUOUS
 10
3228.9920400000001
 20
2584.3658
 30
0.0
 11
2248.9920399999992
 21
3404.3658
 31
0.0
  0
LINE
  5
7B21
  8
1
  6
CONTINUOUS
 10
1498.9920400000001
 20
5381.5743839999996
 30
0.0
 11
3248.9920399999992
 21
5381.5743839999996
 31
0.0
  0
LINE
  5
7B22
  8
1
  6
CONTINUOUS
 10
1413.9920400000001
 20
6249.5743839999996
 30
0.0
 11
2814.1593109999999
 21
6249.5743839999996
 31
0.0
  0
LINE
  5
7B23
  8
1
  6
CONTINUOUS
 10
1413.9920400000001
 20
5579.5743839999996
 30
0.0
 11
2814.1593109999999
 21
5579.5743839999996
 31
0.0
  0
LINE
  5
7B24
  8
1
  6
CONTINUOUS
 10
3228.9920400000001
 20
5526.5743839999996
 30
0.0
 11
1588.9920400000001
 21
5526.5743839999996
 31
0.0
  0
LINE
  5
7B25
  8
1
  6
CONTINUOUS
 10
3228.9920400000001
 20
5356.5743839999996
 30
0.0
 11
1588.9920400000001
 21
5356.5743839999996
 31
0.0
  0
LINE
  5
7B26
  8
1
  6
CONTINUOUS
 10
1498.9920400000001
 20
6301.5743840000014
 30
0.0
 11
3248.9920399999992
 21
6301.5743840000014
 31
0.0
  0
LINE
  5
7B27
  8
1
  6
CONTINUOUS
 10
1413.9920400000001
 20
2814.8658
 30
0.0
 11
1413.9920400000001
 21
3824.8657999999991
 31
0.0
  0
LINE
  5
7B28
  8
1
  6
CONTINUOUS
 10
1453.9920400000001
 20
2857.3658
 30
0.0
 11
1453.9920400000001
 21
3781.022289
 31
0.0
  0
LINE
  5
7B2C
  8
1
  6
CONTINUOUS
 10
1498.9920400000001
 20
2234.3658
 30
0.0
 11
1498.9920400000001
 21
2134.3658
 31
0.0
  0
LINE
  5
7B2D
  8
1
  6
CONTINUOUS
 10
1501.023312
 20
2857.3658
 30
0.0
 11
1413.9920400000001
 21
2857.3658
 31
0.0
  0
LINE
  5
7B2F
  8
1
  6
CONTINUOUS
 10
1588.9920400000001
 20
2234.3658
 30
0.0
 11
1588.9920400000001
 21
3404.3658
 31
0.0
  0
CIRCLE
  5
7B31
  8
1
  6
CONTINUOUS
 10
2068.9920399999992
 20
2899.3657999999991
 30
0.0
 40
254.0
  0
LINE
  5
7B32
  8
2
  6
CENTER
 10
5430.1928610000004
 20
2899.3657999999991
 30
0.0
 11
3882.4453779999999
 21
2899.3657999999991
 31
0.0
  0
LINE
  5
7B33
  8
1
  6
CONTINUOUS
 10
1588.9920400000001
 20
3404.3658
 30
0.0
 11
2248.9920399999992
 21
3404.3658
 31
0.0
  0
LINE
  5
7B34
  8
2
  6
CENTER
 10
2068.9920399999992
 20
1926.4497149999991
 30
0.0
 11
2068.9920399999992
 21
4160.1883799999996
 31
0.0
  0
LINE
  5
7B35
  8
1
  6
CONTINUOUS
 10
1498.9920400000001
 20
5381.5743839999996
 30
0.0
 11
1498.9920400000001
 21
5579.5743839999996
 31
0.0
  0
LINE
  5
7B36
  8
1
  6
CONTINUOUS
 10
1413.9920400000001
 20
5537.5743839999996
 30
0.0
 11
1413.9920400000001
 21
6291.5743839999996
 31
0.0
  0
LINE
  5
7B37
  8
1
  6
CONTINUOUS
 10
1498.9920400000001
 20
6249.5743839999996
 30
0.0
 11
1498.9920400000001
 21
6301.5743840000014
 31
0.0
  0
LINE
  5
7B38
  8
1
  6
CONTINUOUS
 10
1453.9920400000001
 20
5579.5743839999996
 30
0.0
 11
1453.9920400000001
 21
6249.5743839999996
 31
0.0
  0
LINE
  5
7B39
  8
1
  6
CONTINUOUS
 10
2043.9920400000001
 20
5493.5743840000014
 30
0.0
 11
2043.9920400000001
 21
5579.5743839999996
 31
0.0
  0
LINE
  5
7B3A
  8
1
  6
CONTINUOUS
 10
2093.9920399999992
 20
5493.5743840000014
 30
0.0
 11
2093.9920399999992
 21
5579.5743839999996
 31
0.0
  0
LINE
  5
7B3B
  8
1
  6
CONTINUOUS
 10
2322.9920399999992
 20
5493.5743840000014
 30
0.0
 11
1814.992039999999
 21
5493.5743840000014
 31
0.0
  0
LINE
  5
7B3C
  8
1
  6
CONTINUOUS
 10
2322.9920399999992
 20
5389.5743840000014
 30
0.0
 11
1814.992039999999
 21
5389.5743840000014
 31
0.0
  0
LINE
  5
7B3D
  8
1
  6
CONTINUOUS
 10
1814.992039999999
 20
5389.5743840000014
 30
0.0
 11
1814.992039999999
 21
5493.5743840000014
 31
0.0
  0
LINE
  5
7B3E
  8
1
  6
CONTINUOUS
 10
1588.9920400000001
 20
5356.5743839999996
 30
0.0
 11
1588.9920400000001
 21
5526.5743839999996
 31
0.0
  0
LINE
  5
7B3F
  8
1
  6
CONTINUOUS
 10
2322.9920399999992
 20
5389.5743840000014
 30
0.0
 11
2322.9920399999992
 21
5493.5743840000014
 31
0.0
  0
POLYLINE
  5
7B40
  8
1
  6
CONTINUOUS
 66
     1
 10
0.0
 20
0.0
 30
0.0
 70
     1
  0
VERTEX
  5
7DC1
  8
1
  6
CONTINUOUS
 10
4063.3857200000002
 20
2093.3658
 30
0.0
  0
VERTEX
  5
7DC2
  8
1
  6
CONTINUOUS
 10
5233.3857200000011
 20
2093.3658
 30
0.0
  0
VERTEX
  5
7DC3
  8
1
  6
CONTINUOUS
 10
5233.3857200000011
 20
3963.3658
 30
0.0
  0
VERTEX
  5
7DC4
  8
1
  6
CONTINUOUS
 10
4063.3857200000002
 20
3963.3658
 30
0.0
  0
SEQEND
  5
7DC5
  8
1
  6
CONTINUOUS
  0
POLYLINE
  5
7B46
  8
1
  6
CONTINUOUS
 66
     1
 10
0.0
 20
0.0
 30
0.0
 70
     1
  0
VERTEX
  5
7DC6
  8
1
  6
CONTINUOUS
 10
3998.3857200000002
 20
2028.3657999999989
 30
0.0
  0
VERTEX
  5
7DC7
  8
1
  6
CONTINUOUS
 10
5298.3857200000002
 20
2028.3657999999989
 30
0.0
  0
VERTEX
  5
7DC8
  8
1
  6
CONTINUOUS
 10
5298.3857200000002
 20
4028.3658
 30
0.0
  0
VERTEX
  5
7DC9
  8
1
  6
CONTINUOUS
 10
3998.3857200000002
 20
4028.3658
 30
0.0
  0
SEQEND
  5
7DCA
  8
1
  6
CONTINUOUS
  0
LINE
  5
7B58
  8
1
  6
CONTINUOUS
 10
4413.3857199999993
 20
3782.3658
 30
0.0
 11
5083.3857200000002
 21
2857.3658
 31
0.0
  0
LINE
  5
7B59
  8
1
  6
CONTINUOUS
 10
4413.3857199999993
 20
2857.3658
 30
0.0
 11
5083.3857200000002
 21
3782.3658
 31
0.0
  0
LINE
  5
7B5A
  8
1
  6
CONTINUOUS
 10
5083.3857200000002
 20
3782.3658
 30
0.0
 11
5083.3857200000002
 21
2234.3658
 31
0.0
  0
LINE
  5
7B5B
  8
1
  6
CONTINUOUS
 10
4413.3857199999993
 20
3782.3658
 30
0.0
 11
4413.3857199999993
 21
2234.3658
 31
0.0
  0
ARC
  5
7B70
  8
1
  6
CONTINUOUS
 10
3048.9920399999992
 20
2484.3658
 30
0.0
 40
162.0
 50
324.972283
 51
215.02771699999991
  0
LINE
  5
7B71
  8
1
  6
CONTINUOUS
 10
3236.4920399999992
 20
2324.3658
 30
0.0
 11
3181.6497049999998
 21
2391.3822329999989
 31
0.0
  0
LINE
  5
7B72
  8
1
  6
CONTINUOUS
 10
2916.334374
 20
2391.3822329999989
 30
0.0
 11
2861.4920399999992
 21
2324.3658
 31
0.0
  0
LINE
  5
7B73
  8
1
  6
CONTINUOUS
 10
3228.9920400000001
 20
2234.3658
 30
0.0
 11
3228.9920400000001
 21
2584.3658
 31
0.0
  0
LINE
  5
7B75
  8
1
  6
CONTINUOUS
 10
2851.4920400000001
 20
2274.3657999999991
 30
0.0
 11
2851.4920400000001
 21
2234.3658
 31
0.0
  0
LINE
  5
7B76
  8
1
  6
CONTINUOUS
 10
2851.4920400000001
 20
2274.3657999999991
 30
0.0
 11
2861.4920399999992
 21
2324.3658
 31
0.0
  0
LINE
  5
7B77
  8
1
  6
CONTINUOUS
 10
3248.9920399999992
 20
2234.3658
 30
0.0
 11
3248.9920399999992
 21
2134.3658
 31
0.0
  0
LINE
  5
7B78
  8
1
  6
CONTINUOUS
 10
3246.4920399999992
 20
2274.3657999999991
 30
0.0
 11
3246.4920399999992
 21
2234.3658
 31
0.0
  0
LINE
  5
7B79
  8
1
  6
CONTINUOUS
 10
3236.4920399999992
 20
2324.3658
 30
0.0
 11
3246.4920399999992
 21
2274.3657999999991
 31
0.0
  0
CIRCLE
  5
7B7D
  8
1
  6
CONTINUOUS
 10
3048.9920399999992
 20
2484.3658
 30
0.0
 40
75.0
  0
LINE
  5
7B7E
  8
2
  6
CENTER
 10
3128.9920399999992
 20
2484.3658
 30
0.0
 11
2968.9920399999992
 21
2484.3658
 31
0.0
  0
LINE
  5
7B7F
  8
2
  6
CENTER
 10
3048.9920399999992
 20
2404.3658
 30
0.0
 11
3048.9920399999992
 21
2564.3658
 31
0.0
  0
LINE
  5
7B8F
  8
1
  6
CONTINUOUS
 10
4360.3857200000002
 20
3404.3658
 30
0.0
 11
4360.3857200000002
 21
2234.3658
 31
0.0
  0
LINE
  5
7B90
  8
1
  6
CONTINUOUS
 10
4190.3857200000002
 20
3404.3658
 30
0.0
 11
4190.3857200000002
 21
2234.3658
 31
0.0
  0
LINE
  5
7B91
  8
1
  6
CONTINUOUS
 10
4215.3857200000002
 20
2234.3658
 30
0.0
 11
5135.3857200000002
 21
2234.3658
 31
0.0
  0
LINE
  5
7B92
  8
1
  6
CONTINUOUS
 10
4215.3857200000002
 20
2134.3658
 30
0.0
 11
5135.3857200000002
 21
2134.3658
 31
0.0
  0
LINE
  5
7B93
  8
1
  6
CONTINUOUS
 10
4215.3857200000002
 20
2234.3658
 30
0.0
 11
4215.3857200000002
 21
2134.3658
 31
0.0
  0
LINE
  5
7B94
  8
1
  6
CONTINUOUS
 10
4190.3857200000002
 20
2234.3658
 30
0.0
 11
4215.3857200000002
 21
2234.3658
 31
0.0
  0
LINE
  5
7B95
  8
1
  6
CONTINUOUS
 10
5135.3857200000002
 20
2234.3658
 30
0.0
 11
5135.3857200000002
 21
2134.3658
 31
0.0
  0
LINE
  5
7B96
  8
1
  6
CONTINUOUS
 10
4413.3857199999993
 20
2857.3658
 30
0.0
 11
5083.3857200000002
 21
2857.3658
 31
0.0
  0
LINE
  5
7B97
  8
1
  6
CONTINUOUS
 10
4327.3857200000002
 20
3153.3658
 30
0.0
 11
4327.3857200000002
 21
2645.3658
 31
0.0
  0
LINE
  5
7B98
  8
1
  6
CONTINUOUS
 10
4223.3857200000002
 20
3153.3658
 30
0.0
 11
4223.3857200000002
 21
2645.3658
 31
0.0
  0
LINE
  5
7B99
  8
1
  6
CONTINUOUS
 10
4327.3857200000002
 20
2463.3658
 30
0.0
 11
4413.3857199999993
 21
2463.3658
 31
0.0
  0
LINE
  5
7B9A
  8
1
  6
CONTINUOUS
 10
4327.3857200000002
 20
2505.3658
 30
0.0
 11
4413.3857199999993
 21
2505.3658
 31
0.0
  0
LINE
  5
7B9B
  8
1
  6
CONTINUOUS
 10
4327.3857200000002
 20
2874.3657999999991
 30
0.0
 11
4413.3857199999993
 21
2874.3657999999991
 31
0.0
  0
LINE
  5
7B9C
  8
1
  6
CONTINUOUS
 10
4327.3857200000002
 20
2924.3658
 30
0.0
 11
4413.3857199999993
 21
2924.3658
 31
0.0
  0
LINE
  5
7B9D
  8
1
  6
CONTINUOUS
 10
4327.3857200000002
 20
2559.3658
 30
0.0
 11
4327.3857200000002
 21
2409.3658
 31
0.0
  0
LINE
  5
7B9E
  8
1
  6
CONTINUOUS
 10
4223.3857200000002
 20
2559.3658
 30
0.0
 11
4223.3857200000002
 21
2409.3658
 31
0.0
  0
LINE
  5
7B9F
  8
1
  6
CONTINUOUS
 10
4223.3857200000002
 20
2409.3658
 30
0.0
 11
4327.3857200000002
 21
2409.3658
 31
0.0
  0
LINE
  5
7BA0
  8
1
  6
CONTINUOUS
 10
4223.3857200000002
 20
2559.3658
 30
0.0
 11
4327.3857200000002
 21
2559.3658
 31
0.0
  0
LINE
  5
7BA1
  8
1
  6
CONTINUOUS
 10
4223.3857200000002
 20
2645.3658
 30
0.0
 11
4327.3857200000002
 21
2645.3658
 31
0.0
  0
LINE
  5
7BA2
  8
1
  6
CONTINUOUS
 10
4223.3857200000002
 20
3153.3658
 30
0.0
 11
4327.3857200000002
 21
3153.3658
 31
0.0
  0
LINE
  5
7BA3
  8
1
  6
CONTINUOUS
 10
4190.3857200000002
 20
3404.3658
 30
0.0
 11
4360.3857200000002
 21
3404.3658
 31
0.0
  0
LINE
  5
7BB8
  8
1
  6
CONTINUOUS
 10
3248.9920399999992
 20
5381.5743839999996
 30
0.0
 11
3248.9920399999992
 21
6301.5743840000014
 31
0.0
  0
LINE
  5
7BB9
  8
1
  6
CONTINUOUS
 10
2886.9920399999992
 20
5537.5743839999996
 30
0.0
 11
2886.9920399999992
 21
6022.5743840000014
 31
0.0
  0
LINE
  5
7BBA
  8
1
  6
CONTINUOUS
 10
3210.9920400000001
 20
5537.5743839999996
 30
0.0
 11
3210.9920400000001
 21
6022.5743840000014
 31
0.0
  0
LINE
  5
7BBC
  8
1
  6
CONTINUOUS
 10
3123.9920399999992
 20
5493.5743840000014
 30
0.0
 11
2973.9920399999992
 21
5493.5743840000014
 31
0.0
  0
LINE
  5
7BBD
  8
1
  6
CONTINUOUS
 10
3123.9920399999992
 20
5389.5743840000014
 30
0.0
 11
2973.9920399999992
 21
5389.5743840000014
 31
0.0
  0
LINE
  5
7BBE
  8
1
  6
CONTINUOUS
 10
3210.9920400000001
 20
5537.5743839999996
 30
0.0
 11
2886.9920399999992
 21
5537.5743839999996
 31
0.0
  0
LINE
  5
7BBF
  8
1
  6
CONTINUOUS
 10
2973.9920399999992
 20
5389.5743840000014
 30
0.0
 11
2973.9920399999992
 21
5493.5743840000014
 31
0.0
  0
LINE
  5
7BC0
  8
1
  6
CONTINUOUS
 10
3027.9920399999992
 20
5493.5743840000014
 30
0.0
 11
3027.9920399999992
 21
5537.5743839999996
 31
0.0
  0
LINE
  5
7BC1
  8
1
  6
CONTINUOUS
 10
3069.9920399999992
 20
5493.5743840000014
 30
0.0
 11
3069.9920399999992
 21
5537.5743839999996
 31
0.0
  0
LINE
  5
7BC2
  8
1
  6
CONTINUOUS
 10
3123.9920399999992
 20
5389.5743840000014
 30
0.0
 11
3123.9920399999992
 21
5493.5743840000014
 31
0.0
  0
LINE
  5
7BC3
  8
1
  6
CONTINUOUS
 10
3228.9920400000001
 20
5356.5743839999996
 30
0.0
 11
3228.9920400000001
 21
5526.5743839999996
 31
0.0
  0
LINE
  5
7BC5
  8
1
  6
CONTINUOUS
 10
3210.9920400000001
 20
6022.5743840000014
 30
0.0
 11
2886.9920399999992
 21
6022.5743840000014
 31
0.0
  0
LINE
  5
7BC6
  8
1
  6
CONTINUOUS
 10
2814.1593109999999
 20
5579.5743839999996
 30
0.0
 11
2814.1593109999999
 21
6249.5743839999996
 31
0.0
  0
LINE
  5
7BDB
  8
1
  6
CONTINUOUS
 10
4413.3857199999993
 20
3782.3658
 30
0.0
 11
5083.3857200000002
 21
3782.3658
 31
0.0
  0
LINE
  5
7BF9
  8
2
  6
CENTER
 10
3483.8577340000002
 20
5914.5743840000014
 30
0.0
 11
1186.2645050000001
 21
5914.5743840000014
 31
0.0
  0
LINE
  5
7BFA
  8
2
  6
CENTER
 10
4748.3857200000002
 20
4142.0104629999996
 30
0.0
 11
4748.3857200000002
 21
1889.0192280000001
 31
0.0
  0
LINE
  5
7BFB
  8
2
  6
CENTER
 10
2068.9920399999992
 20
5047.8971519999996
 30
0.0
 11
2068.9920399999992
 21
6594.715338
 31
0.0
  0
LINE
  5
7BFC
  8
2
  6
CENTER
 10
3522.7679119999989
 20
2899.3657999999991
 30
0.0
 11
1199.822361
 21
2899.3657999999991
 31
0.0
  0
LINE
  5
7BFD
  8
4
  6
CONTINUOUS
 10
5550.0
 20
1500.0
 30
0.0
 11
5550.0
 21
900.0
 31
0.0
  0
LINE
  5
7BFE
  8
4
  6
CONTINUOUS
 10
3450.0
 20
1500.0
 30
0.0
 11
3450.0
 21
900.0
 31
0.0
  0
LINE
  5
7BFF
  8
4
  6
CONTINUOUS
 10
1950.0
 20
1500.0
 30
0.0
 11
1950.0
 21
900.0
 31
0.0
  0
LINE
  5
7C02
  8
4
  6
CONTINUOUS
 10
1950.0
 20
900.0
 30
0.0
 11
5550.0
 21
900.0
 31
0.0
  0
LINE
  5
7C03
  8
4
  6
CONTINUOUS
 10
1950.0
 20
1200.0
 30
0.0
 11
5550.0
 21
1200.0
 31
0.0
  0
TEXT
  5
7C04
  8
4
  6
CONTINUOUS
 10
2065.5062429999989
 20
1294.6290779999999
 30
0.0
 40
150.0
  1
機器名称
  0
TEXT
  5
7C05
  8
4
  6
CONTINUOUS
 10
2058.7743179999989
 20
964.9354699999999
 30
0.0
 40
150.0
  1
機器型番
  0
TEXT
  5
7C06
  8
4
  6
CONTINUOUS
 10
3533.0362359999999
 20
1267.7153069999999
 30
0.0
 40
150.0
  1
ミツヤ多翼送風機
  0
TEXT
  5
7C07
  8
4
  6
CONTINUOUS
 10
3559.9634869999991
 20
951.47875299999987
 30
0.0
 40
150.0
  1
MF#5 1/2-4
  0
TEXT
  5
7C09
  8
4
  6
CONTINUOUS
 10
2123.688513999999
 20
7150.2865239999992
 30
0.0
 40
162.0
  1
天井吊枠防振ベット
  0
TEXT
  5
7C0A
  8
4
  6
CONTINUOUS
 10
948.50278000000014
 20
7601.6429289999996
 30
0.0
 40
216.0
  1
ベルト駆動式片吸込両持多翼ファン
  0
LINE
  5
7C0B
  8
4
  6
CONTINUOUS
 10
750.0
 20
7408.2262629999996
 30
0.0
 11
5550.0
 21
7408.2262629999996
 31
0.0
  0
LINE
  5
7C0C
  8
4
  6
CONTINUOUS
 10
750.0
 20
8008.2262629999996
 30
0.0
 11
5550.0
 21
8008.2262629999996
 31
0.0
  0
LINE
  5
7C0D
  8
4
  6
CONTINUOUS
 10
1950.0
 20
1500.0
 30
0.0
 11
5550.0
 21
1500.0
 31
0.0
  0
LINE
  5
7C0E
  8
4
  6
CONTINUOUS
 10
750.0
 20
8008.2262629999996
 30
0.0
 11
750.0
 21
7408.2262629999996
 31
0.0
  0
TEXT
  5
7C0F
  8
4
  6
CONTINUOUS
 10
816.11201700000004
 20
7146.9584329999998
 30
0.0
 40
162.0
  1
左回転左横向
  0
TEXT
  5
7C10
  8
4
  6
CONTINUOUS
 10
4406.9086779999989
 20
8118.1832439999989
 30
0.0
 40
168.0
  1
No.
  0
TEXT
  5
7C11
  8
4
  6
CONTINUOUS
 10
4106.7668519999997
 20
7150.2865239999992
 30
0.0
 40
162.0
  1
縮尺：1/30
  0
LINE
  5
7C12
  8
4
  6
CONTINUOUS
 10
5550.0
 20
8008.2262629999996
 30
0.0
 11
5550.0
 21
7408.2262629999996
 31
0.0
  0
LINE
  5
7C14
  8
4
  6
CONTINUOUS
 10
4321.8522670000002
 20
8043.7907490000007
 30
0.0
 11
4321.8522670000002
 21
8359.9567849999985
 31
0.0
  0
LINE
  5
7C15
  8
4
  6
CONTINUOUS
 10
4321.8522670000002
 20
8359.9567849999985
 30
0.0
 11
5550.0
 21
8359.9567849999985
 31
0.0
  0
LINE
  5
7C16
  8
4
  6
CONTINUOUS
 10
5550.0
 20
8359.9567849999985
 30
0.0
 11
5550.0
 21
8043.7907490000007
 31
0.0
  0
LINE
  5
7C17
  8
4
  6
CONTINUOUS
 10
5550.0
 20
8043.7907490000007
 30
0.0
 11
4321.8522670000002
 21
8043.7907490000007
 31
0.0
  0
DIMENSION
  5
7C28
  8
3
  6
CONTINUOUS
  2
*D1
 10
1133.9437390000001
 20
2857.3658
 30
0.0
 11
1133.9437390000001
 21
3300.3577190000001
 31
0.0
 70
   128
 13
1413.9920400000001
 23
3782.3658
 33
0.0
 14
1413.9920400000001
 24
2857.3658
 34
0.0
 50
90.0
1001
ACAD
1000
DSTYLE
1002
{
1070
   287
1070
     3
1070
    40
1040
30.0
1070
   143
1040
0.039
1070
   172
1070
     1
1070
   271
1070
     0
1070
   279
1070
     0
1070
   288
1070
     1
1002
}
  0
DIMENSION
  5
7C35
  8
3
  6
CONTINUOUS
  2
*D2
 10
938.14332600000046
 20
2899.3658
 30
0.0
 11
938.14332599999989
 21
3309.675964
 31
0.0
 70
   128
 13
1308.9920400000001
 23
3782.3658
 33
0.0
 14
1199.822361
 24
2899.3657999999991
 34
0.0
 50
90.0
1001
ACAD
1000
DSTYLE
1002
{
1070
   287
1070
     3
1070
    40
1040
30.0
1070
   143
1040
0.039
1070
   172
1070
     1
1070
   271
1070
     0
1070
   279
1070
     0
1070
   288
1070
     1
1002
}
  0
DIMENSION
  5
7C41
  8
3
  6
CONTINUOUS
  2
*D3
 10
938.14332599999989
 20
2134.3658
 30
0.0
 11
863.14332599999955
 21
2516.8658
 31
0.0
 70
     0
 13
1199.822361
 23
2899.3657999999991
 33
0.0
 14
1498.9920400000001
 24
2134.3658
 34
0.0
 50
90.0
1001
ACAD
1000
DSTYLE
1002
{
1070
   287
1070
     4
1070
    40
1040
30.0
1070
    75
1070
     1
1070
   143
1040
0.039
1070
   172
1070
     1
1070
   271
1070
     0
1070
   279
1070
     1
1070
   288
1070
     1
1002
}
  0
DIMENSION
  5
7C51
  8
3
  6
CONTINUOUS
  2
*D4
 10
942.59122400000035
 20
2028.3657999999989
 30
0.0
 11
942.59122400000001
 21
1773.3658
 31
0.0
 70
   128
 13
1498.9920400000001
 23
2134.3658
 33
0.0
 14
1308.9920400000001
 24
2028.3657999999989
 34
0.0
 50
90.0
1001
ACAD
1000
DSTYLE
1002
{
1070
   287
1070
     3
1070
    40
1040
30.0
1070
   143
1040
0.039
1070
   172
1070
     1
1070
   271
1070
     0
1070
   279
1070
     0
1070
   288
1070
     1
1002
}
  0
DIMENSION
  5
7C5E
  8
3
  6
CONTINUOUS
  2
*D5
 10
2068.9920399999992
 20
1789.875526
 30
0.0
 11
1692.443346
 21
1789.875526
 31
0.0
 70
   128
 13
1308.9920400000001
 23
2028.3657999999989
 33
0.0
 14
2068.9920399999992
 24
1926.4497149999991
 34
0.0
1001
ACAD
1000
DSTYLE
1002
{
1070
   287
1070
     3
1070
    40
1040
30.0
1070
   143
1040
0.039
1070
   172
1070
     1
1070
   271
1070
     0
1070
   279
1070
     0
1070
   288
1070
     1
1002
}
  0
DIMENSION
  5
7C6A
  8
3
  6
CONTINUOUS
  2
*D6
 10
3408.9920399999992
 20
1789.875526
 30
0.0
 11
2738.9920399999992
 21
1864.875526
 31
0.0
 70
     0
 13
2068.9920399999992
 23
1926.4497149999991
 33
0.0
 14
3408.9920399999992
 24
2028.3657999999989
 34
0.0
1001
ACAD
1000
DSTYLE
1002
{
1070
   287
1070
     4
1070
    40
1040
30.0
1070
    75
1070
     1
1070
   143
1040
0.039
1070
   172
1070
     1
1070
   271
1070
     0
1070
   279
1070
     1
1070
   288
1070
     1
1002
}
  0
DIMENSION
  5
7C77
  8
3
  6
CONTINUOUS
  2
*D7
 10
2068.9920399999992
 20
4231.2523769999998
 30
0.0
 11
1720.4148520000001
 21
4231.2523769999998
 31
0.0
 70
   128
 13
1413.9920400000001
 23
3824.8657999999991
 33
0.0
 14
2068.9920399999992
 24
4160.1883799999996
 34
0.0
1001
ACAD
1000
DSTYLE
1002
{
1070
   287
1070
     3
1070
    40
1040
30.0
1070
   143
1040
0.039
1070
   172
1070
     1
1070
   271
1070
     0
1070
   279
1070
     0
1070
   288
1070
     1
1002
}
  0
DIMENSION
  5
7C84
  8
3
  6
CONTINUOUS
  2
*D8
 10
5083.3857200000002
 20
4166.0247639999998
 30
0.0
 11
4753.7038219999986
 21
4166.0247639999998
 31
0.0
 70
   128
 13
4413.3857199999993
 23
3782.3658
 33
0.0
 14
5083.3857200000002
 24
3782.3658
 34
0.0
1001
ACAD
1000
DSTYLE
1002
{
1070
   287
1070
     3
1070
    40
1040
30.0
1070
   143
1040
0.039
1070
   172
1070
     1
1070
   271
1070
     0
1070
   279
1070
     0
1070
   288
1070
     1
1002
}
  0
LINE
  5
7C85
  8
1
  6
CONTINUOUS
 10
5087.3857200000002
 20
3374.3658
 30
0.0
 11
5087.3857200000002
 21
2424.3658
 31
0.0
  0
DIMENSION
  5
7C94
  8
3
  6
CONTINUOUS
  2
*D9
 10
5564.8770750000012
 20
2424.3657999999991
 30
0.0
 11
5564.8770750000003
 21
2898.745163
 31
0.0
 70
   128
 13
5087.3857200000002
 23
3374.3658
 33
0.0
 14
5087.3857200000002
 24
2424.3658
 34
0.0
 50
90.0
1001
ACAD
1000
DSTYLE
1002
{
1070
   287
1070
     3
1070
     3
1000
φ<>
1070
    40
1040
30.0
1070
   143
1040
0.039
1070
   172
1070
     1
1070
   271
1070
     0
1070
   279
1070
     0
1070
   288
1070
     1
1002
}
  0
DIMENSION
  5
7CA3
  8
3
  6
CONTINUOUS
  2
*D10
 10
4748.3857200000002
 20
4426.9352590000008
 30
0.0
 11
4917.8857200000011
 21
4526.5745415928832
 31
0.0
 70
   128
 13
5087.3857200000002
 23
3374.3658
 33
0.0
 14
4748.3857200000002
 24
4326.0463929999996
 34
0.0
1001
ACAD
1000
DSTYLE
1002
{
1070
   288
1070
     1
1070
   172
1070
     1
1070
    40
1040
30.0
1070
   271
1070
     0
1070
   143
1040
0.039
1002
}
  0
DIMENSION
  5
7CB0
  8
3
  6
CONTINUOUS
  2
*D11
 10
3802.673135
 20
2028.3657999999989
 30
0.0
 11
3802.673135
 21
2982.6092669999998
 31
0.0
 70
   128
 13
3998.3857200000002
 23
4028.3658
 33
0.0
 14
3998.3857200000002
 24
2028.3657999999989
 34
0.0
 50
90.0
1001
ACAD
1000
DSTYLE
1002
{
1070
   287
1070
     3
1070
    40
1040
30.0
1070
   143
1040
0.039
1070
   172
1070
     1
1070
   271
1070
     0
1070
   279
1070
     0
1070
   288
1070
     1
1002
}
  0
DIMENSION
  5
7CBD
  8
3
  6
CONTINUOUS
  2
*D12
 10
4748.3857200000002
 20
1792.5220969999989
 30
0.0
 11
4390.0744379999996
 21
1792.5220969999989
 31
0.0
 70
   128
 13
3998.3857200000002
 23
2028.3657999999989
 33
0.0
 14
4748.3857200000002
 24
1889.0192280000001
 34
0.0
1001
ACAD
1000
DSTYLE
1002
{
1070
   287
1070
     3
1070
    40
1040
30.0
1070
   143
1040
0.039
1070
   172
1070
     1
1070
   271
1070
     0
1070
   279
1070
     0
1070
   288
1070
     1
1002
}
  0
DIMENSION
  5
7CC9
  8
3
  6
CONTINUOUS
  2
*D13
 10
5298.3857200000002
 20
1792.5220969999989
 30
0.0
 11
5023.3857200000002
 21
1867.5220969999989
 31
0.0
 70
     0
 13
4748.3857200000002
 23
1889.0192280000001
 33
0.0
 14
5298.3857200000002
 24
2028.3657999999989
 34
0.0
1001
ACAD
1000
DSTYLE
1002
{
1070
   287
1070
     4
1070
    40
1040
30.0
1070
    75
1070
     1
1070
   143
1040
0.039
1070
   172
1070
     1
1070
   271
1070
     0
1070
   279
1070
     1
1070
   288
1070
     1
1002
}
  0
DIMENSION
  5
7CD6
  8
3
  6
CONTINUOUS
  2
*D14
 10
3408.9920399999992
 20
6646.4370290000006
 30
0.0
 11
2335.78766
 21
6646.4370290000006
 31
0.0
 70
   128
 13
1308.9920400000001
 23
6464.5743840000014
 33
0.0
 14
3408.9920399999992
 24
6464.5743840000014
 34
0.0
1001
ACAD
1000
DSTYLE
1002
{
1070
   287
1070
     3
1070
    40
1040
30.0
1070
   143
1040
0.039
1070
   172
1070
     1
1070
   271
1070
     0
1070
   279
1070
     0
1070
   288
1070
     1
1002
}
  0
DIMENSION
  5
7CE3
  8
3
  6
CONTINUOUS
  2
*D15
 10
3706.3907100000001
 20
5164.5743840000014
 30
0.0
 11
3706.3907100000001
 21
5817.1143570000013
 31
0.0
 70
   128
 13
3408.9920399999992
 23
6464.5743840000014
 33
0.0
 14
3408.9920399999992
 24
5164.5743840000014
 34
0.0
 50
90.0
1001
ACAD
1000
DSTYLE
1002
{
1070
   287
1070
     3
1070
    40
1040
30.0
1070
   143
1040
0.039
1070
   172
1070
     1
1070
   271
1070
     0
1070
   279
1070
     0
1070
   288
1070
     1
1002
}
  0
DIMENSION
  5
7D6E
  8
3
  2
*D16
 10
2811.9920399999992
 20
4231.2523769999998
 30
0.0
 11
2440.4920400000001
 21
4306.2523769999998
 31
0.0
 70
     0
 13
2068.9920399999992
 23
4160.1883799999996
 33
0.0
 14
2811.9920399999992
 24
2899.3657999999991
 34
0.0
1001
ACAD
1000
DSTYLE
1002
{
1070
   287
1070
     4
1070
    40
1040
30.0
1070
    75
1070
     1
1070
   143
1040
0.039
1070
   172
1070
     1
1070
   271
1070
     0
1070
   279
1070
     1
1070
   288
1070
     1
1002
}
  0
LINE
  5
7D8E
  8
1
  6
CONTINUOUS
 10
1508.992039999999
 20
3353.8560739999998
 30
0.0
 11
2628.9920399999992
 21
3353.8560739999998
 31
0.0
  0
LINE
  5
7D8F
  8
1
 10
1508.9920400000001
 20
2233.8560739999998
 30
0.0
 11
1508.992039999999
 21
3353.8560739999998
 31
0.0
  0
LINE
  5
7D90
  8
1
 10
2628.9920399999992
 20
2233.8560739999989
 30
0.0
 11
2628.9920399999992
 21
3353.8560739999998
 31
0.0
  0
ENDSEC
  0
EOF
