  0
SECTION
  2
HEADER
  9
$ACADVER
  1
AC1009
  9
$INSBASE
 10
0.0
 20
0.0
 30
0.0
  9
$EXTMIN
 10
750.0
 20
900.0
 30
0.0
  9
$EXTMAX
 10
5553.7336009999999
 20
8359.9567849999985
 30
0.0
  9
$LIMMIN
 10
0.0
 20
0.0
  9
$LIMMAX
 10
297.0
 20
210.0
  9
$ORTHOMODE
 70
     0
  9
$REGENMODE
 70
     1
  9
$FILLMODE
 70
     0
  9
$QTEXTMODE
 70
     0
  9
$MIRRTEXT
 70
     1
  9
$DRAGMODE
 70
     2
  9
$LTSCALE
 40
100.0
  9
$OSMODE
 70
    37
  9
$ATTMODE
 70
     1
  9
$TEXTSIZE
 40
180.0
  9
$TRACEWID
 40
0.05
  9
$TEXTSTYLE
  7
STANDARD
  9
$CLAYER
  8
3
  9
$CELTYPE
  6
BYLAYER
  9
$CECOLOR
 62
   256
  9
$DIMSCALE
 40
30.0
  9
$DIMASZ
 40
2.0
  9
$DIMEXO
 40
0.5
  9
$DIMDLI
 40
10.0
  9
$DIMRND
 40
0.0
  9
$DIMDLE
 40
0.0
  9
$DIMEXE
 40
1.0
  9
$DIMTP
 40
1.0
  9
$DIMTM
 40
1.0
  9
$DIMTXT
 40
3.0
  9
$DIMCEN
 40
0.0
  9
$DIMTSZ
 40
0.0
  9
$DIMTOL
 70
     0
  9
$DIMLIM
 70
     0
  9
$DIMTIH
 70
     0
  9
$DIMTOH
 70
     0
  9
$DIMSE1
 70
     0
  9
$DIMSE2
 70
     0
  9
$DIMTAD
 70
     1
  9
$DIMZIN
 70
     8
  9
$DIMBLK
  1

  9
$DIMASO
 70
     1
  9
$DIMSHO
 70
     1
  9
$DIMPOST
  1

  9
$DIMAPOST
  1

  9
$DIMALT
 70
     0
  9
$DIMALTD
 70
     2
  9
$DIMALTF
 40
0.039
  9
$DIMLFAC
 40
1.0
  9
$DIMTOFL
 70
     1
  9
$DIMTVP
 40
0.0
  9
$DIMTIX
 70
     0
  9
$DIMSOXD
 70
     0
  9
$DIMSAH
 70
     1
  9
$DIMBLK1
  1
OPEN
  9
$DIMBLK2
  1
OPEN
  9
$DIMSTYLE
  2
IGA
  9
$DIMCLRD
 70
     0
  9
$DIMCLRE
 70
     0
  9
$DIMCLRT
 70
     0
  9
$DIMTFAC
 40
10.0
  9
$DIMGAP
 40
1.0
  9
$LUNITS
 70
     2
  9
$LUPREC
 70
     3
  9
$SKETCHINC
 40
0.1
  9
$FILLETRAD
 40
50.0
  9
$AUNITS
 70
     0
  9
$AUPREC
 70
     0
  9
$MENU
  1
acad
  9
$ELEVATION
 40
0.0
  9
$PELEVATION
 40
0.0
  9
$THICKNESS
 40
0.0
  9
$LIMCHECK
 70
     0
  9
$BLIPMODE
 70
     0
  9
$CHAMFERA
 40
0.5
  9
$CHAMFERB
 40
0.5
  9
$SKPOLY
 70
     0
  9
$TDCREATE
 40
2450752.446937731
  9
$TDUPDATE
 40
2454953.776491608
  9
$TDINDWG
 40
0.0241429282
  9
$TDUSRTIMER
 40
0.0241429282
  9
$USRTIMER
 70
     1
  9
$ANGBASE
 50
0.0
  9
$ANGDIR
 70
     0
  9
$PDMODE
 70
     0
  9
$PDSIZE
 40
0.0
  9
$PLINEWID
 40
0.0
  9
$COORDS
 70
     1
  9
$SPLFRAME
 70
     0
  9
$SPLINETYPE
 70
     6
  9
$SPLINESEGS
 70
     8
  9
$ATTDIA
 70
     0
  9
$ATTREQ
 70
     1
  9
$HANDLING
 70
 10241
  9
$HANDSEED
  5
7EB4
  9
$SURFTAB1
 70
     6
  9
$SURFTAB2
 70
     6
  9
$SURFTYPE
 70
     6
  9
$SURFU
 70
     6
  9
$SURFV
 70
     6
  9
$UCSNAME
  2

  9
$UCSORG
 10
0.0
 20
0.0
 30
0.0
  9
$UCSXDIR
 10
1.0
 20
0.0
 30
0.0
  9
$UCSYDIR
 10
0.0
 20
1.0
 30
0.0
  9
$PUCSNAME
  2

  9
$PUCSORG
 10
0.0
 20
0.0
 30
0.0
  9
$PUCSXDIR
 10
1.0
 20
0.0
 30
0.0
  9
$PUCSYDIR
 10
0.0
 20
1.0
 30
0.0
  9
$USERI1
 70
     0
  9
$USERI2
 70
     0
  9
$USERI3
 70
     0
  9
$USERI4
 70
     0
  9
$USERI5
 70
     0
  9
$USERR1
 40
0.0
  9
$USERR2
 40
0.0
  9
$USERR3
 40
0.0
  9
$USERR4
 40
0.0
  9
$USERR5
 40
0.0
  9
$WORLDVIEW
 70
     1
  9
$SHADEDGE
 70
     3
  9
$SHADEDIF
 70
    70
  9
$TILEMODE
 70
     1
  9
$MAXACTVP
 70
    16
  9
$PLIMCHECK
 70
     0
  9
$PEXTMIN
 10
1.0000000000000000E+020
 20
1.0000000000000000E+020
 30
1.0000000000000000E+020
  9
$PEXTMAX
 10
-1.0000000000000000E+020
 20
-1.0000000000000000E+020
 30
-1.0000000000000000E+020
  9
$PLIMMIN
 10
0.0
 20
0.0
  9
$PLIMMAX
 10
12.0
 20
9.0
  9
$UNITMODE
 70
     0
  9
$VISRETAIN
 70
     0
  9
$PLINEGEN
 70
     0
  9
$PSLTSCALE
 70
     1
  0
ENDSEC
  0
SECTION
  2
TABLES
  0
TABLE
  2
VPORT
 70
     2
  0
VPORT
  2
*ACTIVE
 70
     0
 10
0.0
 20
0.0
 11
1.0
 21
1.0
 12
9440.0758938842173
 22
4629.9562499988788
 13
0.0
 23
0.0
 14
10.0
 24
10.0
 15
10.0
 25
10.0
 16
0.0
 26
0.0
 36
1.0
 17
0.0
 27
0.0
 37
0.0
 40
7517.2452868940854
 41
3.1666666666666661
 42
50.0
 43
0.0
 44
0.0
 50
0.0
 51
0.0
 71
     0
 72
   100
 73
     1
 74
     0
 75
     0
 76
     0
 77
     0
 78
     0
  0
ENDTAB
  0
TABLE
  2
LTYPE
 70
     2
  0
LTYPE
  2
CONTINUOUS
 70
     0
  3
Solid line
 72
    65
 73
     0
 40
0.0
  0
LTYPE
  2
CENTER
 70
     0
  3
____ _ ____ _ ____ _ ____ _ ____ _ ____ _ ____ 
 72
    65
 73
     4
 40
2.0
 49
1.25
 49
-0.25
 49
0.25
 49
-0.25
  0
ENDTAB
  0
TABLE
  2
LAYER
 70
     6
  0
LAYER
  2
0
 70
     0
 62
     7
  6
CONTINUOUS
  0
LAYER
  2
3
 70
     0
 62
     2
  6
CONTINUOUS
  0
LAYER
  2
2
 70
     0
 62
     3
  6
CENTER
  0
LAYER
  2
1
 70
     0
 62
     4
  6
CONTINUOUS
  0
LAYER
  2
4
 70
     0
 62
     7
  6
CONTINUOUS
  0
LAYER
  2
DEFPOINTS
 70
     0
 62
    -7
  6
CONTINUOUS
  0
ENDTAB
  0
TABLE
  2
STYLE
 70
     1
  0
STYLE
  2
STANDARD
 70
     0
 40
0.0
 41
1.0
 50
0.0
 71
     0
 42
180.0
  3
simplex.shx
  4
extfont.shx
  0
ENDTAB
  0
TABLE
  2
VIEW
 70
     0
  0
ENDTAB
  0
TABLE
  2
UCS
 70
     0
  0
ENDTAB
  0
TABLE
  2
APPID
 70
     1
  0
APPID
  2
ACAD
 70
     0
  0
ENDTAB
  0
TABLE
  2
DIMSTYLE
 70
     1
  0
DIMSTYLE
  2
IGA
 70
     0
  3

  4

  5

  6
OPEN
  7
OPEN
 40
2.0
 41
2.0
 42
0.5
 43
10.0
 44
1.0
 45
0.0
 46
0.0
 47
1.0
 48
1.0
140
3.0
141
0.0
142
0.0
143
0.03937
144
1.0
145
0.0
146
10.0
147
1.0
 71
     0
 72
     0
 73
     0
 74
     0
 75
     0
 76
     0
 77
     1
 78
     8
170
     0
171
     2
172
     0
173
     1
174
     0
175
     0
176
     0
177
     0
178
     0
  0
ENDTAB
  0
ENDSEC
  0
SECTION
  2
BLOCKS
  0
BLOCK
  8
0
  2
$MODEL_SPACE
 70
     0
 10
0.0
 20
0.0
 30
0.0
  3
$MODEL_SPACE
  1

  0
ENDBLK
  5
1B
  8
0
  0
BLOCK
 67
     1
  8
0
  2
$PAPER_SPACE
 70
     0
 10
0.0
 20
0.0
 30
0.0
  3
$PAPER_SPACE
  1

  0
ENDBLK
  5
18
 67
     1
  8
0
  0
BLOCK
  8
0
  2
_OPEN
 70
     0
 10
0.0
 20
0.0
 30
0.0
  3
_OPEN
  1

  0
LINE
  5
7BB0
  8
0
  6
BYBLOCK
 62
     0
 10
-1.0
 20
0.166667
 30
0.0
 11
0.0
 21
0.0
 31
0.0
  0
LINE
  5
7BB1
  8
0
  6
BYBLOCK
 62
     0
 10
0.0
 20
0.0
 30
0.0
 11
-1.0
 21
-0.166667
 31
0.0
  0
LINE
  5
7BB2
  8
0
  6
BYBLOCK
 62
     0
 10
0.0
 20
0.0
 30
0.0
 11
-1.0
 21
0.0
 31
0.0
  0
ENDBLK
  5
7BB3
  8
0
  0
BLOCK
  8
0
  2
*D1
 70
     1
 10
0.0
 20
0.0
 30
0.0
  3
*D1
  1

  0
LINE
  5
7E0C
  8
3
  6
CONTINUOUS
 62
     0
 10
1697.3780129999991
 20
3437.6390070000002
 30
0.0
 11
1508.869371
 21
3437.6390070000002
 31
0.0
  0
LINE
  5
7E0D
  8
3
  6
CONTINUOUS
 62
     0
 10
1697.3780129999991
 20
2512.6390070000002
 30
0.0
 11
1508.869371
 21
2512.6390070000002
 31
0.0
  0
LINE
  5
7E0E
  8
3
  6
CONTINUOUS
 62
     0
 10
1538.869371
 20
3377.6390070000002
 30
0.0
 11
1538.869371
 21
2572.6390070000002
 31
0.0
  0
INSERT
  5
7E0F
  8
3
  6
CONTINUOUS
 62
     0
  2
_OPEN
 10
1538.869371
 20
3437.6390070000002
 30
0.0
 41
60.0
 42
60.0
 43
60.0
 50
90.0
  0
INSERT
  5
7E10
  8
3
  6
CONTINUOUS
 62
     0
  2
_OPEN
 10
1538.869371
 20
2512.6390070000002
 30
0.0
 41
60.0
 42
60.0
 43
60.0
 50
270.0
  0
TEXT
  8
3
  40
90
  5
7EA2
  62
0
  72
0
  71
0
 10
1283.87
 20
2787.35
 30
0.000000
  1
925
  0
POINT
  5
7E12
  8
DEFPOINTS
  6
CONTINUOUS
 62
     0
 10
1712.3780129999991
 20
3437.6390070000002
 30
0.0
  0
POINT
  5
7E13
  8
DEFPOINTS
  6
CONTINUOUS
 62
     0
 10
1712.3780129999991
 20
2512.6390070000002
 30
0.0
  0
POINT
  5
7E14
  8
DEFPOINTS
  6
CONTINUOUS
 62
     0
 10
1538.869371
 20
2512.6390070000002
 30
0.0
  0
ENDBLK
  5
7BF9
  8
0
  0
BLOCK
  8
0
  2
*D2
 70
     1
 10
0.0
 20
0.0
 30
0.0
  3
*D2
  1

  0
LINE
  5
7E15
  8
3
  6
CONTINUOUS
 62
     0
 10
1580.322705
 20
3395.6390070000002
 30
0.0
 11
1265.987723
 21
3395.6390070000002
 31
0.0
  0
LINE
  5
7E16
  8
3
  6
CONTINUOUS
 62
     0
 10
1697.3780129999991
 20
2512.6390070000002
 30
0.0
 11
1265.987723
 21
2512.6390070000002
 31
0.0
  0
LINE
  5
7E17
  8
3
  6
CONTINUOUS
 62
     0
 10
1295.987723
 20
3335.6390070000002
 30
0.0
 11
1295.987723
 21
2572.6390070000002
 31
0.0
  0
INSERT
  5
7E18
  8
3
  6
CONTINUOUS
 62
     0
  2
_OPEN
 10
1295.987723
 20
3395.6390070000002
 30
0.0
 41
60.0
 42
60.0
 43
60.0
 50
90.0
  0
INSERT
  5
7E19
  8
3
  6
CONTINUOUS
 62
     0
  2
_OPEN
 10
1295.987723
 20
2512.6390070000002
 30
0.0
 41
60.0
 42
60.0
 43
60.0
 50
270.0
  0
TEXT
  8
3
  40
90
  5
7EA3
  62
0
  72
0
  71
0
 10
1040.99
 20
2802.06
 30
0.000000
  1
883
  0
POINT
  5
7E1B
  8
DEFPOINTS
  6
CONTINUOUS
 62
     0
 10
1595.322705
 20
3395.6390070000002
 30
0.0
  0
POINT
  5
7E1C
  8
DEFPOINTS
  6
CONTINUOUS
 62
     0
 10
1712.3780129999991
 20
2512.6390070000002
 30
0.0
  0
POINT
  5
7E1D
  8
DEFPOINTS
  6
CONTINUOUS
 62
     0
 10
1295.987723
 20
2512.6390070000002
 30
0.0
  0
ENDBLK
  5
7C06
  8
0
  0
BLOCK
  8
0
  2
*D3
 70
     1
 10
0.0
 20
0.0
 30
0.0
  3
*D3
  1

  0
LINE
  5
7E1E
  8
3
  6
CONTINUOUS
 62
     0
 10
1747.3780129999991
 20
2149.6390070000002
 30
0.0
 11
1747.3780129999991
 21
1889.50847
 31
0.0
  0
LINE
  5
7E1F
  8
3
  6
CONTINUOUS
 62
     0
 10
2367.378013
 20
2026.0277510000001
 30
0.0
 11
2367.378013
 21
1889.50847
 31
0.0
  0
LINE
  5
7E20
  8
3
  6
CONTINUOUS
 62
     0
 10
1807.378013
 20
1919.50847
 30
0.0
 11
2307.378013
 21
1919.50847
 31
0.0
  0
INSERT
  5
7E21
  8
3
  6
CONTINUOUS
 62
     0
  2
_OPEN
 10
1747.3780129999991
 20
1919.50847
 30
0.0
 41
60.0
 42
60.0
 43
60.0
 50
180.0
  0
INSERT
  5
7E22
  8
3
  6
CONTINUOUS
 62
     0
  2
_OPEN
 10
2367.378013
 20
1919.50847
 30
0.0
 41
60.0
 42
60.0
 43
60.0
  0
TEXT
  8
3
  40
90
  5
7EA4
  62
0
  72
0
  71
0
 10
1895.42
 20
1835.21
 30
0.000000
  1
620
  0
POINT
  5
7E24
  8
DEFPOINTS
  6
CONTINUOUS
 62
     0
 10
1747.3780129999991
 20
2164.6390070000002
 30
0.0
  0
POINT
  5
7E25
  8
DEFPOINTS
  6
CONTINUOUS
 62
     0
 10
2367.378013
 20
2041.0277510000001
 30
0.0
  0
POINT
  5
7E26
  8
DEFPOINTS
  6
CONTINUOUS
 62
     0
 10
2367.378013
 20
1919.50847
 30
0.0
  0
ENDBLK
  5
7C49
  8
0
  0
BLOCK
  8
0
  2
*D4
 70
     1
 10
0.0
 20
0.0
 30
0.0
  3
*D4
  1

  0
LINE
  5
7E27
  8
3
  6
CONTINUOUS
 62
     0
 10
3597.3780130000009
 20
2149.6390070000002
 30
0.0
 11
3597.3780130000009
 21
1889.50847
 31
0.0
  0
LINE
  5
7E28
  8
3
  6
CONTINUOUS
 62
     0
 10
2427.378013
 20
1919.50847
 30
0.0
 11
3537.378013
 21
1919.50847
 31
0.0
  0
INSERT
  5
7E29
  8
3
  6
CONTINUOUS
 62
     0
  2
_OPEN
 10
2367.378013
 20
1919.50847
 30
0.0
 41
60.0
 42
60.0
 43
60.0
 50
180.0
  0
INSERT
  5
7E2A
  8
3
  6
CONTINUOUS
 62
     0
  2
_OPEN
 10
3597.3780130000009
 20
1919.50847
 30
0.0
 41
60.0
 42
60.0
 43
60.0
  0
TEXT
  8
3
  40
90
  5
7EA5
  62
0
  72
0
  71
0
 10
2802.38
 20
1835.21
 30
0.000000
  1
1230
  0
POINT
  5
7E2C
  8
DEFPOINTS
  6
CONTINUOUS
 62
     0
 10
2367.378013
 20
2041.0277510000001
 30
0.0
  0
POINT
  5
7E2D
  8
DEFPOINTS
  6
CONTINUOUS
 62
     0
 10
3597.3780130000009
 20
2164.6390070000002
 30
0.0
  0
POINT
  5
7E2E
  8
DEFPOINTS
  6
CONTINUOUS
 62
     0
 10
3597.3780130000009
 20
1919.50847
 30
0.0
  0
ENDBLK
  5
7C55
  8
0
  0
BLOCK
  8
0
  2
*D5
 70
     1
 10
0.0
 20
0.0
 30
0.0
  3
*D5
  1

  0
LINE
  5
7E2F
  8
3
  6
CONTINUOUS
 62
     0
 10
1712.3780129999991
 20
3495.1390070000002
 30
0.0
 11
1712.3780129999991
 21
4285.954800999999
 31
0.0
  0
LINE
  5
7E30
  8
3
  6
CONTINUOUS
 62
     0
 10
2367.378013
 20
4174.1580929999991
 30
0.0
 11
2367.378013
 21
4285.954800999999
 31
0.0
  0
LINE
  5
7E31
  8
3
  6
CONTINUOUS
 62
     0
 10
1772.3780129999991
 20
4255.9548009999999
 30
0.0
 11
2307.378013
 21
4255.9548009999999
 31
0.0
  0
INSERT
  5
7E32
  8
3
  6
CONTINUOUS
 62
     0
  2
_OPEN
 10
1712.3780129999991
 20
4255.9548009999999
 30
0.0
 41
60.0
 42
60.0
 43
60.0
 50
180.0
  0
INSERT
  5
7E33
  8
3
  6
CONTINUOUS
 62
     0
  2
_OPEN
 10
2367.378013
 20
4255.9548009999999
 30
0.0
 41
60.0
 42
60.0
 43
60.0
  0
TEXT
  8
3
  40
90
  5
7EA6
  62
0
  72
0
  71
0
 10
1880.70
 20
4171.65
 30
0.000000
  1
655
  0
POINT
  5
7E35
  8
DEFPOINTS
  6
CONTINUOUS
 62
     0
 10
1712.3780129999991
 20
3480.1390070000002
 30
0.0
  0
POINT
  5
7E36
  8
DEFPOINTS
  6
CONTINUOUS
 62
     0
 10
2367.378013
 20
4159.158093
 30
0.0
  0
POINT
  5
7E37
  8
DEFPOINTS
  6
CONTINUOUS
 62
     0
 10
2367.378013
 20
4255.9548009999999
 30
0.0
  0
ENDBLK
  5
7C62
  8
0
  0
BLOCK
  8
0
  2
*D6
 70
     1
 10
0.0
 20
0.0
 30
0.0
  3
*D6
  1

  0
LINE
  5
7E38
  8
3
  6
CONTINUOUS
 62
     0
 10
4578.0318420000003
 20
4055.4353500000002
 30
0.0
 11
4578.0318420000003
 21
4256.5322930000002
 31
0.0
  0
LINE
  5
7E39
  8
3
  6
CONTINUOUS
 62
     0
 10
5248.0318420000003
 20
4055.4353500000002
 30
0.0
 11
5248.0318420000003
 21
4256.5322930000002
 31
0.0
  0
LINE
  5
7E3A
  8
3
  6
CONTINUOUS
 62
     0
 10
4638.0318420000003
 20
4226.5322930000002
 30
0.0
 11
5188.0318420000003
 21
4226.5322930000002
 31
0.0
  0
INSERT
  5
7E3B
  8
3
  6
CONTINUOUS
 62
     0
  2
_OPEN
 10
4578.0318420000003
 20
4226.5322930000002
 30
0.0
 41
60.0
 42
60.0
 43
60.0
 50
180.0
  0
INSERT
  5
7E3C
  8
3
  6
CONTINUOUS
 62
     0
  2
_OPEN
 10
5248.0318420000003
 20
4226.5322930000002
 30
0.0
 41
60.0
 42
60.0
 43
60.0
  0
TEXT
  8
3
  40
90
  5
7EA7
  62
0
  72
0
  71
0
 10
4747.57
 20
4142.23
 30
0.000000
  1
670
  0
POINT
  5
7E3E
  8
DEFPOINTS
  6
CONTINUOUS
 62
     0
 10
4578.0318420000003
 20
4040.4353500000002
 30
0.0
  0
POINT
  5
7E3F
  8
DEFPOINTS
  6
CONTINUOUS
 62
     0
 10
5248.0318420000003
 20
4040.4353500000002
 30
0.0
  0
POINT
  5
7E40
  8
DEFPOINTS
  6
CONTINUOUS
 62
     0
 10
5248.0318420000003
 20
4226.5322930000002
 30
0.0
  0
ENDBLK
  5
7C7B
  8
0
  0
BLOCK
  8
0
  2
*D7
 70
     1
 10
0.0
 20
0.0
 30
0.0
  3
*D7
  1

  0
LINE
  5
7E41
  8
3
  6
CONTINUOUS
 62
     0
 10
5267.0318420000003
 20
3870.6390070000002
 30
0.0
 11
5553.7336010000008
 21
3870.6390070000002
 31
0.0
  0
LINE
  5
7E42
  8
3
  6
CONTINUOUS
 62
     0
 10
5267.0318420000003
 20
2920.6390070000002
 30
0.0
 11
5553.7336010000008
 21
2920.6390070000002
 31
0.0
  0
LINE
  5
7E43
  8
3
  6
CONTINUOUS
 62
     0
 10
5523.7336009999999
 20
3810.6390070000002
 30
0.0
 11
5523.7336009999999
 21
2980.6390070000002
 31
0.0
  0
INSERT
  5
7E44
  8
3
  6
CONTINUOUS
 62
     0
  2
_OPEN
 10
5523.7336009999999
 20
3870.6390070000002
 30
0.0
 41
60.0
 42
60.0
 43
60.0
 50
90.0
  0
INSERT
  5
7E45
  8
3
  6
CONTINUOUS
 62
     0
  2
_OPEN
 10
5523.7336009999999
 20
2920.6390070000002
 30
0.0
 41
60.0
 42
60.0
 43
60.0
 50
270.0
  0
TEXT
  8
3
  40
90
  5
7EA8
  62
0
  72
0
  71
0
 10
5268.73
 20
3243.40
 30
0.000000
  1
φ950
  0
POINT
  5
7E47
  8
DEFPOINTS
  6
CONTINUOUS
 62
     0
 10
5252.0318420000003
 20
3870.6390070000002
 30
0.0
  0
POINT
  5
7E48
  8
DEFPOINTS
  6
CONTINUOUS
 62
     0
 10
5252.0318420000003
 20
2920.6390070000002
 30
0.0
  0
POINT
  5
7E49
  8
DEFPOINTS
  6
CONTINUOUS
 62
     0
 10
5523.7336009999999
 20
2920.6390070000002
 30
0.0
  0
ENDBLK
  5
7DBB
  8
0
  0
BLOCK
  8
0
  2
*D8
 70
     1
 10
0.0
 20
0.0
 30
0.0
  3
*D8
  1

  0
LINE
  5
7DA7
  8
0
  6
BYBLOCK
 62
     0
 10
5252.0318420000003
 20
3885.6390070000002
 30
0.0
 11
5252.0318420000003
 21
4484.5568450000001
 31
0.0
  0
LINE
  5
7DA8
  8
0
  6
BYBLOCK
 62
     0
 10
4913.0318420000003
 20
4394.5038169999989
 30
0.0
 11
4913.0318420000003
 21
4484.5568450000001
 31
0.0
  0
LINE
  5
7DA9
  8
0
  6
BYBLOCK
 62
     0
 10
5192.0318420000003
 20
4454.5568450000001
 30
0.0
 11
4973.0318420000012
 21
4454.5568450000001
 31
0.0
  0
TEXT
  5
7DAA
  8
3
 62
     0
 10
4968.9604134285719
 20
4505.9800173811054
 30
0.0
 40
90.0
  1
339
  0
INSERT
  5
7DAB
  8
0
  6
BYBLOCK
 62
     0
  2
_OPEN
 10
5252.0318420000003
 20
4454.5568450000001
 30
0.0
 41
60.0
 42
60.0
 43
60.0
  0
INSERT
  5
7DAC
  8
0
  6
BYBLOCK
 62
     0
  2
_OPEN
 10
4913.0318420000003
 20
4454.5568450000001
 30
0.0
 41
60.0
 42
60.0
 43
60.0
 50
180.0
  0
POINT
  5
7DAD
  8
DEFPOINTS
  6
BYBLOCK
 62
     0
 10
5252.0318420000003
 20
3870.6390070000002
 30
0.0
  0
POINT
  5
7DAE
  8
DEFPOINTS
  6
BYBLOCK
 62
     0
 10
4913.0318420000003
 20
4379.5038169999989
 30
0.0
  0
POINT
  5
7DAF
  8
DEFPOINTS
  6
BYBLOCK
 62
     0
 10
4913.0318420000003
 20
4454.5568450000001
 30
0.0
  0
ENDBLK
  5
7DB0
  8
0
  0
BLOCK
  8
0
  2
*D9
 70
     1
 10
0.0
 20
0.0
 30
0.0
  3
*D9
  1

  0
LINE
  5
7E4A
  8
3
  6
CONTINUOUS
 62
     0
 10
4303.0318420000012
 20
3850.6390070000002
 30
0.0
 11
4303.0318420000012
 21
4484.5568450000001
 31
0.0
  0
LINE
  5
7E4B
  8
3
  6
CONTINUOUS
 62
     0
 10
4853.0318420000003
 20
4454.5568450000001
 30
0.0
 11
4363.0318420000003
 21
4454.5568450000001
 31
0.0
  0
INSERT
  5
7E4C
  8
3
  6
CONTINUOUS
 62
     0
  2
_OPEN
 10
4913.0318420000003
 20
4454.5568450000001
 30
0.0
 41
60.0
 42
60.0
 43
60.0
  0
INSERT
  5
7E4D
  8
3
  6
CONTINUOUS
 62
     0
  2
_OPEN
 10
4303.0318420000012
 20
4454.5568450000001
 30
0.0
 41
60.0
 42
60.0
 43
60.0
 50
180.0
  0
TEXT
  8
3
  40
90
  5
7EA9
  62
0
  72
0
  71
0
 10
4428.03
 20
4445.26
 30
0.000000
  1
MAX
  0
TEXT
  8
3
  40
90
  5
7EAA
  62
0
  72
0
  71
0
 10
4428.03
 20
4328.26
 30
0.000000
  1
640
  0
POINT
  5
7E4F
  8
DEFPOINTS
  6
CONTINUOUS
 62
     0
 10
4913.0318420000003
 20
4379.5038169999989
 30
0.0
  0
POINT
  5
7E50
  8
DEFPOINTS
  6
CONTINUOUS
 62
     0
 10
4303.0318420000012
 20
3835.6390070000002
 30
0.0
  0
POINT
  5
7E51
  8
DEFPOINTS
  6
CONTINUOUS
 62
     0
 10
4303.0318420000012
 20
4454.5568450000001
 30
0.0
  0
ENDBLK
  5
7DC5
  8
0
  0
BLOCK
  8
0
  2
*D10
 70
     1
 10
0.0
 20
0.0
 30
0.0
  3
*D10
  1

  0
LINE
  5
7E52
  8
3
  6
CONTINUOUS
 62
     0
 10
4265.0318420000003
 20
2149.6390070000002
 30
0.0
 11
4265.0318420000003
 21
1911.575366
 31
0.0
  0
LINE
  5
7E53
  8
3
  6
CONTINUOUS
 62
     0
 10
4913.0318420000003
 20
2007.0289829999999
 30
0.0
 11
4913.0318420000003
 21
1911.575366
 31
0.0
  0
LINE
  5
7E54
  8
3
  6
CONTINUOUS
 62
     0
 10
4325.0318420000003
 20
1941.575366
 30
0.0
 11
4853.0318420000003
 21
1941.575366
 31
0.0
  0
INSERT
  5
7E55
  8
3
  6
CONTINUOUS
 62
     0
  2
_OPEN
 10
4265.0318420000003
 20
1941.575366
 30
0.0
 41
60.0
 42
60.0
 43
60.0
 50
180.0
  0
INSERT
  5
7E56
  8
3
  6
CONTINUOUS
 62
     0
  2
_OPEN
 10
4913.0318420000003
 20
1941.575366
 30
0.0
 41
60.0
 42
60.0
 43
60.0
  0
TEXT
  8
3
  40
90
  5
7EAB
  62
0
  72
0
  71
0
 10
4416.37
 20
1857.28
 30
0.000000
  1
648
  0
POINT
  5
7E58
  8
DEFPOINTS
  6
CONTINUOUS
 62
     0
 10
4265.0318420000003
 20
2164.6390070000002
 30
0.0
  0
POINT
  5
7E59
  8
DEFPOINTS
  6
CONTINUOUS
 62
     0
 10
4913.0318420000003
 20
2022.028982999999
 30
0.0
  0
POINT
  5
7E5A
  8
DEFPOINTS
  6
CONTINUOUS
 62
     0
 10
4913.0318420000003
 20
1941.575366
 30
0.0
  0
ENDBLK
  5
7CB3
  8
0
  0
BLOCK
  8
0
  2
*D11
 70
     1
 10
0.0
 20
0.0
 30
0.0
  3
*D11
  1

  0
LINE
  5
7E5B
  8
3
  6
CONTINUOUS
 62
     0
 10
5415.0318420000012
 20
2149.6390070000002
 30
0.0
 11
5415.0318420000012
 21
1911.575366
 31
0.0
  0
LINE
  5
7E5C
  8
3
  6
CONTINUOUS
 62
     0
 10
4973.0318420000012
 20
1941.575366
 30
0.0
 11
5355.0318420000003
 21
1941.575366
 31
0.0
  0
INSERT
  5
7E5D
  8
3
  6
CONTINUOUS
 62
     0
  2
_OPEN
 10
4913.0318420000003
 20
1941.575366
 30
0.0
 41
60.0
 42
60.0
 43
60.0
 50
180.0
  0
INSERT
  5
7E5E
  8
3
  6
CONTINUOUS
 62
     0
  2
_OPEN
 10
5415.0318420000012
 20
1941.575366
 30
0.0
 41
60.0
 42
60.0
 43
60.0
  0
TEXT
  8
3
  40
90
  5
7EAC
  62
0
  72
0
  71
0
 10
4984.03
 20
1857.28
 30
0.000000
  1
502
  0
POINT
  5
7E60
  8
DEFPOINTS
  6
CONTINUOUS
 62
     0
 10
4913.0318420000003
 20
2022.028982999999
 30
0.0
  0
POINT
  5
7E61
  8
DEFPOINTS
  6
CONTINUOUS
 62
     0
 10
5415.0318420000012
 20
2164.6390070000002
 30
0.0
  0
POINT
  5
7E62
  8
DEFPOINTS
  6
CONTINUOUS
 62
     0
 10
5415.0318420000012
 20
1941.575366
 30
0.0
  0
ENDBLK
  5
7CBF
  8
0
  0
BLOCK
  8
0
  2
*D12
 70
     1
 10
0.0
 20
0.0
 30
0.0
  3
*D12
  1

  0
LINE
  5
7E63
  8
3
  6
CONTINUOUS
 62
     0
 10
1747.3780129999991
 20
6529.8880289999997
 30
0.0
 11
1747.3780129999991
 21
6681.0913840000003
 31
0.0
  0
LINE
  5
7E64
  8
3
  6
CONTINUOUS
 62
     0
 10
3597.3780130000009
 20
6529.8880289999997
 30
0.0
 11
3597.3780130000009
 21
6681.0913840000003
 31
0.0
  0
LINE
  5
7E65
  8
3
  6
CONTINUOUS
 62
     0
 10
1807.378013
 20
6651.0913840000003
 30
0.0
 11
3537.378013
 21
6651.0913840000003
 31
0.0
  0
INSERT
  5
7E66
  8
3
  6
CONTINUOUS
 62
     0
  2
_OPEN
 10
1747.3780129999991
 20
6651.0913840000003
 30
0.0
 41
60.0
 42
60.0
 43
60.0
 50
180.0
  0
INSERT
  5
7E67
  8
3
  6
CONTINUOUS
 62
     0
  2
_OPEN
 10
3597.3780130000009
 20
6651.0913840000003
 30
0.0
 41
60.0
 42
60.0
 43
60.0
  0
TEXT
  8
3
  40
90
  5
7EAD
  62
0
  72
0
  71
0
 10
2454.78
 20
6566.79
 30
0.000000
  1
1850
  0
POINT
  5
7E69
  8
DEFPOINTS
  6
CONTINUOUS
 62
     0
 10
1747.3780129999991
 20
6514.8880289999988
 30
0.0
  0
POINT
  5
7E6A
  8
DEFPOINTS
  6
CONTINUOUS
 62
     0
 10
3597.3780130000009
 20
6514.8880289999988
 30
0.0
  0
POINT
  5
7E6B
  8
DEFPOINTS
  6
CONTINUOUS
 62
     0
 10
3597.3780130000009
 20
6651.0913840000003
 30
0.0
  0
ENDBLK
  5
7CE4
  8
0
  0
BLOCK
  8
0
  2
*D13
 70
     1
 10
0.0
 20
0.0
 30
0.0
  3
*D13
  1

  0
LINE
  5
7E6C
  8
3
  6
CONTINUOUS
 62
     0
 10
3612.378013
 20
6514.8880289999988
 30
0.0
 11
3938.071269
 21
6514.8880289999988
 31
0.0
  0
LINE
  5
7E6D
  8
3
  6
CONTINUOUS
 62
     0
 10
3612.378013
 20
5364.8880289999997
 30
0.0
 11
3938.071269
 21
5364.8880289999997
 31
0.0
  0
LINE
  5
7E6E
  8
3
  6
CONTINUOUS
 62
     0
 10
3908.071269
 20
6454.8880289999997
 30
0.0
 11
3908.071269
 21
5424.8880289999988
 31
0.0
  0
INSERT
  5
7E6F
  8
3
  6
CONTINUOUS
 62
     0
  2
_OPEN
 10
3908.071269
 20
6514.8880289999988
 30
0.0
 41
60.0
 42
60.0
 43
60.0
 50
90.0
  0
INSERT
  5
7E70
  8
3
  6
CONTINUOUS
 62
     0
  2
_OPEN
 10
3908.071269
 20
5364.8880289999997
 30
0.0
 41
60.0
 42
60.0
 43
60.0
 50
270.0
  0
TEXT
  8
3
  40
90
  5
7EAE
  62
0
  72
0
  71
0
 10
3653.07
 20
5800.36
 30
0.000000
  1
1150
  0
POINT
  5
7E72
  8
DEFPOINTS
  6
CONTINUOUS
 62
     0
 10
3597.3780130000009
 20
6514.8880289999988
 30
0.0
  0
POINT
  5
7E73
  8
DEFPOINTS
  6
CONTINUOUS
 62
     0
 10
3597.3780130000009
 20
5364.8880289999997
 30
0.0
  0
POINT
  5
7E74
  8
DEFPOINTS
  6
CONTINUOUS
 62
     0
 10
3908.071269
 20
5364.8880289999997
 30
0.0
  0
ENDBLK
  5
7CF1
  8
0
  0
BLOCK
  8
0
  2
*D14
 70
     1
 10
0.0
 20
0.0
 30
0.0
  3
*D14
  1

  0
LINE
  5
7E75
  8
3
  6
CONTINUOUS
 62
     0
 10
2352.378013
 20
4038.6339500638819
 30
0.0
 11
1069.714878
 21
4038.6339500638819
 31
0.0
  0
LINE
  5
7E76
  8
3
  6
CONTINUOUS
 62
     0
 10
1565.3227049999989
 20
3395.6390070000002
 30
0.0
 11
1069.714878
 21
3395.6390070000002
 31
0.0
  0
LINE
  5
7E77
  8
3
  6
CONTINUOUS
 62
     0
 10
1099.714878
 20
3978.6339500638819
 30
0.0
 11
1099.714878
 21
3455.6390070000002
 31
0.0
  0
INSERT
  5
7E78
  8
3
  6
CONTINUOUS
 62
     0
  2
_OPEN
 10
1099.714878
 20
4038.6339500638819
 30
0.0
 41
60.0
 42
60.0
 43
60.0
 50
90.0
  0
INSERT
  5
7E79
  8
3
  6
CONTINUOUS
 62
     0
  2
_OPEN
 10
1099.714878
 20
3395.6390070000002
 30
0.0
 41
60.0
 42
60.0
 43
60.0
 50
270.0
  0
TEXT
  8
3
  40
90
  5
7EAF
  62
0
  72
0
  71
0
 10
844.715
 20
3558.76
 30
0.000000
  1
643
  0
POINT
  5
7E7B
  8
DEFPOINTS
  6
CONTINUOUS
 62
     0
 10
2367.378013
 20
4038.6339500638819
 30
0.0
  0
POINT
  5
7E7C
  8
DEFPOINTS
  6
CONTINUOUS
 62
     0
 10
1580.322705
 20
3395.6390070000002
 30
0.0
  0
POINT
  5
7E7D
  8
DEFPOINTS
  6
CONTINUOUS
 62
     0
 10
1099.714878
 20
3395.6390070000002
 30
0.0
  0
ENDBLK
  5
7D8D
  8
0
  0
BLOCK
  8
0
  2
*D15
 70
     1
 10
0.0
 20
0.0
 30
0.0
  3
*D15
  1

  0
LINE
  5
7E7E
  8
3
  6
CONTINUOUS
 62
     0
 10
1782.3780129999991
 20
2305.6390070000002
 30
0.0
 11
1069.714878
 21
2305.6390070000002
 31
0.0
  0
LINE
  5
7E7F
  8
3
  6
CONTINUOUS
 62
     0
 10
1099.714878
 20
3335.6390070000002
 30
0.0
 11
1099.714878
 21
2365.6390070000002
 31
0.0
  0
INSERT
  5
7E80
  8
3
  6
CONTINUOUS
 62
     0
  2
_OPEN
 10
1099.714878
 20
3395.6390070000002
 30
0.0
 41
60.0
 42
60.0
 43
60.0
 50
90.0
  0
INSERT
  5
7E81
  8
3
  6
CONTINUOUS
 62
     0
  2
_OPEN
 10
1099.714878
 20
2305.6390070000002
 30
0.0
 41
60.0
 42
60.0
 43
60.0
 50
270.0
  0
TEXT
  8
3
  40
90
  5
7EB0
  62
0
  72
0
  71
0
 10
844.715
 20
2691.34
 30
0.000000
  1
1090
  0
POINT
  5
7E83
  8
DEFPOINTS
  6
CONTINUOUS
 62
     0
 10
1580.322705
 20
3395.6390070000002
 30
0.0
  0
POINT
  5
7E84
  8
DEFPOINTS
  6
CONTINUOUS
 62
     0
 10
1797.3780129999991
 20
2305.6390070000002
 30
0.0
  0
POINT
  5
7E85
  8
DEFPOINTS
  6
CONTINUOUS
 62
     0
 10
1099.714878
 20
2305.6390070000002
 30
0.0
  0
ENDBLK
  5
7D0F
  8
0
  0
BLOCK
  8
0
  2
*D16
 70
     1
 10
0.0
 20
0.0
 30
0.0
  3
*D16
  1

  0
LINE
  5
7E86
  8
3
  6
CONTINUOUS
 62
     0
 10
1782.3780129999991
 20
2305.6390070000002
 30
0.0
 11
1069.714878
 21
2305.6390070000002
 31
0.0
  0
LINE
  5
7E87
  8
3
  6
CONTINUOUS
 62
     0
 10
1732.3780129999991
 20
2164.6390070000002
 30
0.0
 11
1069.714878
 21
2164.6390070000002
 31
0.0
  0
LINE
  5
7E88
  8
3
  6
CONTINUOUS
 62
     0
 10
1099.714878
 20
2365.6390070000002
 30
0.0
 11
1099.714878
 21
2425.6390070000002
 31
0.0
  0
LINE
  5
7E89
  8
3
  6
CONTINUOUS
 62
     0
 10
1099.714878
 20
2104.6390070000002
 30
0.0
 11
1099.714878
 21
1808.924721285714
 31
0.0
  0
LINE
  5
7E8A
  8
3
  6
CONTINUOUS
 62
     0
 10
1099.714878
 20
2305.6390070000002
 30
0.0
 11
1099.714878
 21
2164.6390070000002
 31
0.0
  0
INSERT
  5
7E8B
  8
3
  6
CONTINUOUS
 62
     0
  2
_OPEN
 10
1099.714878
 20
2305.6390070000002
 30
0.0
 41
60.0
 42
60.0
 43
60.0
 50
270.0
  0
INSERT
  5
7E8C
  8
3
  6
CONTINUOUS
 62
     0
  2
_OPEN
 10
1099.714878
 20
2164.6390070000002
 30
0.0
 41
60.0
 42
60.0
 43
60.0
 50
90.0
  0
TEXT
  8
3
  40
90
  5
7EB1
  62
0
  72
0
  71
0
 10
844.715
 20
1767.48
 30
0.000000
  1
141
  0
POINT
  5
7E8E
  8
DEFPOINTS
  6
CONTINUOUS
 62
     0
 10
1797.3780129999991
 20
2305.6390070000002
 30
0.0
  0
POINT
  5
7E8F
  8
DEFPOINTS
  6
CONTINUOUS
 62
     0
 10
1747.3780129999991
 20
2164.6390070000002
 30
0.0
  0
POINT
  5
7E90
  8
DEFPOINTS
  6
CONTINUOUS
 62
     0
 10
1099.714878
 20
2164.6390070000002
 30
0.0
  0
ENDBLK
  5
7D76
  8
0
  0
BLOCK
  8
0
  2
*D17
 70
     1
 10
0.0
 20
0.0
 30
0.0
  3
*D17
  1

  0
LINE
  5
7E91
  8
3
  6
CONTINUOUS
 62
     0
 10
3110.3780139999999
 20
3410.6390070000002
 30
0.0
 11
3110.3780139999999
 21
4285.954800999999
 31
0.0
  0
LINE
  5
7E92
  8
3
  6
CONTINUOUS
 62
     0
 10
2427.378013
 20
4255.9548009999999
 30
0.0
 11
3050.3780139999999
 21
4255.9548009999999
 31
0.0
  0
INSERT
  5
7E93
  8
3
  6
CONTINUOUS
 62
     0
  2
_OPEN
 10
2367.378013
 20
4255.9548009999999
 30
0.0
 41
60.0
 42
60.0
 43
60.0
 50
180.0
  0
INSERT
  5
7E94
  8
3
  6
CONTINUOUS
 62
     0
  2
_OPEN
 10
3110.3780139999999
 20
4255.9548009999999
 30
0.0
 41
60.0
 42
60.0
 43
60.0
  0
TEXT
  8
3
  40
90
  5
7EB2
  62
0
  72
0
  71
0
 10
2558.88
 20
4171.65
 30
0.000000
  1
743
  0
POINT
  5
7E96
  8
DEFPOINTS
  6
CONTINUOUS
 62
     0
 10
2367.378013
 20
4159.158093
 30
0.0
  0
POINT
  5
7E97
  8
DEFPOINTS
  6
CONTINUOUS
 62
     0
 10
3110.3780139999999
 20
3395.6390070000002
 30
0.0
  0
POINT
  5
7E98
  8
DEFPOINTS
  6
CONTINUOUS
 62
     0
 10
3110.3780139999999
 20
4255.9548009999999
 30
0.0
  0
ENDBLK
  5
7D52
  8
0
  0
BLOCK
  8
0
  2
*D18
 70
     1
 10
0.0
 20
0.0
 30
0.0
  3
*D18
  1

  0
LINE
  5
7E99
  8
3
 62
     0
 10
1712.3780129999991
 20
3495.1390070000002
 30
0.0
 11
1712.3780129999991
 21
4468.234954432166
 31
0.0
  0
LINE
  5
7E9A
  8
3
 62
     0
 10
3597.3780130000009
 20
2279.6390070000002
 30
0.0
 11
3597.3780130000009
 21
4468.234954432166
 31
0.0
  0
LINE
  5
7E9B
  8
3
 62
     0
 10
1772.3780129999991
 20
4438.234954432166
 30
0.0
 11
3537.378013
 21
4438.234954432166
 31
0.0
  0
INSERT
  5
7E9C
  8
3
 62
     0
  2
_OPEN
 10
1712.3780129999991
 20
4438.234954432166
 30
0.0
 41
60.0
 42
60.0
 43
60.0
 50
180.0
  0
INSERT
  5
7E9D
  8
3
 62
     0
  2
_OPEN
 10
3597.3780130000009
 20
4438.234954432166
 30
0.0
 41
60.0
 42
60.0
 43
60.0
  0
TEXT
  8
3
  40
90
  5
7EB3
  62
0
  72
0
  71
0
 10
2507.70
 20
4353.93
 30
0.000000
  1
1885
  0
POINT
  5
7E9F
  8
DEFPOINTS
 62
     0
 10
1712.3780129999991
 20
3480.1390070000002
 30
0.0
  0
POINT
  5
7EA0
  8
DEFPOINTS
 62
     0
 10
3597.3780130000009
 20
2264.6390070000002
 30
0.0
  0
POINT
  5
7EA1
  8
DEFPOINTS
 62
     0
 10
3597.3780130000009
 20
4438.234954432166
 30
0.0
  0
ENDBLK
  5
7D99
  8
0
  0
ENDSEC
  0
SECTION
  2
ENTITIES
  0
LINE
  5
7AE6
  8
1
  6
CONTINUOUS
 10
1747.3780129999991
 20
6399.8880289999988
 30
0.0
 11
3597.3780130000009
 21
6399.8880289999988
 31
0.0
  0
LINE
  5
7AE7
  8
1
  6
CONTINUOUS
 10
3527.378013
 20
5454.8880289999997
 30
0.0
 11
1887.3780129999991
 21
5454.8880289999997
 31
0.0
  0
LINE
  5
7AE8
  8
1
  6
CONTINUOUS
 10
3527.378013
 20
5624.8880289999997
 30
0.0
 11
1887.3780129999991
 21
5624.8880289999997
 31
0.0
  0
LINE
  5
7AE9
  8
1
  6
CONTINUOUS
 10
3509.378013
 20
6120.8880289999988
 30
0.0
 11
3185.378013
 21
6120.8880289999988
 31
0.0
  0
LINE
  5
7AEA
  8
1
  6
CONTINUOUS
 10
3509.378013
 20
5635.8880289999997
 30
0.0
 11
3185.378013
 21
5635.8880289999997
 31
0.0
  0
LINE
  5
7AEB
  8
1
  6
CONTINUOUS
 10
1747.3780129999991
 20
5479.8880289999997
 30
0.0
 11
3597.3780130000009
 21
5479.8880289999997
 31
0.0
  0
LINE
  5
7AEC
  8
1
  6
CONTINUOUS
 10
3527.378013
 20
2745.6390070000002
 30
0.0
 11
2547.378013
 21
3835.6390070000002
 31
0.0
  0
ARC
  5
7AED
  8
1
  6
CONTINUOUS
 10
3347.378013
 20
2655.6390070000002
 30
0.0
 40
162.0
 50
324.972283
 51
215.02771699999991
  0
LINE
  5
7AEE
  8
1
  6
CONTINUOUS
 10
1747.3780129999991
 20
2164.6390070000002
 30
0.0
 11
3597.3780130000009
 21
2164.6390070000002
 31
0.0
  0
LINE
  5
7AEF
  8
1
  6
CONTINUOUS
 10
1747.3780129999991
 20
2264.6390070000002
 30
0.0
 11
3597.3780130000009
 21
2264.6390070000002
 31
0.0
  0
LINE
  5
7AF0
  8
1
  6
CONTINUOUS
 10
1797.3780129999991
 20
2305.6390070000002
 30
0.0
 11
3547.3780130000009
 21
2305.6390070000002
 31
0.0
  0
LINE
  5
7AF1
  8
1
  6
CONTINUOUS
 10
1797.378013
 20
2405.6390070000002
 30
0.0
 11
3547.3780130000009
 21
2405.6390070000002
 31
0.0
  0
LINE
  5
7AF2
  8
1
  6
CONTINUOUS
 10
3310.9178609999999
 20
2580.0977419999999
 30
0.0
 11
2243.899633
 21
3173.672591
 31
0.0
  0
LINE
  5
7AF3
  8
1
  6
CONTINUOUS
 10
1887.3780129999991
 20
3835.6390070000002
 30
0.0
 11
2547.378013
 21
3835.6390070000002
 31
0.0
  0
LINE
  5
7AF4
  8
2
  6
CENTER
 10
5240.4053999999996
 20
3395.6390070000002
 30
0.0
 11
4085.8598630000001
 21
3395.6390070000002
 31
0.0
  0
CIRCLE
  5
7AF5
  8
1
  6
CONTINUOUS
 10
2367.378013
 20
3395.6390070000002
 30
0.0
 40
254.0
  0
POLYLINE
  5
7AF9
  8
1
  6
CONTINUOUS
 66
     1
 10
0.0
 20
0.0
 30
0.0
  0
VERTEX
  5
7E06
  8
1
  6
CONTINUOUS
 10
1712.3780129999991
 20
2512.6390070000002
 30
0.0
  0
VERTEX
  5
7E07
  8
1
  6
CONTINUOUS
 10
2367.378013
 20
2534.6390070000002
 30
0.0
 42
0.4168370000000001
  0
VERTEX
  5
7E08
  8
1
  6
CONTINUOUS
 10
3109.8179719999998
 20
3402.8129490000001
 30
0.0
 42
0.429867
  0
VERTEX
  5
7E09
  8
1
  6
CONTINUOUS
 10
2323.5018519999999
 20
4034.0641839999998
 30
0.0
 42
0.373172
  0
VERTEX
  5
7E0A
  8
1
  6
CONTINUOUS
 10
1799.409285
 20
3437.6390070000002
 30
0.0
 42
0.34598
  0
SEQEND
  5
7E0B
  8
1
  6
CONTINUOUS
  0
LINE
  5
7B00
  8
1
  6
CONTINUOUS
 10
1887.3780129999991
 20
2405.6390070000002
 30
0.0
 11
1887.3780129999991
 21
3835.6390070000002
 31
0.0
  0
LINE
  5
7B02
  8
1
  6
CONTINUOUS
 10
1752.3780129999991
 20
3437.6390070000002
 30
0.0
 11
1752.3780129999991
 21
2513.9825179999998
 31
0.0
  0
LINE
  5
7B03
  8
1
  6
CONTINUOUS
 10
1712.3780129999991
 20
3480.1390070000002
 30
0.0
 11
1712.3780129999991
 21
2470.1390070000002
 31
0.0
  0
LINE
  5
7B04
  8
1
  6
CONTINUOUS
 10
1747.3780129999991
 20
2164.6390070000002
 30
0.0
 11
1747.3780129999991
 21
2264.6390070000002
 31
0.0
  0
LINE
  5
7B05
  8
1
  6
CONTINUOUS
 10
1797.3780129999991
 20
2405.6390070000002
 30
0.0
 11
1797.3780129999991
 21
2305.6390070000002
 31
0.0
  0
LINE
  5
7B06
  8
1
  6
CONTINUOUS
 10
1799.409285
 20
3437.6390070000002
 30
0.0
 11
1712.3780129999991
 21
3437.6390070000002
 31
0.0
  0
LINE
  5
7B07
  8
1
  6
CONTINUOUS
 10
3401.116383
 20
2697.9571449999999
 30
0.0
 11
2549.3719609999998
 21
3572.8231000000001
 31
0.0
  0
LINE
  5
7B09
  8
2
  6
CENTER
 10
3427.378013
 20
2655.6390070000002
 30
0.0
 11
3267.378013
 21
2655.6390070000002
 31
0.0
  0
LINE
  5
7B0A
  8
2
  6
CENTER
 10
3347.378013
 20
2575.6390070000002
 30
0.0
 11
3347.378013
 21
2735.6390070000002
 31
0.0
  0
CIRCLE
  5
7B0B
  8
1
  6
CONTINUOUS
 10
3347.378013
 20
2655.6390070000002
 30
0.0
 40
75.0
  0
LINE
  5
7B0C
  8
1
  6
CONTINUOUS
 10
3214.7203469999999
 20
2562.65544
 30
0.0
 11
3159.878013
 21
2495.6390070000002
 31
0.0
  0
LINE
  5
7B0D
  8
1
  6
CONTINUOUS
 10
3149.878013
 20
2445.6390070000002
 30
0.0
 11
3159.878013
 21
2495.6390070000002
 31
0.0
  0
LINE
  5
7B0E
  8
1
  6
CONTINUOUS
 10
3149.878013
 20
2445.6390070000002
 30
0.0
 11
3149.878013
 21
2405.6390070000002
 31
0.0
  0
LINE
  5
7B0F
  8
2
  6
CENTER
 10
2367.378013
 20
2011.401879
 30
0.0
 11
2367.378013
 21
4139.5322210000004
 31
0.0
  0
LINE
  5
7B10
  8
1
  6
CONTINUOUS
 10
2621.378013
 20
5487.8880289999997
 30
0.0
 11
2113.378013
 21
5487.8880289999997
 31
0.0
  0
LINE
  5
7B11
  8
1
  6
CONTINUOUS
 10
2621.378013
 20
5591.8880289999988
 30
0.0
 11
2113.378013
 21
5591.8880289999988
 31
0.0
  0
LINE
  5
7B12
  8
1
  6
CONTINUOUS
 10
1712.3780129999991
 20
5677.8880289999997
 30
0.0
 11
3112.5452839999989
 21
5677.8880289999997
 31
0.0
  0
LINE
  5
7B13
  8
1
  6
CONTINUOUS
 10
1712.3780129999991
 20
6347.8880289999988
 30
0.0
 11
3112.5452839999989
 21
6347.8880289999988
 31
0.0
  0
LINE
  5
7B14
  8
1
  6
CONTINUOUS
 10
1752.3780129999991
 20
5677.8880289999997
 30
0.0
 11
1752.3780129999991
 21
6347.8880289999988
 31
0.0
  0
LINE
  5
7B15
  8
1
  6
CONTINUOUS
 10
1712.3780129999991
 20
5635.8880289999997
 30
0.0
 11
1712.3780129999991
 21
6389.8880289999997
 31
0.0
  0
LINE
  5
7B16
  8
1
  6
CONTINUOUS
 10
1797.3780129999991
 20
5364.8880289999997
 30
0.0
 11
1797.3780129999991
 21
5479.8880289999997
 31
0.0
  0
LINE
  5
7B17
  8
1
  6
CONTINUOUS
 10
1747.3780129999991
 20
5364.8880289999997
 30
0.0
 11
1797.3780129999991
 21
5364.8880289999997
 31
0.0
  0
LINE
  5
7B18
  8
1
  6
CONTINUOUS
 10
1747.3780129999991
 20
5364.8880289999997
 30
0.0
 11
1747.3780129999991
 21
5479.8880289999997
 31
0.0
  0
LINE
  5
7B19
  8
1
  6
CONTINUOUS
 10
1887.3780129999991
 20
5454.8880289999997
 30
0.0
 11
1887.3780129999991
 21
5624.8880289999997
 31
0.0
  0
LINE
  5
7B1A
  8
1
  6
CONTINUOUS
 10
1747.3780129999991
 20
5479.8880289999997
 30
0.0
 11
1747.3780129999991
 21
5677.8880289999997
 31
0.0
  0
LINE
  5
7B1B
  8
1
  6
CONTINUOUS
 10
2113.378013
 20
5487.8880289999997
 30
0.0
 11
2113.378013
 21
5591.8880289999988
 31
0.0
  0
LINE
  5
7B1C
  8
1
  6
CONTINUOUS
 10
1747.3780129999991
 20
6399.8880289999988
 30
0.0
 11
1747.3780129999991
 21
6514.8880289999988
 31
0.0
  0
LINE
  5
7B1D
  8
1
  6
CONTINUOUS
 10
1797.3780129999991
 20
6399.8880289999988
 30
0.0
 11
1797.3780129999991
 21
6514.8880289999988
 31
0.0
  0
LINE
  5
7B1E
  8
1
  6
CONTINUOUS
 10
1747.3780129999991
 20
6514.8880289999988
 30
0.0
 11
1797.3780129999991
 21
6514.8880289999988
 31
0.0
  0
LINE
  5
7B1F
  8
1
  6
CONTINUOUS
 10
1747.3780129999991
 20
6347.8880289999988
 30
0.0
 11
1747.3780129999991
 21
6399.8880289999988
 31
0.0
  0
LINE
  5
7B20
  8
1
  6
CONTINUOUS
 10
3185.378013
 20
5635.8880289999997
 30
0.0
 11
3185.378013
 21
6120.8880289999988
 31
0.0
  0
LINE
  5
7B21
  8
1
  6
CONTINUOUS
 10
3112.5452839999989
 20
5677.8880289999997
 30
0.0
 11
3112.5452839999989
 21
6347.8880289999988
 31
0.0
  0
LINE
  5
7B22
  8
1
  6
CONTINUOUS
 10
2392.378013
 20
5591.8880289999988
 30
0.0
 11
2392.378013
 21
5677.8880289999997
 31
0.0
  0
LINE
  5
7B23
  8
1
  6
CONTINUOUS
 10
2342.378013
 20
5591.8880289999988
 30
0.0
 11
2342.378013
 21
5677.8880289999997
 31
0.0
  0
LINE
  5
7B24
  8
1
  6
CONTINUOUS
 10
2621.378013
 20
5487.8880289999997
 30
0.0
 11
2621.378013
 21
5591.8880289999988
 31
0.0
  0
LINE
  5
7B25
  8
1
  6
CONTINUOUS
 10
3422.3780130000009
 20
5487.8880289999997
 30
0.0
 11
3422.3780130000009
 21
5591.8880289999988
 31
0.0
  0
LINE
  5
7B26
  8
1
  6
CONTINUOUS
 10
3272.378013
 20
5487.8880289999997
 30
0.0
 11
3272.378013
 21
5591.8880289999988
 31
0.0
  0
LINE
  5
7B27
  8
1
  6
CONTINUOUS
 10
3368.378013
 20
5591.8880289999988
 30
0.0
 11
3368.378013
 21
5635.8880289999997
 31
0.0
  0
LINE
  5
7B28
  8
1
  6
CONTINUOUS
 10
3326.378013
 20
5591.8880289999988
 30
0.0
 11
3326.378013
 21
5635.8880289999997
 31
0.0
  0
LINE
  5
7B29
  8
1
  6
CONTINUOUS
 10
3422.3780130000009
 20
5487.8880289999997
 30
0.0
 11
3272.378013
 21
5487.8880289999997
 31
0.0
  0
LINE
  5
7B2A
  8
1
  6
CONTINUOUS
 10
3422.3780130000009
 20
5591.8880289999988
 30
0.0
 11
3272.378013
 21
5591.8880289999988
 31
0.0
  0
LINE
  5
7B3D
  8
1
  6
CONTINUOUS
 10
3597.3780130000009
 20
2164.6390070000002
 30
0.0
 11
3597.3780130000009
 21
2264.6390070000002
 31
0.0
  0
LINE
  5
7B3E
  8
1
  6
CONTINUOUS
 10
3527.378013
 20
2405.6390070000002
 30
0.0
 11
3527.378013
 21
2755.6390070000002
 31
0.0
  0
LINE
  5
7B3F
  8
1
  6
CONTINUOUS
 10
3534.8780130000009
 20
2495.6390070000002
 30
0.0
 11
3480.0356780000002
 21
2562.65544
 31
0.0
  0
LINE
  5
7B40
  8
1
  6
CONTINUOUS
 10
3534.8780130000009
 20
2495.6390070000002
 30
0.0
 11
3544.878013
 21
2445.6390070000002
 31
0.0
  0
LINE
  5
7B41
  8
1
  6
CONTINUOUS
 10
3544.878013
 20
2445.6390070000002
 30
0.0
 11
3544.878013
 21
2405.6390070000002
 31
0.0
  0
LINE
  5
7B42
  8
1
  6
CONTINUOUS
 10
3547.3780130000009
 20
2405.6390070000002
 30
0.0
 11
3547.3780130000009
 21
2305.6390070000002
 31
0.0
  0
LINE
  5
7B54
  8
1
  6
CONTINUOUS
 10
4380.0318420000003
 20
2305.6390070000002
 30
0.0
 11
5300.0318420000003
 21
2305.6390070000002
 31
0.0
  0
LINE
  5
7B55
  8
1
  6
CONTINUOUS
 10
4265.0318420000003
 20
2264.6390070000002
 30
0.0
 11
5415.0318420000012
 21
2264.6390070000002
 31
0.0
  0
LINE
  5
7B56
  8
1
  6
CONTINUOUS
 10
4265.0318420000003
 20
2164.6390070000002
 30
0.0
 11
5415.0318420000012
 21
2164.6390070000002
 31
0.0
  0
LINE
  5
7B57
  8
1
  6
CONTINUOUS
 10
4578.0318420000003
 20
2512.6390070000002
 30
0.0
 11
5248.0318420000003
 21
3437.6390070000002
 31
0.0
  0
LINE
  5
7B58
  8
1
  6
CONTINUOUS
 10
4578.0318420000003
 20
3437.6390070000002
 30
0.0
 11
5248.0318420000003
 21
2512.6390070000002
 31
0.0
  0
LINE
  5
7B59
  8
1
  6
CONTINUOUS
 10
4380.0318420000003
 20
2405.6390070000002
 30
0.0
 11
5300.0318420000003
 21
2405.6390070000002
 31
0.0
  0
LINE
  5
7B5A
  8
1
  6
CONTINUOUS
 10
4578.0318420000003
 20
4040.4353500000002
 30
0.0
 11
5248.0318420000003
 21
4040.4353500000002
 31
0.0
  0
LINE
  5
7B5B
  8
1
  6
CONTINUOUS
 10
4578.0318420000003
 20
3437.6390070000002
 30
0.0
 11
5248.0318420000003
 21
3437.6390070000002
 31
0.0
  0
LINE
  5
7B5C
  8
1
  6
CONTINUOUS
 10
4578.0318420000003
 20
2512.6390070000002
 30
0.0
 11
5248.0318420000003
 21
2512.6390070000002
 31
0.0
  0
LINE
  5
7B60
  8
1
  6
CONTINUOUS
 10
4578.0318420000003
 20
4040.4353500000002
 30
0.0
 11
4578.0318420000003
 21
2405.6390070000002
 31
0.0
  0
LINE
  5
7B62
  8
1
  6
CONTINUOUS
 10
4303.0318420000012
 20
3835.6390070000002
 30
0.0
 11
4303.0318420000012
 21
2405.6390070000002
 31
0.0
  0
LINE
  5
7B63
  8
1
  6
CONTINUOUS
 10
4525.0318420000003
 20
3835.6390070000002
 30
0.0
 11
4525.0318420000003
 21
2405.6390070000002
 31
0.0
  0
LINE
  5
7B67
  8
1
  6
CONTINUOUS
 10
4265.0318420000003
 20
2264.6390070000002
 30
0.0
 11
4265.0318420000003
 21
2164.6390070000002
 31
0.0
  0
LINE
  5
7B68
  8
1
  6
CONTINUOUS
 10
4303.0318420000012
 20
2405.6390070000002
 30
0.0
 11
4380.0318420000003
 21
2405.6390070000002
 31
0.0
  0
LINE
  5
7B69
  8
1
  6
CONTINUOUS
 10
4380.0318420000003
 20
2405.6390070000002
 30
0.0
 11
4380.0318420000003
 21
2305.6390070000002
 31
0.0
  0
LINE
  5
7B6A
  8
1
  6
CONTINUOUS
 10
4388.0318420000003
 20
2730.6390070000002
 30
0.0
 11
4492.0318420000003
 21
2730.6390070000002
 31
0.0
  0
LINE
  5
7B6B
  8
1
  6
CONTINUOUS
 10
4388.0318420000003
 20
2580.6390070000002
 30
0.0
 11
4492.0318420000003
 21
2580.6390070000002
 31
0.0
  0
LINE
  5
7B6C
  8
1
  6
CONTINUOUS
 10
4492.0318420000003
 20
2676.6390070000002
 30
0.0
 11
4578.0318420000003
 21
2676.6390070000002
 31
0.0
  0
LINE
  5
7B6D
  8
1
  6
CONTINUOUS
 10
4492.0318420000003
 20
2634.6390070000002
 30
0.0
 11
4578.0318420000003
 21
2634.6390070000002
 31
0.0
  0
LINE
  5
7B6E
  8
1
  6
CONTINUOUS
 10
4388.0318420000003
 20
2730.6390070000002
 30
0.0
 11
4388.0318420000003
 21
2580.6390070000002
 31
0.0
  0
LINE
  5
7B6F
  8
1
  6
CONTINUOUS
 10
4492.0318420000003
 20
2730.6390070000002
 30
0.0
 11
4492.0318420000003
 21
2580.6390070000002
 31
0.0
  0
LINE
  5
7B71
  8
1
  6
CONTINUOUS
 10
4388.0318420000003
 20
3649.6390070000002
 30
0.0
 11
4388.0318420000003
 21
3141.6390070000002
 31
0.0
  0
LINE
  5
7B72
  8
1
  6
CONTINUOUS
 10
4492.0318420000003
 20
3649.6390070000002
 30
0.0
 11
4492.0318420000003
 21
3141.6390070000002
 31
0.0
  0
LINE
  5
7B73
  8
1
  6
CONTINUOUS
 10
4388.0318420000003
 20
3141.6390070000002
 30
0.0
 11
4492.0318420000003
 21
3141.6390070000002
 31
0.0
  0
LINE
  5
7B74
  8
1
  6
CONTINUOUS
 10
4492.0318420000003
 20
3420.6390070000002
 30
0.0
 11
4578.0318420000003
 21
3420.6390070000002
 31
0.0
  0
LINE
  5
7B75
  8
1
  6
CONTINUOUS
 10
4492.0318420000003
 20
3370.6390070000002
 30
0.0
 11
4578.0318420000003
 21
3370.6390070000002
 31
0.0
  0
LINE
  5
7B76
  8
1
  6
CONTINUOUS
 10
4303.0318420000012
 20
3835.6390070000002
 30
0.0
 11
4525.0318420000003
 21
3835.6390070000002
 31
0.0
  0
LINE
  5
7B77
  8
1
  6
CONTINUOUS
 10
4388.0318420000003
 20
3649.6390070000002
 30
0.0
 11
4492.0318420000003
 21
3649.6390070000002
 31
0.0
  0
LINE
  5
7B78
  8
1
  6
CONTINUOUS
 10
5248.0318420000003
 20
4040.4353500000002
 30
0.0
 11
5248.0318420000003
 21
2405.6390070000002
 31
0.0
  0
LINE
  5
7B79
  8
1
  6
CONTINUOUS
 10
5415.0318420000012
 20
2264.6390070000002
 30
0.0
 11
5415.0318420000012
 21
2164.6390070000002
 31
0.0
  0
LINE
  5
7B7A
  8
1
  6
CONTINUOUS
 10
5300.0318420000003
 20
2405.6390070000002
 30
0.0
 11
5300.0318420000003
 21
2305.6390070000002
 31
0.0
  0
LINE
  5
7B85
  8
1
  6
CONTINUOUS
 10
3509.378013
 20
5635.8880289999997
 30
0.0
 11
3509.378013
 21
6120.8880289999988
 31
0.0
  0
LINE
  5
7B86
  8
1
  6
CONTINUOUS
 10
3597.3780130000009
 20
5479.8880289999997
 30
0.0
 11
3597.3780130000009
 21
6399.8880289999988
 31
0.0
  0
LINE
  5
7B87
  8
1
  6
CONTINUOUS
 10
3547.3780130000009
 20
5364.8880289999997
 30
0.0
 11
3597.3780130000009
 21
5364.8880289999997
 31
0.0
  0
LINE
  5
7B88
  8
1
  6
CONTINUOUS
 10
3547.3780130000009
 20
5364.8880289999997
 30
0.0
 11
3547.3780130000009
 21
5479.8880289999997
 31
0.0
  0
LINE
  5
7B89
  8
1
  6
CONTINUOUS
 10
3597.3780130000009
 20
5364.8880289999997
 30
0.0
 11
3597.3780130000009
 21
5479.8880289999997
 31
0.0
  0
LINE
  5
7B8A
  8
1
  6
CONTINUOUS
 10
3527.378013
 20
5454.8880289999997
 30
0.0
 11
3527.378013
 21
5624.8880289999997
 31
0.0
  0
LINE
  5
7B96
  8
1
  6
CONTINUOUS
 10
3597.3780130000009
 20
6399.8880289999988
 30
0.0
 11
3597.3780130000009
 21
6514.8880289999988
 31
0.0
  0
LINE
  5
7B97
  8
1
  6
CONTINUOUS
 10
3547.3780130000009
 20
6399.8880289999988
 30
0.0
 11
3547.3780130000009
 21
6514.8880289999988
 31
0.0
  0
LINE
  5
7B98
  8
1
  6
CONTINUOUS
 10
3547.3780130000009
 20
6514.8880289999988
 30
0.0
 11
3597.3780130000009
 21
6514.8880289999988
 31
0.0
  0
LINE
  5
7BCB
  8
2
  6
CENTER
 10
3753.8644079999999
 20
6012.8880289999988
 30
0.0
 11
1561.714146
 21
6012.8880289999988
 31
0.0
  0
LINE
  5
7BCC
  8
2
  6
CENTER
 10
4913.0318420000003
 20
4379.5038169999989
 30
0.0
 11
4913.0318420000003
 21
4367.9259979999988
 31
0.0
  0
LINE
  5
7BCD
  8
2
  6
CENTER
 10
2367.378013
 20
5293.1074779999999
 30
0.0
 11
2367.378013
 21
6574.9756010000001
 31
0.0
  0
LINE
  5
7BCE
  8
2
  6
CENTER
 10
3309.3087449999998
 20
3395.6390070000002
 30
0.0
 11
1595.322705
 21
3395.6390070000002
 31
0.0
  0
LINE
  5
7BCF
  8
4
  6
CONTINUOUS
 10
5550.0
 20
1500.0
 30
0.0
 11
5550.0
 21
900.0
 31
0.0
  0
LINE
  5
7BD0
  8
4
  6
CONTINUOUS
 10
3450.0
 20
1500.0
 30
0.0
 11
3450.0
 21
900.0
 31
0.0
  0
LINE
  5
7BD1
  8
4
  6
CONTINUOUS
 10
1950.0
 20
1500.0
 30
0.0
 11
1950.0
 21
900.0
 31
0.0
  0
LINE
  5
7BD4
  8
4
  6
CONTINUOUS
 10
1950.0
 20
900.0
 30
0.0
 11
5550.0
 21
900.0
 31
0.0
  0
LINE
  5
7BD5
  8
4
  6
CONTINUOUS
 10
1950.0
 20
1200.0
 30
0.0
 11
5550.0
 21
1200.0
 31
0.0
  0
TEXT
  5
7BD6
  8
4
  6
CONTINUOUS
 10
2065.5062429999989
 20
1294.6290779999999
 30
0.0
 40
150.0
  1
機器名称
  0
TEXT
  5
7BD7
  8
4
  6
CONTINUOUS
 10
2058.7743179999989
 20
964.9354699999999
 30
0.0
 40
150.0
  1
機器型番
  0
TEXT
  5
7BD8
  8
4
  6
CONTINUOUS
 10
3533.0362359999999
 20
1267.7153069999999
 30
0.0
 40
150.0
  1
ミツヤ多翼送風機
  0
TEXT
  5
7BD9
  8
4
  6
CONTINUOUS
 10
3559.9634869999991
 20
951.47875299999987
 30
0.0
 40
150.0
  1
MF#5 1/2-4
  0
TEXT
  5
7BDB
  8
4
  6
CONTINUOUS
 10
2253.3475339999991
 20
7150.2865239999992
 30
0.0
 40
162.0
  1
天井吊防振ベット
  0
TEXT
  5
7BDC
  8
4
  6
CONTINUOUS
 10
948.50278000000014
 20
7601.6429289999996
 30
0.0
 40
216.0
  1
ベルト駆動式片吸込両持多翼ファン
  0
LINE
  5
7BDD
  8
4
  6
CONTINUOUS
 10
750.0
 20
7408.2262629999996
 30
0.0
 11
5550.0
 21
7408.2262629999996
 31
0.0
  0
LINE
  5
7BDE
  8
4
  6
CONTINUOUS
 10
750.0
 20
8008.2262629999996
 30
0.0
 11
5550.0
 21
8008.2262629999996
 31
0.0
  0
LINE
  5
7BDF
  8
4
  6
CONTINUOUS
 10
1950.0
 20
1500.0
 30
0.0
 11
5550.0
 21
1500.0
 31
0.0
  0
LINE
  5
7BE0
  8
4
  6
CONTINUOUS
 10
750.0
 20
8008.2262629999996
 30
0.0
 11
750.0
 21
7408.2262629999996
 31
0.0
  0
TEXT
  5
7BE1
  8
4
  6
CONTINUOUS
 10
945.77103699999986
 20
7146.9584329999998
 30
0.0
 40
162.0
  1
右回転左横向
  0
TEXT
  5
7BE2
  8
4
  6
CONTINUOUS
 10
4406.9086779999989
 20
8118.1832439999989
 30
0.0
 40
168.0
  1
No.
  0
TEXT
  5
7BE3
  8
4
  6
CONTINUOUS
 10
3933.8881879999999
 20
7150.2865239999992
 30
0.0
 40
162.0
  1
縮尺：1/30
  0
LINE
  5
7BE4
  8
4
  6
CONTINUOUS
 10
5550.0
 20
8008.2262629999996
 30
0.0
 11
5550.0
 21
7408.2262629999996
 31
0.0
  0
LINE
  5
7BE6
  8
4
  6
CONTINUOUS
 10
4321.8522670000002
 20
8043.7907490000007
 30
0.0
 11
4321.8522670000002
 21
8359.9567849999985
 31
0.0
  0
LINE
  5
7BE7
  8
4
  6
CONTINUOUS
 10
4321.8522670000002
 20
8359.9567849999985
 30
0.0
 11
5550.0
 21
8359.9567849999985
 31
0.0
  0
LINE
  5
7BE8
  8
4
  6
CONTINUOUS
 10
5550.0
 20
8359.9567849999985
 30
0.0
 11
5550.0
 21
8043.7907490000007
 31
0.0
  0
LINE
  5
7BE9
  8
4
  6
CONTINUOUS
 10
5550.0
 20
8043.7907490000007
 30
0.0
 11
4321.8522670000002
 21
8043.7907490000007
 31
0.0
  0
DIMENSION
  5
7BFA
  8
3
  6
CONTINUOUS
  2
*D1
 10
1538.869371
 20
2512.6390070000002
 30
0.0
 11
1538.869371
 21
2946.6524639999998
 31
0.0
 70
   128
 13
1712.3780129999991
 23
3437.6390070000002
 33
0.0
 14
1712.3780129999991
 24
2512.6390070000002
 34
0.0
 50
90.0
1001
ACAD
1000
DSTYLE
1002
{
1070
   287
1070
     3
1070
    40
1040
30.0
1070
   143
1040
0.039
1070
   172
1070
     1
1070
   271
1070
     0
1070
   279
1070
     0
1070
   288
1070
     1
1002
}
  0
DIMENSION
  5
7C07
  8
3
  6
CONTINUOUS
  2
*D2
 10
1295.987723
 20
2512.6390070000002
 30
0.0
 11
1295.987723
 21
2961.3637279999998
 31
0.0
 70
   128
 13
1595.322705
 23
3395.6390070000002
 33
0.0
 14
1712.3780129999991
 24
2512.6390070000002
 34
0.0
 50
90.0
1001
ACAD
1000
DSTYLE
1002
{
1070
   287
1070
     3
1070
    40
1040
30.0
1070
   143
1040
0.039
1070
   172
1070
     1
1070
   271
1070
     0
1070
   279
1070
     0
1070
   288
1070
     1
1002
}
  0
DIMENSION
  5
7C4A
  8
3
  6
CONTINUOUS
  2
*D3
 10
2367.378013
 20
1919.50847
 30
0.0
 11
2075.418764999999
 21
1919.50847
 31
0.0
 70
   128
 13
1747.3780129999991
 23
2164.6390070000002
 33
0.0
 14
2367.378013
 24
2041.0277510000001
 34
0.0
1001
ACAD
1000
DSTYLE
1002
{
1070
   287
1070
     3
1070
    40
1040
30.0
1070
   143
1040
0.039
1070
   172
1070
     1
1070
   271
1070
     0
1070
   279
1070
     0
1070
   288
1070
     1
1002
}
  0
DIMENSION
  5
7C56
  8
3
  6
CONTINUOUS
  2
*D4
 10
3597.3780130000009
 20
1919.50847
 30
0.0
 11
2982.378013
 21
1994.5084699999991
 31
0.0
 70
     0
 13
2367.378013
 23
2041.0277510000001
 33
0.0
 14
3597.3780130000009
 24
2164.6390070000002
 34
0.0
1001
ACAD
1000
DSTYLE
1002
{
1070
   287
1070
     4
1070
    40
1040
30.0
1070
    75
1070
     1
1070
   143
1040
0.039
1070
   172
1070
     1
1070
   271
1070
     0
1070
   279
1070
     1
1070
   288
1070
     1
1002
}
  0
DIMENSION
  5
7C63
  8
3
  6
CONTINUOUS
  2
*D5
 10
2367.378013
 20
4255.9548009999999
 30
0.0
 11
2060.6986639999991
 21
4255.9548009999999
 31
0.0
 70
   128
 13
1712.3780129999991
 23
3480.1390070000002
 33
0.0
 14
2367.378013
 24
4159.158093
 34
0.0
1001
ACAD
1000
DSTYLE
1002
{
1070
   287
1070
     3
1070
    40
1040
30.0
1070
   143
1040
0.039
1070
   172
1070
     1
1070
   271
1070
     0
1070
   279
1070
     0
1070
   288
1070
     1
1002
}
  0
DIMENSION
  5
7C7C
  8
3
  6
CONTINUOUS
  2
*D6
 10
5248.0318420000003
 20
4226.5322930000002
 30
0.0
 11
4927.5695029999997
 21
4226.5322930000002
 31
0.0
 70
   128
 13
4578.0318420000003
 23
4040.4353500000002
 33
0.0
 14
5248.0318420000003
 24
4040.4353500000002
 34
0.0
1001
ACAD
1000
DSTYLE
1002
{
1070
   287
1070
     3
1070
    40
1040
30.0
1070
   143
1040
0.039
1070
   172
1070
     1
1070
   271
1070
     0
1070
   279
1070
     0
1070
   288
1070
     1
1002
}
  0
LINE
  5
7C7D
  8
1
  6
CONTINUOUS
 10
5252.0318420000003
 20
3870.6390070000002
 30
0.0
 11
5252.0318420000003
 21
2920.6390070000002
 31
0.0
  0
DIMENSION
  5
7C8C
  8
3
  6
CONTINUOUS
  2
*D7
 10
5523.7336009999999
 20
2920.6390070000002
 30
0.0
 11
5523.733600999999
 21
3402.7015880000008
 31
0.0
 70
   128
 13
5252.0318420000003
 23
3870.6390070000002
 33
0.0
 14
5252.0318420000003
 24
2920.6390070000002
 34
0.0
 50
90.0
1001
ACAD
1000
DSTYLE
1002
{
1070
   287
1070
     3
1070
     3
1000
φ<>
1070
    40
1040
30.0
1070
   143
1040
0.039
1070
   172
1070
     1
1070
   271
1070
     0
1070
   279
1070
     0
1070
   288
1070
     1
1002
}
  0
DIMENSION
  5
7C9B
  8
3
  6
CONTINUOUS
  2
*D8
 10
4913.0318420000003
 20
4454.5568450000001
 30
0.0
 11
5082.5318420000003
 21
4550.9800173811063
 31
0.0
 70
   128
 13
5252.0318420000003
 23
3870.6390070000002
 33
0.0
 14
4913.0318420000003
 24
4379.5038169999989
 34
0.0
1001
ACAD
1000
DSTYLE
1002
{
1070
   288
1070
     1
1070
   172
1070
     1
1070
    40
1040
30.0
1070
   271
1070
     0
1070
   143
1040
0.039
1002
}
  0
DIMENSION
  5
7CA7
  8
3
  6
CONTINUOUS
  2
*D9
 10
4303.0318420000012
 20
4454.5568450000001
 30
0.0
 11
4608.0318420000003
 21
4604.5568450000001
 31
0.0
 70
     0
  1
MAX\P640
 13
4913.0318420000003
 23
4379.5038169999989
 33
0.0
 14
4303.0318420000012
 24
3835.6390070000002
 34
0.0
1001
ACAD
1000
DSTYLE
1002
{
1070
   287
1070
     4
1070
    40
1040
30.0
1070
    75
1070
     1
1070
   143
1040
0.039
1070
   172
1070
     1
1070
   271
1070
     0
1070
   279
1070
     1
1070
   288
1070
     1
1002
}
  0
DIMENSION
  5
7CB4
  8
3
  6
CONTINUOUS
  2
*D10
 10
4913.0318420000003
 20
1941.575366
 30
0.0
 11
4596.3672500000002
 21
1941.575366
 31
0.0
 70
   128
 13
4265.0318420000003
 23
2164.6390070000002
 33
0.0
 14
4913.0318420000003
 24
2022.028982999999
 34
0.0
1001
ACAD
1000
DSTYLE
1002
{
1070
   287
1070
     3
1070
    40
1040
30.0
1070
   143
1040
0.039
1070
   172
1070
     1
1070
   271
1070
     0
1070
   279
1070
     0
1070
   288
1070
     1
1002
}
  0
DIMENSION
  5
7CC0
  8
3
  6
CONTINUOUS
  2
*D11
 10
5415.0318420000012
 20
1941.575366
 30
0.0
 11
5164.0318420000003
 21
2016.575366
 31
0.0
 70
     0
 13
4913.0318420000003
 23
2022.028982999999
 33
0.0
 14
5415.0318420000012
 24
2164.6390070000002
 34
0.0
1001
ACAD
1000
DSTYLE
1002
{
1070
   287
1070
     4
1070
    40
1040
30.0
1070
    75
1070
     1
1070
   143
1040
0.039
1070
   172
1070
     1
1070
   271
1070
     0
1070
   279
1070
     1
1070
   288
1070
     1
1002
}
  0
LINE
  5
7CD8
  8
2
  6
CENTER
 10
4913.0318420000003
 20
4235.8070610000004
 30
0.0
 11
4913.0318420000003
 21
2012.028982999999
 31
0.0
  0
DIMENSION
  5
7CE5
  8
3
  6
CONTINUOUS
  2
*D12
 10
3597.3780130000009
 20
6651.0913840000003
 30
0.0
 11
2634.7825639999992
 21
6651.0913840000003
 31
0.0
 70
   128
 13
1747.3780129999991
 23
6514.8880289999988
 33
0.0
 14
3597.3780130000009
 24
6514.8880289999988
 34
0.0
1001
ACAD
1000
DSTYLE
1002
{
1070
   287
1070
     3
1070
    40
1040
30.0
1070
   143
1040
0.039
1070
   172
1070
     1
1070
   271
1070
     0
1070
   279
1070
     0
1070
   288
1070
     1
1002
}
  0
DIMENSION
  5
7CF2
  8
3
  6
CONTINUOUS
  2
*D13
 10
3908.071269
 20
5364.8880289999997
 30
0.0
 11
3908.071269
 21
5959.6620549999989
 31
0.0
 70
   128
 13
3597.3780130000009
 23
6514.8880289999988
 33
0.0
 14
3597.3780130000009
 24
5364.8880289999997
 34
0.0
 50
90.0
1001
ACAD
1000
DSTYLE
1002
{
1070
   287
1070
     3
1070
    40
1040
30.0
1070
   143
1040
0.039
1070
   172
1070
     1
1070
   271
1070
     0
1070
   279
1070
     0
1070
   288
1070
     1
1002
}
  0
DIMENSION
  5
7D04
  8
3
  6
CONTINUOUS
  2
*D14
 10
1099.714878
 20
3395.6390070000002
 30
0.0
 11
1099.714878
 21
3718.0593079999999
 31
0.0
 70
   128
 13
2367.378013
 23
4038.6339500638819
 33
0.0
 14
1580.322705
 24
3395.6390070000002
 34
0.0
 50
90.0
1001
ACAD
1000
DSTYLE
1002
{
1070
   287
1070
     3
1070
    40
1040
30.0
1070
   143
1040
0.039
1070
   172
1070
     1
1070
   271
1070
     0
1070
   279
1070
     0
1070
   288
1070
     1
1002
}
  0
DIMENSION
  5
7D10
  8
3
  6
CONTINUOUS
  2
*D15
 10
1099.714878
 20
2305.6390070000002
 30
0.0
 11
1024.7148779999991
 21
2850.6390070000011
 31
0.0
 70
     0
 13
1580.322705
 23
3395.6390070000002
 33
0.0
 14
1797.3780129999991
 24
2305.6390070000002
 34
0.0
 50
90.0
1001
ACAD
1000
DSTYLE
1002
{
1070
   287
1070
     4
1070
    40
1040
30.0
1070
    75
1070
     1
1070
   143
1040
0.039
1070
   172
1070
     1
1070
   271
1070
     0
1070
   279
1070
     1
1070
   288
1070
     1
1002
}
  0
DIMENSION
  5
7D20
  8
3
  6
CONTINUOUS
  2
*D16
 10
1099.714878
 20
2164.6390070000002
 30
0.0
 11
1099.714878
 21
1926.7818641428571
 31
0.0
 70
   128
 13
1797.3780129999991
 23
2305.6390070000002
 33
0.0
 14
1747.3780129999991
 24
2164.6390070000002
 34
0.0
 50
90.0
1001
ACAD
1000
DSTYLE
1002
{
1070
   287
1070
     3
1070
    40
1040
30.0
1070
   143
1040
0.039
1070
   172
1070
     1
1070
   271
1070
     0
1070
   279
1070
     0
1070
   288
1070
     1
1002
}
  0
DIMENSION
  5
7D53
  8
3
  6
CONTINUOUS
  2
*D17
 10
3110.3780139999999
 20
4255.9548009999999
 30
0.0
 11
2738.8780134999988
 21
4330.954800999999
 31
0.0
 70
     0
 13
2367.378013
 23
4159.158093
 33
0.0
 14
3110.3780139999999
 24
3395.6390070000002
 34
0.0
1001
ACAD
1000
DSTYLE
1002
{
1070
   287
1070
     4
1070
    40
1040
30.0
1070
    75
1070
     1
1070
   143
1040
0.039
1070
   172
1070
     1
1070
   271
1070
     0
1070
   279
1070
     1
1070
   288
1070
     1
1002
}
  0
DIMENSION
  5
7D9A
  8
3
  2
*D18
 10
3597.3780130000009
 20
4438.234954432166
 30
0.0
 11
2687.7003228585741
 21
4438.234954432166
 31
0.0
 70
   128
 13
1712.3780129999991
 23
3480.1390070000002
 33
0.0
 14
3597.3780130000009
 24
2264.6390070000002
 34
0.0
1001
ACAD
1000
DSTYLE
1002
{
1070
   287
1070
     3
1070
    40
1040
30.0
1070
   143
1040
0.039
1070
   172
1070
     1
1070
   271
1070
     0
1070
   279
1070
     0
1070
   288
1070
     1
1002
}
  0
LINE
  5
7DE5
  8
1
  6
CONTINUOUS
 10
1807.378013
 20
3525.6390070000002
 30
0.0
 11
2927.378013
 21
3525.6390070000002
 31
0.0
  0
LINE
  5
7DE6
  8
1
 10
1807.378013
 20
2405.6390070000002
 30
0.0
 11
1807.378013
 21
3525.6390070000002
 31
0.0
  0
LINE
  5
7DE7
  8
1
 10
2927.378013
 20
2405.6390070000002
 30
0.0
 11
2927.378013
 21
3525.6390070000002
 31
0.0
  0
ENDSEC
  0
EOF
