  0
SECTION
  2
HEADER
  9
$ACADVER
  1
AC1009
  9
$INSBASE
 10
0.0
 20
0.0
 30
0.0
  9
$EXTMIN
 10
750.0
 20
900.0
 30
0.0
  9
$EXTMAX
 10
5550.0
 20
8359.9567849999985
 30
0.0
  9
$LIMMIN
 10
0.0
 20
0.0
  9
$LIMMAX
 10
297.0
 20
210.0
  9
$ORTHOMODE
 70
     0
  9
$REGENMODE
 70
     1
  9
$FILLMODE
 70
     0
  9
$QTEXTMODE
 70
     0
  9
$MIRRTEXT
 70
     1
  9
$DRAGMODE
 70
     2
  9
$LTSCALE
 40
100.0
  9
$OSMODE
 70
    37
  9
$ATTMODE
 70
     1
  9
$TEXTSIZE
 40
180.0
  9
$TRACEWID
 40
0.05
  9
$TEXTSTYLE
  7
STANDARD
  9
$CLAYER
  8
3
  9
$CELTYPE
  6
BYLAYER
  9
$CECOLOR
 62
   256
  9
$DIMSCALE
 40
30.0
  9
$DIMASZ
 40
2.0
  9
$DIMEXO
 40
0.5
  9
$DIMDLI
 40
10.0
  9
$DIMRND
 40
0.0
  9
$DIMDLE
 40
0.0
  9
$DIMEXE
 40
1.0
  9
$DIMTP
 40
1.0
  9
$DIMTM
 40
1.0
  9
$DIMTXT
 40
3.0
  9
$DIMCEN
 40
0.0
  9
$DIMTSZ
 40
0.0
  9
$DIMTOL
 70
     0
  9
$DIMLIM
 70
     0
  9
$DIMTIH
 70
     0
  9
$DIMTOH
 70
     0
  9
$DIMSE1
 70
     0
  9
$DIMSE2
 70
     0
  9
$DIMTAD
 70
     1
  9
$DIMZIN
 70
     8
  9
$DIMBLK
  1

  9
$DIMASO
 70
     1
  9
$DIMSHO
 70
     1
  9
$DIMPOST
  1

  9
$DIMAPOST
  1

  9
$DIMALT
 70
     0
  9
$DIMALTD
 70
     2
  9
$DIMALTF
 40
0.039
  9
$DIMLFAC
 40
1.0
  9
$DIMTOFL
 70
     1
  9
$DIMTVP
 40
0.0
  9
$DIMTIX
 70
     0
  9
$DIMSOXD
 70
     0
  9
$DIMSAH
 70
     1
  9
$DIMBLK1
  1
OPEN
  9
$DIMBLK2
  1
OPEN
  9
$DIMSTYLE
  2
IGA
  9
$DIMCLRD
 70
     0
  9
$DIMCLRE
 70
     0
  9
$DIMCLRT
 70
     0
  9
$DIMTFAC
 40
10.0
  9
$DIMGAP
 40
1.0
  9
$LUNITS
 70
     2
  9
$LUPREC
 70
     3
  9
$SKETCHINC
 40
0.1
  9
$FILLETRAD
 40
50.0
  9
$AUNITS
 70
     0
  9
$AUPREC
 70
     0
  9
$MENU
  1
acad
  9
$ELEVATION
 40
0.0
  9
$PELEVATION
 40
0.0
  9
$THICKNESS
 40
0.0
  9
$LIMCHECK
 70
     0
  9
$BLIPMODE
 70
     0
  9
$CHAMFERA
 40
0.5
  9
$CHAMFERB
 40
0.5
  9
$SKPOLY
 70
     0
  9
$TDCREATE
 40
2450752.438220833
  9
$TDUPDATE
 40
2454953.7764360881
  9
$TDINDWG
 40
0.0405794792
  9
$TDUSRTIMER
 40
0.0405794792
  9
$USRTIMER
 70
     1
  9
$ANGBASE
 50
0.0
  9
$ANGDIR
 70
     0
  9
$PDMODE
 70
     0
  9
$PDSIZE
 40
0.0
  9
$PLINEWID
 40
0.0
  9
$COORDS
 70
     1
  9
$SPLFRAME
 70
     0
  9
$SPLINETYPE
 70
     6
  9
$SPLINESEGS
 70
     8
  9
$ATTDIA
 70
     0
  9
$ATTREQ
 70
     1
  9
$HANDLING
 70
 10241
  9
$HANDSEED
  5
7DDB
  9
$SURFTAB1
 70
     6
  9
$SURFTAB2
 70
     6
  9
$SURFTYPE
 70
     6
  9
$SURFU
 70
     6
  9
$SURFV
 70
     6
  9
$UCSNAME
  2

  9
$UCSORG
 10
0.0
 20
0.0
 30
0.0
  9
$UCSXDIR
 10
1.0
 20
0.0
 30
0.0
  9
$UCSYDIR
 10
0.0
 20
1.0
 30
0.0
  9
$PUCSNAME
  2

  9
$PUCSORG
 10
0.0
 20
0.0
 30
0.0
  9
$PUCSXDIR
 10
1.0
 20
0.0
 30
0.0
  9
$PUCSYDIR
 10
0.0
 20
1.0
 30
0.0
  9
$USERI1
 70
     0
  9
$USERI2
 70
     0
  9
$USERI3
 70
     0
  9
$USERI4
 70
     0
  9
$USERI5
 70
     0
  9
$USERR1
 40
0.0
  9
$USERR2
 40
0.0
  9
$USERR3
 40
0.0
  9
$USERR4
 40
0.0
  9
$USERR5
 40
0.0
  9
$WORLDVIEW
 70
     1
  9
$SHADEDGE
 70
     3
  9
$SHADEDIF
 70
    70
  9
$TILEMODE
 70
     1
  9
$MAXACTVP
 70
    16
  9
$PLIMCHECK
 70
     0
  9
$PEXTMIN
 10
1.0000000000000000E+020
 20
1.0000000000000000E+020
 30
1.0000000000000000E+020
  9
$PEXTMAX
 10
-1.0000000000000000E+020
 20
-1.0000000000000000E+020
 30
-1.0000000000000000E+020
  9
$PLIMMIN
 10
0.0
 20
0.0
  9
$PLIMMAX
 10
12.0
 20
9.0
  9
$UNITMODE
 70
     0
  9
$VISRETAIN
 70
     0
  9
$PLINEGEN
 70
     0
  9
$PSLTSCALE
 70
     1
  0
ENDSEC
  0
SECTION
  2
TABLES
  0
TABLE
  2
VPORT
 70
     2
  0
VPORT
  2
*ACTIVE
 70
     0
 10
0.0
 20
0.0
 11
1.0
 21
1.0
 12
9438.1687158055174
 22
4629.9562499988788
 13
0.0
 23
0.0
 14
10.0
 24
10.0
 15
10.0
 25
10.0
 16
0.0
 26
0.0
 36
1.0
 17
0.0
 27
0.0
 37
0.0
 40
7517.2452868940854
 41
3.1666666666666661
 42
50.0
 43
0.0
 44
0.0
 50
0.0
 51
0.0
 71
     0
 72
   100
 73
     1
 74
     0
 75
     0
 76
     0
 77
     0
 78
     0
  0
ENDTAB
  0
TABLE
  2
LTYPE
 70
     2
  0
LTYPE
  2
CONTINUOUS
 70
     0
  3
Solid line
 72
    65
 73
     0
 40
0.0
  0
LTYPE
  2
CENTER
 70
     0
  3
____ _ ____ _ ____ _ ____ _ ____ _ ____ _ ____ 
 72
    65
 73
     4
 40
2.0
 49
1.25
 49
-0.25
 49
0.25
 49
-0.25
  0
ENDTAB
  0
TABLE
  2
LAYER
 70
     6
  0
LAYER
  2
0
 70
     0
 62
     7
  6
CONTINUOUS
  0
LAYER
  2
3
 70
     0
 62
     2
  6
CONTINUOUS
  0
LAYER
  2
2
 70
     0
 62
     3
  6
CENTER
  0
LAYER
  2
1
 70
     0
 62
     4
  6
CONTINUOUS
  0
LAYER
  2
4
 70
     0
 62
     7
  6
CONTINUOUS
  0
LAYER
  2
DEFPOINTS
 70
     0
 62
     7
  6
CONTINUOUS
  0
ENDTAB
  0
TABLE
  2
STYLE
 70
     1
  0
STYLE
  2
STANDARD
 70
     0
 40
0.0
 41
1.0
 50
0.0
 71
     0
 42
180.0
  3
simplex.shx
  4
extfont.shx
  0
ENDTAB
  0
TABLE
  2
VIEW
 70
     0
  0
ENDTAB
  0
TABLE
  2
UCS
 70
     0
  0
ENDTAB
  0
TABLE
  2
APPID
 70
     1
  0
APPID
  2
ACAD
 70
     0
  0
ENDTAB
  0
TABLE
  2
DIMSTYLE
 70
     1
  0
DIMSTYLE
  2
IGA
 70
     0
  3

  4

  5

  6
OPEN
  7
OPEN
 40
2.0
 41
2.0
 42
0.5
 43
10.0
 44
1.0
 45
0.0
 46
0.0
 47
1.0
 48
1.0
140
3.0
141
0.0
142
0.0
143
0.03937
144
1.0
145
0.0
146
10.0
147
1.0
 71
     0
 72
     0
 73
     0
 74
     0
 75
     0
 76
     0
 77
     1
 78
     8
170
     0
171
     2
172
     0
173
     1
174
     0
175
     0
176
     0
177
     0
178
     0
  0
ENDTAB
  0
ENDSEC
  0
SECTION
  2
BLOCKS
  0
BLOCK
  8
0
  2
$MODEL_SPACE
 70
     0
 10
0.0
 20
0.0
 30
0.0
  3
$MODEL_SPACE
  1

  0
ENDBLK
  5
1B
  8
0
  0
BLOCK
 67
     1
  8
0
  2
$PAPER_SPACE
 70
     0
 10
0.0
 20
0.0
 30
0.0
  3
$PAPER_SPACE
  1

  0
ENDBLK
  5
18
 67
     1
  8
0
  0
BLOCK
  8
0
  2
_OPEN
 70
     0
 10
0.0
 20
0.0
 30
0.0
  3
_OPEN
  1

  0
LINE
  5
7B11
  8
0
  6
BYBLOCK
 62
     0
 10
-1.0
 20
0.166667
 30
0.0
 11
0.0
 21
0.0
 31
0.0
  0
LINE
  5
7B12
  8
0
  6
BYBLOCK
 62
     0
 10
0.0
 20
0.0
 30
0.0
 11
-1.0
 21
-0.166667
 31
0.0
  0
LINE
  5
7B13
  8
0
  6
BYBLOCK
 62
     0
 10
0.0
 20
0.0
 30
0.0
 11
-1.0
 21
0.0
 31
0.0
  0
ENDBLK
  5
7B14
  8
0
  0
BLOCK
  8
0
  2
*D1
 70
     1
 10
0.0
 20
0.0
 30
0.0
  3
*D1
  1

  0
LINE
  5
7D3D
  8
3
  6
CONTINUOUS
 62
     0
 10
1247.060387
 20
3849.2102340000001
 30
0.0
 11
1247.060387
 21
4001.6137159999998
 31
0.0
  0
LINE
  5
7D3E
  8
3
  6
CONTINUOUS
 62
     0
 10
2172.060387
 20
3849.2102340000001
 30
0.0
 11
2172.060387
 21
4001.6137159999998
 31
0.0
  0
LINE
  5
7D3F
  8
3
  6
CONTINUOUS
 62
     0
 10
1307.0603869999991
 20
3971.6137159999998
 30
0.0
 11
2112.060387
 21
3971.6137159999998
 31
0.0
  0
INSERT
  5
7D40
  8
3
  6
CONTINUOUS
 62
     0
  2
_OPEN
 10
1247.060387
 20
3971.6137159999998
 30
0.0
 41
60.0
 42
60.0
 43
60.0
 50
180.0
  0
INSERT
  5
7D41
  8
3
  6
CONTINUOUS
 62
     0
  2
_OPEN
 10
2172.060387
 20
3971.6137159999998
 30
0.0
 41
60.0
 42
60.0
 43
60.0
  0
TEXT
  8
3
  40
90
  5
7DCA
  62
0
  72
0
  71
0
 10
1547.17
 20
3887.31
 30
0.000000
  1
925
  0
POINT
  5
7D43
  8
DEFPOINTS
  6
CONTINUOUS
 62
     0
 10
1247.060387
 20
3834.2102340000001
 30
0.0
  0
POINT
  5
7D44
  8
DEFPOINTS
  6
CONTINUOUS
 62
     0
 10
2172.060387
 20
3834.2102340000001
 30
0.0
  0
POINT
  5
7D45
  8
DEFPOINTS
  6
CONTINUOUS
 62
     0
 10
2172.060387
 20
3971.6137159999998
 30
0.0
  0
ENDBLK
  5
7C64
  8
0
  0
BLOCK
  8
0
  2
*D2
 70
     1
 10
0.0
 20
0.0
 30
0.0
  3
*D2
  1

  0
LINE
  5
7D46
  8
3
  6
CONTINUOUS
 62
     0
 10
1247.060387
 20
3849.2102340000001
 30
0.0
 11
1247.060387
 21
4185.9168119999986
 31
0.0
  0
LINE
  5
7D47
  8
3
  6
CONTINUOUS
 62
     0
 10
2130.0603869999991
 20
4017.4166799999998
 30
0.0
 11
2130.0603869999991
 21
4185.9168119999986
 31
0.0
  0
LINE
  5
7D48
  8
3
  6
CONTINUOUS
 62
     0
 10
1307.0603869999991
 20
4155.9168120000004
 30
0.0
 11
2070.060387
 21
4155.9168120000004
 31
0.0
  0
INSERT
  5
7D49
  8
3
  6
CONTINUOUS
 62
     0
  2
_OPEN
 10
1247.060387
 20
4155.9168120000004
 30
0.0
 41
60.0
 42
60.0
 43
60.0
 50
180.0
  0
INSERT
  5
7D4A
  8
3
  6
CONTINUOUS
 62
     0
  2
_OPEN
 10
2130.0603869999991
 20
4155.9168120000004
 30
0.0
 41
60.0
 42
60.0
 43
60.0
  0
TEXT
  8
3
  40
90
  5
7DCB
  62
0
  72
0
  71
0
 10
1547.17
 20
4071.62
 30
0.000000
  1
883
  0
POINT
  5
7D4C
  8
DEFPOINTS
  6
CONTINUOUS
 62
     0
 10
1247.060387
 20
3834.2102340000001
 30
0.0
  0
POINT
  5
7D4D
  8
DEFPOINTS
  6
CONTINUOUS
 62
     0
 10
2130.0603869999991
 20
4002.4166799999989
 30
0.0
  0
POINT
  5
7D4E
  8
DEFPOINTS
  6
CONTINUOUS
 62
     0
 10
2130.0603869999991
 20
4155.9168120000004
 30
0.0
  0
ENDBLK
  5
7C59
  8
0
  0
BLOCK
  8
0
  2
*D3
 70
     1
 10
0.0
 20
0.0
 30
0.0
  3
*D3
  1

  0
LINE
  5
7D4F
  8
3
  6
CONTINUOUS
 62
     0
 10
2229.560387
 20
3834.2102340000001
 30
0.0
 11
3055.4467199999999
 21
3834.2102340000001
 31
0.0
  0
LINE
  5
7D50
  8
3
  6
CONTINUOUS
 62
     0
 10
2954.8997509999999
 20
3179.2102340000001
 30
0.0
 11
3055.4467199999999
 21
3179.2102340000001
 31
0.0
  0
LINE
  5
7D51
  8
3
  6
CONTINUOUS
 62
     0
 10
3025.4467200000008
 20
3774.210234000001
 30
0.0
 11
3025.4467200000008
 21
3239.2102340000001
 31
0.0
  0
INSERT
  5
7D52
  8
3
  6
CONTINUOUS
 62
     0
  2
_OPEN
 10
3025.4467200000008
 20
3834.2102340000001
 30
0.0
 41
60.0
 42
60.0
 43
60.0
 50
90.0
  0
INSERT
  5
7D53
  8
3
  6
CONTINUOUS
 62
     0
  2
_OPEN
 10
3025.4467200000008
 20
3179.2102340000001
 30
0.0
 41
60.0
 42
60.0
 43
60.0
 50
270.0
  0
TEXT
  8
3
  40
90
  5
7DCC
  62
0
  72
0
  71
0
 10
2770.45
 20
3298.66
 30
0.000000
  1
655
  0
POINT
  5
7D55
  8
DEFPOINTS
  6
CONTINUOUS
 62
     0
 10
2214.560387
 20
3834.2102340000001
 30
0.0
  0
POINT
  5
7D56
  8
DEFPOINTS
  6
CONTINUOUS
 62
     0
 10
2939.8997509999999
 20
3179.2102340000001
 30
0.0
  0
POINT
  5
7D57
  8
DEFPOINTS
  6
CONTINUOUS
 62
     0
 10
3025.4467200000008
 20
3179.2102340000001
 30
0.0
  0
ENDBLK
  5
7B47
  8
0
  0
BLOCK
  8
0
  2
*D4
 70
     1
 10
0.0
 20
0.0
 30
0.0
  3
*D4
  1

  0
LINE
  5
7D58
  8
3
  6
CONTINUOUS
 62
     0
 10
2715.060387
 20
2414.2102340000001
 30
0.0
 11
3055.4467199999999
 21
2414.2102340000001
 31
0.0
  0
LINE
  5
7D59
  8
3
  6
CONTINUOUS
 62
     0
 10
3025.4467199999999
 20
3119.2102340000001
 30
0.0
 11
3025.4467199999999
 21
2474.2102340000001
 31
0.0
  0
INSERT
  5
7D5A
  8
3
  6
CONTINUOUS
 62
     0
  2
_OPEN
 10
3025.4467199999999
 20
3179.2102340000001
 30
0.0
 41
60.0
 42
60.0
 43
60.0
 50
90.0
  0
INSERT
  5
7D5B
  8
3
  6
CONTINUOUS
 62
     0
  2
_OPEN
 10
3025.4467199999999
 20
2414.2102340000001
 30
0.0
 41
60.0
 42
60.0
 43
60.0
 50
270.0
  0
TEXT
  8
3
  40
90
  5
7DCD
  62
0
  72
0
  71
0
 10
2770.45
 20
2637.41
 30
0.000000
  1
765
  0
POINT
  5
7D5D
  8
DEFPOINTS
  6
CONTINUOUS
 62
     0
 10
2939.8997509999999
 20
3179.2102340000001
 30
0.0
  0
POINT
  5
7D5E
  8
DEFPOINTS
  6
CONTINUOUS
 62
     0
 10
2700.060387
 20
2414.2102340000001
 30
0.0
  0
POINT
  5
7D5F
  8
DEFPOINTS
  6
CONTINUOUS
 62
     0
 10
3025.4467199999999
 20
2414.2102340000001
 30
0.0
  0
ENDBLK
  5
7B53
  8
0
  0
BLOCK
  8
0
  2
*D5
 70
     1
 10
0.0
 20
0.0
 30
0.0
  3
*D5
  1

  0
LINE
  5
7D60
  8
3
  6
CONTINUOUS
 62
     0
 10
2715.060387
 20
2414.2102340000001
 30
0.0
 11
3053.5501610000001
 21
2414.2102340000001
 31
0.0
  0
LINE
  5
7D61
  8
3
  6
CONTINUOUS
 62
     0
 10
2765.060387
 20
2273.2102339999992
 30
0.0
 11
3053.5501610000001
 21
2273.2102339999992
 31
0.0
  0
LINE
  5
7D62
  8
3
  6
CONTINUOUS
 62
     0
 10
3023.550161000001
 20
2474.2102340000001
 30
0.0
 11
3023.550161000001
 21
2534.2102340000001
 31
0.0
  0
LINE
  5
7D63
  8
3
  6
CONTINUOUS
 62
     0
 10
3023.550161000001
 20
2213.2102340000001
 30
0.0
 11
3023.550161000001
 21
1917.4959482857139
 31
0.0
  0
LINE
  5
7D64
  8
3
  6
CONTINUOUS
 62
     0
 10
3023.550161000001
 20
2414.2102340000001
 30
0.0
 11
3023.550161000001
 21
2273.2102339999992
 31
0.0
  0
INSERT
  5
7D65
  8
3
  6
CONTINUOUS
 62
     0
  2
_OPEN
 10
3023.550161000001
 20
2414.2102340000001
 30
0.0
 41
60.0
 42
60.0
 43
60.0
 50
270.0
  0
INSERT
  5
7D66
  8
3
  6
CONTINUOUS
 62
     0
  2
_OPEN
 10
3023.550161000001
 20
2273.2102339999992
 30
0.0
 41
60.0
 42
60.0
 43
60.0
 50
90.0
  0
TEXT
  8
3
  40
90
  5
7DCE
  62
0
  72
0
  71
0
 10
2768.55
 20
1876.05
 30
0.000000
  1
141
  0
POINT
  5
7D68
  8
DEFPOINTS
  6
CONTINUOUS
 62
     0
 10
2700.060387
 20
2414.2102340000001
 30
0.0
  0
POINT
  5
7D69
  8
DEFPOINTS
  6
CONTINUOUS
 62
     0
 10
2750.0603869999991
 20
2273.2102339999992
 30
0.0
  0
POINT
  5
7D6A
  8
DEFPOINTS
  6
CONTINUOUS
 62
     0
 10
3023.550161000001
 20
2273.2102339999992
 30
0.0
  0
ENDBLK
  5
7C9B
  8
0
  0
BLOCK
  8
0
  2
*D6
 70
     1
 10
0.0
 20
0.0
 30
0.0
  3
*D6
  1

  0
LINE
  5
7D6B
  8
3
  6
CONTINUOUS
 62
     0
 10
900.06038699999988
 20
2258.2102340000001
 30
0.0
 11
900.06038699999988
 21
2022.2783959999999
 31
0.0
  0
LINE
  5
7D6C
  8
3
  6
CONTINUOUS
 62
     0
 10
2130.0603869999991
 20
2088.6011760000001
 30
0.0
 11
2130.0603869999991
 21
2022.2783959999999
 31
0.0
  0
LINE
  5
7D6D
  8
3
  6
CONTINUOUS
 62
     0
 10
960.06038699999976
 20
2052.2783960000002
 30
0.0
 11
2070.060387
 21
2052.2783960000002
 31
0.0
  0
INSERT
  5
7D6E
  8
3
  6
CONTINUOUS
 62
     0
  2
_OPEN
 10
900.06038699999988
 20
2052.2783960000002
 30
0.0
 41
60.0
 42
60.0
 43
60.0
 50
180.0
  0
INSERT
  5
7D6F
  8
3
  6
CONTINUOUS
 62
     0
  2
_OPEN
 10
2130.0603869999991
 20
2052.2783960000002
 30
0.0
 41
60.0
 42
60.0
 43
60.0
  0
TEXT
  8
3
  40
90
  5
7DCF
  62
0
  72
0
  71
0
 10
1348.01
 20
1967.98
 30
0.000000
  1
1230
  0
POINT
  5
7D71
  8
DEFPOINTS
  6
CONTINUOUS
 62
     0
 10
900.06038699999988
 20
2273.2102339999992
 30
0.0
  0
POINT
  5
7D72
  8
DEFPOINTS
  6
CONTINUOUS
 62
     0
 10
2130.0603869999991
 20
2103.6011760000001
 30
0.0
  0
POINT
  5
7D73
  8
DEFPOINTS
  6
CONTINUOUS
 62
     0
 10
2130.0603869999991
 20
2052.2783960000002
 30
0.0
  0
ENDBLK
  5
7C79
  8
0
  0
BLOCK
  8
0
  2
*D7
 70
     1
 10
0.0
 20
0.0
 30
0.0
  3
*D7
  1

  0
LINE
  5
7D74
  8
3
  6
CONTINUOUS
 62
     0
 10
2750.0603869999991
 20
2258.2102340000001
 30
0.0
 11
2750.0603869999991
 21
2022.2783959999999
 31
0.0
  0
LINE
  5
7D75
  8
3
  6
CONTINUOUS
 62
     0
 10
2190.060387
 20
2052.2783960000002
 30
0.0
 11
2690.060387
 21
2052.2783960000002
 31
0.0
  0
INSERT
  5
7D76
  8
3
  6
CONTINUOUS
 62
     0
  2
_OPEN
 10
2130.0603869999991
 20
2052.2783960000002
 30
0.0
 41
60.0
 42
60.0
 43
60.0
 50
180.0
  0
INSERT
  5
7D77
  8
3
  6
CONTINUOUS
 62
     0
  2
_OPEN
 10
2750.0603869999991
 20
2052.2783960000002
 30
0.0
 41
60.0
 42
60.0
 43
60.0
  0
TEXT
  8
3
  40
90
  5
7DD0
  62
0
  72
0
  71
0
 10
2260.06
 20
1967.98
 30
0.000000
  1
620
  0
POINT
  5
7D79
  8
DEFPOINTS
  6
CONTINUOUS
 62
     0
 10
2130.0603869999991
 20
2103.6011760000001
 30
0.0
  0
POINT
  5
7D7A
  8
DEFPOINTS
  6
CONTINUOUS
 62
     0
 10
2750.0603869999991
 20
2273.2102339999992
 30
0.0
  0
POINT
  5
7D7B
  8
DEFPOINTS
  6
CONTINUOUS
 62
     0
 10
2750.0603869999991
 20
2052.2783960000002
 30
0.0
  0
ENDBLK
  5
7C83
  8
0
  0
BLOCK
  8
0
  2
*D8
 70
     1
 10
0.0
 20
0.0
 30
0.0
  3
*D8
  1

  0
LINE
  5
7D7C
  8
3
  6
CONTINUOUS
 62
     0
 10
4281.9773059999998
 20
3849.2102340000001
 30
0.0
 11
4281.9773059999998
 21
4004.0082000000002
 31
0.0
  0
LINE
  5
7D7D
  8
3
  6
CONTINUOUS
 62
     0
 10
4951.9773059999998
 20
3849.2102340000001
 30
0.0
 11
4951.9773059999998
 21
4004.0082000000002
 31
0.0
  0
LINE
  5
7D7E
  8
3
  6
CONTINUOUS
 62
     0
 10
4341.9773059999998
 20
3974.0082000000002
 30
0.0
 11
4891.9773060000007
 21
3974.0082000000002
 31
0.0
  0
INSERT
  5
7D7F
  8
3
  6
CONTINUOUS
 62
     0
  2
_OPEN
 10
4281.9773059999998
 20
3974.0082000000002
 30
0.0
 41
60.0
 42
60.0
 43
60.0
 50
180.0
  0
INSERT
  5
7D80
  8
3
  6
CONTINUOUS
 62
     0
  2
_OPEN
 10
4951.9773059999998
 20
3974.0082000000002
 30
0.0
 41
60.0
 42
60.0
 43
60.0
  0
TEXT
  8
3
  40
90
  5
7DD1
  62
0
  72
0
  71
0
 10
4443.43
 20
3889.71
 30
0.000000
  1
670
  0
POINT
  5
7D82
  8
DEFPOINTS
  6
CONTINUOUS
 62
     0
 10
4281.9773059999998
 20
3834.2102340000001
 30
0.0
  0
POINT
  5
7D83
  8
DEFPOINTS
  6
CONTINUOUS
 62
     0
 10
4951.9773059999998
 20
3834.2102340000001
 30
0.0
  0
POINT
  5
7D84
  8
DEFPOINTS
  6
CONTINUOUS
 62
     0
 10
4951.9773059999998
 20
3974.0082000000002
 30
0.0
  0
ENDBLK
  5
7B96
  8
0
  0
BLOCK
  8
0
  2
*D9
 70
     1
 10
0.0
 20
0.0
 30
0.0
  3
*D9
  1

  0
LINE
  5
7D85
  8
3
  6
CONTINUOUS
 62
     0
 10
4970.9773060000007
 20
3654.2102340000001
 30
0.0
 11
5243.5568920000014
 21
3654.2102340000001
 31
0.0
  0
LINE
  5
7D86
  8
3
  6
CONTINUOUS
 62
     0
 10
4970.9773060000007
 20
2704.2102340000001
 30
0.0
 11
5243.5568920000014
 21
2704.2102339999992
 31
0.0
  0
LINE
  5
7D87
  8
3
  6
CONTINUOUS
 62
     0
 10
5213.5568920000023
 20
3594.2102340000001
 30
0.0
 11
5213.5568920000023
 21
2764.2102340000001
 31
0.0
  0
INSERT
  5
7D88
  8
3
  6
CONTINUOUS
 62
     0
  2
_OPEN
 10
5213.5568920000023
 20
3654.2102340000001
 30
0.0
 41
60.0
 42
60.0
 43
60.0
 50
90.0
  0
INSERT
  5
7D89
  8
3
  6
CONTINUOUS
 62
     0
  2
_OPEN
 10
5213.5568920000023
 20
2704.2102339999992
 30
0.0
 41
60.0
 42
60.0
 43
60.0
 50
270.0
  0
TEXT
  8
3
  40
90
  5
7DD2
  62
0
  72
0
  71
0
 10
4958.56
 20
3018.52
 30
0.000000
  1
φ950
  0
POINT
  5
7D8B
  8
DEFPOINTS
  6
CONTINUOUS
 62
     0
 10
4955.9773060000007
 20
3654.2102340000001
 30
0.0
  0
POINT
  5
7D8C
  8
DEFPOINTS
  6
CONTINUOUS
 62
     0
 10
4955.9773060000007
 20
2704.2102340000001
 30
0.0
  0
POINT
  5
7D8D
  8
DEFPOINTS
  6
CONTINUOUS
 62
     0
 10
5213.5568920000023
 20
2704.2102339999992
 30
0.0
  0
ENDBLK
  5
7CE8
  8
0
  0
BLOCK
  8
0
  2
*D10
 70
     1
 10
0.0
 20
0.0
 30
0.0
  3
*D10
  1

  0
LINE
  5
7CCA
  8
0
  6
BYBLOCK
 62
     0
 10
4955.9773060000007
 20
3669.2102340000001
 30
0.0
 11
4955.9773060000007
 21
4217.7997829999986
 31
0.0
  0
LINE
  5
7CCB
  8
0
  6
BYBLOCK
 62
     0
 10
4616.9773059999998
 20
4131.6169209999989
 30
0.0
 11
4616.9773059999998
 21
4217.7997829999986
 31
0.0
  0
LINE
  5
7CCC
  8
0
  6
BYBLOCK
 62
     0
 10
4895.9773060000007
 20
4187.7997829999986
 30
0.0
 11
4676.9773059999998
 21
4187.7997829999986
 31
0.0
  0
TEXT
  5
7CCD
  8
3
 62
     0
 10
4672.9058774285722
 20
4226.5862917201766
 30
0.0
 40
90.0
  1
339
  0
INSERT
  5
7CCE
  8
0
  6
BYBLOCK
 62
     0
  2
_OPEN
 10
4955.9773060000007
 20
4187.7997829999986
 30
0.0
 41
60.0
 42
60.0
 43
60.0
  0
INSERT
  5
7CCF
  8
0
  6
BYBLOCK
 62
     0
  2
_OPEN
 10
4616.9773059999998
 20
4187.7997829999986
 30
0.0
 41
60.0
 42
60.0
 43
60.0
 50
180.0
  0
POINT
  5
7CD0
  8
DEFPOINTS
  6
BYBLOCK
 62
     0
 10
4955.9773060000007
 20
3654.2102340000001
 30
0.0
  0
POINT
  5
7CD1
  8
DEFPOINTS
  6
BYBLOCK
 62
     0
 10
4616.9773059999998
 20
4116.6169209999998
 30
0.0
  0
POINT
  5
7CD2
  8
DEFPOINTS
  6
BYBLOCK
 62
     0
 10
4616.9773059999998
 20
4187.7997829999986
 30
0.0
  0
ENDBLK
  5
7CD3
  8
0
  0
BLOCK
  8
0
  2
*D11
 70
     1
 10
0.0
 20
0.0
 30
0.0
  3
*D11
  1

  0
LINE
  5
7D8E
  8
3
  6
CONTINUOUS
 62
     0
 10
4006.9773060000002
 20
3699.210234000001
 30
0.0
 11
4006.9773060000002
 21
4217.7997829999986
 31
0.0
  0
LINE
  5
7D8F
  8
3
  6
CONTINUOUS
 62
     0
 10
4556.9773060000007
 20
4187.7997829999986
 30
0.0
 11
4066.9773060000002
 21
4187.7997829999986
 31
0.0
  0
INSERT
  5
7D90
  8
3
  6
CONTINUOUS
 62
     0
  2
_OPEN
 10
4616.9773059999998
 20
4187.7997829999986
 30
0.0
 41
60.0
 42
60.0
 43
60.0
  0
INSERT
  5
7D91
  8
3
  6
CONTINUOUS
 62
     0
  2
_OPEN
 10
4006.9773060000002
 20
4187.7997829999986
 30
0.0
 41
60.0
 42
60.0
 43
60.0
 50
180.0
  0
TEXT
  8
3
  40
90
  5
7DD3
  62
0
  72
0
  71
0
 10
4131.98
 20
4178.50
 30
0.000000
  1
MAX
  0
TEXT
  8
3
  40
90
  5
7DD4
  62
0
  72
0
  71
0
 10
4131.98
 20
4061.50
 30
0.000000
  1
640
  0
POINT
  5
7D93
  8
DEFPOINTS
  6
CONTINUOUS
 62
     0
 10
4616.9773059999998
 20
4116.6169209999998
 30
0.0
  0
POINT
  5
7D94
  8
DEFPOINTS
  6
CONTINUOUS
 62
     0
 10
4006.9773060000002
 20
3684.2102340000001
 30
0.0
  0
POINT
  5
7D95
  8
DEFPOINTS
  6
CONTINUOUS
 62
     0
 10
4006.9773060000002
 20
4187.7997829999986
 30
0.0
  0
ENDBLK
  5
7CDD
  8
0
  0
BLOCK
  8
0
  2
*D12
 70
     1
 10
0.0
 20
0.0
 30
0.0
  3
*D12
  1

  0
LINE
  5
7D96
  8
3
  6
CONTINUOUS
 62
     0
 10
3968.9773060000002
 20
2258.2102340000001
 30
0.0
 11
3968.9773060000002
 21
2019.8839329999989
 31
0.0
  0
LINE
  5
7D97
  8
3
  6
CONTINUOUS
 62
     0
 10
4616.9773059999998
 20
2097.067184
 30
0.0
 11
4616.9773059999998
 21
2019.8839329999989
 31
0.0
  0
LINE
  5
7D98
  8
3
  6
CONTINUOUS
 62
     0
 10
4028.9773060000002
 20
2049.8839329999992
 30
0.0
 11
4556.9773060000007
 21
2049.8839329999992
 31
0.0
  0
INSERT
  5
7D99
  8
3
  6
CONTINUOUS
 62
     0
  2
_OPEN
 10
3968.9773060000002
 20
2049.8839329999992
 30
0.0
 41
60.0
 42
60.0
 43
60.0
 50
180.0
  0
INSERT
  5
7D9A
  8
3
  6
CONTINUOUS
 62
     0
  2
_OPEN
 10
4616.9773059999998
 20
2049.8839329999992
 30
0.0
 41
60.0
 42
60.0
 43
60.0
  0
TEXT
  8
3
  40
90
  5
7DD5
  62
0
  72
0
  71
0
 10
4126.24
 20
1965.58
 30
0.000000
  1
648
  0
POINT
  5
7D9C
  8
DEFPOINTS
  6
CONTINUOUS
 62
     0
 10
3968.9773060000002
 20
2273.2102339999992
 30
0.0
  0
POINT
  5
7D9D
  8
DEFPOINTS
  6
CONTINUOUS
 62
     0
 10
4616.9773059999998
 20
2112.067184
 30
0.0
  0
POINT
  5
7D9E
  8
DEFPOINTS
  6
CONTINUOUS
 62
     0
 10
4616.9773059999998
 20
2049.8839329999992
 30
0.0
  0
ENDBLK
  5
7BCE
  8
0
  0
BLOCK
  8
0
  2
*D13
 70
     1
 10
0.0
 20
0.0
 30
0.0
  3
*D13
  1

  0
LINE
  5
7D9F
  8
3
  6
CONTINUOUS
 62
     0
 10
5118.9773060000007
 20
2258.2102340000001
 30
0.0
 11
5118.9773060000007
 21
2019.8839329999989
 31
0.0
  0
LINE
  5
7DA0
  8
3
  6
CONTINUOUS
 62
     0
 10
4676.9773059999998
 20
2049.8839329999992
 30
0.0
 11
5058.9773059999998
 21
2049.8839329999992
 31
0.0
  0
INSERT
  5
7DA1
  8
3
  6
CONTINUOUS
 62
     0
  2
_OPEN
 10
4616.9773059999998
 20
2049.8839329999992
 30
0.0
 41
60.0
 42
60.0
 43
60.0
 50
180.0
  0
INSERT
  5
7DA2
  8
3
  6
CONTINUOUS
 62
     0
  2
_OPEN
 10
5118.9773060000007
 20
2049.8839329999992
 30
0.0
 41
60.0
 42
60.0
 43
60.0
  0
TEXT
  8
3
  40
90
  5
7DD6
  62
0
  72
0
  71
0
 10
4687.98
 20
1965.58
 30
0.000000
  1
502
  0
POINT
  5
7DA4
  8
DEFPOINTS
  6
CONTINUOUS
 62
     0
 10
4616.9773059999998
 20
2112.067184
 30
0.0
  0
POINT
  5
7DA5
  8
DEFPOINTS
  6
CONTINUOUS
 62
     0
 10
5118.9773060000007
 20
2273.2102339999992
 30
0.0
  0
POINT
  5
7DA6
  8
DEFPOINTS
  6
CONTINUOUS
 62
     0
 10
5118.9773060000007
 20
2049.8839329999992
 30
0.0
  0
ENDBLK
  5
7BDA
  8
0
  0
BLOCK
  8
0
  2
*D14
 70
     1
 10
0.0
 20
0.0
 30
0.0
  3
*D14
  1

  0
LINE
  5
7DA7
  8
3
  6
CONTINUOUS
 62
     0
 10
900.06038699999988
 20
6451.3085129999999
 30
0.0
 11
900.06038699999988
 21
6620.155769
 31
0.0
  0
LINE
  5
7DA8
  8
3
  6
CONTINUOUS
 62
     0
 10
2750.0603869999991
 20
6451.3085129999999
 30
0.0
 11
2750.0603869999991
 21
6620.155769
 31
0.0
  0
LINE
  5
7DA9
  8
3
  6
CONTINUOUS
 62
     0
 10
960.06038699999976
 20
6590.155769
 30
0.0
 11
2690.060387
 21
6590.155769
 31
0.0
  0
INSERT
  5
7DAA
  8
3
  6
CONTINUOUS
 62
     0
  2
_OPEN
 10
900.06038699999988
 20
6590.155769
 30
0.0
 41
60.0
 42
60.0
 43
60.0
 50
180.0
  0
INSERT
  5
7DAB
  8
3
  6
CONTINUOUS
 62
     0
  2
_OPEN
 10
2750.0603869999991
 20
6590.155769
 30
0.0
 41
60.0
 42
60.0
 43
60.0
  0
TEXT
  8
3
  40
90
  5
7DD7
  62
0
  72
0
  71
0
 10
1620.94
 20
6505.86
 30
0.000000
  1
1850
  0
POINT
  5
7DAD
  8
DEFPOINTS
  6
CONTINUOUS
 62
     0
 10
900.06038699999988
 20
6436.3085129999999
 30
0.0
  0
POINT
  5
7DAE
  8
DEFPOINTS
  6
CONTINUOUS
 62
     0
 10
2750.0603869999991
 20
6436.3085129999999
 30
0.0
  0
POINT
  5
7DAF
  8
DEFPOINTS
  6
CONTINUOUS
 62
     0
 10
2750.0603869999991
 20
6590.155769
 30
0.0
  0
ENDBLK
  5
7BFE
  8
0
  0
BLOCK
  8
0
  2
*D15
 70
     1
 10
0.0
 20
0.0
 30
0.0
  3
*D15
  1

  0
LINE
  5
7DB0
  8
3
  6
CONTINUOUS
 62
     0
 10
2765.060387
 20
6436.3085129999999
 30
0.0
 11
3099.706067000001
 21
6436.3085129999999
 31
0.0
  0
LINE
  5
7DB1
  8
3
  6
CONTINUOUS
 62
     0
 10
2765.060387
 20
5286.3085129999999
 30
0.0
 11
3099.706067000001
 21
5286.3085129999999
 31
0.0
  0
LINE
  5
7DB2
  8
3
  6
CONTINUOUS
 62
     0
 10
3069.706067000001
 20
6376.3085129999999
 30
0.0
 11
3069.706067000001
 21
5346.3085129999999
 31
0.0
  0
INSERT
  5
7DB3
  8
3
  6
CONTINUOUS
 62
     0
  2
_OPEN
 10
3069.706067000001
 20
6436.3085129999999
 30
0.0
 41
60.0
 42
60.0
 43
60.0
 50
90.0
  0
INSERT
  5
7DB4
  8
3
  6
CONTINUOUS
 62
     0
  2
_OPEN
 10
3069.706067000001
 20
5286.3085129999999
 30
0.0
 41
60.0
 42
60.0
 43
60.0
 50
270.0
  0
TEXT
  8
3
  40
90
  5
7DD8
  62
0
  72
0
  71
0
 10
2814.71
 20
5752.62
 30
0.000000
  1
1150
  0
POINT
  5
7DB6
  8
DEFPOINTS
  6
CONTINUOUS
 62
     0
 10
2750.0603869999991
 20
6436.3085129999999
 30
0.0
  0
POINT
  5
7DB7
  8
DEFPOINTS
  6
CONTINUOUS
 62
     0
 10
2750.0603869999991
 20
5286.3085129999999
 30
0.0
  0
POINT
  5
7DB8
  8
DEFPOINTS
  6
CONTINUOUS
 62
     0
 10
3069.706067000001
 20
5286.3085129999999
 30
0.0
  0
ENDBLK
  5
7C0B
  8
0
  0
BLOCK
  8
0
  2
*D16
 70
     1
 10
0.0
 20
0.0
 30
0.0
  3
*D16
  1

  0
LINE
  5
7DB9
  8
3
  6
CONTINUOUS
 62
     0
 10
2229.560387
 20
3834.2102340000001
 30
0.0
 11
3293.0456130000011
 21
3834.2102340000001
 31
0.0
  0
LINE
  5
7DBA
  8
3
  6
CONTINUOUS
 62
     0
 10
2765.060387
 20
2273.2102339999992
 30
0.0
 11
3293.0456129999998
 21
2273.2102339999992
 31
0.0
  0
LINE
  5
7DBB
  8
3
  6
CONTINUOUS
 62
     0
 10
3263.0456129999998
 20
3774.2102340000001
 30
0.0
 11
3263.0456129999998
 21
2333.2102340000001
 31
0.0
  0
INSERT
  5
7DBC
  8
3
  6
CONTINUOUS
 62
     0
  2
_OPEN
 10
3263.0456129999998
 20
3834.2102340000001
 30
0.0
 41
60.0
 42
60.0
 43
60.0
 50
90.0
  0
INSERT
  5
7DBD
  8
3
  6
CONTINUOUS
 62
     0
  2
_OPEN
 10
3263.0456129999998
 20
2273.2102339999992
 30
0.0
 41
60.0
 42
60.0
 43
60.0
 50
270.0
  0
TEXT
  8
3
  40
90
  5
7DD9
  62
0
  72
0
  71
0
 10
3008.05
 20
2881.56
 30
0.000000
  1
1561
  0
POINT
  5
7DBF
  8
DEFPOINTS
  6
CONTINUOUS
 62
     0
 10
2214.560387
 20
3834.2102340000001
 30
0.0
  0
POINT
  5
7DC0
  8
DEFPOINTS
  6
CONTINUOUS
 62
     0
 10
2750.0603869999991
 20
2273.2102339999992
 30
0.0
  0
POINT
  5
7DC1
  8
DEFPOINTS
  6
CONTINUOUS
 62
     0
 10
3263.0456129999998
 20
2273.2102339999992
 30
0.0
  0
ENDBLK
  5
7C37
  8
0
  0
BLOCK
  8
0
  2
*D17
 70
     1
 10
0.0
 20
0.0
 30
0.0
  3
*D17
  1

  0
LINE
  5
7DC2
  8
3
  6
CONTINUOUS
 62
     0
 10
2773.0553289917311
 20
3194.2102339999992
 30
0.0
 11
2773.0553289917311
 21
4185.9168119999986
 31
0.0
  0
LINE
  5
7DC3
  8
3
  6
CONTINUOUS
 62
     0
 10
2190.060387
 20
4155.9168120000004
 30
0.0
 11
2713.0553289917302
 21
4155.9168120000004
 31
0.0
  0
INSERT
  5
7DC4
  8
3
  6
CONTINUOUS
 62
     0
  2
_OPEN
 10
2130.0603869999991
 20
4155.9168120000004
 30
0.0
 41
60.0
 42
60.0
 43
60.0
 50
180.0
  0
INSERT
  5
7DC5
  8
3
  6
CONTINUOUS
 62
     0
  2
_OPEN
 10
2773.0553289917311
 20
4155.9168120000004
 30
0.0
 41
60.0
 42
60.0
 43
60.0
  0
TEXT
  8
3
  40
90
  5
7DDA
  62
0
  72
0
  71
0
 10
2271.56
 20
4071.62
 30
0.000000
  1
643
  0
POINT
  5
7DC7
  8
DEFPOINTS
  6
CONTINUOUS
 62
     0
 10
2130.0603869999991
 20
4002.4166799999989
 30
0.0
  0
POINT
  5
7DC8
  8
DEFPOINTS
  6
CONTINUOUS
 62
     0
 10
2773.0553289917311
 20
3179.2102339999992
 30
0.0
  0
POINT
  5
7DC9
  8
DEFPOINTS
  6
CONTINUOUS
 62
     0
 10
2773.0553289917311
 20
4155.9168120000004
 30
0.0
  0
ENDBLK
  5
7CB0
  8
0
  0
ENDSEC
  0
SECTION
  2
ENTITIES
  0
LINE
  5
7A7A
  8
1
  6
CONTINUOUS
 10
2750.0603869999991
 20
6321.3085129999999
 30
0.0
 11
900.06038699999988
 21
6321.3085129999999
 31
0.0
  0
LINE
  5
7A7B
  8
1
  6
CONTINUOUS
 10
970.06038699999976
 20
5376.3085129999999
 30
0.0
 11
2610.060387
 21
5376.3085129999999
 31
0.0
  0
LINE
  5
7A7C
  8
1
  6
CONTINUOUS
 10
970.06038699999976
 20
5546.3085129999999
 30
0.0
 11
2610.060387
 21
5546.3085129999999
 31
0.0
  0
LINE
  5
7A7D
  8
1
  6
CONTINUOUS
 10
1876.060387
 20
5409.3085129999999
 30
0.0
 11
2384.0603869999991
 21
5409.3085129999999
 31
0.0
  0
LINE
  5
7A7E
  8
1
  6
CONTINUOUS
 10
1876.060387
 20
5513.3085129999999
 30
0.0
 11
2384.0603869999991
 21
5513.3085129999999
 31
0.0
  0
LINE
  5
7A7F
  8
1
  6
CONTINUOUS
 10
2774.8567290000001
 20
5599.3085129999999
 30
0.0
 11
1247.060387
 21
5599.3085129999999
 31
0.0
  0
LINE
  5
7A80
  8
1
  6
CONTINUOUS
 10
2774.8567290000001
 20
6269.3085129999999
 30
0.0
 11
1247.060387
 21
6269.3085129999999
 31
0.0
  0
LINE
  5
7A81
  8
1
  6
CONTINUOUS
 10
2750.0603869999991
 20
5401.3085129999999
 30
0.0
 11
900.06038699999988
 21
5401.3085129999999
 31
0.0
  0
LINE
  5
7A82
  8
1
  6
CONTINUOUS
 10
2610.060387
 20
3684.2102340000001
 30
0.0
 11
1950.0603869999991
 21
3684.2102340000001
 31
0.0
  0
LINE
  5
7A83
  8
2
  6
CENTER
 10
1017.871878
 20
3179.2102340000001
 30
0.0
 11
2939.8997509999999
 21
3179.2102340000001
 31
0.0
  0
CIRCLE
  5
7A84
  8
1
  6
CONTINUOUS
 10
2130.0603869999991
 20
3179.2102340000001
 30
0.0
 40
254.0
  0
LINE
  5
7A85
  8
1
  6
CONTINUOUS
 10
2750.0603869999991
 20
2273.2102339999992
 30
0.0
 11
900.06038699999988
 21
2273.2102339999992
 31
0.0
  0
LINE
  5
7A86
  8
1
  6
CONTINUOUS
 10
2750.0603869999991
 20
2373.2102340000001
 30
0.0
 11
900.06038699999988
 21
2373.2102340000001
 31
0.0
  0
LINE
  5
7A87
  8
1
  6
CONTINUOUS
 10
2700.060387
 20
2414.2102340000001
 30
0.0
 11
950.06038699999988
 21
2414.2102340000001
 31
0.0
  0
LINE
  5
7A88
  8
1
  6
CONTINUOUS
 10
2700.0603869999991
 20
2514.2102340000001
 30
0.0
 11
950.06038699999988
 21
2514.2102340000001
 31
0.0
  0
POLYLINE
  5
7A8C
  8
1
  6
CONTINUOUS
 66
     1
 10
0.0
 20
0.0
 30
0.0
  0
VERTEX
  5
7D37
  8
1
  6
CONTINUOUS
 10
1247.060387
 20
3834.2102340000001
 30
0.0
  0
VERTEX
  5
7D38
  8
1
  6
CONTINUOUS
 10
1269.060387
 20
3179.2102340000001
 30
0.0
 42
0.4168370000000001
  0
VERTEX
  5
7D39
  8
1
  6
CONTINUOUS
 10
2137.2343279999991
 20
2436.770274
 30
0.0
 42
0.429867
  0
VERTEX
  5
7D3A
  8
1
  6
CONTINUOUS
 10
2768.4855630000002
 20
3223.0863939999999
 30
0.0
 42
0.373172
  0
VERTEX
  5
7D3B
  8
1
  6
CONTINUOUS
 10
2172.060387
 20
3747.178962
 30
0.0
 42
0.34598
  0
SEQEND
  5
7D3C
  8
1
  6
CONTINUOUS
  0
LINE
  5
7A93
  8
1
  6
CONTINUOUS
 10
970.06038699999976
 20
2864.2102340000001
 30
0.0
 11
1950.0603869999991
 21
3684.2102340000001
 31
0.0
  0
LINE
  5
7A94
  8
2
  6
CENTER
 10
1070.060387
 20
2764.2102340000001
 30
0.0
 11
1230.0603869999991
 21
2764.2102340000001
 31
0.0
  0
LINE
  5
7A95
  8
1
  6
CONTINUOUS
 10
1167.273797999999
 20
2691.2122989999998
 30
0.0
 11
2188.3564719999999
 21
2931.990562
 31
0.0
  0
LINE
  5
7A96
  8
1
  6
CONTINUOUS
 10
1109.6151030000001
 20
2827.3701820000001
 30
0.0
 11
1993.085691
 21
3393.1119239999998
 31
0.0
  0
CIRCLE
  5
7A97
  8
1
  6
CONTINUOUS
 10
1150.060387
 20
2764.2102340000001
 30
0.0
 40
75.0
  0
ARC
  5
7A98
  8
1
  6
CONTINUOUS
 10
1150.060387
 20
2764.2102340000001
 30
0.0
 40
162.0
 50
324.972283
 51
215.02771699999991
  0
LINE
  5
7A99
  8
1
  6
CONTINUOUS
 10
900.06038699999988
 20
2273.2102339999992
 30
0.0
 11
900.06038699999988
 21
2373.2102340000001
 31
0.0
  0
LINE
  5
7A9A
  8
1
  6
CONTINUOUS
 10
970.06038699999976
 20
2514.2102340000001
 30
0.0
 11
970.06038699999976
 21
2864.2102340000001
 31
0.0
  0
LINE
  5
7A9B
  8
2
  6
CENTER
 10
1150.060387
 20
2684.2102340000001
 30
0.0
 11
1150.060387
 21
2844.2102340000001
 31
0.0
  0
LINE
  5
7A9C
  8
1
  6
CONTINUOUS
 10
962.56038699999988
 20
2604.2102340000001
 30
0.0
 11
1017.402721
 21
2671.2266669999999
 31
0.0
  0
LINE
  5
7A9D
  8
1
  6
CONTINUOUS
 10
962.56038699999988
 20
2604.2102340000001
 30
0.0
 11
952.56038699999988
 21
2554.2102340000001
 31
0.0
  0
LINE
  5
7A9E
  8
1
  6
CONTINUOUS
 10
952.56038699999988
 20
2554.2102340000001
 30
0.0
 11
952.56038699999988
 21
2514.2102340000001
 31
0.0
  0
LINE
  5
7A9F
  8
1
  6
CONTINUOUS
 10
950.06038699999988
 20
2514.2102340000001
 30
0.0
 11
950.06038699999988
 21
2414.2102340000001
 31
0.0
  0
LINE
  5
7AA0
  8
2
  6
CENTER
 10
2130.0603869999991
 20
2103.6011760000001
 30
0.0
 11
2130.0603869999991
 21
4002.4166799999989
 31
0.0
  0
LINE
  5
7AA2
  8
1
  6
CONTINUOUS
 10
1282.718051999999
 20
2671.2266669999999
 30
0.0
 11
1337.560387
 21
2604.2102340000001
 31
0.0
  0
LINE
  5
7AA3
  8
1
  6
CONTINUOUS
 10
1347.560387
 20
2554.2102340000001
 30
0.0
 11
1337.560387
 21
2604.2102340000001
 31
0.0
  0
LINE
  5
7AA4
  8
1
  6
CONTINUOUS
 10
1347.560387
 20
2554.2102340000001
 30
0.0
 11
1347.560387
 21
2514.2102340000001
 31
0.0
  0
LINE
  5
7AA5
  8
1
  6
CONTINUOUS
 10
2172.060387
 20
3794.2102340000001
 30
0.0
 11
1248.403898
 21
3794.2102340000001
 31
0.0
  0
LINE
  5
7AA6
  8
1
  6
CONTINUOUS
 10
2214.560387
 20
3834.2102340000001
 30
0.0
 11
1204.560387
 21
3834.2102340000001
 31
0.0
  0
LINE
  5
7AA7
  8
1
  6
CONTINUOUS
 10
2172.060387
 20
3747.178962
 30
0.0
 11
2172.060387
 21
3834.2102340000001
 31
0.0
  0
LINE
  5
7AA8
  8
1
  6
CONTINUOUS
 10
988.06038699999988
 20
6042.3085129999999
 30
0.0
 11
1247.060387
 21
6042.3085129999999
 31
0.0
  0
LINE
  5
7AA9
  8
1
  6
CONTINUOUS
 10
988.06038699999988
 20
5557.3085129999999
 30
0.0
 11
1312.060387
 21
5557.3085129999999
 31
0.0
  0
LINE
  5
7AAA
  8
1
  6
CONTINUOUS
 10
1075.060387
 20
5409.3085129999999
 30
0.0
 11
1225.060387
 21
5409.3085129999999
 31
0.0
  0
LINE
  5
7AAB
  8
1
  6
CONTINUOUS
 10
1075.060387
 20
5513.3085129999999
 30
0.0
 11
1225.060387
 21
5513.3085129999999
 31
0.0
  0
LINE
  5
7AAC
  8
1
  6
CONTINUOUS
 10
988.06038699999988
 20
5557.3085129999999
 30
0.0
 11
988.06038699999988
 21
6042.3085129999999
 31
0.0
  0
LINE
  5
7AAD
  8
1
  6
CONTINUOUS
 10
900.06038699999988
 20
5401.3085129999999
 30
0.0
 11
900.06038699999988
 21
6321.3085129999999
 31
0.0
  0
LINE
  5
7AAE
  8
1
  6
CONTINUOUS
 10
950.06038699999988
 20
5286.3085129999999
 30
0.0
 11
950.06038699999988
 21
5401.3085129999999
 31
0.0
  0
LINE
  5
7AAF
  8
1
  6
CONTINUOUS
 10
900.06038699999988
 20
5286.3085129999999
 30
0.0
 11
950.06038699999988
 21
5286.3085129999999
 31
0.0
  0
LINE
  5
7AB0
  8
1
  6
CONTINUOUS
 10
900.06038699999988
 20
5286.3085129999999
 30
0.0
 11
900.06038699999988
 21
5401.3085129999999
 31
0.0
  0
LINE
  5
7AB1
  8
1
  6
CONTINUOUS
 10
970.06038699999976
 20
5376.3085129999999
 30
0.0
 11
970.06038699999976
 21
5546.3085129999999
 31
0.0
  0
LINE
  5
7AB2
  8
1
  6
CONTINUOUS
 10
1075.060387
 20
5409.3085129999999
 30
0.0
 11
1075.060387
 21
5513.3085129999999
 31
0.0
  0
LINE
  5
7AB3
  8
1
  6
CONTINUOUS
 10
1129.0603869999991
 20
5513.3085129999999
 30
0.0
 11
1129.0603869999991
 21
5557.3085129999999
 31
0.0
  0
LINE
  5
7AB4
  8
1
  6
CONTINUOUS
 10
1171.060387
 20
5513.3085129999999
 30
0.0
 11
1171.060387
 21
5557.3085129999999
 31
0.0
  0
LINE
  5
7AB5
  8
1
  6
CONTINUOUS
 10
900.06038699999988
 20
6321.3085129999999
 30
0.0
 11
900.06038699999988
 21
6436.3085129999999
 31
0.0
  0
LINE
  5
7AB6
  8
1
  6
CONTINUOUS
 10
950.06038699999988
 20
6321.3085129999999
 30
0.0
 11
950.06038699999988
 21
6436.3085129999999
 31
0.0
  0
LINE
  5
7AB7
  8
1
  6
CONTINUOUS
 10
900.06038699999988
 20
6436.3085129999999
 30
0.0
 11
950.06038699999988
 21
6436.3085129999999
 31
0.0
  0
LINE
  5
7AB8
  8
1
  6
CONTINUOUS
 10
1247.060387
 20
5599.3085129999999
 30
0.0
 11
1247.060387
 21
6269.3085129999999
 31
0.0
  0
LINE
  5
7AB9
  8
1
  6
CONTINUOUS
 10
2172.060387
 20
5599.3085129999999
 30
0.0
 11
2172.060387
 21
6269.3085129999999
 31
0.0
  0
LINE
  5
7ABA
  8
1
  6
CONTINUOUS
 10
1247.060387
 20
5599.3085129999999
 30
0.0
 11
2172.060387
 21
6269.3085129999999
 31
0.0
  0
LINE
  5
7ABB
  8
1
  6
CONTINUOUS
 10
1247.060387
 20
6269.3085129999999
 30
0.0
 11
2172.060387
 21
5599.3085129999999
 31
0.0
  0
LINE
  5
7ABC
  8
1
  6
CONTINUOUS
 10
1312.060387
 20
5557.3085129999999
 30
0.0
 11
1312.060387
 21
5599.3085129999999
 31
0.0
  0
LINE
  5
7ABD
  8
1
  6
CONTINUOUS
 10
1225.060387
 20
5409.3085129999999
 30
0.0
 11
1225.060387
 21
5513.3085129999999
 31
0.0
  0
LINE
  5
7ABE
  8
1
  6
CONTINUOUS
 10
1876.060387
 20
5409.3085129999999
 30
0.0
 11
1876.060387
 21
5513.3085129999999
 31
0.0
  0
LINE
  5
7ABF
  8
1
  6
CONTINUOUS
 10
2105.0603869999991
 20
5513.3085129999999
 30
0.0
 11
2105.0603869999991
 21
5599.3085129999999
 31
0.0
  0
LINE
  5
7AC0
  8
1
  6
CONTINUOUS
 10
2155.060387
 20
5513.3085129999999
 30
0.0
 11
2155.060387
 21
5599.3085129999999
 31
0.0
  0
LINE
  5
7AC1
  8
1
  6
CONTINUOUS
 10
4083.9773060000002
 20
2514.2102340000001
 30
0.0
 11
5003.9773060000007
 21
2514.2102340000001
 31
0.0
  0
LINE
  5
7AC2
  8
1
  6
CONTINUOUS
 10
4091.9773060000002
 20
2689.2102340000001
 30
0.0
 11
4195.9773060000007
 21
2689.2102340000001
 31
0.0
  0
LINE
  5
7AC3
  8
1
  6
CONTINUOUS
 10
4091.9773060000002
 20
2839.2102340000001
 30
0.0
 11
4195.9773060000007
 21
2839.2102340000001
 31
0.0
  0
LINE
  5
7AC4
  8
1
  6
CONTINUOUS
 10
4091.9773060000002
 20
2925.2102340000001
 30
0.0
 11
4195.9773060000007
 21
2925.2102340000001
 31
0.0
  0
LINE
  5
7AC5
  8
1
  6
CONTINUOUS
 10
4091.9773060000002
 20
3433.2102340000001
 30
0.0
 11
4195.9773060000007
 21
3433.2102340000001
 31
0.0
  0
LINE
  5
7AC6
  8
1
  6
CONTINUOUS
 10
4006.9773060000002
 20
3684.2102340000001
 30
0.0
 11
4228.9773059999998
 21
3684.2102340000001
 31
0.0
  0
LINE
  5
7AC7
  8
1
  6
CONTINUOUS
 10
3968.9773060000002
 20
2273.2102339999992
 30
0.0
 11
5118.9773060000007
 21
2273.2102339999992
 31
0.0
  0
LINE
  5
7AC8
  8
1
  6
CONTINUOUS
 10
3968.9773060000002
 20
2373.2102340000001
 30
0.0
 11
5118.9773060000007
 21
2373.2102340000001
 31
0.0
  0
LINE
  5
7AC9
  8
1
  6
CONTINUOUS
 10
4083.9773060000002
 20
2414.2102340000001
 30
0.0
 11
5003.9773060000007
 21
2414.2102340000001
 31
0.0
  0
LINE
  5
7ACA
  8
1
  6
CONTINUOUS
 10
4006.9773060000002
 20
3684.2102340000001
 30
0.0
 11
4006.9773060000002
 21
2514.2102340000001
 31
0.0
  0
LINE
  5
7ACB
  8
1
  6
CONTINUOUS
 10
2610.060387
 20
2514.2102340000001
 30
0.0
 11
2610.060387
 21
3684.2102340000001
 31
0.0
  0
LINE
  5
7ACC
  8
1
  6
CONTINUOUS
 10
4091.9773060000002
 20
3433.2102340000001
 30
0.0
 11
4091.9773060000002
 21
2925.2102340000001
 31
0.0
  0
LINE
  5
7ACE
  8
1
  6
CONTINUOUS
 10
2750.0603869999991
 20
2273.2102339999992
 30
0.0
 11
2750.0603869999991
 21
2373.2102340000001
 31
0.0
  0
LINE
  5
7ACF
  8
1
  6
CONTINUOUS
 10
2700.060387
 20
2514.2102340000001
 30
0.0
 11
2700.060387
 21
2414.2102340000001
 31
0.0
  0
LINE
  5
7AD0
  8
1
  6
CONTINUOUS
 10
3968.9773060000002
 20
2373.2102340000001
 30
0.0
 11
3968.9773060000002
 21
2273.2102339999992
 31
0.0
  0
LINE
  5
7AD1
  8
1
  6
CONTINUOUS
 10
4091.9773060000002
 20
2839.2102340000001
 30
0.0
 11
4091.9773060000002
 21
2689.2102340000001
 31
0.0
  0
LINE
  5
7AD2
  8
1
  6
CONTINUOUS
 10
4083.9773060000002
 20
2514.2102340000001
 30
0.0
 11
4083.9773060000002
 21
2414.2102340000001
 31
0.0
  0
LINE
  5
7AD3
  8
1
  6
CONTINUOUS
 10
4006.9773060000002
 20
2514.2102340000001
 30
0.0
 11
4083.9773060000002
 21
2514.2102340000001
 31
0.0
  0
LINE
  5
7AD4
  8
1
  6
CONTINUOUS
 10
4228.9773059999998
 20
3684.2102340000001
 30
0.0
 11
4228.9773059999998
 21
2514.2102340000001
 31
0.0
  0
LINE
  5
7AD5
  8
1
  6
CONTINUOUS
 10
4195.9773060000007
 20
3433.2102340000001
 30
0.0
 11
4195.9773060000007
 21
2925.2102340000001
 31
0.0
  0
LINE
  5
7AD6
  8
1
  6
CONTINUOUS
 10
4951.9773059999998
 20
3834.2102340000001
 30
0.0
 11
4951.9773059999998
 21
2514.2102340000001
 31
0.0
  0
LINE
  5
7AD7
  8
1
  6
CONTINUOUS
 10
4281.9773059999998
 20
3834.2102340000001
 30
0.0
 11
4281.9773059999998
 21
2514.2102340000001
 31
0.0
  0
LINE
  5
7AD8
  8
1
  6
CONTINUOUS
 10
4195.9773060000007
 20
2839.2102340000001
 30
0.0
 11
4195.9773060000007
 21
2689.2102340000001
 31
0.0
  0
LINE
  5
7AD9
  8
1
  6
CONTINUOUS
 10
4195.9773060000007
 20
2743.2102340000001
 30
0.0
 11
4281.9773059999998
 21
2743.2102340000001
 31
0.0
  0
LINE
  5
7ADA
  8
1
  6
CONTINUOUS
 10
4195.9773060000007
 20
2785.2102340000001
 30
0.0
 11
4281.9773059999998
 21
2785.2102340000001
 31
0.0
  0
LINE
  5
7ADB
  8
1
  6
CONTINUOUS
 10
5118.9773060000007
 20
2373.2102340000001
 30
0.0
 11
5118.9773060000007
 21
2273.2102339999992
 31
0.0
  0
LINE
  5
7ADC
  8
1
  6
CONTINUOUS
 10
5003.9773060000007
 20
2514.2102340000001
 30
0.0
 11
5003.9773060000007
 21
2414.2102340000001
 31
0.0
  0
LINE
  5
7ADD
  8
1
  6
CONTINUOUS
 10
4239.9773060000007
 20
3834.2102340000001
 30
0.0
 11
4993.9773060000007
 21
3834.2102340000001
 31
0.0
  0
LINE
  5
7ADE
  8
1
  6
CONTINUOUS
 10
4281.9773059999998
 20
3794.2102340000001
 30
0.0
 11
4951.9773059999998
 21
3794.2102340000001
 31
0.0
  0
LINE
  5
7ADF
  8
1
  6
CONTINUOUS
 10
4195.9773060000007
 20
3154.2102340000001
 30
0.0
 11
4281.9773059999998
 21
3154.2102340000001
 31
0.0
  0
LINE
  5
7AE0
  8
1
  6
CONTINUOUS
 10
4195.9773060000007
 20
3204.2102340000001
 30
0.0
 11
4281.9773059999998
 21
3204.2102340000001
 31
0.0
  0
LINE
  5
7AE1
  8
1
  6
CONTINUOUS
 10
2774.8567290000001
 20
5599.3085129999999
 30
0.0
 11
2774.8567290000001
 21
6269.3085129999999
 31
0.0
  0
LINE
  5
7AE2
  8
1
  6
CONTINUOUS
 10
2610.060387
 20
5376.3085129999999
 30
0.0
 11
2610.060387
 21
5546.3085129999999
 31
0.0
  0
LINE
  5
7AE3
  8
1
  6
CONTINUOUS
 10
2384.0603869999991
 20
5409.3085129999999
 30
0.0
 11
2384.0603869999991
 21
5513.3085129999999
 31
0.0
  0
LINE
  5
7AE4
  8
1
  6
CONTINUOUS
 10
2700.060387
 20
5286.3085129999999
 30
0.0
 11
2750.0603869999991
 21
5286.3085129999999
 31
0.0
  0
LINE
  5
7AE5
  8
1
  6
CONTINUOUS
 10
2700.060387
 20
5286.3085129999999
 30
0.0
 11
2700.060387
 21
5401.3085129999999
 31
0.0
  0
LINE
  5
7AE6
  8
1
  6
CONTINUOUS
 10
2750.0603869999991
 20
5286.3085129999999
 30
0.0
 11
2750.0603869999991
 21
5401.3085129999999
 31
0.0
  0
LINE
  5
7AE7
  8
1
  6
CONTINUOUS
 10
2750.0603869999991
 20
5401.3085129999999
 30
0.0
 11
2750.0603869999991
 21
5599.3085129999999
 31
0.0
  0
LINE
  5
7AE8
  8
1
  6
CONTINUOUS
 10
2750.0603869999991
 20
6321.3085129999999
 30
0.0
 11
2750.0603869999991
 21
6436.3085129999999
 31
0.0
  0
LINE
  5
7AE9
  8
1
  6
CONTINUOUS
 10
2700.060387
 20
6321.3085129999999
 30
0.0
 11
2700.060387
 21
6436.3085129999999
 31
0.0
  0
LINE
  5
7AEA
  8
1
  6
CONTINUOUS
 10
2700.060387
 20
6436.3085129999999
 30
0.0
 11
2750.0603869999991
 21
6436.3085129999999
 31
0.0
  0
LINE
  5
7AEB
  8
1
  6
CONTINUOUS
 10
2750.0603869999991
 20
6269.3085129999999
 30
0.0
 11
2750.0603869999991
 21
6321.3085129999999
 31
0.0
  0
LINE
  5
7AEC
  8
2
  6
CENTER
 10
788.86654499999986
 20
5934.3085129999999
 30
0.0
 11
2924.0999569999999
 21
5934.3085129999999
 31
0.0
  0
LINE
  5
7AED
  8
2
  6
CENTER
 10
4616.9773059999998
 20
3999.1737729999991
 30
0.0
 11
4616.9773059999998
 21
2112.067184
 31
0.0
  0
LINE
  5
7AEE
  8
2
  6
CENTER
 10
2130.0603869999991
 20
5232.2980960000004
 30
0.0
 11
2130.0603869999991
 21
6495.522148
 31
0.0
  0
LINE
  5
7AEF
  8
2
  6
CENTER
 10
4007.4518199999989
 20
3179.2102340000001
 30
0.0
 11
5066.0375469999999
 21
3179.2102340000001
 31
0.0
  0
LINE
  5
7AF0
  8
4
  6
CONTINUOUS
 10
5550.0
 20
1500.0
 30
0.0
 11
5550.0
 21
900.0
 31
0.0
  0
LINE
  5
7AF1
  8
4
  6
CONTINUOUS
 10
3450.0
 20
1500.0
 30
0.0
 11
3450.0
 21
900.0
 31
0.0
  0
LINE
  5
7AF2
  8
4
  6
CONTINUOUS
 10
1950.0
 20
1500.0
 30
0.0
 11
1950.0
 21
900.0
 31
0.0
  0
LINE
  5
7AF5
  8
4
  6
CONTINUOUS
 10
1950.0
 20
900.0
 30
0.0
 11
5550.0
 21
900.0
 31
0.0
  0
LINE
  5
7AF6
  8
4
  6
CONTINUOUS
 10
1950.0
 20
1200.0
 30
0.0
 11
5550.0
 21
1200.0
 31
0.0
  0
TEXT
  5
7AF7
  8
4
  6
CONTINUOUS
 10
2065.5062429999989
 20
1294.6290779999999
 30
0.0
 40
150.0
  1
機器名称
  0
TEXT
  5
7AF8
  8
4
  6
CONTINUOUS
 10
2058.7743179999989
 20
964.9354699999999
 30
0.0
 40
150.0
  1
機器型番
  0
TEXT
  5
7AF9
  8
4
  6
CONTINUOUS
 10
3533.0362359999999
 20
1267.7153069999999
 30
0.0
 40
150.0
  1
ミツヤ多翼送風機
  0
TEXT
  5
7AFA
  8
4
  6
CONTINUOUS
 10
3559.9634869999991
 20
951.47875299999987
 30
0.0
 40
150.0
  1
MF#5 1/2-4
  0
TEXT
  5
7AFC
  8
4
  6
CONTINUOUS
 10
2229.1503910000001
 20
7150.2865239999992
 30
0.0
 40
162.0
  1
天井吊防振ベット
  0
TEXT
  5
7AFD
  8
4
  6
CONTINUOUS
 10
948.50278000000014
 20
7601.6429289999996
 30
0.0
 40
216.0
  1
ベルト駆動式片吸込両持多翼ファン
  0
LINE
  5
7AFE
  8
4
  6
CONTINUOUS
 10
750.0
 20
7408.2262629999996
 30
0.0
 11
5550.0
 21
7408.2262629999996
 31
0.0
  0
LINE
  5
7AFF
  8
4
  6
CONTINUOUS
 10
750.0
 20
8008.2262629999996
 30
0.0
 11
5550.0
 21
8008.2262629999996
 31
0.0
  0
LINE
  5
7B00
  8
4
  6
CONTINUOUS
 10
1950.0
 20
1500.0
 30
0.0
 11
5550.0
 21
1500.0
 31
0.0
  0
LINE
  5
7B01
  8
4
  6
CONTINUOUS
 10
750.0
 20
8008.2262629999996
 30
0.0
 11
750.0
 21
7408.2262629999996
 31
0.0
  0
TEXT
  5
7B02
  8
4
  6
CONTINUOUS
 10
906.39802299999997
 20
7146.9584329999998
 30
0.0
 40
162.0
  1
右回転上向
  0
TEXT
  5
7B03
  8
4
  6
CONTINUOUS
 10
4406.9086779999989
 20
8118.1832439999989
 30
0.0
 40
168.0
  1
No.
  0
TEXT
  5
7B04
  8
4
  6
CONTINUOUS
 10
4024.943506999999
 20
7150.2865239999992
 30
0.0
 40
162.0
  1
縮尺：1/30
  0
LINE
  5
7B05
  8
4
  6
CONTINUOUS
 10
5550.0
 20
8008.2262629999996
 30
0.0
 11
5550.0
 21
7408.2262629999996
 31
0.0
  0
LINE
  5
7B07
  8
4
  6
CONTINUOUS
 10
4321.8522670000002
 20
8043.7907490000007
 30
0.0
 11
4321.8522670000002
 21
8359.9567849999985
 31
0.0
  0
LINE
  5
7B08
  8
4
  6
CONTINUOUS
 10
4321.8522670000002
 20
8359.9567849999985
 30
0.0
 11
5550.0
 21
8359.9567849999985
 31
0.0
  0
LINE
  5
7B09
  8
4
  6
CONTINUOUS
 10
5550.0
 20
8359.9567849999985
 30
0.0
 11
5550.0
 21
8043.7907490000007
 31
0.0
  0
LINE
  5
7B0A
  8
4
  6
CONTINUOUS
 10
5550.0
 20
8043.7907490000007
 30
0.0
 11
4321.8522670000002
 21
8043.7907490000007
 31
0.0
  0
DIMENSION
  5
7B22
  8
3
  6
CONTINUOUS
  2
*D1
 10
2172.060387
 20
3971.6137159999998
 30
0.0
 11
1727.1734719999999
 21
3971.6137159999998
 31
0.0
 70
   128
 13
1247.060387
 23
3834.2102340000001
 33
0.0
 14
2172.060387
 24
3834.2102340000001
 34
0.0
1001
ACAD
1000
DSTYLE
1002
{
1070
   287
1070
     3
1070
    40
1040
30.0
1070
   143
1040
0.039
1070
   172
1070
     1
1070
   271
1070
     0
1070
   279
1070
     0
1070
   288
1070
     1
1002
}
  0
DIMENSION
  5
7B2F
  8
3
  6
CONTINUOUS
  2
*D2
 10
2130.0603869999991
 20
4155.9168120000004
 30
0.0
 11
1727.1734719999999
 21
4155.9168120000004
 31
0.0
 70
   128
 13
1247.060387
 23
3834.2102340000001
 33
0.0
 14
2130.0603869999991
 24
4002.4166799999989
 34
0.0
1001
ACAD
1000
DSTYLE
1002
{
1070
   287
1070
     3
1070
    40
1040
30.0
1070
   143
1040
0.039
1070
   172
1070
     1
1070
   271
1070
     0
1070
   279
1070
     0
1070
   288
1070
     1
1002
}
  0
DIMENSION
  5
7B48
  8
3
  6
CONTINUOUS
  2
*D3
 10
3025.4467200000008
 20
3179.2102340000001
 30
0.0
 11
3025.4467199999999
 21
3457.9595340000001
 31
0.0
 70
   128
 13
2214.560387
 23
3834.2102340000001
 33
0.0
 14
2939.8997509999999
 24
3179.2102340000001
 34
0.0
 50
90.0
1001
ACAD
1000
DSTYLE
1002
{
1070
   287
1070
     3
1070
    40
1040
30.0
1070
   143
1040
0.039
1070
   172
1070
     1
1070
   271
1070
     0
1070
   279
1070
     0
1070
   288
1070
     1
1002
}
  0
DIMENSION
  5
7B54
  8
3
  6
CONTINUOUS
  2
*D4
 10
3025.4467199999999
 20
2414.2102340000001
 30
0.0
 11
2950.446719999999
 21
2796.7102340000001
 31
0.0
 70
     0
 13
2939.8997509999999
 23
3179.2102340000001
 33
0.0
 14
2700.060387
 24
2414.2102340000001
 34
0.0
 50
90.0
1001
ACAD
1000
DSTYLE
1002
{
1070
   287
1070
     4
1070
    40
1040
30.0
1070
    75
1070
     1
1070
   143
1040
0.039
1070
   172
1070
     1
1070
   271
1070
     0
1070
   279
1070
     1
1070
   288
1070
     1
1002
}
  0
DIMENSION
  5
7B64
  8
3
  6
CONTINUOUS
  2
*D5
 10
3023.550161000001
 20
2273.2102339999992
 30
0.0
 11
3023.5501610000001
 21
2035.353091142857
 31
0.0
 70
   128
 13
2700.060387
 23
2414.2102340000001
 33
0.0
 14
2750.0603869999991
 24
2273.2102339999992
 34
0.0
 50
90.0
1001
ACAD
1000
DSTYLE
1002
{
1070
   287
1070
     3
1070
    40
1040
30.0
1070
   143
1040
0.039
1070
   172
1070
     1
1070
   271
1070
     0
1070
   279
1070
     0
1070
   288
1070
     1
1002
}
  0
DIMENSION
  5
7B7E
  8
3
  6
CONTINUOUS
  2
*D6
 10
2130.0603869999991
 20
2052.2783960000002
 30
0.0
 11
1528.006539
 21
2052.2783960000002
 31
0.0
 70
   128
 13
900.06038699999988
 23
2273.2102339999992
 33
0.0
 14
2130.0603869999991
 24
2103.6011760000001
 34
0.0
1001
ACAD
1000
DSTYLE
1002
{
1070
   287
1070
     3
1070
    40
1040
30.0
1070
   143
1040
0.039
1070
   172
1070
     1
1070
   271
1070
     0
1070
   279
1070
     0
1070
   288
1070
     1
1002
}
  0
DIMENSION
  5
7B8A
  8
3
  6
CONTINUOUS
  2
*D7
 10
2750.0603869999991
 20
2052.2783960000002
 30
0.0
 11
2440.060387
 21
2127.2783960000002
 31
0.0
 70
     0
 13
2130.0603869999991
 23
2103.6011760000001
 33
0.0
 14
2750.0603869999991
 24
2273.2102339999992
 34
0.0
1001
ACAD
1000
DSTYLE
1002
{
1070
   287
1070
     4
1070
    40
1040
30.0
1070
    75
1070
     1
1070
   143
1040
0.039
1070
   172
1070
     1
1070
   271
1070
     0
1070
   279
1070
     1
1070
   288
1070
     1
1002
}
  0
DIMENSION
  5
7B97
  8
3
  6
CONTINUOUS
  2
*D8
 10
4951.9773059999998
 20
3974.0082000000002
 30
0.0
 11
4623.4326819999987
 21
3974.0082000000002
 31
0.0
 70
   128
 13
4281.9773059999998
 23
3834.2102340000001
 33
0.0
 14
4951.9773059999998
 24
3834.2102340000001
 34
0.0
1001
ACAD
1000
DSTYLE
1002
{
1070
   287
1070
     3
1070
    40
1040
30.0
1070
   143
1040
0.039
1070
   172
1070
     1
1070
   271
1070
     0
1070
   279
1070
     0
1070
   288
1070
     1
1002
}
  0
LINE
  5
7B98
  8
1
  6
CONTINUOUS
 10
4955.9773060000007
 20
3654.2102340000001
 30
0.0
 11
4955.9773060000007
 21
2704.2102340000001
 31
0.0
  0
DIMENSION
  5
7BA7
  8
3
  6
CONTINUOUS
  2
*D9
 10
5213.5568920000023
 20
2704.2102339999992
 30
0.0
 11
5213.5568919999996
 21
3177.8188409999998
 31
0.0
 70
   128
 13
4955.9773060000007
 23
3654.2102340000001
 33
0.0
 14
4955.9773060000007
 24
2704.2102340000001
 34
0.0
 50
90.0
1001
ACAD
1000
DSTYLE
1002
{
1070
   287
1070
     3
1070
     3
1000
φ<>
1070
    40
1040
30.0
1070
   143
1040
0.039
1070
   172
1070
     1
1070
   271
1070
     0
1070
   279
1070
     0
1070
   288
1070
     1
1002
}
  0
DIMENSION
  5
7BB6
  8
3
  6
CONTINUOUS
  2
*D10
 10
4616.9773059999998
 20
4187.7997829999986
 30
0.0
 11
4786.4773059999998
 21
4271.5862917201766
 31
0.0
 70
   128
 13
4955.9773060000007
 23
3654.2102340000001
 33
0.0
 14
4616.9773059999998
 24
4116.6169209999998
 34
0.0
1001
ACAD
1000
DSTYLE
1002
{
1070
   288
1070
     1
1070
   172
1070
     1
1070
    40
1040
30.0
1070
   271
1070
     0
1070
   143
1040
0.039
1002
}
  0
DIMENSION
  5
7BC2
  8
3
  6
CONTINUOUS
  2
*D11
 10
4006.9773060000002
 20
4187.7997829999986
 30
0.0
 11
4311.9773060000007
 21
4337.7997830000004
 31
0.0
 70
     0
  1
MAX\P640
 13
4616.9773059999998
 23
4116.6169209999998
 33
0.0
 14
4006.9773060000002
 24
3684.2102340000001
 34
0.0
1001
ACAD
1000
DSTYLE
1002
{
1070
   287
1070
     4
1070
    40
1040
30.0
1070
    75
1070
     1
1070
   143
1040
0.039
1070
   172
1070
     1
1070
   271
1070
     0
1070
   279
1070
     1
1070
   288
1070
     1
1002
}
  0
DIMENSION
  5
7BCF
  8
3
  6
CONTINUOUS
  2
*D12
 10
4616.9773059999998
 20
2049.8839329999992
 30
0.0
 11
4306.2409200000002
 21
2049.8839329999992
 31
0.0
 70
   128
 13
3968.9773060000002
 23
2273.2102339999992
 33
0.0
 14
4616.9773059999998
 24
2112.067184
 34
0.0
1001
ACAD
1000
DSTYLE
1002
{
1070
   287
1070
     3
1070
    40
1040
30.0
1070
   143
1040
0.039
1070
   172
1070
     1
1070
   271
1070
     0
1070
   279
1070
     0
1070
   288
1070
     1
1002
}
  0
DIMENSION
  5
7BDB
  8
3
  6
CONTINUOUS
  2
*D13
 10
5118.9773060000007
 20
2049.8839329999992
 30
0.0
 11
4867.9773060000007
 21
2124.8839329999992
 31
0.0
 70
     0
 13
4616.9773059999998
 23
2112.067184
 33
0.0
 14
5118.9773060000007
 24
2273.2102339999992
 34
0.0
1001
ACAD
1000
DSTYLE
1002
{
1070
   287
1070
     4
1070
    40
1040
30.0
1070
    75
1070
     1
1070
   143
1040
0.039
1070
   172
1070
     1
1070
   271
1070
     0
1070
   279
1070
     1
1070
   288
1070
     1
1002
}
  0
DIMENSION
  5
7BFF
  8
3
  6
CONTINUOUS
  2
*D14
 10
2750.0603869999991
 20
6590.155769
 30
0.0
 11
1800.939018
 21
6590.155769
 31
0.0
 70
   128
 13
900.06038699999988
 23
6436.3085129999999
 33
0.0
 14
2750.0603869999991
 24
6436.3085129999999
 34
0.0
1001
ACAD
1000
DSTYLE
1002
{
1070
   287
1070
     3
1070
    40
1040
30.0
1070
   143
1040
0.039
1070
   172
1070
     1
1070
   271
1070
     0
1070
   279
1070
     0
1070
   288
1070
     1
1002
}
  0
DIMENSION
  5
7C0C
  8
3
  6
CONTINUOUS
  2
*D15
 10
3069.706067000001
 20
5286.3085129999999
 30
0.0
 11
3069.7060670000001
 21
5911.9203960000013
 31
0.0
 70
   128
 13
2750.0603869999991
 23
6436.3085129999999
 33
0.0
 14
2750.0603869999991
 24
5286.3085129999999
 34
0.0
 50
90.0
1001
ACAD
1000
DSTYLE
1002
{
1070
   287
1070
     3
1070
    40
1040
30.0
1070
   143
1040
0.039
1070
   172
1070
     1
1070
   271
1070
     0
1070
   279
1070
     0
1070
   288
1070
     1
1002
}
  0
DIMENSION
  5
7C38
  8
3
  6
CONTINUOUS
  2
*D16
 10
3263.0456129999998
 20
2273.2102339999992
 30
0.0
 11
3263.0456129999998
 21
3040.8567229999999
 31
0.0
 70
   128
 13
2214.560387
 23
3834.2102340000001
 33
0.0
 14
2750.0603869999991
 24
2273.2102339999992
 34
0.0
 50
90.0
1001
ACAD
1000
DSTYLE
1002
{
1070
   287
1070
     3
1070
    40
1040
30.0
1070
   143
1040
0.039
1070
   172
1070
     1
1070
   271
1070
     0
1070
   279
1070
     0
1070
   288
1070
     1
1002
}
  0
DIMENSION
  5
7C44
  8
3
  6
CONTINUOUS
  2
*D17
 10
2773.0553289917311
 20
4155.9168120000004
 30
0.0
 11
2451.5578579958651
 21
4230.9168119999986
 31
0.0
 70
     0
 13
2130.0603869999991
 23
4002.4166799999989
 33
0.0
 14
2773.0553289917311
 24
3179.2102339999992
 34
0.0
1001
ACAD
1000
DSTYLE
1002
{
1070
   287
1070
     4
1070
    40
1040
30.0
1070
    75
1070
     1
1070
   143
1040
0.039
1070
   172
1070
     1
1070
   271
1070
     0
1070
   279
1070
     1
1070
   288
1070
     1
1002
}
  0
LINE
  5
7D1F
  8
1
  6
CONTINUOUS
 10
1570.0603869999991
 20
3634.2102339999992
 30
0.0
 11
2690.0603869999991
 21
3634.2102340000001
 31
0.0
  0
LINE
  5
7D20
  8
1
 10
1570.060387
 20
2514.2102340000001
 30
0.0
 11
1570.0603869999991
 21
3634.2102339999992
 31
0.0
  0
LINE
  5
7D21
  8
1
 10
2690.0603869999991
 20
2514.2102340000001
 30
0.0
 11
2690.0603869999991
 21
3634.2102340000001
 31
0.0
  0
ENDSEC
  0
EOF
