  0
SECTION
  2
HEADER
  9
$ACADVER
  1
AC1009
  9
$INSBASE
 10
0.0
 20
0.0
 30
0.0
  9
$EXTMIN
 10
750.0
 20
900.0
 30
0.0
  9
$EXTMAX
 10
5550.0
 20
8359.9567849999985
 30
0.0
  9
$LIMMIN
 10
0.0
 20
0.0
  9
$LIMMAX
 10
297.0
 20
210.0
  9
$ORTHOMODE
 70
     0
  9
$REGENMODE
 70
     1
  9
$FILLMODE
 70
     0
  9
$QTEXTMODE
 70
     0
  9
$MIRRTEXT
 70
     1
  9
$DRAGMODE
 70
     2
  9
$LTSCALE
 40
100.0
  9
$OSMODE
 70
    37
  9
$ATTMODE
 70
     1
  9
$TEXTSIZE
 40
180.0
  9
$TRACEWID
 40
0.05
  9
$TEXTSTYLE
  7
STANDARD
  9
$CLAYER
  8
3
  9
$CELTYPE
  6
BYLAYER
  9
$CECOLOR
 62
   256
  9
$DIMSCALE
 40
30.0
  9
$DIMASZ
 40
2.0
  9
$DIMEXO
 40
0.5
  9
$DIMDLI
 40
10.0
  9
$DIMRND
 40
0.0
  9
$DIMDLE
 40
0.0
  9
$DIMEXE
 40
1.0
  9
$DIMTP
 40
1.0
  9
$DIMTM
 40
1.0
  9
$DIMTXT
 40
3.0
  9
$DIMCEN
 40
0.0
  9
$DIMTSZ
 40
0.0
  9
$DIMTOL
 70
     0
  9
$DIMLIM
 70
     0
  9
$DIMTIH
 70
     0
  9
$DIMTOH
 70
     0
  9
$DIMSE1
 70
     0
  9
$DIMSE2
 70
     0
  9
$DIMTAD
 70
     1
  9
$DIMZIN
 70
     8
  9
$DIMBLK
  1

  9
$DIMASO
 70
     1
  9
$DIMSHO
 70
     1
  9
$DIMPOST
  1

  9
$DIMAPOST
  1

  9
$DIMALT
 70
     0
  9
$DIMALTD
 70
     2
  9
$DIMALTF
 40
0.039
  9
$DIMLFAC
 40
1.0
  9
$DIMTOFL
 70
     1
  9
$DIMTVP
 40
0.0
  9
$DIMTIX
 70
     0
  9
$DIMSOXD
 70
     0
  9
$DIMSAH
 70
     1
  9
$DIMBLK1
  1
OPEN
  9
$DIMBLK2
  1
OPEN
  9
$DIMSTYLE
  2
IGA
  9
$DIMCLRD
 70
     0
  9
$DIMCLRE
 70
     0
  9
$DIMCLRT
 70
     0
  9
$DIMTFAC
 40
10.0
  9
$DIMGAP
 40
1.0
  9
$LUNITS
 70
     2
  9
$LUPREC
 70
     3
  9
$SKETCHINC
 40
0.1
  9
$FILLETRAD
 40
50.0
  9
$AUNITS
 70
     0
  9
$AUPREC
 70
     0
  9
$MENU
  1
acad
  9
$ELEVATION
 40
0.0
  9
$PELEVATION
 40
0.0
  9
$THICKNESS
 40
0.0
  9
$LIMCHECK
 70
     0
  9
$BLIPMODE
 70
     0
  9
$CHAMFERA
 40
0.5
  9
$CHAMFERB
 40
0.5
  9
$SKPOLY
 70
     0
  9
$TDCREATE
 40
2450752.4117262731
  9
$TDUPDATE
 40
2454953.7763865278
  9
$TDINDWG
 40
0.0307319329
  9
$TDUSRTIMER
 40
0.0307319329
  9
$USRTIMER
 70
     1
  9
$ANGBASE
 50
0.0
  9
$ANGDIR
 70
     0
  9
$PDMODE
 70
     0
  9
$PDSIZE
 40
0.0
  9
$PLINEWID
 40
0.0
  9
$COORDS
 70
     1
  9
$SPLFRAME
 70
     0
  9
$SPLINETYPE
 70
     6
  9
$SPLINESEGS
 70
     8
  9
$ATTDIA
 70
     0
  9
$ATTREQ
 70
     1
  9
$HANDLING
 70
 10241
  9
$HANDSEED
  5
7DC8
  9
$SURFTAB1
 70
     6
  9
$SURFTAB2
 70
     6
  9
$SURFTYPE
 70
     6
  9
$SURFU
 70
     6
  9
$SURFV
 70
     6
  9
$UCSNAME
  2

  9
$UCSORG
 10
0.0
 20
0.0
 30
0.0
  9
$UCSXDIR
 10
1.0
 20
0.0
 30
0.0
  9
$UCSYDIR
 10
0.0
 20
1.0
 30
0.0
  9
$PUCSNAME
  2

  9
$PUCSORG
 10
0.0
 20
0.0
 30
0.0
  9
$PUCSXDIR
 10
1.0
 20
0.0
 30
0.0
  9
$PUCSYDIR
 10
0.0
 20
1.0
 30
0.0
  9
$USERI1
 70
     0
  9
$USERI2
 70
     0
  9
$USERI3
 70
     0
  9
$USERI4
 70
     0
  9
$USERI5
 70
     0
  9
$USERR1
 40
0.0
  9
$USERR2
 40
0.0
  9
$USERR3
 40
0.0
  9
$USERR4
 40
0.0
  9
$USERR5
 40
0.0
  9
$WORLDVIEW
 70
     1
  9
$SHADEDGE
 70
     3
  9
$SHADEDIF
 70
    70
  9
$TILEMODE
 70
     1
  9
$MAXACTVP
 70
    16
  9
$PLIMCHECK
 70
     0
  9
$PEXTMIN
 10
1.0000000000000000E+020
 20
1.0000000000000000E+020
 30
1.0000000000000000E+020
  9
$PEXTMAX
 10
-1.0000000000000000E+020
 20
-1.0000000000000000E+020
 30
-1.0000000000000000E+020
  9
$PLIMMIN
 10
0.0
 20
0.0
  9
$PLIMMAX
 10
12.0
 20
9.0
  9
$UNITMODE
 70
     0
  9
$VISRETAIN
 70
     0
  9
$PLINEGEN
 70
     0
  9
$PSLTSCALE
 70
     1
  0
ENDSEC
  0
SECTION
  2
TABLES
  0
TABLE
  2
VPORT
 70
     2
  0
VPORT
  2
*ACTIVE
 70
     0
 10
0.0
 20
0.0
 11
1.0
 21
1.0
 12
9438.1687158055174
 22
4629.9562499988788
 13
0.0
 23
0.0
 14
10.0
 24
10.0
 15
10.0
 25
10.0
 16
0.0
 26
0.0
 36
1.0
 17
0.0
 27
0.0
 37
0.0
 40
7517.2452868940854
 41
3.1666666666666661
 42
50.0
 43
0.0
 44
0.0
 50
0.0
 51
0.0
 71
     0
 72
   100
 73
     1
 74
     0
 75
     0
 76
     0
 77
     0
 78
     0
  0
ENDTAB
  0
TABLE
  2
LTYPE
 70
     2
  0
LTYPE
  2
CONTINUOUS
 70
     0
  3
Solid line
 72
    65
 73
     0
 40
0.0
  0
LTYPE
  2
CENTER
 70
     0
  3
____ _ ____ _ ____ _ ____ _ ____ _ ____ _ ____ 
 72
    65
 73
     4
 40
2.0
 49
1.25
 49
-0.25
 49
0.25
 49
-0.25
  0
ENDTAB
  0
TABLE
  2
LAYER
 70
     6
  0
LAYER
  2
0
 70
     0
 62
     7
  6
CONTINUOUS
  0
LAYER
  2
3
 70
     0
 62
     2
  6
CONTINUOUS
  0
LAYER
  2
2
 70
     0
 62
     3
  6
CENTER
  0
LAYER
  2
1
 70
     0
 62
     4
  6
CONTINUOUS
  0
LAYER
  2
4
 70
     0
 62
     7
  6
CONTINUOUS
  0
LAYER
  2
DEFPOINTS
 70
     0
 62
    -7
  6
CONTINUOUS
  0
ENDTAB
  0
TABLE
  2
STYLE
 70
     1
  0
STYLE
  2
STANDARD
 70
     0
 40
0.0
 41
1.0
 50
0.0
 71
     0
 42
180.0
  3
simplex.shx
  4
extfont.shx
  0
ENDTAB
  0
TABLE
  2
VIEW
 70
     0
  0
ENDTAB
  0
TABLE
  2
UCS
 70
     0
  0
ENDTAB
  0
TABLE
  2
APPID
 70
     1
  0
APPID
  2
ACAD
 70
     0
  0
ENDTAB
  0
TABLE
  2
DIMSTYLE
 70
     1
  0
DIMSTYLE
  2
IGA
 70
     0
  3

  4

  5

  6
OPEN
  7
OPEN
 40
2.0
 41
2.0
 42
0.5
 43
10.0
 44
1.0
 45
0.0
 46
0.0
 47
1.0
 48
1.0
140
3.0
141
0.0
142
0.0
143
0.03937
144
1.0
145
0.0
146
10.0
147
1.0
 71
     0
 72
     0
 73
     0
 74
     0
 75
     0
 76
     0
 77
     1
 78
     8
170
     0
171
     2
172
     0
173
     1
174
     0
175
     0
176
     0
177
     0
178
     0
  0
ENDTAB
  0
ENDSEC
  0
SECTION
  2
BLOCKS
  0
BLOCK
  8
0
  2
$MODEL_SPACE
 70
     0
 10
0.0
 20
0.0
 30
0.0
  3
$MODEL_SPACE
  1

  0
ENDBLK
  5
1B
  8
0
  0
BLOCK
 67
     1
  8
0
  2
$PAPER_SPACE
 70
     0
 10
0.0
 20
0.0
 30
0.0
  3
$PAPER_SPACE
  1

  0
ENDBLK
  5
18
 67
     1
  8
0
  0
BLOCK
  8
0
  2
_OPEN
 70
     0
 10
0.0
 20
0.0
 30
0.0
  3
_OPEN
  1

  0
LINE
  5
7B06
  8
0
  6
BYBLOCK
 62
     0
 10
-1.0
 20
0.166667
 30
0.0
 11
0.0
 21
0.0
 31
0.0
  0
LINE
  5
7B07
  8
0
  6
BYBLOCK
 62
     0
 10
0.0
 20
0.0
 30
0.0
 11
-1.0
 21
-0.166667
 31
0.0
  0
LINE
  5
7B08
  8
0
  6
BYBLOCK
 62
     0
 10
0.0
 20
0.0
 30
0.0
 11
-1.0
 21
0.0
 31
0.0
  0
ENDBLK
  5
7B09
  8
0
  0
BLOCK
  8
0
  2
*D1
 70
     1
 10
0.0
 20
0.0
 30
0.0
  3
*D1
  1

  0
LINE
  5
7D20
  8
3
  6
CONTINUOUS
 62
     0
 10
2881.6787024753371
 20
3947.0061110000001
 30
0.0
 11
3119.0327154753381
 21
3947.0061109999988
 31
0.0
  0
LINE
  5
7D21
  8
3
  6
CONTINUOUS
 62
     0
 10
2881.6787024753371
 20
3022.0061110000001
 30
0.0
 11
3119.0327154753381
 21
3022.0061109999988
 31
0.0
  0
LINE
  5
7D22
  8
3
  6
CONTINUOUS
 62
     0
 10
3089.0327154753381
 20
3887.0061109999988
 30
0.0
 11
3089.0327154753381
 21
3082.0061110000001
 31
0.0
  0
INSERT
  5
7D23
  8
3
  6
CONTINUOUS
 62
     0
  2
_OPEN
 10
3089.0327154753381
 20
3947.0061109999988
 30
0.0
 41
60.0
 42
60.0
 43
60.0
 50
90.0
  0
INSERT
  5
7D24
  8
3
  6
CONTINUOUS
 62
     0
  2
_OPEN
 10
3089.0327154753381
 20
3022.0061109999988
 30
0.0
 41
60.0
 42
60.0
 43
60.0
 50
270.0
  0
TEXT
  8
3
  40
90
  5
7DB6
  62
0
  72
0
  71
0
 10
2834.03
 20
3320.81
 30
0.000000
  1
925
  0
POINT
  5
7D26
  8
DEFPOINTS
  6
CONTINUOUS
 62
     0
 10
2866.6787024753371
 20
3947.0061110000001
 30
0.0
  0
POINT
  5
7D27
  8
DEFPOINTS
  6
CONTINUOUS
 62
     0
 10
2866.6787024753371
 20
3022.0061110000001
 30
0.0
  0
POINT
  5
7D28
  8
DEFPOINTS
  6
CONTINUOUS
 62
     0
 10
3089.0327154753381
 20
3022.0061109999988
 30
0.0
  0
ENDBLK
  5
7B50
  8
0
  0
BLOCK
  8
0
  2
*D2
 70
     1
 10
0.0
 20
0.0
 30
0.0
  3
*D2
  1

  0
LINE
  5
7D29
  8
3
  6
CONTINUOUS
 62
     0
 10
2881.6787024753371
 20
3947.0061110000001
 30
0.0
 11
3312.3577844753381
 21
3947.0061109999988
 31
0.0
  0
LINE
  5
7D2A
  8
3
  6
CONTINUOUS
 62
     0
 10
3050.1548794753371
 20
3064.0061110000001
 30
0.0
 11
3312.3577844753381
 21
3064.0061109999988
 31
0.0
  0
LINE
  5
7D2B
  8
3
  6
CONTINUOUS
 62
     0
 10
3282.357784475339
 20
3887.0061109999988
 30
0.0
 11
3282.357784475339
 21
3124.0061109999988
 31
0.0
  0
INSERT
  5
7D2C
  8
3
  6
CONTINUOUS
 62
     0
  2
_OPEN
 10
3282.357784475339
 20
3947.0061109999988
 30
0.0
 41
60.0
 42
60.0
 43
60.0
 50
90.0
  0
INSERT
  5
7D2D
  8
3
  6
CONTINUOUS
 62
     0
  2
_OPEN
 10
3282.3577844753381
 20
3064.0061109999988
 30
0.0
 41
60.0
 42
60.0
 43
60.0
 50
270.0
  0
TEXT
  8
3
  40
90
  5
7DB7
  62
0
  72
0
  71
0
 10
3027.36
 20
3320.81
 30
0.000000
  1
883
  0
POINT
  5
7D2F
  8
DEFPOINTS
  6
CONTINUOUS
 62
     0
 10
2866.6787024753371
 20
3947.0061110000001
 30
0.0
  0
POINT
  5
7D30
  8
DEFPOINTS
  6
CONTINUOUS
 62
     0
 10
3035.1548794753371
 20
3064.0061110000001
 30
0.0
  0
POINT
  5
7D31
  8
DEFPOINTS
  6
CONTINUOUS
 62
     0
 10
3282.3577844753381
 20
3064.0061109999988
 30
0.0
  0
ENDBLK
  5
7B5D
  8
0
  0
BLOCK
  8
0
  2
*D3
 70
     1
 10
0.0
 20
0.0
 30
0.0
  3
*D3
  1

  0
LINE
  5
7D32
  8
3
  6
CONTINUOUS
 62
     0
 10
2796.6787024753371
 20
2299.0061110000001
 30
0.0
 11
3312.3577844753381
 21
2299.0061109999988
 31
0.0
  0
LINE
  5
7D33
  8
3
  6
CONTINUOUS
 62
     0
 10
3282.3577844753381
 20
3004.0061109999988
 30
0.0
 11
3282.3577844753381
 21
2359.0061109999988
 31
0.0
  0
INSERT
  5
7D34
  8
3
  6
CONTINUOUS
 62
     0
  2
_OPEN
 10
3282.3577844753381
 20
3064.0061109999988
 30
0.0
 41
60.0
 42
60.0
 43
60.0
 50
90.0
  0
INSERT
  5
7D35
  8
3
  6
CONTINUOUS
 62
     0
  2
_OPEN
 10
3282.3577844753381
 20
2299.0061109999988
 30
0.0
 41
60.0
 42
60.0
 43
60.0
 50
270.0
  0
TEXT
  8
3
  40
90
  5
7DB8
  62
0
  72
0
  71
0
 10
3027.36
 20
2522.21
 30
0.000000
  1
765
  0
POINT
  5
7D37
  8
DEFPOINTS
  6
CONTINUOUS
 62
     0
 10
3035.1548794753371
 20
3064.0061110000001
 30
0.0
  0
POINT
  5
7D38
  8
DEFPOINTS
  6
CONTINUOUS
 62
     0
 10
2781.6787024753371
 20
2299.0061110000001
 30
0.0
  0
POINT
  5
7D39
  8
DEFPOINTS
  6
CONTINUOUS
 62
     0
 10
3282.3577844753381
 20
2299.0061109999988
 30
0.0
  0
ENDBLK
  5
7B69
  8
0
  0
BLOCK
  8
0
  2
*D4
 70
     1
 10
0.0
 20
0.0
 30
0.0
  3
*D4
  1

  0
LINE
  5
7D3A
  8
3
  6
CONTINUOUS
 62
     0
 10
2796.6787024753371
 20
2299.0061110000001
 30
0.0
 11
3311.7433074753371
 21
2299.0061109999988
 31
0.0
  0
LINE
  5
7D3B
  8
3
  6
CONTINUOUS
 62
     0
 10
2846.6787024753371
 20
2158.0061110000001
 30
0.0
 11
3311.7433074753371
 21
2158.0061110000001
 31
0.0
  0
LINE
  5
7D3C
  8
3
  6
CONTINUOUS
 62
     0
 10
3281.743307475338
 20
2359.0061109999988
 30
0.0
 11
3281.743307475338
 21
2419.0061109999988
 31
0.0
  0
LINE
  5
7D3D
  8
3
  6
CONTINUOUS
 62
     0
 10
3281.743307475338
 20
2098.0061109999988
 30
0.0
 11
3281.743307475338
 21
1802.2918252857139
 31
0.0
  0
LINE
  5
7D3E
  8
3
  6
CONTINUOUS
 62
     0
 10
3281.743307475338
 20
2299.0061109999988
 30
0.0
 11
3281.743307475338
 21
2158.0061110000001
 31
0.0
  0
INSERT
  5
7D3F
  8
3
  6
CONTINUOUS
 62
     0
  2
_OPEN
 10
3281.743307475338
 20
2299.0061109999988
 30
0.0
 41
60.0
 42
60.0
 43
60.0
 50
270.0
  0
INSERT
  5
7D40
  8
3
  6
CONTINUOUS
 62
     0
  2
_OPEN
 10
3281.743307475338
 20
2158.0061110000001
 30
0.0
 41
60.0
 42
60.0
 43
60.0
 50
90.0
  0
TEXT
  8
3
  40
90
  5
7DB9
  62
0
  72
0
  71
0
 10
3026.74
 20
1760.85
 30
0.000000
  1
141
  0
POINT
  5
7D42
  8
DEFPOINTS
  6
CONTINUOUS
 62
     0
 10
2781.6787024753371
 20
2299.0061110000001
 30
0.0
  0
POINT
  5
7D43
  8
DEFPOINTS
  6
CONTINUOUS
 62
     0
 10
2831.678702475338
 20
2158.0061110000001
 30
0.0
  0
POINT
  5
7D44
  8
DEFPOINTS
  6
CONTINUOUS
 62
     0
 10
3281.743307475338
 20
2158.0061110000001
 30
0.0
  0
ENDBLK
  5
7CD3
  8
0
  0
BLOCK
  8
0
  2
*D5
 70
     1
 10
0.0
 20
0.0
 30
0.0
  3
*D5
  1

  0
LINE
  5
7D45
  8
3
  6
CONTINUOUS
 62
     0
 10
2881.6787024753371
 20
3989.5061110000001
 30
0.0
 11
3505.9212144753378
 21
3989.5061110000001
 31
0.0
  0
LINE
  5
7D46
  8
3
  6
CONTINUOUS
 62
     0
 10
2846.6787024753371
 20
2158.0061110000001
 30
0.0
 11
3505.9212144753378
 21
2158.0061110000001
 31
0.0
  0
LINE
  5
7D47
  8
3
  6
CONTINUOUS
 62
     0
 10
3475.9212144753378
 20
3929.5061110000001
 30
0.0
 11
3475.9212144753369
 21
2218.0061109999988
 31
0.0
  0
INSERT
  5
7D48
  8
3
  6
CONTINUOUS
 62
     0
  2
_OPEN
 10
3475.9212144753378
 20
3989.5061110000001
 30
0.0
 41
60.0
 42
60.0
 43
60.0
 50
90.0
  0
INSERT
  5
7D49
  8
3
  6
CONTINUOUS
 62
     0
  2
_OPEN
 10
3475.9212144753369
 20
2158.0061110000001
 30
0.0
 41
60.0
 42
60.0
 43
60.0
 50
270.0
  0
TEXT
  8
3
  40
90
  5
7DBA
  62
0
  72
0
  71
0
 10
3220.92
 20
2922.68
 30
0.000000
  1
1832
  0
POINT
  5
7D4B
  8
DEFPOINTS
  6
CONTINUOUS
 62
     0
 10
2866.6787024753371
 20
3989.5061110000001
 30
0.0
  0
POINT
  5
7D4C
  8
DEFPOINTS
  6
CONTINUOUS
 62
     0
 10
2831.678702475338
 20
2158.0061110000001
 30
0.0
  0
POINT
  5
7D4D
  8
DEFPOINTS
  6
CONTINUOUS
 62
     0
 10
3475.9212144753369
 20
2158.0061110000001
 30
0.0
  0
ENDBLK
  5
7C65
  8
0
  0
BLOCK
  8
0
  2
*D6
 70
     1
 10
0.0
 20
0.0
 30
0.0
  3
*D6
  1

  0
LINE
  5
7D4E
  8
3
  6
CONTINUOUS
 62
     0
 10
981.67870247533745
 20
2143.0061110000001
 30
0.0
 11
981.67870247533745
 21
1933.710898999999
 31
0.0
  0
LINE
  5
7D4F
  8
3
  6
CONTINUOUS
 62
     0
 10
2211.6787024753371
 20
2021.1537860000001
 30
0.0
 11
2211.6787024753371
 21
1933.710898999999
 31
0.0
  0
LINE
  5
7D50
  8
3
  6
CONTINUOUS
 62
     0
 10
1041.6787024753371
 20
1963.710898999999
 30
0.0
 11
2151.6787024753371
 21
1963.710898999999
 31
0.0
  0
INSERT
  5
7D51
  8
3
  6
CONTINUOUS
 62
     0
  2
_OPEN
 10
981.67870247533745
 20
1963.710898999999
 30
0.0
 41
60.0
 42
60.0
 43
60.0
 50
180.0
  0
INSERT
  5
7D52
  8
3
  6
CONTINUOUS
 62
     0
  2
_OPEN
 10
2211.6787024753371
 20
1963.710898999999
 30
0.0
 41
60.0
 42
60.0
 43
60.0
  0
TEXT
  8
3
  40
90
  5
7DBB
  62
0
  72
0
  71
0
 10
1438.59
 20
1879.41
 30
0.000000
  1
1230
  0
POINT
  5
7D54
  8
DEFPOINTS
  6
CONTINUOUS
 62
     0
 10
981.67870247533745
 20
2158.0061110000001
 30
0.0
  0
POINT
  5
7D55
  8
DEFPOINTS
  6
CONTINUOUS
 62
     0
 10
2211.6787024753371
 20
2036.1537859999989
 30
0.0
  0
POINT
  5
7D56
  8
DEFPOINTS
  6
CONTINUOUS
 62
     0
 10
2211.6787024753371
 20
1963.710898999999
 30
0.0
  0
ENDBLK
  5
7B93
  8
0
  0
BLOCK
  8
0
  2
*D7
 70
     1
 10
0.0
 20
0.0
 30
0.0
  3
*D7
  1

  0
LINE
  5
7D57
  8
3
  6
CONTINUOUS
 62
     0
 10
2831.678702475338
 20
2143.0061110000001
 30
0.0
 11
2831.678702475338
 21
1933.710898999999
 31
0.0
  0
LINE
  5
7D58
  8
3
  6
CONTINUOUS
 62
     0
 10
2271.6787024753371
 20
1963.710898999999
 30
0.0
 11
2771.6787024753371
 21
1963.710898999999
 31
0.0
  0
INSERT
  5
7D59
  8
3
  6
CONTINUOUS
 62
     0
  2
_OPEN
 10
2211.6787024753371
 20
1963.710898999999
 30
0.0
 41
60.0
 42
60.0
 43
60.0
 50
180.0
  0
INSERT
  5
7D5A
  8
3
  6
CONTINUOUS
 62
     0
  2
_OPEN
 10
2831.678702475338
 20
1963.710898999999
 30
0.0
 41
60.0
 42
60.0
 43
60.0
  0
TEXT
  8
3
  40
90
  5
7DBC
  62
0
  72
0
  71
0
 10
2341.68
 20
1879.41
 30
0.000000
  1
620
  0
POINT
  5
7D5C
  8
DEFPOINTS
  6
CONTINUOUS
 62
     0
 10
2211.6787024753371
 20
2036.1537859999989
 30
0.0
  0
POINT
  5
7D5D
  8
DEFPOINTS
  6
CONTINUOUS
 62
     0
 10
2831.678702475338
 20
2158.0061110000001
 30
0.0
  0
POINT
  5
7D5E
  8
DEFPOINTS
  6
CONTINUOUS
 62
     0
 10
2831.678702475338
 20
1963.710898999999
 30
0.0
  0
ENDBLK
  5
7B9F
  8
0
  0
BLOCK
  8
0
  2
*D8
 70
     1
 10
0.0
 20
0.0
 30
0.0
  3
*D8
  1

  0
LINE
  5
7D5F
  8
3
  6
CONTINUOUS
 62
     0
 10
2866.6787024753371
 20
4004.5061110000001
 30
0.0
 11
2866.6787024753371
 21
4154.1389300000001
 31
0.0
  0
LINE
  5
7D60
  8
3
  6
CONTINUOUS
 62
     0
 10
2211.6787024753371
 20
4086.4646489999991
 30
0.0
 11
2211.6787024753371
 21
4154.1389300000001
 31
0.0
  0
LINE
  5
7D61
  8
3
  6
CONTINUOUS
 62
     0
 10
2806.678702475338
 20
4124.1389299999992
 30
0.0
 11
2271.6787024753371
 21
4124.1389299999992
 31
0.0
  0
INSERT
  5
7D62
  8
3
  6
CONTINUOUS
 62
     0
  2
_OPEN
 10
2866.6787024753371
 20
4124.1389299999992
 30
0.0
 41
60.0
 42
60.0
 43
60.0
  0
INSERT
  5
7D63
  8
3
  6
CONTINUOUS
 62
     0
  2
_OPEN
 10
2211.6787024753371
 20
4124.1389299999992
 30
0.0
 41
60.0
 42
60.0
 43
60.0
 50
180.0
  0
TEXT
  8
3
  40
90
  5
7DBD
  62
0
  72
0
  71
0
 10
2364.21
 20
4039.84
 30
0.000000
  1
655
  0
POINT
  5
7D65
  8
DEFPOINTS
  6
CONTINUOUS
 62
     0
 10
2866.6787024753371
 20
3989.5061110000001
 30
0.0
  0
POINT
  5
7D66
  8
DEFPOINTS
  6
CONTINUOUS
 62
     0
 10
2211.6787024753371
 20
4071.464649
 30
0.0
  0
POINT
  5
7D67
  8
DEFPOINTS
  6
CONTINUOUS
 62
     0
 10
2211.6787024753371
 20
4124.1389299999992
 30
0.0
  0
ENDBLK
  5
7BAC
  8
0
  0
BLOCK
  8
0
  2
*D9
 70
     1
 10
0.0
 20
0.0
 30
0.0
  3
*D9
  1

  0
LINE
  5
7D68
  8
3
  6
CONTINUOUS
 62
     0
 10
4455.041561
 20
3962.0061110000001
 30
0.0
 11
4455.041561
 21
4130.7196529999992
 31
0.0
  0
LINE
  5
7D69
  8
3
  6
CONTINUOUS
 62
     0
 10
5125.041561
 20
3962.0061110000001
 30
0.0
 11
5125.041561
 21
4130.7196529999992
 31
0.0
  0
LINE
  5
7D6A
  8
3
  6
CONTINUOUS
 62
     0
 10
4515.041561
 20
4100.7196530000001
 30
0.0
 11
5065.0415610000009
 21
4100.7196530000001
 31
0.0
  0
INSERT
  5
7D6B
  8
3
  6
CONTINUOUS
 62
     0
  2
_OPEN
 10
4455.041561
 20
4100.7196530000001
 30
0.0
 41
60.0
 42
60.0
 43
60.0
 50
180.0
  0
INSERT
  5
7D6C
  8
3
  6
CONTINUOUS
 62
     0
  2
_OPEN
 10
5125.041561
 20
4100.7196530000001
 30
0.0
 41
60.0
 42
60.0
 43
60.0
  0
TEXT
  8
3
  40
90
  5
7DBE
  62
0
  72
0
  71
0
 10
4618.00
 20
4016.42
 30
0.000000
  1
670
  0
POINT
  5
7D6E
  8
DEFPOINTS
  6
CONTINUOUS
 62
     0
 10
4455.041561
 20
3947.0061110000001
 30
0.0
  0
POINT
  5
7D6F
  8
DEFPOINTS
  6
CONTINUOUS
 62
     0
 10
5125.041561
 20
3947.0061110000001
 30
0.0
  0
POINT
  5
7D70
  8
DEFPOINTS
  6
CONTINUOUS
 62
     0
 10
5125.041561
 20
4100.7196530000001
 30
0.0
  0
ENDBLK
  5
7BC5
  8
0
  0
BLOCK
  8
0
  2
*D10
 70
     1
 10
0.0
 20
0.0
 30
0.0
  3
*D10
  1

  0
LINE
  5
7D71
  8
3
  6
CONTINUOUS
 62
     0
 10
5144.041561
 20
3539.0061110000001
 30
0.0
 11
5402.1202930000009
 21
3539.0061110000001
 31
0.0
  0
LINE
  5
7D72
  8
3
  6
CONTINUOUS
 62
     0
 10
5144.041561
 20
2589.0061110000001
 30
0.0
 11
5402.1202930000009
 21
2589.0061110000001
 31
0.0
  0
LINE
  5
7D73
  8
3
  6
CONTINUOUS
 62
     0
 10
5372.1202930000009
 20
3479.0061110000001
 30
0.0
 11
5372.1202930000009
 21
2649.0061110000001
 31
0.0
  0
INSERT
  5
7D74
  8
3
  6
CONTINUOUS
 62
     0
  2
_OPEN
 10
5372.1202930000009
 20
3539.0061110000001
 30
0.0
 41
60.0
 42
60.0
 43
60.0
 50
90.0
  0
INSERT
  5
7D75
  8
3
  6
CONTINUOUS
 62
     0
  2
_OPEN
 10
5372.1202930000009
 20
2589.0061110000001
 30
0.0
 41
60.0
 42
60.0
 43
60.0
 50
270.0
  0
TEXT
  8
3
  40
90
  5
7DBF
  62
0
  72
0
  71
0
 10
5117.12
 20
2905.12
 30
0.000000
  1
φ950
  0
POINT
  5
7D77
  8
DEFPOINTS
  6
CONTINUOUS
 62
     0
 10
5129.0415610000009
 20
3539.0061110000001
 30
0.0
  0
POINT
  5
7D78
  8
DEFPOINTS
  6
CONTINUOUS
 62
     0
 10
5129.0415610000009
 20
2589.0061110000001
 30
0.0
  0
POINT
  5
7D79
  8
DEFPOINTS
  6
CONTINUOUS
 62
     0
 10
5372.1202930000009
 20
2589.0061110000001
 30
0.0
  0
ENDBLK
  5
7CC2
  8
0
  0
BLOCK
  8
0
  2
*D11
 70
     1
 10
0.0
 20
0.0
 30
0.0
  3
*D11
  1

  0
LINE
  5
7CA4
  8
0
  6
BYBLOCK
 62
     0
 10
5129.0415610000009
 20
3554.0061110000001
 30
0.0
 11
5129.0415610000009
 21
4318.0738490000003
 31
0.0
  0
LINE
  5
7CA5
  8
0
  6
BYBLOCK
 62
     0
 10
4790.041561
 20
4250.566605
 30
0.0
 11
4790.041561
 21
4318.0738490000003
 31
0.0
  0
LINE
  5
7CA6
  8
0
  6
BYBLOCK
 62
     0
 10
5069.041561
 20
4288.0738490000003
 30
0.0
 11
4850.0415610000009
 21
4288.0738490000003
 31
0.0
  0
TEXT
  5
7CA7
  8
3
 62
     0
 10
4845.9701324285716
 20
4317.4540721804042
 30
0.0
 40
90.0
  1
339
  0
INSERT
  5
7CA8
  8
0
  6
BYBLOCK
 62
     0
  2
_OPEN
 10
5129.0415610000009
 20
4288.0738490000003
 30
0.0
 41
60.0
 42
60.0
 43
60.0
  0
INSERT
  5
7CA9
  8
0
  6
BYBLOCK
 62
     0
  2
_OPEN
 10
4790.041561
 20
4288.0738490000003
 30
0.0
 41
60.0
 42
60.0
 43
60.0
 50
180.0
  0
POINT
  5
7CAA
  8
DEFPOINTS
  6
BYBLOCK
 62
     0
 10
5129.0415610000009
 20
3539.0061110000001
 30
0.0
  0
POINT
  5
7CAB
  8
DEFPOINTS
  6
BYBLOCK
 62
     0
 10
4790.041561
 20
4235.566605
 30
0.0
  0
POINT
  5
7CAC
  8
DEFPOINTS
  6
BYBLOCK
 62
     0
 10
4790.041561
 20
4288.0738490000003
 30
0.0
  0
ENDBLK
  5
7CAD
  8
0
  0
BLOCK
  8
0
  2
*D12
 70
     1
 10
0.0
 20
0.0
 30
0.0
  3
*D12
  1

  0
LINE
  5
7D7A
  8
3
  6
CONTINUOUS
 62
     0
 10
4180.041561
 20
3584.0061110000001
 30
0.0
 11
4180.041561
 21
4318.0738490000003
 31
0.0
  0
LINE
  5
7D7B
  8
3
  6
CONTINUOUS
 62
     0
 10
4730.041561
 20
4288.0738490000003
 30
0.0
 11
4240.041561
 21
4288.0738490000003
 31
0.0
  0
INSERT
  5
7D7C
  8
3
  6
CONTINUOUS
 62
     0
  2
_OPEN
 10
4790.041561
 20
4288.0738490000003
 30
0.0
 41
60.0
 42
60.0
 43
60.0
  0
INSERT
  5
7D7D
  8
3
  6
CONTINUOUS
 62
     0
  2
_OPEN
 10
4180.041561
 20
4288.0738490000003
 30
0.0
 41
60.0
 42
60.0
 43
60.0
 50
180.0
  0
TEXT
  8
3
  40
90
  5
7DC0
  62
0
  72
0
  71
0
 10
4305.04
 20
4278.77
 30
0.000000
  1
MAX
  0
TEXT
  8
3
  40
90
  5
7DC1
  62
0
  72
0
  71
0
 10
4305.04
 20
4161.77
 30
0.000000
  1
640
  0
POINT
  5
7D7F
  8
DEFPOINTS
  6
CONTINUOUS
 62
     0
 10
4790.041561
 20
4235.566605
 30
0.0
  0
POINT
  5
7D80
  8
DEFPOINTS
  6
CONTINUOUS
 62
     0
 10
4180.041561
 20
3569.0061110000001
 30
0.0
  0
POINT
  5
7D81
  8
DEFPOINTS
  6
CONTINUOUS
 62
     0
 10
4180.041561
 20
4288.0738490000003
 30
0.0
  0
ENDBLK
  5
7CB7
  8
0
  0
BLOCK
  8
0
  2
*D13
 70
     1
 10
0.0
 20
0.0
 30
0.0
  3
*D13
  1

  0
LINE
  5
7D82
  8
3
  6
CONTINUOUS
 62
     0
 10
4142.041561
 20
2143.0061110000001
 30
0.0
 11
4142.041561
 21
1927.8560689999999
 31
0.0
  0
LINE
  5
7D83
  8
3
  6
CONTINUOUS
 62
     0
 10
4790.041561
 20
1978.927522
 30
0.0
 11
4790.041561
 21
1927.8560689999999
 31
0.0
  0
LINE
  5
7D84
  8
3
  6
CONTINUOUS
 62
     0
 10
4202.041561
 20
1957.8560689999999
 30
0.0
 11
4730.041561
 21
1957.8560689999999
 31
0.0
  0
INSERT
  5
7D85
  8
3
  6
CONTINUOUS
 62
     0
  2
_OPEN
 10
4142.041561
 20
1957.8560689999999
 30
0.0
 41
60.0
 42
60.0
 43
60.0
 50
180.0
  0
INSERT
  5
7D86
  8
3
  6
CONTINUOUS
 62
     0
  2
_OPEN
 10
4790.041561
 20
1957.8560689999999
 30
0.0
 41
60.0
 42
60.0
 43
60.0
  0
TEXT
  8
3
  40
90
  5
7DC2
  62
0
  72
0
  71
0
 10
4295.79
 20
1873.56
 30
0.000000
  1
648
  0
POINT
  5
7D88
  8
DEFPOINTS
  6
CONTINUOUS
 62
     0
 10
4142.041561
 20
2158.0061110000001
 30
0.0
  0
POINT
  5
7D89
  8
DEFPOINTS
  6
CONTINUOUS
 62
     0
 10
4790.041561
 20
1993.927521999999
 30
0.0
  0
POINT
  5
7D8A
  8
DEFPOINTS
  6
CONTINUOUS
 62
     0
 10
4790.041561
 20
1957.8560689999999
 30
0.0
  0
ENDBLK
  5
7BFD
  8
0
  0
BLOCK
  8
0
  2
*D14
 70
     1
 10
0.0
 20
0.0
 30
0.0
  3
*D14
  1

  0
LINE
  5
7D8B
  8
3
  6
CONTINUOUS
 62
     0
 10
5292.041561
 20
2143.0061110000001
 30
0.0
 11
5292.041561
 21
1927.8560689999999
 31
0.0
  0
LINE
  5
7D8C
  8
3
  6
CONTINUOUS
 62
     0
 10
4850.0415610000009
 20
1957.8560689999999
 30
0.0
 11
5232.0415609999991
 21
1957.8560689999999
 31
0.0
  0
INSERT
  5
7D8D
  8
3
  6
CONTINUOUS
 62
     0
  2
_OPEN
 10
4790.041561
 20
1957.8560689999999
 30
0.0
 41
60.0
 42
60.0
 43
60.0
 50
180.0
  0
INSERT
  5
7D8E
  8
3
  6
CONTINUOUS
 62
     0
  2
_OPEN
 10
5292.041561
 20
1957.8560689999999
 30
0.0
 41
60.0
 42
60.0
 43
60.0
  0
TEXT
  8
3
  40
90
  5
7DC3
  62
0
  72
0
  71
0
 10
4861.04
 20
1873.56
 30
0.000000
  1
502
  0
POINT
  5
7D90
  8
DEFPOINTS
  6
CONTINUOUS
 62
     0
 10
4790.041561
 20
1993.927521999999
 30
0.0
  0
POINT
  5
7D91
  8
DEFPOINTS
  6
CONTINUOUS
 62
     0
 10
5292.041561
 20
2158.0061110000001
 30
0.0
  0
POINT
  5
7D92
  8
DEFPOINTS
  6
CONTINUOUS
 62
     0
 10
5292.041561
 20
1957.8560689999999
 30
0.0
  0
ENDBLK
  5
7C09
  8
0
  0
BLOCK
  8
0
  2
*D15
 70
     1
 10
0.0
 20
0.0
 30
0.0
  3
*D15
  1

  0
LINE
  5
7D93
  8
3
  6
CONTINUOUS
 62
     0
 10
981.67870247533745
 20
6405.5616296487997
 30
0.0
 11
981.67870247533745
 21
6497.6120426488014
 31
0.0
  0
LINE
  5
7D94
  8
3
  6
CONTINUOUS
 62
     0
 10
2831.678702475338
 20
6405.5616296487997
 30
0.0
 11
2831.678702475338
 21
6497.6120426488014
 31
0.0
  0
LINE
  5
7D95
  8
3
  6
CONTINUOUS
 62
     0
 10
1041.6787024753371
 20
6467.6120426488014
 30
0.0
 11
2771.6787024753371
 21
6467.6120426488014
 31
0.0
  0
INSERT
  5
7D96
  8
3
  6
CONTINUOUS
 62
     0
  2
_OPEN
 10
981.67870247533745
 20
6467.6120426488014
 30
0.0
 41
60.0
 42
60.0
 43
60.0
 50
180.0
  0
INSERT
  5
7D97
  8
3
  6
CONTINUOUS
 62
     0
  2
_OPEN
 10
2831.678702475338
 20
6467.6120426488014
 30
0.0
 41
60.0
 42
60.0
 43
60.0
  0
TEXT
  8
3
  40
90
  5
7DC4
  62
0
  72
0
  71
0
 10
1708.07
 20
6383.31
 30
0.000000
  1
1850
  0
POINT
  5
7D99
  8
DEFPOINTS
  6
CONTINUOUS
 62
     0
 10
981.67870247533745
 20
6390.5616296487997
 30
0.0
  0
POINT
  5
7D9A
  8
DEFPOINTS
  6
CONTINUOUS
 62
     0
 10
2831.678702475338
 20
6390.5616296487997
 30
0.0
  0
POINT
  5
7D9B
  8
DEFPOINTS
  6
CONTINUOUS
 62
     0
 10
2831.678702475338
 20
6467.6120426488014
 30
0.0
  0
ENDBLK
  5
7C2D
  8
0
  0
BLOCK
  8
0
  2
*D16
 70
     1
 10
0.0
 20
0.0
 30
0.0
  3
*D16
  1

  0
LINE
  5
7D9C
  8
3
  6
CONTINUOUS
 62
     0
 10
2846.6787024753371
 20
6390.5616296487997
 30
0.0
 11
3160.0410774753391
 21
6390.5616296487997
 31
0.0
  0
LINE
  5
7D9D
  8
3
  6
CONTINUOUS
 62
     0
 10
2846.6787024753371
 20
5240.5616296487997
 30
0.0
 11
3160.0410774753391
 21
5240.5616296487997
 31
0.0
  0
LINE
  5
7D9E
  8
3
  6
CONTINUOUS
 62
     0
 10
3130.0410774753382
 20
6330.5616296487997
 30
0.0
 11
3130.0410774753382
 21
5300.5616296487997
 31
0.0
  0
INSERT
  5
7D9F
  8
3
  6
CONTINUOUS
 62
     0
  2
_OPEN
 10
3130.0410774753382
 20
6390.5616296487997
 30
0.0
 41
60.0
 42
60.0
 43
60.0
 50
90.0
  0
INSERT
  5
7DA0
  8
3
  6
CONTINUOUS
 62
     0
  2
_OPEN
 10
3130.0410774753382
 20
5240.5616296487997
 30
0.0
 41
60.0
 42
60.0
 43
60.0
 50
270.0
  0
TEXT
  8
3
  40
90
  5
7DC5
  62
0
  72
0
  71
0
 10
2875.04
 20
5716.98
 30
0.000000
  1
1150
  0
POINT
  5
7DA2
  8
DEFPOINTS
  6
CONTINUOUS
 62
     0
 10
2831.678702475338
 20
6390.5616296487997
 30
0.0
  0
POINT
  5
7DA3
  8
DEFPOINTS
  6
CONTINUOUS
 62
     0
 10
2831.678702475338
 20
5240.5616296487997
 30
0.0
  0
POINT
  5
7DA4
  8
DEFPOINTS
  6
CONTINUOUS
 62
     0
 10
3130.0410774753382
 20
5240.5616296487997
 30
0.0
  0
ENDBLK
  5
7C3A
  8
0
  0
BLOCK
  8
0
  2
*D17
 70
     1
 10
0.0
 20
0.0
 30
0.0
  3
*D17
  1

  0
LINE
  5
7DA5
  8
3
  6
CONTINUOUS
 62
     0
 10
1468.6787004753371
 20
3079.0061110000001
 30
0.0
 11
1468.6787004753371
 21
4154.1389300000001
 31
0.0
  0
LINE
  5
7DA6
  8
3
  6
CONTINUOUS
 62
     0
 10
2151.6787024753371
 20
4124.1389299999992
 30
0.0
 11
1528.6787004753371
 21
4124.1389299999992
 31
0.0
  0
INSERT
  5
7DA7
  8
3
  6
CONTINUOUS
 62
     0
  2
_OPEN
 10
2211.6787024753371
 20
4124.1389299999992
 30
0.0
 41
60.0
 42
60.0
 43
60.0
  0
INSERT
  5
7DA8
  8
3
  6
CONTINUOUS
 62
     0
  2
_OPEN
 10
1468.6787004753371
 20
4124.1389299999992
 30
0.0
 41
60.0
 42
60.0
 43
60.0
 50
180.0
  0
TEXT
  8
3
  40
90
  5
7DC6
  62
0
  72
0
  71
0
 10
1660.18
 20
4039.84
 30
0.000000
  1
743
  0
POINT
  5
7DAA
  8
DEFPOINTS
  6
CONTINUOUS
 62
     0
 10
2211.6787024753371
 20
4071.464649
 30
0.0
  0
POINT
  5
7DAB
  8
DEFPOINTS
  6
CONTINUOUS
 62
     0
 10
1468.6787004753371
 20
3064.0061110000001
 30
0.0
  0
POINT
  5
7DAC
  8
DEFPOINTS
  6
CONTINUOUS
 62
     0
 10
1468.6787004753371
 20
4124.1389299999992
 30
0.0
  0
ENDBLK
  5
7C70
  8
0
  0
BLOCK
  8
0
  2
*D18
 70
     1
 10
0.0
 20
0.0
 30
0.0
  3
*D18
  1

  0
LINE
  5
7DAD
  8
3
 62
     0
 10
2866.6787024753371
 20
4004.5061110000001
 30
0.0
 11
2866.6787024753371
 21
4341.2541559013662
 31
0.0
  0
LINE
  5
7DAE
  8
3
 62
     0
 10
981.67870247533745
 20
2273.0061110000001
 30
0.0
 11
981.67870247533767
 21
4341.2541559013662
 31
0.0
  0
LINE
  5
7DAF
  8
3
 62
     0
 10
2806.678702475338
 20
4311.2541559013662
 30
0.0
 11
1041.6787024753371
 21
4311.2541559013662
 31
0.0
  0
INSERT
  5
7DB0
  8
3
 62
     0
  2
_OPEN
 10
2866.6787024753371
 20
4311.2541559013662
 30
0.0
 41
60.0
 42
60.0
 43
60.0
  0
INSERT
  5
7DB1
  8
3
 62
     0
  2
_OPEN
 10
981.67870247533767
 20
4311.2541559013662
 30
0.0
 41
60.0
 42
60.0
 43
60.0
 50
180.0
  0
TEXT
  8
3
  40
90
  5
7DC7
  62
0
  72
0
  71
0
 10
1787.02
 20
4226.95
 30
0.000000
  1
1885
  0
POINT
  5
7DB3
  8
DEFPOINTS
 62
     0
 10
2866.6787024753371
 20
3989.5061110000001
 30
0.0
  0
POINT
  5
7DB4
  8
DEFPOINTS
 62
     0
 10
981.67870247533745
 20
2258.0061110000001
 30
0.0
  0
POINT
  5
7DB5
  8
DEFPOINTS
 62
     0
 10
981.67870247533767
 20
4311.2541559013662
 30
0.0
  0
ENDBLK
  5
7C96
  8
0
  0
ENDSEC
  0
SECTION
  2
ENTITIES
  0
LINE
  5
7A91
  8
1
  6
CONTINUOUS
 10
4142.041561
 20
2258.0061110000001
 30
0.0
 11
5292.041561
 21
2258.0061110000001
 31
0.0
  0
LINE
  5
7A92
  8
1
  6
CONTINUOUS
 10
4142.041561
 20
2158.0061110000001
 30
0.0
 11
5292.041561
 21
2158.0061110000001
 31
0.0
  0
POLYLINE
  5
7A93
  8
1
  6
CONTINUOUS
 66
     1
 10
0.0
 20
0.0
 30
0.0
  0
VERTEX
  5
7D1A
  8
1
  6
CONTINUOUS
 10
2866.6787024753371
 20
3947.0061110000001
 30
0.0
  0
VERTEX
  5
7D1B
  8
1
  6
CONTINUOUS
 10
2211.6787024753371
 20
3925.0061110000001
 30
0.0
 42
0.4168370000000001
  0
VERTEX
  5
7D1C
  8
1
  6
CONTINUOUS
 10
1469.2387424753369
 20
3056.8321689999998
 30
0.0
 42
0.429867
  0
VERTEX
  5
7D1D
  8
1
  6
CONTINUOUS
 10
2255.5548624753369
 20
2425.5809340000001
 30
0.0
 42
0.373172
  0
VERTEX
  5
7D1E
  8
1
  6
CONTINUOUS
 10
2779.647429475337
 20
3022.0061110000001
 30
0.0
 42
0.34598
  0
SEQEND
  5
7D1F
  8
1
  6
CONTINUOUS
  0
LINE
  5
7A9D
  8
1
  6
CONTINUOUS
 10
2781.678702475338
 20
2399.0061110000001
 30
0.0
 11
1031.6787024753371
 21
2399.0061110000001
 31
0.0
  0
LINE
  5
7A9E
  8
1
  6
CONTINUOUS
 10
2781.6787024753371
 20
2299.0061110000001
 30
0.0
 11
1031.6787024753371
 21
2299.0061110000001
 31
0.0
  0
LINE
  5
7A9F
  8
1
  6
CONTINUOUS
 10
2831.678702475338
 20
2258.0061110000001
 30
0.0
 11
981.67870247533745
 21
2258.0061110000001
 31
0.0
  0
LINE
  5
7AA0
  8
1
  6
CONTINUOUS
 10
2831.678702475338
 20
2158.0061110000001
 30
0.0
 11
981.67870247533745
 21
2158.0061110000001
 31
0.0
  0
CIRCLE
  5
7AA1
  8
1
  6
CONTINUOUS
 10
2211.6787024753371
 20
3064.0061110000001
 30
0.0
 40
254.0
  0
LINE
  5
7AA2
  8
1
  6
CONTINUOUS
 10
1248.8921134753371
 20
2576.0081759999998
 30
0.0
 11
2269.9747874753371
 21
2816.786439
 31
0.0
  0
LINE
  5
7AA3
  8
2
  6
CENTER
 10
1182.5962904753369
 20
3064.0061110000001
 30
0.0
 11
3064.960892475337
 21
3064.0061110000001
 31
0.0
  0
LINE
  5
7AA4
  8
1
  6
CONTINUOUS
 10
2691.6787024753371
 20
3569.0061110000001
 30
0.0
 11
2031.6787024753371
 21
3569.0061110000001
 31
0.0
  0
LINE
  5
7AA5
  8
1
  6
CONTINUOUS
 10
1044.1787024753371
 20
2489.0061110000001
 30
0.0
 11
1099.021036475337
 21
2556.0225439999999
 31
0.0
  0
LINE
  5
7AA6
  8
1
  6
CONTINUOUS
 10
1051.6787024753371
 20
2749.0061110000001
 30
0.0
 11
2031.6787024753371
 21
3569.0061110000001
 31
0.0
  0
LINE
  5
7AA7
  8
1
  6
CONTINUOUS
 10
981.67870247533745
 20
2158.0061110000001
 30
0.0
 11
981.67870247533745
 21
2258.0061110000001
 31
0.0
  0
LINE
  5
7AA8
  8
1
  6
CONTINUOUS
 10
1031.6787024753371
 20
2399.0061110000001
 30
0.0
 11
1031.6787024753371
 21
2299.0061110000001
 31
0.0
  0
LINE
  5
7AA9
  8
1
  6
CONTINUOUS
 10
1034.1787024753371
 20
2439.0061110000001
 30
0.0
 11
1034.1787024753371
 21
2399.0061110000001
 31
0.0
  0
LINE
  5
7AAA
  8
1
  6
CONTINUOUS
 10
1044.1787024753371
 20
2489.0061110000001
 30
0.0
 11
1034.1787024753371
 21
2439.0061110000001
 31
0.0
  0
LINE
  5
7AAB
  8
1
  6
CONTINUOUS
 10
1051.6787024753371
 20
2399.0061110000001
 30
0.0
 11
1051.6787024753371
 21
2749.0061110000001
 31
0.0
  0
LINE
  5
7AAD
  8
1
  6
CONTINUOUS
 10
1191.233418475337
 20
2712.1660590000001
 30
0.0
 11
2074.7040064753369
 21
3277.9078009999998
 31
0.0
  0
LINE
  5
7AAE
  8
2
  6
CENTER
 10
2211.6787024753371
 20
2036.1537859999989
 30
0.0
 11
2211.6787024753371
 21
4071.464649
 31
0.0
  0
ARC
  5
7AAF
  8
1
  6
CONTINUOUS
 10
1231.6787024753371
 20
2649.0061110000001
 30
0.0
 40
162.0
 50
324.972283
 51
215.02771699999991
  0
CIRCLE
  5
7AB0
  8
1
  6
CONTINUOUS
 10
1231.6787024753371
 20
2649.0061110000001
 30
0.0
 40
75.0
  0
LINE
  5
7AB1
  8
2
  6
CENTER
 10
1231.6787024753371
 20
2569.0061110000001
 30
0.0
 11
1231.6787024753371
 21
2729.0061110000001
 31
0.0
  0
LINE
  5
7AB2
  8
2
  6
CENTER
 10
1151.6787024753371
 20
2649.0061110000001
 30
0.0
 11
1311.6787024753371
 21
2649.0061110000001
 31
0.0
  0
LINE
  5
7AB3
  8
1
  6
CONTINUOUS
 10
1429.1787024753371
 20
2439.0061110000001
 30
0.0
 11
1429.1787024753371
 21
2399.0061110000001
 31
0.0
  0
LINE
  5
7AB4
  8
1
  6
CONTINUOUS
 10
1429.1787024753371
 20
2439.0061110000001
 30
0.0
 11
1419.1787024753371
 21
2489.0061110000001
 31
0.0
  0
LINE
  5
7AB5
  8
1
  6
CONTINUOUS
 10
1364.3363674753371
 20
2556.0225439999999
 30
0.0
 11
1419.1787024753371
 21
2489.0061110000001
 31
0.0
  0
LINE
  5
7AB8
  8
1
  6
CONTINUOUS
 10
2691.6787024753371
 20
2399.0061110000001
 30
0.0
 11
2691.6787024753371
 21
3569.0061110000001
 31
0.0
  0
LINE
  5
7AB9
  8
1
  6
CONTINUOUS
 10
2781.6787024753371
 20
2399.0061110000001
 30
0.0
 11
2781.6787024753371
 21
2299.0061110000001
 31
0.0
  0
LINE
  5
7ABA
  8
1
  6
CONTINUOUS
 10
2831.678702475338
 20
2158.0061110000001
 30
0.0
 11
2831.678702475338
 21
2258.0061110000001
 31
0.0
  0
LINE
  5
7ABB
  8
1
  6
CONTINUOUS
 10
2779.647429475337
 20
3022.0061110000001
 30
0.0
 11
2866.6787024753371
 21
3022.0061110000001
 31
0.0
  0
LINE
  5
7ABC
  8
1
  6
CONTINUOUS
 10
2866.6787024753371
 20
2979.5061110000001
 30
0.0
 11
2866.6787024753371
 21
3989.5061110000001
 31
0.0
  0
LINE
  5
7ABD
  8
1
  6
CONTINUOUS
 10
2826.6787024753371
 20
3022.0061110000001
 30
0.0
 11
2826.6787024753371
 21
3945.6626000000001
 31
0.0
  0
LINE
  5
7ABE
  8
1
  6
CONTINUOUS
 10
4455.041561
 20
3947.0061110000001
 30
0.0
 11
4455.041561
 21
2399.0061110000001
 31
0.0
  0
LINE
  5
7ABF
  8
1
  6
CONTINUOUS
 10
5125.041561
 20
3947.0061110000001
 30
0.0
 11
5125.041561
 21
2399.0061110000001
 31
0.0
  0
LINE
  5
7AC0
  8
1
  6
CONTINUOUS
 10
4265.041561
 20
3318.0061110000001
 30
0.0
 11
4265.041561
 21
2810.0061110000001
 31
0.0
  0
LINE
  5
7AC1
  8
1
  6
CONTINUOUS
 10
4369.041561
 20
3318.0061110000001
 30
0.0
 11
4369.041561
 21
2810.0061110000001
 31
0.0
  0
LINE
  5
7AC2
  8
1
  6
CONTINUOUS
 10
4180.041561
 20
3569.0061110000001
 30
0.0
 11
4180.041561
 21
2399.0061110000001
 31
0.0
  0
LINE
  5
7AC3
  8
1
  6
CONTINUOUS
 10
4402.0415609999991
 20
3569.0061110000001
 30
0.0
 11
4402.0415609999991
 21
2399.0061110000001
 31
0.0
  0
LINE
  5
7AC4
  8
1
  6
CONTINUOUS
 10
4257.041561
 20
2299.0061110000001
 30
0.0
 11
5177.041561
 21
2299.0061110000001
 31
0.0
  0
LINE
  5
7AC5
  8
1
  6
CONTINUOUS
 10
4257.041561
 20
2399.0061110000001
 30
0.0
 11
5177.041561
 21
2399.0061110000001
 31
0.0
  0
LINE
  5
7AC6
  8
1
  6
CONTINUOUS
 10
4142.041561
 20
2258.0061110000001
 30
0.0
 11
4142.041561
 21
2158.0061110000001
 31
0.0
  0
LINE
  5
7AC7
  8
1
  6
CONTINUOUS
 10
4369.041561
 20
2670.0061110000001
 30
0.0
 11
4455.041561
 21
2670.0061110000001
 31
0.0
  0
LINE
  5
7AC8
  8
1
  6
CONTINUOUS
 10
4369.041561
 20
2628.0061110000001
 30
0.0
 11
4455.041561
 21
2628.0061110000001
 31
0.0
  0
LINE
  5
7AC9
  8
1
  6
CONTINUOUS
 10
4180.041561
 20
2399.0061110000001
 30
0.0
 11
4257.041561
 21
2399.0061110000001
 31
0.0
  0
LINE
  5
7ACA
  8
1
  6
CONTINUOUS
 10
4257.041561
 20
2399.0061110000001
 30
0.0
 11
4257.041561
 21
2299.0061110000001
 31
0.0
  0
LINE
  5
7ACB
  8
1
  6
CONTINUOUS
 10
4265.041561
 20
2810.0061110000001
 30
0.0
 11
4369.041561
 21
2810.0061110000001
 31
0.0
  0
LINE
  5
7ACC
  8
1
  6
CONTINUOUS
 10
4265.041561
 20
2724.0061110000001
 30
0.0
 11
4369.041561
 21
2724.0061110000001
 31
0.0
  0
LINE
  5
7ACD
  8
1
  6
CONTINUOUS
 10
4265.041561
 20
2574.0061110000001
 30
0.0
 11
4369.041561
 21
2574.0061110000001
 31
0.0
  0
LINE
  5
7ACE
  8
1
  6
CONTINUOUS
 10
4265.041561
 20
2724.0061110000001
 30
0.0
 11
4265.041561
 21
2574.0061110000001
 31
0.0
  0
LINE
  5
7ACF
  8
1
  6
CONTINUOUS
 10
4369.041561
 20
2724.0061110000001
 30
0.0
 11
4369.041561
 21
2574.0061110000001
 31
0.0
  0
LINE
  5
7AD0
  8
1
  6
CONTINUOUS
 10
5177.041561
 20
2399.0061110000001
 30
0.0
 11
5177.041561
 21
2299.0061110000001
 31
0.0
  0
LINE
  5
7AD1
  8
1
  6
CONTINUOUS
 10
4455.041561
 20
3947.0061110000001
 30
0.0
 11
5125.041561
 21
3947.0061110000001
 31
0.0
  0
LINE
  5
7AD2
  8
1
  6
CONTINUOUS
 10
4455.041561
 20
3022.0061110000001
 30
0.0
 11
5125.041561
 21
3022.0061110000001
 31
0.0
  0
LINE
  5
7AD3
  8
1
  6
CONTINUOUS
 10
4455.041561
 20
3022.0061110000001
 30
0.0
 11
5125.041561
 21
3947.0061110000001
 31
0.0
  0
LINE
  5
7AD4
  8
1
  6
CONTINUOUS
 10
4455.041561
 20
3947.0061110000001
 30
0.0
 11
5125.041561
 21
3022.0061110000001
 31
0.0
  0
LINE
  5
7AD5
  8
1
  6
CONTINUOUS
 10
4369.041561
 20
3089.0061110000001
 30
0.0
 11
4455.041561
 21
3089.0061110000001
 31
0.0
  0
LINE
  5
7AD6
  8
1
  6
CONTINUOUS
 10
4369.041561
 20
3039.0061110000001
 30
0.0
 11
4455.041561
 21
3039.0061110000001
 31
0.0
  0
LINE
  5
7AD7
  8
1
  6
CONTINUOUS
 10
4180.041561
 20
3569.0061110000001
 30
0.0
 11
4402.0415609999991
 21
3569.0061110000001
 31
0.0
  0
LINE
  5
7AD8
  8
1
  6
CONTINUOUS
 10
4265.041561
 20
3318.0061110000001
 30
0.0
 11
4369.041561
 21
3318.0061110000001
 31
0.0
  0
LINE
  5
7AD9
  8
1
  6
CONTINUOUS
 10
2831.678702475338
 20
5355.5616296487997
 30
0.0
 11
981.67870247533745
 21
5355.5616296487997
 31
0.0
  0
LINE
  5
7ADA
  8
1
  6
CONTINUOUS
 10
2866.6787024753371
 20
6223.5616296487988
 30
0.0
 11
1466.511430475337
 21
6223.5616296487988
 31
0.0
  0
LINE
  5
7ADB
  8
1
  6
CONTINUOUS
 10
2866.6787024753371
 20
5553.5616296487997
 30
0.0
 11
1466.511430475337
 21
5553.5616296487997
 31
0.0
  0
LINE
  5
7ADC
  8
1
  6
CONTINUOUS
 10
1957.6787024753371
 20
5467.5616296487988
 30
0.0
 11
2465.6787024753371
 21
5467.5616296487988
 31
0.0
  0
LINE
  5
7ADD
  8
1
  6
CONTINUOUS
 10
1957.6787024753371
 20
5363.5616296487988
 30
0.0
 11
2465.6787024753371
 21
5363.5616296487988
 31
0.0
  0
LINE
  5
7ADE
  8
1
  6
CONTINUOUS
 10
1051.6787024753371
 20
5500.5616296487997
 30
0.0
 11
2691.6787024753371
 21
5500.5616296487997
 31
0.0
  0
LINE
  5
7ADF
  8
1
  6
CONTINUOUS
 10
1051.6787024753371
 20
5330.5616296487997
 30
0.0
 11
2691.6787024753371
 21
5330.5616296487997
 31
0.0
  0
LINE
  5
7AE0
  8
1
  6
CONTINUOUS
 10
2831.678702475338
 20
6275.5616296487997
 30
0.0
 11
981.67870247533745
 21
6275.5616296487997
 31
0.0
  0
LINE
  5
7AE1
  8
1
  6
CONTINUOUS
 10
981.67870247533745
 20
5355.5616296487997
 30
0.0
 11
981.67870247533745
 21
6275.5616296487997
 31
0.0
  0
LINE
  5
7AE2
  8
1
  6
CONTINUOUS
 10
981.67870247533745
 20
5240.5616296487997
 30
0.0
 11
981.67870247533745
 21
5355.5616296487997
 31
0.0
  0
LINE
  5
7AE3
  8
1
  6
CONTINUOUS
 10
981.67870247533745
 20
5240.5616296487997
 30
0.0
 11
1031.6787024753371
 21
5240.5616296487997
 31
0.0
  0
LINE
  5
7AE4
  8
1
  6
CONTINUOUS
 10
1031.6787024753371
 20
5240.5616296487997
 30
0.0
 11
1031.6787024753371
 21
5355.5616296487997
 31
0.0
  0
LINE
  5
7AE5
  8
1
  6
CONTINUOUS
 10
1051.6787024753371
 20
5330.5616296487997
 30
0.0
 11
1051.6787024753371
 21
5500.5616296487997
 31
0.0
  0
LINE
  5
7AE6
  8
1
  6
CONTINUOUS
 10
981.67870247533745
 20
6390.5616296487997
 30
0.0
 11
1031.6787024753371
 21
6390.5616296487997
 31
0.0
  0
LINE
  5
7AE7
  8
1
  6
CONTINUOUS
 10
1031.6787024753371
 20
6275.5616296487997
 30
0.0
 11
1031.6787024753371
 21
6390.5616296487997
 31
0.0
  0
LINE
  5
7AE8
  8
1
  6
CONTINUOUS
 10
981.67870247533745
 20
6275.5616296487997
 30
0.0
 11
981.67870247533745
 21
6390.5616296487997
 31
0.0
  0
LINE
  5
7AE9
  8
1
  6
CONTINUOUS
 10
1466.511430475337
 20
5553.5616296487997
 30
0.0
 11
1466.511430475337
 21
6223.5616296487988
 31
0.0
  0
LINE
  5
7AEA
  8
1
  6
CONTINUOUS
 10
1393.6787024753371
 20
5511.5616296487997
 30
0.0
 11
1393.6787024753371
 21
5996.5616296487997
 31
0.0
  0
LINE
  5
7AEB
  8
1
  6
CONTINUOUS
 10
1069.6787024753371
 20
5511.5616296487997
 30
0.0
 11
1069.6787024753371
 21
5996.5616296487997
 31
0.0
  0
LINE
  5
7AEC
  8
1
  6
CONTINUOUS
 10
1069.6787024753371
 20
5511.5616296487997
 30
0.0
 11
1393.6787024753371
 21
5511.5616296487997
 31
0.0
  0
LINE
  5
7AED
  8
1
  6
CONTINUOUS
 10
1156.6787024753371
 20
5467.5616296487988
 30
0.0
 11
1306.6787024753371
 21
5467.5616296487988
 31
0.0
  0
LINE
  5
7AEE
  8
1
  6
CONTINUOUS
 10
1156.6787024753371
 20
5363.5616296487988
 30
0.0
 11
1306.6787024753371
 21
5363.5616296487988
 31
0.0
  0
LINE
  5
7AEF
  8
1
  6
CONTINUOUS
 10
1252.6787024753371
 20
5467.5616296487988
 30
0.0
 11
1252.6787024753371
 21
5511.5616296487997
 31
0.0
  0
LINE
  5
7AF0
  8
1
  6
CONTINUOUS
 10
1210.6787024753371
 20
5467.5616296487988
 30
0.0
 11
1210.6787024753371
 21
5511.5616296487997
 31
0.0
  0
LINE
  5
7AF1
  8
1
  6
CONTINUOUS
 10
1306.6787024753371
 20
5363.5616296487988
 30
0.0
 11
1306.6787024753371
 21
5467.5616296487988
 31
0.0
  0
LINE
  5
7AF2
  8
1
  6
CONTINUOUS
 10
1156.6787024753371
 20
5363.5616296487988
 30
0.0
 11
1156.6787024753371
 21
5467.5616296487988
 31
0.0
  0
LINE
  5
7AF3
  8
1
  6
CONTINUOUS
 10
2186.6787024753371
 20
5467.5616296487988
 30
0.0
 11
2186.6787024753371
 21
5553.5616296487997
 31
0.0
  0
LINE
  5
7AF4
  8
1
  6
CONTINUOUS
 10
1957.6787024753371
 20
5363.5616296487988
 30
0.0
 11
1957.6787024753371
 21
5467.5616296487988
 31
0.0
  0
LINE
  5
7AF5
  8
1
  6
CONTINUOUS
 10
1069.6787024753371
 20
5996.5616296487997
 30
0.0
 11
1393.6787024753371
 21
5996.5616296487997
 31
0.0
  0
LINE
  5
7AF6
  8
1
  6
CONTINUOUS
 10
2866.6787024753371
 20
5511.5616296487997
 30
0.0
 11
2866.6787024753371
 21
6265.5616296487997
 31
0.0
  0
LINE
  5
7AF7
  8
1
  6
CONTINUOUS
 10
2826.6787024753371
 20
5553.5616296487997
 30
0.0
 11
2826.6787024753371
 21
6223.5616296487988
 31
0.0
  0
LINE
  5
7AF8
  8
1
  6
CONTINUOUS
 10
2781.6787024753371
 20
5240.5616296487997
 30
0.0
 11
2831.678702475338
 21
5240.5616296487997
 31
0.0
  0
LINE
  5
7AF9
  8
1
  6
CONTINUOUS
 10
2236.6787024753371
 20
5467.5616296487988
 30
0.0
 11
2236.6787024753371
 21
5553.5616296487997
 31
0.0
  0
LINE
  5
7AFA
  8
1
  6
CONTINUOUS
 10
2465.6787024753371
 20
5363.5616296487988
 30
0.0
 11
2465.6787024753371
 21
5467.5616296487988
 31
0.0
  0
LINE
  5
7AFB
  8
1
  6
CONTINUOUS
 10
2781.6787024753371
 20
5240.5616296487997
 30
0.0
 11
2781.6787024753371
 21
5355.5616296487997
 31
0.0
  0
LINE
  5
7AFC
  8
1
  6
CONTINUOUS
 10
2691.6787024753371
 20
5330.5616296487997
 30
0.0
 11
2691.6787024753371
 21
5500.5616296487997
 31
0.0
  0
LINE
  5
7AFD
  8
1
  6
CONTINUOUS
 10
2831.678702475338
 20
5240.5616296487997
 30
0.0
 11
2831.678702475338
 21
5355.5616296487997
 31
0.0
  0
LINE
  5
7AFE
  8
1
  6
CONTINUOUS
 10
2831.678702475338
 20
5355.5616296487997
 30
0.0
 11
2831.678702475338
 21
5553.5616296487997
 31
0.0
  0
LINE
  5
7AFF
  8
1
  6
CONTINUOUS
 10
2781.6787024753371
 20
6390.5616296487997
 30
0.0
 11
2831.678702475338
 21
6390.5616296487997
 31
0.0
  0
LINE
  5
7B00
  8
1
  6
CONTINUOUS
 10
2781.6787024753371
 20
6275.5616296487997
 30
0.0
 11
2781.6787024753371
 21
6390.5616296487997
 31
0.0
  0
LINE
  5
7B01
  8
1
  6
CONTINUOUS
 10
2831.678702475338
 20
6275.5616296487997
 30
0.0
 11
2831.678702475338
 21
6390.5616296487997
 31
0.0
  0
LINE
  5
7B02
  8
1
  6
CONTINUOUS
 10
2831.678702475338
 20
6223.5616296487988
 30
0.0
 11
2831.678702475338
 21
6275.5616296487997
 31
0.0
  0
LINE
  5
7B03
  8
1
  6
CONTINUOUS
 10
5292.041561
 20
2258.0061110000001
 30
0.0
 11
5292.041561
 21
2158.0061110000001
 31
0.0
  0
LINE
  5
7B21
  8
2
  6
CENTER
 10
893.61784947533761
 20
5888.5616296487988
 30
0.0
 11
2954.2910114753372
 21
5888.5616296487988
 31
0.0
  0
LINE
  5
7B22
  8
2
  6
CENTER
 10
4790.041561
 20
4111.20316
 30
0.0
 11
4790.041561
 21
1993.927521999999
 31
0.0
  0
LINE
  5
7B23
  8
2
  6
CENTER
 10
2211.6787024753371
 20
5208.6556576488001
 30
0.0
 11
2211.6787024753371
 21
6402.8305566487998
 31
0.0
  0
LINE
  5
7B24
  8
2
  6
CENTER
 10
4124.1997259999989
 20
3064.0061110000001
 30
0.0
 11
5202.2285510000011
 21
3064.0061110000001
 31
0.0
  0
LINE
  5
7B25
  8
4
  6
CONTINUOUS
 10
5550.0
 20
1500.0
 30
0.0
 11
5550.0
 21
900.0
 31
0.0
  0
LINE
  5
7B26
  8
4
  6
CONTINUOUS
 10
3450.0
 20
1500.0
 30
0.0
 11
3450.0
 21
900.0
 31
0.0
  0
LINE
  5
7B27
  8
4
  6
CONTINUOUS
 10
1950.0
 20
1500.0
 30
0.0
 11
1950.0
 21
900.0
 31
0.0
  0
LINE
  5
7B2A
  8
4
  6
CONTINUOUS
 10
1950.0
 20
900.0
 30
0.0
 11
5550.0
 21
900.0
 31
0.0
  0
LINE
  5
7B2B
  8
4
  6
CONTINUOUS
 10
1950.0
 20
1200.0
 30
0.0
 11
5550.0
 21
1200.0
 31
0.0
  0
TEXT
  5
7B2C
  8
4
  6
CONTINUOUS
 10
2065.5062429999989
 20
1294.6290779999999
 30
0.0
 40
150.0
  1
機器名称
  0
TEXT
  5
7B2D
  8
4
  6
CONTINUOUS
 10
2058.7743179999989
 20
964.9354699999999
 30
0.0
 40
150.0
  1
機器型番
  0
TEXT
  5
7B2E
  8
4
  6
CONTINUOUS
 10
3533.0362359999999
 20
1267.7153069999999
 30
0.0
 40
150.0
  1
ミツヤ多翼送風機
  0
TEXT
  5
7B2F
  8
4
  6
CONTINUOUS
 10
3559.9634869999991
 20
951.47875299999987
 30
0.0
 40
150.0
  1
MF#5 1/2-4
  0
TEXT
  5
7B31
  8
4
  6
CONTINUOUS
 10
2195.7213029999998
 20
7150.2865239999992
 30
0.0
 40
162.0
  1
天井吊防振ベット
  0
TEXT
  5
7B32
  8
4
  6
CONTINUOUS
 10
948.50278000000014
 20
7601.6429289999996
 30
0.0
 40
216.0
  1
ベルト駆動式片吸込両持多翼ファン
  0
LINE
  5
7B33
  8
4
  6
CONTINUOUS
 10
750.0
 20
7408.2262629999996
 30
0.0
 11
5550.0
 21
7408.2262629999996
 31
0.0
  0
LINE
  5
7B34
  8
4
  6
CONTINUOUS
 10
750.0
 20
8008.2262629999996
 30
0.0
 11
5550.0
 21
8008.2262629999996
 31
0.0
  0
LINE
  5
7B35
  8
4
  6
CONTINUOUS
 10
1950.0
 20
1500.0
 30
0.0
 11
5550.0
 21
1500.0
 31
0.0
  0
LINE
  5
7B36
  8
4
  6
CONTINUOUS
 10
750.0
 20
8008.2262629999996
 30
0.0
 11
750.0
 21
7408.2262629999996
 31
0.0
  0
TEXT
  5
7B37
  8
4
  6
CONTINUOUS
 10
888.14480600000002
 20
7146.9584329999998
 30
0.0
 40
162.0
  1
右回転右横向
  0
TEXT
  5
7B38
  8
4
  6
CONTINUOUS
 10
4406.9086779999989
 20
8118.1832439999989
 30
0.0
 40
168.0
  1
No.
  0
TEXT
  5
7B39
  8
4
  6
CONTINUOUS
 10
3933.8881879999999
 20
7150.2865239999992
 30
0.0
 40
162.0
  1
縮尺：1/30
  0
LINE
  5
7B3A
  8
4
  6
CONTINUOUS
 10
5550.0
 20
8008.2262629999996
 30
0.0
 11
5550.0
 21
7408.2262629999996
 31
0.0
  0
LINE
  5
7B3C
  8
4
  6
CONTINUOUS
 10
4321.8522670000002
 20
8043.7907490000007
 30
0.0
 11
4321.8522670000002
 21
8359.9567849999985
 31
0.0
  0
LINE
  5
7B3D
  8
4
  6
CONTINUOUS
 10
4321.8522670000002
 20
8359.9567849999985
 30
0.0
 11
5550.0
 21
8359.9567849999985
 31
0.0
  0
LINE
  5
7B3E
  8
4
  6
CONTINUOUS
 10
5550.0
 20
8359.9567849999985
 30
0.0
 11
5550.0
 21
8043.7907490000007
 31
0.0
  0
LINE
  5
7B3F
  8
4
  6
CONTINUOUS
 10
5550.0
 20
8043.7907490000007
 30
0.0
 11
4321.8522670000002
 21
8043.7907490000007
 31
0.0
  0
DIMENSION
  5
7B51
  8
3
  6
CONTINUOUS
  2
*D1
 10
3089.0327154753381
 20
3022.0061109999988
 30
0.0
 11
3089.0327154753381
 21
3480.1088930000001
 31
0.0
 70
   128
 13
2866.6787024753371
 23
3947.0061110000001
 33
0.0
 14
2866.6787024753371
 24
3022.0061110000001
 34
0.0
 50
90.0
1001
ACAD
1000
DSTYLE
1002
{
1070
   287
1070
     3
1070
    40
1040
30.0
1070
   143
1040
0.039
1070
   172
1070
     1
1070
   271
1070
     0
1070
   279
1070
     0
1070
   288
1070
     1
1002
}
  0
DIMENSION
  5
7B5E
  8
3
  6
CONTINUOUS
  2
*D2
 10
3282.3577844753381
 20
3064.0061109999988
 30
0.0
 11
3282.3577844753381
 21
3480.1088930000001
 31
0.0
 70
   128
 13
2866.6787024753371
 23
3947.0061110000001
 33
0.0
 14
3035.1548794753371
 24
3064.0061110000001
 34
0.0
 50
90.0
1001
ACAD
1000
DSTYLE
1002
{
1070
   287
1070
     3
1070
    40
1040
30.0
1070
   143
1040
0.039
1070
   172
1070
     1
1070
   271
1070
     0
1070
   279
1070
     0
1070
   288
1070
     1
1002
}
  0
DIMENSION
  5
7B6A
  8
3
  6
CONTINUOUS
  2
*D3
 10
3282.3577844753381
 20
2299.0061109999988
 30
0.0
 11
3207.3577844753372
 21
2681.5061110000001
 31
0.0
 70
     0
 13
3035.1548794753371
 23
3064.0061110000001
 33
0.0
 14
2781.6787024753371
 24
2299.0061110000001
 34
0.0
 50
90.0
1001
ACAD
1000
DSTYLE
1002
{
1070
   287
1070
     4
1070
    40
1040
30.0
1070
    75
1070
     1
1070
   143
1040
0.039
1070
   172
1070
     1
1070
   271
1070
     0
1070
   279
1070
     1
1070
   288
1070
     1
1002
}
  0
DIMENSION
  5
7B7A
  8
3
  6
CONTINUOUS
  2
*D4
 10
3281.743307475338
 20
2158.0061110000001
 30
0.0
 11
3281.7433074753371
 21
1920.148968142857
 31
0.0
 70
   128
 13
2781.6787024753371
 23
2299.0061110000001
 33
0.0
 14
2831.678702475338
 24
2158.0061110000001
 34
0.0
 50
90.0
1001
ACAD
1000
DSTYLE
1002
{
1070
   287
1070
     3
1070
    40
1040
30.0
1070
   143
1040
0.039
1070
   172
1070
     1
1070
   271
1070
     0
1070
   279
1070
     0
1070
   288
1070
     1
1002
}
  0
DIMENSION
  5
7B87
  8
3
  6
CONTINUOUS
  2
*D5
 10
3475.9212144753369
 20
2158.0061110000001
 30
0.0
 11
3475.9212144753369
 21
3081.9812239999992
 31
0.0
 70
   128
 13
2866.6787024753371
 23
3989.5061110000001
 33
0.0
 14
2831.678702475338
 24
2158.0061110000001
 34
0.0
 50
90.0
1001
ACAD
1000
DSTYLE
1002
{
1070
   287
1070
     3
1070
    40
1040
30.0
1070
   143
1040
0.039
1070
   172
1070
     1
1070
   271
1070
     0
1070
   279
1070
     0
1070
   288
1070
     1
1002
}
  0
DIMENSION
  5
7B94
  8
3
  6
CONTINUOUS
  2
*D6
 10
2211.6787024753371
 20
1963.710898999999
 30
0.0
 11
1618.5903744753371
 21
1963.710898999999
 31
0.0
 70
   128
 13
981.67870247533745
 23
2158.0061110000001
 33
0.0
 14
2211.6787024753371
 24
2036.1537859999989
 34
0.0
1001
ACAD
1000
DSTYLE
1002
{
1070
   287
1070
     3
1070
    40
1040
30.0
1070
   143
1040
0.039
1070
   172
1070
     1
1070
   271
1070
     0
1070
   279
1070
     0
1070
   288
1070
     1
1002
}
  0
DIMENSION
  5
7BA0
  8
3
  6
CONTINUOUS
  2
*D7
 10
2831.678702475338
 20
1963.710898999999
 30
0.0
 11
2521.6787024753371
 21
2038.710898999999
 31
0.0
 70
     0
 13
2211.6787024753371
 23
2036.1537859999989
 33
0.0
 14
2831.678702475338
 24
2158.0061110000001
 34
0.0
1001
ACAD
1000
DSTYLE
1002
{
1070
   287
1070
     4
1070
    40
1040
30.0
1070
    75
1070
     1
1070
   143
1040
0.039
1070
   172
1070
     1
1070
   271
1070
     0
1070
   279
1070
     1
1070
   288
1070
     1
1002
}
  0
DIMENSION
  5
7BAD
  8
3
  6
CONTINUOUS
  2
*D8
 10
2211.6787024753371
 20
4124.1389299999992
 30
0.0
 11
2544.207483475338
 21
4124.1389299999992
 31
0.0
 70
   128
 13
2866.6787024753371
 23
3989.5061110000001
 33
0.0
 14
2211.6787024753371
 24
4071.464649
 34
0.0
1001
ACAD
1000
DSTYLE
1002
{
1070
   287
1070
     3
1070
    40
1040
30.0
1070
   143
1040
0.039
1070
   172
1070
     1
1070
   271
1070
     0
1070
   279
1070
     0
1070
   288
1070
     1
1002
}
  0
DIMENSION
  5
7BC6
  8
3
  6
CONTINUOUS
  2
*D9
 10
5125.041561
 20
4100.7196530000001
 30
0.0
 11
4798.0033780000003
 21
4100.7196530000001
 31
0.0
 70
   128
 13
4455.041561
 23
3947.0061110000001
 33
0.0
 14
5125.041561
 24
3947.0061110000001
 34
0.0
1001
ACAD
1000
DSTYLE
1002
{
1070
   287
1070
     3
1070
    40
1040
30.0
1070
   143
1040
0.039
1070
   172
1070
     1
1070
   271
1070
     0
1070
   279
1070
     0
1070
   288
1070
     1
1002
}
  0
LINE
  5
7BC7
  8
1
  6
CONTINUOUS
 10
5129.0415610000009
 20
3539.0061110000001
 30
0.0
 11
5129.0415610000009
 21
2589.0061110000001
 31
0.0
  0
DIMENSION
  5
7BD6
  8
3
  6
CONTINUOUS
  2
*D10
 10
5372.1202930000009
 20
2589.0061110000001
 30
0.0
 11
5372.1202929999999
 21
3064.416776999999
 31
0.0
 70
   128
 13
5129.0415610000009
 23
3539.0061110000001
 33
0.0
 14
5129.0415610000009
 24
2589.0061110000001
 34
0.0
 50
90.0
1001
ACAD
1000
DSTYLE
1002
{
1070
   287
1070
     3
1070
     3
1000
φ<>
1070
    40
1040
30.0
1070
   143
1040
0.039
1070
   172
1070
     1
1070
   271
1070
     0
1070
   279
1070
     0
1070
   288
1070
     1
1002
}
  0
DIMENSION
  5
7BE5
  8
3
  6
CONTINUOUS
  2
*D11
 10
4790.041561
 20
4288.0738490000003
 30
0.0
 11
4959.541561
 21
4362.4540721804042
 31
0.0
 70
   128
 13
5129.0415610000009
 23
3539.0061110000001
 33
0.0
 14
4790.041561
 24
4235.566605
 34
0.0
1001
ACAD
1000
DSTYLE
1002
{
1070
   288
1070
     1
1070
   172
1070
     1
1070
    40
1040
30.0
1070
   271
1070
     0
1070
   143
1040
0.039
1002
}
  0
DIMENSION
  5
7BF1
  8
3
  6
CONTINUOUS
  2
*D12
 10
4180.041561
 20
4288.0738490000003
 30
0.0
 11
4485.041561
 21
4438.0738490000012
 31
0.0
 70
     0
  1
MAX\P640
 13
4790.041561
 23
4235.566605
 33
0.0
 14
4180.041561
 24
3569.0061110000001
 34
0.0
1001
ACAD
1000
DSTYLE
1002
{
1070
   287
1070
     4
1070
    40
1040
30.0
1070
    75
1070
     1
1070
   143
1040
0.039
1070
   172
1070
     1
1070
   271
1070
     0
1070
   279
1070
     1
1070
   288
1070
     1
1002
}
  0
DIMENSION
  5
7BFE
  8
3
  6
CONTINUOUS
  2
*D13
 10
4790.041561
 20
1957.8560689999999
 30
0.0
 11
4475.7948980000001
 21
1957.8560689999999
 31
0.0
 70
   128
 13
4142.041561
 23
2158.0061110000001
 33
0.0
 14
4790.041561
 24
1993.927521999999
 34
0.0
1001
ACAD
1000
DSTYLE
1002
{
1070
   287
1070
     3
1070
    40
1040
30.0
1070
   143
1040
0.039
1070
   172
1070
     1
1070
   271
1070
     0
1070
   279
1070
     0
1070
   288
1070
     1
1002
}
  0
DIMENSION
  5
7C0A
  8
3
  6
CONTINUOUS
  2
*D14
 10
5292.041561
 20
1957.8560689999999
 30
0.0
 11
5041.041561
 21
2032.8560689999999
 31
0.0
 70
     0
 13
4790.041561
 23
1993.927521999999
 33
0.0
 14
5292.041561
 24
2158.0061110000001
 34
0.0
1001
ACAD
1000
DSTYLE
1002
{
1070
   287
1070
     4
1070
    40
1040
30.0
1070
    75
1070
     1
1070
   143
1040
0.039
1070
   172
1070
     1
1070
   271
1070
     0
1070
   279
1070
     1
1070
   288
1070
     1
1002
}
  0
DIMENSION
  5
7C2E
  8
3
  6
CONTINUOUS
  2
*D15
 10
2831.678702475338
 20
6467.6120426488014
 30
0.0
 11
1888.0738434753371
 21
6467.6120426488014
 31
0.0
 70
   128
 13
981.67870247533745
 23
6390.5616296487997
 33
0.0
 14
2831.678702475338
 24
6390.5616296487997
 34
0.0
1001
ACAD
1000
DSTYLE
1002
{
1070
   287
1070
     3
1070
    40
1040
30.0
1070
   143
1040
0.039
1070
   172
1070
     1
1070
   271
1070
     0
1070
   279
1070
     0
1070
   288
1070
     1
1002
}
  0
DIMENSION
  5
7C3B
  8
3
  6
CONTINUOUS
  2
*D16
 10
3130.0410774753382
 20
5240.5616296487997
 30
0.0
 11
3130.0410774753368
 21
5876.2753686488004
 31
0.0
 70
   128
 13
2831.678702475338
 23
6390.5616296487997
 33
0.0
 14
2831.678702475338
 24
5240.5616296487997
 34
0.0
 50
90.0
1001
ACAD
1000
DSTYLE
1002
{
1070
   287
1070
     3
1070
    40
1040
30.0
1070
   143
1040
0.039
1070
   172
1070
     1
1070
   271
1070
     0
1070
   279
1070
     0
1070
   288
1070
     1
1002
}
  0
DIMENSION
  5
7C71
  8
3
  6
CONTINUOUS
  2
*D17
 10
1468.6787004753371
 20
4124.1389299999992
 30
0.0
 11
1840.178701475337
 21
4199.1389300000001
 31
0.0
 70
     0
 13
2211.6787024753371
 23
4071.464649
 33
0.0
 14
1468.6787004753371
 24
3064.0061110000001
 34
0.0
1001
ACAD
1000
DSTYLE
1002
{
1070
   287
1070
     4
1070
    40
1040
30.0
1070
    75
1070
     1
1070
   143
1040
0.039
1070
   172
1070
     1
1070
   271
1070
     0
1070
   279
1070
     1
1070
   288
1070
     1
1002
}
  0
DIMENSION
  5
7C97
  8
3
  2
*D18
 10
981.67870247533767
 20
4311.2541559013662
 30
0.0
 11
1967.0173577537639
 21
4311.2541559013662
 31
0.0
 70
   128
 13
2866.6787024753371
 23
3989.5061110000001
 33
0.0
 14
981.67870247533745
 24
2258.0061110000001
 34
0.0
1001
ACAD
1000
DSTYLE
1002
{
1070
   287
1070
     3
1070
    40
1040
30.0
1070
   143
1040
0.039
1070
   172
1070
     1
1070
   271
1070
     0
1070
   279
1070
     0
1070
   288
1070
     1
1002
}
  0
LINE
  5
7D02
  8
1
  6
CONTINUOUS
 10
1651.678702475336
 20
3519.0061109999988
 30
0.0
 11
2771.6787024753371
 21
3519.0061110000001
 31
0.0
  0
LINE
  5
7D03
  8
1
 10
1651.6787024753371
 20
2399.0061110000001
 30
0.0
 11
1651.678702475336
 21
3519.0061109999988
 31
0.0
  0
LINE
  5
7D04
  8
1
 10
2771.6787024753371
 20
2399.0061109999988
 30
0.0
 11
2771.6787024753371
 21
3519.0061110000001
 31
0.0
  0
ENDSEC
  0
EOF
