  0
SECTION
  2
HEADER
  9
$ACADVER
  1
AC1009
  9
$INSBASE
 10
0.0
 20
0.0
 30
0.0
  9
$EXTMIN
 10
710.18347099999994
 20
900.0
 30
0.0
  9
$EXTMAX
 10
5550.0
 20
8359.9567849999985
 30
0.0
  9
$LIMMIN
 10
0.0
 20
0.0
  9
$LIMMAX
 10
297.0
 20
210.0
  9
$ORTHOMODE
 70
     0
  9
$REGENMODE
 70
     1
  9
$FILLMODE
 70
     0
  9
$QTEXTMODE
 70
     0
  9
$MIRRTEXT
 70
     1
  9
$DRAGMODE
 70
     2
  9
$LTSCALE
 40
100.0
  9
$OSMODE
 70
    37
  9
$ATTMODE
 70
     1
  9
$TEXTSIZE
 40
180.0
  9
$TRACEWID
 40
0.05
  9
$TEXTSTYLE
  7
STANDARD
  9
$CLAYER
  8
3
  9
$CELTYPE
  6
BYLAYER
  9
$CECOLOR
 62
   256
  9
$DIMSCALE
 40
30.0
  9
$DIMASZ
 40
2.0
  9
$DIMEXO
 40
0.5
  9
$DIMDLI
 40
10.0
  9
$DIMRND
 40
0.0
  9
$DIMDLE
 40
0.0
  9
$DIMEXE
 40
1.0
  9
$DIMTP
 40
1.0
  9
$DIMTM
 40
1.0
  9
$DIMTXT
 40
3.0
  9
$DIMCEN
 40
0.0
  9
$DIMTSZ
 40
0.0
  9
$DIMTOL
 70
     0
  9
$DIMLIM
 70
     0
  9
$DIMTIH
 70
     0
  9
$DIMTOH
 70
     0
  9
$DIMSE1
 70
     0
  9
$DIMSE2
 70
     0
  9
$DIMTAD
 70
     1
  9
$DIMZIN
 70
     8
  9
$DIMBLK
  1

  9
$DIMASO
 70
     1
  9
$DIMSHO
 70
     1
  9
$DIMPOST
  1

  9
$DIMAPOST
  1

  9
$DIMALT
 70
     0
  9
$DIMALTD
 70
     2
  9
$DIMALTF
 40
0.039
  9
$DIMLFAC
 40
1.0
  9
$DIMTOFL
 70
     1
  9
$DIMTVP
 40
0.0
  9
$DIMTIX
 70
     0
  9
$DIMSOXD
 70
     0
  9
$DIMSAH
 70
     1
  9
$DIMBLK1
  1
OPEN
  9
$DIMBLK2
  1
OPEN
  9
$DIMSTYLE
  2
IGA
  9
$DIMCLRD
 70
     0
  9
$DIMCLRE
 70
     0
  9
$DIMCLRT
 70
     0
  9
$DIMTFAC
 40
10.0
  9
$DIMGAP
 40
1.0
  9
$LUNITS
 70
     2
  9
$LUPREC
 70
     3
  9
$SKETCHINC
 40
0.1
  9
$FILLETRAD
 40
50.0
  9
$AUNITS
 70
     0
  9
$AUPREC
 70
     0
  9
$MENU
  1
acad
  9
$ELEVATION
 40
0.0
  9
$PELEVATION
 40
0.0
  9
$THICKNESS
 40
0.0
  9
$LIMCHECK
 70
     0
  9
$BLIPMODE
 70
     0
  9
$CHAMFERA
 40
0.5
  9
$CHAMFERB
 40
0.5
  9
$SKPOLY
 70
     0
  9
$TDCREATE
 40
2450752.4576850692
  9
$TDUPDATE
 40
2454953.7763364352
  9
$TDINDWG
 40
0.0224411227
  9
$TDUSRTIMER
 40
0.0224411227
  9
$USRTIMER
 70
     1
  9
$ANGBASE
 50
0.0
  9
$ANGDIR
 70
     0
  9
$PDMODE
 70
     0
  9
$PDSIZE
 40
0.0
  9
$PLINEWID
 40
0.0
  9
$COORDS
 70
     1
  9
$SPLFRAME
 70
     0
  9
$SPLINETYPE
 70
     6
  9
$SPLINESEGS
 70
     8
  9
$ATTDIA
 70
     0
  9
$ATTREQ
 70
     1
  9
$HANDLING
 70
 10241
  9
$HANDSEED
  5
7E5D
  9
$SURFTAB1
 70
     6
  9
$SURFTAB2
 70
     6
  9
$SURFTYPE
 70
     6
  9
$SURFU
 70
     6
  9
$SURFV
 70
     6
  9
$UCSNAME
  2

  9
$UCSORG
 10
0.0
 20
0.0
 30
0.0
  9
$UCSXDIR
 10
1.0
 20
0.0
 30
0.0
  9
$UCSYDIR
 10
0.0
 20
1.0
 30
0.0
  9
$PUCSNAME
  2

  9
$PUCSORG
 10
0.0
 20
0.0
 30
0.0
  9
$PUCSXDIR
 10
1.0
 20
0.0
 30
0.0
  9
$PUCSYDIR
 10
0.0
 20
1.0
 30
0.0
  9
$USERI1
 70
     0
  9
$USERI2
 70
     0
  9
$USERI3
 70
     0
  9
$USERI4
 70
     0
  9
$USERI5
 70
     0
  9
$USERR1
 40
0.0
  9
$USERR2
 40
0.0
  9
$USERR3
 40
0.0
  9
$USERR4
 40
0.0
  9
$USERR5
 40
0.0
  9
$WORLDVIEW
 70
     1
  9
$SHADEDGE
 70
     3
  9
$SHADEDIF
 70
    70
  9
$TILEMODE
 70
     1
  9
$MAXACTVP
 70
    16
  9
$PLIMCHECK
 70
     0
  9
$PEXTMIN
 10
1.0000000000000000E+020
 20
1.0000000000000000E+020
 30
1.0000000000000000E+020
  9
$PEXTMAX
 10
-1.0000000000000000E+020
 20
-1.0000000000000000E+020
 30
-1.0000000000000000E+020
  9
$PLIMMIN
 10
0.0
 20
0.0
  9
$PLIMMAX
 10
12.0
 20
9.0
  9
$UNITMODE
 70
     0
  9
$VISRETAIN
 70
     0
  9
$PLINEGEN
 70
     0
  9
$PSLTSCALE
 70
     1
  0
ENDSEC
  0
SECTION
  2
TABLES
  0
TABLE
  2
VPORT
 70
     2
  0
VPORT
  2
*ACTIVE
 70
     0
 10
0.0
 20
0.0
 11
1.0
 21
1.0
 12
9418.2674401475833
 22
4629.9562499988788
 13
0.0
 23
0.0
 14
10.0
 24
10.0
 15
10.0
 25
10.0
 16
0.0
 26
0.0
 36
1.0
 17
0.0
 27
0.0
 37
0.0
 40
7517.2452868940854
 41
3.1666666666666661
 42
50.0
 43
0.0
 44
0.0
 50
0.0
 51
0.0
 71
     0
 72
   100
 73
     1
 74
     0
 75
     0
 76
     0
 77
     0
 78
     0
  0
ENDTAB
  0
TABLE
  2
LTYPE
 70
     2
  0
LTYPE
  2
CONTINUOUS
 70
     0
  3
Solid line
 72
    65
 73
     0
 40
0.0
  0
LTYPE
  2
CENTER
 70
     0
  3
____ _ ____ _ ____ _ ____ _ ____ _ ____ _ ____ 
 72
    65
 73
     4
 40
2.0
 49
1.25
 49
-0.25
 49
0.25
 49
-0.25
  0
ENDTAB
  0
TABLE
  2
LAYER
 70
     6
  0
LAYER
  2
0
 70
     0
 62
     7
  6
CONTINUOUS
  0
LAYER
  2
3
 70
     0
 62
     2
  6
CONTINUOUS
  0
LAYER
  2
2
 70
     0
 62
     3
  6
CENTER
  0
LAYER
  2
1
 70
     0
 62
     4
  6
CONTINUOUS
  0
LAYER
  2
4
 70
     0
 62
     7
  6
CONTINUOUS
  0
LAYER
  2
DEFPOINTS
 70
     0
 62
    -7
  6
CONTINUOUS
  0
ENDTAB
  0
TABLE
  2
STYLE
 70
     1
  0
STYLE
  2
STANDARD
 70
     0
 40
0.0
 41
1.0
 50
0.0
 71
     0
 42
180.0
  3
simplex.shx
  4
extfont.shx
  0
ENDTAB
  0
TABLE
  2
VIEW
 70
     0
  0
ENDTAB
  0
TABLE
  2
UCS
 70
     0
  0
ENDTAB
  0
TABLE
  2
APPID
 70
     1
  0
APPID
  2
ACAD
 70
     0
  0
ENDTAB
  0
TABLE
  2
DIMSTYLE
 70
     1
  0
DIMSTYLE
  2
IGA
 70
     0
  3

  4

  5

  6
OPEN
  7
OPEN
 40
2.0
 41
2.0
 42
0.5
 43
10.0
 44
1.0
 45
0.0
 46
0.0
 47
1.0
 48
1.0
140
3.0
141
0.0
142
0.0
143
0.03937
144
1.0
145
0.0
146
10.0
147
1.0
 71
     0
 72
     0
 73
     0
 74
     0
 75
     0
 76
     0
 77
     1
 78
     8
170
     0
171
     2
172
     0
173
     1
174
     0
175
     0
176
     0
177
     0
178
     0
  0
ENDTAB
  0
ENDSEC
  0
SECTION
  2
BLOCKS
  0
BLOCK
  8
0
  2
$MODEL_SPACE
 70
     0
 10
0.0
 20
0.0
 30
0.0
  3
$MODEL_SPACE
  1

  0
ENDBLK
  5
1B
  8
0
  0
BLOCK
 67
     1
  8
0
  2
$PAPER_SPACE
 70
     0
 10
0.0
 20
0.0
 30
0.0
  3
$PAPER_SPACE
  1

  0
ENDBLK
  5
18
 67
     1
  8
0
  0
BLOCK
  8
0
  2
_OPEN
 70
     0
 10
0.0
 20
0.0
 30
0.0
  3
_OPEN
  1

  0
LINE
  5
7B08
  8
0
  6
BYBLOCK
 62
     0
 10
-1.0
 20
0.166667
 30
0.0
 11
0.0
 21
0.0
 31
0.0
  0
LINE
  5
7B09
  8
0
  6
BYBLOCK
 62
     0
 10
0.0
 20
0.0
 30
0.0
 11
-1.0
 21
-0.166667
 31
0.0
  0
LINE
  5
7B0A
  8
0
  6
BYBLOCK
 62
     0
 10
0.0
 20
0.0
 30
0.0
 11
-1.0
 21
0.0
 31
0.0
  0
ENDBLK
  5
7B0B
  8
0
  0
BLOCK
  8
0
  2
*D1
 70
     1
 10
0.0
 20
0.0
 30
0.0
  3
*D1
  1

  0
LINE
  5
7DB5
  8
3
  6
CONTINUOUS
 62
     0
 10
4395.6396580000001
 20
4033.977171
 30
0.0
 11
4395.6396580000001
 21
4200.9444949999997
 31
0.0
  0
LINE
  5
7DB6
  8
3
  6
CONTINUOUS
 62
     0
 10
5065.6396580000001
 20
4033.977171
 30
0.0
 11
5065.6396580000001
 21
4200.9444949999997
 31
0.0
  0
LINE
  5
7DB7
  8
3
  6
CONTINUOUS
 62
     0
 10
4455.6396580000001
 20
4170.9444949999997
 30
0.0
 11
5005.6396580000001
 21
4170.9444949999997
 31
0.0
  0
INSERT
  5
7DB8
  8
3
  6
CONTINUOUS
 62
     0
  2
_OPEN
 10
4395.6396580000001
 20
4170.9444949999997
 30
0.0
 41
60.0
 42
60.0
 43
60.0
 50
180.0
  0
INSERT
  5
7DB9
  8
3
  6
CONTINUOUS
 62
     0
  2
_OPEN
 10
5065.6396580000001
 20
4170.9444949999997
 30
0.0
 41
60.0
 42
60.0
 43
60.0
  0
TEXT
  8
3
  40
90
  5
7E4B
  62
0
  72
0
  71
0
 10
4548.12
 20
4086.64
 30
0.000000
  1
670
  0
POINT
  5
7DBB
  8
DEFPOINTS
  6
CONTINUOUS
 62
     0
 10
4395.6396580000001
 20
4018.977171
 30
0.0
  0
POINT
  5
7DBC
  8
DEFPOINTS
  6
CONTINUOUS
 62
     0
 10
5065.6396580000001
 20
4018.977171
 30
0.0
  0
POINT
  5
7DBD
  8
DEFPOINTS
  6
CONTINUOUS
 62
     0
 10
5065.6396580000001
 20
4170.9444949999997
 30
0.0
  0
ENDBLK
  5
7B51
  8
0
  0
BLOCK
  8
0
  2
*D2
 70
     1
 10
0.0
 20
0.0
 30
0.0
  3
*D2
  1

  0
LINE
  5
7DBE
  8
3
  6
CONTINUOUS
 62
     0
 10
2719.2590289999989
 20
3416.180828
 30
0.0
 11
2984.1534960000008
 21
3416.180828
 31
0.0
  0
LINE
  5
7DBF
  8
3
  6
CONTINUOUS
 62
     0
 10
2719.2590289999989
 20
2491.180828
 30
0.0
 11
2984.1534959999999
 21
2491.180828
 31
0.0
  0
LINE
  5
7DC0
  8
3
  6
CONTINUOUS
 62
     0
 10
2954.1534959999999
 20
3356.180828
 30
0.0
 11
2954.1534959999999
 21
2551.180828
 31
0.0
  0
INSERT
  5
7DC1
  8
3
  6
CONTINUOUS
 62
     0
  2
_OPEN
 10
2954.1534959999999
 20
3416.180828
 30
0.0
 41
60.0
 42
60.0
 43
60.0
 50
90.0
  0
INSERT
  5
7DC2
  8
3
  6
CONTINUOUS
 62
     0
  2
_OPEN
 10
2954.1534959999999
 20
2491.180828
 30
0.0
 41
60.0
 42
60.0
 43
60.0
 50
270.0
  0
TEXT
  8
3
  40
90
  5
7E4C
  62
0
  72
0
  71
0
 10
2699.15
 20
2822.24
 30
0.000000
  1
925
  0
POINT
  5
7DC4
  8
DEFPOINTS
  6
CONTINUOUS
 62
     0
 10
2704.2590289999998
 20
3416.180828
 30
0.0
  0
POINT
  5
7DC5
  8
DEFPOINTS
  6
CONTINUOUS
 62
     0
 10
2704.2590289999998
 20
2491.180828
 30
0.0
  0
POINT
  5
7DC6
  8
DEFPOINTS
  6
CONTINUOUS
 62
     0
 10
2954.1534959999999
 20
2491.180828
 30
0.0
  0
ENDBLK
  5
7B5E
  8
0
  0
BLOCK
  8
0
  2
*D3
 70
     1
 10
0.0
 20
0.0
 30
0.0
  3
*D3
  1

  0
LINE
  5
7DC7
  8
3
  6
CONTINUOUS
 62
     0
 10
2881.4326099999998
 20
3374.180828
 30
0.0
 11
3173.2374870000008
 21
3374.1808279999991
 31
0.0
  0
LINE
  5
7DC8
  8
3
  6
CONTINUOUS
 62
     0
 10
2719.2590289999989
 20
2491.180828
 30
0.0
 11
3173.2374870000008
 21
2491.1808279999991
 31
0.0
  0
LINE
  5
7DC9
  8
3
  6
CONTINUOUS
 62
     0
 10
3143.2374870000008
 20
3314.180828
 30
0.0
 11
3143.2374869999999
 21
2551.1808279999991
 31
0.0
  0
INSERT
  5
7DCA
  8
3
  6
CONTINUOUS
 62
     0
  2
_OPEN
 10
3143.2374870000008
 20
3374.1808279999991
 30
0.0
 41
60.0
 42
60.0
 43
60.0
 50
90.0
  0
INSERT
  5
7DCB
  8
3
  6
CONTINUOUS
 62
     0
  2
_OPEN
 10
3143.2374869999999
 20
2491.1808279999991
 30
0.0
 41
60.0
 42
60.0
 43
60.0
 50
270.0
  0
TEXT
  8
3
  40
90
  5
7E4D
  62
0
  72
0
  71
0
 10
2888.24
 20
2816.68
 30
0.000000
  1
883
  0
POINT
  5
7DCD
  8
DEFPOINTS
  6
CONTINUOUS
 62
     0
 10
2866.4326099999998
 20
3374.180828
 30
0.0
  0
POINT
  5
7DCE
  8
DEFPOINTS
  6
CONTINUOUS
 62
     0
 10
2704.2590289999998
 20
2491.180828
 30
0.0
  0
POINT
  5
7DCF
  8
DEFPOINTS
  6
CONTINUOUS
 62
     0
 10
3143.2374869999999
 20
2491.1808279999991
 30
0.0
  0
ENDBLK
  5
7B6B
  8
0
  0
BLOCK
  8
0
  2
*D4
 70
     1
 10
0.0
 20
0.0
 30
0.0
  3
*D4
  1

  0
LINE
  5
7DD0
  8
3
  6
CONTINUOUS
 62
     0
 10
819.25902900000006
 20
2128.180828
 30
0.0
 11
819.25902900000006
 21
1857.3685629999991
 31
0.0
  0
LINE
  5
7DD1
  8
3
  6
CONTINUOUS
 62
     0
 10
2049.2590289999989
 20
1998.672505
 30
0.0
 11
2049.2590289999989
 21
1857.3685629999991
 31
0.0
  0
LINE
  5
7DD2
  8
3
  6
CONTINUOUS
 62
     0
 10
879.25902900000006
 20
1887.368563
 30
0.0
 11
1989.2590289999989
 21
1887.368563
 31
0.0
  0
INSERT
  5
7DD3
  8
3
  6
CONTINUOUS
 62
     0
  2
_OPEN
 10
819.25902900000006
 20
1887.368563
 30
0.0
 41
60.0
 42
60.0
 43
60.0
 50
180.0
  0
INSERT
  5
7DD4
  8
3
  6
CONTINUOUS
 62
     0
  2
_OPEN
 10
2049.2590289999989
 20
1887.368563
 30
0.0
 41
60.0
 42
60.0
 43
60.0
  0
TEXT
  8
3
  40
90
  5
7E4E
  62
0
  72
0
  71
0
 10
1291.58
 20
1803.07
 30
0.000000
  1
1230
  0
POINT
  5
7DD6
  8
DEFPOINTS
  6
CONTINUOUS
 62
     0
 10
819.25902900000006
 20
2143.180828
 30
0.0
  0
POINT
  5
7DD7
  8
DEFPOINTS
  6
CONTINUOUS
 62
     0
 10
2049.2590289999989
 20
2013.672505
 30
0.0
  0
POINT
  5
7DD8
  8
DEFPOINTS
  6
CONTINUOUS
 62
     0
 10
2049.2590289999989
 20
1887.368563
 30
0.0
  0
ENDBLK
  5
7CD4
  8
0
  0
BLOCK
  8
0
  2
*D5
 70
     1
 10
0.0
 20
0.0
 30
0.0
  3
*D5
  1

  0
LINE
  5
7DD9
  8
3
  6
CONTINUOUS
 62
     0
 10
2669.2590289999998
 20
2128.180828
 30
0.0
 11
2669.2590289999998
 21
1857.3685629999991
 31
0.0
  0
LINE
  5
7DDA
  8
3
  6
CONTINUOUS
 62
     0
 10
2109.2590289999989
 20
1887.368563
 30
0.0
 11
2609.2590289999998
 21
1887.368563
 31
0.0
  0
INSERT
  5
7DDB
  8
3
  6
CONTINUOUS
 62
     0
  2
_OPEN
 10
2049.2590289999989
 20
1887.368563
 30
0.0
 41
60.0
 42
60.0
 43
60.0
 50
180.0
  0
INSERT
  5
7DDC
  8
3
  6
CONTINUOUS
 62
     0
  2
_OPEN
 10
2669.2590289999998
 20
1887.368563
 30
0.0
 41
60.0
 42
60.0
 43
60.0
  0
TEXT
  8
3
  40
90
  5
7E4F
  62
0
  72
0
  71
0
 10
2179.26
 20
1803.07
 30
0.000000
  1
620
  0
POINT
  5
7DDE
  8
DEFPOINTS
  6
CONTINUOUS
 62
     0
 10
2049.2590289999989
 20
2013.672505
 30
0.0
  0
POINT
  5
7DDF
  8
DEFPOINTS
  6
CONTINUOUS
 62
     0
 10
2669.2590289999998
 20
2143.180828
 30
0.0
  0
POINT
  5
7DE0
  8
DEFPOINTS
  6
CONTINUOUS
 62
     0
 10
2669.2590289999998
 20
1887.368563
 30
0.0
  0
ENDBLK
  5
7CDE
  8
0
  0
BLOCK
  8
0
  2
*D6
 70
     1
 10
0.0
 20
0.0
 30
0.0
  3
*D6
  1

  0
LINE
  5
7DE1
  8
3
  6
CONTINUOUS
 62
     0
 10
2704.2590289999998
 20
3473.6808279999991
 30
0.0
 11
2704.2590289999998
 21
4229.8407909999987
 31
0.0
  0
LINE
  5
7DE2
  8
3
  6
CONTINUOUS
 62
     0
 10
2049.2590289999989
 20
4193.484684
 30
0.0
 11
2049.2590289999989
 21
4229.8407909999987
 31
0.0
  0
LINE
  5
7DE3
  8
3
  6
CONTINUOUS
 62
     0
 10
2644.2590289999998
 20
4199.8407909999987
 30
0.0
 11
2109.2590289999989
 21
4199.8407909999987
 31
0.0
  0
INSERT
  5
7DE4
  8
3
  6
CONTINUOUS
 62
     0
  2
_OPEN
 10
2704.2590289999998
 20
4199.8407909999987
 30
0.0
 41
60.0
 42
60.0
 43
60.0
  0
INSERT
  5
7DE5
  8
3
  6
CONTINUOUS
 62
     0
  2
_OPEN
 10
2049.2590289999989
 20
4199.8407909999987
 30
0.0
 41
60.0
 42
60.0
 43
60.0
 50
180.0
  0
TEXT
  8
3
  40
90
  5
7E50
  62
0
  72
0
  71
0
 10
2174.98
 20
4115.54
 30
0.000000
  1
655
  0
POINT
  5
7DE7
  8
DEFPOINTS
  6
CONTINUOUS
 62
     0
 10
2704.2590289999998
 20
3458.680828
 30
0.0
  0
POINT
  5
7DE8
  8
DEFPOINTS
  6
CONTINUOUS
 62
     0
 10
2049.2590289999989
 20
4178.4846839999991
 30
0.0
  0
POINT
  5
7DE9
  8
DEFPOINTS
  6
CONTINUOUS
 62
     0
 10
2049.2590289999989
 20
4199.8407909999987
 30
0.0
  0
ENDBLK
  5
7BC7
  8
0
  0
BLOCK
  8
0
  2
*D7
 70
     1
 10
0.0
 20
0.0
 30
0.0
  3
*D7
  1

  0
LINE
  5
7DEA
  8
3
  6
CONTINUOUS
 62
     0
 10
5084.6396580000001
 20
3849.180828
 30
0.0
 11
5363.9738430000007
 21
3849.1808279999991
 31
0.0
  0
LINE
  5
7DEB
  8
3
  6
CONTINUOUS
 62
     0
 10
5084.6396580000001
 20
2899.180828
 30
0.0
 11
5363.9738430000007
 21
2899.180828
 31
0.0
  0
LINE
  5
7DEC
  8
3
  6
CONTINUOUS
 62
     0
 10
5333.9738430000007
 20
3789.180828
 30
0.0
 11
5333.9738430000007
 21
2959.1808279999991
 31
0.0
  0
INSERT
  5
7DED
  8
3
  6
CONTINUOUS
 62
     0
  2
_OPEN
 10
5333.9738430000007
 20
3849.1808279999991
 30
0.0
 41
60.0
 42
60.0
 43
60.0
 50
90.0
  0
INSERT
  5
7DEE
  8
3
  6
CONTINUOUS
 62
     0
  2
_OPEN
 10
5333.9738430000007
 20
2899.180828
 30
0.0
 41
60.0
 42
60.0
 43
60.0
 50
270.0
  0
TEXT
  8
3
  40
90
  5
7E51
  62
0
  72
0
  71
0
 10
5078.97
 20
3218.98
 30
0.000000
  1
φ950
  0
POINT
  5
7DF0
  8
DEFPOINTS
  6
CONTINUOUS
 62
     0
 10
5069.6396579999991
 20
3849.180828
 30
0.0
  0
POINT
  5
7DF1
  8
DEFPOINTS
  6
CONTINUOUS
 62
     0
 10
5069.6396579999991
 20
2899.180828
 30
0.0
  0
POINT
  5
7DF2
  8
DEFPOINTS
  6
CONTINUOUS
 62
     0
 10
5333.9738430000007
 20
2899.180828
 30
0.0
  0
ENDBLK
  5
7D6E
  8
0
  0
BLOCK
  8
0
  2
*D8
 70
     1
 10
0.0
 20
0.0
 30
0.0
  3
*D8
  1

  0
LINE
  5
7D50
  8
0
  6
BYBLOCK
 62
     0
 10
5069.6396579999991
 20
3864.180828
 30
0.0
 11
5069.6396579999991
 21
4395.379003
 31
0.0
  0
LINE
  5
7D51
  8
0
  6
BYBLOCK
 62
     0
 10
4730.6396580000001
 20
4324.4093389999989
 30
0.0
 11
4730.6396580000001
 21
4395.379003
 31
0.0
  0
LINE
  5
7D52
  8
0
  6
BYBLOCK
 62
     0
 10
5009.639658000001
 20
4365.379003
 30
0.0
 11
4790.6396579999991
 21
4365.379003
 31
0.0
  0
TEXT
  5
7D53
  8
3
 62
     0
 10
4786.5682294285716
 20
4401.4237315159262
 30
0.0
 40
90.0
  1
339
  0
INSERT
  5
7D54
  8
0
  6
BYBLOCK
 62
     0
  2
_OPEN
 10
5069.6396579999991
 20
4365.379003
 30
0.0
 41
60.0
 42
60.0
 43
60.0
  0
INSERT
  5
7D55
  8
0
  6
BYBLOCK
 62
     0
  2
_OPEN
 10
4730.6396580000001
 20
4365.379003
 30
0.0
 41
60.0
 42
60.0
 43
60.0
 50
180.0
  0
POINT
  5
7D56
  8
DEFPOINTS
  6
BYBLOCK
 62
     0
 10
5069.6396579999991
 20
3849.180828
 30
0.0
  0
POINT
  5
7D57
  8
DEFPOINTS
  6
BYBLOCK
 62
     0
 10
4730.6396580000001
 20
4309.4093389999998
 30
0.0
  0
POINT
  5
7D58
  8
DEFPOINTS
  6
BYBLOCK
 62
     0
 10
4730.6396580000001
 20
4365.379003
 30
0.0
  0
ENDBLK
  5
7D59
  8
0
  0
BLOCK
  8
0
  2
*D9
 70
     1
 10
0.0
 20
0.0
 30
0.0
  3
*D9
  1

  0
LINE
  5
7DF3
  8
3
  6
CONTINUOUS
 62
     0
 10
4120.6396580000001
 20
3829.180828
 30
0.0
 11
4120.6396580000001
 21
4395.379003
 31
0.0
  0
LINE
  5
7DF4
  8
3
  6
CONTINUOUS
 62
     0
 10
4670.6396580000001
 20
4365.379003
 30
0.0
 11
4180.6396580000001
 21
4365.379003
 31
0.0
  0
INSERT
  5
7DF5
  8
3
  6
CONTINUOUS
 62
     0
  2
_OPEN
 10
4730.6396580000001
 20
4365.379003
 30
0.0
 41
60.0
 42
60.0
 43
60.0
  0
INSERT
  5
7DF6
  8
3
  6
CONTINUOUS
 62
     0
  2
_OPEN
 10
4120.6396580000001
 20
4365.379003
 30
0.0
 41
60.0
 42
60.0
 43
60.0
 50
180.0
  0
TEXT
  8
3
  40
90
  5
7E52
  62
0
  72
0
  71
0
 10
4245.64
 20
4356.08
 30
0.000000
  1
MAX
  0
TEXT
  8
3
  40
90
  5
7E53
  62
0
  72
0
  71
0
 10
4245.64
 20
4239.08
 30
0.000000
  1
640
  0
POINT
  5
7DF8
  8
DEFPOINTS
  6
CONTINUOUS
 62
     0
 10
4730.6396580000001
 20
4309.4093389999998
 30
0.0
  0
POINT
  5
7DF9
  8
DEFPOINTS
  6
CONTINUOUS
 62
     0
 10
4120.6396580000001
 20
3814.1808279999991
 30
0.0
  0
POINT
  5
7DFA
  8
DEFPOINTS
  6
CONTINUOUS
 62
     0
 10
4120.6396580000001
 20
4365.379003
 30
0.0
  0
ENDBLK
  5
7D63
  8
0
  0
BLOCK
  8
0
  2
*D10
 70
     1
 10
0.0
 20
0.0
 30
0.0
  3
*D10
  1

  0
LINE
  5
7DFB
  8
3
  6
CONTINUOUS
 62
     0
 10
4082.6396579999991
 20
2128.180828
 30
0.0
 11
4082.6396579999991
 21
1855.941196
 31
0.0
  0
LINE
  5
7DFC
  8
3
  6
CONTINUOUS
 62
     0
 10
4730.6396580000001
 20
1947.8466899999989
 30
0.0
 11
4730.6396580000001
 21
1855.941196
 31
0.0
  0
LINE
  5
7DFD
  8
3
  6
CONTINUOUS
 62
     0
 10
4142.6396580000001
 20
1885.941196
 30
0.0
 11
4670.6396580000001
 21
1885.941196
 31
0.0
  0
INSERT
  5
7DFE
  8
3
  6
CONTINUOUS
 62
     0
  2
_OPEN
 10
4082.6396579999991
 20
1885.941196
 30
0.0
 41
60.0
 42
60.0
 43
60.0
 50
180.0
  0
INSERT
  5
7DFF
  8
3
  6
CONTINUOUS
 62
     0
  2
_OPEN
 10
4730.6396580000001
 20
1885.941196
 30
0.0
 41
60.0
 42
60.0
 43
60.0
  0
TEXT
  8
3
  40
90
  5
7E54
  62
0
  72
0
  71
0
 10
4246.03
 20
1801.64
 30
0.000000
  1
648
  0
POINT
  5
7E01
  8
DEFPOINTS
  6
CONTINUOUS
 62
     0
 10
4082.6396579999991
 20
2143.180828
 30
0.0
  0
POINT
  5
7E02
  8
DEFPOINTS
  6
CONTINUOUS
 62
     0
 10
4730.6396580000001
 20
1962.8466900000001
 30
0.0
  0
POINT
  5
7E03
  8
DEFPOINTS
  6
CONTINUOUS
 62
     0
 10
4730.6396580000001
 20
1885.941196
 30
0.0
  0
ENDBLK
  5
7CF3
  8
0
  0
BLOCK
  8
0
  2
*D11
 70
     1
 10
0.0
 20
0.0
 30
0.0
  3
*D11
  1

  0
LINE
  5
7E04
  8
3
  6
CONTINUOUS
 62
     0
 10
5232.6396580000001
 20
2128.180828
 30
0.0
 11
5232.6396580000001
 21
1855.941196
 31
0.0
  0
LINE
  5
7E05
  8
3
  6
CONTINUOUS
 62
     0
 10
4790.6396579999991
 20
1885.941196
 30
0.0
 11
5172.6396580000001
 21
1885.941196
 31
0.0
  0
INSERT
  5
7E06
  8
3
  6
CONTINUOUS
 62
     0
  2
_OPEN
 10
4730.6396580000001
 20
1885.941196
 30
0.0
 41
60.0
 42
60.0
 43
60.0
 50
180.0
  0
INSERT
  5
7E07
  8
3
  6
CONTINUOUS
 62
     0
  2
_OPEN
 10
5232.6396580000001
 20
1885.941196
 30
0.0
 41
60.0
 42
60.0
 43
60.0
  0
TEXT
  8
3
  40
90
  5
7E55
  62
0
  72
0
  71
0
 10
4801.64
 20
1801.64
 30
0.000000
  1
502
  0
POINT
  5
7E09
  8
DEFPOINTS
  6
CONTINUOUS
 62
     0
 10
4730.6396580000001
 20
1962.8466900000001
 30
0.0
  0
POINT
  5
7E0A
  8
DEFPOINTS
  6
CONTINUOUS
 62
     0
 10
5232.6396580000001
 20
2143.180828
 30
0.0
  0
POINT
  5
7E0B
  8
DEFPOINTS
  6
CONTINUOUS
 62
     0
 10
5232.6396580000001
 20
1885.941196
 30
0.0
  0
ENDBLK
  5
7CE8
  8
0
  0
BLOCK
  8
0
  2
*D12
 70
     1
 10
0.0
 20
0.0
 30
0.0
  3
*D12
  1

  0
LINE
  5
7E0C
  8
3
  6
CONTINUOUS
 62
     0
 10
819.25902900000006
 20
6497.8599920000006
 30
0.0
 11
819.25902900000006
 21
6661.1227230000004
 31
0.0
  0
LINE
  5
7E0D
  8
3
  6
CONTINUOUS
 62
     0
 10
2669.2590289999998
 20
6497.8599920000006
 30
0.0
 11
2669.2590289999998
 21
6661.1227230000004
 31
0.0
  0
LINE
  5
7E0E
  8
3
  6
CONTINUOUS
 62
     0
 10
879.25902900000006
 20
6631.1227230000004
 30
0.0
 11
2609.2590289999998
 21
6631.1227230000004
 31
0.0
  0
INSERT
  5
7E0F
  8
3
  6
CONTINUOUS
 62
     0
  2
_OPEN
 10
819.25902900000006
 20
6631.1227230000004
 30
0.0
 41
60.0
 42
60.0
 43
60.0
 50
180.0
  0
INSERT
  5
7E10
  8
3
  6
CONTINUOUS
 62
     0
  2
_OPEN
 10
2669.2590289999998
 20
6631.1227230000004
 30
0.0
 41
60.0
 42
60.0
 43
60.0
  0
TEXT
  8
3
  40
90
  5
7E56
  62
0
  72
0
  71
0
 10
1480.94
 20
6546.82
 30
0.000000
  1
1850
  0
POINT
  5
7E12
  8
DEFPOINTS
  6
CONTINUOUS
 62
     0
 10
819.25902900000006
 20
6482.8599919999997
 30
0.0
  0
POINT
  5
7E13
  8
DEFPOINTS
  6
CONTINUOUS
 62
     0
 10
2669.2590289999998
 20
6482.8599919999997
 30
0.0
  0
POINT
  5
7E14
  8
DEFPOINTS
  6
CONTINUOUS
 62
     0
 10
2669.2590289999998
 20
6631.1227230000004
 30
0.0
  0
ENDBLK
  5
7C3B
  8
0
  0
BLOCK
  8
0
  2
*D13
 70
     1
 10
0.0
 20
0.0
 30
0.0
  3
*D13
  1

  0
LINE
  5
7E15
  8
3
  6
CONTINUOUS
 62
     0
 10
2684.2590289999998
 20
6482.8599919999997
 30
0.0
 11
3009.2159780000011
 21
6482.8599919999997
 31
0.0
  0
LINE
  5
7E16
  8
3
  6
CONTINUOUS
 62
     0
 10
2684.2590289999998
 20
5332.8599920000006
 30
0.0
 11
3009.2159780000011
 21
5332.8599920000006
 31
0.0
  0
LINE
  5
7E17
  8
3
  6
CONTINUOUS
 62
     0
 10
2979.2159780000011
 20
6422.8599920000006
 30
0.0
 11
2979.2159780000011
 21
5392.8599920000006
 31
0.0
  0
INSERT
  5
7E18
  8
3
  6
CONTINUOUS
 62
     0
  2
_OPEN
 10
2979.2159780000011
 20
6482.8599919999997
 30
0.0
 41
60.0
 42
60.0
 43
60.0
 50
90.0
  0
INSERT
  5
7E19
  8
3
  6
CONTINUOUS
 62
     0
  2
_OPEN
 10
2979.2159780000011
 20
5332.8599920000006
 30
0.0
 41
60.0
 42
60.0
 43
60.0
 50
270.0
  0
TEXT
  8
3
  40
90
  5
7E57
  62
0
  72
0
  71
0
 10
2724.22
 20
5819.32
 30
0.000000
  1
1150
  0
POINT
  5
7E1B
  8
DEFPOINTS
  6
CONTINUOUS
 62
     0
 10
2669.2590289999998
 20
6482.8599919999997
 30
0.0
  0
POINT
  5
7E1C
  8
DEFPOINTS
  6
CONTINUOUS
 62
     0
 10
2669.2590289999998
 20
5332.8599920000006
 30
0.0
  0
POINT
  5
7E1D
  8
DEFPOINTS
  6
CONTINUOUS
 62
     0
 10
2979.2159780000011
 20
5332.8599920000006
 30
0.0
  0
ENDBLK
  5
7C48
  8
0
  0
BLOCK
  8
0
  2
*D14
 70
     1
 10
0.0
 20
0.0
 30
0.0
  3
*D14
  1

  0
LINE
  5
7E1E
  8
3
  6
CONTINUOUS
 62
     0
 10
1306.2590270000001
 20
3389.180828
 30
0.0
 11
1306.2590270000001
 21
4229.8407909999987
 31
0.0
  0
LINE
  5
7E1F
  8
3
  6
CONTINUOUS
 62
     0
 10
1989.2590289999989
 20
4199.8407909999987
 30
0.0
 11
1366.2590270000001
 21
4199.8407909999987
 31
0.0
  0
INSERT
  5
7E20
  8
3
  6
CONTINUOUS
 62
     0
  2
_OPEN
 10
2049.2590289999989
 20
4199.8407909999987
 30
0.0
 41
60.0
 42
60.0
 43
60.0
  0
INSERT
  5
7E21
  8
3
  6
CONTINUOUS
 62
     0
  2
_OPEN
 10
1306.2590270000001
 20
4199.8407909999987
 30
0.0
 41
60.0
 42
60.0
 43
60.0
 50
180.0
  0
TEXT
  8
3
  40
90
  5
7E58
  62
0
  72
0
  71
0
 10
1497.76
 20
4115.54
 30
0.000000
  1
743
  0
POINT
  5
7E23
  8
DEFPOINTS
  6
CONTINUOUS
 62
     0
 10
2049.2590289999989
 20
4178.4846839999991
 30
0.0
  0
POINT
  5
7E24
  8
DEFPOINTS
  6
CONTINUOUS
 62
     0
 10
1306.2590270000001
 20
3374.180828
 30
0.0
  0
POINT
  5
7E25
  8
DEFPOINTS
  6
CONTINUOUS
 62
     0
 10
1306.2590270000001
 20
4199.8407909999987
 30
0.0
  0
ENDBLK
  5
7C78
  8
0
  0
BLOCK
  8
0
  2
*D15
 70
     1
 10
0.0
 20
0.0
 30
0.0
  3
*D15
  1

  0
LINE
  5
7E26
  8
3
  6
CONTINUOUS
 62
     0
 10
2064.2590289999989
 20
4017.1757709917301
 30
0.0
 11
3393.5210579999998
 21
4017.1757709917301
 31
0.0
  0
LINE
  5
7E27
  8
3
  6
CONTINUOUS
 62
     0
 10
2857.9374360000002
 20
3374.180828
 30
0.0
 11
3393.5210579999998
 21
3374.1808279999991
 31
0.0
  0
LINE
  5
7E28
  8
3
  6
CONTINUOUS
 62
     0
 10
3363.5210579999998
 20
3957.1757709917301
 30
0.0
 11
3363.5210579999998
 21
3434.1808279999991
 31
0.0
  0
INSERT
  5
7E29
  8
3
  6
CONTINUOUS
 62
     0
  2
_OPEN
 10
3363.5210579999998
 20
4017.1757709917301
 30
0.0
 41
60.0
 42
60.0
 43
60.0
 50
90.0
  0
INSERT
  5
7E2A
  8
3
  6
CONTINUOUS
 62
     0
  2
_OPEN
 10
3363.5210579999998
 20
3374.1808279999991
 30
0.0
 41
60.0
 42
60.0
 43
60.0
 50
270.0
  0
TEXT
  8
3
  40
90
  5
7E59
  62
0
  72
0
  71
0
 10
3108.52
 20
3573.72
 30
0.000000
  1
643
  0
POINT
  5
7E2C
  8
DEFPOINTS
  6
CONTINUOUS
 62
     0
 10
2049.2590289999989
 20
4017.1757709917301
 30
0.0
  0
POINT
  5
7E2D
  8
DEFPOINTS
  6
CONTINUOUS
 62
     0
 10
2842.9374360000002
 20
3374.180828
 30
0.0
  0
POINT
  5
7E2E
  8
DEFPOINTS
  6
CONTINUOUS
 62
     0
 10
3363.5210579999998
 20
3374.1808279999991
 30
0.0
  0
ENDBLK
  5
7D36
  8
0
  0
BLOCK
  8
0
  2
*D16
 70
     1
 10
0.0
 20
0.0
 30
0.0
  3
*D16
  1

  0
LINE
  5
7E2F
  8
3
  6
CONTINUOUS
 62
     0
 10
2634.2590289999998
 20
2284.180828
 30
0.0
 11
3393.5210579999989
 21
2284.1808279999991
 31
0.0
  0
LINE
  5
7E30
  8
3
  6
CONTINUOUS
 62
     0
 10
3363.5210579999998
 20
3314.180828
 30
0.0
 11
3363.5210579999989
 21
2344.1808279999991
 31
0.0
  0
INSERT
  5
7E31
  8
3
  6
CONTINUOUS
 62
     0
  2
_OPEN
 10
3363.5210579999998
 20
3374.1808279999991
 30
0.0
 41
60.0
 42
60.0
 43
60.0
 50
90.0
  0
INSERT
  5
7E32
  8
3
  6
CONTINUOUS
 62
     0
  2
_OPEN
 10
3363.5210579999989
 20
2284.1808279999991
 30
0.0
 41
60.0
 42
60.0
 43
60.0
 50
270.0
  0
TEXT
  8
3
  40
90
  5
7E5A
  62
0
  72
0
  71
0
 10
3108.52
 20
2669.88
 30
0.000000
  1
1090
  0
POINT
  5
7E34
  8
DEFPOINTS
  6
CONTINUOUS
 62
     0
 10
2842.9374360000002
 20
3374.180828
 30
0.0
  0
POINT
  5
7E35
  8
DEFPOINTS
  6
CONTINUOUS
 62
     0
 10
2619.2590289999998
 20
2284.180828
 30
0.0
  0
POINT
  5
7E36
  8
DEFPOINTS
  6
CONTINUOUS
 62
     0
 10
3363.5210579999989
 20
2284.1808279999991
 30
0.0
  0
ENDBLK
  5
7C91
  8
0
  0
BLOCK
  8
0
  2
*D17
 70
     1
 10
0.0
 20
0.0
 30
0.0
  3
*D17
  1

  0
LINE
  5
7E37
  8
3
  6
CONTINUOUS
 62
     0
 10
2634.2590289999998
 20
2284.180828
 30
0.0
 11
3393.5210579999998
 21
2284.1808279999991
 31
0.0
  0
LINE
  5
7E38
  8
3
  6
CONTINUOUS
 62
     0
 10
2684.2590289999998
 20
2143.180828
 30
0.0
 11
3393.5210579999998
 21
2143.1808279999991
 31
0.0
  0
LINE
  5
7E39
  8
3
  6
CONTINUOUS
 62
     0
 10
3363.5210579999998
 20
2344.1808279999991
 30
0.0
 11
3363.5210579999998
 21
2404.1808279999991
 31
0.0
  0
LINE
  5
7E3A
  8
3
  6
CONTINUOUS
 62
     0
 10
3363.5210579999998
 20
2083.1808279999991
 30
0.0
 11
3363.5210579999998
 21
1787.466542285714
 31
0.0
  0
LINE
  5
7E3B
  8
3
  6
CONTINUOUS
 62
     0
 10
3363.5210579999998
 20
2284.1808279999991
 30
0.0
 11
3363.5210579999998
 21
2143.1808279999991
 31
0.0
  0
INSERT
  5
7E3C
  8
3
  6
CONTINUOUS
 62
     0
  2
_OPEN
 10
3363.5210579999998
 20
2284.1808279999991
 30
0.0
 41
60.0
 42
60.0
 43
60.0
 50
270.0
  0
INSERT
  5
7E3D
  8
3
  6
CONTINUOUS
 62
     0
  2
_OPEN
 10
3363.5210579999998
 20
2143.1808279999991
 30
0.0
 41
60.0
 42
60.0
 43
60.0
 50
90.0
  0
TEXT
  8
3
  40
90
  5
7E5B
  62
0
  72
0
  71
0
 10
3108.52
 20
1746.02
 30
0.000000
  1
141
  0
POINT
  5
7E3F
  8
DEFPOINTS
  6
CONTINUOUS
 62
     0
 10
2619.2590289999998
 20
2284.180828
 30
0.0
  0
POINT
  5
7E40
  8
DEFPOINTS
  6
CONTINUOUS
 62
     0
 10
2669.2590289999998
 20
2143.180828
 30
0.0
  0
POINT
  5
7E41
  8
DEFPOINTS
  6
CONTINUOUS
 62
     0
 10
3363.5210579999998
 20
2143.1808279999991
 30
0.0
  0
ENDBLK
  5
7D14
  8
0
  0
BLOCK
  8
0
  2
*D18
 70
     1
 10
0.0
 20
0.0
 30
0.0
  3
*D18
  1

  0
LINE
  5
7E42
  8
3
 62
     0
 10
2704.2590289999998
 20
3473.6808279999991
 30
0.0
 11
2704.2590289999998
 21
4419.9709981543956
 31
0.0
  0
LINE
  5
7E43
  8
3
 62
     0
 10
819.25902900000006
 20
2248.180828
 30
0.0
 11
819.25902900000006
 21
4419.9709981543956
 31
0.0
  0
LINE
  5
7E44
  8
3
 62
     0
 10
2644.2590289999998
 20
4389.9709981543956
 30
0.0
 11
879.25902900000006
 21
4389.9709981543956
 31
0.0
  0
INSERT
  5
7E45
  8
3
 62
     0
  2
_OPEN
 10
2704.2590289999998
 20
4389.9709981543956
 30
0.0
 41
60.0
 42
60.0
 43
60.0
  0
INSERT
  5
7E46
  8
3
 62
     0
  2
_OPEN
 10
819.25902900000006
 20
4389.9709981543956
 30
0.0
 41
60.0
 42
60.0
 43
60.0
 50
180.0
  0
TEXT
  8
3
  40
90
  5
7E5C
  62
0
  72
0
  71
0
 10
1641.53
 20
4305.67
 30
0.000000
  1
1885
  0
POINT
  5
7E48
  8
DEFPOINTS
 62
     0
 10
2704.2590289999998
 20
3458.680828
 30
0.0
  0
POINT
  5
7E49
  8
DEFPOINTS
 62
     0
 10
819.25902900000006
 20
2233.180828
 30
0.0
  0
POINT
  5
7E4A
  8
DEFPOINTS
 62
     0
 10
819.25902900000006
 20
4389.9709981543956
 30
0.0
  0
ENDBLK
  5
7D42
  8
0
  0
ENDSEC
  0
SECTION
  2
ENTITIES
  0
POLYLINE
  5
7A92
  8
1
  6
CONTINUOUS
 66
     1
 10
0.0
 20
0.0
 30
0.0
  0
VERTEX
  5
7DAF
  8
1
  6
CONTINUOUS
 10
2704.2590289999998
 20
2491.180828
 30
0.0
  0
VERTEX
  5
7DB0
  8
1
  6
CONTINUOUS
 10
2049.2590289999989
 20
2513.180828
 30
0.0
 42
-0.4168370000000001
  0
VERTEX
  5
7DB1
  8
1
  6
CONTINUOUS
 10
1306.8190689999999
 20
3381.3547699999999
 30
0.0
 42
-0.429867
  0
VERTEX
  5
7DB2
  8
1
  6
CONTINUOUS
 10
2093.1351890000001
 20
4012.6060050000001
 30
0.0
 42
-0.373172
  0
VERTEX
  5
7DB3
  8
1
  6
CONTINUOUS
 10
2617.2277560000002
 20
3416.180828
 30
0.0
 42
-0.34598
  0
SEQEND
  5
7DB4
  8
1
  6
CONTINUOUS
  0
LINE
  5
7A9C
  8
1
  6
CONTINUOUS
 10
2619.2590289999998
 20
2384.180828
 30
0.0
 11
869.25902900000006
 21
2384.180828
 31
0.0
  0
LINE
  5
7A9D
  8
1
  6
CONTINUOUS
 10
2619.2590289999998
 20
2284.180828
 30
0.0
 11
869.25902900000006
 21
2284.180828
 31
0.0
  0
LINE
  5
7A9E
  8
1
  6
CONTINUOUS
 10
2669.2590289999998
 20
2243.180828
 30
0.0
 11
819.25902900000006
 21
2243.180828
 31
0.0
  0
LINE
  5
7A9F
  8
1
  6
CONTINUOUS
 10
2669.2590289999998
 20
2143.180828
 30
0.0
 11
819.25902900000006
 21
2143.180828
 31
0.0
  0
LINE
  5
7AA0
  8
1
  6
CONTINUOUS
 10
2529.2590289999998
 20
3814.1808279999991
 30
0.0
 11
1869.2590290000001
 21
3814.1808279999991
 31
0.0
  0
LINE
  5
7AA1
  8
1
  6
CONTINUOUS
 10
889.25902899999994
 20
2724.180828
 30
0.0
 11
1869.2590290000001
 21
3814.1808279999991
 31
0.0
  0
LINE
  5
7AA2
  8
1
  6
CONTINUOUS
 10
1015.520658
 20
2676.4989660000001
 30
0.0
 11
1867.2650799999999
 21
3551.364920999999
 31
0.0
  0
LINE
  5
7AA3
  8
1
  6
CONTINUOUS
 10
1105.7191800000001
 20
2558.6395629999988
 30
0.0
 11
2172.737408
 21
3152.2144119999998
 31
0.0
  0
LINE
  5
7AA4
  8
1
  6
CONTINUOUS
 10
819.25902900000006
 20
2133.1808279999991
 30
0.0
 11
819.25902900000006
 21
2233.180828
 31
0.0
  0
ARC
  5
7AA5
  8
1
  6
CONTINUOUS
 10
1069.2590289999989
 20
2634.180828
 30
0.0
 40
162.0
 50
324.972283
 51
215.02771699999991
  0
CIRCLE
  5
7AA6
  8
1
  6
CONTINUOUS
 10
1069.2590289999989
 20
2634.180828
 30
0.0
 40
75.0
  0
LINE
  5
7AA7
  8
2
  6
CENTER
 10
989.25902899999994
 20
2634.180828
 30
0.0
 11
1149.2590289999989
 21
2634.180828
 31
0.0
  0
LINE
  5
7AA8
  8
1
  6
CONTINUOUS
 10
869.25902900000006
 20
2384.180828
 30
0.0
 11
869.25902900000006
 21
2284.180828
 31
0.0
  0
LINE
  5
7AA9
  8
1
  6
CONTINUOUS
 10
871.75902900000006
 20
2424.180828
 30
0.0
 11
871.75902900000006
 21
2384.180828
 31
0.0
  0
LINE
  5
7AAA
  8
1
  6
CONTINUOUS
 10
881.75902900000006
 20
2474.180828
 30
0.0
 11
871.75902900000006
 21
2424.180828
 31
0.0
  0
LINE
  5
7AAB
  8
1
  6
CONTINUOUS
 10
881.75902900000006
 20
2474.180828
 30
0.0
 11
936.60136300000011
 21
2541.1972609999998
 31
0.0
  0
LINE
  5
7AAC
  8
1
  6
CONTINUOUS
 10
889.25902899999994
 20
2384.180828
 30
0.0
 11
889.25902899999994
 21
2724.180828
 31
0.0
  0
LINE
  5
7AAD
  8
1
  6
CONTINUOUS
 10
1266.7590289999989
 20
2424.180828
 30
0.0
 11
1266.7590289999989
 21
2384.180828
 31
0.0
  0
LINE
  5
7AAE
  8
1
  6
CONTINUOUS
 10
1266.7590289999989
 20
2424.180828
 30
0.0
 11
1256.7590289999989
 21
2474.180828
 31
0.0
  0
LINE
  5
7AAF
  8
1
  6
CONTINUOUS
 10
1201.916694
 20
2541.1972609999998
 30
0.0
 11
1256.7590289999989
 21
2474.180828
 31
0.0
  0
LINE
  5
7AB0
  8
2
  6
CENTER
 10
1069.2590289999989
 20
2554.180828
 30
0.0
 11
1069.2590289999989
 21
2714.1808279999991
 31
0.0
  0
CIRCLE
  5
7AB2
  8
1
  6
CONTINUOUS
 10
2049.2590289999989
 20
3374.180828
 30
0.0
 40
254.0
  0
LINE
  5
7AB3
  8
2
  6
CENTER
 10
1061.212555999999
 20
3374.180828
 30
0.0
 11
2842.9374360000002
 21
3374.180828
 31
0.0
  0
LINE
  5
7AB4
  8
2
  6
CENTER
 10
2049.2590289999989
 20
2031.668723
 30
0.0
 11
2049.2590289999989
 21
4206.4809020000002
 31
0.0
  0
LINE
  5
7AB5
  8
1
  6
CONTINUOUS
 10
4197.6396579999991
 20
2284.180828
 30
0.0
 11
5117.6396580000001
 21
2284.180828
 31
0.0
  0
LINE
  5
7AB6
  8
1
  6
CONTINUOUS
 10
4082.6396579999991
 20
2243.180828
 30
0.0
 11
5232.6396580000001
 21
2243.180828
 31
0.0
  0
LINE
  5
7AB7
  8
1
  6
CONTINUOUS
 10
4082.6396579999991
 20
2143.180828
 30
0.0
 11
5232.6396580000001
 21
2143.180828
 31
0.0
  0
LINE
  5
7AB8
  8
1
  6
CONTINUOUS
 10
4395.6396580000001
 20
2491.180828
 30
0.0
 11
5065.6396580000001
 21
3416.180828
 31
0.0
  0
LINE
  5
7AB9
  8
1
  6
CONTINUOUS
 10
4395.6396580000001
 20
3416.180828
 30
0.0
 11
5065.6396580000001
 21
2491.180828
 31
0.0
  0
LINE
  5
7ABA
  8
1
  6
CONTINUOUS
 10
4197.6396579999991
 20
2384.180828
 30
0.0
 11
5117.6396580000001
 21
2384.180828
 31
0.0
  0
LINE
  5
7ABB
  8
1
  6
CONTINUOUS
 10
4395.6396580000001
 20
4018.977171
 30
0.0
 11
5065.6396580000001
 21
4018.977171
 31
0.0
  0
LINE
  5
7ABC
  8
1
  6
CONTINUOUS
 10
4395.6396580000001
 20
3416.180828
 30
0.0
 11
5065.6396580000001
 21
3416.180828
 31
0.0
  0
LINE
  5
7ABD
  8
1
  6
CONTINUOUS
 10
4395.6396580000001
 20
2491.180828
 30
0.0
 11
5065.6396580000001
 21
2491.180828
 31
0.0
  0
LINE
  5
7ABE
  8
1
  6
CONTINUOUS
 10
2704.2590289999998
 20
3458.680828
 30
0.0
 11
2704.2590289999998
 21
2448.680828
 31
0.0
  0
LINE
  5
7ABF
  8
1
  6
CONTINUOUS
 10
2664.2590289999998
 20
3416.180828
 30
0.0
 11
2664.2590289999998
 21
2492.5243390000001
 31
0.0
  0
LINE
  5
7AC1
  8
1
  6
CONTINUOUS
 10
4395.6396580000001
 20
4018.977171
 30
0.0
 11
4395.6396580000001
 21
2384.180828
 31
0.0
  0
LINE
  5
7AC2
  8
1
  6
CONTINUOUS
 10
2529.2590289999998
 20
2384.180828
 30
0.0
 11
2529.2590289999998
 21
3814.1808279999991
 31
0.0
  0
LINE
  5
7AC3
  8
1
  6
CONTINUOUS
 10
4120.6396580000001
 20
3814.1808279999991
 30
0.0
 11
4120.6396580000001
 21
2384.180828
 31
0.0
  0
LINE
  5
7AC4
  8
1
  6
CONTINUOUS
 10
4342.6396580000001
 20
3814.1808279999991
 30
0.0
 11
4342.6396580000001
 21
2384.180828
 31
0.0
  0
LINE
  5
7AC6
  8
1
  6
CONTINUOUS
 10
2669.2590289999998
 20
2143.180828
 30
0.0
 11
2669.2590289999998
 21
2243.180828
 31
0.0
  0
LINE
  5
7AC7
  8
1
  6
CONTINUOUS
 10
2619.2590289999998
 20
2384.180828
 30
0.0
 11
2619.2590289999998
 21
2284.180828
 31
0.0
  0
LINE
  5
7AC8
  8
1
  6
CONTINUOUS
 10
4082.6396579999991
 20
2243.180828
 30
0.0
 11
4082.6396579999991
 21
2143.180828
 31
0.0
  0
LINE
  5
7AC9
  8
1
  6
CONTINUOUS
 10
4120.6396580000001
 20
2384.180828
 30
0.0
 11
4197.6396579999991
 21
2384.180828
 31
0.0
  0
LINE
  5
7ACA
  8
1
  6
CONTINUOUS
 10
4197.6396579999991
 20
2384.180828
 30
0.0
 11
4197.6396579999991
 21
2284.180828
 31
0.0
  0
LINE
  5
7ACB
  8
1
  6
CONTINUOUS
 10
4205.6396580000001
 20
2699.180828
 30
0.0
 11
4309.6396580000001
 21
2699.180828
 31
0.0
  0
LINE
  5
7ACC
  8
1
  6
CONTINUOUS
 10
4205.6396580000001
 20
2549.180828
 30
0.0
 11
4309.6396580000001
 21
2549.180828
 31
0.0
  0
LINE
  5
7ACD
  8
1
  6
CONTINUOUS
 10
4309.6396580000001
 20
2645.180828
 30
0.0
 11
4395.6396580000001
 21
2645.180828
 31
0.0
  0
LINE
  5
7ACE
  8
1
  6
CONTINUOUS
 10
4309.6396580000001
 20
2603.180828
 30
0.0
 11
4395.6396580000001
 21
2603.180828
 31
0.0
  0
LINE
  5
7ACF
  8
1
  6
CONTINUOUS
 10
4205.6396580000001
 20
2699.180828
 30
0.0
 11
4205.6396580000001
 21
2549.180828
 31
0.0
  0
LINE
  5
7AD0
  8
1
  6
CONTINUOUS
 10
4309.6396580000001
 20
2699.180828
 30
0.0
 11
4309.6396580000001
 21
2549.180828
 31
0.0
  0
LINE
  5
7AD1
  8
1
  6
CONTINUOUS
 10
2617.2277560000002
 20
3416.180828
 30
0.0
 11
2704.2590289999998
 21
3416.180828
 31
0.0
  0
LINE
  5
7AD2
  8
1
  6
CONTINUOUS
 10
4205.6396580000001
 20
3628.180828
 30
0.0
 11
4205.6396580000001
 21
3120.180828
 31
0.0
  0
LINE
  5
7AD3
  8
1
  6
CONTINUOUS
 10
4309.6396580000001
 20
3628.180828
 30
0.0
 11
4309.6396580000001
 21
3120.180828
 31
0.0
  0
LINE
  5
7AD4
  8
1
  6
CONTINUOUS
 10
4205.6396580000001
 20
3120.180828
 30
0.0
 11
4309.6396580000001
 21
3120.180828
 31
0.0
  0
LINE
  5
7AD5
  8
1
  6
CONTINUOUS
 10
4309.6396580000001
 20
3399.180828
 30
0.0
 11
4395.6396580000001
 21
3399.180828
 31
0.0
  0
LINE
  5
7AD6
  8
1
  6
CONTINUOUS
 10
4309.6396580000001
 20
3349.180828
 30
0.0
 11
4395.6396580000001
 21
3349.180828
 31
0.0
  0
LINE
  5
7AD7
  8
1
  6
CONTINUOUS
 10
4120.6396580000001
 20
3814.1808279999991
 30
0.0
 11
4342.6396580000001
 21
3814.1808279999991
 31
0.0
  0
LINE
  5
7AD8
  8
1
  6
CONTINUOUS
 10
4205.6396580000001
 20
3628.180828
 30
0.0
 11
4309.6396580000001
 21
3628.180828
 31
0.0
  0
LINE
  5
7AD9
  8
1
  6
CONTINUOUS
 10
5065.6396580000001
 20
4018.977171
 30
0.0
 11
5065.6396580000001
 21
2384.180828
 31
0.0
  0
LINE
  5
7ADA
  8
1
  6
CONTINUOUS
 10
5232.6396580000001
 20
2243.180828
 30
0.0
 11
5232.6396580000001
 21
2143.180828
 31
0.0
  0
LINE
  5
7ADB
  8
1
  6
CONTINUOUS
 10
5117.6396580000001
 20
2384.180828
 30
0.0
 11
5117.6396580000001
 21
2284.180828
 31
0.0
  0
LINE
  5
7ADC
  8
1
  6
CONTINUOUS
 10
2669.2590289999998
 20
5447.8599920000006
 30
0.0
 11
819.25902900000006
 21
5447.8599920000006
 31
0.0
  0
LINE
  5
7ADD
  8
1
  6
CONTINUOUS
 10
2704.2590289999998
 20
6315.8599919999997
 30
0.0
 11
1304.0917569999999
 21
6315.8599919999997
 31
0.0
  0
LINE
  5
7ADE
  8
1
  6
CONTINUOUS
 10
2704.2590289999998
 20
5645.8599919999997
 30
0.0
 11
1304.0917569999999
 21
5645.8599919999997
 31
0.0
  0
LINE
  5
7ADF
  8
1
  6
CONTINUOUS
 10
889.25902899999994
 20
5592.8599920000006
 30
0.0
 11
2529.2590289999998
 21
5592.8599920000006
 31
0.0
  0
LINE
  5
7AE0
  8
1
  6
CONTINUOUS
 10
889.25902899999994
 20
5422.8599920000006
 30
0.0
 11
2529.2590289999998
 21
5422.8599920000006
 31
0.0
  0
LINE
  5
7AE1
  8
1
  6
CONTINUOUS
 10
2669.2590289999998
 20
6367.8599920000006
 30
0.0
 11
819.25902900000006
 21
6367.8599920000006
 31
0.0
  0
LINE
  5
7AE2
  8
1
  6
CONTINUOUS
 10
819.25902900000006
 20
5447.8599920000006
 30
0.0
 11
819.25902900000006
 21
6367.8599920000006
 31
0.0
  0
LINE
  5
7AE3
  8
1
  6
CONTINUOUS
 10
1304.0917569999999
 20
5645.8599919999997
 30
0.0
 11
1304.0917569999999
 21
6315.8599919999997
 31
0.0
  0
LINE
  5
7AE4
  8
1
  6
CONTINUOUS
 10
1231.2590290000001
 20
5603.8599920000006
 30
0.0
 11
1231.2590290000001
 21
6088.8599919999997
 31
0.0
  0
LINE
  5
7AE5
  8
1
  6
CONTINUOUS
 10
907.25902899999994
 20
5603.8599920000006
 30
0.0
 11
907.25902899999994
 21
6088.8599919999997
 31
0.0
  0
LINE
  5
7AE6
  8
1
  6
CONTINUOUS
 10
994.25902900000006
 20
5559.8599919999997
 30
0.0
 11
1144.2590289999989
 21
5559.8599919999997
 31
0.0
  0
LINE
  5
7AE7
  8
1
  6
CONTINUOUS
 10
994.25902900000006
 20
5455.8599919999997
 30
0.0
 11
1144.2590289999989
 21
5455.8599919999997
 31
0.0
  0
LINE
  5
7AE8
  8
1
  6
CONTINUOUS
 10
907.25902899999994
 20
5603.8599920000006
 30
0.0
 11
1231.2590290000001
 21
5603.8599920000006
 31
0.0
  0
LINE
  5
7AE9
  8
1
  6
CONTINUOUS
 10
819.25902900000006
 20
5332.8599920000006
 30
0.0
 11
819.25902900000006
 21
5447.8599920000006
 31
0.0
  0
LINE
  5
7AEA
  8
1
  6
CONTINUOUS
 10
819.25902900000006
 20
5332.8599920000006
 30
0.0
 11
869.25902900000006
 21
5332.8599920000006
 31
0.0
  0
LINE
  5
7AEB
  8
1
  6
CONTINUOUS
 10
869.25902900000006
 20
5332.8599920000006
 30
0.0
 11
869.25902900000006
 21
5447.8599920000006
 31
0.0
  0
LINE
  5
7AEC
  8
1
  6
CONTINUOUS
 10
994.25902900000006
 20
5455.8599919999997
 30
0.0
 11
994.25902900000006
 21
5559.8599919999997
 31
0.0
  0
LINE
  5
7AED
  8
1
  6
CONTINUOUS
 10
889.25902899999994
 20
5422.8599920000006
 30
0.0
 11
889.25902899999994
 21
5592.8599920000006
 31
0.0
  0
LINE
  5
7AEE
  8
1
  6
CONTINUOUS
 10
1090.2590290000001
 20
5559.8599919999997
 30
0.0
 11
1090.2590290000001
 21
5603.8599920000006
 31
0.0
  0
LINE
  5
7AEF
  8
1
  6
CONTINUOUS
 10
1048.2590290000001
 20
5559.8599919999997
 30
0.0
 11
1048.2590290000001
 21
5603.8599920000006
 31
0.0
  0
LINE
  5
7AF0
  8
1
  6
CONTINUOUS
 10
1144.2590289999989
 20
5455.8599919999997
 30
0.0
 11
1144.2590289999989
 21
5559.8599919999997
 31
0.0
  0
LINE
  5
7AF1
  8
1
  6
CONTINUOUS
 10
907.25902899999994
 20
6088.8599919999997
 30
0.0
 11
1231.2590290000001
 21
6088.8599919999997
 31
0.0
  0
LINE
  5
7AF2
  8
1
  6
CONTINUOUS
 10
819.25902900000006
 20
6482.8599919999997
 30
0.0
 11
869.25902900000006
 21
6482.8599919999997
 31
0.0
  0
LINE
  5
7AF3
  8
1
  6
CONTINUOUS
 10
869.25902900000006
 20
6367.8599920000006
 30
0.0
 11
869.25902900000006
 21
6482.8599919999997
 31
0.0
  0
LINE
  5
7AF4
  8
1
  6
CONTINUOUS
 10
819.25902900000006
 20
6367.8599920000006
 30
0.0
 11
819.25902900000006
 21
6482.8599919999997
 31
0.0
  0
LINE
  5
7AF5
  8
1
  6
CONTINUOUS
 10
1795.2590290000001
 20
5559.8599919999997
 30
0.0
 11
2303.2590289999989
 21
5559.8599919999997
 31
0.0
  0
LINE
  5
7AF6
  8
1
  6
CONTINUOUS
 10
1795.2590290000001
 20
5455.8599919999997
 30
0.0
 11
2303.2590289999989
 21
5455.8599919999997
 31
0.0
  0
LINE
  5
7AF7
  8
1
  6
CONTINUOUS
 10
1795.2590290000001
 20
5455.8599919999997
 30
0.0
 11
1795.2590290000001
 21
5559.8599919999997
 31
0.0
  0
LINE
  5
7AF8
  8
1
  6
CONTINUOUS
 10
2074.2590289999989
 20
5559.8599919999997
 30
0.0
 11
2074.2590289999989
 21
5645.8599919999997
 31
0.0
  0
LINE
  5
7AF9
  8
1
  6
CONTINUOUS
 10
2024.2590289999989
 20
5559.8599919999997
 30
0.0
 11
2024.2590289999989
 21
5645.8599919999997
 31
0.0
  0
LINE
  5
7AFA
  8
1
  6
CONTINUOUS
 10
2303.2590289999989
 20
5455.8599919999997
 30
0.0
 11
2303.2590289999989
 21
5559.8599919999997
 31
0.0
  0
LINE
  5
7AFB
  8
1
  6
CONTINUOUS
 10
2704.2590289999998
 20
5603.8599920000006
 30
0.0
 11
2704.2590289999998
 21
6357.8599920000006
 31
0.0
  0
LINE
  5
7AFC
  8
1
  6
CONTINUOUS
 10
2664.2590289999998
 20
5645.8599919999997
 30
0.0
 11
2664.2590289999998
 21
6315.8599919999997
 31
0.0
  0
LINE
  5
7AFD
  8
1
  6
CONTINUOUS
 10
2669.2590289999998
 20
5332.8599920000006
 30
0.0
 11
2669.2590289999998
 21
5447.8599920000006
 31
0.0
  0
LINE
  5
7AFE
  8
1
  6
CONTINUOUS
 10
2619.2590289999998
 20
5332.8599920000006
 30
0.0
 11
2619.2590289999998
 21
5447.8599920000006
 31
0.0
  0
LINE
  5
7AFF
  8
1
  6
CONTINUOUS
 10
2619.2590289999998
 20
5332.8599920000006
 30
0.0
 11
2669.2590289999998
 21
5332.8599920000006
 31
0.0
  0
LINE
  5
7B00
  8
1
  6
CONTINUOUS
 10
2669.2590289999998
 20
5447.8599920000006
 30
0.0
 11
2669.2590289999998
 21
5645.8599919999997
 31
0.0
  0
LINE
  5
7B01
  8
1
  6
CONTINUOUS
 10
2529.2590289999998
 20
5422.8599920000006
 30
0.0
 11
2529.2590289999998
 21
5592.8599920000006
 31
0.0
  0
LINE
  5
7B02
  8
1
  6
CONTINUOUS
 10
2619.2590289999998
 20
6482.8599919999997
 30
0.0
 11
2669.2590289999998
 21
6482.8599919999997
 31
0.0
  0
LINE
  5
7B03
  8
1
  6
CONTINUOUS
 10
2619.2590289999998
 20
6367.8599920000006
 30
0.0
 11
2619.2590289999998
 21
6482.8599919999997
 31
0.0
  0
LINE
  5
7B04
  8
1
  6
CONTINUOUS
 10
2669.2590289999998
 20
6367.8599920000006
 30
0.0
 11
2669.2590289999998
 21
6482.8599919999997
 31
0.0
  0
LINE
  5
7B05
  8
1
  6
CONTINUOUS
 10
2669.2590289999998
 20
6315.8599919999997
 30
0.0
 11
2669.2590289999998
 21
6367.8599920000006
 31
0.0
  0
LINE
  5
7B23
  8
2
  6
CENTER
 10
710.18347099999994
 20
5980.8599919999997
 30
0.0
 11
2792.079279
 21
5980.8599919999997
 31
0.0
  0
LINE
  5
7B24
  8
2
  6
CENTER
 10
4730.6396580000001
 20
4198.0280839999996
 30
0.0
 11
4730.6396580000001
 21
1962.8466900000001
 31
0.0
  0
LINE
  5
7B25
  8
2
  6
CENTER
 10
2049.2590289999989
 20
5291.6347020000003
 30
0.0
 11
2049.2590289999989
 21
6528.2007530000001
 31
0.0
  0
LINE
  5
7B26
  8
2
  6
CENTER
 10
4045.0953460000001
 20
3374.180828
 30
0.0
 11
5156.0667140000014
 21
3374.180828
 31
0.0
  0
LINE
  5
7B27
  8
4
  6
CONTINUOUS
 10
5550.0
 20
1500.0
 30
0.0
 11
5550.0
 21
900.0
 31
0.0
  0
LINE
  5
7B28
  8
4
  6
CONTINUOUS
 10
3450.0
 20
1500.0
 30
0.0
 11
3450.0
 21
900.0
 31
0.0
  0
LINE
  5
7B29
  8
4
  6
CONTINUOUS
 10
1950.0
 20
1500.0
 30
0.0
 11
1950.0
 21
900.0
 31
0.0
  0
LINE
  5
7B2C
  8
4
  6
CONTINUOUS
 10
1950.0
 20
900.0
 30
0.0
 11
5550.0
 21
900.0
 31
0.0
  0
LINE
  5
7B2D
  8
4
  6
CONTINUOUS
 10
1950.0
 20
1200.0
 30
0.0
 11
5550.0
 21
1200.0
 31
0.0
  0
TEXT
  5
7B2E
  8
4
  6
CONTINUOUS
 10
2065.5062429999989
 20
1294.6290779999999
 30
0.0
 40
150.0
  1
機器名称
  0
TEXT
  5
7B2F
  8
4
  6
CONTINUOUS
 10
2058.7743179999989
 20
964.9354699999999
 30
0.0
 40
150.0
  1
機器型番
  0
TEXT
  5
7B30
  8
4
  6
CONTINUOUS
 10
3533.0362359999999
 20
1267.7153069999999
 30
0.0
 40
150.0
  1
ミツヤ多翼送風機
  0
TEXT
  5
7B31
  8
4
  6
CONTINUOUS
 10
3559.9634869999991
 20
951.47875299999987
 30
0.0
 40
150.0
  1
MF#5 1/2-4
  0
TEXT
  5
7B33
  8
4
  6
CONTINUOUS
 10
2224.5344180000002
 20
7150.2865239999992
 30
0.0
 40
162.0
  1
天井吊防振ベット
  0
TEXT
  5
7B34
  8
4
  6
CONTINUOUS
 10
948.50278000000014
 20
7601.6429289999996
 30
0.0
 40
216.0
  1
ベルト駆動式片吸込両持多翼ファン
  0
LINE
  5
7B35
  8
4
  6
CONTINUOUS
 10
750.0
 20
7408.2262629999996
 30
0.0
 11
5550.0
 21
7408.2262629999996
 31
0.0
  0
LINE
  5
7B36
  8
4
  6
CONTINUOUS
 10
750.0
 20
8008.2262629999996
 30
0.0
 11
5550.0
 21
8008.2262629999996
 31
0.0
  0
LINE
  5
7B37
  8
4
  6
CONTINUOUS
 10
1950.0
 20
1500.0
 30
0.0
 11
5550.0
 21
1500.0
 31
0.0
  0
LINE
  5
7B38
  8
4
  6
CONTINUOUS
 10
750.0
 20
8008.2262629999996
 30
0.0
 11
750.0
 21
7408.2262629999996
 31
0.0
  0
TEXT
  5
7B39
  8
4
  6
CONTINUOUS
 10
916.95792200000005
 20
7146.9584329999998
 30
0.0
 40
162.0
  1
左回転右横向
  0
TEXT
  5
7B3A
  8
4
  6
CONTINUOUS
 10
4406.9086779999989
 20
8118.1832439999989
 30
0.0
 40
168.0
  1
No.
  0
TEXT
  5
7B3B
  8
4
  6
CONTINUOUS
 10
3933.8881879999999
 20
7150.2865239999992
 30
0.0
 40
162.0
  1
縮尺：1/30
  0
LINE
  5
7B3C
  8
4
  6
CONTINUOUS
 10
5550.0
 20
8008.2262629999996
 30
0.0
 11
5550.0
 21
7408.2262629999996
 31
0.0
  0
LINE
  5
7B3E
  8
4
  6
CONTINUOUS
 10
4321.8522670000002
 20
8043.7907490000007
 30
0.0
 11
4321.8522670000002
 21
8359.9567849999985
 31
0.0
  0
LINE
  5
7B3F
  8
4
  6
CONTINUOUS
 10
4321.8522670000002
 20
8359.9567849999985
 30
0.0
 11
5550.0
 21
8359.9567849999985
 31
0.0
  0
LINE
  5
7B40
  8
4
  6
CONTINUOUS
 10
5550.0
 20
8359.9567849999985
 30
0.0
 11
5550.0
 21
8043.7907490000007
 31
0.0
  0
LINE
  5
7B41
  8
4
  6
CONTINUOUS
 10
5550.0
 20
8043.7907490000007
 30
0.0
 11
4321.8522670000002
 21
8043.7907490000007
 31
0.0
  0
DIMENSION
  5
7B52
  8
3
  6
CONTINUOUS
  2
*D1
 10
5065.6396580000001
 20
4170.9444949999997
 30
0.0
 11
4728.1204659999994
 21
4170.9444949999997
 31
0.0
 70
   128
 13
4395.6396580000001
 23
4018.977171
 33
0.0
 14
5065.6396580000001
 24
4018.977171
 34
0.0
1001
ACAD
1000
DSTYLE
1002
{
1070
   287
1070
     3
1070
    40
1040
30.0
1070
   143
1040
0.039
1070
   172
1070
     1
1070
   271
1070
     0
1070
   279
1070
     0
1070
   288
1070
     1
1002
}
  0
DIMENSION
  5
7B5F
  8
3
  6
CONTINUOUS
  2
*D2
 10
2954.1534959999999
 20
2491.180828
 30
0.0
 11
2954.153495999999
 21
2981.5422319999998
 31
0.0
 70
   128
 13
2704.2590289999998
 23
3416.180828
 33
0.0
 14
2704.2590289999998
 24
2491.180828
 34
0.0
 50
90.0
1001
ACAD
1000
DSTYLE
1002
{
1070
   287
1070
     3
1070
    40
1040
30.0
1070
   143
1040
0.039
1070
   172
1070
     1
1070
   271
1070
     0
1070
   279
1070
     0
1070
   288
1070
     1
1002
}
  0
DIMENSION
  5
7B6C
  8
3
  6
CONTINUOUS
  2
*D3
 10
3143.2374869999999
 20
2491.1808279999991
 30
0.0
 11
3143.2374869999999
 21
2975.9842859999999
 31
0.0
 70
   128
 13
2866.4326099999998
 23
3374.180828
 33
0.0
 14
2704.2590289999998
 24
2491.180828
 34
0.0
 50
90.0
1001
ACAD
1000
DSTYLE
1002
{
1070
   287
1070
     3
1070
    40
1040
30.0
1070
   143
1040
0.039
1070
   172
1070
     1
1070
   271
1070
     0
1070
   279
1070
     0
1070
   288
1070
     1
1002
}
  0
DIMENSION
  5
7BAF
  8
3
  6
CONTINUOUS
  2
*D4
 10
2049.2590289999989
 20
1887.368563
 30
0.0
 11
1471.5812309999999
 21
1887.368563
 31
0.0
 70
   128
 13
819.25902900000006
 23
2143.180828
 33
0.0
 14
2049.2590289999989
 24
2013.672505
 34
0.0
1001
ACAD
1000
DSTYLE
1002
{
1070
   287
1070
     3
1070
    40
1040
30.0
1070
   143
1040
0.039
1070
   172
1070
     1
1070
   271
1070
     0
1070
   279
1070
     0
1070
   288
1070
     1
1002
}
  0
DIMENSION
  5
7BBB
  8
3
  6
CONTINUOUS
  2
*D5
 10
2669.2590289999998
 20
1887.368563
 30
0.0
 11
2359.2590289999989
 21
1962.368563
 31
0.0
 70
     0
 13
2049.2590289999989
 23
2013.672505
 33
0.0
 14
2669.2590289999998
 24
2143.180828
 34
0.0
1001
ACAD
1000
DSTYLE
1002
{
1070
   287
1070
     4
1070
    40
1040
30.0
1070
    75
1070
     1
1070
   143
1040
0.039
1070
   172
1070
     1
1070
   271
1070
     0
1070
   279
1070
     1
1070
   288
1070
     1
1002
}
  0
DIMENSION
  5
7BC8
  8
3
  6
CONTINUOUS
  2
*D6
 10
2049.2590289999989
 20
4199.8407909999987
 30
0.0
 11
2354.9821629999992
 21
4199.8407909999987
 31
0.0
 70
   128
 13
2704.2590289999998
 23
3458.680828
 33
0.0
 14
2049.2590289999989
 24
4178.4846839999991
 34
0.0
1001
ACAD
1000
DSTYLE
1002
{
1070
   287
1070
     3
1070
    40
1040
30.0
1070
   143
1040
0.039
1070
   172
1070
     1
1070
   271
1070
     0
1070
   279
1070
     0
1070
   288
1070
     1
1002
}
  0
LINE
  5
7BD5
  8
1
  6
CONTINUOUS
 10
5069.6396579999991
 20
3849.180828
 30
0.0
 11
5069.6396579999991
 21
2899.180828
 31
0.0
  0
DIMENSION
  5
7BE4
  8
3
  6
CONTINUOUS
  2
*D7
 10
5333.9738430000007
 20
2899.180828
 30
0.0
 11
5333.9738429999989
 21
3378.2806909999999
 31
0.0
 70
   128
 13
5069.6396579999991
 23
3849.180828
 33
0.0
 14
5069.6396579999991
 24
2899.180828
 34
0.0
 50
90.0
1001
ACAD
1000
DSTYLE
1002
{
1070
   287
1070
     3
1070
     3
1000
φ<>
1070
    40
1040
30.0
1070
   143
1040
0.039
1070
   172
1070
     1
1070
   271
1070
     0
1070
   279
1070
     0
1070
   288
1070
     1
1002
}
  0
DIMENSION
  5
7BF3
  8
3
  6
CONTINUOUS
  2
*D8
 10
4730.6396580000001
 20
4365.379003
 30
0.0
 11
4900.1396580000001
 21
4446.4237315159262
 31
0.0
 70
   128
 13
5069.6396579999991
 23
3849.180828
 33
0.0
 14
4730.6396580000001
 24
4309.4093389999998
 34
0.0
1001
ACAD
1000
DSTYLE
1002
{
1070
   288
1070
     1
1070
   172
1070
     1
1070
    40
1040
30.0
1070
   271
1070
     0
1070
   143
1040
0.039
1002
}
  0
DIMENSION
  5
7BFF
  8
3
  6
CONTINUOUS
  2
*D9
 10
4120.6396580000001
 20
4365.379003
 30
0.0
 11
4425.6396580000001
 21
4515.379003
 31
0.0
 70
     0
  1
MAX\P640
 13
4730.6396580000001
 23
4309.4093389999998
 33
0.0
 14
4120.6396580000001
 24
3814.1808279999991
 34
0.0
1001
ACAD
1000
DSTYLE
1002
{
1070
   287
1070
     4
1070
    40
1040
30.0
1070
    75
1070
     1
1070
   143
1040
0.039
1070
   172
1070
     1
1070
   271
1070
     0
1070
   279
1070
     1
1070
   288
1070
     1
1002
}
  0
DIMENSION
  5
7C0C
  8
3
  6
CONTINUOUS
  2
*D10
 10
4730.6396580000001
 20
1885.941196
 30
0.0
 11
4426.0339909999993
 21
1885.941196
 31
0.0
 70
   128
 13
4082.6396579999991
 23
2143.180828
 33
0.0
 14
4730.6396580000001
 24
1962.8466900000001
 34
0.0
1001
ACAD
1000
DSTYLE
1002
{
1070
   287
1070
     3
1070
    40
1040
30.0
1070
   143
1040
0.039
1070
   172
1070
     1
1070
   271
1070
     0
1070
   279
1070
     0
1070
   288
1070
     1
1002
}
  0
DIMENSION
  5
7C18
  8
3
  6
CONTINUOUS
  2
*D11
 10
5232.6396580000001
 20
1885.941196
 30
0.0
 11
4981.6396580000001
 21
1960.941196
 31
0.0
 70
     0
 13
4730.6396580000001
 23
1962.8466900000001
 33
0.0
 14
5232.6396580000001
 24
2143.180828
 34
0.0
1001
ACAD
1000
DSTYLE
1002
{
1070
   287
1070
     4
1070
    40
1040
30.0
1070
    75
1070
     1
1070
   143
1040
0.039
1070
   172
1070
     1
1070
   271
1070
     0
1070
   279
1070
     1
1070
   288
1070
     1
1002
}
  0
DIMENSION
  5
7C3C
  8
3
  6
CONTINUOUS
  2
*D12
 10
2669.2590289999998
 20
6631.1227230000004
 30
0.0
 11
1660.941851999999
 21
6631.1227230000004
 31
0.0
 70
   128
 13
819.25902900000006
 23
6482.8599919999997
 33
0.0
 14
2669.2590289999998
 24
6482.8599919999997
 34
0.0
1001
ACAD
1000
DSTYLE
1002
{
1070
   287
1070
     3
1070
    40
1040
30.0
1070
   143
1040
0.039
1070
   172
1070
     1
1070
   271
1070
     0
1070
   279
1070
     0
1070
   288
1070
     1
1002
}
  0
DIMENSION
  5
7C49
  8
3
  6
CONTINUOUS
  2
*D13
 10
2979.2159780000011
 20
5332.8599920000006
 30
0.0
 11
2979.2159780000002
 21
5978.615554
 31
0.0
 70
   128
 13
2669.2590289999998
 23
6482.8599919999997
 33
0.0
 14
2669.2590289999998
 24
5332.8599920000006
 34
0.0
 50
90.0
1001
ACAD
1000
DSTYLE
1002
{
1070
   287
1070
     3
1070
    40
1040
30.0
1070
   143
1040
0.039
1070
   172
1070
     1
1070
   271
1070
     0
1070
   279
1070
     0
1070
   288
1070
     1
1002
}
  0
DIMENSION
  5
7C79
  8
3
  6
CONTINUOUS
  2
*D14
 10
1306.2590270000001
 20
4199.8407909999987
 30
0.0
 11
1677.759027999999
 21
4274.8407909999987
 31
0.0
 70
     0
 13
2049.2590289999989
 23
4178.4846839999991
 33
0.0
 14
1306.2590270000001
 24
3374.180828
 34
0.0
1001
ACAD
1000
DSTYLE
1002
{
1070
   287
1070
     4
1070
    40
1040
30.0
1070
    75
1070
     1
1070
   143
1040
0.039
1070
   172
1070
     1
1070
   271
1070
     0
1070
   279
1070
     1
1070
   288
1070
     1
1002
}
  0
DIMENSION
  5
7C86
  8
3
  6
CONTINUOUS
  2
*D15
 10
3363.5210579999998
 20
3374.1808279999991
 30
0.0
 11
3363.5210579999989
 21
3733.0213869999998
 31
0.0
 70
   128
 13
2049.2590289999989
 23
4017.1757709917301
 33
0.0
 14
2842.9374360000002
 24
3374.180828
 34
0.0
 50
90.0
1001
ACAD
1000
DSTYLE
1002
{
1070
   287
1070
     3
1070
    40
1040
30.0
1070
   143
1040
0.039
1070
   172
1070
     1
1070
   271
1070
     0
1070
   279
1070
     0
1070
   288
1070
     1
1002
}
  0
DIMENSION
  5
7C92
  8
3
  6
CONTINUOUS
  2
*D16
 10
3363.5210579999989
 20
2284.1808279999991
 30
0.0
 11
3288.5210579999989
 21
2829.180828
 31
0.0
 70
     0
 13
2842.9374360000002
 23
3374.180828
 33
0.0
 14
2619.2590289999998
 24
2284.180828
 34
0.0
 50
90.0
1001
ACAD
1000
DSTYLE
1002
{
1070
   287
1070
     4
1070
    40
1040
30.0
1070
    75
1070
     1
1070
   143
1040
0.039
1070
   172
1070
     1
1070
   271
1070
     0
1070
   279
1070
     1
1070
   288
1070
     1
1002
}
  0
DIMENSION
  5
7CA2
  8
3
  6
CONTINUOUS
  2
*D17
 10
3363.5210579999998
 20
2143.1808279999991
 30
0.0
 11
3363.5210579999989
 21
1905.3236851428569
 31
0.0
 70
   128
 13
2619.2590289999998
 23
2284.180828
 33
0.0
 14
2669.2590289999998
 24
2143.180828
 34
0.0
 50
90.0
1001
ACAD
1000
DSTYLE
1002
{
1070
   287
1070
     3
1070
    40
1040
30.0
1070
   143
1040
0.039
1070
   172
1070
     1
1070
   271
1070
     0
1070
   279
1070
     0
1070
   288
1070
     1
1002
}
  0
DIMENSION
  5
7D43
  8
3
  2
*D18
 10
819.25902900000006
 20
4389.9709981543956
 30
0.0
 11
1821.5289104283249
 21
4389.9709981543956
 31
0.0
 70
   128
 13
2704.2590289999998
 23
3458.680828
 33
0.0
 14
819.25902900000006
 24
2233.180828
 34
0.0
1001
ACAD
1000
DSTYLE
1002
{
1070
   287
1070
     3
1070
    40
1040
30.0
1070
   143
1040
0.039
1070
   172
1070
     1
1070
   271
1070
     0
1070
   279
1070
     0
1070
   288
1070
     1
1002
}
  0
LINE
  5
7D8E
  8
1
  6
CONTINUOUS
 10
1489.2590289999989
 20
3504.1808279999991
 30
0.0
 11
2609.2590289999998
 21
3504.180828
 31
0.0
  0
LINE
  5
7D8F
  8
1
 10
1489.2590290000001
 20
2384.180828
 30
0.0
 11
1489.2590289999989
 21
3504.1808279999991
 31
0.0
  0
LINE
  5
7D90
  8
1
 10
2609.2590289999998
 20
2384.180828
 30
0.0
 11
2609.2590289999998
 21
3504.180828
 31
0.0
  0
ENDSEC
  0
EOF
