  0
SECTION
  2
HEADER
  9
$ACADVER
  1
AC1009
  9
$INSBASE
 10
0.0
 20
0.0
 30
0.0
  9
$EXTMIN
 10
750.0
 20
900.0
 30
0.0
  9
$EXTMAX
 10
5550.0
 20
8359.9567849999985
 30
0.0
  9
$LIMMIN
 10
0.0
 20
0.0
  9
$LIMMAX
 10
297.0
 20
210.0
  9
$ORTHOMODE
 70
     0
  9
$REGENMODE
 70
     1
  9
$FILLMODE
 70
     0
  9
$QTEXTMODE
 70
     0
  9
$MIRRTEXT
 70
     1
  9
$DRAGMODE
 70
     2
  9
$LTSCALE
 40
100.0
  9
$OSMODE
 70
    37
  9
$ATTMODE
 70
     1
  9
$TEXTSIZE
 40
180.0
  9
$TRACEWID
 40
0.05
  9
$TEXTSTYLE
  7
STANDARD
  9
$CLAYER
  8
3
  9
$CELTYPE
  6
BYLAYER
  9
$CECOLOR
 62
   256
  9
$DIMSCALE
 40
30.0
  9
$DIMASZ
 40
2.0
  9
$DIMEXO
 40
0.5
  9
$DIMDLI
 40
10.0
  9
$DIMRND
 40
0.0
  9
$DIMDLE
 40
0.0
  9
$DIMEXE
 40
1.0
  9
$DIMTP
 40
1.0
  9
$DIMTM
 40
1.0
  9
$DIMTXT
 40
3.0
  9
$DIMCEN
 40
0.0
  9
$DIMTSZ
 40
0.0
  9
$DIMTOL
 70
     0
  9
$DIMLIM
 70
     0
  9
$DIMTIH
 70
     0
  9
$DIMTOH
 70
     0
  9
$DIMSE1
 70
     0
  9
$DIMSE2
 70
     0
  9
$DIMTAD
 70
     1
  9
$DIMZIN
 70
     8
  9
$DIMBLK
  1

  9
$DIMASO
 70
     1
  9
$DIMSHO
 70
     1
  9
$DIMPOST
  1

  9
$DIMAPOST
  1

  9
$DIMALT
 70
     0
  9
$DIMALTD
 70
     2
  9
$DIMALTF
 40
0.039
  9
$DIMLFAC
 40
1.0
  9
$DIMTOFL
 70
     1
  9
$DIMTVP
 40
0.0
  9
$DIMTIX
 70
     0
  9
$DIMSOXD
 70
     0
  9
$DIMSAH
 70
     1
  9
$DIMBLK1
  1
OPEN
  9
$DIMBLK2
  1
OPEN
  9
$DIMSTYLE
  2
IGA
  9
$DIMCLRD
 70
     0
  9
$DIMCLRE
 70
     0
  9
$DIMCLRT
 70
     0
  9
$DIMTFAC
 40
10.0
  9
$DIMGAP
 40
1.0
  9
$LUNITS
 70
     2
  9
$LUPREC
 70
     3
  9
$SKETCHINC
 40
0.1
  9
$FILLETRAD
 40
50.0
  9
$AUNITS
 70
     0
  9
$AUPREC
 70
     0
  9
$MENU
  1
acad
  9
$ELEVATION
 40
0.0
  9
$PELEVATION
 40
0.0
  9
$THICKNESS
 40
0.0
  9
$LIMCHECK
 70
     0
  9
$BLIPMODE
 70
     0
  9
$CHAMFERA
 40
0.5
  9
$CHAMFERB
 40
0.5
  9
$SKPOLY
 70
     0
  9
$TDCREATE
 40
2450752.4286997681
  9
$TDUPDATE
 40
2454953.776280914
  9
$TDINDWG
 40
0.022431875
  9
$TDUSRTIMER
 40
0.022431875
  9
$USRTIMER
 70
     1
  9
$ANGBASE
 50
0.0
  9
$ANGDIR
 70
     0
  9
$PDMODE
 70
     0
  9
$PDSIZE
 40
0.0
  9
$PLINEWID
 40
0.0
  9
$COORDS
 70
     1
  9
$SPLFRAME
 70
     0
  9
$SPLINETYPE
 70
     6
  9
$SPLINESEGS
 70
     8
  9
$ATTDIA
 70
     0
  9
$ATTREQ
 70
     1
  9
$HANDLING
 70
 10241
  9
$HANDSEED
  5
7EBA
  9
$SURFTAB1
 70
     6
  9
$SURFTAB2
 70
     6
  9
$SURFTYPE
 70
     6
  9
$SURFU
 70
     6
  9
$SURFV
 70
     6
  9
$UCSNAME
  2

  9
$UCSORG
 10
0.0
 20
0.0
 30
0.0
  9
$UCSXDIR
 10
1.0
 20
0.0
 30
0.0
  9
$UCSYDIR
 10
0.0
 20
1.0
 30
0.0
  9
$PUCSNAME
  2

  9
$PUCSORG
 10
0.0
 20
0.0
 30
0.0
  9
$PUCSXDIR
 10
1.0
 20
0.0
 30
0.0
  9
$PUCSYDIR
 10
0.0
 20
1.0
 30
0.0
  9
$USERI1
 70
     0
  9
$USERI2
 70
     0
  9
$USERI3
 70
     0
  9
$USERI4
 70
     0
  9
$USERI5
 70
     0
  9
$USERR1
 40
0.0
  9
$USERR2
 40
0.0
  9
$USERR3
 40
0.0
  9
$USERR4
 40
0.0
  9
$USERR5
 40
0.0
  9
$WORLDVIEW
 70
     1
  9
$SHADEDGE
 70
     3
  9
$SHADEDIF
 70
    70
  9
$TILEMODE
 70
     1
  9
$MAXACTVP
 70
    16
  9
$PLIMCHECK
 70
     0
  9
$PEXTMIN
 10
1.0000000000000000E+020
 20
1.0000000000000000E+020
 30
1.0000000000000000E+020
  9
$PEXTMAX
 10
-1.0000000000000000E+020
 20
-1.0000000000000000E+020
 30
-1.0000000000000000E+020
  9
$PLIMMIN
 10
0.0
 20
0.0
  9
$PLIMMAX
 10
12.0
 20
9.0
  9
$UNITMODE
 70
     0
  9
$VISRETAIN
 70
     0
  9
$PLINEGEN
 70
     0
  9
$PSLTSCALE
 70
     1
  0
ENDSEC
  0
SECTION
  2
TABLES
  0
TABLE
  2
VPORT
 70
     2
  0
VPORT
  2
*ACTIVE
 70
     0
 10
0.0
 20
0.0
 11
1.0
 21
1.0
 12
9438.1687158055174
 22
4629.9562499988788
 13
0.0
 23
0.0
 14
10.0
 24
10.0
 15
10.0
 25
10.0
 16
0.0
 26
0.0
 36
1.0
 17
0.0
 27
0.0
 37
0.0
 40
7517.2452868940854
 41
3.1666666666666661
 42
50.0
 43
0.0
 44
0.0
 50
0.0
 51
0.0
 71
     0
 72
   100
 73
     1
 74
     0
 75
     0
 76
     0
 77
     0
 78
     0
  0
ENDTAB
  0
TABLE
  2
LTYPE
 70
     2
  0
LTYPE
  2
CONTINUOUS
 70
     0
  3
Solid line
 72
    65
 73
     0
 40
0.0
  0
LTYPE
  2
CENTER
 70
     0
  3
____ _ ____ _ ____ _ ____ _ ____ _ ____ _ ____ 
 72
    65
 73
     4
 40
2.0
 49
1.25
 49
-0.25
 49
0.25
 49
-0.25
  0
ENDTAB
  0
TABLE
  2
LAYER
 70
     6
  0
LAYER
  2
0
 70
     0
 62
     7
  6
CONTINUOUS
  0
LAYER
  2
3
 70
     0
 62
     2
  6
CONTINUOUS
  0
LAYER
  2
2
 70
     0
 62
     3
  6
CENTER
  0
LAYER
  2
1
 70
     0
 62
     4
  6
CONTINUOUS
  0
LAYER
  2
4
 70
     0
 62
     7
  6
CONTINUOUS
  0
LAYER
  2
DEFPOINTS
 70
     0
 62
    -7
  6
CONTINUOUS
  0
ENDTAB
  0
TABLE
  2
STYLE
 70
     1
  0
STYLE
  2
STANDARD
 70
     0
 40
0.0
 41
1.0
 50
0.0
 71
     0
 42
180.0
  3
simplex.shx
  4
extfont.shx
  0
ENDTAB
  0
TABLE
  2
VIEW
 70
     0
  0
ENDTAB
  0
TABLE
  2
UCS
 70
     0
  0
ENDTAB
  0
TABLE
  2
APPID
 70
     1
  0
APPID
  2
ACAD
 70
     0
  0
ENDTAB
  0
TABLE
  2
DIMSTYLE
 70
     1
  0
DIMSTYLE
  2
IGA
 70
     0
  3

  4

  5

  6
OPEN
  7
OPEN
 40
2.0
 41
2.0
 42
0.5
 43
10.0
 44
1.0
 45
0.0
 46
0.0
 47
1.0
 48
1.0
140
3.0
141
0.0
142
0.0
143
0.03937
144
1.0
145
0.0
146
10.0
147
1.0
 71
     0
 72
     0
 73
     0
 74
     0
 75
     0
 76
     0
 77
     1
 78
     8
170
     0
171
     2
172
     0
173
     1
174
     0
175
     0
176
     0
177
     0
178
     0
  0
ENDTAB
  0
ENDSEC
  0
SECTION
  2
BLOCKS
  0
BLOCK
  8
0
  2
$MODEL_SPACE
 70
     0
 10
0.0
 20
0.0
 30
0.0
  3
$MODEL_SPACE
  1

  0
ENDBLK
  5
1B
  8
0
  0
BLOCK
 67
     1
  8
0
  2
$PAPER_SPACE
 70
     0
 10
0.0
 20
0.0
 30
0.0
  3
$PAPER_SPACE
  1

  0
ENDBLK
  5
18
 67
     1
  8
0
  0
BLOCK
  8
0
  2
_OPEN
 70
     0
 10
0.0
 20
0.0
 30
0.0
  3
_OPEN
  1

  0
LINE
  5
7BB2
  8
0
  6
BYBLOCK
 62
     0
 10
-1.0
 20
0.166667
 30
0.0
 11
0.0
 21
0.0
 31
0.0
  0
LINE
  5
7BB3
  8
0
  6
BYBLOCK
 62
     0
 10
0.0
 20
0.0
 30
0.0
 11
-1.0
 21
-0.166667
 31
0.0
  0
LINE
  5
7BB4
  8
0
  6
BYBLOCK
 62
     0
 10
0.0
 20
0.0
 30
0.0
 11
-1.0
 21
0.0
 31
0.0
  0
ENDBLK
  5
7BB5
  8
0
  0
BLOCK
  8
0
  2
*D1
 70
     1
 10
0.0
 20
0.0
 30
0.0
  3
*D1
  1

  0
LINE
  5
7E1C
  8
3
  6
CONTINUOUS
 62
     0
 10
2825.5854669999999
 20
3672.2375229999989
 30
0.0
 11
2825.5854669999999
 21
3834.061788
 31
0.0
  0
LINE
  5
7E1D
  8
3
  6
CONTINUOUS
 62
     0
 10
1900.5854670000001
 20
3672.2375229999989
 30
0.0
 11
1900.5854670000001
 21
3834.061788
 31
0.0
  0
LINE
  5
7E1E
  8
3
  6
CONTINUOUS
 62
     0
 10
2765.5854669999999
 20
3804.061788
 30
0.0
 11
1960.5854670000001
 21
3804.061788
 31
0.0
  0
INSERT
  5
7E1F
  8
3
  6
CONTINUOUS
 62
     0
  2
_OPEN
 10
2825.5854669999999
 20
3804.061788
 30
0.0
 41
60.0
 42
60.0
 43
60.0
  0
INSERT
  5
7E20
  8
3
  6
CONTINUOUS
 62
     0
  2
_OPEN
 10
1900.5854670000001
 20
3804.061788
 30
0.0
 41
60.0
 42
60.0
 43
60.0
 50
180.0
  0
TEXT
  8
3
  40
90
  5
7EA9
  62
0
  72
0
  71
0
 10
2124.36
 20
3719.76
 30
0.000000
  1
925
  0
POINT
  5
7E22
  8
DEFPOINTS
  6
CONTINUOUS
 62
     0
 10
2825.5854669999999
 20
3657.2375229999998
 30
0.0
  0
POINT
  5
7E23
  8
DEFPOINTS
  6
CONTINUOUS
 62
     0
 10
1900.5854670000001
 20
3657.2375229999998
 30
0.0
  0
POINT
  5
7E24
  8
DEFPOINTS
  6
CONTINUOUS
 62
     0
 10
1900.5854670000001
 20
3804.061788
 30
0.0
  0
ENDBLK
  5
7BFB
  8
0
  0
BLOCK
  8
0
  2
*D2
 70
     1
 10
0.0
 20
0.0
 30
0.0
  3
*D2
  1

  0
LINE
  5
7E25
  8
3
  6
CONTINUOUS
 62
     0
 10
2825.5854669999999
 20
3672.2375229999989
 30
0.0
 11
2825.5854669999999
 21
4005.9460659999991
 31
0.0
  0
LINE
  5
7E26
  8
3
  6
CONTINUOUS
 62
     0
 10
1942.5854670000001
 20
3809.2373710000002
 30
0.0
 11
1942.5854670000001
 21
4005.9460659999991
 31
0.0
  0
LINE
  5
7E27
  8
3
  6
CONTINUOUS
 62
     0
 10
2765.5854669999999
 20
3975.9460659999991
 30
0.0
 11
2002.5854670000001
 21
3975.9460659999991
 31
0.0
  0
INSERT
  5
7E28
  8
3
  6
CONTINUOUS
 62
     0
  2
_OPEN
 10
2825.5854669999999
 20
3975.9460659999991
 30
0.0
 41
60.0
 42
60.0
 43
60.0
  0
INSERT
  5
7E29
  8
3
  6
CONTINUOUS
 62
     0
  2
_OPEN
 10
1942.5854670000001
 20
3975.9460659999991
 30
0.0
 41
60.0
 42
60.0
 43
60.0
 50
180.0
  0
TEXT
  8
3
  40
90
  5
7EAA
  62
0
  72
0
  71
0
 10
2130.73
 20
3891.65
 30
0.000000
  1
883
  0
POINT
  5
7E2B
  8
DEFPOINTS
  6
CONTINUOUS
 62
     0
 10
2825.5854669999999
 20
3657.2375229999998
 30
0.0
  0
POINT
  5
7E2C
  8
DEFPOINTS
  6
CONTINUOUS
 62
     0
 10
1942.5854670000001
 20
3794.2373710000002
 30
0.0
  0
POINT
  5
7E2D
  8
DEFPOINTS
  6
CONTINUOUS
 62
     0
 10
1942.5854670000001
 20
3975.9460659999991
 30
0.0
  0
ENDBLK
  5
7C08
  8
0
  0
BLOCK
  8
0
  2
*D3
 70
     1
 10
0.0
 20
0.0
 30
0.0
  3
*D3
  1

  0
LINE
  5
7E2E
  8
3
  6
CONTINUOUS
 62
     0
 10
1843.0854670000001
 20
3657.2375229999998
 30
0.0
 11
1095.9310640000001
 21
3657.2375229999998
 31
0.0
  0
LINE
  5
7E2F
  8
3
  6
CONTINUOUS
 62
     0
 10
1142.6679770000001
 20
3002.2375229999998
 30
0.0
 11
1095.9310640000001
 21
3002.2375229999998
 31
0.0
  0
LINE
  5
7E30
  8
3
  6
CONTINUOUS
 62
     0
 10
1125.9310640000001
 20
3597.2375229999989
 30
0.0
 11
1125.9310640000001
 21
3062.2375229999998
 31
0.0
  0
INSERT
  5
7E31
  8
3
  6
CONTINUOUS
 62
     0
  2
_OPEN
 10
1125.9310640000001
 20
3657.2375229999998
 30
0.0
 41
60.0
 42
60.0
 43
60.0
 50
90.0
  0
INSERT
  5
7E32
  8
3
  6
CONTINUOUS
 62
     0
  2
_OPEN
 10
1125.9310640000001
 20
3002.2375229999998
 30
0.0
 41
60.0
 42
60.0
 43
60.0
 50
270.0
  0
TEXT
  8
3
  40
90
  5
7EAB
  62
0
  72
0
  71
0
 10
870.931
 20
3192.77
 30
0.000000
  1
655
  0
POINT
  5
7E34
  8
DEFPOINTS
  6
CONTINUOUS
 62
     0
 10
1858.0854670000001
 20
3657.2375229999998
 30
0.0
  0
POINT
  5
7E35
  8
DEFPOINTS
  6
CONTINUOUS
 62
     0
 10
1157.6679770000001
 20
3002.2375229999998
 30
0.0
  0
POINT
  5
7E36
  8
DEFPOINTS
  6
CONTINUOUS
 62
     0
 10
1125.9310640000001
 20
3002.2375229999998
 30
0.0
  0
ENDBLK
  5
7C21
  8
0
  0
BLOCK
  8
0
  2
*D4
 70
     1
 10
0.0
 20
0.0
 30
0.0
  3
*D4
  1

  0
LINE
  5
7E37
  8
3
  6
CONTINUOUS
 62
     0
 10
1357.585466999999
 20
2237.2375229999998
 30
0.0
 11
1095.9310640000001
 21
2237.2375229999998
 31
0.0
  0
LINE
  5
7E38
  8
3
  6
CONTINUOUS
 62
     0
 10
1125.9310640000001
 20
2942.2375229999998
 30
0.0
 11
1125.9310640000001
 21
2297.2375229999998
 31
0.0
  0
INSERT
  5
7E39
  8
3
  6
CONTINUOUS
 62
     0
  2
_OPEN
 10
1125.9310640000001
 20
3002.2375229999998
 30
0.0
 41
60.0
 42
60.0
 43
60.0
 50
90.0
  0
INSERT
  5
7E3A
  8
3
  6
CONTINUOUS
 62
     0
  2
_OPEN
 10
1125.9310640000001
 20
2237.2375229999998
 30
0.0
 41
60.0
 42
60.0
 43
60.0
 50
270.0
  0
TEXT
  8
3
  40
90
  5
7EAC
  62
0
  72
0
  71
0
 10
870.931
 20
2460.44
 30
0.000000
  1
765
  0
POINT
  5
7E3C
  8
DEFPOINTS
  6
CONTINUOUS
 62
     0
 10
1157.6679770000001
 20
3002.2375229999998
 30
0.0
  0
POINT
  5
7E3D
  8
DEFPOINTS
  6
CONTINUOUS
 62
     0
 10
1372.585466999999
 20
2237.2375229999998
 30
0.0
  0
POINT
  5
7E3E
  8
DEFPOINTS
  6
CONTINUOUS
 62
     0
 10
1125.9310640000001
 20
2237.2375229999998
 30
0.0
  0
ENDBLK
  5
7C2D
  8
0
  0
BLOCK
  8
0
  2
*D5
 70
     1
 10
0.0
 20
0.0
 30
0.0
  3
*D5
  1

  0
LINE
  5
7E3F
  8
3
  6
CONTINUOUS
 62
     0
 10
1357.585466999999
 20
2237.2375229999998
 30
0.0
 11
1097.4079549999999
 21
2237.2375229999998
 31
0.0
  0
LINE
  5
7E40
  8
3
  6
CONTINUOUS
 62
     0
 10
1307.5854670000001
 20
2096.2375229999998
 30
0.0
 11
1097.4079549999999
 21
2096.2375229999998
 31
0.0
  0
LINE
  5
7E41
  8
3
  6
CONTINUOUS
 62
     0
 10
1127.4079549999999
 20
2297.2375229999998
 30
0.0
 11
1127.4079549999999
 21
2357.2375229999998
 31
0.0
  0
LINE
  5
7E42
  8
3
  6
CONTINUOUS
 62
     0
 10
1127.4079549999999
 20
2036.237523
 30
0.0
 11
1127.4079549999999
 21
1740.523237285714
 31
0.0
  0
LINE
  5
7E43
  8
3
  6
CONTINUOUS
 62
     0
 10
1127.4079549999999
 20
2237.2375229999998
 30
0.0
 11
1127.4079549999999
 21
2096.2375229999998
 31
0.0
  0
INSERT
  5
7E44
  8
3
  6
CONTINUOUS
 62
     0
  2
_OPEN
 10
1127.4079549999999
 20
2237.2375229999998
 30
0.0
 41
60.0
 42
60.0
 43
60.0
 50
270.0
  0
INSERT
  5
7E45
  8
3
  6
CONTINUOUS
 62
     0
  2
_OPEN
 10
1127.4079549999999
 20
2096.2375229999998
 30
0.0
 41
60.0
 42
60.0
 43
60.0
 50
90.0
  0
TEXT
  8
3
  40
90
  5
7EAD
  62
0
  72
0
  71
0
 10
872.408
 20
1699.08
 30
0.000000
  1
141
  0
POINT
  5
7E47
  8
DEFPOINTS
  6
CONTINUOUS
 62
     0
 10
1372.585466999999
 20
2237.2375229999998
 30
0.0
  0
POINT
  5
7E48
  8
DEFPOINTS
  6
CONTINUOUS
 62
     0
 10
1322.585466999999
 20
2096.2375229999998
 30
0.0
  0
POINT
  5
7E49
  8
DEFPOINTS
  6
CONTINUOUS
 62
     0
 10
1127.4079549999999
 20
2096.2375229999998
 30
0.0
  0
ENDBLK
  5
7DBE
  8
0
  0
BLOCK
  8
0
  2
*D6
 70
     1
 10
0.0
 20
0.0
 30
0.0
  3
*D6
  1

  0
LINE
  5
7E4A
  8
3
  6
CONTINUOUS
 62
     0
 10
1828.0854670000001
 20
3657.2375229999998
 30
0.0
 11
909.38607300000058
 21
3657.2375229999998
 31
0.0
  0
LINE
  5
7E4B
  8
3
  6
CONTINUOUS
 62
     0
 10
1307.5854670000001
 20
2096.2375229999998
 30
0.0
 11
909.38607300000024
 21
2096.2375229999998
 31
0.0
  0
LINE
  5
7E4C
  8
3
  6
CONTINUOUS
 62
     0
 10
939.38607300000069
 20
3597.2375229999998
 30
0.0
 11
939.38607300000035
 21
2156.2375230000011
 31
0.0
  0
INSERT
  5
7E4D
  8
3
  6
CONTINUOUS
 62
     0
  2
_OPEN
 10
939.38607300000069
 20
3657.2375229999998
 30
0.0
 41
60.0
 42
60.0
 43
60.0
 50
90.0
  0
INSERT
  5
7E4E
  8
3
  6
CONTINUOUS
 62
     0
  2
_OPEN
 10
939.38607300000035
 20
2096.2375229999998
 30
0.0
 41
60.0
 42
60.0
 43
60.0
 50
270.0
  0
TEXT
  8
3
  40
90
  5
7EAE
  62
0
  72
0
  71
0
 10
684.386
 20
2625.19
 30
0.000000
  1
1561
  0
POINT
  5
7E50
  8
DEFPOINTS
  6
CONTINUOUS
 62
     0
 10
1843.0854670000001
 20
3657.2375229999998
 30
0.0
  0
POINT
  5
7E51
  8
DEFPOINTS
  6
CONTINUOUS
 62
     0
 10
1322.585466999999
 20
2096.2375229999998
 30
0.0
  0
POINT
  5
7E52
  8
DEFPOINTS
  6
CONTINUOUS
 62
     0
 10
939.38607300000035
 20
2096.2375229999998
 30
0.0
  0
ENDBLK
  5
7D46
  8
0
  0
BLOCK
  8
0
  2
*D7
 70
     1
 10
0.0
 20
0.0
 30
0.0
  3
*D7
  1

  0
LINE
  5
7E53
  8
3
  6
CONTINUOUS
 62
     0
 10
1322.585466999999
 20
2081.2375229999998
 30
0.0
 11
1322.585466999999
 21
1840.6827189999999
 31
0.0
  0
LINE
  5
7E54
  8
3
  6
CONTINUOUS
 62
     0
 10
1942.5854670000001
 20
1917.878735999999
 30
0.0
 11
1942.5854670000001
 21
1840.6827189999999
 31
0.0
  0
LINE
  5
7E55
  8
3
  6
CONTINUOUS
 62
     0
 10
1382.585466999999
 20
1870.6827189999999
 30
0.0
 11
1882.5854670000001
 21
1870.6827189999999
 31
0.0
  0
INSERT
  5
7E56
  8
3
  6
CONTINUOUS
 62
     0
  2
_OPEN
 10
1322.585466999999
 20
1870.6827189999999
 30
0.0
 41
60.0
 42
60.0
 43
60.0
 50
180.0
  0
INSERT
  5
7E57
  8
3
  6
CONTINUOUS
 62
     0
  2
_OPEN
 10
1942.5854670000001
 20
1870.6827189999999
 30
0.0
 41
60.0
 42
60.0
 43
60.0
  0
TEXT
  8
3
  40
90
  5
7EAF
  62
0
  72
0
  71
0
 10
1448.52
 20
1786.38
 30
0.000000
  1
620
  0
POINT
  5
7E59
  8
DEFPOINTS
  6
CONTINUOUS
 62
     0
 10
1322.585466999999
 20
2096.2375229999998
 30
0.0
  0
POINT
  5
7E5A
  8
DEFPOINTS
  6
CONTINUOUS
 62
     0
 10
1942.5854670000001
 20
1932.8787359999999
 30
0.0
  0
POINT
  5
7E5B
  8
DEFPOINTS
  6
CONTINUOUS
 62
     0
 10
1942.5854670000001
 20
1870.6827189999999
 30
0.0
  0
ENDBLK
  5
7D16
  8
0
  0
BLOCK
  8
0
  2
*D8
 70
     1
 10
0.0
 20
0.0
 30
0.0
  3
*D8
  1

  0
LINE
  5
7E5C
  8
3
  6
CONTINUOUS
 62
     0
 10
3172.5854669999999
 20
2081.2375229999998
 30
0.0
 11
3172.5854669999999
 21
1840.6827189999999
 31
0.0
  0
LINE
  5
7E5D
  8
3
  6
CONTINUOUS
 62
     0
 10
2002.5854670000001
 20
1870.6827189999999
 30
0.0
 11
3112.5854669999999
 21
1870.6827189999999
 31
0.0
  0
INSERT
  5
7E5E
  8
3
  6
CONTINUOUS
 62
     0
  2
_OPEN
 10
1942.5854670000001
 20
1870.6827189999999
 30
0.0
 41
60.0
 42
60.0
 43
60.0
 50
180.0
  0
INSERT
  5
7E5F
  8
3
  6
CONTINUOUS
 62
     0
  2
_OPEN
 10
3172.5854669999999
 20
1870.6827189999999
 30
0.0
 41
60.0
 42
60.0
 43
60.0
  0
TEXT
  8
3
  40
90
  5
7EB0
  62
0
  72
0
  71
0
 10
2377.59
 20
1786.38
 30
0.000000
  1
1230
  0
POINT
  5
7E61
  8
DEFPOINTS
  6
CONTINUOUS
 62
     0
 10
1942.5854670000001
 20
1932.8787359999999
 30
0.0
  0
POINT
  5
7E62
  8
DEFPOINTS
  6
CONTINUOUS
 62
     0
 10
3172.5854669999999
 20
2096.2375229999998
 30
0.0
  0
POINT
  5
7E63
  8
DEFPOINTS
  6
CONTINUOUS
 62
     0
 10
3172.5854669999999
 20
1870.6827189999999
 30
0.0
  0
ENDBLK
  5
7D0B
  8
0
  0
BLOCK
  8
0
  2
*D9
 70
     1
 10
0.0
 20
0.0
 30
0.0
  3
*D9
  1

  0
LINE
  5
7E64
  8
3
  6
CONTINUOUS
 62
     0
 10
4587.2115359999998
 20
3672.2375229999989
 30
0.0
 11
4587.2115359999998
 21
3814.9635280000002
 31
0.0
  0
LINE
  5
7E65
  8
3
  6
CONTINUOUS
 62
     0
 10
5257.2115359999989
 20
3672.2375229999989
 30
0.0
 11
5257.2115359999989
 21
3814.9635280000002
 31
0.0
  0
LINE
  5
7E66
  8
3
  6
CONTINUOUS
 62
     0
 10
4647.2115359999989
 20
3784.9635280000002
 30
0.0
 11
5197.2115359999998
 21
3784.9635280000002
 31
0.0
  0
INSERT
  5
7E67
  8
3
  6
CONTINUOUS
 62
     0
  2
_OPEN
 10
4587.2115359999998
 20
3784.9635280000002
 30
0.0
 41
60.0
 42
60.0
 43
60.0
 50
180.0
  0
INSERT
  5
7E68
  8
3
  6
CONTINUOUS
 62
     0
  2
_OPEN
 10
5257.2115359999989
 20
3784.9635280000002
 30
0.0
 41
60.0
 42
60.0
 43
60.0
  0
TEXT
  8
3
  40
90
  5
7EB1
  62
0
  72
0
  71
0
 10
4751.59
 20
3700.66
 30
0.000000
  1
670
  0
POINT
  5
7E6A
  8
DEFPOINTS
  6
CONTINUOUS
 62
     0
 10
4587.2115359999998
 20
3657.2375229999998
 30
0.0
  0
POINT
  5
7E6B
  8
DEFPOINTS
  6
CONTINUOUS
 62
     0
 10
5257.2115359999989
 20
3657.2375229999998
 30
0.0
  0
POINT
  5
7E6C
  8
DEFPOINTS
  6
CONTINUOUS
 62
     0
 10
5257.2115359999989
 20
3784.9635280000002
 30
0.0
  0
ENDBLK
  5
7C97
  8
0
  0
BLOCK
  8
0
  2
*D10
 70
     1
 10
0.0
 20
0.0
 30
0.0
  3
*D10
  1

  0
LINE
  5
7E6D
  8
3
  6
CONTINUOUS
 62
     0
 10
5276.2115359999989
 20
3477.2375229999998
 30
0.0
 11
5534.886547000001
 21
3477.2375229999998
 31
0.0
  0
LINE
  5
7E6E
  8
3
  6
CONTINUOUS
 62
     0
 10
5276.2115359999989
 20
2527.2375229999998
 30
0.0
 11
5534.886547000001
 21
2527.2375229999998
 31
0.0
  0
LINE
  5
7E6F
  8
3
  6
CONTINUOUS
 62
     0
 10
5504.886547000001
 20
3417.2375229999998
 30
0.0
 11
5504.886547000001
 21
2587.2375229999998
 31
0.0
  0
INSERT
  5
7E70
  8
3
  6
CONTINUOUS
 62
     0
  2
_OPEN
 10
5504.886547000001
 20
3477.2375229999998
 30
0.0
 41
60.0
 42
60.0
 43
60.0
 50
90.0
  0
INSERT
  5
7E71
  8
3
  6
CONTINUOUS
 62
     0
  2
_OPEN
 10
5504.886547000001
 20
2527.2375229999998
 30
0.0
 41
60.0
 42
60.0
 43
60.0
 50
270.0
  0
TEXT
  8
3
  40
90
  5
7EB2
  62
0
  72
0
  71
0
 10
5249.89
 20
2836.27
 30
0.000000
  1
φ950
  0
POINT
  5
7E73
  8
DEFPOINTS
  6
CONTINUOUS
 62
     0
 10
5261.2115359999998
 20
3477.2375229999998
 30
0.0
  0
POINT
  5
7E74
  8
DEFPOINTS
  6
CONTINUOUS
 62
     0
 10
5261.2115359999998
 20
2527.2375229999998
 30
0.0
  0
POINT
  5
7E75
  8
DEFPOINTS
  6
CONTINUOUS
 62
     0
 10
5504.886547000001
 20
2527.2375229999998
 30
0.0
  0
ENDBLK
  5
7DB1
  8
0
  0
BLOCK
  8
0
  2
*D11
 70
     1
 10
0.0
 20
0.0
 30
0.0
  3
*D11
  1

  0
LINE
  5
7D9D
  8
0
  6
BYBLOCK
 62
     0
 10
5261.2115359999998
 20
3492.2375229999998
 30
0.0
 11
5261.2115359999998
 21
4018.6782320000002
 31
0.0
  0
LINE
  5
7D9E
  8
0
  6
BYBLOCK
 62
     0
 10
4922.2115359999989
 20
3937.082351
 30
0.0
 11
4922.2115359999989
 21
4018.6782320000002
 31
0.0
  0
LINE
  5
7D9F
  8
0
  6
BYBLOCK
 62
     0
 10
5201.2115359999989
 20
3988.6782320000002
 30
0.0
 11
4982.2115359999998
 21
3988.6782320000002
 31
0.0
  0
TEXT
  5
7DA0
  8
3
 62
     0
 10
4978.1401074285723
 20
4009.1828792746091
 30
0.0
 40
90.0
  1
339
  0
INSERT
  5
7DA1
  8
0
  6
BYBLOCK
 62
     0
  2
_OPEN
 10
5261.2115359999998
 20
3988.6782320000002
 30
0.0
 41
60.0
 42
60.0
 43
60.0
  0
INSERT
  5
7DA2
  8
0
  6
BYBLOCK
 62
     0
  2
_OPEN
 10
4922.2115359999989
 20
3988.6782320000002
 30
0.0
 41
60.0
 42
60.0
 43
60.0
 50
180.0
  0
POINT
  5
7DA3
  8
DEFPOINTS
  6
BYBLOCK
 62
     0
 10
5261.2115359999998
 20
3477.2375229999998
 30
0.0
  0
POINT
  5
7DA4
  8
DEFPOINTS
  6
BYBLOCK
 62
     0
 10
4922.2115359999989
 20
3922.082351
 30
0.0
  0
POINT
  5
7DA5
  8
DEFPOINTS
  6
BYBLOCK
 62
     0
 10
4922.2115359999989
 20
3988.6782320000002
 30
0.0
  0
ENDBLK
  5
7DA6
  8
0
  0
BLOCK
  8
0
  2
*D12
 70
     1
 10
0.0
 20
0.0
 30
0.0
  3
*D12
  1

  0
LINE
  5
7E76
  8
3
  6
CONTINUOUS
 62
     0
 10
4312.2115359999998
 20
3522.2375229999989
 30
0.0
 11
4312.2115359999998
 21
4018.6782320000002
 31
0.0
  0
LINE
  5
7E77
  8
3
  6
CONTINUOUS
 62
     0
 10
4862.2115359999998
 20
3988.6782320000002
 30
0.0
 11
4372.2115359999998
 21
3988.6782320000002
 31
0.0
  0
INSERT
  5
7E78
  8
3
  6
CONTINUOUS
 62
     0
  2
_OPEN
 10
4922.2115359999989
 20
3988.6782320000002
 30
0.0
 41
60.0
 42
60.0
 43
60.0
  0
INSERT
  5
7E79
  8
3
  6
CONTINUOUS
 62
     0
  2
_OPEN
 10
4312.2115359999998
 20
3988.6782320000002
 30
0.0
 41
60.0
 42
60.0
 43
60.0
 50
180.0
  0
TEXT
  8
3
  40
90
  5
7EB3
  62
0
  72
0
  71
0
 10
4437.21
 20
3979.38
 30
0.000000
  1
MAX
  0
TEXT
  8
3
  40
90
  5
7EB4
  62
0
  72
0
  71
0
 10
4437.21
 20
3862.38
 30
0.000000
  1
640
  0
POINT
  5
7E7B
  8
DEFPOINTS
  6
CONTINUOUS
 62
     0
 10
4922.2115359999989
 20
3922.082351
 30
0.0
  0
POINT
  5
7E7C
  8
DEFPOINTS
  6
CONTINUOUS
 62
     0
 10
4312.2115359999998
 20
3507.2375229999998
 30
0.0
  0
POINT
  5
7E7D
  8
DEFPOINTS
  6
CONTINUOUS
 62
     0
 10
4312.2115359999998
 20
3988.6782320000002
 30
0.0
  0
ENDBLK
  5
7D90
  8
0
  0
BLOCK
  8
0
  2
*D13
 70
     1
 10
0.0
 20
0.0
 30
0.0
  3
*D13
  1

  0
LINE
  5
7E7E
  8
3
  6
CONTINUOUS
 62
     0
 10
4274.2115359999998
 20
2081.2375229999998
 30
0.0
 11
4274.2115359999998
 21
1838.5909099999999
 31
0.0
  0
LINE
  5
7E7F
  8
3
  6
CONTINUOUS
 62
     0
 10
4922.2115359999989
 20
1890.0947199999989
 30
0.0
 11
4922.2115359999989
 21
1838.5909099999999
 31
0.0
  0
LINE
  5
7E80
  8
3
  6
CONTINUOUS
 62
     0
 10
4334.2115359999998
 20
1868.590909999999
 30
0.0
 11
4862.2115359999998
 21
1868.590909999999
 31
0.0
  0
INSERT
  5
7E81
  8
3
  6
CONTINUOUS
 62
     0
  2
_OPEN
 10
4274.2115359999998
 20
1868.590909999999
 30
0.0
 41
60.0
 42
60.0
 43
60.0
 50
180.0
  0
INSERT
  5
7E82
  8
3
  6
CONTINUOUS
 62
     0
  2
_OPEN
 10
4922.2115359999989
 20
1868.590909999999
 30
0.0
 41
60.0
 42
60.0
 43
60.0
  0
TEXT
  8
3
  40
90
  5
7EB5
  62
0
  72
0
  71
0
 10
4433.10
 20
1784.29
 30
0.000000
  1
648
  0
POINT
  5
7E84
  8
DEFPOINTS
  6
CONTINUOUS
 62
     0
 10
4274.2115359999998
 20
2096.2375229999998
 30
0.0
  0
POINT
  5
7E85
  8
DEFPOINTS
  6
CONTINUOUS
 62
     0
 10
4922.2115359999989
 20
1905.0947200000001
 30
0.0
  0
POINT
  5
7E86
  8
DEFPOINTS
  6
CONTINUOUS
 62
     0
 10
4922.2115359999989
 20
1868.590909999999
 30
0.0
  0
ENDBLK
  5
7D72
  8
0
  0
BLOCK
  8
0
  2
*D14
 70
     1
 10
0.0
 20
0.0
 30
0.0
  3
*D14
  1

  0
LINE
  5
7E87
  8
3
  6
CONTINUOUS
 62
     0
 10
5424.2115359999998
 20
2081.2375229999998
 30
0.0
 11
5424.2115359999998
 21
1838.5909099999999
 31
0.0
  0
LINE
  5
7E88
  8
3
  6
CONTINUOUS
 62
     0
 10
4982.2115359999998
 20
1868.590909999999
 30
0.0
 11
5364.2115359999998
 21
1868.590909999999
 31
0.0
  0
INSERT
  5
7E89
  8
3
  6
CONTINUOUS
 62
     0
  2
_OPEN
 10
4922.2115359999989
 20
1868.590909999999
 30
0.0
 41
60.0
 42
60.0
 43
60.0
 50
180.0
  0
INSERT
  5
7E8A
  8
3
  6
CONTINUOUS
 62
     0
  2
_OPEN
 10
5424.2115359999998
 20
1868.590909999999
 30
0.0
 41
60.0
 42
60.0
 43
60.0
  0
TEXT
  8
3
  40
90
  5
7EB6
  62
0
  72
0
  71
0
 10
4993.21
 20
1784.29
 30
0.000000
  1
502
  0
POINT
  5
7E8C
  8
DEFPOINTS
  6
CONTINUOUS
 62
     0
 10
4922.2115359999989
 20
1905.0947200000001
 30
0.0
  0
POINT
  5
7E8D
  8
DEFPOINTS
  6
CONTINUOUS
 62
     0
 10
5424.2115359999998
 20
2096.2375229999998
 30
0.0
  0
POINT
  5
7E8E
  8
DEFPOINTS
  6
CONTINUOUS
 62
     0
 10
5424.2115359999998
 20
1868.590909999999
 30
0.0
  0
ENDBLK
  5
7D67
  8
0
  0
BLOCK
  8
0
  2
*D15
 70
     1
 10
0.0
 20
0.0
 30
0.0
  3
*D15
  1

  0
LINE
  5
7E8F
  8
3
  6
CONTINUOUS
 62
     0
 10
1322.585466999999
 20
6505.0343350000012
 30
0.0
 11
1322.585466999999
 21
6697.9039959999991
 31
0.0
  0
LINE
  5
7E90
  8
3
  6
CONTINUOUS
 62
     0
 10
3172.5854669999999
 20
6505.0343350000012
 30
0.0
 11
3172.5854669999999
 21
6697.9039959999991
 31
0.0
  0
LINE
  5
7E91
  8
3
  6
CONTINUOUS
 62
     0
 10
1382.585466999999
 20
6667.9039959999991
 30
0.0
 11
3112.5854669999999
 21
6667.9039959999991
 31
0.0
  0
INSERT
  5
7E92
  8
3
  6
CONTINUOUS
 62
     0
  2
_OPEN
 10
1322.585466999999
 20
6667.9039959999991
 30
0.0
 41
60.0
 42
60.0
 43
60.0
 50
180.0
  0
INSERT
  5
7E93
  8
3
  6
CONTINUOUS
 62
     0
  2
_OPEN
 10
3172.5854669999999
 20
6667.9039959999991
 30
0.0
 41
60.0
 42
60.0
 43
60.0
  0
TEXT
  8
3
  40
90
  5
7EB7
  62
0
  72
0
  71
0
 10
2034.55
 20
6583.60
 30
0.000000
  1
1850
  0
POINT
  5
7E95
  8
DEFPOINTS
  6
CONTINUOUS
 62
     0
 10
1322.585466999999
 20
6490.0343350000003
 30
0.0
  0
POINT
  5
7E96
  8
DEFPOINTS
  6
CONTINUOUS
 62
     0
 10
3172.5854669999999
 20
6490.0343350000003
 30
0.0
  0
POINT
  5
7E97
  8
DEFPOINTS
  6
CONTINUOUS
 62
     0
 10
3172.5854669999999
 20
6667.9039959999991
 30
0.0
  0
ENDBLK
  5
7D5D
  8
0
  0
BLOCK
  8
0
  2
*D16
 70
     1
 10
0.0
 20
0.0
 30
0.0
  3
*D16
  1

  0
LINE
  5
7E98
  8
3
  6
CONTINUOUS
 62
     0
 10
3187.5854669999999
 20
6490.0343350000003
 30
0.0
 11
3486.6822440000001
 21
6490.0343350000003
 31
0.0
  0
LINE
  5
7E99
  8
3
  6
CONTINUOUS
 62
     0
 10
3187.5854669999999
 20
5340.0343350000012
 30
0.0
 11
3486.6822440000001
 21
5340.0343350000012
 31
0.0
  0
LINE
  5
7E9A
  8
3
  6
CONTINUOUS
 62
     0
 10
3456.6822440000001
 20
6430.0343350000012
 30
0.0
 11
3456.6822440000001
 21
5400.0343350000003
 31
0.0
  0
INSERT
  5
7E9B
  8
3
  6
CONTINUOUS
 62
     0
  2
_OPEN
 10
3456.6822440000001
 20
6490.0343350000003
 30
0.0
 41
60.0
 42
60.0
 43
60.0
 50
90.0
  0
INSERT
  5
7E9C
  8
3
  6
CONTINUOUS
 62
     0
  2
_OPEN
 10
3456.6822440000001
 20
5340.0343350000012
 30
0.0
 41
60.0
 42
60.0
 43
60.0
 50
270.0
  0
TEXT
  8
3
  40
90
  5
7EB8
  62
0
  72
0
  71
0
 10
3201.68
 20
5831.25
 30
0.000000
  1
1150
  0
POINT
  5
7E9E
  8
DEFPOINTS
  6
CONTINUOUS
 62
     0
 10
3172.5854669999999
 20
6490.0343350000003
 30
0.0
  0
POINT
  5
7E9F
  8
DEFPOINTS
  6
CONTINUOUS
 62
     0
 10
3172.5854669999999
 20
5340.0343350000012
 30
0.0
  0
POINT
  5
7EA0
  8
DEFPOINTS
  6
CONTINUOUS
 62
     0
 10
3456.6822440000001
 20
5340.0343350000012
 30
0.0
  0
ENDBLK
  5
7CFB
  8
0
  0
BLOCK
  8
0
  2
*D17
 70
     1
 10
0.0
 20
0.0
 30
0.0
  3
*D17
  1

  0
LINE
  5
7EA1
  8
3
  6
CONTINUOUS
 62
     0
 10
1299.5905240082691
 20
3017.2375229999998
 30
0.0
 11
1299.5905240082691
 21
4005.9460659999991
 31
0.0
  0
LINE
  5
7EA2
  8
3
  6
CONTINUOUS
 62
     0
 10
1882.5854670000001
 20
3975.9460659999991
 30
0.0
 11
1359.5905240082679
 21
3975.9460659999991
 31
0.0
  0
INSERT
  5
7EA3
  8
3
  6
CONTINUOUS
 62
     0
  2
_OPEN
 10
1942.5854670000001
 20
3975.9460659999991
 30
0.0
 41
60.0
 42
60.0
 43
60.0
  0
INSERT
  5
7EA4
  8
3
  6
CONTINUOUS
 62
     0
  2
_OPEN
 10
1299.5905240082691
 20
3975.9460659999991
 30
0.0
 41
60.0
 42
60.0
 43
60.0
 50
180.0
  0
TEXT
  8
3
  40
90
  5
7EB9
  62
0
  72
0
  71
0
 10
1441.09
 20
3891.65
 30
0.000000
  1
643
  0
POINT
  5
7EA6
  8
DEFPOINTS
  6
CONTINUOUS
 62
     0
 10
1942.5854670000001
 20
3794.2373710000002
 30
0.0
  0
POINT
  5
7EA7
  8
DEFPOINTS
  6
CONTINUOUS
 62
     0
 10
1299.5905240082691
 20
3002.2375229999989
 30
0.0
  0
POINT
  5
7EA8
  8
DEFPOINTS
  6
CONTINUOUS
 62
     0
 10
1299.5905240082691
 20
3975.9460659999991
 30
0.0
  0
ENDBLK
  5
7DC9
  8
0
  0
ENDSEC
  0
SECTION
  2
ENTITIES
  0
LINE
  5
7B00
  8
1
  6
CONTINUOUS
 10
1858.0854670000001
 20
3657.2375229999998
 30
0.0
 11
2868.0854669999999
 21
3657.2375229999998
 31
0.0
  0
POLYLINE
  5
7B01
  8
1
  6
CONTINUOUS
 66
     1
 10
0.0
 20
0.0
 30
0.0
  0
VERTEX
  5
7E16
  8
1
  6
CONTINUOUS
 10
2825.5854669999999
 20
3657.2375229999998
 30
0.0
  0
VERTEX
  5
7E17
  8
1
  6
CONTINUOUS
 10
2803.5854669999999
 20
3002.2375229999998
 30
0.0
 42
-0.4168370000000001
  0
VERTEX
  5
7E18
  8
1
  6
CONTINUOUS
 10
1935.411525
 20
2259.7975630000001
 30
0.0
 42
-0.429867
  0
VERTEX
  5
7E19
  8
1
  6
CONTINUOUS
 10
1304.16029
 20
3046.113683
 30
0.0
 42
-0.373172
  0
VERTEX
  5
7E1A
  8
1
  6
CONTINUOUS
 10
1900.5854670000001
 20
3570.2062510000001
 30
0.0
 42
-0.34598
  0
SEQEND
  5
7E1B
  8
1
  6
CONTINUOUS
  0
LINE
  5
7B08
  8
1
  6
CONTINUOUS
 10
1900.5854670000001
 20
3617.2375229999998
 30
0.0
 11
2824.241955
 21
3617.2375229999998
 31
0.0
  0
LINE
  5
7B09
  8
1
  6
CONTINUOUS
 10
1372.585466999999
 20
2337.2375229999998
 30
0.0
 11
3122.5854669999999
 21
2337.2375229999998
 31
0.0
  0
LINE
  5
7B0A
  8
1
  6
CONTINUOUS
 10
1372.585466999999
 20
2237.2375229999998
 30
0.0
 11
3122.5854669999999
 21
2237.2375229999998
 31
0.0
  0
LINE
  5
7B0B
  8
1
  6
CONTINUOUS
 10
1322.585466999999
 20
2196.2375229999998
 30
0.0
 11
3172.5854669999999
 21
2196.2375229999998
 31
0.0
  0
LINE
  5
7B0C
  8
1
  6
CONTINUOUS
 10
1322.585466999999
 20
2096.2375229999998
 30
0.0
 11
3172.5854669999999
 21
2096.2375229999998
 31
0.0
  0
ARC
  5
7B0D
  8
1
  6
CONTINUOUS
 10
2922.5854669999999
 20
2587.2375229999998
 30
0.0
 40
162.0
 50
324.972283
 51
215.02771699999991
  0
LINE
  5
7B0E
  8
1
  6
CONTINUOUS
 10
2963.0307509999998
 20
2650.3974710000002
 30
0.0
 11
2079.5601620000002
 21
3216.1392129999999
 31
0.0
  0
LINE
  5
7B0F
  8
1
  6
CONTINUOUS
 10
2905.3720549999998
 20
2514.2395879999999
 30
0.0
 11
1884.289381
 21
2755.0178510000001
 31
0.0
  0
LINE
  5
7B10
  8
1
  6
CONTINUOUS
 10
3102.5854669999999
 20
2687.2375229999998
 30
0.0
 11
2122.5854669999999
 21
3507.2375229999998
 31
0.0
  0
LINE
  5
7B14
  8
1
  6
CONTINUOUS
 10
1462.5854670000001
 20
3507.2375229999998
 30
0.0
 11
2122.5854669999999
 21
3507.2375229999998
 31
0.0
  0
LINE
  5
7B16
  8
1
  6
CONTINUOUS
 10
1462.5854670000001
 20
2337.2375229999998
 30
0.0
 11
1462.5854670000001
 21
3507.2375229999998
 31
0.0
  0
LINE
  5
7B17
  8
1
  6
CONTINUOUS
 10
1322.585466999999
 20
2096.2375229999998
 30
0.0
 11
1322.585466999999
 21
2196.2375229999998
 31
0.0
  0
LINE
  5
7B18
  8
1
  6
CONTINUOUS
 10
1372.585466999999
 20
2337.2375229999998
 30
0.0
 11
1372.585466999999
 21
2237.2375229999998
 31
0.0
  0
CIRCLE
  5
7B1A
  8
1
  6
CONTINUOUS
 10
1942.5854670000001
 20
3002.2375229999998
 30
0.0
 40
254.0
  0
LINE
  5
7B1B
  8
2
  6
CENTER
 10
1942.5854670000001
 20
1932.8787359999999
 30
0.0
 11
1942.5854670000001
 21
3794.2373710000002
 31
0.0
  0
LINE
  5
7B1C
  8
1
  6
CONTINUOUS
 10
2725.0854669999999
 20
2377.2375229999998
 30
0.0
 11
2725.0854669999999
 21
2337.2375229999998
 31
0.0
  0
LINE
  5
7B1D
  8
1
  6
CONTINUOUS
 10
2725.0854669999999
 20
2377.2375229999998
 30
0.0
 11
2735.0854669999999
 21
2427.2375229999998
 31
0.0
  0
LINE
  5
7B1E
  8
1
  6
CONTINUOUS
 10
2789.9278009999998
 20
2494.253956
 30
0.0
 11
2735.0854669999999
 21
2427.2375229999998
 31
0.0
  0
LINE
  5
7B1F
  8
2
  6
CENTER
 10
5326.5291100000004
 20
3002.2375229999998
 30
0.0
 11
4200.1998670000012
 21
3002.2375229999998
 31
0.0
  0
LINE
  5
7B20
  8
1
  6
CONTINUOUS
 10
1900.5854670000001
 20
3570.2062510000001
 30
0.0
 11
1900.5854670000001
 21
3657.2375229999998
 31
0.0
  0
LINE
  5
7B27
  8
1
  6
CONTINUOUS
 10
3172.5854669999999
 20
2096.2375229999998
 30
0.0
 11
3172.5854669999999
 21
2196.2375229999998
 31
0.0
  0
LINE
  5
7B28
  8
1
  6
CONTINUOUS
 10
3110.0854669999999
 20
2427.2375229999998
 30
0.0
 11
3055.2431320000001
 21
2494.253956
 31
0.0
  0
CIRCLE
  5
7B29
  8
1
  6
CONTINUOUS
 10
2922.5854669999999
 20
2587.2375229999998
 30
0.0
 40
75.0
  0
LINE
  5
7B2A
  8
2
  6
CENTER
 10
2922.5854669999999
 20
2507.2375229999998
 30
0.0
 11
2922.5854669999999
 21
2667.2375229999998
 31
0.0
  0
LINE
  5
7B2B
  8
2
  6
CENTER
 10
3002.5854669999999
 20
2587.2375229999998
 30
0.0
 11
2842.5854669999999
 21
2587.2375229999998
 31
0.0
  0
LINE
  5
7B2C
  8
1
  6
CONTINUOUS
 10
3122.5854669999999
 20
2337.2375229999998
 30
0.0
 11
3122.5854669999999
 21
2237.2375229999998
 31
0.0
  0
LINE
  5
7B2D
  8
1
  6
CONTINUOUS
 10
3120.0854669999999
 20
2377.2375229999998
 30
0.0
 11
3120.0854669999999
 21
2337.2375229999998
 31
0.0
  0
LINE
  5
7B2E
  8
1
  6
CONTINUOUS
 10
3110.0854669999999
 20
2427.2375229999998
 30
0.0
 11
3120.0854669999999
 21
2377.2375229999998
 31
0.0
  0
LINE
  5
7B2F
  8
1
  6
CONTINUOUS
 10
3102.5854669999999
 20
2337.2375229999998
 30
0.0
 11
3102.5854669999999
 21
2687.2375229999998
 31
0.0
  0
LINE
  5
7B3F
  8
1
  6
CONTINUOUS
 10
2825.5854669999999
 20
6323.0343350000003
 30
0.0
 11
1900.5854670000001
 21
5653.0343350000003
 31
0.0
  0
LINE
  5
7B40
  8
1
  6
CONTINUOUS
 10
2825.5854669999999
 20
5653.0343350000003
 30
0.0
 11
1900.5854670000001
 21
6323.0343350000003
 31
0.0
  0
LINE
  5
7B41
  8
1
  6
CONTINUOUS
 10
1322.585466999999
 20
5455.0343350000003
 30
0.0
 11
3172.5854669999999
 21
5455.0343350000003
 31
0.0
  0
LINE
  5
7B42
  8
1
  6
CONTINUOUS
 10
1297.7891239999999
 20
6323.0343350000003
 30
0.0
 11
2825.5854669999999
 21
6323.0343350000003
 31
0.0
  0
LINE
  5
7B43
  8
1
  6
CONTINUOUS
 10
1297.7891239999999
 20
5653.0343350000003
 30
0.0
 11
2825.5854669999999
 21
5653.0343350000003
 31
0.0
  0
LINE
  5
7B44
  8
1
  6
CONTINUOUS
 10
3084.5854669999999
 20
5611.0343350000003
 30
0.0
 11
2760.5854669999999
 21
5611.0343350000003
 31
0.0
  0
LINE
  5
7B45
  8
1
  6
CONTINUOUS
 10
3102.5854669999999
 20
5600.0343350000003
 30
0.0
 11
1462.5854670000001
 21
5600.0343350000003
 31
0.0
  0
LINE
  5
7B46
  8
1
  6
CONTINUOUS
 10
3102.5854669999999
 20
5430.0343350000012
 30
0.0
 11
1462.5854670000001
 21
5430.0343350000012
 31
0.0
  0
LINE
  5
7B47
  8
1
  6
CONTINUOUS
 10
1322.585466999999
 20
6375.0343350000003
 30
0.0
 11
3172.5854669999999
 21
6375.0343350000003
 31
0.0
  0
LINE
  5
7B48
  8
1
  6
CONTINUOUS
 10
1297.7891239999999
 20
5653.0343350000003
 30
0.0
 11
1297.7891239999999
 21
6323.0343350000003
 31
0.0
  0
LINE
  5
7B49
  8
1
  6
CONTINUOUS
 10
1322.585466999999
 20
5340.0343350000012
 30
0.0
 11
1372.585466999999
 21
5340.0343350000012
 31
0.0
  0
LINE
  5
7B4A
  8
1
  6
CONTINUOUS
 10
1322.585466999999
 20
5340.0343350000012
 30
0.0
 11
1322.585466999999
 21
5455.0343350000003
 31
0.0
  0
LINE
  5
7B4B
  8
1
  6
CONTINUOUS
 10
1322.585466999999
 20
5455.0343350000003
 30
0.0
 11
1322.585466999999
 21
5653.0343350000003
 31
0.0
  0
LINE
  5
7B4C
  8
1
  6
CONTINUOUS
 10
1372.585466999999
 20
5340.0343350000012
 30
0.0
 11
1372.585466999999
 21
5455.0343350000003
 31
0.0
  0
LINE
  5
7B4D
  8
1
  6
CONTINUOUS
 10
1462.5854670000001
 20
5430.0343350000012
 30
0.0
 11
1462.5854670000001
 21
5600.0343350000003
 31
0.0
  0
LINE
  5
7B4E
  8
1
  6
CONTINUOUS
 10
1322.585466999999
 20
6490.0343350000003
 30
0.0
 11
1372.585466999999
 21
6490.0343350000003
 31
0.0
  0
LINE
  5
7B4F
  8
1
  6
CONTINUOUS
 10
1322.585466999999
 20
6375.0343350000003
 30
0.0
 11
1322.585466999999
 21
6490.0343350000003
 31
0.0
  0
LINE
  5
7B50
  8
1
  6
CONTINUOUS
 10
1322.585466999999
 20
6323.0343350000003
 30
0.0
 11
1322.585466999999
 21
6375.0343350000003
 31
0.0
  0
LINE
  5
7B51
  8
1
  6
CONTINUOUS
 10
1372.585466999999
 20
6375.0343350000003
 30
0.0
 11
1372.585466999999
 21
6490.0343350000003
 31
0.0
  0
LINE
  5
7B52
  8
1
  6
CONTINUOUS
 10
1900.5854670000001
 20
5653.0343350000003
 30
0.0
 11
1900.5854670000001
 21
6323.0343350000003
 31
0.0
  0
LINE
  5
7B53
  8
1
  6
CONTINUOUS
 10
2196.5854669999999
 20
5567.0343350000003
 30
0.0
 11
1688.5854670000001
 21
5567.0343350000003
 31
0.0
  0
LINE
  5
7B54
  8
1
  6
CONTINUOUS
 10
2196.5854669999999
 20
5463.0343350000003
 30
0.0
 11
1688.5854670000001
 21
5463.0343350000003
 31
0.0
  0
LINE
  5
7B55
  8
1
  6
CONTINUOUS
 10
1917.5854670000001
 20
5567.0343350000003
 30
0.0
 11
1917.5854670000001
 21
5653.0343350000003
 31
0.0
  0
LINE
  5
7B56
  8
1
  6
CONTINUOUS
 10
1688.5854670000001
 20
5463.0343350000003
 30
0.0
 11
1688.5854670000001
 21
5567.0343350000003
 31
0.0
  0
LINE
  5
7B57
  8
1
  6
CONTINUOUS
 10
1967.5854670000001
 20
5567.0343350000003
 30
0.0
 11
1967.5854670000001
 21
5653.0343350000003
 31
0.0
  0
LINE
  5
7B58
  8
1
  6
CONTINUOUS
 10
2196.5854669999999
 20
5463.0343350000003
 30
0.0
 11
2196.5854669999999
 21
5567.0343350000003
 31
0.0
  0
LINE
  5
7B59
  8
1
  6
CONTINUOUS
 10
2760.5854669999999
 20
5611.0343350000003
 30
0.0
 11
2760.5854669999999
 21
5653.0343350000003
 31
0.0
  0
LINE
  5
7B60
  8
1
  6
CONTINUOUS
 10
2825.5854669999999
 20
5653.0343350000003
 30
0.0
 11
2825.5854669999999
 21
6323.0343350000003
 31
0.0
  0
LINE
  5
7B61
  8
1
  6
CONTINUOUS
 10
3172.5854669999999
 20
5455.0343350000003
 30
0.0
 11
3172.5854669999999
 21
6375.0343350000003
 31
0.0
  0
LINE
  5
7B62
  8
1
  6
CONTINUOUS
 10
3084.5854669999999
 20
5611.0343350000003
 30
0.0
 11
3084.5854669999999
 21
6096.0343350000003
 31
0.0
  0
LINE
  5
7B63
  8
1
  6
CONTINUOUS
 10
2997.5854669999999
 20
5567.0343350000003
 30
0.0
 11
2847.5854669999999
 21
5567.0343350000003
 31
0.0
  0
LINE
  5
7B64
  8
1
  6
CONTINUOUS
 10
2997.5854669999999
 20
5463.0343350000003
 30
0.0
 11
2847.5854669999999
 21
5463.0343350000003
 31
0.0
  0
LINE
  5
7B65
  8
1
  6
CONTINUOUS
 10
2901.5854669999999
 20
5567.0343350000003
 30
0.0
 11
2901.5854669999999
 21
5611.0343350000003
 31
0.0
  0
LINE
  5
7B66
  8
1
  6
CONTINUOUS
 10
2943.5854669999999
 20
5567.0343350000003
 30
0.0
 11
2943.5854669999999
 21
5611.0343350000003
 31
0.0
  0
LINE
  5
7B67
  8
1
  6
CONTINUOUS
 10
2847.5854669999999
 20
5463.0343350000003
 30
0.0
 11
2847.5854669999999
 21
5567.0343350000003
 31
0.0
  0
LINE
  5
7B68
  8
1
  6
CONTINUOUS
 10
2997.5854669999999
 20
5463.0343350000003
 30
0.0
 11
2997.5854669999999
 21
5567.0343350000003
 31
0.0
  0
LINE
  5
7B69
  8
1
  6
CONTINUOUS
 10
3172.5854669999999
 20
5340.0343350000012
 30
0.0
 11
3172.5854669999999
 21
5455.0343350000003
 31
0.0
  0
LINE
  5
7B6A
  8
1
  6
CONTINUOUS
 10
3122.5854669999999
 20
5340.0343350000012
 30
0.0
 11
3122.5854669999999
 21
5455.0343350000003
 31
0.0
  0
LINE
  5
7B6B
  8
1
  6
CONTINUOUS
 10
3122.5854669999999
 20
5340.0343350000012
 30
0.0
 11
3172.5854669999999
 21
5340.0343350000012
 31
0.0
  0
LINE
  5
7B6C
  8
1
  6
CONTINUOUS
 10
3102.5854669999999
 20
5430.0343350000012
 30
0.0
 11
3102.5854669999999
 21
5600.0343350000003
 31
0.0
  0
LINE
  5
7B74
  8
1
  6
CONTINUOUS
 10
3084.5854669999999
 20
6096.0343350000003
 30
0.0
 11
2825.5854669999999
 21
6096.0343350000003
 31
0.0
  0
LINE
  5
7B75
  8
1
  6
CONTINUOUS
 10
3122.5854669999999
 20
6490.0343350000003
 30
0.0
 11
3172.5854669999999
 21
6490.0343350000003
 31
0.0
  0
LINE
  5
7B76
  8
1
  6
CONTINUOUS
 10
3122.5854669999999
 20
6375.0343350000003
 30
0.0
 11
3122.5854669999999
 21
6490.0343350000003
 31
0.0
  0
LINE
  5
7B77
  8
1
  6
CONTINUOUS
 10
3172.5854669999999
 20
6375.0343350000003
 30
0.0
 11
3172.5854669999999
 21
6490.0343350000003
 31
0.0
  0
LINE
  5
7B84
  8
1
  6
CONTINUOUS
 10
4389.2115359999998
 20
2337.2375229999998
 30
0.0
 11
5309.2115359999998
 21
2337.2375229999998
 31
0.0
  0
LINE
  5
7B85
  8
1
  6
CONTINUOUS
 10
4397.2115359999989
 20
2512.2375229999998
 30
0.0
 11
4501.2115359999989
 21
2512.2375229999998
 31
0.0
  0
LINE
  5
7B86
  8
1
  6
CONTINUOUS
 10
4397.2115359999989
 20
2662.2375229999998
 30
0.0
 11
4501.2115359999989
 21
2662.2375229999998
 31
0.0
  0
LINE
  5
7B87
  8
1
  6
CONTINUOUS
 10
4397.2115359999989
 20
2748.2375229999998
 30
0.0
 11
4501.2115359999989
 21
2748.2375229999998
 31
0.0
  0
LINE
  5
7B88
  8
1
  6
CONTINUOUS
 10
4397.2115359999989
 20
3256.2375229999998
 30
0.0
 11
4501.2115359999989
 21
3256.2375229999998
 31
0.0
  0
LINE
  5
7B89
  8
1
  6
CONTINUOUS
 10
4312.2115359999998
 20
3507.2375229999998
 30
0.0
 11
4534.2115359999989
 21
3507.2375229999998
 31
0.0
  0
LINE
  5
7B8A
  8
1
  6
CONTINUOUS
 10
4274.2115359999998
 20
2096.2375229999998
 30
0.0
 11
5424.2115359999998
 21
2096.2375229999998
 31
0.0
  0
LINE
  5
7B8B
  8
1
  6
CONTINUOUS
 10
4274.2115359999998
 20
2196.2375229999998
 30
0.0
 11
5424.2115359999998
 21
2196.2375229999998
 31
0.0
  0
LINE
  5
7B8C
  8
1
  6
CONTINUOUS
 10
4389.2115359999998
 20
2237.2375229999998
 30
0.0
 11
5309.2115359999998
 21
2237.2375229999998
 31
0.0
  0
LINE
  5
7B8D
  8
1
  6
CONTINUOUS
 10
4312.2115359999998
 20
3507.2375229999998
 30
0.0
 11
4312.2115359999998
 21
2337.2375229999998
 31
0.0
  0
LINE
  5
7B8F
  8
1
  6
CONTINUOUS
 10
4397.2115359999989
 20
3256.2375229999998
 30
0.0
 11
4397.2115359999989
 21
2748.2375229999998
 31
0.0
  0
LINE
  5
7B93
  8
1
  6
CONTINUOUS
 10
4274.2115359999998
 20
2196.2375229999998
 30
0.0
 11
4274.2115359999998
 21
2096.2375229999998
 31
0.0
  0
LINE
  5
7B95
  8
1
  6
CONTINUOUS
 10
4397.2115359999989
 20
2662.2375229999998
 30
0.0
 11
4397.2115359999989
 21
2512.2375229999998
 31
0.0
  0
LINE
  5
7B96
  8
1
  6
CONTINUOUS
 10
4389.2115359999998
 20
2337.2375229999998
 30
0.0
 11
4389.2115359999998
 21
2237.2375229999998
 31
0.0
  0
LINE
  5
7B97
  8
1
  6
CONTINUOUS
 10
4312.2115359999998
 20
2337.2375229999998
 30
0.0
 11
4389.2115359999998
 21
2337.2375229999998
 31
0.0
  0
LINE
  5
7B98
  8
1
  6
CONTINUOUS
 10
4534.2115359999989
 20
3507.2375229999998
 30
0.0
 11
4534.2115359999989
 21
2337.2375229999998
 31
0.0
  0
LINE
  5
7B99
  8
1
  6
CONTINUOUS
 10
4501.2115359999989
 20
3256.2375229999998
 30
0.0
 11
4501.2115359999989
 21
2748.2375229999998
 31
0.0
  0
LINE
  5
7B9A
  8
1
  6
CONTINUOUS
 10
5257.2115359999989
 20
3657.2375229999998
 30
0.0
 11
5257.2115359999989
 21
2337.2375229999998
 31
0.0
  0
LINE
  5
7B9B
  8
1
  6
CONTINUOUS
 10
4587.2115359999998
 20
3657.2375229999998
 30
0.0
 11
4587.2115359999998
 21
2337.2375229999998
 31
0.0
  0
LINE
  5
7B9C
  8
1
  6
CONTINUOUS
 10
4501.2115359999989
 20
2662.2375229999998
 30
0.0
 11
4501.2115359999989
 21
2512.2375229999998
 31
0.0
  0
LINE
  5
7B9D
  8
1
  6
CONTINUOUS
 10
4501.2115359999989
 20
2566.2375229999998
 30
0.0
 11
4587.2115359999998
 21
2566.2375229999998
 31
0.0
  0
LINE
  5
7B9E
  8
1
  6
CONTINUOUS
 10
4501.2115359999989
 20
2608.2375229999998
 30
0.0
 11
4587.2115359999998
 21
2608.2375229999998
 31
0.0
  0
LINE
  5
7B9F
  8
1
  6
CONTINUOUS
 10
5424.2115359999998
 20
2196.2375229999998
 30
0.0
 11
5424.2115359999998
 21
2096.2375229999998
 31
0.0
  0
LINE
  5
7BA0
  8
1
  6
CONTINUOUS
 10
5309.2115359999998
 20
2337.2375229999998
 30
0.0
 11
5309.2115359999998
 21
2237.2375229999998
 31
0.0
  0
LINE
  5
7BA1
  8
1
  6
CONTINUOUS
 10
4545.2115359999998
 20
3657.2375229999998
 30
0.0
 11
5299.2115359999998
 21
3657.2375229999998
 31
0.0
  0
LINE
  5
7BA2
  8
1
  6
CONTINUOUS
 10
4587.2115359999998
 20
3617.2375229999998
 30
0.0
 11
5257.2115359999989
 21
3617.2375229999998
 31
0.0
  0
LINE
  5
7BA3
  8
1
  6
CONTINUOUS
 10
4501.2115359999989
 20
2977.2375229999998
 30
0.0
 11
4587.2115359999998
 21
2977.2375229999998
 31
0.0
  0
LINE
  5
7BA4
  8
1
  6
CONTINUOUS
 10
4501.2115359999989
 20
3027.2375229999998
 30
0.0
 11
4587.2115359999998
 21
3027.2375229999998
 31
0.0
  0
LINE
  5
7BCD
  8
2
  6
CENTER
 10
1154.3570729999999
 20
5988.0343350000003
 30
0.0
 11
3284.6947169999999
 21
5988.0343350000003
 31
0.0
  0
LINE
  5
7BCE
  8
2
  6
CENTER
 10
4922.2115359999989
 20
3794.279340999999
 30
0.0
 11
4922.2115359999989
 21
1905.0947200000001
 31
0.0
  0
LINE
  5
7BCF
  8
2
  6
CENTER
 10
1942.5854670000001
 20
5291.503099999999
 30
0.0
 11
1942.5854670000001
 21
6501.9798299999993
 31
0.0
  0
LINE
  5
7BD0
  8
2
  6
CENTER
 10
3050.6600960000001
 20
3002.2375229999998
 30
0.0
 11
1157.6679770000001
 21
3002.2375229999998
 31
0.0
  0
LINE
  5
7BD1
  8
4
  6
CONTINUOUS
 10
5550.0
 20
1500.0
 30
0.0
 11
5550.0
 21
900.0
 31
0.0
  0
LINE
  5
7BD2
  8
4
  6
CONTINUOUS
 10
3450.0
 20
1500.0
 30
0.0
 11
3450.0
 21
900.0
 31
0.0
  0
LINE
  5
7BD3
  8
4
  6
CONTINUOUS
 10
1950.0
 20
1500.0
 30
0.0
 11
1950.0
 21
900.0
 31
0.0
  0
LINE
  5
7BD6
  8
4
  6
CONTINUOUS
 10
1950.0
 20
900.0
 30
0.0
 11
5550.0
 21
900.0
 31
0.0
  0
LINE
  5
7BD7
  8
4
  6
CONTINUOUS
 10
1950.0
 20
1200.0
 30
0.0
 11
5550.0
 21
1200.0
 31
0.0
  0
TEXT
  5
7BD8
  8
4
  6
CONTINUOUS
 10
2065.5062429999989
 20
1294.6290779999999
 30
0.0
 40
150.0
  1
機器名称
  0
TEXT
  5
7BD9
  8
4
  6
CONTINUOUS
 10
2058.7743179999989
 20
964.9354699999999
 30
0.0
 40
150.0
  1
機器型番
  0
TEXT
  5
7BDA
  8
4
  6
CONTINUOUS
 10
3533.0362359999999
 20
1267.7153069999999
 30
0.0
 40
150.0
  1
ミツヤ多翼送風機
  0
TEXT
  5
7BDB
  8
4
  6
CONTINUOUS
 10
3559.9634869999991
 20
951.47875299999987
 30
0.0
 40
150.0
  1
MF#5 1/2-4
  0
TEXT
  5
7BDD
  8
4
  6
CONTINUOUS
 10
2181.3147450000001
 20
7150.2865239999992
 30
0.0
 40
162.0
  1
天井吊防振ベット
  0
TEXT
  5
7BDE
  8
4
  6
CONTINUOUS
 10
948.50278000000014
 20
7601.6429289999996
 30
0.0
 40
216.0
  1
ベルト駆動式片吸込両持多翼ファン
  0
LINE
  5
7BDF
  8
4
  6
CONTINUOUS
 10
750.0
 20
7408.2262629999996
 30
0.0
 11
5550.0
 21
7408.2262629999996
 31
0.0
  0
LINE
  5
7BE0
  8
4
  6
CONTINUOUS
 10
750.0
 20
8008.2262629999996
 30
0.0
 11
5550.0
 21
8008.2262629999996
 31
0.0
  0
LINE
  5
7BE1
  8
4
  6
CONTINUOUS
 10
1950.0
 20
1500.0
 30
0.0
 11
5550.0
 21
1500.0
 31
0.0
  0
LINE
  5
7BE2
  8
4
  6
CONTINUOUS
 10
750.0
 20
8008.2262629999996
 30
0.0
 11
750.0
 21
7408.2262629999996
 31
0.0
  0
TEXT
  5
7BE3
  8
4
  6
CONTINUOUS
 10
960.17756600000007
 20
7146.9584329999998
 30
0.0
 40
162.0
  1
左回転上向
  0
TEXT
  5
7BE4
  8
4
  6
CONTINUOUS
 10
4406.9086779999989
 20
8118.1832439999989
 30
0.0
 40
168.0
  1
No.
  0
TEXT
  5
7BE5
  8
4
  6
CONTINUOUS
 10
3933.8881879999999
 20
7150.2865239999992
 30
0.0
 40
162.0
  1
縮尺：1/30
  0
LINE
  5
7BE6
  8
4
  6
CONTINUOUS
 10
5550.0
 20
8008.2262629999996
 30
0.0
 11
5550.0
 21
7408.2262629999996
 31
0.0
  0
LINE
  5
7BE8
  8
4
  6
CONTINUOUS
 10
4321.8522670000002
 20
8043.7907490000007
 30
0.0
 11
4321.8522670000002
 21
8359.9567849999985
 31
0.0
  0
LINE
  5
7BE9
  8
4
  6
CONTINUOUS
 10
4321.8522670000002
 20
8359.9567849999985
 30
0.0
 11
5550.0
 21
8359.9567849999985
 31
0.0
  0
LINE
  5
7BEA
  8
4
  6
CONTINUOUS
 10
5550.0
 20
8359.9567849999985
 30
0.0
 11
5550.0
 21
8043.7907490000007
 31
0.0
  0
LINE
  5
7BEB
  8
4
  6
CONTINUOUS
 10
5550.0
 20
8043.7907490000007
 30
0.0
 11
4321.8522670000002
 21
8043.7907490000007
 31
0.0
  0
DIMENSION
  5
7BFC
  8
3
  6
CONTINUOUS
  2
*D1
 10
1900.5854670000001
 20
3804.061788
 30
0.0
 11
2304.3642110000001
 21
3804.061788
 31
0.0
 70
   128
 13
2825.5854669999999
 23
3657.2375229999998
 33
0.0
 14
1900.5854670000001
 24
3657.2375229999998
 34
0.0
1001
ACAD
1000
DSTYLE
1002
{
1070
   287
1070
     3
1070
    40
1040
30.0
1070
   143
1040
0.039
1070
   172
1070
     1
1070
   271
1070
     0
1070
   279
1070
     0
1070
   288
1070
     1
1002
}
  0
DIMENSION
  5
7C09
  8
3
  6
CONTINUOUS
  2
*D2
 10
1942.5854670000001
 20
3975.9460659999991
 30
0.0
 11
2310.734121
 21
3975.9460659999991
 31
0.0
 70
   128
 13
2825.5854669999999
 23
3657.2375229999998
 33
0.0
 14
1942.5854670000001
 24
3794.2373710000002
 34
0.0
1001
ACAD
1000
DSTYLE
1002
{
1070
   287
1070
     3
1070
    40
1040
30.0
1070
   143
1040
0.039
1070
   172
1070
     1
1070
   271
1070
     0
1070
   279
1070
     0
1070
   288
1070
     1
1002
}
  0
DIMENSION
  5
7C22
  8
3
  6
CONTINUOUS
  2
*D3
 10
1125.9310640000001
 20
3002.2375229999998
 30
0.0
 11
1125.9310640000001
 21
3352.0697859999991
 31
0.0
 70
   128
 13
1858.0854670000001
 23
3657.2375229999998
 33
0.0
 14
1157.6679770000001
 24
3002.2375229999998
 34
0.0
 50
90.0
1001
ACAD
1000
DSTYLE
1002
{
1070
   287
1070
     3
1070
    40
1040
30.0
1070
   143
1040
0.039
1070
   172
1070
     1
1070
   271
1070
     0
1070
   279
1070
     0
1070
   288
1070
     1
1002
}
  0
DIMENSION
  5
7C2E
  8
3
  6
CONTINUOUS
  2
*D4
 10
1125.9310640000001
 20
2237.2375229999998
 30
0.0
 11
1050.9310640000001
 21
2619.7375229999998
 31
0.0
 70
     0
 13
1157.6679770000001
 23
3002.2375229999998
 33
0.0
 14
1372.585466999999
 24
2237.2375229999998
 34
0.0
 50
90.0
1001
ACAD
1000
DSTYLE
1002
{
1070
   287
1070
     4
1070
    40
1040
30.0
1070
    75
1070
     1
1070
   143
1040
0.039
1070
   172
1070
     1
1070
   271
1070
     0
1070
   279
1070
     1
1070
   288
1070
     1
1002
}
  0
DIMENSION
  5
7C3E
  8
3
  6
CONTINUOUS
  2
*D5
 10
1127.4079549999999
 20
2096.2375229999998
 30
0.0
 11
1127.4079549999999
 21
1858.380380142858
 31
0.0
 70
   128
 13
1372.585466999999
 23
2237.2375229999998
 33
0.0
 14
1322.585466999999
 24
2096.2375229999998
 34
0.0
 50
90.0
1001
ACAD
1000
DSTYLE
1002
{
1070
   287
1070
     3
1070
    40
1040
30.0
1070
   143
1040
0.039
1070
   172
1070
     1
1070
   271
1070
     0
1070
   279
1070
     0
1070
   288
1070
     1
1002
}
  0
DIMENSION
  5
7C4B
  8
3
  6
CONTINUOUS
  2
*D6
 10
939.38607300000035
 20
2096.2375229999998
 30
0.0
 11
939.38607300000001
 21
2784.4914939999999
 31
0.0
 70
   128
 13
1843.0854670000001
 23
3657.2375229999998
 33
0.0
 14
1322.585466999999
 24
2096.2375229999998
 34
0.0
 50
90.0
1001
ACAD
1000
DSTYLE
1002
{
1070
   287
1070
     3
1070
    40
1040
30.0
1070
   143
1040
0.039
1070
   172
1070
     1
1070
   271
1070
     0
1070
   279
1070
     0
1070
   288
1070
     1
1002
}
  0
DIMENSION
  5
7C63
  8
3
  6
CONTINUOUS
  2
*D7
 10
1942.5854670000001
 20
1870.6827189999999
 30
0.0
 11
1628.5183810000001
 21
1870.6827189999999
 31
0.0
 70
   128
 13
1322.585466999999
 23
2096.2375229999998
 33
0.0
 14
1942.5854670000001
 24
1932.8787359999999
 34
0.0
1001
ACAD
1000
DSTYLE
1002
{
1070
   287
1070
     3
1070
    40
1040
30.0
1070
   143
1040
0.039
1070
   172
1070
     1
1070
   271
1070
     0
1070
   279
1070
     0
1070
   288
1070
     1
1002
}
  0
DIMENSION
  5
7C6F
  8
3
  6
CONTINUOUS
  2
*D8
 10
3172.5854669999999
 20
1870.6827189999999
 30
0.0
 11
2557.5854669999999
 21
1945.6827189999999
 31
0.0
 70
     0
 13
1942.5854670000001
 23
1932.8787359999999
 33
0.0
 14
3172.5854669999999
 24
2096.2375229999998
 34
0.0
1001
ACAD
1000
DSTYLE
1002
{
1070
   287
1070
     4
1070
    40
1040
30.0
1070
    75
1070
     1
1070
   143
1040
0.039
1070
   172
1070
     1
1070
   271
1070
     0
1070
   279
1070
     1
1070
   288
1070
     1
1002
}
  0
DIMENSION
  5
7C7C
  8
3
  6
CONTINUOUS
  2
*D9
 10
5257.2115359999989
 20
3784.9635280000002
 30
0.0
 11
4931.594747000001
 21
3784.9635280000002
 31
0.0
 70
   128
 13
4587.2115359999998
 23
3657.2375229999998
 33
0.0
 14
5257.2115359999989
 24
3657.2375229999998
 34
0.0
1001
ACAD
1000
DSTYLE
1002
{
1070
   287
1070
     3
1070
    40
1040
30.0
1070
   143
1040
0.039
1070
   172
1070
     1
1070
   271
1070
     0
1070
   279
1070
     0
1070
   288
1070
     1
1002
}
  0
LINE
  5
7C7D
  8
1
  6
CONTINUOUS
 10
5261.2115359999998
 20
3477.2375229999998
 30
0.0
 11
5261.2115359999998
 21
2527.2375229999998
 31
0.0
  0
DIMENSION
  5
7C8C
  8
3
  6
CONTINUOUS
  2
*D10
 10
5504.886547000001
 20
2527.2375229999998
 30
0.0
 11
5504.8865470000001
 21
2995.569062999999
 31
0.0
 70
   128
 13
5261.2115359999998
 23
3477.2375229999998
 33
0.0
 14
5261.2115359999998
 24
2527.2375229999998
 34
0.0
 50
90.0
1001
ACAD
1000
DSTYLE
1002
{
1070
   287
1070
     3
1070
     3
1000
φ<>
1070
    40
1040
30.0
1070
   143
1040
0.039
1070
   172
1070
     1
1070
   271
1070
     0
1070
   279
1070
     0
1070
   288
1070
     1
1002
}
  0
DIMENSION
  5
7CA6
  8
3
  6
CONTINUOUS
  2
*D11
 10
4922.2115359999989
 20
3988.6782320000002
 30
0.0
 11
5091.7115359999998
 21
4054.1828792746091
 31
0.0
 70
   128
 13
5261.2115359999998
 23
3477.2375229999998
 33
0.0
 14
4922.2115359999989
 24
3922.082351
 34
0.0
1001
ACAD
1000
DSTYLE
1002
{
1070
   288
1070
     1
1070
   172
1070
     1
1070
    40
1040
30.0
1070
   271
1070
     0
1070
   143
1040
0.039
1002
}
  0
DIMENSION
  5
7CB2
  8
3
  6
CONTINUOUS
  2
*D12
 10
4312.2115359999998
 20
3988.6782320000002
 30
0.0
 11
4617.2115359999998
 21
4138.6782320000002
 31
0.0
 70
     0
  1
MAX\P640
 13
4922.2115359999989
 23
3922.082351
 33
0.0
 14
4312.2115359999998
 24
3507.2375229999998
 34
0.0
1001
ACAD
1000
DSTYLE
1002
{
1070
   287
1070
     4
1070
    40
1040
30.0
1070
    75
1070
     1
1070
   143
1040
0.039
1070
   172
1070
     1
1070
   271
1070
     0
1070
   279
1070
     1
1070
   288
1070
     1
1002
}
  0
DIMENSION
  5
7CBF
  8
3
  6
CONTINUOUS
  2
*D13
 10
4922.2115359999989
 20
1868.590909999999
 30
0.0
 11
4613.0992990000004
 21
1868.590909999999
 31
0.0
 70
   128
 13
4274.2115359999998
 23
2096.2375229999998
 33
0.0
 14
4922.2115359999989
 24
1905.0947200000001
 34
0.0
1001
ACAD
1000
DSTYLE
1002
{
1070
   287
1070
     3
1070
    40
1040
30.0
1070
   143
1040
0.039
1070
   172
1070
     1
1070
   271
1070
     0
1070
   279
1070
     0
1070
   288
1070
     1
1002
}
  0
DIMENSION
  5
7CCB
  8
3
  6
CONTINUOUS
  2
*D14
 10
5424.2115359999998
 20
1868.590909999999
 30
0.0
 11
5173.2115359999998
 21
1943.5909099999999
 31
0.0
 70
     0
 13
4922.2115359999989
 23
1905.0947200000001
 33
0.0
 14
5424.2115359999998
 24
2096.2375229999998
 34
0.0
1001
ACAD
1000
DSTYLE
1002
{
1070
   287
1070
     4
1070
    40
1040
30.0
1070
    75
1070
     1
1070
   143
1040
0.039
1070
   172
1070
     1
1070
   271
1070
     0
1070
   279
1070
     1
1070
   288
1070
     1
1002
}
  0
DIMENSION
  5
7CEF
  8
3
  6
CONTINUOUS
  2
*D15
 10
3172.5854669999999
 20
6667.9039959999991
 30
0.0
 11
2214.5500000000002
 21
6667.9039959999991
 31
0.0
 70
   128
 13
1322.585466999999
 23
6490.0343350000003
 33
0.0
 14
3172.5854669999999
 24
6490.0343350000003
 34
0.0
1001
ACAD
1000
DSTYLE
1002
{
1070
   287
1070
     3
1070
    40
1040
30.0
1070
   143
1040
0.039
1070
   172
1070
     1
1070
   271
1070
     0
1070
   279
1070
     0
1070
   288
1070
     1
1002
}
  0
DIMENSION
  5
7CFC
  8
3
  6
CONTINUOUS
  2
*D16
 10
3456.6822440000001
 20
5340.0343350000012
 30
0.0
 11
3456.6822439999992
 21
5990.5541450000001
 31
0.0
 70
   128
 13
3172.5854669999999
 23
6490.0343350000003
 33
0.0
 14
3172.5854669999999
 24
5340.0343350000012
 34
0.0
 50
90.0
1001
ACAD
1000
DSTYLE
1002
{
1070
   287
1070
     3
1070
    40
1040
30.0
1070
   143
1040
0.039
1070
   172
1070
     1
1070
   271
1070
     0
1070
   279
1070
     0
1070
   288
1070
     1
1002
}
  0
DIMENSION
  5
7D52
  8
3
  6
CONTINUOUS
  2
*D17
 10
1299.5905240082691
 20
3975.9460659999991
 30
0.0
 11
1621.0879955041339
 21
4050.9460659999991
 31
0.0
 70
     0
 13
1942.5854670000001
 23
3794.2373710000002
 33
0.0
 14
1299.5905240082691
 24
3002.2375229999989
 34
0.0
1001
ACAD
1000
DSTYLE
1002
{
1070
   287
1070
     4
1070
    40
1040
30.0
1070
    75
1070
     1
1070
   143
1040
0.039
1070
   172
1070
     1
1070
   271
1070
     0
1070
   279
1070
     1
1070
   288
1070
     1
1002
}
  0
LINE
  5
7DF6
  8
1
  6
CONTINUOUS
 10
1382.585466999999
 20
3457.2375229999998
 30
0.0
 11
2502.5854669999999
 21
3457.2375229999998
 31
0.0
  0
LINE
  5
7DF7
  8
1
 10
1382.5854670000001
 20
2337.2375229999998
 30
0.0
 11
1382.585466999999
 21
3457.2375229999998
 31
0.0
  0
LINE
  5
7DF8
  8
1
 10
2502.5854669999999
 20
2337.2375229999998
 30
0.0
 11
2502.5854669999999
 21
3457.2375229999998
 31
0.0
  0
ENDSEC
  0
EOF
