  0
SECTION
  2
HEADER
  9
$ACADVER
  1
AC1009
  9
$INSBASE
 10
0.0
 20
0.0
 30
0.0
  9
$EXTMIN
 10
750.0
 20
900.0
 30
0.0
  9
$EXTMAX
 10
5550.0
 20
8359.9567849999985
 30
0.0
  9
$LIMMIN
 10
0.0
 20
0.0
  9
$LIMMAX
 10
297.0
 20
210.0
  9
$ORTHOMODE
 70
     0
  9
$REGENMODE
 70
     1
  9
$FILLMODE
 70
     0
  9
$QTEXTMODE
 70
     0
  9
$MIRRTEXT
 70
     1
  9
$DRAGMODE
 70
     2
  9
$LTSCALE
 40
100.0
  9
$OSMODE
 70
    37
  9
$ATTMODE
 70
     1
  9
$TEXTSIZE
 40
180.0
  9
$TRACEWID
 40
0.05
  9
$TEXTSTYLE
  7
STANDARD
  9
$CLAYER
  8
3
  9
$CELTYPE
  6
BYLAYER
  9
$CECOLOR
 62
   256
  9
$DIMSCALE
 40
30.0
  9
$DIMASZ
 40
2.0
  9
$DIMEXO
 40
0.5
  9
$DIMDLI
 40
10.0
  9
$DIMRND
 40
0.0
  9
$DIMDLE
 40
0.0
  9
$DIMEXE
 40
1.0
  9
$DIMTP
 40
1.0
  9
$DIMTM
 40
1.0
  9
$DIMTXT
 40
3.0
  9
$DIMCEN
 40
0.0
  9
$DIMTSZ
 40
0.0
  9
$DIMTOL
 70
     0
  9
$DIMLIM
 70
     0
  9
$DIMTIH
 70
     0
  9
$DIMTOH
 70
     0
  9
$DIMSE1
 70
     0
  9
$DIMSE2
 70
     0
  9
$DIMTAD
 70
     1
  9
$DIMZIN
 70
     8
  9
$DIMBLK
  1

  9
$DIMASO
 70
     1
  9
$DIMSHO
 70
     1
  9
$DIMPOST
  1

  9
$DIMAPOST
  1

  9
$DIMALT
 70
     0
  9
$DIMALTD
 70
     2
  9
$DIMALTF
 40
0.039
  9
$DIMLFAC
 40
1.0
  9
$DIMTOFL
 70
     1
  9
$DIMTVP
 40
0.0
  9
$DIMTIX
 70
     0
  9
$DIMSOXD
 70
     0
  9
$DIMSAH
 70
     1
  9
$DIMBLK1
  1
OPEN
  9
$DIMBLK2
  1
OPEN
  9
$DIMSTYLE
  2
IGA
  9
$DIMCLRD
 70
     0
  9
$DIMCLRE
 70
     0
  9
$DIMCLRT
 70
     0
  9
$DIMTFAC
 40
10.0
  9
$DIMGAP
 40
1.0
  9
$LUNITS
 70
     2
  9
$LUPREC
 70
     3
  9
$SKETCHINC
 40
0.1
  9
$FILLETRAD
 40
0.0
  9
$AUNITS
 70
     0
  9
$AUPREC
 70
     0
  9
$MENU
  1
acad
  9
$ELEVATION
 40
0.0
  9
$PELEVATION
 40
0.0
  9
$THICKNESS
 40
0.0
  9
$LIMCHECK
 70
     0
  9
$BLIPMODE
 70
     0
  9
$CHAMFERA
 40
0.5
  9
$CHAMFERB
 40
0.5
  9
$SKPOLY
 70
     0
  9
$TDCREATE
 40
2450752.4013571749
  9
$TDUPDATE
 40
2454953.7762310072
  9
$TDINDWG
 40
0.0275051042
  9
$TDUSRTIMER
 40
0.0275051042
  9
$USRTIMER
 70
     1
  9
$ANGBASE
 50
0.0
  9
$ANGDIR
 70
     0
  9
$PDMODE
 70
     0
  9
$PDSIZE
 40
0.0
  9
$PLINEWID
 40
0.0
  9
$COORDS
 70
     1
  9
$SPLFRAME
 70
     0
  9
$SPLINETYPE
 70
     6
  9
$SPLINESEGS
 70
     8
  9
$ATTDIA
 70
     0
  9
$ATTREQ
 70
     1
  9
$HANDLING
 70
 10241
  9
$HANDSEED
  5
7EAC
  9
$SURFTAB1
 70
     6
  9
$SURFTAB2
 70
     6
  9
$SURFTYPE
 70
     6
  9
$SURFU
 70
     6
  9
$SURFV
 70
     6
  9
$UCSNAME
  2

  9
$UCSORG
 10
0.0
 20
0.0
 30
0.0
  9
$UCSXDIR
 10
1.0
 20
0.0
 30
0.0
  9
$UCSYDIR
 10
0.0
 20
1.0
 30
0.0
  9
$PUCSNAME
  2

  9
$PUCSORG
 10
0.0
 20
0.0
 30
0.0
  9
$PUCSXDIR
 10
1.0
 20
0.0
 30
0.0
  9
$PUCSYDIR
 10
0.0
 20
1.0
 30
0.0
  9
$USERI1
 70
     0
  9
$USERI2
 70
     0
  9
$USERI3
 70
     0
  9
$USERI4
 70
     0
  9
$USERI5
 70
     0
  9
$USERR1
 40
0.0
  9
$USERR2
 40
0.0
  9
$USERR3
 40
0.0
  9
$USERR4
 40
0.0
  9
$USERR5
 40
0.0
  9
$WORLDVIEW
 70
     1
  9
$SHADEDGE
 70
     3
  9
$SHADEDIF
 70
    70
  9
$TILEMODE
 70
     1
  9
$MAXACTVP
 70
    16
  9
$PLIMCHECK
 70
     0
  9
$PEXTMIN
 10
1.0000000000000000E+020
 20
1.0000000000000000E+020
 30
1.0000000000000000E+020
  9
$PEXTMAX
 10
-1.0000000000000000E+020
 20
-1.0000000000000000E+020
 30
-1.0000000000000000E+020
  9
$PLIMMIN
 10
0.0
 20
0.0
  9
$PLIMMAX
 10
12.0
 20
9.0
  9
$UNITMODE
 70
     0
  9
$VISRETAIN
 70
     0
  9
$PLINEGEN
 70
     0
  9
$PSLTSCALE
 70
     1
  0
ENDSEC
  0
SECTION
  2
TABLES
  0
TABLE
  2
VPORT
 70
     2
  0
VPORT
  2
*ACTIVE
 70
     0
 10
0.0
 20
0.0
 11
1.0
 21
1.0
 12
9438.1687158055174
 22
4629.9562499988788
 13
0.0
 23
0.0
 14
10.0
 24
10.0
 15
10.0
 25
10.0
 16
0.0
 26
0.0
 36
1.0
 17
0.0
 27
0.0
 37
0.0
 40
7517.2452868940854
 41
3.1666666666666661
 42
50.0
 43
0.0
 44
0.0
 50
0.0
 51
0.0
 71
     0
 72
   100
 73
     1
 74
     0
 75
     0
 76
     0
 77
     0
 78
     0
  0
ENDTAB
  0
TABLE
  2
LTYPE
 70
     2
  0
LTYPE
  2
CONTINUOUS
 70
     0
  3
Solid line
 72
    65
 73
     0
 40
0.0
  0
LTYPE
  2
CENTER
 70
     0
  3
____ _ ____ _ ____ _ ____ _ ____ _ ____ _ ____ 
 72
    65
 73
     4
 40
2.0
 49
1.25
 49
-0.25
 49
0.25
 49
-0.25
  0
ENDTAB
  0
TABLE
  2
LAYER
 70
     6
  0
LAYER
  2
0
 70
     0
 62
     7
  6
CONTINUOUS
  0
LAYER
  2
3
 70
     0
 62
     2
  6
CONTINUOUS
  0
LAYER
  2
2
 70
     0
 62
     3
  6
CENTER
  0
LAYER
  2
1
 70
     0
 62
     4
  6
CONTINUOUS
  0
LAYER
  2
4
 70
     0
 62
     7
  6
CONTINUOUS
  0
LAYER
  2
DEFPOINTS
 70
     0
 62
    -7
  6
CONTINUOUS
  0
ENDTAB
  0
TABLE
  2
STYLE
 70
     1
  0
STYLE
  2
STANDARD
 70
     0
 40
0.0
 41
1.0
 50
0.0
 71
     0
 42
180.0
  3
simplex.shx
  4
extfont.shx
  0
ENDTAB
  0
TABLE
  2
VIEW
 70
     0
  0
ENDTAB
  0
TABLE
  2
UCS
 70
     0
  0
ENDTAB
  0
TABLE
  2
APPID
 70
     1
  0
APPID
  2
ACAD
 70
     0
  0
ENDTAB
  0
TABLE
  2
DIMSTYLE
 70
     1
  0
DIMSTYLE
  2
IGA
 70
     0
  3

  4

  5

  6
OPEN
  7
OPEN
 40
2.0
 41
2.0
 42
0.5
 43
10.0
 44
1.0
 45
0.0
 46
0.0
 47
1.0
 48
1.0
140
3.0
141
0.0
142
0.0
143
0.03937
144
1.0
145
0.0
146
10.0
147
1.0
 71
     0
 72
     0
 73
     0
 74
     0
 75
     0
 76
     0
 77
     1
 78
     8
170
     0
171
     2
172
     0
173
     1
174
     0
175
     0
176
     0
177
     0
178
     0
  0
ENDTAB
  0
ENDSEC
  0
SECTION
  2
BLOCKS
  0
BLOCK
  8
0
  2
$MODEL_SPACE
 70
     0
 10
0.0
 20
0.0
 30
0.0
  3
$MODEL_SPACE
  1

  0
ENDBLK
  5
1B
  8
0
  0
BLOCK
 67
     1
  8
0
  2
$PAPER_SPACE
 70
     0
 10
0.0
 20
0.0
 30
0.0
  3
$PAPER_SPACE
  1

  0
ENDBLK
  5
18
 67
     1
  8
0
  0
BLOCK
  8
0
  2
_OPEN
 70
     0
 10
0.0
 20
0.0
 30
0.0
  3
_OPEN
  1

  0
LINE
  5
7BAE
  8
0
  6
BYBLOCK
 62
     0
 10
-1.0
 20
0.166667
 30
0.0
 11
0.0
 21
0.0
 31
0.0
  0
LINE
  5
7BAF
  8
0
  6
BYBLOCK
 62
     0
 10
0.0
 20
0.0
 30
0.0
 11
-1.0
 21
-0.166667
 31
0.0
  0
LINE
  5
7BB0
  8
0
  6
BYBLOCK
 62
     0
 10
0.0
 20
0.0
 30
0.0
 11
-1.0
 21
0.0
 31
0.0
  0
ENDBLK
  5
7BB1
  8
0
  0
BLOCK
  8
0
  2
*D1
 70
     1
 10
0.0
 20
0.0
 30
0.0
  3
*D1
  1

  0
LINE
  5
7E04
  8
3
  6
CONTINUOUS
 62
     0
 10
1555.867661
 20
3987.2776439999989
 30
0.0
 11
1347.198324
 21
3987.2776439999989
 31
0.0
  0
LINE
  5
7E05
  8
3
  6
CONTINUOUS
 62
     0
 10
1555.867661
 20
3062.2776439999998
 30
0.0
 11
1347.198324
 21
3062.2776439999998
 31
0.0
  0
LINE
  5
7E06
  8
3
  6
CONTINUOUS
 62
     0
 10
1377.198324
 20
3927.2776439999998
 30
0.0
 11
1377.198324
 21
3122.2776439999998
 31
0.0
  0
INSERT
  5
7E07
  8
3
  6
CONTINUOUS
 62
     0
  2
_OPEN
 10
1377.198324
 20
3987.2776439999989
 30
0.0
 41
60.0
 42
60.0
 43
60.0
 50
90.0
  0
INSERT
  5
7E08
  8
3
  6
CONTINUOUS
 62
     0
  2
_OPEN
 10
1377.198324
 20
3062.2776439999998
 30
0.0
 41
60.0
 42
60.0
 43
60.0
 50
270.0
  0
TEXT
  8
3
  40
90
  5
7E9A
  62
0
  72
0
  71
0
 10
1122.20
 20
3363.71
 30
0.000000
  1
925
  0
POINT
  5
7E0A
  8
DEFPOINTS
  6
CONTINUOUS
 62
     0
 10
1570.867661
 20
3987.2776439999989
 30
0.0
  0
POINT
  5
7E0B
  8
DEFPOINTS
  6
CONTINUOUS
 62
     0
 10
1570.867661
 20
3062.2776439999998
 30
0.0
  0
POINT
  5
7E0C
  8
DEFPOINTS
  6
CONTINUOUS
 62
     0
 10
1377.198324
 20
3062.2776439999998
 30
0.0
  0
ENDBLK
  5
7BF7
  8
0
  0
BLOCK
  8
0
  2
*D2
 70
     1
 10
0.0
 20
0.0
 30
0.0
  3
*D2
  1

  0
LINE
  5
7E0D
  8
3
  6
CONTINUOUS
 62
     0
 10
1555.867661
 20
3987.2776439999989
 30
0.0
 11
1157.8338180000001
 21
3987.2776439999989
 31
0.0
  0
LINE
  5
7E0E
  8
3
  6
CONTINUOUS
 62
     0
 10
1417.7728750000001
 20
3104.2776439999998
 30
0.0
 11
1157.8338180000001
 21
3104.2776439999998
 31
0.0
  0
LINE
  5
7E0F
  8
3
  6
CONTINUOUS
 62
     0
 10
1187.8338180000001
 20
3927.2776439999998
 30
0.0
 11
1187.8338180000001
 21
3164.2776439999998
 31
0.0
  0
INSERT
  5
7E10
  8
3
  6
CONTINUOUS
 62
     0
  2
_OPEN
 10
1187.8338180000001
 20
3987.2776439999989
 30
0.0
 41
60.0
 42
60.0
 43
60.0
 50
90.0
  0
INSERT
  5
7E11
  8
3
  6
CONTINUOUS
 62
     0
  2
_OPEN
 10
1187.8338180000001
 20
3104.2776439999998
 30
0.0
 41
60.0
 42
60.0
 43
60.0
 50
270.0
  0
TEXT
  8
3
  40
90
  5
7E9B
  62
0
  72
0
  71
0
 10
932.834
 20
3377.72
 30
0.000000
  1
883
  0
POINT
  5
7E13
  8
DEFPOINTS
  6
CONTINUOUS
 62
     0
 10
1570.867661
 20
3987.2776439999989
 30
0.0
  0
POINT
  5
7E14
  8
DEFPOINTS
  6
CONTINUOUS
 62
     0
 10
1432.7728750000001
 20
3104.2776439999998
 30
0.0
  0
POINT
  5
7E15
  8
DEFPOINTS
  6
CONTINUOUS
 62
     0
 10
1187.8338180000001
 20
3104.2776439999998
 30
0.0
  0
ENDBLK
  5
7C04
  8
0
  0
BLOCK
  8
0
  2
*D3
 70
     1
 10
0.0
 20
0.0
 30
0.0
  3
*D3
  1

  0
LINE
  5
7E16
  8
3
  6
CONTINUOUS
 62
     0
 10
1640.867661
 20
2339.2776439999998
 30
0.0
 11
1157.8338180000001
 21
2339.2776439999998
 31
0.0
  0
LINE
  5
7E17
  8
3
  6
CONTINUOUS
 62
     0
 10
1187.8338180000001
 20
3044.2776439999998
 30
0.0
 11
1187.8338180000001
 21
2399.2776439999998
 31
0.0
  0
INSERT
  5
7E18
  8
3
  6
CONTINUOUS
 62
     0
  2
_OPEN
 10
1187.8338180000001
 20
3104.2776439999998
 30
0.0
 41
60.0
 42
60.0
 43
60.0
 50
90.0
  0
INSERT
  5
7E19
  8
3
  6
CONTINUOUS
 62
     0
  2
_OPEN
 10
1187.8338180000001
 20
2339.2776439999998
 30
0.0
 41
60.0
 42
60.0
 43
60.0
 50
270.0
  0
TEXT
  8
3
  40
90
  5
7E9C
  62
0
  72
0
  71
0
 10
932.834
 20
2562.48
 30
0.000000
  1
765
  0
POINT
  5
7E1B
  8
DEFPOINTS
  6
CONTINUOUS
 62
     0
 10
1432.7728750000001
 20
3104.2776439999998
 30
0.0
  0
POINT
  5
7E1C
  8
DEFPOINTS
  6
CONTINUOUS
 62
     0
 10
1655.867661
 20
2339.2776439999998
 30
0.0
  0
POINT
  5
7E1D
  8
DEFPOINTS
  6
CONTINUOUS
 62
     0
 10
1187.8338180000001
 20
2339.2776439999998
 30
0.0
  0
ENDBLK
  5
7C10
  8
0
  0
BLOCK
  8
0
  2
*D4
 70
     1
 10
0.0
 20
0.0
 30
0.0
  3
*D4
  1

  0
LINE
  5
7E1E
  8
3
  6
CONTINUOUS
 62
     0
 10
1640.867661
 20
2339.2776439999998
 30
0.0
 11
1158.072277
 21
2339.2776439999998
 31
0.0
  0
LINE
  5
7E1F
  8
3
  6
CONTINUOUS
 62
     0
 10
1590.867661
 20
2198.2776439999998
 30
0.0
 11
1158.072277
 21
2198.2776439999998
 31
0.0
  0
LINE
  5
7E20
  8
3
  6
CONTINUOUS
 62
     0
 10
1188.072277
 20
2399.2776439999998
 30
0.0
 11
1188.072277
 21
2459.2776439999998
 31
0.0
  0
LINE
  5
7E21
  8
3
  6
CONTINUOUS
 62
     0
 10
1188.072277
 20
2138.2776439999998
 30
0.0
 11
1188.072277
 21
1842.5633582857149
 31
0.0
  0
LINE
  5
7E22
  8
3
  6
CONTINUOUS
 62
     0
 10
1188.072277
 20
2339.2776439999998
 30
0.0
 11
1188.072277
 21
2198.2776439999998
 31
0.0
  0
INSERT
  5
7E23
  8
3
  6
CONTINUOUS
 62
     0
  2
_OPEN
 10
1188.072277
 20
2339.2776439999998
 30
0.0
 41
60.0
 42
60.0
 43
60.0
 50
270.0
  0
INSERT
  5
7E24
  8
3
  6
CONTINUOUS
 62
     0
  2
_OPEN
 10
1188.072277
 20
2198.2776439999998
 30
0.0
 41
60.0
 42
60.0
 43
60.0
 50
90.0
  0
TEXT
  8
3
  40
90
  5
7E9D
  62
0
  72
0
  71
0
 10
933.072
 20
1801.12
 30
0.000000
  1
141
  0
POINT
  5
7E26
  8
DEFPOINTS
  6
CONTINUOUS
 62
     0
 10
1655.867661
 20
2339.2776439999998
 30
0.0
  0
POINT
  5
7E27
  8
DEFPOINTS
  6
CONTINUOUS
 62
     0
 10
1605.867661
 20
2198.2776439999998
 30
0.0
  0
POINT
  5
7E28
  8
DEFPOINTS
  6
CONTINUOUS
 62
     0
 10
1188.072277
 20
2198.2776439999998
 30
0.0
  0
ENDBLK
  5
7D7A
  8
0
  0
BLOCK
  8
0
  2
*D5
 70
     1
 10
0.0
 20
0.0
 30
0.0
  3
*D5
  1

  0
LINE
  5
7E29
  8
3
  6
CONTINUOUS
 62
     0
 10
1555.867661
 20
4029.7776439999998
 30
0.0
 11
963.21682100000078
 21
4029.7776439999998
 31
0.0
  0
LINE
  5
7E2A
  8
3
  6
CONTINUOUS
 62
     0
 10
1590.867661
 20
2198.2776439999998
 30
0.0
 11
963.21682100000032
 21
2198.2776439999998
 31
0.0
  0
LINE
  5
7E2B
  8
3
  6
CONTINUOUS
 62
     0
 10
993.21682100000066
 20
3969.7776439999998
 30
0.0
 11
993.21682100000032
 21
2258.2776439999998
 31
0.0
  0
INSERT
  5
7E2C
  8
3
  6
CONTINUOUS
 62
     0
  2
_OPEN
 10
993.21682100000066
 20
4029.7776439999998
 30
0.0
 41
60.0
 42
60.0
 43
60.0
 50
90.0
  0
INSERT
  5
7E2D
  8
3
  6
CONTINUOUS
 62
     0
  2
_OPEN
 10
993.21682100000032
 20
2198.2776439999998
 30
0.0
 41
60.0
 42
60.0
 43
60.0
 50
270.0
  0
TEXT
  8
3
  40
90
  5
7E9E
  62
0
  72
0
  71
0
 10
738.217
 20
2887.07
 30
0.000000
  1
1832
  0
POINT
  5
7E2F
  8
DEFPOINTS
  6
CONTINUOUS
 62
     0
 10
1570.867661
 20
4029.7776439999998
 30
0.0
  0
POINT
  5
7E30
  8
DEFPOINTS
  6
CONTINUOUS
 62
     0
 10
1605.867661
 20
2198.2776439999998
 30
0.0
  0
POINT
  5
7E31
  8
DEFPOINTS
  6
CONTINUOUS
 62
     0
 10
993.21682100000032
 20
2198.2776439999998
 30
0.0
  0
ENDBLK
  5
7D0C
  8
0
  0
BLOCK
  8
0
  2
*D6
 70
     1
 10
0.0
 20
0.0
 30
0.0
  3
*D6
  1

  0
LINE
  5
7E32
  8
3
  6
CONTINUOUS
 62
     0
 10
1605.867661
 20
2183.2776439999998
 30
0.0
 11
1605.867661
 21
1875.35032
 31
0.0
  0
LINE
  5
7E33
  8
3
  6
CONTINUOUS
 62
     0
 10
2225.8676610000002
 20
1971.6895770000001
 30
0.0
 11
2225.8676610000002
 21
1875.35032
 31
0.0
  0
LINE
  5
7E34
  8
3
  6
CONTINUOUS
 62
     0
 10
1665.867661
 20
1905.35032
 30
0.0
 11
2165.8676609999989
 21
1905.35032
 31
0.0
  0
INSERT
  5
7E35
  8
3
  6
CONTINUOUS
 62
     0
  2
_OPEN
 10
1605.867661
 20
1905.35032
 30
0.0
 41
60.0
 42
60.0
 43
60.0
 50
180.0
  0
INSERT
  5
7E36
  8
3
  6
CONTINUOUS
 62
     0
  2
_OPEN
 10
2225.8676610000002
 20
1905.35032
 30
0.0
 41
60.0
 42
60.0
 43
60.0
  0
TEXT
  8
3
  40
90
  5
7E9F
  62
0
  72
0
  71
0
 10
1729.52
 20
1821.05
 30
0.000000
  1
620
  0
POINT
  5
7E38
  8
DEFPOINTS
  6
CONTINUOUS
 62
     0
 10
1605.867661
 20
2198.2776439999998
 30
0.0
  0
POINT
  5
7E39
  8
DEFPOINTS
  6
CONTINUOUS
 62
     0
 10
2225.8676610000002
 20
1986.689576999999
 30
0.0
  0
POINT
  5
7E3A
  8
DEFPOINTS
  6
CONTINUOUS
 62
     0
 10
2225.8676610000002
 20
1905.35032
 30
0.0
  0
ENDBLK
  5
7D21
  8
0
  0
BLOCK
  8
0
  2
*D7
 70
     1
 10
0.0
 20
0.0
 30
0.0
  3
*D7
  1

  0
LINE
  5
7E3B
  8
3
  6
CONTINUOUS
 62
     0
 10
3455.8676610000002
 20
2183.2776439999998
 30
0.0
 11
3455.8676610000002
 21
1875.35032
 31
0.0
  0
LINE
  5
7E3C
  8
3
  6
CONTINUOUS
 62
     0
 10
2285.8676610000002
 20
1905.35032
 30
0.0
 11
3395.8676610000002
 21
1905.35032
 31
0.0
  0
INSERT
  5
7E3D
  8
3
  6
CONTINUOUS
 62
     0
  2
_OPEN
 10
2225.8676610000002
 20
1905.35032
 30
0.0
 41
60.0
 42
60.0
 43
60.0
 50
180.0
  0
INSERT
  5
7E3E
  8
3
  6
CONTINUOUS
 62
     0
  2
_OPEN
 10
3455.8676610000002
 20
1905.35032
 30
0.0
 41
60.0
 42
60.0
 43
60.0
  0
TEXT
  8
3
  40
90
  5
7EA0
  62
0
  72
0
  71
0
 10
2660.87
 20
1821.05
 30
0.000000
  1
1230
  0
POINT
  5
7E40
  8
DEFPOINTS
  6
CONTINUOUS
 62
     0
 10
2225.8676610000002
 20
1986.689576999999
 30
0.0
  0
POINT
  5
7E41
  8
DEFPOINTS
  6
CONTINUOUS
 62
     0
 10
3455.8676610000002
 20
2198.2776439999998
 30
0.0
  0
POINT
  5
7E42
  8
DEFPOINTS
  6
CONTINUOUS
 62
     0
 10
3455.8676610000002
 20
1905.35032
 30
0.0
  0
ENDBLK
  5
7D16
  8
0
  0
BLOCK
  8
0
  2
*D8
 70
     1
 10
0.0
 20
0.0
 30
0.0
  3
*D8
  1

  0
LINE
  5
7E43
  8
3
  6
CONTINUOUS
 62
     0
 10
1570.867661
 20
4044.7776439999989
 30
0.0
 11
1570.867661
 21
4254.7555009999987
 31
0.0
  0
LINE
  5
7E44
  8
3
  6
CONTINUOUS
 62
     0
 10
2225.8676610000002
 20
4169.8657599999997
 30
0.0
 11
2225.8676610000002
 21
4254.7555009999987
 31
0.0
  0
LINE
  5
7E45
  8
3
  6
CONTINUOUS
 62
     0
 10
1630.8676609999991
 20
4224.7555009999987
 30
0.0
 11
2165.8676609999989
 21
4224.7555009999987
 31
0.0
  0
INSERT
  5
7E46
  8
3
  6
CONTINUOUS
 62
     0
  2
_OPEN
 10
1570.867661
 20
4224.7555009999987
 30
0.0
 41
60.0
 42
60.0
 43
60.0
 50
180.0
  0
INSERT
  5
7E47
  8
3
  6
CONTINUOUS
 62
     0
  2
_OPEN
 10
2225.8676610000002
 20
4224.7555009999987
 30
0.0
 41
60.0
 42
60.0
 43
60.0
  0
TEXT
  8
3
  40
90
  5
7EA1
  62
0
  72
0
  71
0
 10
1701.47
 20
4140.46
 30
0.000000
  1
655
  0
POINT
  5
7E49
  8
DEFPOINTS
  6
CONTINUOUS
 62
     0
 10
1570.867661
 20
4029.7776439999998
 30
0.0
  0
POINT
  5
7E4A
  8
DEFPOINTS
  6
CONTINUOUS
 62
     0
 10
2225.8676610000002
 20
4154.8657599999997
 30
0.0
  0
POINT
  5
7E4B
  8
DEFPOINTS
  6
CONTINUOUS
 62
     0
 10
2225.8676610000002
 20
4224.7555009999987
 30
0.0
  0
ENDBLK
  5
7D36
  8
0
  0
BLOCK
  8
0
  2
*D9
 70
     1
 10
0.0
 20
0.0
 30
0.0
  3
*D9
  1

  0
LINE
  5
7E4C
  8
3
  6
CONTINUOUS
 62
     0
 10
4479.4858539999987
 20
4002.2776439999998
 30
0.0
 11
4479.4858539999987
 21
4169.8232479999988
 31
0.0
  0
LINE
  5
7E4D
  8
3
  6
CONTINUOUS
 62
     0
 10
5149.4858539999987
 20
4002.2776439999998
 30
0.0
 11
5149.4858539999987
 21
4169.8232479999988
 31
0.0
  0
LINE
  5
7E4E
  8
3
  6
CONTINUOUS
 62
     0
 10
4539.4858539999987
 20
4139.8232479999988
 30
0.0
 11
5089.4858539999987
 21
4139.8232479999988
 31
0.0
  0
INSERT
  5
7E4F
  8
3
  6
CONTINUOUS
 62
     0
  2
_OPEN
 10
4479.4858539999987
 20
4139.8232479999988
 30
0.0
 41
60.0
 42
60.0
 43
60.0
 50
180.0
  0
INSERT
  5
7E50
  8
3
  6
CONTINUOUS
 62
     0
  2
_OPEN
 10
5149.4858539999987
 20
4139.8232479999988
 30
0.0
 41
60.0
 42
60.0
 43
60.0
  0
TEXT
  8
3
  40
90
  5
7EA2
  62
0
  72
0
  71
0
 10
4636.47
 20
4055.52
 30
0.000000
  1
670
  0
POINT
  5
7E52
  8
DEFPOINTS
  6
CONTINUOUS
 62
     0
 10
4479.4858539999987
 20
3987.2776439999989
 30
0.0
  0
POINT
  5
7E53
  8
DEFPOINTS
  6
CONTINUOUS
 62
     0
 10
5149.4858539999987
 20
3987.2776439999989
 30
0.0
  0
POINT
  5
7E54
  8
DEFPOINTS
  6
CONTINUOUS
 62
     0
 10
5149.4858539999987
 20
4139.8232479999988
 30
0.0
  0
ENDBLK
  5
7C6C
  8
0
  0
BLOCK
  8
0
  2
*D10
 70
     1
 10
0.0
 20
0.0
 30
0.0
  3
*D10
  1

  0
LINE
  5
7E55
  8
3
  6
CONTINUOUS
 62
     0
 10
5168.4858539999996
 20
3579.2776439999989
 30
0.0
 11
5463.6586570000009
 21
3579.2776439999989
 31
0.0
  0
LINE
  5
7E56
  8
3
  6
CONTINUOUS
 62
     0
 10
5168.4858539999996
 20
2629.2776439999998
 30
0.0
 11
5463.6586570000009
 21
2629.2776439999998
 31
0.0
  0
LINE
  5
7E57
  8
3
  6
CONTINUOUS
 62
     0
 10
5433.6586570000009
 20
3519.2776439999989
 30
0.0
 11
5433.6586570000009
 21
2689.2776439999998
 31
0.0
  0
INSERT
  5
7E58
  8
3
  6
CONTINUOUS
 62
     0
  2
_OPEN
 10
5433.6586570000009
 20
3579.2776439999989
 30
0.0
 41
60.0
 42
60.0
 43
60.0
 50
90.0
  0
INSERT
  5
7E59
  8
3
  6
CONTINUOUS
 62
     0
  2
_OPEN
 10
5433.6586570000009
 20
2629.2776439999998
 30
0.0
 41
60.0
 42
60.0
 43
60.0
 50
270.0
  0
TEXT
  8
3
  40
90
  5
7EA3
  62
0
  72
0
  71
0
 10
5178.66
 20
2971.19
 30
0.000000
  1
φ950
  0
POINT
  5
7E5B
  8
DEFPOINTS
  6
CONTINUOUS
 62
     0
 10
5153.4858539999987
 20
3579.2776439999989
 30
0.0
  0
POINT
  5
7E5C
  8
DEFPOINTS
  6
CONTINUOUS
 62
     0
 10
5153.4858539999987
 20
2629.2776439999998
 30
0.0
  0
POINT
  5
7E5D
  8
DEFPOINTS
  6
CONTINUOUS
 62
     0
 10
5433.6586570000009
 20
2629.2776439999998
 30
0.0
  0
ENDBLK
  5
7D85
  8
0
  0
BLOCK
  8
0
  2
*D11
 70
     1
 10
0.0
 20
0.0
 30
0.0
  3
*D11
  1

  0
LINE
  5
7D92
  8
0
  6
BYBLOCK
 62
     0
 10
5153.4858539999987
 20
3594.2776439999989
 30
0.0
 11
5153.4858539999987
 21
4373.0926469999986
 31
0.0
  0
LINE
  5
7D93
  8
0
  6
BYBLOCK
 62
     0
 10
4814.4858539999987
 20
4292.8642550000004
 30
0.0
 11
4814.4858539999987
 21
4373.0926469999986
 31
0.0
  0
LINE
  5
7D94
  8
0
  6
BYBLOCK
 62
     0
 10
5093.4858539999987
 20
4343.0926469999986
 30
0.0
 11
4874.4858539999987
 21
4343.0926469999986
 31
0.0
  0
TEXT
  5
7D95
  8
3
 62
     0
 10
4870.4144254285711
 20
4382.2257955114856
 30
0.0
 40
90.0
  1
339
  0
INSERT
  5
7D96
  8
0
  6
BYBLOCK
 62
     0
  2
_OPEN
 10
5153.4858539999987
 20
4343.0926469999986
 30
0.0
 41
60.0
 42
60.0
 43
60.0
  0
INSERT
  5
7D97
  8
0
  6
BYBLOCK
 62
     0
  2
_OPEN
 10
4814.4858539999987
 20
4343.0926469999986
 30
0.0
 41
60.0
 42
60.0
 43
60.0
 50
180.0
  0
POINT
  5
7D98
  8
DEFPOINTS
  6
BYBLOCK
 62
     0
 10
5153.4858539999987
 20
3579.2776439999989
 30
0.0
  0
POINT
  5
7D99
  8
DEFPOINTS
  6
BYBLOCK
 62
     0
 10
4814.4858539999987
 20
4277.8642549999986
 30
0.0
  0
POINT
  5
7D9A
  8
DEFPOINTS
  6
BYBLOCK
 62
     0
 10
4814.4858539999987
 20
4343.0926469999986
 30
0.0
  0
ENDBLK
  5
7D9B
  8
0
  0
BLOCK
  8
0
  2
*D12
 70
     1
 10
0.0
 20
0.0
 30
0.0
  3
*D12
  1

  0
LINE
  5
7E5E
  8
3
  6
CONTINUOUS
 62
     0
 10
4204.4858539999996
 20
3624.2776439999998
 30
0.0
 11
4204.4858539999996
 21
4373.0926469999986
 31
0.0
  0
LINE
  5
7E5F
  8
3
  6
CONTINUOUS
 62
     0
 10
4754.4858539999996
 20
4343.0926469999986
 30
0.0
 11
4264.4858539999987
 21
4343.0926469999986
 31
0.0
  0
INSERT
  5
7E60
  8
3
  6
CONTINUOUS
 62
     0
  2
_OPEN
 10
4814.4858539999987
 20
4343.0926469999986
 30
0.0
 41
60.0
 42
60.0
 43
60.0
  0
INSERT
  5
7E61
  8
3
  6
CONTINUOUS
 62
     0
  2
_OPEN
 10
4204.4858539999996
 20
4343.0926469999986
 30
0.0
 41
60.0
 42
60.0
 43
60.0
 50
180.0
  0
TEXT
  8
3
  40
90
  5
7EA4
  62
0
  72
0
  71
0
 10
4329.49
 20
4333.79
 30
0.000000
  1
MAX
  0
TEXT
  8
3
  40
90
  5
7EA5
  62
0
  72
0
  71
0
 10
4329.49
 20
4216.79
 30
0.000000
  1
640
  0
POINT
  5
7E63
  8
DEFPOINTS
  6
CONTINUOUS
 62
     0
 10
4814.4858539999987
 20
4277.8642549999986
 30
0.0
  0
POINT
  5
7E64
  8
DEFPOINTS
  6
CONTINUOUS
 62
     0
 10
4204.4858539999996
 20
3609.2776439999998
 30
0.0
  0
POINT
  5
7E65
  8
DEFPOINTS
  6
CONTINUOUS
 62
     0
 10
4204.4858539999996
 20
4343.0926469999986
 30
0.0
  0
ENDBLK
  5
7DA5
  8
0
  0
BLOCK
  8
0
  2
*D13
 70
     1
 10
0.0
 20
0.0
 30
0.0
  3
*D13
  1

  0
LINE
  5
7E66
  8
3
  6
CONTINUOUS
 62
     0
 10
4166.4858539999996
 20
2183.2776439999998
 30
0.0
 11
4166.4858539999996
 21
1929.9341139999999
 31
0.0
  0
LINE
  5
7E67
  8
3
  6
CONTINUOUS
 62
     0
 10
4814.4858539999987
 20
1983.2437519999989
 30
0.0
 11
4814.4858539999987
 21
1929.9341139999999
 31
0.0
  0
LINE
  5
7E68
  8
3
  6
CONTINUOUS
 62
     0
 10
4226.4858539999987
 20
1959.9341139999999
 30
0.0
 11
4754.4858539999996
 21
1959.9341139999999
 31
0.0
  0
INSERT
  5
7E69
  8
3
  6
CONTINUOUS
 62
     0
  2
_OPEN
 10
4166.4858539999996
 20
1959.9341139999999
 30
0.0
 41
60.0
 42
60.0
 43
60.0
 50
180.0
  0
INSERT
  5
7E6A
  8
3
  6
CONTINUOUS
 62
     0
  2
_OPEN
 10
4814.4858539999987
 20
1959.9341139999999
 30
0.0
 41
60.0
 42
60.0
 43
60.0
  0
TEXT
  8
3
  40
90
  5
7EA6
  62
0
  72
0
  71
0
 10
4341.90
 20
1875.63
 30
0.000000
  1
648
  0
POINT
  5
7E6C
  8
DEFPOINTS
  6
CONTINUOUS
 62
     0
 10
4166.4858539999996
 20
2198.2776439999998
 30
0.0
  0
POINT
  5
7E6D
  8
DEFPOINTS
  6
CONTINUOUS
 62
     0
 10
4814.4858539999987
 20
1998.2437519999989
 30
0.0
  0
POINT
  5
7E6E
  8
DEFPOINTS
  6
CONTINUOUS
 62
     0
 10
4814.4858539999987
 20
1959.9341139999999
 30
0.0
  0
ENDBLK
  5
7CA4
  8
0
  0
BLOCK
  8
0
  2
*D14
 70
     1
 10
0.0
 20
0.0
 30
0.0
  3
*D14
  1

  0
LINE
  5
7E6F
  8
3
  6
CONTINUOUS
 62
     0
 10
5316.4858539999987
 20
2183.2776439999998
 30
0.0
 11
5316.4858539999987
 21
1929.9341139999999
 31
0.0
  0
LINE
  5
7E70
  8
3
  6
CONTINUOUS
 62
     0
 10
4874.4858539999987
 20
1959.9341139999999
 30
0.0
 11
5256.4858539999996
 21
1959.9341139999999
 31
0.0
  0
INSERT
  5
7E71
  8
3
  6
CONTINUOUS
 62
     0
  2
_OPEN
 10
4814.4858539999987
 20
1959.9341139999999
 30
0.0
 41
60.0
 42
60.0
 43
60.0
 50
180.0
  0
INSERT
  5
7E72
  8
3
  6
CONTINUOUS
 62
     0
  2
_OPEN
 10
5316.4858539999987
 20
1959.9341139999999
 30
0.0
 41
60.0
 42
60.0
 43
60.0
  0
TEXT
  8
3
  40
90
  5
7EA7
  62
0
  72
0
  71
0
 10
4885.49
 20
1875.63
 30
0.000000
  1
502
  0
POINT
  5
7E74
  8
DEFPOINTS
  6
CONTINUOUS
 62
     0
 10
4814.4858539999987
 20
1998.2437519999989
 30
0.0
  0
POINT
  5
7E75
  8
DEFPOINTS
  6
CONTINUOUS
 62
     0
 10
5316.4858539999987
 20
2198.2776439999998
 30
0.0
  0
POINT
  5
7E76
  8
DEFPOINTS
  6
CONTINUOUS
 62
     0
 10
5316.4858539999987
 20
1959.9341139999999
 30
0.0
  0
ENDBLK
  5
7CB0
  8
0
  0
BLOCK
  8
0
  2
*D15
 70
     1
 10
0.0
 20
0.0
 30
0.0
  3
*D15
  1

  0
LINE
  5
7E77
  8
3
  6
CONTINUOUS
 62
     0
 10
1605.867661
 20
6595.1878539999989
 30
0.0
 11
1605.867661
 21
6773.9602760000007
 31
0.0
  0
LINE
  5
7E78
  8
3
  6
CONTINUOUS
 62
     0
 10
3455.8676610000002
 20
6595.1878539999989
 30
0.0
 11
3455.8676610000002
 21
6773.9602760000007
 31
0.0
  0
LINE
  5
7E79
  8
3
  6
CONTINUOUS
 62
     0
 10
1665.867661
 20
6743.9602760000007
 30
0.0
 11
3395.8676610000002
 21
6743.9602760000007
 31
0.0
  0
INSERT
  5
7E7A
  8
3
  6
CONTINUOUS
 62
     0
  2
_OPEN
 10
1605.867661
 20
6743.9602760000007
 30
0.0
 41
60.0
 42
60.0
 43
60.0
 50
180.0
  0
INSERT
  5
7E7B
  8
3
  6
CONTINUOUS
 62
     0
  2
_OPEN
 10
3455.8676610000002
 20
6743.9602760000007
 30
0.0
 41
60.0
 42
60.0
 43
60.0
  0
TEXT
  8
3
  40
90
  5
7EA8
  62
0
  72
0
  71
0
 10
2304.63
 20
6659.66
 30
0.000000
  1
1850
  0
POINT
  5
7E7D
  8
DEFPOINTS
  6
CONTINUOUS
 62
     0
 10
1605.867661
 20
6580.1878539999998
 30
0.0
  0
POINT
  5
7E7E
  8
DEFPOINTS
  6
CONTINUOUS
 62
     0
 10
3455.8676610000002
 20
6580.1878539999998
 30
0.0
  0
POINT
  5
7E7F
  8
DEFPOINTS
  6
CONTINUOUS
 62
     0
 10
3455.8676610000002
 20
6743.9602760000007
 30
0.0
  0
ENDBLK
  5
7D41
  8
0
  0
BLOCK
  8
0
  2
*D16
 70
     1
 10
0.0
 20
0.0
 30
0.0
  3
*D16
  1

  0
LINE
  5
7E80
  8
3
  6
CONTINUOUS
 62
     0
 10
3470.8676609999989
 20
6580.1878539999998
 30
0.0
 11
3788.7756210000011
 21
6580.1878539999998
 31
0.0
  0
LINE
  5
7E81
  8
3
  6
CONTINUOUS
 62
     0
 10
3470.8676609999989
 20
5430.1878539999989
 30
0.0
 11
3788.7756210000011
 21
5430.1878539999989
 31
0.0
  0
LINE
  5
7E82
  8
3
  6
CONTINUOUS
 62
     0
 10
3758.7756210000011
 20
6520.1878539999989
 30
0.0
 11
3758.7756210000011
 21
5490.1878539999998
 31
0.0
  0
INSERT
  5
7E83
  8
3
  6
CONTINUOUS
 62
     0
  2
_OPEN
 10
3758.7756210000011
 20
6580.1878539999998
 30
0.0
 41
60.0
 42
60.0
 43
60.0
 50
90.0
  0
INSERT
  5
7E84
  8
3
  6
CONTINUOUS
 62
     0
  2
_OPEN
 10
3758.7756210000011
 20
5430.1878539999989
 30
0.0
 41
60.0
 42
60.0
 43
60.0
 50
270.0
  0
TEXT
  8
3
  40
90
  5
7EA9
  62
0
  72
0
  71
0
 10
3503.78
 20
5874.75
 30
0.000000
  1
1150
  0
POINT
  5
7E86
  8
DEFPOINTS
  6
CONTINUOUS
 62
     0
 10
3455.8676610000002
 20
6580.1878539999998
 30
0.0
  0
POINT
  5
7E87
  8
DEFPOINTS
  6
CONTINUOUS
 62
     0
 10
3455.8676610000002
 20
5430.1878539999989
 30
0.0
  0
POINT
  5
7E88
  8
DEFPOINTS
  6
CONTINUOUS
 62
     0
 10
3758.7756210000011
 20
5430.1878539999989
 30
0.0
  0
ENDBLK
  5
7D4C
  8
0
  0
BLOCK
  8
0
  2
*D17
 70
     1
 10
0.0
 20
0.0
 30
0.0
  3
*D17
  1

  0
LINE
  5
7E89
  8
3
  6
CONTINUOUS
 62
     0
 10
2968.8676620000001
 20
3119.2776439999998
 30
0.0
 11
2968.8676620000001
 21
4254.7555009999987
 31
0.0
  0
LINE
  5
7E8A
  8
3
  6
CONTINUOUS
 62
     0
 10
2285.8676610000002
 20
4224.7555009999987
 30
0.0
 11
2908.8676620000001
 21
4224.7555009999987
 31
0.0
  0
INSERT
  5
7E8B
  8
3
  6
CONTINUOUS
 62
     0
  2
_OPEN
 10
2225.8676610000002
 20
4224.7555009999987
 30
0.0
 41
60.0
 42
60.0
 43
60.0
 50
180.0
  0
INSERT
  5
7E8C
  8
3
  6
CONTINUOUS
 62
     0
  2
_OPEN
 10
2968.8676620000001
 20
4224.7555009999987
 30
0.0
 41
60.0
 42
60.0
 43
60.0
  0
TEXT
  8
3
  40
90
  5
7EAA
  62
0
  72
0
  71
0
 10
2417.37
 20
4140.46
 30
0.000000
  1
743
  0
POINT
  5
7E8E
  8
DEFPOINTS
  6
CONTINUOUS
 62
     0
 10
2225.8676610000002
 20
4154.8657599999997
 30
0.0
  0
POINT
  5
7E8F
  8
DEFPOINTS
  6
CONTINUOUS
 62
     0
 10
2968.8676620000001
 20
3104.2776439999998
 30
0.0
  0
POINT
  5
7E90
  8
DEFPOINTS
  6
CONTINUOUS
 62
     0
 10
2968.8676620000001
 20
4224.7555009999987
 30
0.0
  0
ENDBLK
  5
7D61
  8
0
  0
BLOCK
  8
0
  2
*D18
 70
     1
 10
0.0
 20
0.0
 30
0.0
  3
*D18
  1

  0
LINE
  5
7E91
  8
3
 62
     0
 10
1570.867661
 20
4044.7776439999989
 30
0.0
 11
1570.867661
 21
4424.3652629793351
 31
0.0
  0
LINE
  5
7E92
  8
3
 62
     0
 10
3455.8676610000002
 20
2313.2776439999998
 30
0.0
 11
3455.8676610000002
 21
4424.3652629793351
 31
0.0
  0
LINE
  5
7E93
  8
3
 62
     0
 10
1630.8676609999991
 20
4394.365262979336
 30
0.0
 11
3395.8676610000002
 21
4394.365262979336
 31
0.0
  0
INSERT
  5
7E94
  8
3
 62
     0
  2
_OPEN
 10
1570.867661
 20
4394.365262979336
 30
0.0
 41
60.0
 42
60.0
 43
60.0
 50
180.0
  0
INSERT
  5
7E95
  8
3
 62
     0
  2
_OPEN
 10
3455.8676610000002
 20
4394.365262979336
 30
0.0
 41
60.0
 42
60.0
 43
60.0
  0
TEXT
  8
3
  40
90
  5
7EAB
  62
0
  72
0
  71
0
 10
2277.86
 20
4310.07
 30
0.000000
  1
1885
  0
POINT
  5
7E97
  8
DEFPOINTS
 62
     0
 10
1570.867661
 20
4029.7776439999998
 30
0.0
  0
POINT
  5
7E98
  8
DEFPOINTS
 62
     0
 10
3455.8676610000002
 20
2298.2776439999998
 30
0.0
  0
POINT
  5
7E99
  8
DEFPOINTS
 62
     0
 10
3455.8676610000002
 20
4394.365262979336
 30
0.0
  0
ENDBLK
  5
7DB1
  8
0
  0
ENDSEC
  0
SECTION
  2
ENTITIES
  0
LINE
  5
7AE5
  8
1
  6
CONTINUOUS
 10
1605.867661
 20
6465.1878539999989
 30
0.0
 11
3455.8676610000002
 21
6465.1878539999989
 31
0.0
  0
LINE
  5
7AE6
  8
1
  6
CONTINUOUS
 10
3385.8676609999989
 20
5520.1878539999989
 30
0.0
 11
1745.867661
 21
5520.1878539999989
 31
0.0
  0
LINE
  5
7AE7
  8
1
  6
CONTINUOUS
 10
3385.8676609999989
 20
5690.1878539999998
 30
0.0
 11
1745.867661
 21
5690.1878539999998
 31
0.0
  0
LINE
  5
7AE8
  8
1
  6
CONTINUOUS
 10
1570.867661
 20
5743.1878539999998
 30
0.0
 11
2971.034932
 21
5743.1878539999998
 31
0.0
  0
LINE
  5
7AE9
  8
1
  6
CONTINUOUS
 10
1570.867661
 20
6413.1878539999998
 30
0.0
 11
2971.034932
 21
6413.1878539999998
 31
0.0
  0
LINE
  5
7AEA
  8
1
  6
CONTINUOUS
 10
1605.867661
 20
5545.1878539999989
 30
0.0
 11
3455.8676610000002
 21
5545.1878539999989
 31
0.0
  0
LINE
  5
7AEB
  8
1
  6
CONTINUOUS
 10
3385.8676609999989
 20
2789.2776439999998
 30
0.0
 11
2405.8676610000002
 21
3609.2776439999998
 31
0.0
  0
LINE
  5
7AEC
  8
1
  6
CONTINUOUS
 10
3188.6542489999988
 20
2616.2797089999999
 30
0.0
 11
2167.571574999999
 21
2857.0579720000001
 31
0.0
  0
LINE
  5
7AED
  8
1
  6
CONTINUOUS
 10
3246.3129450000001
 20
2752.4375920000002
 30
0.0
 11
2362.8423559999992
 21
3318.179333999999
 31
0.0
  0
LINE
  5
7AEE
  8
1
  6
CONTINUOUS
 10
1605.867661
 20
2198.2776439999998
 30
0.0
 11
3455.8676610000002
 21
2198.2776439999998
 31
0.0
  0
LINE
  5
7AEF
  8
1
  6
CONTINUOUS
 10
1605.867661
 20
2298.2776439999998
 30
0.0
 11
3455.8676610000002
 21
2298.2776439999998
 31
0.0
  0
LINE
  5
7AF0
  8
1
  6
CONTINUOUS
 10
1655.867661
 20
2339.2776439999998
 30
0.0
 11
3405.8676610000002
 21
2339.2776439999998
 31
0.0
  0
LINE
  5
7AF1
  8
1
  6
CONTINUOUS
 10
1655.867661
 20
2439.2776439999998
 30
0.0
 11
3405.8676610000002
 21
2439.2776439999998
 31
0.0
  0
POLYLINE
  5
7AF2
  8
1
  6
CONTINUOUS
 66
     1
 10
0.0
 20
0.0
 30
0.0
  0
VERTEX
  5
7DFE
  8
1
  6
CONTINUOUS
 10
1570.867661
 20
3987.2776439999989
 30
0.0
  0
VERTEX
  5
7DFF
  8
1
  6
CONTINUOUS
 10
2225.8676610000002
 20
3965.2776439999998
 30
0.0
 42
-0.4168370000000001
  0
VERTEX
  5
7E00
  8
1
  6
CONTINUOUS
 10
2968.30762
 20
3097.1037019999999
 30
0.0
 42
-0.429867
  0
VERTEX
  5
7E01
  8
1
  6
CONTINUOUS
 10
2181.9915000000001
 20
2465.8524670000002
 30
0.0
 42
-0.373172
  0
VERTEX
  5
7E02
  8
1
  6
CONTINUOUS
 10
1657.8989329999999
 20
3062.2776439999998
 30
0.0
 42
-0.34598
  0
SEQEND
  5
7E03
  8
1
  6
CONTINUOUS
  0
LINE
  5
7AFC
  8
1
  6
CONTINUOUS
 10
1605.867661
 20
2198.2776439999998
 30
0.0
 11
1605.867661
 21
2298.2776439999998
 31
0.0
  0
LINE
  5
7AFD
  8
1
  6
CONTINUOUS
 10
1655.867661
 20
2439.2776439999998
 30
0.0
 11
1655.867661
 21
2339.2776439999998
 31
0.0
  0
LINE
  5
7AFE
  8
1
  6
CONTINUOUS
 10
1610.867661
 20
3062.2776439999998
 30
0.0
 11
1610.867661
 21
3985.9341330000002
 31
0.0
  0
LINE
  5
7AFF
  8
1
  6
CONTINUOUS
 10
1570.867661
 20
3019.7776439999998
 30
0.0
 11
1570.867661
 21
4029.7776439999998
 31
0.0
  0
LINE
  5
7B00
  8
1
  6
CONTINUOUS
 10
1657.8989329999999
 20
3062.2776439999998
 30
0.0
 11
1570.867661
 21
3062.2776439999998
 31
0.0
  0
LINE
  5
7B01
  8
1
  6
CONTINUOUS
 10
1745.867661
 20
2439.2776439999998
 30
0.0
 11
1745.867661
 21
3609.2776439999998
 31
0.0
  0
LINE
  5
7B02
  8
2
  6
CENTER
 10
2225.8676610000002
 20
1986.689576999999
 30
0.0
 11
2225.8676610000002
 21
4154.8657599999997
 31
0.0
  0
CIRCLE
  5
7B03
  8
1
  6
CONTINUOUS
 10
2225.8676610000002
 20
3104.2776439999998
 30
0.0
 40
254.0
  0
LINE
  5
7B06
  8
1
  6
CONTINUOUS
 10
1745.867661
 20
3609.2776439999998
 30
0.0
 11
2405.8676610000002
 21
3609.2776439999998
 31
0.0
  0
LINE
  5
7B07
  8
2
  6
CENTER
 10
5265.3346549999997
 20
3104.2776439999998
 30
0.0
 11
4153.9834979999987
 21
3104.2776439999998
 31
0.0
  0
LINE
  5
7B08
  8
1
  6
CONTINUOUS
 10
1610.867661
 20
5743.1878539999998
 30
0.0
 11
1610.867661
 21
6413.1878539999998
 31
0.0
  0
LINE
  5
7B09
  8
1
  6
CONTINUOUS
 10
1570.867661
 20
5701.1878539999998
 30
0.0
 11
1570.867661
 21
6455.1878539999998
 31
0.0
  0
LINE
  5
7B0A
  8
1
  6
CONTINUOUS
 10
1605.867661
 20
5545.1878539999989
 30
0.0
 11
1605.867661
 21
5743.1878539999998
 31
0.0
  0
LINE
  5
7B0B
  8
1
  6
CONTINUOUS
 10
1655.867661
 20
5430.1878539999989
 30
0.0
 11
1655.867661
 21
5545.1878539999989
 31
0.0
  0
LINE
  5
7B0C
  8
1
  6
CONTINUOUS
 10
1605.867661
 20
5430.1878539999989
 30
0.0
 11
1655.867661
 21
5430.1878539999989
 31
0.0
  0
LINE
  5
7B0D
  8
1
  6
CONTINUOUS
 10
1605.867661
 20
5430.1878539999989
 30
0.0
 11
1605.867661
 21
5545.1878539999989
 31
0.0
  0
LINE
  5
7B0E
  8
1
  6
CONTINUOUS
 10
1605.867661
 20
6465.1878539999989
 30
0.0
 11
1605.867661
 21
6580.1878539999998
 31
0.0
  0
LINE
  5
7B0F
  8
1
  6
CONTINUOUS
 10
1655.867661
 20
6465.1878539999989
 30
0.0
 11
1655.867661
 21
6580.1878539999998
 31
0.0
  0
LINE
  5
7B10
  8
1
  6
CONTINUOUS
 10
1605.867661
 20
6580.1878539999998
 30
0.0
 11
1655.867661
 21
6580.1878539999998
 31
0.0
  0
LINE
  5
7B11
  8
1
  6
CONTINUOUS
 10
1605.867661
 20
6413.1878539999998
 30
0.0
 11
1605.867661
 21
6465.1878539999989
 31
0.0
  0
LINE
  5
7B12
  8
1
  6
CONTINUOUS
 10
2479.8676610000002
 20
5553.1878539999998
 30
0.0
 11
1971.867661
 21
5553.1878539999998
 31
0.0
  0
LINE
  5
7B13
  8
1
  6
CONTINUOUS
 10
2479.8676610000002
 20
5657.1878539999998
 30
0.0
 11
1971.867661
 21
5657.1878539999998
 31
0.0
  0
LINE
  5
7B14
  8
1
  6
CONTINUOUS
 10
1745.867661
 20
5520.1878539999989
 30
0.0
 11
1745.867661
 21
5690.1878539999998
 31
0.0
  0
LINE
  5
7B15
  8
1
  6
CONTINUOUS
 10
1971.867661
 20
5553.1878539999998
 30
0.0
 11
1971.867661
 21
5657.1878539999998
 31
0.0
  0
LINE
  5
7B16
  8
1
  6
CONTINUOUS
 10
2250.8676610000002
 20
5657.1878539999998
 30
0.0
 11
2250.8676610000002
 21
5743.1878539999998
 31
0.0
  0
LINE
  5
7B17
  8
1
  6
CONTINUOUS
 10
2200.8676609999989
 20
5657.1878539999998
 30
0.0
 11
2200.8676609999989
 21
5743.1878539999998
 31
0.0
  0
LINE
  5
7B18
  8
1
  6
CONTINUOUS
 10
2479.8676610000002
 20
5553.1878539999998
 30
0.0
 11
2479.8676610000002
 21
5657.1878539999998
 31
0.0
  0
LINE
  5
7B19
  8
1
  6
CONTINUOUS
 10
4166.4858539999996
 20
2298.2776439999998
 30
0.0
 11
5316.4858539999987
 21
2298.2776439999998
 31
0.0
  0
LINE
  5
7B1A
  8
1
  6
CONTINUOUS
 10
4166.4858539999996
 20
2198.2776439999998
 30
0.0
 11
5316.4858539999987
 21
2198.2776439999998
 31
0.0
  0
LINE
  5
7B2F
  8
2
  6
CENTER
 10
3285.8676609999989
 20
2689.2776439999998
 30
0.0
 11
3125.8676610000002
 21
2689.2776439999998
 31
0.0
  0
CIRCLE
  5
7B30
  8
1
  6
CONTINUOUS
 10
3205.8676610000002
 20
2689.2776439999998
 30
0.0
 40
75.0
  0
ARC
  5
7B31
  8
1
  6
CONTINUOUS
 10
3205.8676610000002
 20
2689.2776439999998
 30
0.0
 40
162.0
 50
324.972283
 51
215.02771699999991
  0
LINE
  5
7B32
  8
1
  6
CONTINUOUS
 10
3073.2099950000002
 20
2596.294077
 30
0.0
 11
3018.3676610000002
 21
2529.2776439999998
 31
0.0
  0
LINE
  5
7B33
  8
1
  6
CONTINUOUS
 10
3008.3676609999989
 20
2479.2776439999998
 30
0.0
 11
3018.3676610000002
 21
2529.2776439999998
 31
0.0
  0
LINE
  5
7B34
  8
1
  6
CONTINUOUS
 10
3008.3676609999989
 20
2479.2776439999998
 30
0.0
 11
3008.3676609999989
 21
2439.2776439999998
 31
0.0
  0
LINE
  5
7B35
  8
1
  6
CONTINUOUS
 10
3385.8676609999989
 20
2439.2776439999998
 30
0.0
 11
3385.8676609999989
 21
2789.2776439999998
 31
0.0
  0
LINE
  5
7B36
  8
2
  6
CENTER
 10
3205.8676610000002
 20
2609.2776439999998
 30
0.0
 11
3205.8676610000002
 21
2769.2776439999998
 31
0.0
  0
LINE
  5
7B37
  8
1
  6
CONTINUOUS
 10
3393.3676610000002
 20
2529.2776439999998
 30
0.0
 11
3338.5253259999999
 21
2596.294077
 31
0.0
  0
LINE
  5
7B38
  8
1
  6
CONTINUOUS
 10
3393.3676610000002
 20
2529.2776439999998
 30
0.0
 11
3403.3676610000002
 21
2479.2776439999998
 31
0.0
  0
LINE
  5
7B39
  8
1
  6
CONTINUOUS
 10
3403.3676610000002
 20
2479.2776439999998
 30
0.0
 11
3403.3676610000002
 21
2439.2776439999998
 31
0.0
  0
LINE
  5
7B3A
  8
1
  6
CONTINUOUS
 10
3405.8676610000002
 20
2439.2776439999998
 30
0.0
 11
3405.8676610000002
 21
2339.2776439999998
 31
0.0
  0
LINE
  5
7B3C
  8
1
  6
CONTINUOUS
 10
3455.8676610000002
 20
2198.2776439999998
 30
0.0
 11
3455.8676610000002
 21
2298.2776439999998
 31
0.0
  0
LINE
  5
7B53
  8
1
  6
CONTINUOUS
 10
4479.4858539999987
 20
3987.2776439999989
 30
0.0
 11
4479.4858539999987
 21
2439.2776439999998
 31
0.0
  0
LINE
  5
7B54
  8
1
  6
CONTINUOUS
 10
5149.4858539999987
 20
3987.2776439999989
 30
0.0
 11
5149.4858539999987
 21
2439.2776439999998
 31
0.0
  0
LINE
  5
7B55
  8
1
  6
CONTINUOUS
 10
4289.4858539999987
 20
3358.2776439999989
 30
0.0
 11
4289.4858539999987
 21
2850.2776439999998
 31
0.0
  0
LINE
  5
7B56
  8
1
  6
CONTINUOUS
 10
4393.4858539999987
 20
3358.2776439999989
 30
0.0
 11
4393.4858539999987
 21
2850.2776439999998
 31
0.0
  0
LINE
  5
7B57
  8
1
  6
CONTINUOUS
 10
4204.4858539999996
 20
3609.2776439999998
 30
0.0
 11
4204.4858539999996
 21
2439.2776439999998
 31
0.0
  0
LINE
  5
7B58
  8
1
  6
CONTINUOUS
 10
4426.4858539999996
 20
3609.2776439999998
 30
0.0
 11
4426.4858539999996
 21
2439.2776439999998
 31
0.0
  0
LINE
  5
7B59
  8
1
  6
CONTINUOUS
 10
4281.4858539999987
 20
2339.2776439999998
 30
0.0
 11
5201.4858539999996
 21
2339.2776439999998
 31
0.0
  0
LINE
  5
7B5A
  8
1
  6
CONTINUOUS
 10
4281.4858539999987
 20
2439.2776439999998
 30
0.0
 11
5201.4858539999996
 21
2439.2776439999998
 31
0.0
  0
LINE
  5
7B5B
  8
1
  6
CONTINUOUS
 10
4166.4858539999996
 20
2298.2776439999998
 30
0.0
 11
4166.4858539999996
 21
2198.2776439999998
 31
0.0
  0
LINE
  5
7B5C
  8
1
  6
CONTINUOUS
 10
4393.4858539999987
 20
2710.2776439999998
 30
0.0
 11
4479.4858539999987
 21
2710.2776439999998
 31
0.0
  0
LINE
  5
7B5D
  8
1
  6
CONTINUOUS
 10
4393.4858539999987
 20
2668.2776439999998
 30
0.0
 11
4479.4858539999987
 21
2668.2776439999998
 31
0.0
  0
LINE
  5
7B5E
  8
1
  6
CONTINUOUS
 10
4204.4858539999996
 20
2439.2776439999998
 30
0.0
 11
4281.4858539999987
 21
2439.2776439999998
 31
0.0
  0
LINE
  5
7B5F
  8
1
  6
CONTINUOUS
 10
4281.4858539999987
 20
2439.2776439999998
 30
0.0
 11
4281.4858539999987
 21
2339.2776439999998
 31
0.0
  0
LINE
  5
7B60
  8
1
  6
CONTINUOUS
 10
4289.4858539999987
 20
2850.2776439999998
 30
0.0
 11
4393.4858539999987
 21
2850.2776439999998
 31
0.0
  0
LINE
  5
7B61
  8
1
  6
CONTINUOUS
 10
4289.4858539999987
 20
2764.2776439999998
 30
0.0
 11
4393.4858539999987
 21
2764.2776439999998
 31
0.0
  0
LINE
  5
7B62
  8
1
  6
CONTINUOUS
 10
4289.4858539999987
 20
2614.2776439999998
 30
0.0
 11
4393.4858539999987
 21
2614.2776439999998
 31
0.0
  0
LINE
  5
7B63
  8
1
  6
CONTINUOUS
 10
4289.4858539999987
 20
2764.2776439999998
 30
0.0
 11
4289.4858539999987
 21
2614.2776439999998
 31
0.0
  0
LINE
  5
7B64
  8
1
  6
CONTINUOUS
 10
4393.4858539999987
 20
2764.2776439999998
 30
0.0
 11
4393.4858539999987
 21
2614.2776439999998
 31
0.0
  0
LINE
  5
7B65
  8
1
  6
CONTINUOUS
 10
5201.4858539999996
 20
2439.2776439999998
 30
0.0
 11
5201.4858539999996
 21
2339.2776439999998
 31
0.0
  0
LINE
  5
7B66
  8
1
  6
CONTINUOUS
 10
4479.4858539999987
 20
3987.2776439999989
 30
0.0
 11
5149.4858539999987
 21
3987.2776439999989
 31
0.0
  0
LINE
  5
7B67
  8
1
  6
CONTINUOUS
 10
4479.4858539999987
 20
3062.2776439999998
 30
0.0
 11
5149.4858539999987
 21
3062.2776439999998
 31
0.0
  0
LINE
  5
7B68
  8
1
  6
CONTINUOUS
 10
4479.4858539999987
 20
3062.2776439999998
 30
0.0
 11
5149.4858539999987
 21
3987.2776439999989
 31
0.0
  0
LINE
  5
7B69
  8
1
  6
CONTINUOUS
 10
4479.4858539999987
 20
3987.2776439999989
 30
0.0
 11
5149.4858539999987
 21
3062.2776439999998
 31
0.0
  0
LINE
  5
7B6A
  8
1
  6
CONTINUOUS
 10
4393.4858539999987
 20
3129.2776439999998
 30
0.0
 11
4479.4858539999987
 21
3129.2776439999998
 31
0.0
  0
LINE
  5
7B6B
  8
1
  6
CONTINUOUS
 10
4393.4858539999987
 20
3079.2776439999998
 30
0.0
 11
4479.4858539999987
 21
3079.2776439999998
 31
0.0
  0
LINE
  5
7B6C
  8
1
  6
CONTINUOUS
 10
4204.4858539999996
 20
3609.2776439999998
 30
0.0
 11
4426.4858539999996
 21
3609.2776439999998
 31
0.0
  0
LINE
  5
7B6D
  8
1
  6
CONTINUOUS
 10
4289.4858539999987
 20
3358.2776439999989
 30
0.0
 11
4393.4858539999987
 21
3358.2776439999989
 31
0.0
  0
LINE
  5
7B76
  8
1
  6
CONTINUOUS
 10
3455.8676610000002
 20
5545.1878539999989
 30
0.0
 11
3455.8676610000002
 21
6465.1878539999989
 31
0.0
  0
LINE
  5
7B78
  8
1
  6
CONTINUOUS
 10
3367.8676610000002
 20
5701.1878539999998
 30
0.0
 11
3367.8676610000002
 21
6186.1878539999989
 31
0.0
  0
LINE
  5
7B79
  8
1
  6
CONTINUOUS
 10
3043.8676610000002
 20
5701.1878539999998
 30
0.0
 11
3043.8676610000002
 21
6186.1878539999989
 31
0.0
  0
LINE
  5
7B7A
  8
1
  6
CONTINUOUS
 10
2971.034932
 20
5743.1878539999998
 30
0.0
 11
2971.034932
 21
6413.1878539999998
 31
0.0
  0
LINE
  5
7B7B
  8
1
  6
CONTINUOUS
 10
3405.8676610000002
 20
5430.1878539999989
 30
0.0
 11
3455.8676610000002
 21
5430.1878539999989
 31
0.0
  0
LINE
  5
7B7C
  8
1
  6
CONTINUOUS
 10
3367.8676610000002
 20
5701.1878539999998
 30
0.0
 11
3043.8676610000002
 21
5701.1878539999998
 31
0.0
  0
LINE
  5
7B7D
  8
1
  6
CONTINUOUS
 10
3280.8676610000002
 20
5553.1878539999998
 30
0.0
 11
3130.8676609999989
 21
5553.1878539999998
 31
0.0
  0
LINE
  5
7B7E
  8
1
  6
CONTINUOUS
 10
3280.8676610000002
 20
5657.1878539999998
 30
0.0
 11
3130.8676609999989
 21
5657.1878539999998
 31
0.0
  0
LINE
  5
7B7F
  8
1
  6
CONTINUOUS
 10
3130.8676609999989
 20
5553.1878539999998
 30
0.0
 11
3130.8676609999989
 21
5657.1878539999998
 31
0.0
  0
LINE
  5
7B80
  8
1
  6
CONTINUOUS
 10
3405.8676610000002
 20
5430.1878539999989
 30
0.0
 11
3405.8676610000002
 21
5545.1878539999989
 31
0.0
  0
LINE
  5
7B81
  8
1
  6
CONTINUOUS
 10
3385.8676609999989
 20
5520.1878539999989
 30
0.0
 11
3385.8676609999989
 21
5690.1878539999998
 31
0.0
  0
LINE
  5
7B82
  8
1
  6
CONTINUOUS
 10
3280.8676610000002
 20
5553.1878539999998
 30
0.0
 11
3280.8676610000002
 21
5657.1878539999998
 31
0.0
  0
LINE
  5
7B83
  8
1
  6
CONTINUOUS
 10
3226.8676609999989
 20
5657.1878539999998
 30
0.0
 11
3226.8676609999989
 21
5701.1878539999998
 31
0.0
  0
LINE
  5
7B84
  8
1
  6
CONTINUOUS
 10
3184.8676610000002
 20
5657.1878539999998
 30
0.0
 11
3184.8676610000002
 21
5701.1878539999998
 31
0.0
  0
LINE
  5
7B85
  8
1
  6
CONTINUOUS
 10
3455.8676610000002
 20
5430.1878539999989
 30
0.0
 11
3455.8676610000002
 21
5545.1878539999989
 31
0.0
  0
LINE
  5
7B8A
  8
1
  6
CONTINUOUS
 10
3405.8676610000002
 20
6580.1878539999998
 30
0.0
 11
3455.8676610000002
 21
6580.1878539999998
 31
0.0
  0
LINE
  5
7B8B
  8
1
  6
CONTINUOUS
 10
3367.8676610000002
 20
6186.1878539999989
 30
0.0
 11
3043.8676610000002
 21
6186.1878539999989
 31
0.0
  0
LINE
  5
7B8C
  8
1
  6
CONTINUOUS
 10
3405.8676610000002
 20
6465.1878539999989
 30
0.0
 11
3405.8676610000002
 21
6580.1878539999998
 31
0.0
  0
LINE
  5
7B8D
  8
1
  6
CONTINUOUS
 10
3455.8676610000002
 20
6465.1878539999989
 30
0.0
 11
3455.8676610000002
 21
6580.1878539999998
 31
0.0
  0
LINE
  5
7BAB
  8
1
  6
CONTINUOUS
 10
5316.4858539999987
 20
2298.2776439999998
 30
0.0
 11
5316.4858539999987
 21
2198.2776439999998
 31
0.0
  0
LINE
  5
7BC9
  8
2
  6
CENTER
 10
3547.8573070000002
 20
6078.1878539999998
 30
0.0
 11
1399.1249369999989
 21
6078.1878539999998
 31
0.0
  0
LINE
  5
7BCA
  8
2
  6
CENTER
 10
4814.4858539999987
 20
4150.6491159999987
 30
0.0
 11
4814.4858539999987
 21
1998.2437519999989
 31
0.0
  0
LINE
  5
7BCB
  8
2
  6
CENTER
 10
2225.8676610000002
 20
5357.8451320000013
 30
0.0
 11
2225.8676610000002
 21
6660.2539710000001
 31
0.0
  0
LINE
  5
7BCC
  8
2
  6
CENTER
 10
3209.7407779999999
 20
3104.2776439999998
 30
0.0
 11
1384.73882
 21
3104.2776439999998
 31
0.0
  0
LINE
  5
7BCD
  8
4
  6
CONTINUOUS
 10
5550.0
 20
1500.0
 30
0.0
 11
5550.0
 21
900.0
 31
0.0
  0
LINE
  5
7BCE
  8
4
  6
CONTINUOUS
 10
3450.0
 20
1500.0
 30
0.0
 11
3450.0
 21
900.0
 31
0.0
  0
LINE
  5
7BCF
  8
4
  6
CONTINUOUS
 10
1950.0
 20
1500.0
 30
0.0
 11
1950.0
 21
900.0
 31
0.0
  0
LINE
  5
7BD2
  8
4
  6
CONTINUOUS
 10
1950.0
 20
900.0
 30
0.0
 11
5550.0
 21
900.0
 31
0.0
  0
LINE
  5
7BD3
  8
4
  6
CONTINUOUS
 10
1950.0
 20
1200.0
 30
0.0
 11
5550.0
 21
1200.0
 31
0.0
  0
TEXT
  5
7BD4
  8
4
  6
CONTINUOUS
 10
2065.5062429999989
 20
1294.6290779999999
 30
0.0
 40
150.0
  1
機器名称
  0
TEXT
  5
7BD5
  8
4
  6
CONTINUOUS
 10
2058.7743179999989
 20
964.9354699999999
 30
0.0
 40
150.0
  1
機器型番
  0
TEXT
  5
7BD6
  8
4
  6
CONTINUOUS
 10
3533.0362359999999
 20
1267.7153069999999
 30
0.0
 40
150.0
  1
ミツヤ多翼送風機
  0
TEXT
  5
7BD7
  8
4
  6
CONTINUOUS
 10
3559.9634869999991
 20
951.47875299999987
 30
0.0
 40
150.0
  1
MF#5 1/2-4
  0
TEXT
  5
7BD9
  8
4
  6
CONTINUOUS
 10
2282.1606200000001
 20
7150.2865239999992
 30
0.0
 40
162.0
  1
天井吊防振ベット
  0
TEXT
  5
7BDA
  8
4
  6
CONTINUOUS
 10
948.50278000000014
 20
7601.6429289999996
 30
0.0
 40
216.0
  1
ベルト駆動式片吸込両持多翼ファン
  0
LINE
  5
7BDB
  8
4
  6
CONTINUOUS
 10
750.0
 20
7408.2262629999996
 30
0.0
 11
5550.0
 21
7408.2262629999996
 31
0.0
  0
LINE
  5
7BDC
  8
4
  6
CONTINUOUS
 10
750.0
 20
8008.2262629999996
 30
0.0
 11
5550.0
 21
8008.2262629999996
 31
0.0
  0
LINE
  5
7BDD
  8
4
  6
CONTINUOUS
 10
1950.0
 20
1500.0
 30
0.0
 11
5550.0
 21
1500.0
 31
0.0
  0
LINE
  5
7BDE
  8
4
  6
CONTINUOUS
 10
750.0
 20
8008.2262629999996
 30
0.0
 11
750.0
 21
7408.2262629999996
 31
0.0
  0
TEXT
  5
7BDF
  8
4
  6
CONTINUOUS
 10
889.04253499999993
 20
7146.9584329999998
 30
0.0
 40
162.0
  1
左回転左横向
  0
TEXT
  5
7BE0
  8
4
  6
CONTINUOUS
 10
4406.9086779999989
 20
8118.1832439999989
 30
0.0
 40
168.0
  1
No.
  0
TEXT
  5
7BE1
  8
4
  6
CONTINUOUS
 10
4147.7421750000003
 20
7150.2865239999992
 30
0.0
 40
162.0
  1
縮尺：1/30
  0
LINE
  5
7BE2
  8
4
  6
CONTINUOUS
 10
5550.0
 20
8008.2262629999996
 30
0.0
 11
5550.0
 21
7408.2262629999996
 31
0.0
  0
LINE
  5
7BE4
  8
4
  6
CONTINUOUS
 10
4321.8522670000002
 20
8043.7907490000007
 30
0.0
 11
4321.8522670000002
 21
8359.9567849999985
 31
0.0
  0
LINE
  5
7BE5
  8
4
  6
CONTINUOUS
 10
4321.8522670000002
 20
8359.9567849999985
 30
0.0
 11
5550.0
 21
8359.9567849999985
 31
0.0
  0
LINE
  5
7BE6
  8
4
  6
CONTINUOUS
 10
5550.0
 20
8359.9567849999985
 30
0.0
 11
5550.0
 21
8043.7907490000007
 31
0.0
  0
LINE
  5
7BE7
  8
4
  6
CONTINUOUS
 10
5550.0
 20
8043.7907490000007
 30
0.0
 11
4321.8522670000002
 21
8043.7907490000007
 31
0.0
  0
DIMENSION
  5
7BF8
  8
3
  6
CONTINUOUS
  2
*D1
 10
1377.198324
 20
3062.2776439999998
 30
0.0
 11
1377.198324
 21
3523.005756999999
 31
0.0
 70
   128
 13
1570.867661
 23
3987.2776439999989
 33
0.0
 14
1570.867661
 24
3062.2776439999998
 34
0.0
 50
90.0
1001
ACAD
1000
DSTYLE
1002
{
1070
   287
1070
     3
1070
    40
1040
30.0
1070
   143
1040
0.039
1070
   172
1070
     1
1070
   271
1070
     0
1070
   279
1070
     0
1070
   288
1070
     1
1002
}
  0
DIMENSION
  5
7C05
  8
3
  6
CONTINUOUS
  2
*D2
 10
1187.8338180000001
 20
3104.2776439999998
 30
0.0
 11
1187.8338180000001
 21
3537.0243249999999
 31
0.0
 70
   128
 13
1570.867661
 23
3987.2776439999989
 33
0.0
 14
1432.7728750000001
 24
3104.2776439999998
 34
0.0
 50
90.0
1001
ACAD
1000
DSTYLE
1002
{
1070
   287
1070
     3
1070
    40
1040
30.0
1070
   143
1040
0.039
1070
   172
1070
     1
1070
   271
1070
     0
1070
   279
1070
     0
1070
   288
1070
     1
1002
}
  0
DIMENSION
  5
7C11
  8
3
  6
CONTINUOUS
  2
*D3
 10
1187.8338180000001
 20
2339.2776439999998
 30
0.0
 11
1112.8338179999989
 21
2721.7776440000011
 31
0.0
 70
     0
 13
1432.7728750000001
 23
3104.2776439999998
 33
0.0
 14
1655.867661
 24
2339.2776439999998
 34
0.0
 50
90.0
1001
ACAD
1000
DSTYLE
1002
{
1070
   287
1070
     4
1070
    40
1040
30.0
1070
    75
1070
     1
1070
   143
1040
0.039
1070
   172
1070
     1
1070
   271
1070
     0
1070
   279
1070
     1
1070
   288
1070
     1
1002
}
  0
DIMENSION
  5
7C21
  8
3
  6
CONTINUOUS
  2
*D4
 10
1188.072277
 20
2198.2776439999998
 30
0.0
 11
1188.072277
 21
1960.4205011428569
 31
0.0
 70
   128
 13
1655.867661
 23
2339.2776439999998
 33
0.0
 14
1605.867661
 24
2198.2776439999998
 34
0.0
 50
90.0
1001
ACAD
1000
DSTYLE
1002
{
1070
   287
1070
     3
1070
    40
1040
30.0
1070
   143
1040
0.039
1070
   172
1070
     1
1070
   271
1070
     0
1070
   279
1070
     0
1070
   288
1070
     1
1002
}
  0
DIMENSION
  5
7C2E
  8
3
  6
CONTINUOUS
  2
*D5
 10
993.21682100000032
 20
2198.2776439999998
 30
0.0
 11
993.21682099999998
 21
3046.3740339999999
 31
0.0
 70
   128
 13
1570.867661
 23
4029.7776439999998
 33
0.0
 14
1605.867661
 24
2198.2776439999998
 34
0.0
 50
90.0
1001
ACAD
1000
DSTYLE
1002
{
1070
   287
1070
     3
1070
    40
1040
30.0
1070
   143
1040
0.039
1070
   172
1070
     1
1070
   271
1070
     0
1070
   279
1070
     0
1070
   288
1070
     1
1002
}
  0
DIMENSION
  5
7C3B
  8
3
  6
CONTINUOUS
  2
*D6
 10
2225.8676610000002
 20
1905.35032
 30
0.0
 11
1909.5246400000001
 21
1905.35032
 31
0.0
 70
   128
 13
1605.867661
 23
2198.2776439999998
 33
0.0
 14
2225.8676610000002
 24
1986.689576999999
 34
0.0
1001
ACAD
1000
DSTYLE
1002
{
1070
   287
1070
     3
1070
    40
1040
30.0
1070
   143
1040
0.039
1070
   172
1070
     1
1070
   271
1070
     0
1070
   279
1070
     0
1070
   288
1070
     1
1002
}
  0
DIMENSION
  5
7C47
  8
3
  6
CONTINUOUS
  2
*D7
 10
3455.8676610000002
 20
1905.35032
 30
0.0
 11
2840.8676609999989
 21
1980.35032
 31
0.0
 70
     0
 13
2225.8676610000002
 23
1986.689576999999
 33
0.0
 14
3455.8676610000002
 24
2198.2776439999998
 34
0.0
1001
ACAD
1000
DSTYLE
1002
{
1070
   287
1070
     4
1070
    40
1040
30.0
1070
    75
1070
     1
1070
   143
1040
0.039
1070
   172
1070
     1
1070
   271
1070
     0
1070
   279
1070
     1
1070
   288
1070
     1
1002
}
  0
DIMENSION
  5
7C54
  8
3
  6
CONTINUOUS
  2
*D8
 10
2225.8676610000002
 20
4224.7555009999987
 30
0.0
 11
1881.4706450000001
 21
4224.7555009999987
 31
0.0
 70
   128
 13
1570.867661
 23
4029.7776439999998
 33
0.0
 14
2225.8676610000002
 24
4154.8657599999997
 34
0.0
1001
ACAD
1000
DSTYLE
1002
{
1070
   287
1070
     3
1070
    40
1040
30.0
1070
   143
1040
0.039
1070
   172
1070
     1
1070
   271
1070
     0
1070
   279
1070
     0
1070
   288
1070
     1
1002
}
  0
DIMENSION
  5
7C6D
  8
3
  6
CONTINUOUS
  2
*D9
 10
5149.4858539999987
 20
4139.8232479999988
 30
0.0
 11
4816.470609
 21
4139.8232479999988
 31
0.0
 70
   128
 13
4479.4858539999987
 23
3987.2776439999989
 33
0.0
 14
5149.4858539999987
 24
3987.2776439999989
 34
0.0
1001
ACAD
1000
DSTYLE
1002
{
1070
   287
1070
     3
1070
    40
1040
30.0
1070
   143
1040
0.039
1070
   172
1070
     1
1070
   271
1070
     0
1070
   279
1070
     0
1070
   288
1070
     1
1002
}
  0
LINE
  5
7C6E
  8
1
  6
CONTINUOUS
 10
5153.4858539999987
 20
3579.2776439999989
 30
0.0
 11
5153.4858539999987
 21
2629.2776439999998
 31
0.0
  0
DIMENSION
  5
7C7D
  8
3
  6
CONTINUOUS
  2
*D10
 10
5433.6586570000009
 20
2629.2776439999998
 30
0.0
 11
5433.6586569999999
 21
3130.4855280000002
 31
0.0
 70
   128
 13
5153.4858539999987
 23
3579.2776439999989
 33
0.0
 14
5153.4858539999987
 24
2629.2776439999998
 34
0.0
 50
90.0
1001
ACAD
1000
DSTYLE
1002
{
1070
   287
1070
     3
1070
     3
1000
φ<>
1070
    40
1040
30.0
1070
   143
1040
0.039
1070
   172
1070
     1
1070
   271
1070
     0
1070
   279
1070
     0
1070
   288
1070
     1
1002
}
  0
DIMENSION
  5
7C8C
  8
3
  6
CONTINUOUS
  2
*D11
 10
4814.4858539999987
 20
4343.0926469999986
 30
0.0
 11
4983.9858539999996
 21
4427.2257955114874
 31
0.0
 70
   128
 13
5153.4858539999987
 23
3579.2776439999989
 33
0.0
 14
4814.4858539999987
 24
4277.8642549999986
 34
0.0
1001
ACAD
1000
DSTYLE
1002
{
1070
   288
1070
     1
1070
   172
1070
     1
1070
    40
1040
30.0
1070
   271
1070
     0
1070
   143
1040
0.039
1002
}
  0
DIMENSION
  5
7C98
  8
3
  6
CONTINUOUS
  2
*D12
 10
4204.4858539999996
 20
4343.0926469999986
 30
0.0
 11
4509.4858539999996
 21
4493.0926470000004
 31
0.0
 70
     0
  1
MAX\P640
 13
4814.4858539999987
 23
4277.8642549999986
 33
0.0
 14
4204.4858539999996
 24
3609.2776439999998
 34
0.0
1001
ACAD
1000
DSTYLE
1002
{
1070
   287
1070
     4
1070
    40
1040
30.0
1070
    75
1070
     1
1070
   143
1040
0.039
1070
   172
1070
     1
1070
   271
1070
     0
1070
   279
1070
     1
1070
   288
1070
     1
1002
}
  0
DIMENSION
  5
7CA5
  8
3
  6
CONTINUOUS
  2
*D13
 10
4814.4858539999987
 20
1959.9341139999999
 30
0.0
 11
4521.9035510000003
 21
1959.9341139999999
 31
0.0
 70
   128
 13
4166.4858539999996
 23
2198.2776439999998
 33
0.0
 14
4814.4858539999987
 24
1998.2437519999989
 34
0.0
1001
ACAD
1000
DSTYLE
1002
{
1070
   287
1070
     3
1070
    40
1040
30.0
1070
   143
1040
0.039
1070
   172
1070
     1
1070
   271
1070
     0
1070
   279
1070
     0
1070
   288
1070
     1
1002
}
  0
DIMENSION
  5
7CB1
  8
3
  6
CONTINUOUS
  2
*D14
 10
5316.4858539999987
 20
1959.9341139999999
 30
0.0
 11
5065.4858539999996
 21
2034.9341139999999
 31
0.0
 70
     0
 13
4814.4858539999987
 23
1998.2437519999989
 33
0.0
 14
5316.4858539999987
 24
2198.2776439999998
 34
0.0
1001
ACAD
1000
DSTYLE
1002
{
1070
   287
1070
     4
1070
    40
1040
30.0
1070
    75
1070
     1
1070
   143
1040
0.039
1070
   172
1070
     1
1070
   271
1070
     0
1070
   279
1070
     1
1070
   288
1070
     1
1002
}
  0
DIMENSION
  5
7CD5
  8
3
  6
CONTINUOUS
  2
*D15
 10
3455.8676610000002
 20
6743.9602760000007
 30
0.0
 11
2484.631711
 21
6743.9602760000007
 31
0.0
 70
   128
 13
1605.867661
 23
6580.1878539999998
 33
0.0
 14
3455.8676610000002
 24
6580.1878539999998
 34
0.0
1001
ACAD
1000
DSTYLE
1002
{
1070
   287
1070
     3
1070
    40
1040
30.0
1070
   143
1040
0.039
1070
   172
1070
     1
1070
   271
1070
     0
1070
   279
1070
     0
1070
   288
1070
     1
1002
}
  0
DIMENSION
  5
7CE2
  8
3
  6
CONTINUOUS
  2
*D16
 10
3758.7756210000011
 20
5430.1878539999989
 30
0.0
 11
3758.7756209999998
 21
6034.0456400000003
 31
0.0
 70
   128
 13
3455.8676610000002
 23
6580.1878539999998
 33
0.0
 14
3455.8676610000002
 24
5430.1878539999989
 34
0.0
 50
90.0
1001
ACAD
1000
DSTYLE
1002
{
1070
   287
1070
     3
1070
    40
1040
30.0
1070
   143
1040
0.039
1070
   172
1070
     1
1070
   271
1070
     0
1070
   279
1070
     0
1070
   288
1070
     1
1002
}
  0
DIMENSION
  5
7D62
  8
3
  6
CONTINUOUS
  2
*D17
 10
2968.8676620000001
 20
4224.7555009999987
 30
0.0
 11
2597.367661499999
 21
4299.7555009999987
 31
0.0
 70
     0
 13
2225.8676610000002
 23
4154.8657599999997
 33
0.0
 14
2968.8676620000001
 24
3104.2776439999998
 34
0.0
1001
ACAD
1000
DSTYLE
1002
{
1070
   287
1070
     4
1070
    40
1040
30.0
1070
    75
1070
     1
1070
   143
1040
0.039
1070
   172
1070
     1
1070
   271
1070
     0
1070
   279
1070
     1
1070
   288
1070
     1
1002
}
  0
DIMENSION
  5
7DB2
  8
3
  2
*D18
 10
3455.8676610000002
 20
4394.365262979336
 30
0.0
 11
2457.864621203451
 21
4394.365262979336
 31
0.0
 70
   128
 13
1570.867661
 23
4029.7776439999998
 33
0.0
 14
3455.8676610000002
 24
2298.2776439999998
 34
0.0
1001
ACAD
1000
DSTYLE
1002
{
1070
   287
1070
     3
1070
    40
1040
30.0
1070
   143
1040
0.039
1070
   172
1070
     1
1070
   271
1070
     0
1070
   279
1070
     0
1070
   288
1070
     1
1002
}
  0
LINE
  5
7DE6
  8
1
  6
CONTINUOUS
 10
1665.8676609999991
 20
3559.2776439999998
 30
0.0
 11
2785.8676610000002
 21
3559.2776440000011
 31
0.0
  0
LINE
  5
7DE7
  8
1
 10
1665.867661
 20
2439.2776439999998
 30
0.0
 11
1665.8676609999991
 21
3559.2776439999998
 31
0.0
  0
LINE
  5
7DE8
  8
1
 10
2785.8676610000002
 20
2439.2776439999998
 30
0.0
 11
2785.8676610000002
 21
3559.2776440000011
 31
0.0
  0
ENDSEC
  0
EOF
