  0
SECTION
  2
HEADER
  9
$ACADVER
  1
AC1009
  9
$INSBASE
 10
0.0
 20
0.0
 30
0.0
  9
$EXTMIN
 10
750.0
 20
900.0
 30
0.0
  9
$EXTMAX
 10
5550.0
 20
8359.9567800000004
 30
0.0
  9
$LIMMIN
 10
0.0
 20
0.0
  9
$LIMMAX
 10
297.0
 20
210.0
  9
$ORTHOMODE
 70
     0
  9
$REGENMODE
 70
     1
  9
$FILLMODE
 70
     0
  9
$QTEXTMODE
 70
     0
  9
$MIRRTEXT
 70
     1
  9
$DRAGMODE
 70
     2
  9
$LTSCALE
 40
100.0
  9
$OSMODE
 70
    37
  9
$ATTMODE
 70
     1
  9
$TEXTSIZE
 40
180.0
  9
$TRACEWID
 40
0.05
  9
$TEXTSTYLE
  7
STANDARD
  9
$CLAYER
  8
3
  9
$CELTYPE
  6
BYLAYER
  9
$CECOLOR
 62
   256
  9
$DIMSCALE
 40
30.0
  9
$DIMASZ
 40
2.0
  9
$DIMEXO
 40
0.5
  9
$DIMDLI
 40
10.0
  9
$DIMRND
 40
0.0
  9
$DIMDLE
 40
0.0
  9
$DIMEXE
 40
1.0
  9
$DIMTP
 40
1.0
  9
$DIMTM
 40
1.0
  9
$DIMTXT
 40
3.0
  9
$DIMCEN
 40
0.0
  9
$DIMTSZ
 40
0.0
  9
$DIMTOL
 70
     0
  9
$DIMLIM
 70
     0
  9
$DIMTIH
 70
     0
  9
$DIMTOH
 70
     0
  9
$DIMSE1
 70
     0
  9
$DIMSE2
 70
     0
  9
$DIMTAD
 70
     1
  9
$DIMZIN
 70
     8
  9
$DIMBLK
  1

  9
$DIMASO
 70
     1
  9
$DIMSHO
 70
     1
  9
$DIMPOST
  1

  9
$DIMAPOST
  1

  9
$DIMALT
 70
     0
  9
$DIMALTD
 70
     2
  9
$DIMALTF
 40
0.039
  9
$DIMLFAC
 40
1.0
  9
$DIMTOFL
 70
     1
  9
$DIMTVP
 40
0.0
  9
$DIMTIX
 70
     0
  9
$DIMSOXD
 70
     0
  9
$DIMSAH
 70
     1
  9
$DIMBLK1
  1
OPEN
  9
$DIMBLK2
  1
OPEN
  9
$DIMSTYLE
  2
IGA
  9
$DIMCLRD
 70
     0
  9
$DIMCLRE
 70
     0
  9
$DIMCLRT
 70
     0
  9
$DIMTFAC
 40
10.0
  9
$DIMGAP
 40
1.0
  9
$LUNITS
 70
     2
  9
$LUPREC
 70
     3
  9
$SKETCHINC
 40
0.1
  9
$FILLETRAD
 40
0.0
  9
$AUNITS
 70
     0
  9
$AUPREC
 70
     0
  9
$MENU
  1
acad
  9
$ELEVATION
 40
0.0
  9
$PELEVATION
 40
0.0
  9
$THICKNESS
 40
0.0
  9
$LIMCHECK
 70
     0
  9
$BLIPMODE
 70
     0
  9
$CHAMFERA
 40
0.5
  9
$CHAMFERB
 40
0.5
  9
$SKPOLY
 70
     0
  9
$TDCREATE
 40
2450751.6627891199
  9
$TDUPDATE
 40
2454953.776181458
  9
$TDINDWG
 40
0.0164831944
  9
$TDUSRTIMER
 40
0.0164831944
  9
$USRTIMER
 70
     1
  9
$ANGBASE
 50
0.0
  9
$ANGDIR
 70
     0
  9
$PDMODE
 70
     0
  9
$PDSIZE
 40
0.0
  9
$PLINEWID
 40
0.0
  9
$COORDS
 70
     1
  9
$SPLFRAME
 70
     0
  9
$SPLINETYPE
 70
     6
  9
$SPLINESEGS
 70
     8
  9
$ATTDIA
 70
     0
  9
$ATTREQ
 70
     1
  9
$HANDLING
 70
 10241
  9
$HANDSEED
  5
7EF6
  9
$SURFTAB1
 70
     6
  9
$SURFTAB2
 70
     6
  9
$SURFTYPE
 70
     6
  9
$SURFU
 70
     6
  9
$SURFV
 70
     6
  9
$UCSNAME
  2

  9
$UCSORG
 10
0.0
 20
0.0
 30
0.0
  9
$UCSXDIR
 10
1.0
 20
0.0
 30
0.0
  9
$UCSYDIR
 10
0.0
 20
1.0
 30
0.0
  9
$PUCSNAME
  2

  9
$PUCSORG
 10
0.0
 20
0.0
 30
0.0
  9
$PUCSXDIR
 10
1.0
 20
0.0
 30
0.0
  9
$PUCSYDIR
 10
0.0
 20
1.0
 30
0.0
  9
$USERI1
 70
     0
  9
$USERI2
 70
     0
  9
$USERI3
 70
     0
  9
$USERI4
 70
     0
  9
$USERI5
 70
     0
  9
$USERR1
 40
0.0
  9
$USERR2
 40
0.0
  9
$USERR3
 40
0.0
  9
$USERR4
 40
0.0
  9
$USERR5
 40
0.0
  9
$WORLDVIEW
 70
     1
  9
$SHADEDGE
 70
     3
  9
$SHADEDIF
 70
    70
  9
$TILEMODE
 70
     1
  9
$MAXACTVP
 70
    16
  9
$PLIMCHECK
 70
     0
  9
$PEXTMIN
 10
1.0000000000000000E+020
 20
1.0000000000000000E+020
 30
1.0000000000000000E+020
  9
$PEXTMAX
 10
-1.0000000000000000E+020
 20
-1.0000000000000000E+020
 30
-1.0000000000000000E+020
  9
$PLIMMIN
 10
0.0
 20
0.0
  9
$PLIMMAX
 10
12.0
 20
9.0
  9
$UNITMODE
 70
     0
  9
$VISRETAIN
 70
     0
  9
$PLINEGEN
 70
     0
  9
$PSLTSCALE
 70
     1
  0
ENDSEC
  0
SECTION
  2
TABLES
  0
TABLE
  2
VPORT
 70
     2
  0
VPORT
  2
*ACTIVE
 70
     0
 10
0.0
 20
0.0
 11
1.0
 21
1.0
 12
9438.4567640709101
 22
4630.0975530613614
 13
0.0
 23
0.0
 14
10.0
 24
10.0
 15
10.0
 25
10.0
 16
0.0
 26
0.0
 36
1.0
 17
0.0
 27
0.0
 37
0.0
 40
7517.4747080210109
 41
3.1666666666666661
 42
50.0
 43
0.0
 44
0.0
 50
0.0
 51
0.0
 71
     0
 72
   100
 73
     1
 74
     0
 75
     0
 76
     0
 77
     0
 78
     0
  0
ENDTAB
  0
TABLE
  2
LTYPE
 70
     2
  0
LTYPE
  2
CONTINUOUS
 70
     0
  3
Solid line
 72
    65
 73
     0
 40
0.0
  0
LTYPE
  2
CENTER
 70
     0
  3
____ _ ____ _ ____ _ ____ _ ____ _ ____ _ ____ 
 72
    65
 73
     4
 40
2.0
 49
1.25
 49
-0.25
 49
0.25
 49
-0.25
  0
ENDTAB
  0
TABLE
  2
LAYER
 70
     6
  0
LAYER
  2
0
 70
     0
 62
     7
  6
CONTINUOUS
  0
LAYER
  2
3
 70
     0
 62
     2
  6
CONTINUOUS
  0
LAYER
  2
2
 70
     0
 62
     3
  6
CENTER
  0
LAYER
  2
1
 70
     0
 62
     4
  6
CONTINUOUS
  0
LAYER
  2
4
 70
     0
 62
     7
  6
CONTINUOUS
  0
LAYER
  2
DEFPOINTS
 70
     0
 62
     7
  6
CONTINUOUS
  0
ENDTAB
  0
TABLE
  2
STYLE
 70
     1
  0
STYLE
  2
STANDARD
 70
     0
 40
0.0
 41
1.0
 50
0.0
 71
     0
 42
180.0
  3
simplex.shx
  4
extfont.shx
  0
ENDTAB
  0
TABLE
  2
VIEW
 70
     0
  0
ENDTAB
  0
TABLE
  2
UCS
 70
     0
  0
ENDTAB
  0
TABLE
  2
APPID
 70
     1
  0
APPID
  2
ACAD
 70
     0
  0
ENDTAB
  0
TABLE
  2
DIMSTYLE
 70
     1
  0
DIMSTYLE
  2
IGA
 70
     0
  3

  4

  5

  6
OPEN
  7
OPEN
 40
2.0
 41
2.0
 42
0.5
 43
10.0
 44
1.0
 45
0.0
 46
0.0
 47
1.0
 48
1.0
140
3.0
141
0.0
142
0.0
143
0.03937
144
1.0
145
0.0
146
10.0
147
1.0
 71
     0
 72
     0
 73
     0
 74
     0
 75
     0
 76
     0
 77
     1
 78
     8
170
     0
171
     2
172
     0
173
     1
174
     0
175
     0
176
     0
177
     0
178
     0
  0
ENDTAB
  0
ENDSEC
  0
SECTION
  2
BLOCKS
  0
BLOCK
  8
0
  2
$MODEL_SPACE
 70
     0
 10
0.0
 20
0.0
 30
0.0
  3
$MODEL_SPACE
  1

  0
ENDBLK
  5
1B
  8
0
  0
BLOCK
 67
     1
  8
0
  2
$PAPER_SPACE
 70
     0
 10
0.0
 20
0.0
 30
0.0
  3
$PAPER_SPACE
  1

  0
ENDBLK
  5
18
 67
     1
  8
0
  0
BLOCK
  8
0
  2
_OPEN
 70
     0
 10
0.0
 20
0.0
 30
0.0
  3
_OPEN
  1

  0
LINE
  5
7B80
  8
0
  6
BYBLOCK
 62
     0
 10
-1.0
 20
0.166667
 30
0.0
 11
0.0
 21
0.0
 31
0.0
  0
LINE
  5
7B81
  8
0
  6
BYBLOCK
 62
     0
 10
0.0
 20
0.0
 30
0.0
 11
-1.0
 21
-0.166667
 31
0.0
  0
LINE
  5
7B82
  8
0
  6
BYBLOCK
 62
     0
 10
0.0
 20
0.0
 30
0.0
 11
-1.0
 21
0.0
 31
0.0
  0
ENDBLK
  5
7B83
  8
0
  0
BLOCK
  8
0
  2
*D1
 70
     1
 10
0.0
 20
0.0
 30
0.0
  3
*D1
  1

  0
LINE
  5
7E5A
  8
3
  6
CONTINUOUS
 62
     0
 10
1721.2086282264561
 20
3379.931775
 30
0.0
 11
1534.9708502264559
 21
3379.931775
 31
0.0
  0
LINE
  5
7E5B
  8
3
  6
CONTINUOUS
 62
     0
 10
1721.2086282264561
 20
2479.931775
 30
0.0
 11
1534.9708502264559
 21
2479.931775
 31
0.0
  0
LINE
  5
7E5C
  8
3
  6
CONTINUOUS
 62
     0
 10
1564.9708502264559
 20
3319.931775
 30
0.0
 11
1564.9708502264559
 21
2539.931775
 31
0.0
  0
INSERT
  5
7E5D
  8
3
  6
CONTINUOUS
 62
     0
  2
_OPEN
 10
1564.9708502264559
 20
3379.931775
 30
0.0
 41
60.0
 42
60.0
 43
60.0
 50
90.0
  0
INSERT
  5
7E5E
  8
3
  6
CONTINUOUS
 62
     0
  2
_OPEN
 10
1564.9708502264559
 20
2479.931775
 30
0.0
 41
60.0
 42
60.0
 43
60.0
 50
270.0
  0
TEXT
  8
3
  40
90
  5
7EE5
  62
0
  72
0
  71
0
 10
1309.97
 20
2738.53
 30
0.000000
  1
900
  0
POINT
  5
7E60
  8
DEFPOINTS
  6
CONTINUOUS
 62
     0
 10
1736.2086282264561
 20
3379.931775
 30
0.0
  0
POINT
  5
7E61
  8
DEFPOINTS
  6
CONTINUOUS
 62
     0
 10
1736.2086282264561
 20
2479.931775
 30
0.0
  0
POINT
  5
7E62
  8
DEFPOINTS
  6
CONTINUOUS
 62
     0
 10
1564.9708502264559
 20
2479.931775
 30
0.0
  0
ENDBLK
  5
7DDD
  8
0
  0
BLOCK
  8
0
  2
*D2
 70
     1
 10
0.0
 20
0.0
 30
0.0
  3
*D2
  1

  0
LINE
  5
7E63
  8
3
  6
CONTINUOUS
 62
     0
 10
1721.2086282264561
 20
2479.931775
 30
0.0
 11
1345.061729226456
 21
2479.931775
 31
0.0
  0
LINE
  5
7E64
  8
3
  6
CONTINUOUS
 62
     0
 10
1651.705277226456
 20
3337.9317749999991
 30
0.0
 11
1345.0617292264569
 21
3337.9317749999991
 31
0.0
  0
LINE
  5
7E65
  8
3
  6
CONTINUOUS
 62
     0
 10
1375.061729226456
 20
2539.931775
 30
0.0
 11
1375.0617292264569
 21
3277.931775
 31
0.0
  0
INSERT
  5
7E66
  8
3
  6
CONTINUOUS
 62
     0
  2
_OPEN
 10
1375.061729226456
 20
2479.931775
 30
0.0
 41
60.0
 42
60.0
 43
60.0
 50
270.0
  0
INSERT
  5
7E67
  8
3
  6
CONTINUOUS
 62
     0
  2
_OPEN
 10
1375.0617292264569
 20
3337.9317749999991
 30
0.0
 41
60.0
 42
60.0
 43
60.0
 50
90.0
  0
TEXT
  8
3
  40
90
  5
7EE6
  62
0
  72
0
  71
0
 10
1120.06
 20
2745.30
 30
0.000000
  1
858
  0
POINT
  5
7E69
  8
DEFPOINTS
  6
CONTINUOUS
 62
     0
 10
1736.2086282264561
 20
2479.931775
 30
0.0
  0
POINT
  5
7E6A
  8
DEFPOINTS
  6
CONTINUOUS
 62
     0
 10
1666.705277226456
 20
3337.9317749999991
 30
0.0
  0
POINT
  5
7E6B
  8
DEFPOINTS
  6
CONTINUOUS
 62
     0
 10
1375.0617292264569
 20
3337.9317749999991
 30
0.0
  0
ENDBLK
  5
7DD2
  8
0
  0
BLOCK
  8
0
  2
*D3
 70
     1
 10
0.0
 20
0.0
 30
0.0
  3
*D3
  1

  0
LINE
  5
7E6C
  8
3
  6
CONTINUOUS
 62
     0
 10
1741.2086282264561
 20
2232.931775
 30
0.0
 11
1741.2086282264561
 21
1952.055094140499
 31
0.0
  0
LINE
  5
7E6D
  8
3
  6
CONTINUOUS
 62
     0
 10
2391.2086282264559
 20
2051.202716140499
 30
0.0
 11
2391.2086282264559
 21
1952.055094140499
 31
0.0
  0
LINE
  5
7E6E
  8
3
  6
CONTINUOUS
 62
     0
 10
1801.2086282264561
 20
1982.055094140499
 30
0.0
 11
2331.2086282264559
 21
1982.055094140499
 31
0.0
  0
INSERT
  5
7E6F
  8
3
  6
CONTINUOUS
 62
     0
  2
_OPEN
 10
1741.2086282264561
 20
1982.055094140499
 30
0.0
 41
60.0
 42
60.0
 43
60.0
 50
180.0
  0
INSERT
  5
7E70
  8
3
  6
CONTINUOUS
 62
     0
  2
_OPEN
 10
2391.2086282264559
 20
1982.055094140499
 30
0.0
 41
60.0
 42
60.0
 43
60.0
  0
TEXT
  8
3
  40
90
  5
7EE7
  62
0
  72
0
  71
0
 10
1899.76
 20
1897.76
 30
0.000000
  1
650
  0
POINT
  5
7E72
  8
DEFPOINTS
  6
CONTINUOUS
 62
     0
 10
1741.2086282264561
 20
2247.931775
 30
0.0
  0
POINT
  5
7E73
  8
DEFPOINTS
  6
CONTINUOUS
 62
     0
 10
2391.2086282264559
 20
2066.202716140499
 30
0.0
  0
POINT
  5
7E74
  8
DEFPOINTS
  6
CONTINUOUS
 62
     0
 10
2391.2086282264559
 20
1982.055094140499
 30
0.0
  0
ENDBLK
  5
7E1D
  8
0
  0
BLOCK
  8
0
  2
*D4
 70
     1
 10
0.0
 20
0.0
 30
0.0
  3
*D4
  1

  0
LINE
  5
7E75
  8
3
  6
CONTINUOUS
 62
     0
 10
3641.2086282264559
 20
2232.931775
 30
0.0
 11
3641.2086282264559
 21
1952.055094140499
 31
0.0
  0
LINE
  5
7E76
  8
3
  6
CONTINUOUS
 62
     0
 10
2451.2086282264559
 20
1982.055094140499
 30
0.0
 11
3581.2086282264549
 21
1982.055094140499
 31
0.0
  0
INSERT
  5
7E77
  8
3
  6
CONTINUOUS
 62
     0
  2
_OPEN
 10
2391.2086282264559
 20
1982.055094140499
 30
0.0
 41
60.0
 42
60.0
 43
60.0
 50
180.0
  0
INSERT
  5
7E78
  8
3
  6
CONTINUOUS
 62
     0
  2
_OPEN
 10
3641.2086282264559
 20
1982.055094140499
 30
0.0
 41
60.0
 42
60.0
 43
60.0
  0
TEXT
  8
3
  40
90
  5
7EE8
  62
0
  72
0
  71
0
 10
2836.21
 20
1897.76
 30
0.000000
  1
1250
  0
POINT
  5
7E7A
  8
DEFPOINTS
  6
CONTINUOUS
 62
     0
 10
2391.2086282264559
 20
2066.202716140499
 30
0.0
  0
POINT
  5
7E7B
  8
DEFPOINTS
  6
CONTINUOUS
 62
     0
 10
3641.2086282264559
 20
2247.931775
 30
0.0
  0
POINT
  5
7E7C
  8
DEFPOINTS
  6
CONTINUOUS
 62
     0
 10
3641.2086282264559
 20
1982.055094140499
 30
0.0
  0
ENDBLK
  5
7E12
  8
0
  0
BLOCK
  8
0
  2
*D5
 70
     1
 10
0.0
 20
0.0
 30
0.0
  3
*D5
  1

  0
LINE
  5
7E7D
  8
3
  6
CONTINUOUS
 62
     0
 10
1736.2086282264561
 20
3437.431775
 30
0.0
 11
1736.2086282264561
 21
4195.3865519999999
 31
0.0
  0
LINE
  5
7E7E
  8
3
  6
CONTINUOUS
 62
     0
 10
2391.2086282264559
 20
4112.2781020000002
 30
0.0
 11
2391.2086282264559
 21
4195.3865519999999
 31
0.0
  0
LINE
  5
7E7F
  8
3
  6
CONTINUOUS
 62
     0
 10
1796.2086282264561
 20
4165.3865519999999
 30
0.0
 11
2331.2086282264559
 21
4165.3865519999999
 31
0.0
  0
INSERT
  5
7E80
  8
3
  6
CONTINUOUS
 62
     0
  2
_OPEN
 10
1736.2086282264561
 20
4165.3865519999999
 30
0.0
 41
60.0
 42
60.0
 43
60.0
 50
180.0
  0
INSERT
  5
7E81
  8
3
  6
CONTINUOUS
 62
     0
  2
_OPEN
 10
2391.2086282264559
 20
4165.3865519999999
 30
0.0
 41
60.0
 42
60.0
 43
60.0
  0
TEXT
  8
3
  40
90
  5
7EE9
  62
0
  72
0
  71
0
 10
1886.20
 20
4081.09
 30
0.000000
  1
655
  0
POINT
  5
7E83
  8
DEFPOINTS
  6
CONTINUOUS
 62
     0
 10
1736.2086282264561
 20
3422.431775
 30
0.0
  0
POINT
  5
7E84
  8
DEFPOINTS
  6
CONTINUOUS
 62
     0
 10
2391.2086282264559
 20
4097.2781020000002
 30
0.0
  0
POINT
  5
7E85
  8
DEFPOINTS
  6
CONTINUOUS
 62
     0
 10
2391.2086282264559
 20
4165.3865519999999
 30
0.0
  0
ENDBLK
  5
7BE9
  8
0
  0
BLOCK
  8
0
  2
*D6
 70
     1
 10
0.0
 20
0.0
 30
0.0
  3
*D6
  1

  0
LINE
  5
7E86
  8
3
  6
CONTINUOUS
 62
     0
 10
4495.1559315411932
 20
3997.7281179999991
 30
0.0
 11
4495.1559315411932
 21
4154.7161749999987
 31
0.0
  0
LINE
  5
7E87
  8
3
  6
CONTINUOUS
 62
     0
 10
5165.1559315411932
 20
3997.7281179999991
 30
0.0
 11
5165.1559315411932
 21
4154.7161749999987
 31
0.0
  0
LINE
  5
7E88
  8
3
  6
CONTINUOUS
 62
     0
 10
4555.1559315411932
 20
4124.7161749999987
 30
0.0
 11
5105.1559315411941
 21
4124.7161749999987
 31
0.0
  0
INSERT
  5
7E89
  8
3
  6
CONTINUOUS
 62
     0
  2
_OPEN
 10
4495.1559315411932
 20
4124.7161749999987
 30
0.0
 41
60.0
 42
60.0
 43
60.0
 50
180.0
  0
INSERT
  5
7E8A
  8
3
  6
CONTINUOUS
 62
     0
  2
_OPEN
 10
5165.1559315411932
 20
4124.7161749999987
 30
0.0
 41
60.0
 42
60.0
 43
60.0
  0
TEXT
  8
3
  40
90
  5
7EEA
  62
0
  72
0
  71
0
 10
4651.61
 20
4040.42
 30
0.000000
  1
670
  0
POINT
  5
7E8C
  8
DEFPOINTS
  6
CONTINUOUS
 62
     0
 10
4495.1559315411932
 20
3982.728118
 30
0.0
  0
POINT
  5
7E8D
  8
DEFPOINTS
  6
CONTINUOUS
 62
     0
 10
5165.1559315411932
 20
3982.728118
 30
0.0
  0
POINT
  5
7E8E
  8
DEFPOINTS
  6
CONTINUOUS
 62
     0
 10
5165.1559315411932
 20
4124.7161749999987
 30
0.0
  0
ENDBLK
  5
7C02
  8
0
  0
BLOCK
  8
0
  2
*D7
 70
     1
 10
0.0
 20
0.0
 30
0.0
  3
*D7
  1

  0
LINE
  5
7E8F
  8
3
  6
CONTINUOUS
 62
     0
 10
5184.1559315411941
 20
3812.931775
 30
0.0
 11
5451.6853185411937
 21
3812.931775
 31
0.0
  0
LINE
  5
7E90
  8
3
  6
CONTINUOUS
 62
     0
 10
5184.1559315411941
 20
2862.931775
 30
0.0
 11
5451.6853185411937
 21
2862.931775
 31
0.0
  0
LINE
  5
7E91
  8
3
  6
CONTINUOUS
 62
     0
 10
5421.6853185411928
 20
3752.931775
 30
0.0
 11
5421.6853185411928
 21
2922.931775
 31
0.0
  0
INSERT
  5
7E92
  8
3
  6
CONTINUOUS
 62
     0
  2
_OPEN
 10
5421.6853185411928
 20
3812.931775
 30
0.0
 41
60.0
 42
60.0
 43
60.0
 50
90.0
  0
INSERT
  5
7E93
  8
3
  6
CONTINUOUS
 62
     0
  2
_OPEN
 10
5421.6853185411928
 20
2862.931775
 30
0.0
 41
60.0
 42
60.0
 43
60.0
 50
270.0
  0
TEXT
  8
3
  40
90
  5
7EEB
  62
0
  72
0
  71
0
 10
5166.69
 20
3179.12
 30
0.000000
  1
φ950
  0
POINT
  5
7E95
  8
DEFPOINTS
  6
CONTINUOUS
 62
     0
 10
5169.1559315411941
 20
3812.931775
 30
0.0
  0
POINT
  5
7E96
  8
DEFPOINTS
  6
CONTINUOUS
 62
     0
 10
5169.1559315411941
 20
2862.931775
 30
0.0
  0
POINT
  5
7E97
  8
DEFPOINTS
  6
CONTINUOUS
 62
     0
 10
5421.6853185411928
 20
2862.931775
 30
0.0
  0
ENDBLK
  5
7D71
  8
0
  0
BLOCK
  8
0
  2
*D8
 70
     1
 10
0.0
 20
0.0
 30
0.0
  3
*D8
  1

  0
LINE
  5
7D5D
  8
0
  6
BYBLOCK
 62
     0
 10
5169.1559315411941
 20
3827.931775
 30
0.0
 11
5169.1559315411941
 21
4364.8464379999996
 31
0.0
  0
LINE
  5
7D5E
  8
0
  6
BYBLOCK
 62
     0
 10
4830.1559315411932
 20
4277.4684509999988
 30
0.0
 11
4830.1559315411932
 21
4364.8464379999996
 31
0.0
  0
LINE
  5
7D5F
  8
0
  6
BYBLOCK
 62
     0
 10
5109.1559315411932
 20
4334.8464379999996
 30
0.0
 11
4890.1559315411932
 21
4334.8464379999996
 31
0.0
  0
TEXT
  5
7D60
  8
3
 62
     0
 10
4886.0845029697648
 20
4375.5671754652503
 30
0.0
 40
90.0
  1
339
  0
INSERT
  5
7D61
  8
0
  6
BYBLOCK
 62
     0
  2
_OPEN
 10
5169.1559315411941
 20
4334.8464379999996
 30
0.0
 41
60.0
 42
60.0
 43
60.0
  0
INSERT
  5
7D62
  8
0
  6
BYBLOCK
 62
     0
  2
_OPEN
 10
4830.1559315411932
 20
4334.8464379999996
 30
0.0
 41
60.0
 42
60.0
 43
60.0
 50
180.0
  0
POINT
  5
7D63
  8
DEFPOINTS
  6
BYBLOCK
 62
     0
 10
5169.1559315411941
 20
3812.931775
 30
0.0
  0
POINT
  5
7D64
  8
DEFPOINTS
  6
BYBLOCK
 62
     0
 10
4830.1559315411932
 20
4262.4684509999997
 30
0.0
  0
POINT
  5
7D65
  8
DEFPOINTS
  6
BYBLOCK
 62
     0
 10
4830.1559315411932
 20
4334.8464379999996
 30
0.0
  0
ENDBLK
  5
7D66
  8
0
  0
BLOCK
  8
0
  2
*D9
 70
     1
 10
0.0
 20
0.0
 30
0.0
  3
*D9
  1

  0
LINE
  5
7E98
  8
3
  6
CONTINUOUS
 62
     0
 10
4220.1559315411932
 20
3792.931775
 30
0.0
 11
4220.1559315411932
 21
4364.8464379999996
 31
0.0
  0
LINE
  5
7E99
  8
3
  6
CONTINUOUS
 62
     0
 10
4770.1559315411932
 20
4334.8464379999996
 30
0.0
 11
4280.1559315411941
 21
4334.8464379999996
 31
0.0
  0
INSERT
  5
7E9A
  8
3
  6
CONTINUOUS
 62
     0
  2
_OPEN
 10
4830.1559315411932
 20
4334.8464379999996
 30
0.0
 41
60.0
 42
60.0
 43
60.0
  0
INSERT
  5
7E9B
  8
3
  6
CONTINUOUS
 62
     0
  2
_OPEN
 10
4220.1559315411932
 20
4334.8464379999996
 30
0.0
 41
60.0
 42
60.0
 43
60.0
 50
180.0
  0
TEXT
  8
3
  40
90
  5
7EEC
  62
0
  72
0
  71
0
 10
4345.16
 20
4325.55
 30
0.000000
  1
MAX
  0
TEXT
  8
3
  40
90
  5
7EED
  62
0
  72
0
  71
0
 10
4345.16
 20
4208.55
 30
0.000000
  1
640
  0
POINT
  5
7E9D
  8
DEFPOINTS
  6
CONTINUOUS
 62
     0
 10
4830.1559315411932
 20
4262.4684509999997
 30
0.0
  0
POINT
  5
7E9E
  8
DEFPOINTS
  6
CONTINUOUS
 62
     0
 10
4220.1559315411932
 20
3777.931775
 30
0.0
  0
POINT
  5
7E9F
  8
DEFPOINTS
  6
CONTINUOUS
 62
     0
 10
4220.1559315411932
 20
4334.8464379999996
 30
0.0
  0
ENDBLK
  5
7D50
  8
0
  0
BLOCK
  8
0
  2
*D10
 70
     1
 10
0.0
 20
0.0
 30
0.0
  3
*D10
  1

  0
LINE
  5
7EA0
  8
3
  6
CONTINUOUS
 62
     0
 10
4361.1559315411932
 20
2232.931775
 30
0.0
 11
4361.1559315411932
 21
1959.405792057207
 31
0.0
  0
LINE
  5
7EA1
  8
3
  6
CONTINUOUS
 62
     0
 10
4830.1559315411932
 20
2089.2274500572071
 30
0.0
 11
4830.1559315411932
 21
1959.405792057207
 31
0.0
  0
LINE
  5
7EA2
  8
3
  6
CONTINUOUS
 62
     0
 10
4421.1559315411932
 20
1989.405792057207
 30
0.0
 11
4770.1559315411932
 21
1989.405792057207
 31
0.0
  0
INSERT
  5
7EA3
  8
3
  6
CONTINUOUS
 62
     0
  2
_OPEN
 10
4361.1559315411932
 20
1989.405792057207
 30
0.0
 41
60.0
 42
60.0
 43
60.0
 50
180.0
  0
INSERT
  5
7EA4
  8
3
  6
CONTINUOUS
 62
     0
  2
_OPEN
 10
4830.1559315411932
 20
1989.405792057207
 30
0.0
 41
60.0
 42
60.0
 43
60.0
  0
TEXT
  8
3
  40
90
  5
7EEE
  62
0
  72
0
  71
0
 10
4384.73
 20
1905.11
 30
0.000000
  1
469
  0
POINT
  5
7EA6
  8
DEFPOINTS
  6
CONTINUOUS
 62
     0
 10
4361.1559315411932
 20
2247.931775
 30
0.0
  0
POINT
  5
7EA7
  8
DEFPOINTS
  6
CONTINUOUS
 62
     0
 10
4830.1559315411932
 20
2104.2274500572071
 30
0.0
  0
POINT
  5
7EA8
  8
DEFPOINTS
  6
CONTINUOUS
 62
     0
 10
4830.1559315411932
 20
1989.405792057207
 30
0.0
  0
ENDBLK
  5
7DFE
  8
0
  0
BLOCK
  8
0
  2
*D11
 70
     1
 10
0.0
 20
0.0
 30
0.0
  3
*D11
  1

  0
LINE
  5
7EA9
  8
3
  6
CONTINUOUS
 62
     0
 10
5281.1559315411932
 20
2232.931775
 30
0.0
 11
5281.1559315411932
 21
1959.405792057207
 31
0.0
  0
LINE
  5
7EAA
  8
3
  6
CONTINUOUS
 62
     0
 10
4890.1559315411932
 20
1989.405792057207
 30
0.0
 11
5221.1559315411932
 21
1989.405792057207
 31
0.0
  0
INSERT
  5
7EAB
  8
3
  6
CONTINUOUS
 62
     0
  2
_OPEN
 10
4830.1559315411932
 20
1989.405792057207
 30
0.0
 41
60.0
 42
60.0
 43
60.0
 50
180.0
  0
INSERT
  5
7EAC
  8
3
  6
CONTINUOUS
 62
     0
  2
_OPEN
 10
5281.1559315411932
 20
1989.405792057207
 30
0.0
 41
60.0
 42
60.0
 43
60.0
  0
TEXT
  8
3
  40
90
  5
7EEF
  62
0
  72
0
  71
0
 10
4875.66
 20
1905.11
 30
0.000000
  1
451
  0
POINT
  5
7EAE
  8
DEFPOINTS
  6
CONTINUOUS
 62
     0
 10
4830.1559315411932
 20
2104.2274500572071
 30
0.0
  0
POINT
  5
7EAF
  8
DEFPOINTS
  6
CONTINUOUS
 62
     0
 10
5281.1559315411932
 20
2247.931775
 30
0.0
  0
POINT
  5
7EB0
  8
DEFPOINTS
  6
CONTINUOUS
 62
     0
 10
5281.1559315411932
 20
1989.405792057207
 30
0.0
  0
ENDBLK
  5
7E08
  8
0
  0
BLOCK
  8
0
  2
*D12
 70
     1
 10
0.0
 20
0.0
 30
0.0
  3
*D12
  1

  0
LINE
  5
7EB1
  8
3
  6
CONTINUOUS
 62
     0
 10
1741.2086282264561
 20
6284.6918150000001
 30
0.0
 11
1741.2086282264561
 21
6543.1024029999999
 31
0.0
  0
LINE
  5
7EB2
  8
3
  6
CONTINUOUS
 62
     0
 10
3641.2086282264559
 20
6284.6918150000001
 30
0.0
 11
3641.2086282264559
 21
6543.1024029999999
 31
0.0
  0
LINE
  5
7EB3
  8
3
  6
CONTINUOUS
 62
     0
 10
1801.2086282264561
 20
6513.1024030000008
 30
0.0
 11
3581.2086282264549
 21
6513.1024030000008
 31
0.0
  0
INSERT
  5
7EB4
  8
3
  6
CONTINUOUS
 62
     0
  2
_OPEN
 10
1741.2086282264561
 20
6513.1024030000008
 30
0.0
 41
60.0
 42
60.0
 43
60.0
 50
180.0
  0
INSERT
  5
7EB5
  8
3
  6
CONTINUOUS
 62
     0
  2
_OPEN
 10
3641.2086282264559
 20
6513.1024030000008
 30
0.0
 41
60.0
 42
60.0
 43
60.0
  0
TEXT
  8
3
  40
90
  5
7EF0
  62
0
  72
0
  71
0
 10
2462.71
 20
6428.80
 30
0.000000
  1
1900
  0
POINT
  5
7EB7
  8
DEFPOINTS
  6
CONTINUOUS
 62
     0
 10
1741.2086282264561
 20
6269.6918150000001
 30
0.0
  0
POINT
  5
7EB8
  8
DEFPOINTS
  6
CONTINUOUS
 62
     0
 10
3641.2086282264559
 20
6269.6918150000001
 30
0.0
  0
POINT
  5
7EB9
  8
DEFPOINTS
  6
CONTINUOUS
 62
     0
 10
3641.2086282264559
 20
6513.1024030000008
 30
0.0
  0
ENDBLK
  5
7D3C
  8
0
  0
BLOCK
  8
0
  2
*D13
 70
     1
 10
0.0
 20
0.0
 30
0.0
  3
*D13
  1

  0
LINE
  5
7EBA
  8
3
  6
CONTINUOUS
 62
     0
 10
3656.2086282264559
 20
6269.6918150000001
 30
0.0
 11
3934.2455592264569
 21
6269.6918150000001
 31
0.0
  0
LINE
  5
7EBB
  8
3
  6
CONTINUOUS
 62
     0
 10
3656.2086282264559
 20
5349.6918149999992
 30
0.0
 11
3934.2455592264569
 21
5349.6918149999992
 31
0.0
  0
LINE
  5
7EBC
  8
3
  6
CONTINUOUS
 62
     0
 10
3904.2455592264569
 20
6209.6918150000001
 30
0.0
 11
3904.2455592264569
 21
5409.6918150000001
 31
0.0
  0
INSERT
  5
7EBD
  8
3
  6
CONTINUOUS
 62
     0
  2
_OPEN
 10
3904.2455592264569
 20
6269.6918150000001
 30
0.0
 41
60.0
 42
60.0
 43
60.0
 50
90.0
  0
INSERT
  5
7EBE
  8
3
  6
CONTINUOUS
 62
     0
  2
_OPEN
 10
3904.2455592264569
 20
5349.6918149999992
 30
0.0
 41
60.0
 42
60.0
 43
60.0
 50
270.0
  0
TEXT
  8
3
  40
90
  5
7EF1
  62
0
  72
0
  71
0
 10
3649.25
 20
5657.45
 30
0.000000
  1
920
  0
POINT
  5
7EC0
  8
DEFPOINTS
  6
CONTINUOUS
 62
     0
 10
3641.2086282264559
 20
6269.6918150000001
 30
0.0
  0
POINT
  5
7EC1
  8
DEFPOINTS
  6
CONTINUOUS
 62
     0
 10
3641.2086282264559
 20
5349.6918149999992
 30
0.0
  0
POINT
  5
7EC2
  8
DEFPOINTS
  6
CONTINUOUS
 62
     0
 10
3904.2455592264569
 20
5349.6918149999992
 30
0.0
  0
ENDBLK
  5
7C77
  8
0
  0
BLOCK
  8
0
  2
*D14
 70
     1
 10
0.0
 20
0.0
 30
0.0
  3
*D14
  1

  0
LINE
  5
7EC3
  8
3
  6
CONTINUOUS
 62
     0
 10
3134.2086292264562
 20
3352.931775
 30
0.0
 11
3134.2086292264562
 21
4195.3865519999999
 31
0.0
  0
LINE
  5
7EC4
  8
3
  6
CONTINUOUS
 62
     0
 10
2451.2086282264559
 20
4165.3865519999999
 30
0.0
 11
3074.2086292264562
 21
4165.3865519999999
 31
0.0
  0
INSERT
  5
7EC5
  8
3
  6
CONTINUOUS
 62
     0
  2
_OPEN
 10
2391.2086282264559
 20
4165.3865519999999
 30
0.0
 41
60.0
 42
60.0
 43
60.0
 50
180.0
  0
INSERT
  5
7EC6
  8
3
  6
CONTINUOUS
 62
     0
  2
_OPEN
 10
3134.2086292264562
 20
4165.3865519999999
 30
0.0
 41
60.0
 42
60.0
 43
60.0
  0
TEXT
  8
3
  40
90
  5
7EF2
  62
0
  72
0
  71
0
 10
2582.71
 20
4081.09
 30
0.000000
  1
743
  0
POINT
  5
7EC8
  8
DEFPOINTS
  6
CONTINUOUS
 62
     0
 10
2391.2086282264559
 20
4097.2781020000002
 30
0.0
  0
POINT
  5
7EC9
  8
DEFPOINTS
  6
CONTINUOUS
 62
     0
 10
3134.2086292264562
 20
3337.9317749999991
 30
0.0
  0
POINT
  5
7ECA
  8
DEFPOINTS
  6
CONTINUOUS
 62
     0
 10
3134.2086292264562
 20
4165.3865519999999
 30
0.0
  0
ENDBLK
  5
7CC7
  8
0
  0
BLOCK
  8
0
  2
*D15
 70
     1
 10
0.0
 20
0.0
 30
0.0
  3
*D15
  1

  0
LINE
  5
7ECB
  8
3
  6
CONTINUOUS
 62
     0
 10
2376.2086282264572
 20
3980.9267180638822
 30
0.0
 11
1142.045210226456
 21
3980.9267180638822
 31
0.0
  0
LINE
  5
7ECC
  8
3
  6
CONTINUOUS
 62
     0
 10
1636.705277226456
 20
3337.9317749999991
 30
0.0
 11
1142.045210226456
 21
3337.9317749999991
 31
0.0
  0
LINE
  5
7ECD
  8
3
  6
CONTINUOUS
 62
     0
 10
1172.0452102264569
 20
3920.9267180638822
 30
0.0
 11
1172.045210226456
 21
3397.9317749999991
 31
0.0
  0
INSERT
  5
7ECE
  8
3
  6
CONTINUOUS
 62
     0
  2
_OPEN
 10
1172.0452102264569
 20
3980.9267180638822
 30
0.0
 41
60.0
 42
60.0
 43
60.0
 50
90.0
  0
INSERT
  5
7ECF
  8
3
  6
CONTINUOUS
 62
     0
  2
_OPEN
 10
1172.045210226456
 20
3337.9317749999991
 30
0.0
 41
60.0
 42
60.0
 43
60.0
 50
270.0
  0
TEXT
  8
3
  40
90
  5
7EF3
  62
0
  72
0
  71
0
 10
917.045
 20
3516.72
 30
0.000000
  1
643
  0
POINT
  5
7ED1
  8
DEFPOINTS
  6
CONTINUOUS
 62
     0
 10
2391.2086282264559
 20
3980.9267180638822
 30
0.0
  0
POINT
  5
7ED2
  8
DEFPOINTS
  6
CONTINUOUS
 62
     0
 10
1651.705277226456
 20
3337.9317749999991
 30
0.0
  0
POINT
  5
7ED3
  8
DEFPOINTS
  6
CONTINUOUS
 62
     0
 10
1172.045210226456
 20
3337.9317749999991
 30
0.0
  0
ENDBLK
  5
7DA1
  8
0
  0
BLOCK
  8
0
  2
*D16
 70
     1
 10
0.0
 20
0.0
 30
0.0
  3
*D16
  1

  0
LINE
  5
7ED4
  8
3
  6
CONTINUOUS
 62
     0
 10
1726.2086282264561
 20
2247.931775
 30
0.0
 11
1142.045210226456
 21
2247.931775
 31
0.0
  0
LINE
  5
7ED5
  8
3
  6
CONTINUOUS
 62
     0
 10
1172.045210226456
 20
3277.931775
 30
0.0
 11
1172.045210226456
 21
2307.931775
 31
0.0
  0
INSERT
  5
7ED6
  8
3
  6
CONTINUOUS
 62
     0
  2
_OPEN
 10
1172.045210226456
 20
3337.9317749999991
 30
0.0
 41
60.0
 42
60.0
 43
60.0
 50
90.0
  0
INSERT
  5
7ED7
  8
3
  6
CONTINUOUS
 62
     0
  2
_OPEN
 10
1172.045210226456
 20
2247.931775
 30
0.0
 41
60.0
 42
60.0
 43
60.0
 50
270.0
  0
TEXT
  8
3
  40
90
  5
7EF4
  62
0
  72
0
  71
0
 10
917.045
 20
2633.63
 30
0.000000
  1
1090
  0
POINT
  5
7ED9
  8
DEFPOINTS
  6
CONTINUOUS
 62
     0
 10
1651.705277226456
 20
3337.9317749999991
 30
0.0
  0
POINT
  5
7EDA
  8
DEFPOINTS
  6
CONTINUOUS
 62
     0
 10
1741.2086282264561
 20
2247.931775
 30
0.0
  0
POINT
  5
7EDB
  8
DEFPOINTS
  6
CONTINUOUS
 62
     0
 10
1172.045210226456
 20
2247.931775
 30
0.0
  0
ENDBLK
  5
7DC7
  8
0
  0
BLOCK
  8
0
  2
*D17
 70
     1
 10
0.0
 20
0.0
 30
0.0
  3
*D17
  1

  0
LINE
  5
7EDC
  8
3
 62
     0
 10
1736.2086282264561
 20
3437.431775
 30
0.0
 11
1736.2086282264561
 21
4370.5069200373
 31
0.0
  0
LINE
  5
7EDD
  8
3
 62
     0
 10
3641.2086282264559
 20
2362.931775
 30
0.0
 11
3641.2086282264559
 21
4370.5069200373
 31
0.0
  0
LINE
  5
7EDE
  8
3
 62
     0
 10
1796.2086282264561
 20
4340.5069200373
 30
0.0
 11
3581.2086282264549
 21
4340.5069200373
 31
0.0
  0
INSERT
  5
7EDF
  8
3
 62
     0
  2
_OPEN
 10
1736.2086282264561
 20
4340.5069200373
 30
0.0
 41
60.0
 42
60.0
 43
60.0
 50
180.0
  0
INSERT
  5
7EE0
  8
3
 62
     0
  2
_OPEN
 10
3641.2086282264559
 20
4340.5069200373
 30
0.0
 41
60.0
 42
60.0
 43
60.0
  0
TEXT
  8
3
  40
90
  5
7EF5
  62
0
  72
0
  71
0
 10
2423.28
 20
4256.21
 30
0.000000
  1
1905
  0
POINT
  5
7EE2
  8
DEFPOINTS
 62
     0
 10
1736.2086282264561
 20
3422.431775
 30
0.0
  0
POINT
  5
7EE3
  8
DEFPOINTS
 62
     0
 10
3641.2086282264559
 20
2347.931775
 30
0.0
  0
POINT
  5
7EE4
  8
DEFPOINTS
 62
     0
 10
3641.2086282264559
 20
4340.5069200373
 30
0.0
  0
ENDBLK
  5
7DB2
  8
0
  0
ENDSEC
  0
SECTION
  2
ENTITIES
  0
LINE
  5
7AAF
  8
1
  6
CONTINUOUS
 10
1741.2086282264561
 20
2347.931775
 30
0.0
 11
3641.2086282264559
 21
2347.931775
 31
0.0
  0
LINE
  5
7AB0
  8
1
  6
CONTINUOUS
 10
1741.2086282264561
 20
2247.931775
 30
0.0
 11
3641.2086282264559
 21
2247.931775
 31
0.0
  0
ARC
  5
7AB1
  8
1
  6
CONTINUOUS
 10
3371.2086282264559
 20
2597.931775
 30
0.0
 40
162.0
 50
324.972283
 51
215.02771699999991
  0
LINE
  5
7AB2
  8
1
  6
CONTINUOUS
 10
3551.2086282264559
 20
2712.931775
 30
0.0
 11
2571.2086282264559
 21
3777.931775
 31
0.0
  0
POLYLINE
  5
7AB3
  8
1
  6
CONTINUOUS
 66
     1
 10
0.0
 20
0.0
 30
0.0
  0
VERTEX
  5
7E54
  8
1
  6
CONTINUOUS
 10
1736.2086282264561
 20
2454.931775
 30
0.0
  0
VERTEX
  5
7E55
  8
1
  6
CONTINUOUS
 10
2391.2086282264559
 20
2476.931775
 30
0.0
 42
0.4168370000000001
  0
VERTEX
  5
7E56
  8
1
  6
CONTINUOUS
 10
3133.6485872264561
 20
3345.1057169999999
 30
0.0
 42
0.429867
  0
VERTEX
  5
7E57
  8
1
  6
CONTINUOUS
 10
2347.3324672264562
 20
3976.3569520000001
 30
0.0
 42
0.373172
  0
VERTEX
  5
7E58
  8
1
  6
CONTINUOUS
 10
1823.239900226456
 20
3379.931775
 30
0.0
 42
0.34598
  0
SEQEND
  5
7E59
  8
1
  6
CONTINUOUS
  0
CIRCLE
  5
7ABD
  8
1
  6
CONTINUOUS
 10
2391.2086282264559
 20
3337.9317749999991
 30
0.0
 40
254.0
  0
LINE
  5
7ABE
  8
2
  6
CENTER
 10
5238.5587005411944
 20
3337.9317749999991
 30
0.0
 11
4162.3862055411919
 21
3337.9317749999991
 31
0.0
  0
LINE
  5
7ABF
  8
1
  6
CONTINUOUS
 10
1911.2086282264561
 20
3777.931775
 30
0.0
 11
2571.2086282264559
 21
3777.931775
 31
0.0
  0
LINE
  5
7AC1
  8
1
  6
CONTINUOUS
 10
1736.2086282264561
 20
3422.431775
 30
0.0
 11
1736.2086282264561
 21
2412.4317749999991
 31
0.0
  0
LINE
  5
7AC2
  8
1
  6
CONTINUOUS
 10
1776.2086282264561
 20
3379.931775
 30
0.0
 11
1776.2086282264561
 21
2456.2752860000001
 31
0.0
  0
LINE
  5
7AC4
  8
1
  6
CONTINUOUS
 10
1911.2086282264561
 20
2347.931775
 30
0.0
 11
1911.2086282264561
 21
3777.931775
 31
0.0
  0
LINE
  5
7AC5
  8
1
  6
CONTINUOUS
 10
1741.2086282264561
 20
2347.931775
 30
0.0
 11
1741.2086282264561
 21
2247.931775
 31
0.0
  0
LINE
  5
7AC6
  8
1
  6
CONTINUOUS
 10
1823.239900226456
 20
3379.931775
 30
0.0
 11
1736.2086282264561
 21
3379.931775
 31
0.0
  0
LINE
  5
7AC8
  8
2
  6
CENTER
 10
2391.2086282264559
 20
2081.202716140499
 30
0.0
 11
2391.2086282264559
 21
4097.2781020000002
 31
0.0
  0
LINE
  5
7ACA
  8
1
  6
CONTINUOUS
 10
3238.5509622264558
 20
2504.9482079999998
 30
0.0
 11
3183.7086282264559
 21
2437.931775
 31
0.0
  0
LINE
  5
7ACB
  8
1
  6
CONTINUOUS
 10
3173.7086282264559
 20
2387.931775
 30
0.0
 11
3173.7086282264559
 21
2347.931775
 31
0.0
  0
LINE
  5
7ACC
  8
1
  6
CONTINUOUS
 10
3173.7086282264559
 20
2387.931775
 30
0.0
 11
3183.7086282264559
 21
2437.931775
 31
0.0
  0
CIRCLE
  5
7ACD
  8
1
  6
CONTINUOUS
 10
3371.2086282264559
 20
2597.931775
 30
0.0
 40
75.0
  0
LINE
  5
7ACE
  8
2
  6
CENTER
 10
3371.2086282264559
 20
2517.931775
 30
0.0
 11
3371.2086282264559
 21
2677.931775
 31
0.0
  0
LINE
  5
7ACF
  8
2
  6
CENTER
 10
3451.2086282264559
 20
2597.931775
 30
0.0
 11
3291.2086282264559
 21
2597.931775
 31
0.0
  0
LINE
  5
7AE0
  8
1
  6
CONTINUOUS
 10
3558.7086282264549
 20
2437.931775
 30
0.0
 11
3503.866293226456
 21
2504.9482079999998
 31
0.0
  0
LINE
  5
7AE1
  8
1
  6
CONTINUOUS
 10
3551.2086282264559
 20
2347.931775
 30
0.0
 11
3551.2086282264559
 21
2712.931775
 31
0.0
  0
LINE
  5
7AE2
  8
1
  6
CONTINUOUS
 10
3641.2086282264559
 20
2347.931775
 30
0.0
 11
3641.2086282264559
 21
2247.931775
 31
0.0
  0
LINE
  5
7AE3
  8
1
  6
CONTINUOUS
 10
3568.7086282264559
 20
2387.931775
 30
0.0
 11
3568.7086282264559
 21
2347.931775
 31
0.0
  0
LINE
  5
7AE4
  8
1
  6
CONTINUOUS
 10
3558.7086282264549
 20
2437.931775
 30
0.0
 11
3568.7086282264559
 21
2387.931775
 31
0.0
  0
LINE
  5
7AF5
  8
1
  6
CONTINUOUS
 10
4495.1559315411932
 20
2454.931775
 30
0.0
 11
5165.1559315411932
 21
2454.931775
 31
0.0
  0
LINE
  5
7AF6
  8
1
  6
CONTINUOUS
 10
4495.1559315411932
 20
3379.931775
 30
0.0
 11
5165.1559315411932
 21
3379.931775
 31
0.0
  0
LINE
  5
7AF7
  8
1
  6
CONTINUOUS
 10
4495.1559315411932
 20
3982.728118
 30
0.0
 11
5165.1559315411932
 21
3982.728118
 31
0.0
  0
LINE
  5
7AF8
  8
1
  6
CONTINUOUS
 10
4361.1559315411932
 20
2347.931775
 30
0.0
 11
5281.1559315411932
 21
2347.931775
 31
0.0
  0
LINE
  5
7AF9
  8
1
  6
CONTINUOUS
 10
4495.1559315411932
 20
3379.931775
 30
0.0
 11
5165.1559315411932
 21
2454.931775
 31
0.0
  0
LINE
  5
7AFA
  8
1
  6
CONTINUOUS
 10
4495.1559315411932
 20
2454.931775
 30
0.0
 11
5165.1559315411932
 21
3379.931775
 31
0.0
  0
LINE
  5
7AFB
  8
1
  6
CONTINUOUS
 10
4361.1559315411932
 20
2247.931775
 30
0.0
 11
5281.1559315411932
 21
2247.931775
 31
0.0
  0
LINE
  5
7AFC
  8
1
  6
CONTINUOUS
 10
4442.1559315411932
 20
3777.931775
 30
0.0
 11
4442.1559315411932
 21
2347.931775
 31
0.0
  0
LINE
  5
7AFD
  8
1
  6
CONTINUOUS
 10
4220.1559315411932
 20
3777.931775
 30
0.0
 11
4220.1559315411932
 21
2347.931775
 31
0.0
  0
LINE
  5
7AFE
  8
1
  6
CONTINUOUS
 10
4409.1559315411932
 20
3591.9317749999991
 30
0.0
 11
4409.1559315411932
 21
3083.9317749999991
 31
0.0
  0
LINE
  5
7B00
  8
1
  6
CONTINUOUS
 10
4305.1559315411932
 20
3591.9317749999991
 30
0.0
 11
4305.1559315411932
 21
3083.9317749999991
 31
0.0
  0
LINE
  5
7B01
  8
1
  6
CONTINUOUS
 10
4495.1559315411932
 20
3982.728118
 30
0.0
 11
4495.1559315411932
 21
2347.931775
 31
0.0
  0
LINE
  5
7B06
  8
1
  6
CONTINUOUS
 10
4220.1559315411932
 20
2347.931775
 30
0.0
 11
4361.1559315411932
 21
2347.931775
 31
0.0
  0
LINE
  5
7B07
  8
1
  6
CONTINUOUS
 10
4361.1559315411932
 20
2347.931775
 30
0.0
 11
4361.1559315411932
 21
2247.931775
 31
0.0
  0
LINE
  5
7B08
  8
1
  6
CONTINUOUS
 10
4409.1559315411932
 20
2672.931775
 30
0.0
 11
4409.1559315411932
 21
2522.9317749999991
 31
0.0
  0
LINE
  5
7B09
  8
1
  6
CONTINUOUS
 10
4305.1559315411932
 20
2672.931775
 30
0.0
 11
4305.1559315411932
 21
2522.9317749999991
 31
0.0
  0
LINE
  5
7B0A
  8
1
  6
CONTINUOUS
 10
4409.1559315411932
 20
2576.931775
 30
0.0
 11
4495.1559315411932
 21
2576.931775
 31
0.0
  0
LINE
  5
7B0B
  8
1
  6
CONTINUOUS
 10
4409.1559315411932
 20
2618.931775
 30
0.0
 11
4495.1559315411932
 21
2618.931775
 31
0.0
  0
LINE
  5
7B0C
  8
1
  6
CONTINUOUS
 10
4305.1559315411932
 20
2522.9317749999991
 30
0.0
 11
4409.1559315411932
 21
2522.9317749999991
 31
0.0
  0
LINE
  5
7B0D
  8
1
  6
CONTINUOUS
 10
4305.1559315411932
 20
2672.931775
 30
0.0
 11
4409.1559315411932
 21
2672.931775
 31
0.0
  0
LINE
  5
7B0E
  8
1
  6
CONTINUOUS
 10
4305.1559315411932
 20
3083.9317749999991
 30
0.0
 11
4409.1559315411932
 21
3083.9317749999991
 31
0.0
  0
LINE
  5
7B10
  8
1
  6
CONTINUOUS
 10
4220.1559315411932
 20
3777.931775
 30
0.0
 11
4442.1559315411932
 21
3777.931775
 31
0.0
  0
LINE
  5
7B11
  8
1
  6
CONTINUOUS
 10
4409.1559315411932
 20
3312.931775
 30
0.0
 11
4495.1559315411932
 21
3312.931775
 31
0.0
  0
LINE
  5
7B12
  8
1
  6
CONTINUOUS
 10
4409.1559315411932
 20
3362.9317749999991
 30
0.0
 11
4495.1559315411932
 21
3362.9317749999991
 31
0.0
  0
LINE
  5
7B13
  8
1
  6
CONTINUOUS
 10
4305.1559315411932
 20
3591.9317749999991
 30
0.0
 11
4409.1559315411932
 21
3591.9317749999991
 31
0.0
  0
LINE
  5
7B14
  8
1
  6
CONTINUOUS
 10
5165.1559315411932
 20
3982.728118
 30
0.0
 11
5165.1559315411932
 21
2347.931775
 31
0.0
  0
LINE
  5
7B15
  8
1
  6
CONTINUOUS
 10
5281.1559315411932
 20
2347.931775
 30
0.0
 11
5281.1559315411932
 21
2247.931775
 31
0.0
  0
LINE
  5
7B16
  8
1
  6
CONTINUOUS
 10
3446.2086282264559
 20
5349.6918149999992
 30
0.0
 11
3641.2086282264559
 21
5349.6918149999992
 31
0.0
  0
LINE
  5
7B17
  8
1
  6
CONTINUOUS
 10
3533.2086282264559
 20
5441.6918150000001
 30
0.0
 11
3209.2086282264559
 21
5441.6918150000001
 31
0.0
  0
LINE
  5
7B18
  8
1
  6
CONTINUOUS
 10
3533.2086282264559
 20
5926.6918150000001
 30
0.0
 11
3209.2086282264559
 21
5926.6918150000001
 31
0.0
  0
LINE
  5
7B19
  8
1
  6
CONTINUOUS
 10
3551.2086282264559
 20
5430.6918150000001
 30
0.0
 11
1911.2086282264561
 21
5430.6918150000001
 31
0.0
  0
LINE
  5
7B1A
  8
1
  6
CONTINUOUS
 10
3551.2086282264559
 20
5260.691815000001
 30
0.0
 11
1911.2086282264561
 21
5260.691815000001
 31
0.0
  0
LINE
  5
7B1B
  8
1
  6
CONTINUOUS
 10
1741.2086282264561
 20
6269.6918150000001
 30
0.0
 11
3641.2086282264559
 21
6269.6918150000001
 31
0.0
  0
LINE
  5
7B1C
  8
1
  6
CONTINUOUS
 10
1736.2086282264561
 20
6153.691815000001
 30
0.0
 11
3136.3758992264561
 21
6153.691815000001
 31
0.0
  0
LINE
  5
7B1D
  8
1
  6
CONTINUOUS
 10
1736.2086282264561
 20
5483.6918150000001
 30
0.0
 11
3136.3758992264561
 21
5483.6918150000001
 31
0.0
  0
LINE
  5
7B1E
  8
1
  6
CONTINUOUS
 10
2645.2086282264559
 20
5397.6918150000001
 30
0.0
 11
2137.2086282264559
 21
5397.6918150000001
 31
0.0
  0
LINE
  5
7B1F
  8
1
  6
CONTINUOUS
 10
2645.2086282264559
 20
5293.6918150000001
 30
0.0
 11
2137.2086282264559
 21
5293.6918150000001
 31
0.0
  0
LINE
  5
7B20
  8
1
  6
CONTINUOUS
 10
1741.2086282264561
 20
6153.691815000001
 30
0.0
 11
1741.2086282264561
 21
6269.6918150000001
 31
0.0
  0
LINE
  5
7B21
  8
1
  6
CONTINUOUS
 10
1736.2086282264561
 20
5441.6918150000001
 30
0.0
 11
1736.2086282264561
 21
6195.6918149999992
 31
0.0
  0
LINE
  5
7B22
  8
1
  6
CONTINUOUS
 10
1776.2086282264561
 20
5483.6918150000001
 30
0.0
 11
1776.2086282264561
 21
6153.691815000001
 31
0.0
  0
LINE
  5
7B23
  8
1
  6
CONTINUOUS
 10
1741.2086282264561
 20
5349.6918149999992
 30
0.0
 11
2137.2086282264559
 21
5349.6918149999992
 31
0.0
  0
LINE
  5
7B24
  8
1
  6
CONTINUOUS
 10
1741.2086282264561
 20
5349.6918149999992
 30
0.0
 11
1741.2086282264561
 21
5483.6918150000001
 31
0.0
  0
LINE
  5
7B25
  8
1
  6
CONTINUOUS
 10
1911.2086282264561
 20
5260.691815000001
 30
0.0
 11
1911.2086282264561
 21
5430.6918150000001
 31
0.0
  0
LINE
  5
7B26
  8
1
  6
CONTINUOUS
 10
2137.2086282264559
 20
5293.6918150000001
 30
0.0
 11
2137.2086282264559
 21
5397.6918150000001
 31
0.0
  0
LINE
  5
7B27
  8
1
  6
CONTINUOUS
 10
2645.2086282264559
 20
5349.6918149999992
 30
0.0
 11
3296.2086282264559
 21
5349.6918149999992
 31
0.0
  0
LINE
  5
7B28
  8
1
  6
CONTINUOUS
 10
2366.2086282264559
 20
5397.6918150000001
 30
0.0
 11
2366.2086282264559
 21
5483.6918150000001
 31
0.0
  0
LINE
  5
7B29
  8
1
  6
CONTINUOUS
 10
2416.2086282264559
 20
5397.6918150000001
 30
0.0
 11
2416.2086282264559
 21
5483.6918150000001
 31
0.0
  0
LINE
  5
7B2A
  8
1
  6
CONTINUOUS
 10
2645.2086282264559
 20
5293.6918150000001
 30
0.0
 11
2645.2086282264559
 21
5397.6918150000001
 31
0.0
  0
LINE
  5
7B2B
  8
1
  6
CONTINUOUS
 10
3136.3758992264561
 20
5483.6918150000001
 30
0.0
 11
3136.3758992264561
 21
6153.691815000001
 31
0.0
  0
LINE
  5
7B2C
  8
1
  6
CONTINUOUS
 10
3209.2086282264559
 20
5441.6918150000001
 30
0.0
 11
3209.2086282264559
 21
5926.6918150000001
 31
0.0
  0
LINE
  5
7B2D
  8
1
  6
CONTINUOUS
 10
3446.2086282264559
 20
5397.6918150000001
 30
0.0
 11
3296.2086282264559
 21
5397.6918150000001
 31
0.0
  0
LINE
  5
7B2E
  8
1
  6
CONTINUOUS
 10
3446.2086282264559
 20
5293.6918150000001
 30
0.0
 11
3296.2086282264559
 21
5293.6918150000001
 31
0.0
  0
LINE
  5
7B2F
  8
1
  6
CONTINUOUS
 10
3350.2086282264559
 20
5397.6918150000001
 30
0.0
 11
3350.2086282264559
 21
5441.6918150000001
 31
0.0
  0
LINE
  5
7B30
  8
1
  6
CONTINUOUS
 10
3392.2086282264559
 20
5397.6918150000001
 30
0.0
 11
3392.2086282264559
 21
5441.6918150000001
 31
0.0
  0
LINE
  5
7B31
  8
1
  6
CONTINUOUS
 10
3296.2086282264559
 20
5293.6918150000001
 30
0.0
 11
3296.2086282264559
 21
5397.6918150000001
 31
0.0
  0
LINE
  5
7B32
  8
1
  6
CONTINUOUS
 10
3446.2086282264559
 20
5293.6918150000001
 30
0.0
 11
3446.2086282264559
 21
5397.6918150000001
 31
0.0
  0
LINE
  5
7B3A
  8
1
  6
CONTINUOUS
 10
3641.2086282264559
 20
5349.6918149999992
 30
0.0
 11
3641.2086282264559
 21
6269.6918150000001
 31
0.0
  0
LINE
  5
7B3C
  8
1
  6
CONTINUOUS
 10
3533.2086282264559
 20
5441.6918150000001
 30
0.0
 11
3533.2086282264559
 21
5926.6918150000001
 31
0.0
  0
LINE
  5
7B3D
  8
1
  6
CONTINUOUS
 10
3551.2086282264559
 20
5260.691815000001
 30
0.0
 11
3551.2086282264559
 21
5430.6918150000001
 31
0.0
  0
LINE
  5
7B5B
  8
2
  6
CENTER
 10
3752.4832662264562
 20
5818.691815000001
 30
0.0
 11
1603.8244772264561
 21
5818.691815000001
 31
0.0
  0
LINE
  5
7B5C
  8
2
  6
CENTER
 10
4830.1559315411932
 20
4135.1794939999991
 30
0.0
 11
4830.1559315411932
 21
2119.2274500572071
 31
0.0
  0
LINE
  5
7B5D
  8
2
  6
CENTER
 10
2391.2086282264559
 20
5171.6266939999996
 30
0.0
 11
2391.2086282264559
 21
6389.4185470000002
 31
0.0
  0
LINE
  5
7B5E
  8
2
  6
CENTER
 10
3315.233846226457
 20
3337.9317749999991
 30
0.0
 11
1666.705277226456
 21
3337.9317749999991
 31
0.0
  0
LINE
  5
7B5F
  8
4
  6
CONTINUOUS
 10
5550.0
 20
1500.0
 30
0.0
 11
5550.0
 21
900.0
 31
0.0
  0
LINE
  5
7B60
  8
4
  6
CONTINUOUS
 10
3450.0
 20
1500.0
 30
0.0
 11
3450.0
 21
900.0
 31
0.0
  0
LINE
  5
7B61
  8
4
  6
CONTINUOUS
 10
1950.0
 20
1500.0
 30
0.0
 11
1950.0
 21
900.0
 31
0.0
  0
LINE
  5
7B64
  8
4
  6
CONTINUOUS
 10
1950.0
 20
900.0
 30
0.0
 11
5550.0
 21
900.0
 31
0.0
  0
LINE
  5
7B65
  8
4
  6
CONTINUOUS
 10
1950.0
 20
1200.0
 30
0.0
 11
5550.0
 21
1200.0
 31
0.0
  0
TEXT
  5
7B66
  8
4
  6
CONTINUOUS
 10
2065.5062399999988
 20
1294.6290899999999
 30
0.0
 40
150.0
  1
機器名称
  0
TEXT
  5
7B67
  8
4
  6
CONTINUOUS
 10
2058.7743300000002
 20
964.9354800000001
 30
0.0
 40
150.0
  1
機器型番
  0
TEXT
  5
7B68
  8
4
  6
CONTINUOUS
 10
3533.0362500000001
 20
1267.71531
 30
0.0
 40
150.0
  1
ミツヤ多翼送風機
  0
TEXT
  5
7B69
  8
4
  6
CONTINUOUS
 10
3559.9634999999998
 20
951.47874000000013
 30
0.0
 40
150.0
  1
MF#5 1/2-4
  0
TEXT
  5
7B6B
  8
4
  6
CONTINUOUS
 10
2517.0708
 20
7150.2865199999997
 30
0.0
 40
162.0
  1
天井吊ベット
  0
TEXT
  5
7B6C
  8
4
  6
CONTINUOUS
 10
948.50276999999994
 20
7601.6429400000006
 30
0.0
 40
216.0
  1
ベルト駆動式片吸込両持多翼ファン
  0
LINE
  5
7B6D
  8
4
  6
CONTINUOUS
 10
750.0
 20
7408.2262499999997
 30
0.0
 11
5550.0
 21
7408.2262499999997
 31
0.0
  0
LINE
  5
7B6E
  8
4
  6
CONTINUOUS
 10
750.0
 20
8008.2262499999988
 30
0.0
 11
5550.0
 21
8008.2262499999988
 31
0.0
  0
LINE
  5
7B6F
  8
4
  6
CONTINUOUS
 10
1950.0
 20
1500.0
 30
0.0
 11
5550.0
 21
1500.0
 31
0.0
  0
LINE
  5
7B70
  8
4
  6
CONTINUOUS
 10
750.0
 20
8008.2262499999988
 30
0.0
 11
750.0
 21
7408.2262499999997
 31
0.0
  0
TEXT
  5
7B71
  8
4
  6
CONTINUOUS
 10
1209.4942799999999
 20
7146.9584400000003
 30
0.0
 40
162.0
  1
右回転左横向
  0
TEXT
  5
7B72
  8
4
  6
CONTINUOUS
 10
4406.9086799999986
 20
8118.1832400000003
 30
0.0
 40
168.0
  1
No.
  0
TEXT
  5
7B73
  8
4
  6
CONTINUOUS
 10
3933.8881799999999
 20
7150.2865199999997
 30
0.0
 40
162.0
  1
縮尺：1/30
  0
LINE
  5
7B74
  8
4
  6
CONTINUOUS
 10
5550.0
 20
8008.2262499999988
 30
0.0
 11
5550.0
 21
7408.2262499999997
 31
0.0
  0
LINE
  5
7B76
  8
4
  6
CONTINUOUS
 10
4321.8522599999997
 20
8043.7907400000004
 30
0.0
 11
4321.8522599999997
 21
8359.9567800000004
 31
0.0
  0
LINE
  5
7B77
  8
4
  6
CONTINUOUS
 10
4321.8522599999997
 20
8359.9567800000004
 30
0.0
 11
5550.0
 21
8359.9567800000004
 31
0.0
  0
LINE
  5
7B78
  8
4
  6
CONTINUOUS
 10
5550.0
 20
8359.9567800000004
 30
0.0
 11
5550.0
 21
8043.7907400000004
 31
0.0
  0
LINE
  5
7B79
  8
4
  6
CONTINUOUS
 10
5550.0
 20
8043.7907400000004
 30
0.0
 11
4321.8522599999997
 21
8043.7907400000004
 31
0.0
  0
DIMENSION
  5
7B91
  8
3
  6
CONTINUOUS
  2
*D1
 10
1564.9708502264559
 20
2479.931775
 30
0.0
 11
1564.9708502264559
 21
2897.826575
 31
0.0
 70
   128
 13
1736.2086282264561
 23
3379.931775
 33
0.0
 14
1736.2086282264561
 24
2479.931775
 34
0.0
 50
90.0
1001
ACAD
1000
DSTYLE
1002
{
1070
   287
1070
     3
1070
    40
1040
30.0
1070
   143
1040
0.039
1070
   172
1070
     1
1070
   271
1070
     0
1070
   279
1070
     0
1070
   288
1070
     1
1002
}
  0
DIMENSION
  5
7B9E
  8
3
  6
CONTINUOUS
  2
*D2
 10
1375.0617292264569
 20
3337.9317749999991
 30
0.0
 11
1375.061729226456
 21
2904.6049779999998
 31
0.0
 70
   128
 13
1736.2086282264561
 23
2479.931775
 33
0.0
 14
1666.705277226456
 24
3337.9317749999991
 34
0.0
 50
90.0
1001
ACAD
1000
DSTYLE
1002
{
1070
   287
1070
     3
1070
    40
1040
30.0
1070
   143
1040
0.039
1070
   172
1070
     1
1070
   271
1070
     0
1070
   279
1070
     0
1070
   288
1070
     1
1002
}
  0
DIMENSION
  5
7BD1
  8
3
  6
CONTINUOUS
  2
*D3
 10
2391.2086282264559
 20
1982.055094140499
 30
0.0
 11
2079.761720226456
 21
1982.055094140499
 31
0.0
 70
   128
 13
1741.2086282264561
 23
2247.931775
 33
0.0
 14
2391.2086282264559
 24
2066.202716140499
 34
0.0
1001
ACAD
1000
DSTYLE
1002
{
1070
   287
1070
     3
1070
    40
1040
30.0
1070
   143
1040
0.039
1070
   172
1070
     1
1070
   271
1070
     0
1070
   279
1070
     0
1070
   288
1070
     1
1002
}
  0
DIMENSION
  5
7BDD
  8
3
  6
CONTINUOUS
  2
*D4
 10
3641.2086282264559
 20
1982.055094140499
 30
0.0
 11
3016.2086282264559
 21
2057.055094140499
 31
0.0
 70
     0
 13
2391.2086282264559
 23
2066.202716140499
 33
0.0
 14
3641.2086282264559
 24
2247.931775
 34
0.0
1001
ACAD
1000
DSTYLE
1002
{
1070
   287
1070
     4
1070
    40
1040
30.0
1070
    75
1070
     1
1070
   143
1040
0.039
1070
   172
1070
     1
1070
   271
1070
     0
1070
   279
1070
     1
1070
   288
1070
     1
1002
}
  0
DIMENSION
  5
7BEA
  8
3
  6
CONTINUOUS
  2
*D5
 10
2391.2086282264559
 20
4165.3865519999999
 30
0.0
 11
2066.196778226456
 21
4165.3865519999999
 31
0.0
 70
   128
 13
1736.2086282264561
 23
3422.431775
 33
0.0
 14
2391.2086282264559
 24
4097.2781020000002
 34
0.0
1001
ACAD
1000
DSTYLE
1002
{
1070
   287
1070
     3
1070
    40
1040
30.0
1070
   143
1040
0.039
1070
   172
1070
     1
1070
   271
1070
     0
1070
   279
1070
     0
1070
   288
1070
     1
1002
}
  0
DIMENSION
  5
7C03
  8
3
  6
CONTINUOUS
  2
*D6
 10
5165.1559315411932
 20
4124.7161749999987
 30
0.0
 11
4831.6106385411931
 21
4124.7161749999987
 31
0.0
 70
   128
 13
4495.1559315411932
 23
3982.728118
 33
0.0
 14
5165.1559315411932
 24
3982.728118
 34
0.0
1001
ACAD
1000
DSTYLE
1002
{
1070
   287
1070
     3
1070
    40
1040
30.0
1070
   143
1040
0.039
1070
   172
1070
     1
1070
   271
1070
     0
1070
   279
1070
     0
1070
   288
1070
     1
1002
}
  0
LINE
  5
7C04
  8
1
  6
CONTINUOUS
 10
5169.1559315411941
 20
3812.931775
 30
0.0
 11
5169.1559315411941
 21
2862.931775
 31
0.0
  0
DIMENSION
  5
7C13
  8
3
  6
CONTINUOUS
  2
*D7
 10
5421.6853185411928
 20
2862.931775
 30
0.0
 11
5421.6853185411928
 21
3338.4222869999999
 31
0.0
 70
   128
 13
5169.1559315411941
 23
3812.931775
 33
0.0
 14
5169.1559315411941
 24
2862.931775
 34
0.0
 50
90.0
1001
ACAD
1000
DSTYLE
1002
{
1070
   287
1070
     3
1070
     3
1000
φ<>
1070
    40
1040
30.0
1070
   143
1040
0.039
1070
   172
1070
     1
1070
   271
1070
     0
1070
   279
1070
     0
1070
   288
1070
     1
1002
}
  0
DIMENSION
  5
7C22
  8
3
  6
CONTINUOUS
  2
*D8
 10
4830.1559315411932
 20
4334.8464379999996
 30
0.0
 11
4999.6559315411941
 21
4420.5671754652503
 31
0.0
 70
   128
 13
5169.1559315411941
 23
3812.931775
 33
0.0
 14
4830.1559315411932
 24
4262.4684509999997
 34
0.0
1001
ACAD
1000
DSTYLE
1002
{
1070
   288
1070
     1
1070
   172
1070
     1
1070
    40
1040
30.0
1070
   271
1070
     0
1070
   143
1040
0.039
1002
}
  0
DIMENSION
  5
7C2E
  8
3
  6
CONTINUOUS
  2
*D9
 10
4220.1559315411932
 20
4334.8464379999996
 30
0.0
 11
4525.1559315411932
 21
4484.8464379999996
 31
0.0
 70
     0
  1
MAX\P640
 13
4830.1559315411932
 23
4262.4684509999997
 33
0.0
 14
4220.1559315411932
 24
3777.931775
 34
0.0
1001
ACAD
1000
DSTYLE
1002
{
1070
   287
1070
     4
1070
    40
1040
30.0
1070
    75
1070
     1
1070
   143
1040
0.039
1070
   172
1070
     1
1070
   271
1070
     0
1070
   279
1070
     1
1070
   288
1070
     1
1002
}
  0
DIMENSION
  5
7C3B
  8
3
  6
CONTINUOUS
  2
*D10
 10
4830.1559315411932
 20
1989.405792057207
 30
0.0
 11
4564.7273601126208
 21
1989.405792057207
 31
0.0
 70
   128
 13
4361.1559315411932
 23
2247.931775
 33
0.0
 14
4830.1559315411932
 24
2104.2274500572071
 34
0.0
1001
ACAD
1000
DSTYLE
1002
{
1070
   287
1070
     3
1070
    40
1040
30.0
1070
   143
1040
0.039
1070
   172
1070
     1
1070
   271
1070
     0
1070
   279
1070
     0
1070
   288
1070
     1
1002
}
  0
DIMENSION
  5
7C47
  8
3
  6
CONTINUOUS
  2
*D11
 10
5281.1559315411932
 20
1989.405792057207
 30
0.0
 11
5055.6559315411932
 21
2064.4057920572068
 31
0.0
 70
     0
 13
4830.1559315411932
 23
2104.2274500572071
 33
0.0
 14
5281.1559315411932
 24
2247.931775
 34
0.0
1001
ACAD
1000
DSTYLE
1002
{
1070
   287
1070
     4
1070
    40
1040
30.0
1070
    75
1070
     1
1070
   143
1040
0.039
1070
   172
1070
     1
1070
   271
1070
     0
1070
   279
1070
     1
1070
   288
1070
     1
1002
}
  0
DIMENSION
  5
7C6B
  8
3
  6
CONTINUOUS
  2
*D12
 10
3641.2086282264559
 20
6513.1024030000008
 30
0.0
 11
2642.7065482264561
 21
6513.1024030000008
 31
0.0
 70
   128
 13
1741.2086282264561
 23
6269.6918150000001
 33
0.0
 14
3641.2086282264559
 24
6269.6918150000001
 34
0.0
1001
ACAD
1000
DSTYLE
1002
{
1070
   287
1070
     3
1070
    40
1040
30.0
1070
   143
1040
0.039
1070
   172
1070
     1
1070
   271
1070
     0
1070
   279
1070
     0
1070
   288
1070
     1
1002
}
  0
DIMENSION
  5
7C78
  8
3
  6
CONTINUOUS
  2
*D13
 10
3904.2455592264569
 20
5349.6918149999992
 30
0.0
 11
3904.245559226456
 21
5816.7489530000012
 31
0.0
 70
   128
 13
3641.2086282264559
 23
6269.6918150000001
 33
0.0
 14
3641.2086282264559
 24
5349.6918149999992
 34
0.0
 50
90.0
1001
ACAD
1000
DSTYLE
1002
{
1070
   287
1070
     3
1070
    40
1040
30.0
1070
   143
1040
0.039
1070
   172
1070
     1
1070
   271
1070
     0
1070
   279
1070
     0
1070
   288
1070
     1
1002
}
  0
DIMENSION
  5
7CC8
  8
3
  6
CONTINUOUS
  2
*D14
 10
3134.2086292264562
 20
4165.3865519999999
 30
0.0
 11
2762.708628726456
 21
4240.3865519999999
 31
0.0
 70
     0
 13
2391.2086282264559
 23
4097.2781020000002
 33
0.0
 14
3134.2086292264562
 24
3337.9317749999991
 34
0.0
1001
ACAD
1000
DSTYLE
1002
{
1070
   287
1070
     4
1070
    40
1040
30.0
1070
    75
1070
     1
1070
   143
1040
0.039
1070
   172
1070
     1
1070
   271
1070
     0
1070
   279
1070
     1
1070
   288
1070
     1
1002
}
  0
DIMENSION
  5
7CD6
  8
3
  6
CONTINUOUS
  2
*D15
 10
1172.045210226456
 20
3337.9317749999991
 30
0.0
 11
1172.045210226456
 21
3676.0198110000001
 31
0.0
 70
   128
 13
2391.2086282264559
 23
3980.9267180638822
 33
0.0
 14
1651.705277226456
 24
3337.9317749999991
 34
0.0
 50
90.0
1001
ACAD
1000
DSTYLE
1002
{
1070
   287
1070
     3
1070
    40
1040
30.0
1070
   143
1040
0.039
1070
   172
1070
     1
1070
   271
1070
     0
1070
   279
1070
     0
1070
   288
1070
     1
1002
}
  0
DIMENSION
  5
7CE2
  8
3
  6
CONTINUOUS
  2
*D16
 10
1172.045210226456
 20
2247.931775
 30
0.0
 11
1097.045210226456
 21
2792.931775
 31
0.0
 70
     0
 13
1651.705277226456
 23
3337.9317749999991
 33
0.0
 14
1741.2086282264561
 24
2247.931775
 34
0.0
 50
90.0
1001
ACAD
1000
DSTYLE
1002
{
1070
   287
1070
     4
1070
    40
1040
30.0
1070
    75
1070
     1
1070
   143
1040
0.039
1070
   172
1070
     1
1070
   271
1070
     0
1070
   279
1070
     1
1070
   288
1070
     1
1002
}
  0
LINE
  5
7CF0
  8
1
  6
CONTINUOUS
 10
2574.7020382264559
 20
3513.5625479999999
 30
0.0
 11
3425.3897532264559
 21
2649.7912550000001
 31
0.0
  0
LINE
  5
7CF1
  8
1
  6
CONTINUOUS
 10
2265.370445226456
 20
3117.2946259999999
 30
0.0
 11
3334.0516852264559
 21
2532.7830100000001
 31
0.0
  0
DIMENSION
  5
7D7F
  8
3
  2
*D17
 10
3641.2086282264559
 20
4340.5069200373
 30
0.0
 11
2603.2847535139258
 21
4340.5069200373
 31
0.0
 70
   128
 13
1736.2086282264561
 23
3422.431775
 33
0.0
 14
3641.2086282264559
 24
2347.931775
 34
0.0
1001
ACAD
1000
DSTYLE
1002
{
1070
   287
1070
     3
1070
    40
1040
30.0
1070
   143
1040
0.039
1070
   172
1070
     1
1070
   271
1070
     0
1070
   279
1070
     0
1070
   288
1070
     1
1002
}
  0
LINE
  5
7E37
  8
1
  6
CONTINUOUS
 10
1831.2086282264561
 20
3467.931775
 30
0.0
 11
2951.2086282264559
 21
3467.931775
 31
0.0
  0
LINE
  5
7E38
  8
1
 10
1831.2086282264561
 20
2347.931775
 30
0.0
 11
1831.2086282264561
 21
3467.931775
 31
0.0
  0
LINE
  5
7E39
  8
1
 10
2951.2086282264559
 20
2347.931775
 30
0.0
 11
2951.2086282264559
 21
3467.931775
 31
0.0
  0
ENDSEC
  0
EOF
