  0
SECTION
  2
HEADER
  9
$ACADVER
  1
AC1009
  9
$INSBASE
 10
0.0
 20
0.0
 30
0.0
  9
$EXTMIN
 10
750.0
 20
900.0
 30
0.0
  9
$EXTMAX
 10
5550.0
 20
8359.9567849999985
 30
0.0
  9
$LIMMIN
 10
0.0
 20
0.0
  9
$LIMMAX
 10
297.0
 20
210.0
  9
$ORTHOMODE
 70
     0
  9
$REGENMODE
 70
     1
  9
$FILLMODE
 70
     0
  9
$QTEXTMODE
 70
     0
  9
$MIRRTEXT
 70
     1
  9
$DRAGMODE
 70
     2
  9
$LTSCALE
 40
100.0
  9
$OSMODE
 70
    37
  9
$ATTMODE
 70
     1
  9
$TEXTSIZE
 40
180.0
  9
$TRACEWID
 40
0.05
  9
$TEXTSTYLE
  7
STANDARD
  9
$CLAYER
  8
3
  9
$CELTYPE
  6
BYLAYER
  9
$CECOLOR
 62
   256
  9
$DIMSCALE
 40
30.0
  9
$DIMASZ
 40
2.0
  9
$DIMEXO
 40
0.5
  9
$DIMDLI
 40
10.0
  9
$DIMRND
 40
0.0
  9
$DIMDLE
 40
0.0
  9
$DIMEXE
 40
1.0
  9
$DIMTP
 40
1.0
  9
$DIMTM
 40
1.0
  9
$DIMTXT
 40
3.0
  9
$DIMCEN
 40
0.0
  9
$DIMTSZ
 40
0.0
  9
$DIMTOL
 70
     0
  9
$DIMLIM
 70
     0
  9
$DIMTIH
 70
     0
  9
$DIMTOH
 70
     0
  9
$DIMSE1
 70
     0
  9
$DIMSE2
 70
     0
  9
$DIMTAD
 70
     1
  9
$DIMZIN
 70
     8
  9
$DIMBLK
  1

  9
$DIMASO
 70
     1
  9
$DIMSHO
 70
     1
  9
$DIMPOST
  1

  9
$DIMAPOST
  1

  9
$DIMALT
 70
     0
  9
$DIMALTD
 70
     2
  9
$DIMALTF
 40
0.039
  9
$DIMLFAC
 40
1.0
  9
$DIMTOFL
 70
     1
  9
$DIMTVP
 40
0.0
  9
$DIMTIX
 70
     0
  9
$DIMSOXD
 70
     0
  9
$DIMSAH
 70
     1
  9
$DIMBLK1
  1
OPEN
  9
$DIMBLK2
  1
OPEN
  9
$DIMSTYLE
  2
IGA
  9
$DIMCLRD
 70
     0
  9
$DIMCLRE
 70
     0
  9
$DIMCLRT
 70
     0
  9
$DIMTFAC
 40
10.0
  9
$DIMGAP
 40
1.0
  9
$LUNITS
 70
     2
  9
$LUPREC
 70
     3
  9
$SKETCHINC
 40
0.1
  9
$FILLETRAD
 40
50.0
  9
$AUNITS
 70
     0
  9
$AUPREC
 70
     0
  9
$MENU
  1
acad
  9
$ELEVATION
 40
0.0
  9
$PELEVATION
 40
0.0
  9
$THICKNESS
 40
0.0
  9
$LIMCHECK
 70
     0
  9
$BLIPMODE
 70
     0
  9
$CHAMFERA
 40
0.5
  9
$CHAMFERB
 40
0.5
  9
$SKPOLY
 70
     0
  9
$TDCREATE
 40
2450751.618514352
  9
$TDUPDATE
 40
2454953.77607765
  9
$TDINDWG
 40
0.0187848958
  9
$TDUSRTIMER
 40
0.0187848958
  9
$USRTIMER
 70
     1
  9
$ANGBASE
 50
0.0
  9
$ANGDIR
 70
     0
  9
$PDMODE
 70
     0
  9
$PDSIZE
 40
0.0
  9
$PLINEWID
 40
0.0
  9
$COORDS
 70
     1
  9
$SPLFRAME
 70
     0
  9
$SPLINETYPE
 70
     6
  9
$SPLINESEGS
 70
     8
  9
$ATTDIA
 70
     0
  9
$ATTREQ
 70
     1
  9
$HANDLING
 70
 10241
  9
$HANDSEED
  5
7D6C
  9
$SURFTAB1
 70
     6
  9
$SURFTAB2
 70
     6
  9
$SURFTYPE
 70
     6
  9
$SURFU
 70
     6
  9
$SURFV
 70
     6
  9
$UCSNAME
  2

  9
$UCSORG
 10
0.0
 20
0.0
 30
0.0
  9
$UCSXDIR
 10
1.0
 20
0.0
 30
0.0
  9
$UCSYDIR
 10
0.0
 20
1.0
 30
0.0
  9
$PUCSNAME
  2

  9
$PUCSORG
 10
0.0
 20
0.0
 30
0.0
  9
$PUCSXDIR
 10
1.0
 20
0.0
 30
0.0
  9
$PUCSYDIR
 10
0.0
 20
1.0
 30
0.0
  9
$USERI1
 70
     0
  9
$USERI2
 70
     0
  9
$USERI3
 70
     0
  9
$USERI4
 70
     0
  9
$USERI5
 70
     0
  9
$USERR1
 40
0.0
  9
$USERR2
 40
0.0
  9
$USERR3
 40
0.0
  9
$USERR4
 40
0.0
  9
$USERR5
 40
0.0
  9
$WORLDVIEW
 70
     1
  9
$SHADEDGE
 70
     3
  9
$SHADEDIF
 70
    70
  9
$TILEMODE
 70
     1
  9
$MAXACTVP
 70
    16
  9
$PLIMCHECK
 70
     0
  9
$PEXTMIN
 10
1.0000000000000000E+020
 20
1.0000000000000000E+020
 30
1.0000000000000000E+020
  9
$PEXTMAX
 10
-1.0000000000000000E+020
 20
-1.0000000000000000E+020
 30
-1.0000000000000000E+020
  9
$PLIMMIN
 10
0.0
 20
0.0
  9
$PLIMMAX
 10
12.0
 20
9.0
  9
$UNITMODE
 70
     0
  9
$VISRETAIN
 70
     0
  9
$PLINEGEN
 70
     0
  9
$PSLTSCALE
 70
     1
  0
ENDSEC
  0
SECTION
  2
TABLES
  0
TABLE
  2
VPORT
 70
     2
  0
VPORT
  2
*ACTIVE
 70
     0
 10
0.0
 20
0.0
 11
1.0
 21
1.0
 12
9437.9954746499006
 22
4629.9199394653269
 13
0.0
 23
0.0
 14
10.0
 24
10.0
 15
10.0
 25
10.0
 16
0.0
 26
0.0
 36
1.0
 17
0.0
 27
0.0
 37
0.0
 40
7517.061441529765
 41
3.1666666666666661
 42
50.0
 43
0.0
 44
0.0
 50
0.0
 51
0.0
 71
     0
 72
   100
 73
     1
 74
     0
 75
     0
 76
     0
 77
     0
 78
     0
  0
ENDTAB
  0
TABLE
  2
LTYPE
 70
     2
  0
LTYPE
  2
CONTINUOUS
 70
     0
  3
Solid line
 72
    65
 73
     0
 40
0.0
  0
LTYPE
  2
CENTER
 70
     0
  3
____ _ ____ _ ____ _ ____ _ ____ _ ____ _ ____ 
 72
    65
 73
     4
 40
2.0
 49
1.25
 49
-0.25
 49
0.25
 49
-0.25
  0
ENDTAB
  0
TABLE
  2
LAYER
 70
     6
  0
LAYER
  2
0
 70
     0
 62
     7
  6
CONTINUOUS
  0
LAYER
  2
3
 70
     0
 62
     2
  6
CONTINUOUS
  0
LAYER
  2
2
 70
     0
 62
     3
  6
CENTER
  0
LAYER
  2
1
 70
     0
 62
     4
  6
CONTINUOUS
  0
LAYER
  2
4
 70
     0
 62
     7
  6
CONTINUOUS
  0
LAYER
  2
DEFPOINTS
 70
     0
 62
     7
  6
CONTINUOUS
  0
ENDTAB
  0
TABLE
  2
STYLE
 70
     1
  0
STYLE
  2
STANDARD
 70
     0
 40
0.0
 41
1.0
 50
0.0
 71
     0
 42
180.0
  3
simplex.shx
  4
extfont.shx
  0
ENDTAB
  0
TABLE
  2
VIEW
 70
     0
  0
ENDTAB
  0
TABLE
  2
UCS
 70
     0
  0
ENDTAB
  0
TABLE
  2
APPID
 70
     1
  0
APPID
  2
ACAD
 70
     0
  0
ENDTAB
  0
TABLE
  2
DIMSTYLE
 70
     1
  0
DIMSTYLE
  2
IGA
 70
     0
  3

  4

  5

  6
OPEN
  7
OPEN
 40
2.0
 41
2.0
 42
0.5
 43
10.0
 44
1.0
 45
0.0
 46
0.0
 47
1.0
 48
1.0
140
3.0
141
0.0
142
0.0
143
0.03937
144
1.0
145
0.0
146
10.0
147
1.0
 71
     0
 72
     0
 73
     0
 74
     0
 75
     0
 76
     0
 77
     1
 78
     8
170
     0
171
     2
172
     0
173
     1
174
     0
175
     0
176
     0
177
     0
178
     0
  0
ENDTAB
  0
ENDSEC
  0
SECTION
  2
BLOCKS
  0
BLOCK
  8
0
  2
$MODEL_SPACE
 70
     0
 10
0.0
 20
0.0
 30
0.0
  3
$MODEL_SPACE
  1

  0
ENDBLK
  5
1B
  8
0
  0
BLOCK
 67
     1
  8
0
  2
$PAPER_SPACE
 70
     0
 10
0.0
 20
0.0
 30
0.0
  3
$PAPER_SPACE
  1

  0
ENDBLK
  5
18
 67
     1
  8
0
  0
BLOCK
  8
0
  2
_OPEN
 70
     0
 10
0.0
 20
0.0
 30
0.0
  3
_OPEN
  1

  0
LINE
  5
7AED
  8
0
  6
BYBLOCK
 62
     0
 10
-1.0
 20
0.166667
 30
0.0
 11
0.0
 21
0.0
 31
0.0
  0
LINE
  5
7AEE
  8
0
  6
BYBLOCK
 62
     0
 10
0.0
 20
0.0
 30
0.0
 11
-1.0
 21
-0.166667
 31
0.0
  0
LINE
  5
7AEF
  8
0
  6
BYBLOCK
 62
     0
 10
0.0
 20
0.0
 30
0.0
 11
-1.0
 21
0.0
 31
0.0
  0
ENDBLK
  5
7AF0
  8
0
  0
BLOCK
  8
0
  2
*D1
 70
     1
 10
0.0
 20
0.0
 30
0.0
  3
*D1
  1

  0
LINE
  5
7CCE
  8
3
  6
CONTINUOUS
 62
     0
 10
2798.44182
 20
3999.5115810000002
 30
0.0
 11
3067.297019000001
 21
3999.5115810000002
 31
0.0
  0
LINE
  5
7CCF
  8
3
  6
CONTINUOUS
 62
     0
 10
2798.44182
 20
3074.5115809999988
 30
0.0
 11
3067.297019000001
 21
3074.5115809999988
 31
0.0
  0
LINE
  5
7CD0
  8
3
  6
CONTINUOUS
 62
     0
 10
3037.297019000001
 20
3939.5115810000002
 30
0.0
 11
3037.297019000001
 21
3134.5115809999988
 31
0.0
  0
INSERT
  5
7CD1
  8
3
  6
CONTINUOUS
 62
     0
  2
_OPEN
 10
3037.297019000001
 20
3999.5115810000002
 30
0.0
 41
60.0
 42
60.0
 43
60.0
 50
90.0
  0
INSERT
  5
7CD2
  8
3
  6
CONTINUOUS
 62
     0
  2
_OPEN
 10
3037.297019000001
 20
3074.5115809999988
 30
0.0
 41
60.0
 42
60.0
 43
60.0
 50
270.0
  0
TEXT
  8
3
  40
90
  5
7D5B
  62
0
  72
0
  71
0
 10
2782.30
 20
3379.46
 30
0.000000
  1
925
  0
POINT
  5
7CD4
  8
DEFPOINTS
  6
CONTINUOUS
 62
     0
 10
2783.44182
 20
3999.5115810000002
 30
0.0
  0
POINT
  5
7CD5
  8
DEFPOINTS
  6
CONTINUOUS
 62
     0
 10
2783.44182
 20
3074.5115809999988
 30
0.0
  0
POINT
  5
7CD6
  8
DEFPOINTS
  6
CONTINUOUS
 62
     0
 10
3037.297019000001
 20
3074.5115809999988
 30
0.0
  0
ENDBLK
  5
7AFD
  8
0
  0
BLOCK
  8
0
  2
*D2
 70
     1
 10
0.0
 20
0.0
 30
0.0
  3
*D2
  1

  0
LINE
  5
7CD7
  8
3
  6
CONTINUOUS
 62
     0
 10
2798.44182
 20
3999.5115810000002
 30
0.0
 11
3267.7181440000008
 21
3999.5115810000002
 31
0.0
  0
LINE
  5
7CD8
  8
3
  6
CONTINUOUS
 62
     0
 10
2962.0122249999999
 20
3116.5115810000002
 30
0.0
 11
3267.7181440000008
 21
3116.5115809999988
 31
0.0
  0
LINE
  5
7CD9
  8
3
  6
CONTINUOUS
 62
     0
 10
3237.7181439999999
 20
3939.5115810000002
 30
0.0
 11
3237.7181439999999
 21
3176.5115809999988
 31
0.0
  0
INSERT
  5
7CDA
  8
3
  6
CONTINUOUS
 62
     0
  2
_OPEN
 10
3237.7181439999999
 20
3999.5115810000002
 30
0.0
 41
60.0
 42
60.0
 43
60.0
 50
90.0
  0
INSERT
  5
7CDB
  8
3
  6
CONTINUOUS
 62
     0
  2
_OPEN
 10
3237.7181439999999
 20
3116.5115809999988
 30
0.0
 41
60.0
 42
60.0
 43
60.0
 50
270.0
  0
TEXT
  8
3
  40
90
  5
7D5C
  62
0
  72
0
  71
0
 10
2982.72
 20
3373.73
 30
0.000000
  1
883
  0
POINT
  5
7CDD
  8
DEFPOINTS
  6
CONTINUOUS
 62
     0
 10
2783.44182
 20
3999.5115810000002
 30
0.0
  0
POINT
  5
7CDE
  8
DEFPOINTS
  6
CONTINUOUS
 62
     0
 10
2947.012224999999
 20
3116.5115810000002
 30
0.0
  0
POINT
  5
7CDF
  8
DEFPOINTS
  6
CONTINUOUS
 62
     0
 10
3237.7181439999999
 20
3116.5115809999988
 30
0.0
  0
ENDBLK
  5
7B0A
  8
0
  0
BLOCK
  8
0
  2
*D3
 70
     1
 10
0.0
 20
0.0
 30
0.0
  3
*D3
  1

  0
LINE
  5
7CE0
  8
3
  6
CONTINUOUS
 62
     0
 10
2783.44182
 20
4057.0115810000002
 30
0.0
 11
2783.44182
 21
4215.4413850000001
 31
0.0
  0
LINE
  5
7CE1
  8
3
  6
CONTINUOUS
 62
     0
 10
2128.44182
 20
4115.1141159999988
 30
0.0
 11
2128.44182
 21
4215.4413850000001
 31
0.0
  0
LINE
  5
7CE2
  8
3
  6
CONTINUOUS
 62
     0
 10
2723.44182
 20
4185.4413849999992
 30
0.0
 11
2188.4418199999991
 21
4185.4413849999992
 31
0.0
  0
INSERT
  5
7CE3
  8
3
  6
CONTINUOUS
 62
     0
  2
_OPEN
 10
2783.44182
 20
4185.4413849999992
 30
0.0
 41
60.0
 42
60.0
 43
60.0
  0
INSERT
  5
7CE4
  8
3
  6
CONTINUOUS
 62
     0
  2
_OPEN
 10
2128.44182
 20
4185.4413849999992
 30
0.0
 41
60.0
 42
60.0
 43
60.0
 50
180.0
  0
TEXT
  8
3
  40
90
  5
7D5D
  62
0
  72
0
  71
0
 10
2290.39
 20
4101.14
 30
0.000000
  1
655
  0
POINT
  5
7CE6
  8
DEFPOINTS
  6
CONTINUOUS
 62
     0
 10
2783.44182
 20
4042.0115810000002
 30
0.0
  0
POINT
  5
7CE7
  8
DEFPOINTS
  6
CONTINUOUS
 62
     0
 10
2128.44182
 20
4100.1141159999988
 30
0.0
  0
POINT
  5
7CE8
  8
DEFPOINTS
  6
CONTINUOUS
 62
     0
 10
2128.44182
 20
4185.4413849999992
 30
0.0
  0
ENDBLK
  5
7B31
  8
0
  0
BLOCK
  8
0
  2
*D4
 70
     1
 10
0.0
 20
0.0
 30
0.0
  3
*D4
  1

  0
LINE
  5
7CE9
  8
3
  6
CONTINUOUS
 62
     0
 10
878.44181999999989
 20
2336.5115809999988
 30
0.0
 11
878.44181999999989
 21
2078.0363170000001
 31
0.0
  0
LINE
  5
7CEA
  8
3
  6
CONTINUOUS
 62
     0
 10
2128.44182
 20
2245.8872670000001
 30
0.0
 11
2128.44182
 21
2078.0363170000001
 31
0.0
  0
LINE
  5
7CEB
  8
3
  6
CONTINUOUS
 62
     0
 10
938.44181999999978
 20
2108.0363170000001
 30
0.0
 11
2068.4418199999991
 21
2108.0363170000001
 31
0.0
  0
INSERT
  5
7CEC
  8
3
  6
CONTINUOUS
 62
     0
  2
_OPEN
 10
878.44181999999989
 20
2108.0363170000001
 30
0.0
 41
60.0
 42
60.0
 43
60.0
 50
180.0
  0
INSERT
  5
7CED
  8
3
  6
CONTINUOUS
 62
     0
  2
_OPEN
 10
2128.44182
 20
2108.0363170000001
 30
0.0
 41
60.0
 42
60.0
 43
60.0
  0
TEXT
  8
3
  40
90
  5
7D5E
  62
0
  72
0
  71
0
 10
1368.45
 20
2023.74
 30
0.000000
  1
1250
  0
POINT
  5
7CEF
  8
DEFPOINTS
  6
CONTINUOUS
 62
     0
 10
878.44181999999989
 20
2351.5115810000002
 30
0.0
  0
POINT
  5
7CF0
  8
DEFPOINTS
  6
CONTINUOUS
 62
     0
 10
2128.44182
 20
2260.8872670000001
 30
0.0
  0
POINT
  5
7CF1
  8
DEFPOINTS
  6
CONTINUOUS
 62
     0
 10
2128.44182
 20
2108.0363170000001
 30
0.0
  0
ENDBLK
  5
7B4A
  8
0
  0
BLOCK
  8
0
  2
*D5
 70
     1
 10
0.0
 20
0.0
 30
0.0
  3
*D5
  1

  0
LINE
  5
7CF2
  8
3
  6
CONTINUOUS
 62
     0
 10
2778.44182
 20
2336.5115809999988
 30
0.0
 11
2778.44182
 21
2078.0363170000001
 31
0.0
  0
LINE
  5
7CF3
  8
3
  6
CONTINUOUS
 62
     0
 10
2188.4418199999991
 20
2108.0363170000001
 30
0.0
 11
2718.44182
 21
2108.0363170000001
 31
0.0
  0
INSERT
  5
7CF4
  8
3
  6
CONTINUOUS
 62
     0
  2
_OPEN
 10
2128.44182
 20
2108.0363170000001
 30
0.0
 41
60.0
 42
60.0
 43
60.0
 50
180.0
  0
INSERT
  5
7CF5
  8
3
  6
CONTINUOUS
 62
     0
  2
_OPEN
 10
2778.44182
 20
2108.0363170000001
 30
0.0
 41
60.0
 42
60.0
 43
60.0
  0
TEXT
  8
3
  40
90
  5
7D5F
  62
0
  72
0
  71
0
 10
2273.44
 20
2023.74
 30
0.000000
  1
650
  0
POINT
  5
7CF7
  8
DEFPOINTS
  6
CONTINUOUS
 62
     0
 10
2128.44182
 20
2260.8872670000001
 30
0.0
  0
POINT
  5
7CF8
  8
DEFPOINTS
  6
CONTINUOUS
 62
     0
 10
2778.44182
 20
2351.5115810000002
 30
0.0
  0
POINT
  5
7CF9
  8
DEFPOINTS
  6
CONTINUOUS
 62
     0
 10
2778.44182
 20
2108.0363170000001
 30
0.0
  0
ENDBLK
  5
7B56
  8
0
  0
BLOCK
  8
0
  2
*D6
 70
     1
 10
0.0
 20
0.0
 30
0.0
  3
*D6
  1

  0
LINE
  5
7CFA
  8
3
  6
CONTINUOUS
 62
     0
 10
4475.3373039999988
 20
4014.5115809999988
 30
0.0
 11
4475.3373039999988
 21
4175.3812340000004
 31
0.0
  0
LINE
  5
7CFB
  8
3
  6
CONTINUOUS
 62
     0
 10
5145.3373039999988
 20
4014.5115809999988
 30
0.0
 11
5145.3373039999988
 21
4175.3812340000004
 31
0.0
  0
LINE
  5
7CFC
  8
3
  6
CONTINUOUS
 62
     0
 10
4535.3373039999997
 20
4145.3812340000013
 30
0.0
 11
5085.3373039999997
 21
4145.3812340000013
 31
0.0
  0
INSERT
  5
7CFD
  8
3
  6
CONTINUOUS
 62
     0
  2
_OPEN
 10
4475.3373039999988
 20
4145.3812340000013
 30
0.0
 41
60.0
 42
60.0
 43
60.0
 50
180.0
  0
INSERT
  5
7CFE
  8
3
  6
CONTINUOUS
 62
     0
  2
_OPEN
 10
5145.3373039999988
 20
4145.3812340000013
 30
0.0
 41
60.0
 42
60.0
 43
60.0
  0
TEXT
  8
3
  40
90
  5
7D60
  62
0
  72
0
  71
0
 10
4630.48
 20
4061.08
 30
0.000000
  1
670
  0
POINT
  5
7D00
  8
DEFPOINTS
  6
CONTINUOUS
 62
     0
 10
4475.3373039999988
 20
3999.5115810000002
 30
0.0
  0
POINT
  5
7D01
  8
DEFPOINTS
  6
CONTINUOUS
 62
     0
 10
5145.3373039999988
 20
3999.5115810000002
 30
0.0
  0
POINT
  5
7D02
  8
DEFPOINTS
  6
CONTINUOUS
 62
     0
 10
5145.3373039999988
 20
4145.3812340000013
 30
0.0
  0
ENDBLK
  5
7B63
  8
0
  0
BLOCK
  8
0
  2
*D7
 70
     1
 10
0.0
 20
0.0
 30
0.0
  3
*D7
  1

  0
LINE
  5
7D03
  8
3
  6
CONTINUOUS
 62
     0
 10
5164.3373039999997
 20
3591.5115810000002
 30
0.0
 11
5430.2858780000006
 21
3591.5115810000002
 31
0.0
  0
LINE
  5
7D04
  8
3
  6
CONTINUOUS
 62
     0
 10
5164.3373039999997
 20
2641.5115810000002
 30
0.0
 11
5430.2858780000006
 21
2641.5115810000002
 31
0.0
  0
LINE
  5
7D05
  8
3
  6
CONTINUOUS
 62
     0
 10
5400.2858779999997
 20
3531.5115810000002
 30
0.0
 11
5400.2858779999997
 21
2701.5115810000002
 31
0.0
  0
INSERT
  5
7D06
  8
3
  6
CONTINUOUS
 62
     0
  2
_OPEN
 10
5400.2858779999997
 20
3591.5115810000002
 30
0.0
 41
60.0
 42
60.0
 43
60.0
 50
90.0
  0
INSERT
  5
7D07
  8
3
  6
CONTINUOUS
 62
     0
  2
_OPEN
 10
5400.2858779999997
 20
2641.5115810000002
 30
0.0
 41
60.0
 42
60.0
 43
60.0
 50
270.0
  0
TEXT
  8
3
  40
90
  5
7D61
  62
0
  72
0
  71
0
 10
5145.29
 20
2961.69
 30
0.000000
  1
φ950
  0
POINT
  5
7D09
  8
DEFPOINTS
  6
CONTINUOUS
 62
     0
 10
5149.3373039999988
 20
3591.5115810000002
 30
0.0
  0
POINT
  5
7D0A
  8
DEFPOINTS
  6
CONTINUOUS
 62
     0
 10
5149.3373039999988
 20
2641.5115810000002
 30
0.0
  0
POINT
  5
7D0B
  8
DEFPOINTS
  6
CONTINUOUS
 62
     0
 10
5400.2858779999997
 20
2641.5115810000002
 30
0.0
  0
ENDBLK
  5
7C54
  8
0
  0
BLOCK
  8
0
  2
*D8
 70
     1
 10
0.0
 20
0.0
 30
0.0
  3
*D8
  1

  0
LINE
  5
7C40
  8
0
  6
BYBLOCK
 62
     0
 10
5149.3373039999988
 20
3606.5115810000002
 30
0.0
 11
5149.3373039999988
 21
4360.154184
 31
0.0
  0
LINE
  5
7C41
  8
0
  6
BYBLOCK
 62
     0
 10
4810.3373039999997
 20
4281.5373380000001
 30
0.0
 11
4810.3373039999997
 21
4360.154184
 31
0.0
  0
LINE
  5
7C42
  8
0
  6
BYBLOCK
 62
     0
 10
5089.3373039999997
 20
4330.154184
 30
0.0
 11
4870.3373039999988
 21
4330.154184
 31
0.0
  0
TEXT
  5
7C43
  8
3
 62
     0
 10
4866.2658754285712
 20
4366.1030481052294
 30
0.0
 40
90.0
  1
339
  0
INSERT
  5
7C44
  8
0
  6
BYBLOCK
 62
     0
  2
_OPEN
 10
5149.3373039999988
 20
4330.154184
 30
0.0
 41
60.0
 42
60.0
 43
60.0
  0
INSERT
  5
7C45
  8
0
  6
BYBLOCK
 62
     0
  2
_OPEN
 10
4810.3373039999997
 20
4330.154184
 30
0.0
 41
60.0
 42
60.0
 43
60.0
 50
180.0
  0
POINT
  5
7C46
  8
DEFPOINTS
  6
BYBLOCK
 62
     0
 10
5149.3373039999988
 20
3591.5115810000002
 30
0.0
  0
POINT
  5
7C47
  8
DEFPOINTS
  6
BYBLOCK
 62
     0
 10
4810.3373039999997
 20
4266.5373380000001
 30
0.0
  0
POINT
  5
7C48
  8
DEFPOINTS
  6
BYBLOCK
 62
     0
 10
4810.3373039999997
 20
4330.154184
 30
0.0
  0
ENDBLK
  5
7C49
  8
0
  0
BLOCK
  8
0
  2
*D9
 70
     1
 10
0.0
 20
0.0
 30
0.0
  3
*D9
  1

  0
LINE
  5
7D0C
  8
3
  6
CONTINUOUS
 62
     0
 10
4200.3373039999997
 20
3636.5115810000002
 30
0.0
 11
4200.3373039999997
 21
4360.154184
 31
0.0
  0
LINE
  5
7D0D
  8
3
  6
CONTINUOUS
 62
     0
 10
4750.3373039999997
 20
4330.154184
 30
0.0
 11
4260.3373039999997
 21
4330.154184
 31
0.0
  0
INSERT
  5
7D0E
  8
3
  6
CONTINUOUS
 62
     0
  2
_OPEN
 10
4810.3373039999997
 20
4330.154184
 30
0.0
 41
60.0
 42
60.0
 43
60.0
  0
INSERT
  5
7D0F
  8
3
  6
CONTINUOUS
 62
     0
  2
_OPEN
 10
4200.3373039999997
 20
4330.154184
 30
0.0
 41
60.0
 42
60.0
 43
60.0
 50
180.0
  0
TEXT
  8
3
  40
90
  5
7D62
  62
0
  72
0
  71
0
 10
4325.34
 20
4320.85
 30
0.000000
  1
MAX
  0
TEXT
  8
3
  40
90
  5
7D63
  62
0
  72
0
  71
0
 10
4325.34
 20
4203.85
 30
0.000000
  1
640
  0
POINT
  5
7D11
  8
DEFPOINTS
  6
CONTINUOUS
 62
     0
 10
4810.3373039999997
 20
4266.5373380000001
 30
0.0
  0
POINT
  5
7D12
  8
DEFPOINTS
  6
CONTINUOUS
 62
     0
 10
4200.3373039999997
 20
3621.5115810000002
 30
0.0
  0
POINT
  5
7D13
  8
DEFPOINTS
  6
CONTINUOUS
 62
     0
 10
4200.3373039999997
 20
4330.154184
 30
0.0
  0
ENDBLK
  5
7C5E
  8
0
  0
BLOCK
  8
0
  2
*D10
 70
     1
 10
0.0
 20
0.0
 30
0.0
  3
*D10
  1

  0
LINE
  5
7D14
  8
3
  6
CONTINUOUS
 62
     0
 10
4341.3373039999988
 20
2336.5115809999988
 30
0.0
 11
4341.3373039999988
 21
2072.3134420000001
 31
0.0
  0
LINE
  5
7D15
  8
3
  6
CONTINUOUS
 62
     0
 10
4810.3373039999997
 20
2170.3663379999998
 30
0.0
 11
4810.3373039999997
 21
2072.3134420000001
 31
0.0
  0
LINE
  5
7D16
  8
3
  6
CONTINUOUS
 62
     0
 10
4281.3373039999997
 20
2102.3134420000001
 30
0.0
 11
4221.3373039999997
 21
2102.3134420000001
 31
0.0
  0
LINE
  5
7D17
  8
3
  6
CONTINUOUS
 62
     0
 10
4870.3373039999988
 20
2102.3134420000001
 30
0.0
 11
4930.3373039999997
 21
2102.3134420000001
 31
0.0
  0
LINE
  5
7D18
  8
3
  6
CONTINUOUS
 62
     0
 10
4341.3373039999988
 20
2102.3134420000001
 30
0.0
 11
4810.3373039999997
 21
2102.3134420000001
 31
0.0
  0
INSERT
  5
7D19
  8
3
  6
CONTINUOUS
 62
     0
  2
_OPEN
 10
4341.3373039999988
 20
2102.3134420000001
 30
0.0
 41
60.0
 42
60.0
 43
60.0
  0
INSERT
  5
7D1A
  8
3
  6
CONTINUOUS
 62
     0
  2
_OPEN
 10
4810.3373039999997
 20
2102.3134420000001
 30
0.0
 41
60.0
 42
60.0
 43
60.0
 50
180.0
  0
TEXT
  8
3
  40
90
  5
7D64
  62
0
  72
0
  71
0
 10
4426.77
 20
2018.01
 30
0.000000
  1
469
  0
POINT
  5
7D1C
  8
DEFPOINTS
  6
CONTINUOUS
 62
     0
 10
4341.3373039999988
 20
2351.5115810000002
 30
0.0
  0
POINT
  5
7D1D
  8
DEFPOINTS
  6
CONTINUOUS
 62
     0
 10
4810.3373039999997
 20
2185.3663379999989
 30
0.0
  0
POINT
  5
7D1E
  8
DEFPOINTS
  6
CONTINUOUS
 62
     0
 10
4810.3373039999997
 20
2102.3134420000001
 30
0.0
  0
ENDBLK
  5
7B9B
  8
0
  0
BLOCK
  8
0
  2
*D11
 70
     1
 10
0.0
 20
0.0
 30
0.0
  3
*D11
  1

  0
LINE
  5
7D1F
  8
3
  6
CONTINUOUS
 62
     0
 10
5261.3373039999997
 20
2336.5115809999988
 30
0.0
 11
5261.3373039999997
 21
2072.3134420000001
 31
0.0
  0
LINE
  5
7D20
  8
3
  6
CONTINUOUS
 62
     0
 10
4870.3373039999988
 20
2102.3134420000001
 30
0.0
 11
5201.3373039999988
 21
2102.3134420000001
 31
0.0
  0
INSERT
  5
7D21
  8
3
  6
CONTINUOUS
 62
     0
  2
_OPEN
 10
4810.3373039999997
 20
2102.3134420000001
 30
0.0
 41
60.0
 42
60.0
 43
60.0
 50
180.0
  0
INSERT
  5
7D22
  8
3
  6
CONTINUOUS
 62
     0
  2
_OPEN
 10
5261.3373039999997
 20
2102.3134420000001
 30
0.0
 41
60.0
 42
60.0
 43
60.0
  0
TEXT
  8
3
  40
90
  5
7D65
  62
0
  72
0
  71
0
 10
4855.84
 20
2018.01
 30
0.000000
  1
451
  0
POINT
  5
7D24
  8
DEFPOINTS
  6
CONTINUOUS
 62
     0
 10
4810.3373039999997
 20
2185.3663379999989
 30
0.0
  0
POINT
  5
7D25
  8
DEFPOINTS
  6
CONTINUOUS
 62
     0
 10
5261.3373039999997
 20
2351.5115810000002
 30
0.0
  0
POINT
  5
7D26
  8
DEFPOINTS
  6
CONTINUOUS
 62
     0
 10
5261.3373039999997
 20
2102.3134420000001
 30
0.0
  0
ENDBLK
  5
7BA7
  8
0
  0
BLOCK
  8
0
  2
*D12
 70
     1
 10
0.0
 20
0.0
 30
0.0
  3
*D12
  1

  0
LINE
  5
7D27
  8
3
  6
CONTINUOUS
 62
     0
 10
878.44181999999989
 20
6322.4444199999998
 30
0.0
 11
878.44181999999989
 21
6535.7689929999988
 31
0.0
  0
LINE
  5
7D28
  8
3
  6
CONTINUOUS
 62
     0
 10
2778.44182
 20
6322.4444199999998
 30
0.0
 11
2778.44182
 21
6535.7689929999988
 31
0.0
  0
LINE
  5
7D29
  8
3
  6
CONTINUOUS
 62
     0
 10
938.44181999999978
 20
6505.7689929999997
 30
0.0
 11
2718.44182
 21
6505.7689929999997
 31
0.0
  0
INSERT
  5
7D2A
  8
3
  6
CONTINUOUS
 62
     0
  2
_OPEN
 10
878.44181999999989
 20
6505.7689929999997
 30
0.0
 41
60.0
 42
60.0
 43
60.0
 50
180.0
  0
INSERT
  5
7D2B
  8
3
  6
CONTINUOUS
 62
     0
  2
_OPEN
 10
2778.44182
 20
6505.7689929999997
 30
0.0
 41
60.0
 42
60.0
 43
60.0
  0
TEXT
  8
3
  40
90
  5
7D66
  62
0
  72
0
  71
0
 10
1689.13
 20
6421.47
 30
0.000000
  1
1900
  0
POINT
  5
7D2D
  8
DEFPOINTS
  6
CONTINUOUS
 62
     0
 10
878.44181999999989
 20
6307.4444200000007
 30
0.0
  0
POINT
  5
7D2E
  8
DEFPOINTS
  6
CONTINUOUS
 62
     0
 10
2778.44182
 20
6307.4444200000007
 30
0.0
  0
POINT
  5
7D2F
  8
DEFPOINTS
  6
CONTINUOUS
 62
     0
 10
2778.44182
 20
6505.7689929999997
 30
0.0
  0
ENDBLK
  5
7BB4
  8
0
  0
BLOCK
  8
0
  2
*D13
 70
     1
 10
0.0
 20
0.0
 30
0.0
  3
*D13
  1

  0
LINE
  5
7D30
  8
3
  6
CONTINUOUS
 62
     0
 10
2793.4418199999991
 20
6307.4444200000007
 30
0.0
 11
3090.2023129999998
 21
6307.4444200000007
 31
0.0
  0
LINE
  5
7D31
  8
3
  6
CONTINUOUS
 62
     0
 10
2793.4418199999991
 20
5387.4444200000007
 30
0.0
 11
3090.2023129999998
 21
5387.4444200000007
 31
0.0
  0
LINE
  5
7D32
  8
3
  6
CONTINUOUS
 62
     0
 10
3060.2023129999998
 20
6247.4444199999998
 30
0.0
 11
3060.2023129999998
 21
5447.4444199999998
 31
0.0
  0
INSERT
  5
7D33
  8
3
  6
CONTINUOUS
 62
     0
  2
_OPEN
 10
3060.2023129999998
 20
6307.4444200000007
 30
0.0
 41
60.0
 42
60.0
 43
60.0
 50
90.0
  0
INSERT
  5
7D34
  8
3
  6
CONTINUOUS
 62
     0
  2
_OPEN
 10
3060.2023129999998
 20
5387.4444200000007
 30
0.0
 41
60.0
 42
60.0
 43
60.0
 50
270.0
  0
TEXT
  8
3
  40
90
  5
7D67
  62
0
  72
0
  71
0
 10
2805.20
 20
5676.89
 30
0.000000
  1
920
  0
POINT
  5
7D36
  8
DEFPOINTS
  6
CONTINUOUS
 62
     0
 10
2778.44182
 20
6307.4444200000007
 30
0.0
  0
POINT
  5
7D37
  8
DEFPOINTS
  6
CONTINUOUS
 62
     0
 10
2778.44182
 20
5387.4444200000007
 30
0.0
  0
POINT
  5
7D38
  8
DEFPOINTS
  6
CONTINUOUS
 62
     0
 10
3060.2023129999998
 20
5387.4444200000007
 30
0.0
  0
ENDBLK
  5
7BC1
  8
0
  0
BLOCK
  8
0
  2
*D14
 70
     1
 10
0.0
 20
0.0
 30
0.0
  3
*D14
  1

  0
LINE
  5
7D39
  8
3
  6
CONTINUOUS
 62
     0
 10
1385.441818
 20
3131.5115809999988
 30
0.0
 11
1385.441818
 21
4215.4413850000001
 31
0.0
  0
LINE
  5
7D3A
  8
3
  6
CONTINUOUS
 62
     0
 10
2068.4418199999991
 20
4185.4413849999992
 30
0.0
 11
1445.441818
 21
4185.4413849999992
 31
0.0
  0
INSERT
  5
7D3B
  8
3
  6
CONTINUOUS
 62
     0
  2
_OPEN
 10
2128.44182
 20
4185.4413849999992
 30
0.0
 41
60.0
 42
60.0
 43
60.0
  0
INSERT
  5
7D3C
  8
3
  6
CONTINUOUS
 62
     0
  2
_OPEN
 10
1385.441818
 20
4185.4413849999992
 30
0.0
 41
60.0
 42
60.0
 43
60.0
 50
180.0
  0
TEXT
  8
3
  40
90
  5
7D68
  62
0
  72
0
  71
0
 10
1576.94
 20
4101.14
 30
0.000000
  1
743
  0
POINT
  5
7D3E
  8
DEFPOINTS
  6
CONTINUOUS
 62
     0
 10
2128.44182
 20
4100.1141159999988
 30
0.0
  0
POINT
  5
7D3F
  8
DEFPOINTS
  6
CONTINUOUS
 62
     0
 10
1385.441818
 20
3116.5115810000002
 30
0.0
  0
POINT
  5
7D40
  8
DEFPOINTS
  6
CONTINUOUS
 62
     0
 10
1385.441818
 20
4185.4413849999992
 30
0.0
  0
ENDBLK
  5
7BE9
  8
0
  0
BLOCK
  8
0
  2
*D15
 70
     1
 10
0.0
 20
0.0
 30
0.0
  3
*D15
  1

  0
LINE
  5
7D41
  8
3
  6
CONTINUOUS
 62
     0
 10
2793.4418199999991
 20
2351.5115810000002
 30
0.0
 11
3267.718143999999
 21
2351.5115809999988
 31
0.0
  0
LINE
  5
7D42
  8
3
  6
CONTINUOUS
 62
     0
 10
3237.7181439999999
 20
3056.5115809999988
 30
0.0
 11
3237.7181439999999
 21
2411.5115809999988
 31
0.0
  0
INSERT
  5
7D43
  8
3
  6
CONTINUOUS
 62
     0
  2
_OPEN
 10
3237.7181439999999
 20
3116.5115809999988
 30
0.0
 41
60.0
 42
60.0
 43
60.0
 50
90.0
  0
INSERT
  5
7D44
  8
3
  6
CONTINUOUS
 62
     0
  2
_OPEN
 10
3237.7181439999999
 20
2351.5115809999988
 30
0.0
 41
60.0
 42
60.0
 43
60.0
 50
270.0
  0
TEXT
  8
3
  40
90
  5
7D69
  62
0
  72
0
  71
0
 10
2982.72
 20
2574.71
 30
0.000000
  1
765
  0
POINT
  5
7D46
  8
DEFPOINTS
  6
CONTINUOUS
 62
     0
 10
2947.012224999999
 20
3116.5115810000002
 30
0.0
  0
POINT
  5
7D47
  8
DEFPOINTS
  6
CONTINUOUS
 62
     0
 10
2778.44182
 20
2351.5115810000002
 30
0.0
  0
POINT
  5
7D48
  8
DEFPOINTS
  6
CONTINUOUS
 62
     0
 10
3237.7181439999999
 20
2351.5115809999988
 30
0.0
  0
ENDBLK
  5
7C8F
  8
0
  0
BLOCK
  8
0
  2
*D16
 70
     1
 10
0.0
 20
0.0
 30
0.0
  3
*D16
  1

  0
LINE
  5
7D49
  8
3
  6
CONTINUOUS
 62
     0
 10
2798.44182
 20
4042.0115810000002
 30
0.0
 11
3524.1646560000008
 21
4042.0115809999988
 31
0.0
  0
LINE
  5
7D4A
  8
3
  6
CONTINUOUS
 62
     0
 10
2793.4418199999991
 20
2351.5115810000002
 30
0.0
 11
3524.1646559999999
 21
2351.5115809999988
 31
0.0
  0
LINE
  5
7D4B
  8
3
  6
CONTINUOUS
 62
     0
 10
3494.1646560000008
 20
3982.0115810000002
 30
0.0
 11
3494.1646560000008
 21
2411.5115809999988
 31
0.0
  0
INSERT
  5
7D4C
  8
3
  6
CONTINUOUS
 62
     0
  2
_OPEN
 10
3494.1646560000008
 20
4042.0115809999988
 30
0.0
 41
60.0
 42
60.0
 43
60.0
 50
90.0
  0
INSERT
  5
7D4D
  8
3
  6
CONTINUOUS
 62
     0
  2
_OPEN
 10
3494.1646560000008
 20
2351.5115809999988
 30
0.0
 41
60.0
 42
60.0
 43
60.0
 50
270.0
  0
TEXT
  8
3
  40
90
  5
7D6A
  62
0
  72
0
  71
0
 10
3239.16
 20
3133.97
 30
0.000000
  1
1691
  0
POINT
  5
7D4F
  8
DEFPOINTS
  6
CONTINUOUS
 62
     0
 10
2783.44182
 20
4042.0115810000002
 30
0.0
  0
POINT
  5
7D50
  8
DEFPOINTS
  6
CONTINUOUS
 62
     0
 10
2778.44182
 20
2351.5115810000002
 30
0.0
  0
POINT
  5
7D51
  8
DEFPOINTS
  6
CONTINUOUS
 62
     0
 10
3494.1646560000008
 20
2351.5115809999988
 30
0.0
  0
ENDBLK
  5
7C85
  8
0
  0
BLOCK
  8
0
  2
*D17
 70
     1
 10
0.0
 20
0.0
 30
0.0
  3
*D17
  1

  0
LINE
  5
7D52
  8
3
 62
     0
 10
2783.44182
 20
4057.0115810000002
 30
0.0
 11
2783.44182
 21
4393.1653015753509
 31
0.0
  0
LINE
  5
7D53
  8
3
 62
     0
 10
878.44182000000012
 20
2466.5115810000002
 30
0.0
 11
878.44182000000012
 21
4393.1653015753509
 31
0.0
  0
LINE
  5
7D54
  8
3
 62
     0
 10
2723.44182
 20
4363.16530157535
 30
0.0
 11
938.44182000000001
 21
4363.16530157535
 31
0.0
  0
INSERT
  5
7D55
  8
3
 62
     0
  2
_OPEN
 10
2783.44182
 20
4363.16530157535
 30
0.0
 41
60.0
 42
60.0
 43
60.0
  0
INSERT
  5
7D56
  8
3
 62
     0
  2
_OPEN
 10
878.44182000000012
 20
4363.16530157535
 30
0.0
 41
60.0
 42
60.0
 43
60.0
 50
180.0
  0
TEXT
  8
3
  40
90
  5
7D6B
  62
0
  72
0
  71
0
 10
1658.13
 20
4278.87
 30
0.000000
  1
1905
  0
POINT
  5
7D58
  8
DEFPOINTS
 62
     0
 10
2783.44182
 20
4042.0115810000002
 30
0.0
  0
POINT
  5
7D59
  8
DEFPOINTS
 62
     0
 10
878.44182000000012
 20
2451.5115810000002
 30
0.0
  0
POINT
  5
7D5A
  8
DEFPOINTS
 62
     0
 10
878.44182000000012
 20
4363.16530157535
 30
0.0
  0
ENDBLK
  5
7C7A
  8
0
  0
ENDSEC
  0
SECTION
  2
ENTITIES
  0
LINE
  5
7A68
  8
1
  6
CONTINUOUS
 10
2608.44182
 20
3621.5115810000002
 30
0.0
 11
1948.44182
 21
3621.5115810000002
 31
0.0
  0
LINE
  5
7A69
  8
2
  6
CENTER
 10
1036.4426449999989
 20
3116.5115810000002
 30
0.0
 11
2947.012224999999
 21
3116.5115810000002
 31
0.0
  0
CIRCLE
  5
7A6B
  8
1
  6
CONTINUOUS
 10
2128.44182
 20
3116.5115810000002
 30
0.0
 40
254.0
  0
LINE
  5
7A6C
  8
1
  6
CONTINUOUS
 10
2778.44182
 20
2351.5115810000002
 30
0.0
 11
878.44181999999989
 21
2351.5115810000002
 31
0.0
  0
LINE
  5
7A6D
  8
1
  6
CONTINUOUS
 10
2778.44182
 20
2451.5115810000002
 30
0.0
 11
878.44181999999989
 21
2451.5115810000002
 31
0.0
  0
POLYLINE
  5
7A71
  8
1
  6
CONTINUOUS
 66
     1
 10
0.0
 20
0.0
 30
0.0
  0
VERTEX
  5
7CC8
  8
1
  6
CONTINUOUS
 10
2783.44182
 20
3999.5115810000002
 30
0.0
  0
VERTEX
  5
7CC9
  8
1
  6
CONTINUOUS
 10
2128.44182
 20
3977.5115810000002
 30
0.0
 42
0.4168370000000001
  0
VERTEX
  5
7CCA
  8
1
  6
CONTINUOUS
 10
1386.0018599999989
 20
3109.3376389999999
 30
0.0
 42
0.429867
  0
VERTEX
  5
7CCB
  8
1
  6
CONTINUOUS
 10
2172.3179799999998
 20
2478.0864040000001
 30
0.0
 42
0.373172
  0
VERTEX
  5
7CCC
  8
1
  6
CONTINUOUS
 10
2696.410547
 20
3074.5115809999988
 30
0.0
 42
0.34598
  0
SEQEND
  5
7CCD
  8
1
  6
CONTINUOUS
  0
LINE
  5
7A78
  8
1
  6
CONTINUOUS
 10
968.44181999999989
 20
2826.5115810000002
 30
0.0
 11
1948.44182
 21
3621.5115810000002
 31
0.0
  0
LINE
  5
7A79
  8
1
  6
CONTINUOUS
 10
960.94181999999978
 20
2541.5115809999988
 30
0.0
 11
1015.7841539999999
 21
2608.528014
 31
0.0
  0
LINE
  5
7A7A
  8
1
  6
CONTINUOUS
 10
968.44181999999989
 20
2451.5115810000002
 30
0.0
 11
968.44181999999989
 21
2826.5115810000002
 31
0.0
  0
LINE
  5
7A7B
  8
1
  6
CONTINUOUS
 10
960.94181999999978
 20
2541.5115809999988
 30
0.0
 11
950.94181999999978
 21
2491.5115810000002
 31
0.0
  0
LINE
  5
7A7C
  8
1
  6
CONTINUOUS
 10
950.94181999999978
 20
2491.5115810000002
 30
0.0
 11
950.94181999999978
 21
2451.5115810000002
 31
0.0
  0
LINE
  5
7A7D
  8
1
  6
CONTINUOUS
 10
878.44181999999989
 20
2451.5115810000002
 30
0.0
 11
878.44181999999989
 21
2351.5115810000002
 31
0.0
  0
LINE
  5
7A7E
  8
2
  6
CENTER
 10
2128.44182
 20
2285.8872670000001
 30
0.0
 11
2128.44182
 21
4100.1141159999988
 31
0.0
  0
LINE
  5
7A81
  8
1
  6
CONTINUOUS
 10
1281.099485
 20
2608.528014
 30
0.0
 11
1335.94182
 21
2541.5115809999988
 31
0.0
  0
ARC
  5
7A82
  8
1
  6
CONTINUOUS
 10
1148.44182
 20
2701.5115810000002
 30
0.0
 40
162.0
 50
324.972283
 51
215.02771699999991
  0
LINE
  5
7A83
  8
1
  6
CONTINUOUS
 10
1345.94182
 20
2491.5115810000002
 30
0.0
 11
1335.94182
 21
2541.5115809999988
 31
0.0
  0
LINE
  5
7A84
  8
1
  6
CONTINUOUS
 10
1345.94182
 20
2491.5115810000002
 30
0.0
 11
1345.94182
 21
2451.5115810000002
 31
0.0
  0
LINE
  5
7A85
  8
2
  6
CENTER
 10
1068.44182
 20
2701.5115810000002
 30
0.0
 11
1228.44182
 21
2701.5115810000002
 31
0.0
  0
LINE
  5
7A86
  8
2
  6
CENTER
 10
1148.44182
 20
2621.5115810000002
 30
0.0
 11
1148.44182
 21
2781.5115810000002
 31
0.0
  0
CIRCLE
  5
7A87
  8
1
  6
CONTINUOUS
 10
1148.44182
 20
2701.5115810000002
 30
0.0
 40
75.0
  0
LINE
  5
7A88
  8
1
  6
CONTINUOUS
 10
2608.44182
 20
2451.5115810000002
 30
0.0
 11
2608.44182
 21
3621.5115810000002
 31
0.0
  0
LINE
  5
7A8A
  8
1
  6
CONTINUOUS
 10
2743.44182
 20
3074.5115809999988
 30
0.0
 11
2743.44182
 21
3998.1680700000002
 31
0.0
  0
LINE
  5
7A8B
  8
1
  6
CONTINUOUS
 10
2783.44182
 20
3032.0115809999988
 30
0.0
 11
2783.44182
 21
4042.0115810000002
 31
0.0
  0
LINE
  5
7A8C
  8
1
  6
CONTINUOUS
 10
2696.410547
 20
3074.5115809999988
 30
0.0
 11
2783.44182
 21
3074.5115809999988
 31
0.0
  0
LINE
  5
7A8D
  8
1
  6
CONTINUOUS
 10
2778.44182
 20
2451.5115810000002
 30
0.0
 11
2778.44182
 21
2351.5115810000002
 31
0.0
  0
LINE
  5
7A8E
  8
1
  6
CONTINUOUS
 10
4422.3373039999997
 20
3621.5115810000002
 30
0.0
 11
4422.3373039999997
 21
2451.5115810000002
 31
0.0
  0
LINE
  5
7A8F
  8
1
  6
CONTINUOUS
 10
4200.3373039999997
 20
3621.5115810000002
 30
0.0
 11
4200.3373039999997
 21
2451.5115810000002
 31
0.0
  0
LINE
  5
7A90
  8
1
  6
CONTINUOUS
 10
4389.3373039999997
 20
3370.5115810000002
 30
0.0
 11
4389.3373039999997
 21
2862.5115809999988
 31
0.0
  0
LINE
  5
7A91
  8
1
  6
CONTINUOUS
 10
4285.3373039999997
 20
3370.5115810000002
 30
0.0
 11
4285.3373039999997
 21
2862.5115809999988
 31
0.0
  0
LINE
  5
7A92
  8
1
  6
CONTINUOUS
 10
4475.3373039999988
 20
3999.5115810000002
 30
0.0
 11
5145.3373039999988
 21
3074.5115809999988
 31
0.0
  0
LINE
  5
7A93
  8
1
  6
CONTINUOUS
 10
4475.3373039999988
 20
3074.5115809999988
 30
0.0
 11
5145.3373039999988
 21
3999.5115810000002
 31
0.0
  0
LINE
  5
7A94
  8
1
  6
CONTINUOUS
 10
5145.3373039999988
 20
3999.5115810000002
 30
0.0
 11
5145.3373039999988
 21
2451.5115810000002
 31
0.0
  0
LINE
  5
7A95
  8
1
  6
CONTINUOUS
 10
4475.3373039999988
 20
3999.5115810000002
 30
0.0
 11
4475.3373039999988
 21
2451.5115810000002
 31
0.0
  0
LINE
  5
7A96
  8
1
  6
CONTINUOUS
 10
4341.3373039999988
 20
2451.5115810000002
 30
0.0
 11
5261.3373039999997
 21
2451.5115810000002
 31
0.0
  0
LINE
  5
7A97
  8
1
  6
CONTINUOUS
 10
4341.3373039999988
 20
2351.5115810000002
 30
0.0
 11
5261.3373039999997
 21
2351.5115810000002
 31
0.0
  0
LINE
  5
7A98
  8
1
  6
CONTINUOUS
 10
4475.3373039999988
 20
3074.5115809999988
 30
0.0
 11
5145.3373039999988
 21
3074.5115809999988
 31
0.0
  0
LINE
  5
7A99
  8
1
  6
CONTINUOUS
 10
4341.3373039999988
 20
2451.5115810000002
 30
0.0
 11
4341.3373039999988
 21
2351.5115810000002
 31
0.0
  0
LINE
  5
7A9A
  8
1
  6
CONTINUOUS
 10
4200.3373039999997
 20
2451.5115810000002
 30
0.0
 11
4341.3373039999988
 21
2451.5115810000002
 31
0.0
  0
LINE
  5
7A9B
  8
1
  6
CONTINUOUS
 10
4389.3373039999997
 20
2680.5115809999988
 30
0.0
 11
4475.3373039999988
 21
2680.5115809999988
 31
0.0
  0
LINE
  5
7A9C
  8
1
  6
CONTINUOUS
 10
4389.3373039999997
 20
2722.5115810000002
 30
0.0
 11
4475.3373039999988
 21
2722.5115810000002
 31
0.0
  0
LINE
  5
7A9D
  8
1
  6
CONTINUOUS
 10
4389.3373039999997
 20
3091.5115810000002
 30
0.0
 11
4475.3373039999988
 21
3091.5115810000002
 31
0.0
  0
LINE
  5
7A9E
  8
1
  6
CONTINUOUS
 10
4389.3373039999997
 20
3141.5115810000002
 30
0.0
 11
4475.3373039999988
 21
3141.5115810000002
 31
0.0
  0
LINE
  5
7A9F
  8
1
  6
CONTINUOUS
 10
4389.3373039999997
 20
2776.5115809999988
 30
0.0
 11
4389.3373039999997
 21
2626.5115809999988
 31
0.0
  0
LINE
  5
7AA0
  8
1
  6
CONTINUOUS
 10
4285.3373039999997
 20
2776.5115809999988
 30
0.0
 11
4285.3373039999997
 21
2626.5115809999988
 31
0.0
  0
LINE
  5
7AA1
  8
1
  6
CONTINUOUS
 10
4285.3373039999997
 20
2626.5115809999988
 30
0.0
 11
4389.3373039999997
 21
2626.5115809999988
 31
0.0
  0
LINE
  5
7AA2
  8
1
  6
CONTINUOUS
 10
4285.3373039999997
 20
2776.5115809999988
 30
0.0
 11
4389.3373039999997
 21
2776.5115809999988
 31
0.0
  0
LINE
  5
7AA3
  8
1
  6
CONTINUOUS
 10
4285.3373039999997
 20
2862.5115809999988
 30
0.0
 11
4389.3373039999997
 21
2862.5115809999988
 31
0.0
  0
LINE
  5
7AA4
  8
1
  6
CONTINUOUS
 10
5261.3373039999997
 20
2451.5115810000002
 30
0.0
 11
5261.3373039999997
 21
2351.5115810000002
 31
0.0
  0
LINE
  5
7AA5
  8
1
  6
CONTINUOUS
 10
4475.3373039999988
 20
3999.5115810000002
 30
0.0
 11
5145.3373039999988
 21
3999.5115810000002
 31
0.0
  0
LINE
  5
7AA6
  8
1
  6
CONTINUOUS
 10
4285.3373039999997
 20
3370.5115810000002
 30
0.0
 11
4389.3373039999997
 21
3370.5115810000002
 31
0.0
  0
LINE
  5
7AA7
  8
1
  6
CONTINUOUS
 10
4200.3373039999997
 20
3621.5115810000002
 30
0.0
 11
4422.3373039999997
 21
3621.5115810000002
 31
0.0
  0
LINE
  5
7AA8
  8
1
  6
CONTINUOUS
 10
2778.44182
 20
6307.4444200000007
 30
0.0
 11
878.44181999999989
 21
6307.4444200000007
 31
0.0
  0
LINE
  5
7AA9
  8
1
  6
CONTINUOUS
 10
968.44181999999989
 20
5298.4444199999998
 30
0.0
 11
2608.44182
 21
5298.4444199999998
 31
0.0
  0
LINE
  5
7AAA
  8
1
  6
CONTINUOUS
 10
968.44181999999989
 20
5468.4444199999998
 30
0.0
 11
2608.44182
 21
5468.4444199999998
 31
0.0
  0
LINE
  5
7AAB
  8
1
  6
CONTINUOUS
 10
1874.44182
 20
5331.4444200000007
 30
0.0
 11
2382.4418199999991
 21
5331.4444200000007
 31
0.0
  0
LINE
  5
7AAC
  8
1
  6
CONTINUOUS
 10
1874.44182
 20
5435.4444200000007
 30
0.0
 11
2382.4418199999991
 21
5435.4444200000007
 31
0.0
  0
LINE
  5
7AAD
  8
1
  6
CONTINUOUS
 10
2783.44182
 20
5521.4444200000007
 30
0.0
 11
1383.2745480000001
 21
5521.4444200000007
 31
0.0
  0
LINE
  5
7AAE
  8
1
  6
CONTINUOUS
 10
2783.44182
 20
6191.4444199999998
 30
0.0
 11
1383.2745480000001
 21
6191.4444199999998
 31
0.0
  0
LINE
  5
7AAF
  8
1
  6
CONTINUOUS
 10
1073.4418199999991
 20
5387.4444200000007
 30
0.0
 11
878.44181999999989
 21
5387.4444200000007
 31
0.0
  0
LINE
  5
7AB0
  8
1
  6
CONTINUOUS
 10
878.44181999999989
 20
5387.4444200000007
 30
0.0
 11
878.44181999999989
 21
6307.4444200000007
 31
0.0
  0
LINE
  5
7AB1
  8
1
  6
CONTINUOUS
 10
968.44181999999989
 20
5298.4444199999998
 30
0.0
 11
968.44181999999989
 21
5468.4444199999998
 31
0.0
  0
LINE
  5
7AB2
  8
1
  6
CONTINUOUS
 10
1874.44182
 20
5387.4444200000007
 30
0.0
 11
1223.44182
 21
5387.4444200000007
 31
0.0
  0
LINE
  5
7AB3
  8
1
  6
CONTINUOUS
 10
986.44181999999989
 20
5479.4444199999998
 30
0.0
 11
986.44181999999989
 21
5964.4444200000007
 31
0.0
  0
LINE
  5
7AB4
  8
1
  6
CONTINUOUS
 10
1310.44182
 20
5479.4444199999998
 30
0.0
 11
1310.44182
 21
5964.4444200000007
 31
0.0
  0
LINE
  5
7AB5
  8
1
  6
CONTINUOUS
 10
1383.2745480000001
 20
5521.4444200000007
 30
0.0
 11
1383.2745480000001
 21
6191.4444199999998
 31
0.0
  0
LINE
  5
7AB6
  8
1
  6
CONTINUOUS
 10
986.44181999999989
 20
5479.4444199999998
 30
0.0
 11
1310.44182
 21
5479.4444199999998
 31
0.0
  0
LINE
  5
7AB7
  8
1
  6
CONTINUOUS
 10
1073.4418199999991
 20
5331.4444200000007
 30
0.0
 11
1073.4418199999991
 21
5435.4444200000007
 31
0.0
  0
LINE
  5
7AB8
  8
1
  6
CONTINUOUS
 10
1223.44182
 20
5331.4444200000007
 30
0.0
 11
1223.44182
 21
5435.4444200000007
 31
0.0
  0
LINE
  5
7AB9
  8
1
  6
CONTINUOUS
 10
1127.44182
 20
5435.4444200000007
 30
0.0
 11
1127.44182
 21
5479.4444199999998
 31
0.0
  0
LINE
  5
7ABA
  8
1
  6
CONTINUOUS
 10
1169.44182
 20
5435.4444200000007
 30
0.0
 11
1169.44182
 21
5479.4444199999998
 31
0.0
  0
LINE
  5
7ABB
  8
1
  6
CONTINUOUS
 10
1073.4418199999991
 20
5331.4444200000007
 30
0.0
 11
1223.44182
 21
5331.4444200000007
 31
0.0
  0
LINE
  5
7ABC
  8
1
  6
CONTINUOUS
 10
1073.4418199999991
 20
5435.4444200000007
 30
0.0
 11
1223.44182
 21
5435.4444200000007
 31
0.0
  0
LINE
  5
7ABD
  8
1
  6
CONTINUOUS
 10
986.44181999999989
 20
5964.4444200000007
 30
0.0
 11
1310.44182
 21
5964.4444200000007
 31
0.0
  0
LINE
  5
7ABE
  8
1
  6
CONTINUOUS
 10
1874.44182
 20
5331.4444200000007
 30
0.0
 11
1874.44182
 21
5435.4444200000007
 31
0.0
  0
LINE
  5
7ABF
  8
1
  6
CONTINUOUS
 10
2103.44182
 20
5435.4444200000007
 30
0.0
 11
2103.44182
 21
5521.4444200000007
 31
0.0
  0
LINE
  5
7AC0
  8
1
  6
CONTINUOUS
 10
2778.44182
 20
6191.4444199999998
 30
0.0
 11
2778.44182
 21
6307.4444200000007
 31
0.0
  0
LINE
  5
7AC1
  8
1
  6
CONTINUOUS
 10
2778.44182
 20
5387.4444200000007
 30
0.0
 11
2382.4418199999991
 21
5387.4444200000007
 31
0.0
  0
LINE
  5
7AC2
  8
1
  6
CONTINUOUS
 10
2382.4418199999991
 20
5331.4444200000007
 30
0.0
 11
2382.4418199999991
 21
5435.4444200000007
 31
0.0
  0
LINE
  5
7AC3
  8
1
  6
CONTINUOUS
 10
2153.44182
 20
5435.4444200000007
 30
0.0
 11
2153.44182
 21
5521.4444200000007
 31
0.0
  0
LINE
  5
7AC4
  8
1
  6
CONTINUOUS
 10
2608.44182
 20
5298.4444199999998
 30
0.0
 11
2608.44182
 21
5468.4444199999998
 31
0.0
  0
LINE
  5
7AC5
  8
1
  6
CONTINUOUS
 10
2743.44182
 20
5521.4444200000007
 30
0.0
 11
2743.44182
 21
6191.4444199999998
 31
0.0
  0
LINE
  5
7AC6
  8
1
  6
CONTINUOUS
 10
2783.44182
 20
5479.4444199999998
 30
0.0
 11
2783.44182
 21
6233.4444200000007
 31
0.0
  0
LINE
  5
7AC7
  8
1
  6
CONTINUOUS
 10
2778.44182
 20
5387.4444200000007
 30
0.0
 11
2778.44182
 21
5521.4444200000007
 31
0.0
  0
LINE
  5
7AC8
  8
2
  6
CENTER
 10
786.29179999999985
 20
5856.4444200000007
 30
0.0
 11
2888.4127809999991
 21
5856.4444200000007
 31
0.0
  0
LINE
  5
7AC9
  8
2
  6
CENTER
 10
4810.3373039999997
 20
4157.6772840000003
 30
0.0
 11
4810.3373039999997
 21
2210.3663379999989
 31
0.0
  0
LINE
  5
7ACA
  8
2
  6
CENTER
 10
4149.3646709999994
 20
3116.5115810000002
 30
0.0
 11
5211.3174149999986
 21
3116.5115810000002
 31
0.0
  0
LINE
  5
7ACB
  8
2
  6
CENTER
 10
2128.44182
 20
5207.8519530000003
 30
0.0
 11
2128.44182
 21
6442.7255130000003
 31
0.0
  0
LINE
  5
7ACC
  8
4
  6
CONTINUOUS
 10
5550.0
 20
1500.0
 30
0.0
 11
5550.0
 21
900.0
 31
0.0
  0
LINE
  5
7ACD
  8
4
  6
CONTINUOUS
 10
3450.0
 20
1500.0
 30
0.0
 11
3450.0
 21
900.0
 31
0.0
  0
LINE
  5
7ACE
  8
4
  6
CONTINUOUS
 10
1950.0
 20
1500.0
 30
0.0
 11
1950.0
 21
900.0
 31
0.0
  0
LINE
  5
7AD1
  8
4
  6
CONTINUOUS
 10
1950.0
 20
900.0
 30
0.0
 11
5550.0
 21
900.0
 31
0.0
  0
LINE
  5
7AD2
  8
4
  6
CONTINUOUS
 10
1950.0
 20
1200.0
 30
0.0
 11
5550.0
 21
1200.0
 31
0.0
  0
TEXT
  5
7AD3
  8
4
  6
CONTINUOUS
 10
2065.5062429999989
 20
1294.6290779999999
 30
0.0
 40
150.0
  1
機器名称
  0
TEXT
  5
7AD4
  8
4
  6
CONTINUOUS
 10
2058.7743179999989
 20
964.9354699999999
 30
0.0
 40
150.0
  1
機器型番
  0
TEXT
  5
7AD5
  8
4
  6
CONTINUOUS
 10
3533.0362359999999
 20
1267.7153069999999
 30
0.0
 40
150.0
  1
ミツヤ多翼送風機
  0
TEXT
  5
7AD6
  8
4
  6
CONTINUOUS
 10
3559.9634869999991
 20
951.47875299999987
 30
0.0
 40
150.0
  1
MF#5 1/2-4
  0
TEXT
  5
7AD8
  8
4
  6
CONTINUOUS
 10
2527.0720739999988
 20
7150.2865239999992
 30
0.0
 40
162.0
  1
天井吊ベット
  0
TEXT
  5
7AD9
  8
4
  6
CONTINUOUS
 10
948.50278000000014
 20
7601.6429289999996
 30
0.0
 40
216.0
  1
ベルト駆動式片吸込両持多翼ファン
  0
LINE
  5
7ADA
  8
4
  6
CONTINUOUS
 10
750.0
 20
7408.2262629999996
 30
0.0
 11
5550.0
 21
7408.2262629999996
 31
0.0
  0
LINE
  5
7ADB
  8
4
  6
CONTINUOUS
 10
750.0
 20
8008.2262629999996
 30
0.0
 11
5550.0
 21
8008.2262629999996
 31
0.0
  0
LINE
  5
7ADC
  8
4
  6
CONTINUOUS
 10
1950.0
 20
1500.0
 30
0.0
 11
5550.0
 21
1500.0
 31
0.0
  0
LINE
  5
7ADD
  8
4
  6
CONTINUOUS
 10
750.0
 20
8008.2262629999996
 30
0.0
 11
750.0
 21
7408.2262629999996
 31
0.0
  0
TEXT
  5
7ADE
  8
4
  6
CONTINUOUS
 10
1219.495576999999
 20
7146.9584329999998
 30
0.0
 40
162.0
  1
右回転右横向
  0
TEXT
  5
7ADF
  8
4
  6
CONTINUOUS
 10
4406.9086779999989
 20
8118.1832439999989
 30
0.0
 40
168.0
  1
No.
  0
TEXT
  5
7AE0
  8
4
  6
CONTINUOUS
 10
3933.8881879999999
 20
7150.2865239999992
 30
0.0
 40
162.0
  1
縮尺：1/30
  0
LINE
  5
7AE1
  8
4
  6
CONTINUOUS
 10
5550.0
 20
8008.2262629999996
 30
0.0
 11
5550.0
 21
7408.2262629999996
 31
0.0
  0
LINE
  5
7AE3
  8
4
  6
CONTINUOUS
 10
4321.8522670000002
 20
8043.7907490000007
 30
0.0
 11
4321.8522670000002
 21
8359.9567849999985
 31
0.0
  0
LINE
  5
7AE4
  8
4
  6
CONTINUOUS
 10
4321.8522670000002
 20
8359.9567849999985
 30
0.0
 11
5550.0
 21
8359.9567849999985
 31
0.0
  0
LINE
  5
7AE5
  8
4
  6
CONTINUOUS
 10
5550.0
 20
8359.9567849999985
 30
0.0
 11
5550.0
 21
8043.7907490000007
 31
0.0
  0
LINE
  5
7AE6
  8
4
  6
CONTINUOUS
 10
5550.0
 20
8043.7907490000007
 30
0.0
 11
4321.8522670000002
 21
8043.7907490000007
 31
0.0
  0
DIMENSION
  5
7AFE
  8
3
  6
CONTINUOUS
  2
*D1
 10
3037.297019000001
 20
3074.5115809999988
 30
0.0
 11
3037.2970190000001
 21
3538.7560699999999
 31
0.0
 70
   128
 13
2783.44182
 23
3999.5115810000002
 33
0.0
 14
2783.44182
 24
3074.5115809999988
 34
0.0
 50
90.0
1001
ACAD
1000
DSTYLE
1002
{
1070
   287
1070
     3
1070
    40
1040
30.0
1070
   143
1040
0.039
1070
   172
1070
     1
1070
   271
1070
     0
1070
   279
1070
     0
1070
   288
1070
     1
1002
}
  0
DIMENSION
  5
7B0B
  8
3
  6
CONTINUOUS
  2
*D2
 10
3237.7181439999999
 20
3116.5115809999988
 30
0.0
 11
3237.7181439999999
 21
3533.0331940000001
 31
0.0
 70
   128
 13
2783.44182
 23
3999.5115810000002
 33
0.0
 14
2947.012224999999
 24
3116.5115810000002
 34
0.0
 50
90.0
1001
ACAD
1000
DSTYLE
1002
{
1070
   287
1070
     3
1070
    40
1040
30.0
1070
   143
1040
0.039
1070
   172
1070
     1
1070
   271
1070
     0
1070
   279
1070
     0
1070
   288
1070
     1
1002
}
  0
DIMENSION
  5
7B32
  8
3
  6
CONTINUOUS
  2
*D3
 10
2128.44182
 20
4185.4413849999992
 30
0.0
 11
2470.391631
 21
4185.4413849999992
 31
0.0
 70
   128
 13
2783.44182
 23
4042.0115810000002
 33
0.0
 14
2128.44182
 24
4100.1141159999988
 34
0.0
1001
ACAD
1000
DSTYLE
1002
{
1070
   287
1070
     3
1070
    40
1040
30.0
1070
   143
1040
0.039
1070
   172
1070
     1
1070
   271
1070
     0
1070
   279
1070
     0
1070
   288
1070
     1
1002
}
  0
DIMENSION
  5
7B4B
  8
3
  6
CONTINUOUS
  2
*D4
 10
2128.44182
 20
2108.0363170000001
 30
0.0
 11
1548.4545800000001
 21
2108.0363170000001
 31
0.0
 70
   128
 13
878.44181999999989
 23
2351.5115810000002
 33
0.0
 14
2128.44182
 24
2260.8872670000001
 34
0.0
1001
ACAD
1000
DSTYLE
1002
{
1070
   287
1070
     3
1070
    40
1040
30.0
1070
   143
1040
0.039
1070
   172
1070
     1
1070
   271
1070
     0
1070
   279
1070
     0
1070
   288
1070
     1
1002
}
  0
DIMENSION
  5
7B57
  8
3
  6
CONTINUOUS
  2
*D5
 10
2778.44182
 20
2108.0363170000001
 30
0.0
 11
2453.44182
 21
2183.0363170000001
 31
0.0
 70
     0
 13
2128.44182
 23
2260.8872670000001
 33
0.0
 14
2778.44182
 24
2351.5115810000002
 34
0.0
1001
ACAD
1000
DSTYLE
1002
{
1070
   287
1070
     4
1070
    40
1040
30.0
1070
    75
1070
     1
1070
   143
1040
0.039
1070
   172
1070
     1
1070
   271
1070
     0
1070
   279
1070
     1
1070
   288
1070
     1
1002
}
  0
DIMENSION
  5
7B64
  8
3
  6
CONTINUOUS
  2
*D6
 10
5145.3373039999988
 20
4145.3812340000013
 30
0.0
 11
4810.4752269999999
 21
4145.3812340000013
 31
0.0
 70
   128
 13
4475.3373039999988
 23
3999.5115810000002
 33
0.0
 14
5145.3373039999988
 24
3999.5115810000002
 34
0.0
1001
ACAD
1000
DSTYLE
1002
{
1070
   287
1070
     3
1070
    40
1040
30.0
1070
   143
1040
0.039
1070
   172
1070
     1
1070
   271
1070
     0
1070
   279
1070
     0
1070
   288
1070
     1
1002
}
  0
LINE
  5
7B65
  8
1
  6
CONTINUOUS
 10
5149.3373039999988
 20
3591.5115810000002
 30
0.0
 11
5149.3373039999988
 21
2641.5115810000002
 31
0.0
  0
DIMENSION
  5
7B74
  8
3
  6
CONTINUOUS
  2
*D7
 10
5400.2858779999997
 20
2641.5115810000002
 30
0.0
 11
5400.2858779999997
 21
3120.9858889999991
 31
0.0
 70
   128
 13
5149.3373039999988
 23
3591.5115810000002
 33
0.0
 14
5149.3373039999988
 24
2641.5115810000002
 34
0.0
 50
90.0
1001
ACAD
1000
DSTYLE
1002
{
1070
   287
1070
     3
1070
     3
1000
φ<>
1070
    40
1040
30.0
1070
   143
1040
0.039
1070
   172
1070
     1
1070
   271
1070
     0
1070
   279
1070
     0
1070
   288
1070
     1
1002
}
  0
DIMENSION
  5
7B83
  8
3
  6
CONTINUOUS
  2
*D8
 10
4810.3373039999997
 20
4330.154184
 30
0.0
 11
4979.8373039999997
 21
4411.1030481052294
 31
0.0
 70
   128
 13
5149.3373039999988
 23
3591.5115810000002
 33
0.0
 14
4810.3373039999997
 24
4266.5373380000001
 34
0.0
1001
ACAD
1000
DSTYLE
1002
{
1070
   288
1070
     1
1070
   172
1070
     1
1070
    40
1040
30.0
1070
   271
1070
     0
1070
   143
1040
0.039
1002
}
  0
DIMENSION
  5
7B8F
  8
3
  6
CONTINUOUS
  2
*D9
 10
4200.3373039999997
 20
4330.154184
 30
0.0
 11
4505.3373039999997
 21
4480.1541839999991
 31
0.0
 70
     0
  1
MAX\P640
 13
4810.3373039999997
 23
4266.5373380000001
 33
0.0
 14
4200.3373039999997
 24
3621.5115810000002
 34
0.0
1001
ACAD
1000
DSTYLE
1002
{
1070
   287
1070
     4
1070
    40
1040
30.0
1070
    75
1070
     1
1070
   143
1040
0.039
1070
   172
1070
     1
1070
   271
1070
     0
1070
   279
1070
     1
1070
   288
1070
     1
1002
}
  0
DIMENSION
  5
7B9C
  8
3
  6
CONTINUOUS
  2
*D10
 10
4810.3373039999997
 20
2102.3134420000001
 30
0.0
 11
4606.7658759999986
 21
2102.3134420000001
 31
0.0
 70
   128
 13
4341.3373039999988
 23
2351.5115810000002
 33
0.0
 14
4810.3373039999997
 24
2185.3663379999989
 34
0.0
1001
ACAD
1000
DSTYLE
1002
{
1070
   287
1070
     3
1070
    40
1040
30.0
1070
   143
1040
0.039
1070
   172
1070
     1
1070
   271
1070
     0
1070
   279
1070
     0
1070
   288
1070
     1
1002
}
  0
DIMENSION
  5
7BA8
  8
3
  6
CONTINUOUS
  2
*D11
 10
5261.3373039999997
 20
2102.3134420000001
 30
0.0
 11
5035.8373039999997
 21
2177.3134420000001
 31
0.0
 70
     0
 13
4810.3373039999997
 23
2185.3663379999989
 33
0.0
 14
5261.3373039999997
 24
2351.5115810000002
 34
0.0
1001
ACAD
1000
DSTYLE
1002
{
1070
   287
1070
     4
1070
    40
1040
30.0
1070
    75
1070
     1
1070
   143
1040
0.039
1070
   172
1070
     1
1070
   271
1070
     0
1070
   279
1070
     1
1070
   288
1070
     1
1002
}
  0
DIMENSION
  5
7BB5
  8
3
  6
CONTINUOUS
  2
*D12
 10
2778.44182
 20
6505.7689929999997
 30
0.0
 11
1869.1283490000001
 21
6505.7689929999997
 31
0.0
 70
   128
 13
878.44181999999989
 23
6307.4444200000007
 33
0.0
 14
2778.44182
 24
6307.4444200000007
 34
0.0
1001
ACAD
1000
DSTYLE
1002
{
1070
   287
1070
     3
1070
    40
1040
30.0
1070
   143
1040
0.039
1070
   172
1070
     1
1070
   271
1070
     0
1070
   279
1070
     0
1070
   288
1070
     1
1002
}
  0
DIMENSION
  5
7BC2
  8
3
  6
CONTINUOUS
  2
*D13
 10
3060.2023129999998
 20
5387.4444200000007
 30
0.0
 11
3060.2023129999998
 21
5836.1921540000003
 31
0.0
 70
   128
 13
2778.44182
 23
6307.4444200000007
 33
0.0
 14
2778.44182
 24
5387.4444200000007
 34
0.0
 50
90.0
1001
ACAD
1000
DSTYLE
1002
{
1070
   287
1070
     3
1070
    40
1040
30.0
1070
   143
1040
0.039
1070
   172
1070
     1
1070
   271
1070
     0
1070
   279
1070
     0
1070
   288
1070
     1
1002
}
  0
DIMENSION
  5
7BEA
  8
3
  6
CONTINUOUS
  2
*D14
 10
1385.441818
 20
4185.4413849999992
 30
0.0
 11
1756.9418189999999
 21
4260.4413850000001
 31
0.0
 70
     0
 13
2128.44182
 23
4100.1141159999988
 33
0.0
 14
1385.441818
 24
3116.5115810000002
 34
0.0
1001
ACAD
1000
DSTYLE
1002
{
1070
   287
1070
     4
1070
    40
1040
30.0
1070
    75
1070
     1
1070
   143
1040
0.039
1070
   172
1070
     1
1070
   271
1070
     0
1070
   279
1070
     1
1070
   288
1070
     1
1002
}
  0
LINE
  5
7BEB
  8
1
  6
CONTINUOUS
 10
1987.249671
 20
3327.6531850000001
 30
0.0
 11
1106.751225
 21
2763.8565429999999
 31
0.0
  0
LINE
  5
7BEC
  8
1
  6
CONTINUOUS
 10
2192.4126860000001
 20
2870.9395784962539
 30
0.0
 11
1167.3308549999999
 21
2628.9291840000001
 31
0.0
  0
DIMENSION
  5
7BF9
  8
3
  6
CONTINUOUS
  2
*D15
 10
3237.7181439999999
 20
2351.5115809999988
 30
0.0
 11
3162.718143999999
 21
2734.0115810000002
 31
0.0
 70
     0
 13
2947.012224999999
 23
3116.5115810000002
 33
0.0
 14
2778.44182
 24
2351.5115810000002
 34
0.0
 50
90.0
1001
ACAD
1000
DSTYLE
1002
{
1070
   287
1070
     4
1070
    40
1040
30.0
1070
    75
1070
     1
1070
   143
1040
0.039
1070
   172
1070
     1
1070
   271
1070
     0
1070
   279
1070
     1
1070
   288
1070
     1
1002
}
  0
DIMENSION
  5
7C06
  8
3
  6
CONTINUOUS
  2
*D16
 10
3494.1646560000008
 20
2351.5115809999988
 30
0.0
 11
3494.1646559999999
 21
3293.2708239999988
 31
0.0
 70
   128
 13
2783.44182
 23
4042.0115810000002
 33
0.0
 14
2778.44182
 24
2351.5115810000002
 34
0.0
 50
90.0
1001
ACAD
1000
DSTYLE
1002
{
1070
   287
1070
     3
1070
    40
1040
30.0
1070
   143
1040
0.039
1070
   172
1070
     1
1070
   271
1070
     0
1070
   279
1070
     0
1070
   288
1070
     1
1002
}
  0
DIMENSION
  5
7C6B
  8
3
  2
*D17
 10
878.44182000000012
 20
4363.16530157535
 30
0.0
 11
1838.1251743351229
 21
4363.16530157535
 31
0.0
 70
   128
 13
2783.44182
 23
4042.0115810000002
 33
0.0
 14
878.44182000000012
 24
2451.5115810000002
 34
0.0
1001
ACAD
1000
DSTYLE
1002
{
1070
   287
1070
     3
1070
    40
1040
30.0
1070
   143
1040
0.039
1070
   172
1070
     1
1070
   271
1070
     0
1070
   279
1070
     0
1070
   288
1070
     1
1002
}
  0
LINE
  5
7CB1
  8
1
  6
CONTINUOUS
 10
1568.4418199999991
 20
3571.5115810000002
 30
0.0
 11
2688.4418199999991
 21
3571.5115810000002
 31
0.0
  0
LINE
  5
7CB2
  8
1
 10
1568.44182
 20
2451.5115810000002
 30
0.0
 11
1568.4418199999991
 21
3571.5115810000002
 31
0.0
  0
LINE
  5
7CB3
  8
1
 10
2688.4418199999991
 20
2451.5115810000002
 30
0.0
 11
2688.4418199999991
 21
3571.5115810000002
 31
0.0
  0
ENDSEC
  0
EOF
