  0
SECTION
  2
HEADER
  9
$ACADVER
  1
AC1009
  9
$INSBASE
 10
0.0
 20
0.0
 30
0.0
  9
$EXTMIN
 10
750.0
 20
900.0
 30
0.0
  9
$EXTMAX
 10
5550.0
 20
8359.9567849999985
 30
0.0
  9
$LIMMIN
 10
0.0
 20
0.0
  9
$LIMMAX
 10
297.0
 20
210.0
  9
$ORTHOMODE
 70
     0
  9
$REGENMODE
 70
     1
  9
$FILLMODE
 70
     0
  9
$QTEXTMODE
 70
     0
  9
$MIRRTEXT
 70
     1
  9
$DRAGMODE
 70
     2
  9
$LTSCALE
 40
100.0
  9
$OSMODE
 70
    37
  9
$ATTMODE
 70
     1
  9
$TEXTSIZE
 40
180.0
  9
$TRACEWID
 40
0.05
  9
$TEXTSTYLE
  7
STANDARD
  9
$CLAYER
  8
3
  9
$CELTYPE
  6
BYLAYER
  9
$CECOLOR
 62
   256
  9
$DIMSCALE
 40
30.0
  9
$DIMASZ
 40
2.0
  9
$DIMEXO
 40
0.5
  9
$DIMDLI
 40
10.0
  9
$DIMRND
 40
0.0
  9
$DIMDLE
 40
0.0
  9
$DIMEXE
 40
1.0
  9
$DIMTP
 40
1.0
  9
$DIMTM
 40
1.0
  9
$DIMTXT
 40
3.0
  9
$DIMCEN
 40
0.0
  9
$DIMTSZ
 40
0.0
  9
$DIMTOL
 70
     0
  9
$DIMLIM
 70
     0
  9
$DIMTIH
 70
     0
  9
$DIMTOH
 70
     0
  9
$DIMSE1
 70
     0
  9
$DIMSE2
 70
     0
  9
$DIMTAD
 70
     1
  9
$DIMZIN
 70
     8
  9
$DIMBLK
  1

  9
$DIMASO
 70
     1
  9
$DIMSHO
 70
     1
  9
$DIMPOST
  1

  9
$DIMAPOST
  1

  9
$DIMALT
 70
     0
  9
$DIMALTD
 70
     2
  9
$DIMALTF
 40
0.039
  9
$DIMLFAC
 40
1.0
  9
$DIMTOFL
 70
     1
  9
$DIMTVP
 40
0.0
  9
$DIMTIX
 70
     0
  9
$DIMSOXD
 70
     0
  9
$DIMSAH
 70
     1
  9
$DIMBLK1
  1
OPEN
  9
$DIMBLK2
  1
OPEN
  9
$DIMSTYLE
  2
IGA
  9
$DIMCLRD
 70
     0
  9
$DIMCLRE
 70
     0
  9
$DIMCLRT
 70
     0
  9
$DIMTFAC
 40
10.0
  9
$DIMGAP
 40
1.0
  9
$LUNITS
 70
     2
  9
$LUPREC
 70
     3
  9
$SKETCHINC
 40
0.1
  9
$FILLETRAD
 40
50.0
  9
$AUNITS
 70
     0
  9
$AUPREC
 70
     0
  9
$MENU
  1
acad
  9
$ELEVATION
 40
0.0
  9
$PELEVATION
 40
0.0
  9
$THICKNESS
 40
0.0
  9
$LIMCHECK
 70
     0
  9
$BLIPMODE
 70
     0
  9
$CHAMFERA
 40
0.5
  9
$CHAMFERB
 40
0.5
  9
$SKPOLY
 70
     0
  9
$TDCREATE
 40
2450752.3898946759
  9
$TDUPDATE
 40
2454953.776028275
  9
$TDINDWG
 40
0.0278803819
  9
$TDUSRTIMER
 40
0.0278803819
  9
$USRTIMER
 70
     1
  9
$ANGBASE
 50
0.0
  9
$ANGDIR
 70
     0
  9
$PDMODE
 70
     0
  9
$PDSIZE
 40
0.0
  9
$PLINEWID
 40
0.0
  9
$COORDS
 70
     1
  9
$SPLFRAME
 70
     0
  9
$SPLINETYPE
 70
     6
  9
$SPLINESEGS
 70
     8
  9
$ATTDIA
 70
     0
  9
$ATTREQ
 70
     1
  9
$HANDLING
 70
 10241
  9
$HANDSEED
  5
7EC6
  9
$SURFTAB1
 70
     6
  9
$SURFTAB2
 70
     6
  9
$SURFTYPE
 70
     6
  9
$SURFU
 70
     6
  9
$SURFV
 70
     6
  9
$UCSNAME
  2

  9
$UCSORG
 10
0.0
 20
0.0
 30
0.0
  9
$UCSXDIR
 10
1.0
 20
0.0
 30
0.0
  9
$UCSYDIR
 10
0.0
 20
1.0
 30
0.0
  9
$PUCSNAME
  2

  9
$PUCSORG
 10
0.0
 20
0.0
 30
0.0
  9
$PUCSXDIR
 10
1.0
 20
0.0
 30
0.0
  9
$PUCSYDIR
 10
0.0
 20
1.0
 30
0.0
  9
$USERI1
 70
     0
  9
$USERI2
 70
     0
  9
$USERI3
 70
     0
  9
$USERI4
 70
     0
  9
$USERI5
 70
     0
  9
$USERR1
 40
0.0
  9
$USERR2
 40
0.0
  9
$USERR3
 40
0.0
  9
$USERR4
 40
0.0
  9
$USERR5
 40
0.0
  9
$WORLDVIEW
 70
     1
  9
$SHADEDGE
 70
     3
  9
$SHADEDIF
 70
    70
  9
$TILEMODE
 70
     1
  9
$MAXACTVP
 70
    16
  9
$PLIMCHECK
 70
     0
  9
$PEXTMIN
 10
1.0000000000000000E+020
 20
1.0000000000000000E+020
 30
1.0000000000000000E+020
  9
$PEXTMAX
 10
-1.0000000000000000E+020
 20
-1.0000000000000000E+020
 30
-1.0000000000000000E+020
  9
$PLIMMIN
 10
0.0
 20
0.0
  9
$PLIMMAX
 10
12.0
 20
9.0
  9
$UNITMODE
 70
     0
  9
$VISRETAIN
 70
     0
  9
$PLINEGEN
 70
     0
  9
$PSLTSCALE
 70
     1
  0
ENDSEC
  0
SECTION
  2
TABLES
  0
TABLE
  2
VPORT
 70
     2
  0
VPORT
  2
*ACTIVE
 70
     0
 10
0.0
 20
0.0
 11
1.0
 21
1.0
 12
9438.4567678319436
 22
4630.0975558305709
 13
0.0
 23
0.0
 14
10.0
 24
10.0
 15
10.0
 25
10.0
 16
0.0
 26
0.0
 36
1.0
 17
0.0
 27
0.0
 37
0.0
 40
7517.4747125171307
 41
3.1666666666666661
 42
50.0
 43
0.0
 44
0.0
 50
0.0
 51
0.0
 71
     0
 72
   100
 73
     1
 74
     0
 75
     0
 76
     0
 77
     0
 78
     0
  0
ENDTAB
  0
TABLE
  2
LTYPE
 70
     2
  0
LTYPE
  2
CONTINUOUS
 70
     0
  3
Solid line
 72
    65
 73
     0
 40
0.0
  0
LTYPE
  2
CENTER
 70
     0
  3
____ _ ____ _ ____ _ ____ _ ____ _ ____ _ ____ 
 72
    65
 73
     4
 40
2.0
 49
1.25
 49
-0.25
 49
0.25
 49
-0.25
  0
ENDTAB
  0
TABLE
  2
LAYER
 70
     6
  0
LAYER
  2
0
 70
     0
 62
     7
  6
CONTINUOUS
  0
LAYER
  2
3
 70
     0
 62
     2
  6
CONTINUOUS
  0
LAYER
  2
2
 70
     0
 62
     3
  6
CENTER
  0
LAYER
  2
1
 70
     0
 62
     4
  6
CONTINUOUS
  0
LAYER
  2
4
 70
     0
 62
     7
  6
CONTINUOUS
  0
LAYER
  2
DEFPOINTS
 70
     0
 62
     7
  6
CONTINUOUS
  0
ENDTAB
  0
TABLE
  2
STYLE
 70
     1
  0
STYLE
  2
STANDARD
 70
     0
 40
0.0
 41
1.0
 50
0.0
 71
     0
 42
180.0
  3
simplex.shx
  4
extfont.shx
  0
ENDTAB
  0
TABLE
  2
VIEW
 70
     0
  0
ENDTAB
  0
TABLE
  2
UCS
 70
     0
  0
ENDTAB
  0
TABLE
  2
APPID
 70
     1
  0
APPID
  2
ACAD
 70
     0
  0
ENDTAB
  0
TABLE
  2
DIMSTYLE
 70
     1
  0
DIMSTYLE
  2
IGA
 70
     0
  3

  4

  5

  6
OPEN
  7
OPEN
 40
2.0
 41
2.0
 42
0.5
 43
10.0
 44
1.0
 45
0.0
 46
0.0
 47
1.0
 48
1.0
140
3.0
141
0.0
142
0.0
143
0.03937
144
1.0
145
0.0
146
10.0
147
1.0
 71
     0
 72
     0
 73
     0
 74
     0
 75
     0
 76
     0
 77
     1
 78
     8
170
     0
171
     2
172
     0
173
     1
174
     0
175
     0
176
     0
177
     0
178
     0
  0
ENDTAB
  0
ENDSEC
  0
SECTION
  2
BLOCKS
  0
BLOCK
  8
0
  2
$MODEL_SPACE
 70
     0
 10
0.0
 20
0.0
 30
0.0
  3
$MODEL_SPACE
  1

  0
ENDBLK
  5
1B
  8
0
  0
BLOCK
 67
     1
  8
0
  2
$PAPER_SPACE
 70
     0
 10
0.0
 20
0.0
 30
0.0
  3
$PAPER_SPACE
  1

  0
ENDBLK
  5
18
 67
     1
  8
0
  0
BLOCK
  8
0
  2
_OPEN
 70
     0
 10
0.0
 20
0.0
 30
0.0
  3
_OPEN
  1

  0
LINE
  5
7AEF
  8
0
  6
BYBLOCK
 62
     0
 10
-1.0
 20
0.166667
 30
0.0
 11
0.0
 21
0.0
 31
0.0
  0
LINE
  5
7AF0
  8
0
  6
BYBLOCK
 62
     0
 10
0.0
 20
0.0
 30
0.0
 11
-1.0
 21
-0.166667
 31
0.0
  0
LINE
  5
7AF1
  8
0
  6
BYBLOCK
 62
     0
 10
0.0
 20
0.0
 30
0.0
 11
-1.0
 21
0.0
 31
0.0
  0
ENDBLK
  5
7AF2
  8
0
  0
BLOCK
  8
0
  2
*D1
 70
     1
 10
0.0
 20
0.0
 30
0.0
  3
*D1
  1

  0
LINE
  5
7E2A
  8
3
  6
CONTINUOUS
 62
     0
 10
2809.7430009999998
 20
3404.7722299999991
 30
0.0
 11
3039.5569140000011
 21
3404.7722299999991
 31
0.0
  0
LINE
  5
7E2B
  8
3
  6
CONTINUOUS
 62
     0
 10
2809.7430009999998
 20
2479.77223
 30
0.0
 11
3039.5569139999998
 21
2479.77223
 31
0.0
  0
LINE
  5
7E2C
  8
3
  6
CONTINUOUS
 62
     0
 10
3009.5569140000011
 20
3344.7722299999991
 30
0.0
 11
3009.5569139999998
 21
2539.77223
 31
0.0
  0
INSERT
  5
7E2D
  8
3
  6
CONTINUOUS
 62
     0
  2
_OPEN
 10
3009.5569140000011
 20
3404.7722299999991
 30
0.0
 41
60.0
 42
60.0
 43
60.0
 50
90.0
  0
INSERT
  5
7E2E
  8
3
  6
CONTINUOUS
 62
     0
  2
_OPEN
 10
3009.5569139999998
 20
2479.77223
 30
0.0
 41
60.0
 42
60.0
 43
60.0
 50
270.0
  0
TEXT
  8
3
  40
90
  5
7EB5
  62
0
  72
0
  71
0
 10
2754.56
 20
2774.70
 30
0.000000
  1
925
  0
POINT
  5
7E30
  8
DEFPOINTS
  6
CONTINUOUS
 62
     0
 10
2794.7430009999998
 20
3404.7722299999991
 30
0.0
  0
POINT
  5
7E31
  8
DEFPOINTS
  6
CONTINUOUS
 62
     0
 10
2794.7430009999998
 20
2479.77223
 30
0.0
  0
POINT
  5
7E32
  8
DEFPOINTS
  6
CONTINUOUS
 62
     0
 10
3009.5569139999998
 20
2479.77223
 30
0.0
  0
ENDBLK
  5
7D90
  8
0
  0
BLOCK
  8
0
  2
*D2
 70
     1
 10
0.0
 20
0.0
 30
0.0
  3
*D2
  1

  0
LINE
  5
7E33
  8
3
  6
CONTINUOUS
 62
     0
 10
2927.8769325896351
 20
3362.7722299999991
 30
0.0
 11
3218.772481
 21
3362.7722299999991
 31
0.0
  0
LINE
  5
7E34
  8
3
  6
CONTINUOUS
 62
     0
 10
2824.7430009999998
 20
2479.77223
 30
0.0
 11
3218.772481
 21
2479.77223
 31
0.0
  0
LINE
  5
7E35
  8
3
  6
CONTINUOUS
 62
     0
 10
3188.772481
 20
3302.7722299999991
 30
0.0
 11
3188.772481
 21
2539.77223
 31
0.0
  0
INSERT
  5
7E36
  8
3
  6
CONTINUOUS
 62
     0
  2
_OPEN
 10
3188.772481
 20
3362.7722299999991
 30
0.0
 41
60.0
 42
60.0
 43
60.0
 50
90.0
  0
INSERT
  5
7E37
  8
3
  6
CONTINUOUS
 62
     0
  2
_OPEN
 10
3188.772481
 20
2479.77223
 30
0.0
 41
60.0
 42
60.0
 43
60.0
 50
270.0
  0
TEXT
  8
3
  40
90
  5
7EB6
  62
0
  72
0
  71
0
 10
2933.77
 20
2780.67
 30
0.000000
  1
883
  0
POINT
  5
7E39
  8
DEFPOINTS
  6
CONTINUOUS
 62
     0
 10
2912.8769325896351
 20
3362.7722299999991
 30
0.0
  0
POINT
  5
7E3A
  8
DEFPOINTS
  6
CONTINUOUS
 62
     0
 10
2809.7430009999998
 20
2479.77223
 30
0.0
  0
POINT
  5
7E3B
  8
DEFPOINTS
  6
CONTINUOUS
 62
     0
 10
3188.772481
 20
2479.77223
 30
0.0
  0
ENDBLK
  5
7DC8
  8
0
  0
BLOCK
  8
0
  2
*D3
 70
     1
 10
0.0
 20
0.0
 30
0.0
  3
*D3
  1

  0
LINE
  5
7E3C
  8
3
  6
CONTINUOUS
 62
     0
 10
2789.7430009999998
 20
2257.77223
 30
0.0
 11
2789.7430009999998
 21
1998.820563999999
 31
0.0
  0
LINE
  5
7E3D
  8
3
  6
CONTINUOUS
 62
     0
 10
2139.7430009999998
 20
2166.3855565896829
 30
0.0
 11
2139.7430009999998
 21
1998.820563999999
 31
0.0
  0
LINE
  5
7E3E
  8
3
  6
CONTINUOUS
 62
     0
 10
2729.7430009999998
 20
2028.820563999999
 30
0.0
 11
2199.7430009999998
 21
2028.820563999999
 31
0.0
  0
INSERT
  5
7E3F
  8
3
  6
CONTINUOUS
 62
     0
  2
_OPEN
 10
2789.7430009999998
 20
2028.820563999999
 30
0.0
 41
60.0
 42
60.0
 43
60.0
  0
INSERT
  5
7E40
  8
3
  6
CONTINUOUS
 62
     0
  2
_OPEN
 10
2139.7430009999998
 20
2028.820563999999
 30
0.0
 41
60.0
 42
60.0
 43
60.0
 50
180.0
  0
TEXT
  8
3
  40
90
  5
7EB7
  62
0
  72
0
  71
0
 10
2309.83
 20
1944.52
 30
0.000000
  1
650
  0
POINT
  5
7E42
  8
DEFPOINTS
  6
CONTINUOUS
 62
     0
 10
2789.7430009999998
 20
2272.7722299999991
 30
0.0
  0
POINT
  5
7E43
  8
DEFPOINTS
  6
CONTINUOUS
 62
     0
 10
2139.7430009999998
 20
2181.3855565896829
 30
0.0
  0
POINT
  5
7E44
  8
DEFPOINTS
  6
CONTINUOUS
 62
     0
 10
2139.7430009999998
 20
2028.820563999999
 30
0.0
  0
ENDBLK
  5
7DDD
  8
0
  0
BLOCK
  8
0
  2
*D4
 70
     1
 10
0.0
 20
0.0
 30
0.0
  3
*D4
  1

  0
LINE
  5
7E45
  8
3
  6
CONTINUOUS
 62
     0
 10
889.74300099999994
 20
2257.77223
 30
0.0
 11
889.74300099999994
 21
1998.820563999999
 31
0.0
  0
LINE
  5
7E46
  8
3
  6
CONTINUOUS
 62
     0
 10
2079.7430009999998
 20
2028.820563999999
 30
0.0
 11
949.74300100000005
 21
2028.820563999999
 31
0.0
  0
INSERT
  5
7E47
  8
3
  6
CONTINUOUS
 62
     0
  2
_OPEN
 10
2139.7430009999998
 20
2028.820563999999
 30
0.0
 41
60.0
 42
60.0
 43
60.0
  0
INSERT
  5
7E48
  8
3
  6
CONTINUOUS
 62
     0
  2
_OPEN
 10
889.74300099999994
 20
2028.820563999999
 30
0.0
 41
60.0
 42
60.0
 43
60.0
 50
180.0
  0
TEXT
  8
3
  40
90
  5
7EB8
  62
0
  72
0
  71
0
 10
1334.74
 20
1944.52
 30
0.000000
  1
1250
  0
POINT
  5
7E4A
  8
DEFPOINTS
  6
CONTINUOUS
 62
     0
 10
2139.7430009999998
 20
2181.3855565896829
 30
0.0
  0
POINT
  5
7E4B
  8
DEFPOINTS
  6
CONTINUOUS
 62
     0
 10
889.74300099999994
 20
2272.7722299999991
 30
0.0
  0
POINT
  5
7E4C
  8
DEFPOINTS
  6
CONTINUOUS
 62
     0
 10
889.74300099999994
 20
2028.820563999999
 30
0.0
  0
ENDBLK
  5
7DE7
  8
0
  0
BLOCK
  8
0
  2
*D5
 70
     1
 10
0.0
 20
0.0
 30
0.0
  3
*D5
  1

  0
LINE
  5
7E4D
  8
3
  6
CONTINUOUS
 62
     0
 10
2794.7430009999998
 20
3462.2722299999991
 30
0.0
 11
2794.7430009999998
 21
4286.8552409999993
 31
0.0
  0
LINE
  5
7E4E
  8
3
  6
CONTINUOUS
 62
     0
 10
2139.7430009999998
 20
4123.6307255867378
 30
0.0
 11
2139.7430009999998
 21
4286.8552409999993
 31
0.0
  0
LINE
  5
7E4F
  8
3
  6
CONTINUOUS
 62
     0
 10
2734.7430009999998
 20
4256.8552409999993
 30
0.0
 11
2199.7430009999998
 21
4256.8552409999993
 31
0.0
  0
INSERT
  5
7E50
  8
3
  6
CONTINUOUS
 62
     0
  2
_OPEN
 10
2794.7430009999998
 20
4256.8552409999993
 30
0.0
 41
60.0
 42
60.0
 43
60.0
  0
INSERT
  5
7E51
  8
3
  6
CONTINUOUS
 62
     0
  2
_OPEN
 10
2139.7430009999998
 20
4256.8552409999993
 30
0.0
 41
60.0
 42
60.0
 43
60.0
 50
180.0
  0
TEXT
  8
3
  40
90
  5
7EB9
  62
0
  72
0
  71
0
 10
2297.88
 20
4172.56
 30
0.000000
  1
655
  0
POINT
  5
7E53
  8
DEFPOINTS
  6
CONTINUOUS
 62
     0
 10
2794.7430009999998
 20
3447.2722299999991
 30
0.0
  0
POINT
  5
7E54
  8
DEFPOINTS
  6
CONTINUOUS
 62
     0
 10
2139.7430009999998
 20
4108.6307255867378
 30
0.0
  0
POINT
  5
7E55
  8
DEFPOINTS
  6
CONTINUOUS
 62
     0
 10
2139.7430009999998
 20
4256.8552409999993
 30
0.0
  0
ENDBLK
  5
7DA7
  8
0
  0
BLOCK
  8
0
  2
*D6
 70
     1
 10
0.0
 20
0.0
 30
0.0
  3
*D6
  1

  0
LINE
  5
7E56
  8
3
  6
CONTINUOUS
 62
     0
 10
4493.023306
 20
4022.568573
 30
0.0
 11
4493.023306
 21
4252.4586659999986
 31
0.0
  0
LINE
  5
7E57
  8
3
  6
CONTINUOUS
 62
     0
 10
5163.023306
 20
4022.568573
 30
0.0
 11
5163.023306
 21
4252.4586659999986
 31
0.0
  0
LINE
  5
7E58
  8
3
  6
CONTINUOUS
 62
     0
 10
4553.023306
 20
4222.4586659999986
 30
0.0
 11
5103.023306
 21
4222.4586659999986
 31
0.0
  0
INSERT
  5
7E59
  8
3
  6
CONTINUOUS
 62
     0
  2
_OPEN
 10
4493.023306
 20
4222.4586659999986
 30
0.0
 41
60.0
 42
60.0
 43
60.0
 50
180.0
  0
INSERT
  5
7E5A
  8
3
  6
CONTINUOUS
 62
     0
  2
_OPEN
 10
5163.023306
 20
4222.4586659999986
 30
0.0
 41
60.0
 42
60.0
 43
60.0
  0
TEXT
  8
3
  40
90
  5
7EBA
  62
0
  72
0
  71
0
 10
4649.47
 20
4138.16
 30
0.000000
  1
670
  0
POINT
  5
7E5C
  8
DEFPOINTS
  6
CONTINUOUS
 62
     0
 10
4493.023306
 20
4007.5685729999991
 30
0.0
  0
POINT
  5
7E5D
  8
DEFPOINTS
  6
CONTINUOUS
 62
     0
 10
5163.023306
 20
4007.5685729999991
 30
0.0
  0
POINT
  5
7E5E
  8
DEFPOINTS
  6
CONTINUOUS
 62
     0
 10
5163.023306
 20
4222.4586659999986
 30
0.0
  0
ENDBLK
  5
7BBF
  8
0
  0
BLOCK
  8
0
  2
*D7
 70
     1
 10
0.0
 20
0.0
 30
0.0
  3
*D7
  1

  0
LINE
  5
7E5F
  8
3
  6
CONTINUOUS
 62
     0
 10
5182.023306
 20
3837.7722299999991
 30
0.0
 11
5432.9579890000014
 21
3837.7722299999991
 31
0.0
  0
LINE
  5
7E60
  8
3
  6
CONTINUOUS
 62
     0
 10
5182.023306
 20
2887.77223
 30
0.0
 11
5432.9579890000014
 21
2887.77223
 31
0.0
  0
LINE
  5
7E61
  8
3
  6
CONTINUOUS
 62
     0
 10
5402.9579890000014
 20
3777.7722299999991
 30
0.0
 11
5402.9579890000014
 21
2947.7722299999991
 31
0.0
  0
INSERT
  5
7E62
  8
3
  6
CONTINUOUS
 62
     0
  2
_OPEN
 10
5402.9579890000014
 20
3837.7722299999991
 30
0.0
 41
60.0
 42
60.0
 43
60.0
 50
90.0
  0
INSERT
  5
7E63
  8
3
  6
CONTINUOUS
 62
     0
  2
_OPEN
 10
5402.9579890000014
 20
2887.77223
 30
0.0
 41
60.0
 42
60.0
 43
60.0
 50
270.0
  0
TEXT
  8
3
  40
90
  5
7EBB
  62
0
  72
0
  71
0
 10
5147.96
 20
3209.41
 30
0.000000
  1
φ950
  0
POINT
  5
7E65
  8
DEFPOINTS
  6
CONTINUOUS
 62
     0
 10
5167.023306
 20
3837.7722299999991
 30
0.0
  0
POINT
  5
7E66
  8
DEFPOINTS
  6
CONTINUOUS
 62
     0
 10
5167.023306
 20
2887.77223
 30
0.0
  0
POINT
  5
7E67
  8
DEFPOINTS
  6
CONTINUOUS
 62
     0
 10
5402.9579890000014
 20
2887.77223
 30
0.0
  0
ENDBLK
  5
7CD9
  8
0
  0
BLOCK
  8
0
  2
*D8
 70
     1
 10
0.0
 20
0.0
 30
0.0
  3
*D8
  1

  0
LINE
  5
7CE6
  8
0
  6
BYBLOCK
 62
     0
 10
5167.023306
 20
3852.7722299999991
 30
0.0
 11
5167.023306
 21
4467.3882299999996
 31
0.0
  0
LINE
  5
7CE7
  8
0
  6
BYBLOCK
 62
     0
 10
4828.023306
 20
4382.7976250000002
 30
0.0
 11
4828.023306
 21
4467.3882299999996
 31
0.0
  0
LINE
  5
7CE8
  8
0
  6
BYBLOCK
 62
     0
 10
5107.023306
 20
4437.3882299999987
 30
0.0
 11
4888.023306
 21
4437.3882299999987
 31
0.0
  0
TEXT
  5
7CE9
  8
3
 62
     0
 10
4883.9518774285716
 20
4486.9028268624133
 30
0.0
 40
90.0
  1
339
  0
INSERT
  5
7CEA
  8
0
  6
BYBLOCK
 62
     0
  2
_OPEN
 10
5167.023306
 20
4437.3882299999987
 30
0.0
 41
60.0
 42
60.0
 43
60.0
  0
INSERT
  5
7CEB
  8
0
  6
BYBLOCK
 62
     0
  2
_OPEN
 10
4828.023306
 20
4437.3882299999987
 30
0.0
 41
60.0
 42
60.0
 43
60.0
 50
180.0
  0
POINT
  5
7CEC
  8
DEFPOINTS
  6
BYBLOCK
 62
     0
 10
5167.023306
 20
3837.7722299999991
 30
0.0
  0
POINT
  5
7CED
  8
DEFPOINTS
  6
BYBLOCK
 62
     0
 10
4828.023306
 20
4367.7976250000002
 30
0.0
  0
POINT
  5
7CEE
  8
DEFPOINTS
  6
BYBLOCK
 62
     0
 10
4828.023306
 20
4437.3882299999987
 30
0.0
  0
ENDBLK
  5
7CEF
  8
0
  0
BLOCK
  8
0
  2
*D9
 70
     1
 10
0.0
 20
0.0
 30
0.0
  3
*D9
  1

  0
LINE
  5
7E68
  8
3
  6
CONTINUOUS
 62
     0
 10
4218.023306
 20
3817.77223
 30
0.0
 11
4218.023306
 21
4467.3882299999996
 31
0.0
  0
LINE
  5
7E69
  8
3
  6
CONTINUOUS
 62
     0
 10
4768.0233059999991
 20
4437.3882299999987
 30
0.0
 11
4278.023306
 21
4437.3882299999987
 31
0.0
  0
INSERT
  5
7E6A
  8
3
  6
CONTINUOUS
 62
     0
  2
_OPEN
 10
4828.023306
 20
4437.3882299999987
 30
0.0
 41
60.0
 42
60.0
 43
60.0
  0
INSERT
  5
7E6B
  8
3
  6
CONTINUOUS
 62
     0
  2
_OPEN
 10
4218.023306
 20
4437.3882299999987
 30
0.0
 41
60.0
 42
60.0
 43
60.0
 50
180.0
  0
TEXT
  8
3
  40
90
  5
7EBC
  62
0
  72
0
  71
0
 10
4343.02
 20
4428.09
 30
0.000000
  1
MAX
  0
TEXT
  8
3
  40
90
  5
7EBD
  62
0
  72
0
  71
0
 10
4343.02
 20
4311.09
 30
0.000000
  1
640
  0
POINT
  5
7E6D
  8
DEFPOINTS
  6
CONTINUOUS
 62
     0
 10
4828.023306
 20
4367.7976250000002
 30
0.0
  0
POINT
  5
7E6E
  8
DEFPOINTS
  6
CONTINUOUS
 62
     0
 10
4218.023306
 20
3802.7722299999991
 30
0.0
  0
POINT
  5
7E6F
  8
DEFPOINTS
  6
CONTINUOUS
 62
     0
 10
4218.023306
 20
4437.3882299999987
 30
0.0
  0
ENDBLK
  5
7CCE
  8
0
  0
BLOCK
  8
0
  2
*D10
 70
     1
 10
0.0
 20
0.0
 30
0.0
  3
*D10
  1

  0
LINE
  5
7E70
  8
3
  6
CONTINUOUS
 62
     0
 10
4359.023306
 20
2272.7722299999991
 30
0.0
 11
4359.023306
 21
2000.7180809999991
 31
0.0
  0
LINE
  5
7E71
  8
3
  6
CONTINUOUS
 62
     0
 10
4828.023306
 20
2113.5610674677841
 30
0.0
 11
4828.023306
 21
2000.7180809999991
 31
0.0
  0
LINE
  5
7E72
  8
3
  6
CONTINUOUS
 62
     0
 10
4419.023306
 20
2030.7180809999991
 30
0.0
 11
4768.0233059999991
 21
2030.7180809999991
 31
0.0
  0
INSERT
  5
7E73
  8
3
  6
CONTINUOUS
 62
     0
  2
_OPEN
 10
4359.023306
 20
2030.7180809999991
 30
0.0
 41
60.0
 42
60.0
 43
60.0
 50
180.0
  0
INSERT
  5
7E74
  8
3
  6
CONTINUOUS
 62
     0
  2
_OPEN
 10
4828.023306
 20
2030.7180809999991
 30
0.0
 41
60.0
 42
60.0
 43
60.0
  0
TEXT
  8
3
  40
90
  5
7EBE
  62
0
  72
0
  71
0
 10
4444.45
 20
1946.42
 30
0.000000
  1
469
  0
POINT
  5
7E76
  8
DEFPOINTS
  6
CONTINUOUS
 62
     0
 10
4359.023306
 20
2287.7722299999991
 30
0.0
  0
POINT
  5
7E77
  8
DEFPOINTS
  6
CONTINUOUS
 62
     0
 10
4828.023306
 20
2128.5610674677851
 30
0.0
  0
POINT
  5
7E78
  8
DEFPOINTS
  6
CONTINUOUS
 62
     0
 10
4828.023306
 20
2030.7180809999991
 30
0.0
  0
ENDBLK
  5
7D7B
  8
0
  0
BLOCK
  8
0
  2
*D11
 70
     1
 10
0.0
 20
0.0
 30
0.0
  3
*D11
  1

  0
LINE
  5
7E79
  8
3
  6
CONTINUOUS
 62
     0
 10
5279.023306
 20
2272.7722299999991
 30
0.0
 11
5279.023306
 21
2000.7180809999991
 31
0.0
  0
LINE
  5
7E7A
  8
3
  6
CONTINUOUS
 62
     0
 10
4888.023306
 20
2030.7180809999991
 30
0.0
 11
5219.023306
 21
2030.7180809999991
 31
0.0
  0
INSERT
  5
7E7B
  8
3
  6
CONTINUOUS
 62
     0
  2
_OPEN
 10
4828.023306
 20
2030.7180809999991
 30
0.0
 41
60.0
 42
60.0
 43
60.0
 50
180.0
  0
INSERT
  5
7E7C
  8
3
  6
CONTINUOUS
 62
     0
  2
_OPEN
 10
5279.023306
 20
2030.7180809999991
 30
0.0
 41
60.0
 42
60.0
 43
60.0
  0
TEXT
  8
3
  40
90
  5
7EBF
  62
0
  72
0
  71
0
 10
4873.52
 20
1946.42
 30
0.000000
  1
451
  0
POINT
  5
7E7E
  8
DEFPOINTS
  6
CONTINUOUS
 62
     0
 10
4828.023306
 20
2128.5610674677851
 30
0.0
  0
POINT
  5
7E7F
  8
DEFPOINTS
  6
CONTINUOUS
 62
     0
 10
5279.023306
 20
2287.7722299999991
 30
0.0
  0
POINT
  5
7E80
  8
DEFPOINTS
  6
CONTINUOUS
 62
     0
 10
5279.023306
 20
2030.7180809999991
 30
0.0
  0
ENDBLK
  5
7D85
  8
0
  0
BLOCK
  8
0
  2
*D12
 70
     1
 10
0.0
 20
0.0
 30
0.0
  3
*D12
  1

  0
LINE
  5
7E81
  8
3
  6
CONTINUOUS
 62
     0
 10
889.74300099999994
 20
6324.6977299999999
 30
0.0
 11
889.74300099999994
 21
6598.9143180000001
 31
0.0
  0
LINE
  5
7E82
  8
3
  6
CONTINUOUS
 62
     0
 10
2789.7430009999998
 20
6324.6977299999999
 30
0.0
 11
2789.7430009999998
 21
6598.9143180000001
 31
0.0
  0
LINE
  5
7E83
  8
3
  6
CONTINUOUS
 62
     0
 10
949.74300100000005
 20
6568.9143180000001
 30
0.0
 11
2729.7430009999998
 21
6568.9143180000001
 31
0.0
  0
INSERT
  5
7E84
  8
3
  6
CONTINUOUS
 62
     0
  2
_OPEN
 10
889.74300099999994
 20
6568.9143180000001
 30
0.0
 41
60.0
 42
60.0
 43
60.0
 50
180.0
  0
INSERT
  5
7E85
  8
3
  6
CONTINUOUS
 62
     0
  2
_OPEN
 10
2789.7430009999998
 20
6568.9143180000001
 30
0.0
 41
60.0
 42
60.0
 43
60.0
  0
TEXT
  8
3
  40
90
  5
7EC0
  62
0
  72
0
  71
0
 10
1628.81
 20
6484.61
 30
0.000000
  1
1900
  0
POINT
  5
7E87
  8
DEFPOINTS
  6
CONTINUOUS
 62
     0
 10
889.74300099999994
 20
6309.697729999999
 30
0.0
  0
POINT
  5
7E88
  8
DEFPOINTS
  6
CONTINUOUS
 62
     0
 10
2789.7430009999998
 20
6309.697729999999
 30
0.0
  0
POINT
  5
7E89
  8
DEFPOINTS
  6
CONTINUOUS
 62
     0
 10
2789.7430009999998
 20
6568.9143180000001
 30
0.0
  0
ENDBLK
  5
7CBA
  8
0
  0
BLOCK
  8
0
  2
*D13
 70
     1
 10
0.0
 20
0.0
 30
0.0
  3
*D13
  1

  0
LINE
  5
7E8A
  8
3
  6
CONTINUOUS
 62
     0
 10
2804.7430009999998
 20
6309.697729999999
 30
0.0
 11
3081.3739
 21
6309.697729999999
 31
0.0
  0
LINE
  5
7E8B
  8
3
  6
CONTINUOUS
 62
     0
 10
2804.7430009999998
 20
5389.6977299999999
 30
0.0
 11
3081.3739
 21
5389.6977299999999
 31
0.0
  0
LINE
  5
7E8C
  8
3
  6
CONTINUOUS
 62
     0
 10
3051.373900000001
 20
6249.6977299999999
 30
0.0
 11
3051.373900000001
 21
5449.6977299999999
 31
0.0
  0
INSERT
  5
7E8D
  8
3
  6
CONTINUOUS
 62
     0
  2
_OPEN
 10
3051.373900000001
 20
6309.697729999999
 30
0.0
 41
60.0
 42
60.0
 43
60.0
 50
90.0
  0
INSERT
  5
7E8E
  8
3
  6
CONTINUOUS
 62
     0
  2
_OPEN
 10
3051.373900000001
 20
5389.6977299999999
 30
0.0
 41
60.0
 42
60.0
 43
60.0
 50
270.0
  0
TEXT
  8
3
  40
90
  5
7EC1
  62
0
  72
0
  71
0
 10
2796.37
 20
5702.00
 30
0.000000
  1
920
  0
POINT
  5
7E90
  8
DEFPOINTS
  6
CONTINUOUS
 62
     0
 10
2789.7430009999998
 20
6309.697729999999
 30
0.0
  0
POINT
  5
7E91
  8
DEFPOINTS
  6
CONTINUOUS
 62
     0
 10
2789.7430009999998
 20
5389.6977299999999
 30
0.0
  0
POINT
  5
7E92
  8
DEFPOINTS
  6
CONTINUOUS
 62
     0
 10
3051.373900000001
 20
5389.6977299999999
 30
0.0
  0
ENDBLK
  5
7C1F
  8
0
  0
BLOCK
  8
0
  2
*D14
 70
     1
 10
0.0
 20
0.0
 30
0.0
  3
*D14
  1

  0
LINE
  5
7E93
  8
3
  6
CONTINUOUS
 62
     0
 10
1396.7429990000001
 20
3377.7722299999991
 30
0.0
 11
1396.7429990000001
 21
4286.8552409999993
 31
0.0
  0
LINE
  5
7E94
  8
3
  6
CONTINUOUS
 62
     0
 10
2079.7430009999998
 20
4256.8552409999993
 30
0.0
 11
1456.7429990000001
 21
4256.8552409999993
 31
0.0
  0
INSERT
  5
7E95
  8
3
  6
CONTINUOUS
 62
     0
  2
_OPEN
 10
2139.7430009999998
 20
4256.8552409999993
 30
0.0
 41
60.0
 42
60.0
 43
60.0
  0
INSERT
  5
7E96
  8
3
  6
CONTINUOUS
 62
     0
  2
_OPEN
 10
1396.7429990000001
 20
4256.8552409999993
 30
0.0
 41
60.0
 42
60.0
 43
60.0
 50
180.0
  0
TEXT
  8
3
  40
90
  5
7EC2
  62
0
  72
0
  71
0
 10
1588.24
 20
4172.56
 30
0.000000
  1
743
  0
POINT
  5
7E98
  8
DEFPOINTS
  6
CONTINUOUS
 62
     0
 10
2139.7430009999998
 20
4108.6307255867378
 30
0.0
  0
POINT
  5
7E99
  8
DEFPOINTS
  6
CONTINUOUS
 62
     0
 10
1396.7429990000001
 20
3362.7722299999991
 30
0.0
  0
POINT
  5
7E9A
  8
DEFPOINTS
  6
CONTINUOUS
 62
     0
 10
1396.7429990000001
 20
4256.8552409999993
 30
0.0
  0
ENDBLK
  5
7DB1
  8
0
  0
BLOCK
  8
0
  2
*D15
 70
     1
 10
0.0
 20
0.0
 30
0.0
  3
*D15
  1

  0
LINE
  5
7E9B
  8
3
  6
CONTINUOUS
 62
     0
 10
2154.7430009999998
 20
4005.7671729917311
 30
0.0
 11
3419.1191670000012
 21
4005.7671729917301
 31
0.0
  0
LINE
  5
7E9C
  8
3
  6
CONTINUOUS
 62
     0
 10
2942.8769325896351
 20
3362.7722299999991
 30
0.0
 11
3419.1191670000012
 21
3362.7722299999991
 31
0.0
  0
LINE
  5
7E9D
  8
3
  6
CONTINUOUS
 62
     0
 10
3389.1191670000012
 20
3945.7671729917311
 30
0.0
 11
3389.1191670000012
 21
3422.7722299999991
 31
0.0
  0
INSERT
  5
7E9E
  8
3
  6
CONTINUOUS
 62
     0
  2
_OPEN
 10
3389.1191670000012
 20
4005.7671729917301
 30
0.0
 41
60.0
 42
60.0
 43
60.0
 50
90.0
  0
INSERT
  5
7E9F
  8
3
  6
CONTINUOUS
 62
     0
  2
_OPEN
 10
3389.1191670000012
 20
3362.7722299999991
 30
0.0
 41
60.0
 42
60.0
 43
60.0
 50
270.0
  0
TEXT
  8
3
  40
90
  5
7EC3
  62
0
  72
0
  71
0
 10
3134.12
 20
3534.71
 30
0.000000
  1
643
  0
POINT
  5
7EA1
  8
DEFPOINTS
  6
CONTINUOUS
 62
     0
 10
2139.7430009999998
 20
4005.7671729917311
 30
0.0
  0
POINT
  5
7EA2
  8
DEFPOINTS
  6
CONTINUOUS
 62
     0
 10
2927.8769325896351
 20
3362.7722299999991
 30
0.0
  0
POINT
  5
7EA3
  8
DEFPOINTS
  6
CONTINUOUS
 62
     0
 10
3389.1191670000012
 20
3362.7722299999991
 30
0.0
  0
ENDBLK
  5
7DBD
  8
0
  0
BLOCK
  8
0
  2
*D16
 70
     1
 10
0.0
 20
0.0
 30
0.0
  3
*D16
  1

  0
LINE
  5
7EA4
  8
3
  6
CONTINUOUS
 62
     0
 10
2804.7430009999998
 20
2272.7722299999991
 30
0.0
 11
3419.1191669999998
 21
2272.7722299999991
 31
0.0
  0
LINE
  5
7EA5
  8
3
  6
CONTINUOUS
 62
     0
 10
3389.1191669999998
 20
3302.7722299999991
 30
0.0
 11
3389.1191669999998
 21
2332.7722299999991
 31
0.0
  0
INSERT
  5
7EA6
  8
3
  6
CONTINUOUS
 62
     0
  2
_OPEN
 10
3389.1191669999998
 20
3362.7722299999991
 30
0.0
 41
60.0
 42
60.0
 43
60.0
 50
90.0
  0
INSERT
  5
7EA7
  8
3
  6
CONTINUOUS
 62
     0
  2
_OPEN
 10
3389.1191669999998
 20
2272.7722299999991
 30
0.0
 41
60.0
 42
60.0
 43
60.0
 50
270.0
  0
TEXT
  8
3
  40
90
  5
7EC4
  62
0
  72
0
  71
0
 10
3134.12
 20
2658.47
 30
0.000000
  1
1090
  0
POINT
  5
7EA9
  8
DEFPOINTS
  6
CONTINUOUS
 62
     0
 10
2927.8769325896351
 20
3362.7722299999991
 30
0.0
  0
POINT
  5
7EAA
  8
DEFPOINTS
  6
CONTINUOUS
 62
     0
 10
2789.7430009999998
 20
2272.7722299999991
 30
0.0
  0
POINT
  5
7EAB
  8
DEFPOINTS
  6
CONTINUOUS
 62
     0
 10
3389.1191669999998
 20
2272.7722299999991
 30
0.0
  0
ENDBLK
  5
7DD2
  8
0
  0
BLOCK
  8
0
  2
*D17
 70
     1
 10
0.0
 20
0.0
 30
0.0
  3
*D17
  1

  0
LINE
  5
7EAC
  8
3
 62
     0
 10
2794.7430009999998
 20
3462.2722299999991
 30
0.0
 11
2794.7430009999998
 21
4459.5030123718971
 31
0.0
  0
LINE
  5
7EAD
  8
3
 62
     0
 10
889.74300099999994
 20
2387.7722299999991
 30
0.0
 11
889.74300099999994
 21
4459.5030123718971
 31
0.0
  0
LINE
  5
7EAE
  8
3
 62
     0
 10
2734.7430009999998
 20
4429.5030123718971
 30
0.0
 11
949.74300100000005
 21
4429.5030123718971
 31
0.0
  0
INSERT
  5
7EAF
  8
3
 62
     0
  2
_OPEN
 10
2794.7430009999998
 20
4429.5030123718971
 30
0.0
 41
60.0
 42
60.0
 43
60.0
  0
INSERT
  5
7EB0
  8
3
 62
     0
  2
_OPEN
 10
889.74300099999994
 20
4429.5030123718971
 30
0.0
 41
60.0
 42
60.0
 43
60.0
 50
180.0
  0
TEXT
  8
3
  40
90
  5
7EC5
  62
0
  72
0
  71
0
 10
1788.68
 20
4345.20
 30
0.000000
  1
1905
  0
POINT
  5
7EB2
  8
DEFPOINTS
 62
     0
 10
2794.7430009999998
 20
3447.2722299999991
 30
0.0
  0
POINT
  5
7EB3
  8
DEFPOINTS
 62
     0
 10
889.74300099999994
 20
2372.7722299999991
 30
0.0
  0
POINT
  5
7EB4
  8
DEFPOINTS
 62
     0
 10
889.74300099999994
 20
4429.5030123718971
 30
0.0
  0
ENDBLK
  5
7D2E
  8
0
  0
ENDSEC
  0
SECTION
  2
ENTITIES
  0
LINE
  5
7A69
  8
1
  6
CONTINUOUS
 10
2619.7430009999998
 20
3802.7722299999991
 30
0.0
 11
1959.743001
 21
3802.7722299999991
 31
0.0
  0
LINE
  5
7A6A
  8
1
  6
CONTINUOUS
 10
2789.7430009999998
 20
2272.7722299999991
 30
0.0
 11
889.74300099999994
 21
2272.7722299999991
 31
0.0
  0
LINE
  5
7A6B
  8
1
  6
CONTINUOUS
 10
2789.7430009999998
 20
2372.7722299999991
 30
0.0
 11
889.74300099999994
 21
2372.7722299999991
 31
0.0
  0
POLYLINE
  5
7A6F
  8
1
  6
CONTINUOUS
 66
     1
 10
0.0
 20
0.0
 30
0.0
  0
VERTEX
  5
7E24
  8
1
  6
CONTINUOUS
 10
2794.7430009999998
 20
2479.77223
 30
0.0
  0
VERTEX
  5
7E25
  8
1
  6
CONTINUOUS
 10
2139.7430009999998
 20
2501.77223
 30
0.0
 42
-0.4168370000000001
  0
VERTEX
  5
7E26
  8
1
  6
CONTINUOUS
 10
1397.3030409999999
 20
3369.9461719999999
 30
0.0
 42
-0.429867
  0
VERTEX
  5
7E27
  8
1
  6
CONTINUOUS
 10
2183.6191610000001
 20
4001.1974070000001
 30
0.0
 42
-0.373172
  0
VERTEX
  5
7E28
  8
1
  6
CONTINUOUS
 10
2707.7117280000002
 20
3404.7722299999991
 30
0.0
 42
-0.34598
  0
SEQEND
  5
7E29
  8
1
  6
CONTINUOUS
  0
LINE
  5
7A78
  8
1
  6
CONTINUOUS
 10
979.74300099999994
 20
2737.7722299999991
 30
0.0
 11
1959.743001
 21
3802.7722299999991
 31
0.0
  0
LINE
  5
7A79
  8
1
  6
CONTINUOUS
 10
979.74300099999994
 20
2372.7722299999991
 30
0.0
 11
979.74300099999994
 21
2737.7722299999991
 31
0.0
  0
LINE
  5
7A7A
  8
1
  6
CONTINUOUS
 10
1292.400666
 20
2529.7886629999989
 30
0.0
 11
1347.243001
 21
2462.7722299999991
 31
0.0
  0
LINE
  5
7A7B
  8
1
  6
CONTINUOUS
 10
972.24300100000005
 20
2462.7722299999991
 30
0.0
 11
1027.0853349999991
 21
2529.7886629999989
 31
0.0
  0
ARC
  5
7A7C
  8
1
  6
CONTINUOUS
 10
1159.743001
 20
2622.7722299999991
 30
0.0
 40
162.0
 50
324.972283
 51
215.02771699999991
  0
LINE
  5
7A7D
  8
1
  6
CONTINUOUS
 10
972.24300100000005
 20
2462.7722299999991
 30
0.0
 11
962.24300100000005
 21
2412.7722299999991
 31
0.0
  0
LINE
  5
7A7E
  8
1
  6
CONTINUOUS
 10
962.24300100000005
 20
2412.7722299999991
 30
0.0
 11
962.24300100000005
 21
2372.7722299999991
 31
0.0
  0
LINE
  5
7A7F
  8
1
  6
CONTINUOUS
 10
889.74300099999994
 20
2372.7722299999991
 30
0.0
 11
889.74300099999994
 21
2272.7722299999991
 31
0.0
  0
LINE
  5
7A80
  8
1
  6
CONTINUOUS
 10
1357.243001
 20
2412.7722299999991
 30
0.0
 11
1347.243001
 21
2462.7722299999991
 31
0.0
  0
LINE
  5
7A81
  8
1
  6
CONTINUOUS
 10
1357.243001
 20
2412.7722299999991
 30
0.0
 11
1357.243001
 21
2372.7722299999991
 31
0.0
  0
LINE
  5
7A82
  8
2
  6
CENTER
 10
1079.743001
 20
2622.7722299999991
 30
0.0
 11
1239.743001
 21
2622.7722299999991
 31
0.0
  0
CIRCLE
  5
7A83
  8
1
  6
CONTINUOUS
 10
1159.743001
 20
2622.7722299999991
 30
0.0
 40
75.0
  0
LINE
  5
7A84
  8
2
  6
CENTER
 10
1159.743001
 20
2542.7722299999991
 30
0.0
 11
1159.743001
 21
2702.7722299999991
 31
0.0
  0
LINE
  5
7A85
  8
2
  6
CENTER
 10
2139.7430009999998
 20
2196.3855565896829
 30
0.0
 11
2139.7430009999998
 21
4108.6307255867378
 31
0.0
  0
CIRCLE
  5
7A86
  8
1
  6
CONTINUOUS
 10
2139.7430009999998
 20
3362.7722299999991
 30
0.0
 40
254.0
  0
LINE
  5
7A88
  8
2
  6
CENTER
 10
1286.4568762073541
 20
3362.7722299999991
 30
0.0
 11
2912.8769325896351
 21
3362.7722299999991
 31
0.0
  0
LINE
  5
7A89
  8
1
  6
CONTINUOUS
 10
4493.023306
 20
2479.77223
 30
0.0
 11
5163.023306
 21
2479.77223
 31
0.0
  0
LINE
  5
7A8A
  8
1
  6
CONTINUOUS
 10
4493.023306
 20
3404.7722299999991
 30
0.0
 11
5163.023306
 21
3404.7722299999991
 31
0.0
  0
LINE
  5
7A8B
  8
1
  6
CONTINUOUS
 10
4493.023306
 20
4007.5685729999991
 30
0.0
 11
5163.023306
 21
4007.5685729999991
 31
0.0
  0
LINE
  5
7A8C
  8
1
  6
CONTINUOUS
 10
4359.023306
 20
2372.7722299999991
 30
0.0
 11
5279.023306
 21
2372.7722299999991
 31
0.0
  0
LINE
  5
7A8D
  8
1
  6
CONTINUOUS
 10
4493.023306
 20
3404.7722299999991
 30
0.0
 11
5163.023306
 21
2479.77223
 31
0.0
  0
LINE
  5
7A8E
  8
1
  6
CONTINUOUS
 10
4493.023306
 20
2479.77223
 30
0.0
 11
5163.023306
 21
3404.7722299999991
 31
0.0
  0
LINE
  5
7A8F
  8
1
  6
CONTINUOUS
 10
4359.023306
 20
2272.7722299999991
 30
0.0
 11
5279.023306
 21
2272.7722299999991
 31
0.0
  0
LINE
  5
7A90
  8
1
  6
CONTINUOUS
 10
4440.0233059999991
 20
3802.7722299999991
 30
0.0
 11
4440.0233059999991
 21
2372.7722299999991
 31
0.0
  0
LINE
  5
7A91
  8
1
  6
CONTINUOUS
 10
4218.023306
 20
3802.7722299999991
 30
0.0
 11
4218.023306
 21
2372.7722299999991
 31
0.0
  0
LINE
  5
7A92
  8
1
  6
CONTINUOUS
 10
4407.023306
 20
3616.7722299999991
 30
0.0
 11
4407.023306
 21
3108.77223
 31
0.0
  0
LINE
  5
7A93
  8
1
  6
CONTINUOUS
 10
2619.7430009999998
 20
2372.7722299999991
 30
0.0
 11
2619.7430009999998
 21
3802.7722299999991
 31
0.0
  0
LINE
  5
7A94
  8
1
  6
CONTINUOUS
 10
4303.023306
 20
3616.7722299999991
 30
0.0
 11
4303.023306
 21
3108.77223
 31
0.0
  0
LINE
  5
7A95
  8
1
  6
CONTINUOUS
 10
4493.023306
 20
4007.5685729999991
 30
0.0
 11
4493.023306
 21
2372.7722299999991
 31
0.0
  0
LINE
  5
7A97
  8
1
  6
CONTINUOUS
 10
2754.7430009999998
 20
3404.7722299999991
 30
0.0
 11
2754.7430009999998
 21
2481.1157409999992
 31
0.0
  0
LINE
  5
7A98
  8
1
  6
CONTINUOUS
 10
2794.7430009999998
 20
3447.2722299999991
 30
0.0
 11
2794.7430009999998
 21
2437.27223
 31
0.0
  0
LINE
  5
7A99
  8
1
  6
CONTINUOUS
 10
2789.7430009999998
 20
2372.7722299999991
 30
0.0
 11
2789.7430009999998
 21
2272.7722299999991
 31
0.0
  0
LINE
  5
7A9A
  8
1
  6
CONTINUOUS
 10
4218.023306
 20
2372.7722299999991
 30
0.0
 11
4359.023306
 21
2372.7722299999991
 31
0.0
  0
LINE
  5
7A9B
  8
1
  6
CONTINUOUS
 10
4359.023306
 20
2372.7722299999991
 30
0.0
 11
4359.023306
 21
2272.7722299999991
 31
0.0
  0
LINE
  5
7A9C
  8
1
  6
CONTINUOUS
 10
4407.023306
 20
2697.7722299999991
 30
0.0
 11
4407.023306
 21
2547.7722299999991
 31
0.0
  0
LINE
  5
7A9D
  8
1
  6
CONTINUOUS
 10
4303.023306
 20
2697.7722299999991
 30
0.0
 11
4303.023306
 21
2547.7722299999991
 31
0.0
  0
LINE
  5
7A9E
  8
1
  6
CONTINUOUS
 10
4407.023306
 20
2601.7722299999991
 30
0.0
 11
4493.023306
 21
2601.7722299999991
 31
0.0
  0
LINE
  5
7A9F
  8
1
  6
CONTINUOUS
 10
4407.023306
 20
2643.7722299999991
 30
0.0
 11
4493.023306
 21
2643.7722299999991
 31
0.0
  0
LINE
  5
7AA0
  8
1
  6
CONTINUOUS
 10
4303.023306
 20
2547.7722299999991
 30
0.0
 11
4407.023306
 21
2547.7722299999991
 31
0.0
  0
LINE
  5
7AA1
  8
1
  6
CONTINUOUS
 10
4303.023306
 20
2697.7722299999991
 30
0.0
 11
4407.023306
 21
2697.7722299999991
 31
0.0
  0
LINE
  5
7AA2
  8
1
  6
CONTINUOUS
 10
4303.023306
 20
3108.77223
 30
0.0
 11
4407.023306
 21
3108.77223
 31
0.0
  0
LINE
  5
7AA3
  8
1
  6
CONTINUOUS
 10
2707.7117280000002
 20
3404.7722299999991
 30
0.0
 11
2794.7430009999998
 21
3404.7722299999991
 31
0.0
  0
LINE
  5
7AA4
  8
1
  6
CONTINUOUS
 10
4218.023306
 20
3802.7722299999991
 30
0.0
 11
4440.0233059999991
 21
3802.7722299999991
 31
0.0
  0
LINE
  5
7AA5
  8
1
  6
CONTINUOUS
 10
4407.023306
 20
3337.77223
 30
0.0
 11
4493.023306
 21
3337.77223
 31
0.0
  0
LINE
  5
7AA6
  8
1
  6
CONTINUOUS
 10
4407.023306
 20
3387.7722299999991
 30
0.0
 11
4493.023306
 21
3387.7722299999991
 31
0.0
  0
LINE
  5
7AA7
  8
1
  6
CONTINUOUS
 10
4303.023306
 20
3616.7722299999991
 30
0.0
 11
4407.023306
 21
3616.7722299999991
 31
0.0
  0
LINE
  5
7AA8
  8
1
  6
CONTINUOUS
 10
5163.023306
 20
4007.5685729999991
 30
0.0
 11
5163.023306
 21
2372.7722299999991
 31
0.0
  0
LINE
  5
7AA9
  8
1
  6
CONTINUOUS
 10
5279.023306
 20
2372.7722299999991
 30
0.0
 11
5279.023306
 21
2272.7722299999991
 31
0.0
  0
LINE
  5
7AAA
  8
1
  6
CONTINUOUS
 10
2789.7430009999998
 20
6309.697729999999
 30
0.0
 11
889.74300099999994
 21
6309.697729999999
 31
0.0
  0
LINE
  5
7AAB
  8
1
  6
CONTINUOUS
 10
979.74300099999994
 20
5300.6977299999999
 30
0.0
 11
2619.7430009999998
 21
5300.6977299999999
 31
0.0
  0
LINE
  5
7AAC
  8
1
  6
CONTINUOUS
 10
979.74300099999994
 20
5470.6977299999999
 30
0.0
 11
2619.7430009999998
 21
5470.6977299999999
 31
0.0
  0
LINE
  5
7AAD
  8
1
  6
CONTINUOUS
 10
2794.7430009999998
 20
5523.6977299999999
 30
0.0
 11
1394.5757289999999
 21
5523.6977299999999
 31
0.0
  0
LINE
  5
7AAE
  8
1
  6
CONTINUOUS
 10
2794.7430009999998
 20
6193.6977299999999
 30
0.0
 11
1394.5757289999999
 21
6193.6977299999999
 31
0.0
  0
LINE
  5
7AAF
  8
1
  6
CONTINUOUS
 10
2789.7430009999998
 20
5389.6977299999999
 30
0.0
 11
2393.7430009999998
 21
5389.6977299999999
 31
0.0
  0
LINE
  5
7AB0
  8
1
  6
CONTINUOUS
 10
1885.743001
 20
5389.6977299999999
 30
0.0
 11
1234.743001
 21
5389.6977299999999
 31
0.0
  0
LINE
  5
7AB1
  8
1
  6
CONTINUOUS
 10
889.74300099999994
 20
5389.6977299999999
 30
0.0
 11
889.74300099999994
 21
6309.697729999999
 31
0.0
  0
LINE
  5
7AB2
  8
1
  6
CONTINUOUS
 10
997.74300099999994
 20
5481.6977299999999
 30
0.0
 11
997.74300099999994
 21
5966.697729999999
 31
0.0
  0
LINE
  5
7AB3
  8
1
  6
CONTINUOUS
 10
1321.743001
 20
5481.6977299999999
 30
0.0
 11
1321.743001
 21
5966.697729999999
 31
0.0
  0
LINE
  5
7AB4
  8
1
  6
CONTINUOUS
 10
1394.5757289999999
 20
5523.6977299999999
 30
0.0
 11
1394.5757289999999
 21
6193.6977299999999
 31
0.0
  0
LINE
  5
7AB5
  8
1
  6
CONTINUOUS
 10
997.74300099999994
 20
5481.6977299999999
 30
0.0
 11
1321.743001
 21
5481.6977299999999
 31
0.0
  0
LINE
  5
7AB6
  8
1
  6
CONTINUOUS
 10
1084.743001
 20
5333.6977299999999
 30
0.0
 11
1234.743001
 21
5333.6977299999999
 31
0.0
  0
LINE
  5
7AB7
  8
1
  6
CONTINUOUS
 10
1084.743001
 20
5437.6977299999999
 30
0.0
 11
1234.743001
 21
5437.6977299999999
 31
0.0
  0
LINE
  5
7AB8
  8
1
  6
CONTINUOUS
 10
1084.743001
 20
5389.6977299999999
 30
0.0
 11
889.74300099999994
 21
5389.6977299999999
 31
0.0
  0
LINE
  5
7AB9
  8
1
  6
CONTINUOUS
 10
979.74300099999994
 20
5300.6977299999999
 30
0.0
 11
979.74300099999994
 21
5470.6977299999999
 31
0.0
  0
LINE
  5
7ABA
  8
1
  6
CONTINUOUS
 10
1084.743001
 20
5333.6977299999999
 30
0.0
 11
1084.743001
 21
5437.6977299999999
 31
0.0
  0
LINE
  5
7ABB
  8
1
  6
CONTINUOUS
 10
1234.743001
 20
5333.6977299999999
 30
0.0
 11
1234.743001
 21
5437.6977299999999
 31
0.0
  0
LINE
  5
7ABC
  8
1
  6
CONTINUOUS
 10
1138.743001
 20
5437.6977299999999
 30
0.0
 11
1138.743001
 21
5481.6977299999999
 31
0.0
  0
LINE
  5
7ABD
  8
1
  6
CONTINUOUS
 10
1180.743001
 20
5437.6977299999999
 30
0.0
 11
1180.743001
 21
5481.6977299999999
 31
0.0
  0
LINE
  5
7ABE
  8
1
  6
CONTINUOUS
 10
997.74300099999994
 20
5966.697729999999
 30
0.0
 11
1321.743001
 21
5966.697729999999
 31
0.0
  0
LINE
  5
7ABF
  8
1
  6
CONTINUOUS
 10
1885.743001
 20
5333.6977299999999
 30
0.0
 11
2393.7430009999998
 21
5333.6977299999999
 31
0.0
  0
LINE
  5
7AC0
  8
1
  6
CONTINUOUS
 10
1885.743001
 20
5437.6977299999999
 30
0.0
 11
2393.7430009999998
 21
5437.6977299999999
 31
0.0
  0
LINE
  5
7AC1
  8
1
  6
CONTINUOUS
 10
1885.743001
 20
5333.6977299999999
 30
0.0
 11
1885.743001
 21
5437.6977299999999
 31
0.0
  0
LINE
  5
7AC2
  8
1
  6
CONTINUOUS
 10
2114.7430009999998
 20
5437.6977299999999
 30
0.0
 11
2114.7430009999998
 21
5523.6977299999999
 31
0.0
  0
LINE
  5
7AC3
  8
1
  6
CONTINUOUS
 10
2164.7430009999998
 20
5437.6977299999999
 30
0.0
 11
2164.7430009999998
 21
5523.6977299999999
 31
0.0
  0
LINE
  5
7AC4
  8
1
  6
CONTINUOUS
 10
2393.7430009999998
 20
5333.6977299999999
 30
0.0
 11
2393.7430009999998
 21
5437.6977299999999
 31
0.0
  0
LINE
  5
7AC5
  8
1
  6
CONTINUOUS
 10
2789.7430009999998
 20
6193.6977299999999
 30
0.0
 11
2789.7430009999998
 21
6309.697729999999
 31
0.0
  0
LINE
  5
7AC6
  8
1
  6
CONTINUOUS
 10
2754.7430009999998
 20
5523.6977299999999
 30
0.0
 11
2754.7430009999998
 21
6193.6977299999999
 31
0.0
  0
LINE
  5
7AC7
  8
1
  6
CONTINUOUS
 10
2794.7430009999998
 20
5481.6977299999999
 30
0.0
 11
2794.7430009999998
 21
6235.6977299999999
 31
0.0
  0
LINE
  5
7AC8
  8
1
  6
CONTINUOUS
 10
2619.7430009999998
 20
5300.6977299999999
 30
0.0
 11
2619.7430009999998
 21
5470.6977299999999
 31
0.0
  0
LINE
  5
7AC9
  8
1
  6
CONTINUOUS
 10
2789.7430009999998
 20
5389.6977299999999
 30
0.0
 11
2789.7430009999998
 21
5523.6977299999999
 31
0.0
  0
LINE
  5
7ACA
  8
2
  6
CENTER
 10
786.44034999999985
 20
5858.6977299999999
 30
0.0
 11
2866.1844739999992
 21
5858.6977299999999
 31
0.0
  0
LINE
  5
7ACB
  8
2
  6
CENTER
 10
4828.023306
 20
4206.9807739999997
 30
0.0
 11
4828.023306
 21
2128.5610674677851
 31
0.0
  0
LINE
  5
7ACC
  8
2
  6
CENTER
 10
2139.7430009999998
 20
5234.4248530000013
 30
0.0
 11
2139.7430009999998
 21
6398.6266569999998
 31
0.0
  0
LINE
  5
7ACD
  8
2
  6
CENTER
 10
4135.6548540000013
 20
3362.7722299999991
 30
0.0
 11
5235.6901109999999
 21
3362.7722299999991
 31
0.0
  0
LINE
  5
7ACE
  8
4
  6
CONTINUOUS
 10
5550.0
 20
1500.0
 30
0.0
 11
5550.0
 21
900.0
 31
0.0
  0
LINE
  5
7ACF
  8
4
  6
CONTINUOUS
 10
3450.0
 20
1500.0
 30
0.0
 11
3450.0
 21
900.0
 31
0.0
  0
LINE
  5
7AD0
  8
4
  6
CONTINUOUS
 10
1950.0
 20
1500.0
 30
0.0
 11
1950.0
 21
900.0
 31
0.0
  0
LINE
  5
7AD3
  8
4
  6
CONTINUOUS
 10
1950.0
 20
900.0
 30
0.0
 11
5550.0
 21
900.0
 31
0.0
  0
LINE
  5
7AD4
  8
4
  6
CONTINUOUS
 10
1950.0
 20
1200.0
 30
0.0
 11
5550.0
 21
1200.0
 31
0.0
  0
TEXT
  5
7AD5
  8
4
  6
CONTINUOUS
 10
2065.5062429999989
 20
1294.6290779999999
 30
0.0
 40
150.0
  1
機器名称
  0
TEXT
  5
7AD6
  8
4
  6
CONTINUOUS
 10
2058.7743179999989
 20
964.9354699999999
 30
0.0
 40
150.0
  1
機器型番
  0
TEXT
  5
7AD7
  8
4
  6
CONTINUOUS
 10
3533.0362359999999
 20
1267.7153069999999
 30
0.0
 40
150.0
  1
ミツヤ多翼送風機
  0
TEXT
  5
7AD8
  8
4
  6
CONTINUOUS
 10
3559.9634869999991
 20
951.47875299999987
 30
0.0
 40
150.0
  1
MF#5 1/2-4
  0
TEXT
  5
7ADA
  8
4
  6
CONTINUOUS
 10
2498.2589579999999
 20
7150.2865239999992
 30
0.0
 40
162.0
  1
天井吊ベット
  0
TEXT
  5
7ADB
  8
4
  6
CONTINUOUS
 10
948.50278000000014
 20
7601.6429289999996
 30
0.0
 40
216.0
  1
ベルト駆動式片吸込両持多翼ファン
  0
LINE
  5
7ADC
  8
4
  6
CONTINUOUS
 10
750.0
 20
7408.2262629999996
 30
0.0
 11
5550.0
 21
7408.2262629999996
 31
0.0
  0
LINE
  5
7ADD
  8
4
  6
CONTINUOUS
 10
750.0
 20
8008.2262629999996
 30
0.0
 11
5550.0
 21
8008.2262629999996
 31
0.0
  0
LINE
  5
7ADE
  8
4
  6
CONTINUOUS
 10
1950.0
 20
1500.0
 30
0.0
 11
5550.0
 21
1500.0
 31
0.0
  0
LINE
  5
7ADF
  8
4
  6
CONTINUOUS
 10
750.0
 20
8008.2262629999996
 30
0.0
 11
750.0
 21
7408.2262629999996
 31
0.0
  0
TEXT
  5
7AE0
  8
4
  6
CONTINUOUS
 10
1190.682462
 20
7146.9584329999998
 30
0.0
 40
162.0
  1
左回転右横向
  0
TEXT
  5
7AE1
  8
4
  6
CONTINUOUS
 10
4406.9086779999989
 20
8118.1832439999989
 30
0.0
 40
168.0
  1
No.
  0
TEXT
  5
7AE2
  8
4
  6
CONTINUOUS
 10
3933.8881879999999
 20
7150.2865239999992
 30
0.0
 40
162.0
  1
縮尺：1/30
  0
LINE
  5
7AE3
  8
4
  6
CONTINUOUS
 10
5550.0
 20
8008.2262629999996
 30
0.0
 11
5550.0
 21
7408.2262629999996
 31
0.0
  0
LINE
  5
7AE5
  8
4
  6
CONTINUOUS
 10
4321.8522670000002
 20
8043.7907490000007
 30
0.0
 11
4321.8522670000002
 21
8359.9567849999985
 31
0.0
  0
LINE
  5
7AE6
  8
4
  6
CONTINUOUS
 10
4321.8522670000002
 20
8359.9567849999985
 30
0.0
 11
5550.0
 21
8359.9567849999985
 31
0.0
  0
LINE
  5
7AE7
  8
4
  6
CONTINUOUS
 10
5550.0
 20
8359.9567849999985
 30
0.0
 11
5550.0
 21
8043.7907490000007
 31
0.0
  0
LINE
  5
7AE8
  8
4
  6
CONTINUOUS
 10
5550.0
 20
8043.7907490000007
 30
0.0
 11
4321.8522670000002
 21
8043.7907490000007
 31
0.0
  0
DIMENSION
  5
7B00
  8
3
  6
CONTINUOUS
  2
*D1
 10
3009.5569139999998
 20
2479.77223
 30
0.0
 11
3009.5569139999998
 21
2934.0002179999992
 31
0.0
 70
   128
 13
2794.7430009999998
 23
3404.7722299999991
 33
0.0
 14
2794.7430009999998
 24
2479.77223
 34
0.0
 50
90.0
1001
ACAD
1000
DSTYLE
1002
{
1070
   287
1070
     3
1070
    40
1040
30.0
1070
   143
1040
0.039
1070
   172
1070
     1
1070
   271
1070
     0
1070
   279
1070
     0
1070
   288
1070
     1
1002
}
  0
DIMENSION
  5
7B0D
  8
3
  6
CONTINUOUS
  2
*D2
 10
3188.772481
 20
2479.77223
 30
0.0
 11
3188.772481
 21
2939.9704789999992
 31
0.0
 70
   128
 13
2912.8769325896351
 23
3362.7722299999991
 33
0.0
 14
2809.7430009999998
 24
2479.77223
 34
0.0
 50
90.0
1001
ACAD
1000
DSTYLE
1002
{
1070
   287
1070
     3
1070
    40
1040
30.0
1070
   143
1040
0.039
1070
   172
1070
     1
1070
   271
1070
     0
1070
   279
1070
     0
1070
   288
1070
     1
1002
}
  0
DIMENSION
  5
7B33
  8
3
  6
CONTINUOUS
  2
*D3
 10
2139.7430009999998
 20
2028.820563999999
 30
0.0
 11
2489.8317619999998
 21
2028.820563999999
 31
0.0
 70
   128
 13
2789.7430009999998
 23
2272.7722299999991
 33
0.0
 14
2139.7430009999998
 24
2181.3855565896829
 34
0.0
1001
ACAD
1000
DSTYLE
1002
{
1070
   287
1070
     3
1070
    40
1040
30.0
1070
   143
1040
0.039
1070
   172
1070
     1
1070
   271
1070
     0
1070
   279
1070
     0
1070
   288
1070
     1
1002
}
  0
DIMENSION
  5
7B3F
  8
3
  6
CONTINUOUS
  2
*D4
 10
889.74300099999994
 20
2028.820563999999
 30
0.0
 11
1514.743001
 21
2103.8205639999992
 31
0.0
 70
     0
 13
2139.7430009999998
 23
2181.3855565896829
 33
0.0
 14
889.74300099999994
 24
2272.7722299999991
 34
0.0
1001
ACAD
1000
DSTYLE
1002
{
1070
   287
1070
     4
1070
    40
1040
30.0
1070
    75
1070
     1
1070
   143
1040
0.039
1070
   172
1070
     1
1070
   271
1070
     0
1070
   279
1070
     1
1070
   288
1070
     1
1002
}
  0
DIMENSION
  5
7B59
  8
3
  6
CONTINUOUS
  2
*D5
 10
2139.7430009999998
 20
4256.8552409999993
 30
0.0
 11
2477.884043
 21
4256.8552409999993
 31
0.0
 70
   128
 13
2794.7430009999998
 23
3447.2722299999991
 33
0.0
 14
2139.7430009999998
 24
4108.6307255867378
 34
0.0
1001
ACAD
1000
DSTYLE
1002
{
1070
   287
1070
     3
1070
    40
1040
30.0
1070
   143
1040
0.039
1070
   172
1070
     1
1070
   271
1070
     0
1070
   279
1070
     0
1070
   288
1070
     1
1002
}
  0
DIMENSION
  5
7B72
  8
3
  6
CONTINUOUS
  2
*D6
 10
5163.023306
 20
4222.4586659999986
 30
0.0
 11
4829.4681639999999
 21
4222.4586659999986
 31
0.0
 70
   128
 13
4493.023306
 23
4007.5685729999991
 33
0.0
 14
5163.023306
 24
4007.5685729999991
 34
0.0
1001
ACAD
1000
DSTYLE
1002
{
1070
   287
1070
     3
1070
    40
1040
30.0
1070
   143
1040
0.039
1070
   172
1070
     1
1070
   271
1070
     0
1070
   279
1070
     0
1070
   288
1070
     1
1002
}
  0
LINE
  5
7B73
  8
1
  6
CONTINUOUS
 10
5167.023306
 20
3837.7722299999991
 30
0.0
 11
5167.023306
 21
2887.77223
 31
0.0
  0
DIMENSION
  5
7B82
  8
3
  6
CONTINUOUS
  2
*D7
 10
5402.9579890000014
 20
2887.77223
 30
0.0
 11
5402.9579890000005
 21
3368.7106729999991
 31
0.0
 70
   128
 13
5167.023306
 23
3837.7722299999991
 33
0.0
 14
5167.023306
 24
2887.77223
 34
0.0
 50
90.0
1001
ACAD
1000
DSTYLE
1002
{
1070
   287
1070
     3
1070
     3
1000
φ<>
1070
    40
1040
30.0
1070
   143
1040
0.039
1070
   172
1070
     1
1070
   271
1070
     0
1070
   279
1070
     0
1070
   288
1070
     1
1002
}
  0
DIMENSION
  5
7B91
  8
3
  6
CONTINUOUS
  2
*D8
 10
4828.023306
 20
4437.3882299999987
 30
0.0
 11
4997.523306
 21
4531.9028268624133
 31
0.0
 70
   128
 13
5167.023306
 23
3837.7722299999991
 33
0.0
 14
4828.023306
 24
4367.7976250000002
 34
0.0
1001
ACAD
1000
DSTYLE
1002
{
1070
   288
1070
     1
1070
   172
1070
     1
1070
    40
1040
30.0
1070
   271
1070
     0
1070
   143
1040
0.039
1002
}
  0
DIMENSION
  5
7B9D
  8
3
  6
CONTINUOUS
  2
*D9
 10
4218.023306
 20
4437.3882299999987
 30
0.0
 11
4523.023306
 21
4587.3882299999996
 31
0.0
 70
     0
  1
MAX\P640
 13
4828.023306
 23
4367.7976250000002
 33
0.0
 14
4218.023306
 24
3802.7722299999991
 34
0.0
1001
ACAD
1000
DSTYLE
1002
{
1070
   287
1070
     4
1070
    40
1040
30.0
1070
    75
1070
     1
1070
   143
1040
0.039
1070
   172
1070
     1
1070
   271
1070
     0
1070
   279
1070
     1
1070
   288
1070
     1
1002
}
  0
DIMENSION
  5
7BE3
  8
3
  6
CONTINUOUS
  2
*D10
 10
4828.023306
 20
2030.7180809999991
 30
0.0
 11
4624.4518774285716
 21
2030.7180809999991
 31
0.0
 70
   128
 13
4359.023306
 23
2287.7722299999991
 33
0.0
 14
4828.023306
 24
2128.5610674677851
 34
0.0
1001
ACAD
1000
DSTYLE
1002
{
1070
   287
1070
     3
1070
    40
1040
30.0
1070
   143
1040
0.039
1070
   172
1070
     1
1070
   271
1070
     0
1070
   279
1070
     0
1070
   288
1070
     1
1002
}
  0
DIMENSION
  5
7BEF
  8
3
  6
CONTINUOUS
  2
*D11
 10
5279.023306
 20
2030.7180809999991
 30
0.0
 11
5053.523306
 21
2105.7180809999991
 31
0.0
 70
     0
 13
4828.023306
 23
2128.5610674677851
 33
0.0
 14
5279.023306
 24
2287.7722299999991
 34
0.0
1001
ACAD
1000
DSTYLE
1002
{
1070
   287
1070
     4
1070
    40
1040
30.0
1070
    75
1070
     1
1070
   143
1040
0.039
1070
   172
1070
     1
1070
   271
1070
     0
1070
   279
1070
     1
1070
   288
1070
     1
1002
}
  0
DIMENSION
  5
7C13
  8
3
  6
CONTINUOUS
  2
*D12
 10
2789.7430009999998
 20
6568.9143180000001
 30
0.0
 11
1808.8125910000001
 21
6568.9143180000001
 31
0.0
 70
   128
 13
889.74300099999994
 23
6309.697729999999
 33
0.0
 14
2789.7430009999998
 24
6309.697729999999
 34
0.0
1001
ACAD
1000
DSTYLE
1002
{
1070
   287
1070
     3
1070
    40
1040
30.0
1070
   143
1040
0.039
1070
   172
1070
     1
1070
   271
1070
     0
1070
   279
1070
     0
1070
   288
1070
     1
1002
}
  0
DIMENSION
  5
7C20
  8
3
  6
CONTINUOUS
  2
*D13
 10
3051.373900000001
 20
5389.6977299999999
 30
0.0
 11
3051.3739
 21
5861.3027579999998
 31
0.0
 70
   128
 13
2789.7430009999998
 23
6309.697729999999
 33
0.0
 14
2789.7430009999998
 24
5389.6977299999999
 34
0.0
 50
90.0
1001
ACAD
1000
DSTYLE
1002
{
1070
   287
1070
     3
1070
    40
1040
30.0
1070
   143
1040
0.039
1070
   172
1070
     1
1070
   271
1070
     0
1070
   279
1070
     0
1070
   288
1070
     1
1002
}
  0
DIMENSION
  5
7C31
  8
3
  6
CONTINUOUS
  2
*D14
 10
1396.7429990000001
 20
4256.8552409999993
 30
0.0
 11
1768.2429999999999
 21
4331.8552409999993
 31
0.0
 70
     0
 13
2139.7430009999998
 23
4108.6307255867378
 33
0.0
 14
1396.7429990000001
 24
3362.7722299999991
 34
0.0
1001
ACAD
1000
DSTYLE
1002
{
1070
   287
1070
     4
1070
    40
1040
30.0
1070
    75
1070
     1
1070
   143
1040
0.039
1070
   172
1070
     1
1070
   271
1070
     0
1070
   279
1070
     1
1070
   288
1070
     1
1002
}
  0
DIMENSION
  5
7C3E
  8
3
  6
CONTINUOUS
  2
*D15
 10
3389.1191670000012
 20
3362.7722299999991
 30
0.0
 11
3389.1191669999998
 21
3694.0148399999989
 31
0.0
 70
   128
 13
2139.7430009999998
 23
4005.7671729917311
 33
0.0
 14
2927.8769325896351
 24
3362.7722299999991
 34
0.0
 50
90.0
1001
ACAD
1000
DSTYLE
1002
{
1070
   287
1070
     3
1070
    40
1040
30.0
1070
   143
1040
0.039
1070
   172
1070
     1
1070
   271
1070
     0
1070
   279
1070
     0
1070
   288
1070
     1
1002
}
  0
DIMENSION
  5
7C56
  8
3
  6
CONTINUOUS
  2
*D16
 10
3389.1191669999998
 20
2272.7722299999991
 30
0.0
 11
3314.1191669999989
 21
2817.77223
 31
0.0
 70
     0
 13
2927.8769325896351
 23
3362.7722299999991
 33
0.0
 14
2789.7430009999998
 24
2272.7722299999991
 34
0.0
 50
90.0
1001
ACAD
1000
DSTYLE
1002
{
1070
   287
1070
     4
1070
    40
1040
30.0
1070
    75
1070
     1
1070
   143
1040
0.039
1070
   172
1070
     1
1070
   271
1070
     0
1070
   279
1070
     1
1070
   288
1070
     1
1002
}
  0
LINE
  5
7C99
  8
1
  6
CONTINUOUS
 10
1956.2495909999991
 20
3538.403002999999
 30
0.0
 11
1105.561876
 21
2674.6317099999992
 31
0.0
  0
LINE
  5
7C9A
  8
1
  6
CONTINUOUS
 10
2265.5811840000001
 20
3142.1350809999999
 30
0.0
 11
1196.899944
 21
2557.6234649999992
 31
0.0
  0
DIMENSION
  5
7CFC
  8
3
  2
*D17
 10
889.74300099999994
 20
4429.5030123718971
 30
0.0
 11
1968.679105629798
 21
4429.5030123718971
 31
0.0
 70
   128
 13
2794.7430009999998
 23
3447.2722299999991
 33
0.0
 14
889.74300099999994
 24
2372.7722299999991
 34
0.0
1001
ACAD
1000
DSTYLE
1002
{
1070
   287
1070
     3
1070
    40
1040
30.0
1070
   143
1040
0.039
1070
   172
1070
     1
1070
   271
1070
     0
1070
   279
1070
     0
1070
   288
1070
     1
1002
}
  0
LINE
  5
7E08
  8
1
  6
CONTINUOUS
 10
1579.743001
 20
3492.7722299999991
 30
0.0
 11
2699.7430009999998
 21
3492.7722299999991
 31
0.0
  0
LINE
  5
7E09
  8
1
 10
1579.743001
 20
2372.77223
 30
0.0
 11
1579.743001
 21
3492.7722299999991
 31
0.0
  0
LINE
  5
7E0A
  8
1
 10
2699.7430009999998
 20
2372.7722299999991
 30
0.0
 11
2699.7430009999998
 21
3492.7722299999991
 31
0.0
  0
ENDSEC
  0
EOF
