  0
SECTION
  2
HEADER
  9
$ACADVER
  1
AC1009
  9
$INSBASE
 10
0.0
 20
0.0
 30
0.0
  9
$EXTMIN
 10
750.0
 20
900.0
 30
0.0
  9
$EXTMAX
 10
5550.0
 20
8359.9567849999985
 30
0.0
  9
$LIMMIN
 10
0.0
 20
0.0
  9
$LIMMAX
 10
297.0
 20
210.0
  9
$ORTHOMODE
 70
     0
  9
$REGENMODE
 70
     1
  9
$FILLMODE
 70
     0
  9
$QTEXTMODE
 70
     0
  9
$MIRRTEXT
 70
     1
  9
$DRAGMODE
 70
     2
  9
$LTSCALE
 40
100.0
  9
$OSMODE
 70
    37
  9
$ATTMODE
 70
     1
  9
$TEXTSIZE
 40
180.0
  9
$TRACEWID
 40
0.05
  9
$TEXTSTYLE
  7
STANDARD
  9
$CLAYER
  8
3
  9
$CELTYPE
  6
BYLAYER
  9
$CECOLOR
 62
   256
  9
$DIMSCALE
 40
30.0
  9
$DIMASZ
 40
2.0
  9
$DIMEXO
 40
0.5
  9
$DIMDLI
 40
10.0
  9
$DIMRND
 40
0.0
  9
$DIMDLE
 40
0.0
  9
$DIMEXE
 40
1.0
  9
$DIMTP
 40
1.0
  9
$DIMTM
 40
1.0
  9
$DIMTXT
 40
3.0
  9
$DIMCEN
 40
0.0
  9
$DIMTSZ
 40
0.0
  9
$DIMTOL
 70
     0
  9
$DIMLIM
 70
     0
  9
$DIMTIH
 70
     0
  9
$DIMTOH
 70
     0
  9
$DIMSE1
 70
     0
  9
$DIMSE2
 70
     0
  9
$DIMTAD
 70
     1
  9
$DIMZIN
 70
     8
  9
$DIMBLK
  1

  9
$DIMASO
 70
     1
  9
$DIMSHO
 70
     1
  9
$DIMPOST
  1

  9
$DIMAPOST
  1

  9
$DIMALT
 70
     0
  9
$DIMALTD
 70
     2
  9
$DIMALTF
 40
0.039
  9
$DIMLFAC
 40
1.0
  9
$DIMTOFL
 70
     1
  9
$DIMTVP
 40
0.0
  9
$DIMTIX
 70
     0
  9
$DIMSOXD
 70
     0
  9
$DIMSAH
 70
     1
  9
$DIMBLK1
  1
OPEN
  9
$DIMBLK2
  1
OPEN
  9
$DIMSTYLE
  2
IGA
  9
$DIMCLRD
 70
     0
  9
$DIMCLRE
 70
     0
  9
$DIMCLRT
 70
     0
  9
$DIMTFAC
 40
10.0
  9
$DIMGAP
 40
1.0
  9
$LUNITS
 70
     2
  9
$LUPREC
 70
     3
  9
$SKETCHINC
 40
0.1
  9
$FILLETRAD
 40
50.0
  9
$AUNITS
 70
     0
  9
$AUPREC
 70
     0
  9
$MENU
  1
acad
  9
$ELEVATION
 40
0.0
  9
$PELEVATION
 40
0.0
  9
$THICKNESS
 40
0.0
  9
$LIMCHECK
 70
     0
  9
$BLIPMODE
 70
     0
  9
$CHAMFERA
 40
0.5
  9
$CHAMFERB
 40
0.5
  9
$SKPOLY
 70
     0
  9
$TDCREATE
 40
2450751.64766875
  9
$TDUPDATE
 40
2454953.7759756478
  9
$TDINDWG
 40
0.0290703588
  9
$TDUSRTIMER
 40
0.0290703588
  9
$USRTIMER
 70
     1
  9
$ANGBASE
 50
0.0
  9
$ANGDIR
 70
     0
  9
$PDMODE
 70
     0
  9
$PDSIZE
 40
0.0
  9
$PLINEWID
 40
0.0
  9
$COORDS
 70
     1
  9
$SPLFRAME
 70
     0
  9
$SPLINETYPE
 70
     6
  9
$SPLINESEGS
 70
     8
  9
$ATTDIA
 70
     0
  9
$ATTREQ
 70
     1
  9
$HANDLING
 70
 10241
  9
$HANDSEED
  5
7E51
  9
$SURFTAB1
 70
     6
  9
$SURFTAB2
 70
     6
  9
$SURFTYPE
 70
     6
  9
$SURFU
 70
     6
  9
$SURFV
 70
     6
  9
$UCSNAME
  2

  9
$UCSORG
 10
0.0
 20
0.0
 30
0.0
  9
$UCSXDIR
 10
1.0
 20
0.0
 30
0.0
  9
$UCSYDIR
 10
0.0
 20
1.0
 30
0.0
  9
$PUCSNAME
  2

  9
$PUCSORG
 10
0.0
 20
0.0
 30
0.0
  9
$PUCSXDIR
 10
1.0
 20
0.0
 30
0.0
  9
$PUCSYDIR
 10
0.0
 20
1.0
 30
0.0
  9
$USERI1
 70
     0
  9
$USERI2
 70
     0
  9
$USERI3
 70
     0
  9
$USERI4
 70
     0
  9
$USERI5
 70
     0
  9
$USERR1
 40
0.0
  9
$USERR2
 40
0.0
  9
$USERR3
 40
0.0
  9
$USERR4
 40
0.0
  9
$USERR5
 40
0.0
  9
$WORLDVIEW
 70
     1
  9
$SHADEDGE
 70
     3
  9
$SHADEDIF
 70
    70
  9
$TILEMODE
 70
     1
  9
$MAXACTVP
 70
    16
  9
$PLIMCHECK
 70
     0
  9
$PEXTMIN
 10
1.0000000000000000E+020
 20
1.0000000000000000E+020
 30
1.0000000000000000E+020
  9
$PEXTMAX
 10
-1.0000000000000000E+020
 20
-1.0000000000000000E+020
 30
-1.0000000000000000E+020
  9
$PLIMMIN
 10
0.0
 20
0.0
  9
$PLIMMAX
 10
12.0
 20
9.0
  9
$UNITMODE
 70
     0
  9
$VISRETAIN
 70
     0
  9
$PLINEGEN
 70
     0
  9
$PSLTSCALE
 70
     1
  0
ENDSEC
  0
SECTION
  2
TABLES
  0
TABLE
  2
VPORT
 70
     2
  0
VPORT
  2
*ACTIVE
 70
     0
 10
0.0
 20
0.0
 11
1.0
 21
1.0
 12
9437.9954746499006
 22
4629.9199394653269
 13
0.0
 23
0.0
 14
10.0
 24
10.0
 15
10.0
 25
10.0
 16
0.0
 26
0.0
 36
1.0
 17
0.0
 27
0.0
 37
0.0
 40
7517.061441529765
 41
3.1666666666666661
 42
50.0
 43
0.0
 44
0.0
 50
0.0
 51
0.0
 71
     0
 72
   100
 73
     1
 74
     0
 75
     0
 76
     0
 77
     0
 78
     0
  0
ENDTAB
  0
TABLE
  2
LTYPE
 70
     2
  0
LTYPE
  2
CONTINUOUS
 70
     0
  3
Solid line
 72
    65
 73
     0
 40
0.0
  0
LTYPE
  2
CENTER
 70
     0
  3
____ _ ____ _ ____ _ ____ _ ____ _ ____ _ ____ 
 72
    65
 73
     4
 40
2.0
 49
1.25
 49
-0.25
 49
0.25
 49
-0.25
  0
ENDTAB
  0
TABLE
  2
LAYER
 70
     6
  0
LAYER
  2
0
 70
     0
 62
     7
  6
CONTINUOUS
  0
LAYER
  2
3
 70
     0
 62
     2
  6
CONTINUOUS
  0
LAYER
  2
2
 70
     0
 62
     3
  6
CENTER
  0
LAYER
  2
1
 70
     0
 62
     4
  6
CONTINUOUS
  0
LAYER
  2
4
 70
     0
 62
     7
  6
CONTINUOUS
  0
LAYER
  2
DEFPOINTS
 70
     0
 62
     7
  6
CONTINUOUS
  0
ENDTAB
  0
TABLE
  2
STYLE
 70
     1
  0
STYLE
  2
STANDARD
 70
     0
 40
0.0
 41
1.0
 50
0.0
 71
     0
 42
180.0
  3
simplex.shx
  4
extfont.shx
  0
ENDTAB
  0
TABLE
  2
VIEW
 70
     0
  0
ENDTAB
  0
TABLE
  2
UCS
 70
     0
  0
ENDTAB
  0
TABLE
  2
APPID
 70
     1
  0
APPID
  2
ACAD
 70
     0
  0
ENDTAB
  0
TABLE
  2
DIMSTYLE
 70
     1
  0
DIMSTYLE
  2
IGA
 70
     0
  3

  4

  5

  6
OPEN
  7
OPEN
 40
2.0
 41
2.0
 42
0.5
 43
10.0
 44
1.0
 45
0.0
 46
0.0
 47
1.0
 48
1.0
140
3.0
141
0.0
142
0.0
143
0.03937
144
1.0
145
0.0
146
10.0
147
1.0
 71
     0
 72
     0
 73
     0
 74
     0
 75
     0
 76
     0
 77
     1
 78
     8
170
     0
171
     2
172
     0
173
     1
174
     0
175
     0
176
     0
177
     0
178
     0
  0
ENDTAB
  0
ENDSEC
  0
SECTION
  2
BLOCKS
  0
BLOCK
  8
0
  2
$MODEL_SPACE
 70
     0
 10
0.0
 20
0.0
 30
0.0
  3
$MODEL_SPACE
  1

  0
ENDBLK
  5
1B
  8
0
  0
BLOCK
 67
     1
  8
0
  2
$PAPER_SPACE
 70
     0
 10
0.0
 20
0.0
 30
0.0
  3
$PAPER_SPACE
  1

  0
ENDBLK
  5
18
 67
     1
  8
0
  0
BLOCK
  8
0
  2
_OPEN
 70
     0
 10
0.0
 20
0.0
 30
0.0
  3
_OPEN
  1

  0
LINE
  5
7B79
  8
0
  6
BYBLOCK
 62
     0
 10
-1.0
 20
0.166667
 30
0.0
 11
0.0
 21
0.0
 31
0.0
  0
LINE
  5
7B7A
  8
0
  6
BYBLOCK
 62
     0
 10
0.0
 20
0.0
 30
0.0
 11
-1.0
 21
-0.166667
 31
0.0
  0
LINE
  5
7B7B
  8
0
  6
BYBLOCK
 62
     0
 10
0.0
 20
0.0
 30
0.0
 11
-1.0
 21
0.0
 31
0.0
  0
ENDBLK
  5
7B7C
  8
0
  0
BLOCK
  8
0
  2
*D1
 70
     1
 10
0.0
 20
0.0
 30
0.0
  3
*D1
  1

  0
LINE
  5
7DBF
  8
3
  6
CONTINUOUS
 62
     0
 10
2005.132542999999
 20
3617.1102000000001
 30
0.0
 11
2005.132542999999
 21
3801.1510969999999
 31
0.0
  0
LINE
  5
7DC0
  8
3
  6
CONTINUOUS
 62
     0
 10
2930.1325430000002
 20
3617.1102000000001
 30
0.0
 11
2930.1325430000002
 21
3801.1510969999999
 31
0.0
  0
LINE
  5
7DC1
  8
3
  6
CONTINUOUS
 62
     0
 10
2065.1325429999988
 20
3771.1510969999999
 30
0.0
 11
2870.1325430000002
 21
3771.1510969999999
 31
0.0
  0
INSERT
  5
7DC2
  8
3
  6
CONTINUOUS
 62
     0
  2
_OPEN
 10
2005.132542999999
 20
3771.1510969999999
 30
0.0
 41
60.0
 42
60.0
 43
60.0
 50
180.0
  0
INSERT
  5
7DC3
  8
3
  6
CONTINUOUS
 62
     0
  2
_OPEN
 10
2930.1325430000002
 20
3771.1510969999999
 30
0.0
 41
60.0
 42
60.0
 43
60.0
  0
TEXT
  8
3
  40
90
  5
7E41
  62
0
  72
0
  71
0
 10
2254.68
 20
3686.85
 30
0.000000
  1
925
  0
POINT
  5
7DC5
  8
DEFPOINTS
  6
CONTINUOUS
 62
     0
 10
2005.132542999999
 20
3602.1102000000001
 30
0.0
  0
POINT
  5
7DC6
  8
DEFPOINTS
  6
CONTINUOUS
 62
     0
 10
2930.1325430000002
 20
3602.1102000000001
 30
0.0
  0
POINT
  5
7DC7
  8
DEFPOINTS
  6
CONTINUOUS
 62
     0
 10
2930.1325430000002
 20
3771.1510969999999
 30
0.0
  0
ENDBLK
  5
7B89
  8
0
  0
BLOCK
  8
0
  2
*D2
 70
     1
 10
0.0
 20
0.0
 30
0.0
  3
*D2
  1

  0
LINE
  5
7DC8
  8
3
  6
CONTINUOUS
 62
     0
 10
2930.1325430000002
 20
3617.1102000000001
 30
0.0
 11
2930.1325430000002
 21
3994.8548810000002
 31
0.0
  0
LINE
  5
7DC9
  8
3
  6
CONTINUOUS
 62
     0
 10
2047.1325429999999
 20
3758.3466899999989
 30
0.0
 11
2047.1325429999999
 21
3994.8548810000002
 31
0.0
  0
LINE
  5
7DCA
  8
3
  6
CONTINUOUS
 62
     0
 10
2870.1325430000002
 20
3964.8548810000002
 30
0.0
 11
2107.1325430000002
 21
3964.8548810000002
 31
0.0
  0
INSERT
  5
7DCB
  8
3
  6
CONTINUOUS
 62
     0
  2
_OPEN
 10
2930.1325430000002
 20
3964.8548810000002
 30
0.0
 41
60.0
 42
60.0
 43
60.0
  0
INSERT
  5
7DCC
  8
3
  6
CONTINUOUS
 62
     0
  2
_OPEN
 10
2047.1325429999999
 20
3964.8548810000002
 30
0.0
 41
60.0
 42
60.0
 43
60.0
 50
180.0
  0
TEXT
  8
3
  40
90
  5
7E42
  62
0
  72
0
  71
0
 10
2261.85
 20
3880.55
 30
0.000000
  1
883
  0
POINT
  5
7DCE
  8
DEFPOINTS
  6
CONTINUOUS
 62
     0
 10
2930.1325430000002
 20
3602.1102000000001
 30
0.0
  0
POINT
  5
7DCF
  8
DEFPOINTS
  6
CONTINUOUS
 62
     0
 10
2047.1325429999999
 20
3743.3466899999999
 30
0.0
  0
POINT
  5
7DD0
  8
DEFPOINTS
  6
CONTINUOUS
 62
     0
 10
2047.1325429999999
 20
3964.8548810000002
 30
0.0
  0
ENDBLK
  5
7B96
  8
0
  0
BLOCK
  8
0
  2
*D3
 70
     1
 10
0.0
 20
0.0
 30
0.0
  3
*D3
  1

  0
LINE
  5
7DD1
  8
3
  6
CONTINUOUS
 62
     0
 10
1397.1325429999999
 20
2167.1102000000001
 30
0.0
 11
1397.1325429999999
 21
1917.929122182961
 31
0.0
  0
LINE
  5
7DD2
  8
3
  6
CONTINUOUS
 62
     0
 10
2047.1325429999999
 20
2031.0530251829609
 30
0.0
 11
2047.1325429999999
 21
1917.929122182961
 31
0.0
  0
LINE
  5
7DD3
  8
3
  6
CONTINUOUS
 62
     0
 10
1457.1325429999999
 20
1947.9291221829601
 30
0.0
 11
1987.132542999999
 21
1947.9291221829601
 31
0.0
  0
INSERT
  5
7DD4
  8
3
  6
CONTINUOUS
 62
     0
  2
_OPEN
 10
1397.1325429999999
 20
1947.9291221829601
 30
0.0
 41
60.0
 42
60.0
 43
60.0
 50
180.0
  0
INSERT
  5
7DD5
  8
3
  6
CONTINUOUS
 62
     0
  2
_OPEN
 10
2047.1325429999999
 20
1947.9291221829601
 30
0.0
 41
60.0
 42
60.0
 43
60.0
  0
TEXT
  8
3
  40
90
  5
7E43
  62
0
  72
0
  71
0
 10
1544.00
 20
1863.63
 30
0.000000
  1
650
  0
POINT
  5
7DD7
  8
DEFPOINTS
  6
CONTINUOUS
 62
     0
 10
1397.1325429999999
 20
2182.1101999999992
 30
0.0
  0
POINT
  5
7DD8
  8
DEFPOINTS
  6
CONTINUOUS
 62
     0
 10
2047.1325429999999
 20
2046.0530251829609
 30
0.0
  0
POINT
  5
7DD9
  8
DEFPOINTS
  6
CONTINUOUS
 62
     0
 10
2047.1325429999999
 20
1947.9291221829601
 30
0.0
  0
ENDBLK
  5
7D78
  8
0
  0
BLOCK
  8
0
  2
*D4
 70
     1
 10
0.0
 20
0.0
 30
0.0
  3
*D4
  1

  0
LINE
  5
7DDA
  8
3
  6
CONTINUOUS
 62
     0
 10
3297.1325430000002
 20
2167.1102000000001
 30
0.0
 11
3297.1325430000002
 21
1917.929122182961
 31
0.0
  0
LINE
  5
7DDB
  8
3
  6
CONTINUOUS
 62
     0
 10
2107.1325430000002
 20
1947.9291221829601
 30
0.0
 11
3237.1325429999988
 21
1947.9291221829601
 31
0.0
  0
INSERT
  5
7DDC
  8
3
  6
CONTINUOUS
 62
     0
  2
_OPEN
 10
2047.1325429999999
 20
1947.9291221829601
 30
0.0
 41
60.0
 42
60.0
 43
60.0
 50
180.0
  0
INSERT
  5
7DDD
  8
3
  6
CONTINUOUS
 62
     0
  2
_OPEN
 10
3297.1325430000002
 20
1947.9291221829601
 30
0.0
 41
60.0
 42
60.0
 43
60.0
  0
TEXT
  8
3
  40
90
  5
7E44
  62
0
  72
0
  71
0
 10
2492.13
 20
1863.63
 30
0.000000
  1
1250
  0
POINT
  5
7DDF
  8
DEFPOINTS
  6
CONTINUOUS
 62
     0
 10
2047.1325429999999
 20
2046.0530251829609
 30
0.0
  0
POINT
  5
7DE0
  8
DEFPOINTS
  6
CONTINUOUS
 62
     0
 10
3297.1325430000002
 20
2182.1101999999992
 30
0.0
  0
POINT
  5
7DE1
  8
DEFPOINTS
  6
CONTINUOUS
 62
     0
 10
3297.1325430000002
 20
1947.9291221829601
 30
0.0
  0
ENDBLK
  5
7D6D
  8
0
  0
BLOCK
  8
0
  2
*D5
 70
     1
 10
0.0
 20
0.0
 30
0.0
  3
*D5
  1

  0
LINE
  5
7DE2
  8
3
  6
CONTINUOUS
 62
     0
 10
1947.6325429999999
 20
3602.1102000000001
 30
0.0
 11
1182.894321
 21
3602.1102000000001
 31
0.0
  0
LINE
  5
7DE3
  8
3
  6
CONTINUOUS
 62
     0
 10
1235.9125919999999
 20
2947.1102000000001
 30
0.0
 11
1182.894321
 21
2947.1102000000001
 31
0.0
  0
LINE
  5
7DE4
  8
3
  6
CONTINUOUS
 62
     0
 10
1212.894321
 20
3542.1102000000001
 30
0.0
 11
1212.894321
 21
3007.1102000000001
 31
0.0
  0
INSERT
  5
7DE5
  8
3
  6
CONTINUOUS
 62
     0
  2
_OPEN
 10
1212.894321
 20
3602.1102000000001
 30
0.0
 41
60.0
 42
60.0
 43
60.0
 50
90.0
  0
INSERT
  5
7DE6
  8
3
  6
CONTINUOUS
 62
     0
  2
_OPEN
 10
1212.894321
 20
2947.1102000000001
 30
0.0
 41
60.0
 42
60.0
 43
60.0
 50
270.0
  0
TEXT
  8
3
  40
90
  5
7E45
  62
0
  72
0
  71
0
 10
957.894
 20
3080.96
 30
0.000000
  1
655
  0
POINT
  5
7DE8
  8
DEFPOINTS
  6
CONTINUOUS
 62
     0
 10
1962.6325429999999
 20
3602.1102000000001
 30
0.0
  0
POINT
  5
7DE9
  8
DEFPOINTS
  6
CONTINUOUS
 62
     0
 10
1250.912591999999
 20
2947.1102000000001
 30
0.0
  0
POINT
  5
7DEA
  8
DEFPOINTS
  6
CONTINUOUS
 62
     0
 10
1212.894321
 20
2947.1102000000001
 30
0.0
  0
ENDBLK
  5
7BC8
  8
0
  0
BLOCK
  8
0
  2
*D6
 70
     1
 10
0.0
 20
0.0
 30
0.0
  3
*D6
  1

  0
LINE
  5
7DEB
  8
3
  6
CONTINUOUS
 62
     0
 10
4381.1928332264524
 20
3617.1102000000001
 30
0.0
 11
4381.1928332264524
 21
3781.582817999999
 31
0.0
  0
LINE
  5
7DEC
  8
3
  6
CONTINUOUS
 62
     0
 10
5051.1928332264524
 20
3617.1102000000001
 30
0.0
 11
5051.1928332264524
 21
3781.582817999999
 31
0.0
  0
LINE
  5
7DED
  8
3
  6
CONTINUOUS
 62
     0
 10
4441.1928332264524
 20
3751.5828179999999
 30
0.0
 11
4991.1928332264533
 21
3751.5828179999999
 31
0.0
  0
INSERT
  5
7DEE
  8
3
  6
CONTINUOUS
 62
     0
  2
_OPEN
 10
4381.1928332264524
 20
3751.5828179999999
 30
0.0
 41
60.0
 42
60.0
 43
60.0
 50
180.0
  0
INSERT
  5
7DEF
  8
3
  6
CONTINUOUS
 62
     0
  2
_OPEN
 10
5051.1928332264524
 20
3751.5828179999999
 30
0.0
 41
60.0
 42
60.0
 43
60.0
  0
TEXT
  8
3
  40
90
  5
7E46
  62
0
  72
0
  71
0
 10
4534.55
 20
3667.28
 30
0.000000
  1
670
  0
POINT
  5
7DF1
  8
DEFPOINTS
  6
CONTINUOUS
 62
     0
 10
4381.1928332264524
 20
3602.1102000000001
 30
0.0
  0
POINT
  5
7DF2
  8
DEFPOINTS
  6
CONTINUOUS
 62
     0
 10
5051.1928332264524
 20
3602.1102000000001
 30
0.0
  0
POINT
  5
7DF3
  8
DEFPOINTS
  6
CONTINUOUS
 62
     0
 10
5051.1928332264524
 20
3751.5828179999999
 30
0.0
  0
ENDBLK
  5
7BEE
  8
0
  0
BLOCK
  8
0
  2
*D7
 70
     1
 10
0.0
 20
0.0
 30
0.0
  3
*D7
  1

  0
LINE
  5
7DF4
  8
3
  6
CONTINUOUS
 62
     0
 10
5070.1928332264524
 20
3422.1102000000001
 30
0.0
 11
5365.3656242264533
 21
3422.1101999999992
 31
0.0
  0
LINE
  5
7DF5
  8
3
  6
CONTINUOUS
 62
     0
 10
5070.1928332264524
 20
2472.1102000000001
 30
0.0
 11
5365.3656242264533
 21
2472.1101999999992
 31
0.0
  0
LINE
  5
7DF6
  8
3
  6
CONTINUOUS
 62
     0
 10
5335.3656242264533
 20
3362.1101999999992
 30
0.0
 11
5335.3656242264533
 21
2532.1101999999992
 31
0.0
  0
INSERT
  5
7DF7
  8
3
  6
CONTINUOUS
 62
     0
  2
_OPEN
 10
5335.3656242264533
 20
3422.1101999999992
 30
0.0
 41
60.0
 42
60.0
 43
60.0
 50
90.0
  0
INSERT
  5
7DF8
  8
3
  6
CONTINUOUS
 62
     0
  2
_OPEN
 10
5335.3656242264533
 20
2472.1101999999992
 30
0.0
 41
60.0
 42
60.0
 43
60.0
 50
270.0
  0
TEXT
  8
3
  40
90
  5
7E47
  62
0
  72
0
  71
0
 10
5080.37
 20
2795.50
 30
0.000000
  1
φ950
  0
POINT
  5
7DFA
  8
DEFPOINTS
  6
CONTINUOUS
 62
     0
 10
5055.1928332264533
 20
3422.1102000000001
 30
0.0
  0
POINT
  5
7DFB
  8
DEFPOINTS
  6
CONTINUOUS
 62
     0
 10
5055.1928332264533
 20
2472.1102000000001
 30
0.0
  0
POINT
  5
7DFC
  8
DEFPOINTS
  6
CONTINUOUS
 62
     0
 10
5335.3656242264533
 20
2472.1101999999992
 30
0.0
  0
ENDBLK
  5
7D10
  8
0
  0
BLOCK
  8
0
  2
*D8
 70
     1
 10
0.0
 20
0.0
 30
0.0
  3
*D8
  1

  0
LINE
  5
7CF2
  8
0
  6
BYBLOCK
 62
     0
 10
5055.1928332264533
 20
3437.1102000000001
 30
0.0
 11
5055.1928332264533
 21
3977.5130899999999
 31
0.0
  0
LINE
  5
7CF3
  8
0
  6
BYBLOCK
 62
     0
 10
4716.1928332264524
 20
3913.1650599999998
 30
0.0
 11
4716.1928332264524
 21
3977.5130899999999
 31
0.0
  0
LINE
  5
7CF4
  8
0
  6
BYBLOCK
 62
     0
 10
4995.1928332264524
 20
3947.5130899999999
 30
0.0
 11
4776.1928332264524
 21
3947.5130899999999
 31
0.0
  0
TEXT
  5
7CF5
  8
3
 62
     0
 10
4772.1214046550231
 20
3983.093145790539
 30
0.0
 40
90.0
  1
339
  0
INSERT
  5
7CF6
  8
0
  6
BYBLOCK
 62
     0
  2
_OPEN
 10
5055.1928332264533
 20
3947.5130899999999
 30
0.0
 41
60.0
 42
60.0
 43
60.0
  0
INSERT
  5
7CF7
  8
0
  6
BYBLOCK
 62
     0
  2
_OPEN
 10
4716.1928332264524
 20
3947.5130899999999
 30
0.0
 41
60.0
 42
60.0
 43
60.0
 50
180.0
  0
POINT
  5
7CF8
  8
DEFPOINTS
  6
BYBLOCK
 62
     0
 10
5055.1928332264533
 20
3422.1102000000001
 30
0.0
  0
POINT
  5
7CF9
  8
DEFPOINTS
  6
BYBLOCK
 62
     0
 10
4716.1928332264524
 20
3898.1650599999998
 30
0.0
  0
POINT
  5
7CFA
  8
DEFPOINTS
  6
BYBLOCK
 62
     0
 10
4716.1928332264524
 20
3947.5130899999999
 30
0.0
  0
ENDBLK
  5
7CFB
  8
0
  0
BLOCK
  8
0
  2
*D9
 70
     1
 10
0.0
 20
0.0
 30
0.0
  3
*D9
  1

  0
LINE
  5
7DFD
  8
3
  6
CONTINUOUS
 62
     0
 10
4106.1928332264524
 20
3467.1102000000001
 30
0.0
 11
4106.1928332264524
 21
3977.5130899999999
 31
0.0
  0
LINE
  5
7DFE
  8
3
  6
CONTINUOUS
 62
     0
 10
4656.1928332264524
 20
3947.5130899999999
 30
0.0
 11
4166.1928332264524
 21
3947.5130899999999
 31
0.0
  0
INSERT
  5
7DFF
  8
3
  6
CONTINUOUS
 62
     0
  2
_OPEN
 10
4716.1928332264524
 20
3947.5130899999999
 30
0.0
 41
60.0
 42
60.0
 43
60.0
  0
INSERT
  5
7E00
  8
3
  6
CONTINUOUS
 62
     0
  2
_OPEN
 10
4106.1928332264524
 20
3947.5130899999999
 30
0.0
 41
60.0
 42
60.0
 43
60.0
 50
180.0
  0
TEXT
  8
3
  40
90
  5
7E48
  62
0
  72
0
  71
0
 10
4231.19
 20
3938.21
 30
0.000000
  1
MAX
  0
TEXT
  8
3
  40
90
  5
7E49
  62
0
  72
0
  71
0
 10
4231.19
 20
3821.21
 30
0.000000
  1
640
  0
POINT
  5
7E02
  8
DEFPOINTS
  6
CONTINUOUS
 62
     0
 10
4716.1928332264524
 20
3898.1650599999998
 30
0.0
  0
POINT
  5
7E03
  8
DEFPOINTS
  6
CONTINUOUS
 62
     0
 10
4106.1928332264524
 20
3452.1101999999992
 30
0.0
  0
POINT
  5
7E04
  8
DEFPOINTS
  6
CONTINUOUS
 62
     0
 10
4106.1928332264524
 20
3947.5130899999999
 30
0.0
  0
ENDBLK
  5
7D05
  8
0
  0
BLOCK
  8
0
  2
*D10
 70
     1
 10
0.0
 20
0.0
 30
0.0
  3
*D10
  1

  0
LINE
  5
7E05
  8
3
  6
CONTINUOUS
 62
     0
 10
4247.1928332264524
 20
2167.1102000000001
 30
0.0
 11
4247.1928332264524
 21
1927.810149250517
 31
0.0
  0
LINE
  5
7E06
  8
3
  6
CONTINUOUS
 62
     0
 10
4716.1928332264524
 20
2058.2200432505169
 30
0.0
 11
4716.1928332264524
 21
1927.810149250517
 31
0.0
  0
LINE
  5
7E07
  8
3
  6
CONTINUOUS
 62
     0
 10
4307.1928332264524
 20
1957.810149250517
 30
0.0
 11
4656.1928332264524
 21
1957.810149250517
 31
0.0
  0
INSERT
  5
7E08
  8
3
  6
CONTINUOUS
 62
     0
  2
_OPEN
 10
4247.1928332264524
 20
1957.810149250517
 30
0.0
 41
60.0
 42
60.0
 43
60.0
 50
180.0
  0
INSERT
  5
7E09
  8
3
  6
CONTINUOUS
 62
     0
  2
_OPEN
 10
4716.1928332264524
 20
1957.810149250517
 30
0.0
 41
60.0
 42
60.0
 43
60.0
  0
TEXT
  8
3
  40
90
  5
7E4A
  62
0
  72
0
  71
0
 10
4332.62
 20
1873.51
 30
0.000000
  1
469
  0
POINT
  5
7E0B
  8
DEFPOINTS
  6
CONTINUOUS
 62
     0
 10
4247.1928332264524
 20
2182.1101999999992
 30
0.0
  0
POINT
  5
7E0C
  8
DEFPOINTS
  6
CONTINUOUS
 62
     0
 10
4716.1928332264524
 20
2073.2200432505169
 30
0.0
  0
POINT
  5
7E0D
  8
DEFPOINTS
  6
CONTINUOUS
 62
     0
 10
4716.1928332264524
 20
1957.810149250517
 30
0.0
  0
ENDBLK
  5
7D59
  8
0
  0
BLOCK
  8
0
  2
*D11
 70
     1
 10
0.0
 20
0.0
 30
0.0
  3
*D11
  1

  0
LINE
  5
7E0E
  8
3
  6
CONTINUOUS
 62
     0
 10
5167.1928332264533
 20
2167.1102000000001
 30
0.0
 11
5167.1928332264533
 21
1927.810149250517
 31
0.0
  0
LINE
  5
7E0F
  8
3
  6
CONTINUOUS
 62
     0
 10
4776.1928332264524
 20
1957.810149250517
 30
0.0
 11
5107.1928332264524
 21
1957.810149250517
 31
0.0
  0
INSERT
  5
7E10
  8
3
  6
CONTINUOUS
 62
     0
  2
_OPEN
 10
4716.1928332264524
 20
1957.810149250517
 30
0.0
 41
60.0
 42
60.0
 43
60.0
 50
180.0
  0
INSERT
  5
7E11
  8
3
  6
CONTINUOUS
 62
     0
  2
_OPEN
 10
5167.1928332264533
 20
1957.810149250517
 30
0.0
 41
60.0
 42
60.0
 43
60.0
  0
TEXT
  8
3
  40
90
  5
7E4B
  62
0
  72
0
  71
0
 10
4761.69
 20
1873.51
 30
0.000000
  1
451
  0
POINT
  5
7E13
  8
DEFPOINTS
  6
CONTINUOUS
 62
     0
 10
4716.1928332264524
 20
2073.2200432505169
 30
0.0
  0
POINT
  5
7E14
  8
DEFPOINTS
  6
CONTINUOUS
 62
     0
 10
5167.1928332264533
 20
2182.1101999999992
 30
0.0
  0
POINT
  5
7E15
  8
DEFPOINTS
  6
CONTINUOUS
 62
     0
 10
5167.1928332264533
 20
1957.810149250517
 30
0.0
  0
ENDBLK
  5
7D63
  8
0
  0
BLOCK
  8
0
  2
*D12
 70
     1
 10
0.0
 20
0.0
 30
0.0
  3
*D12
  1

  0
LINE
  5
7E16
  8
3
  6
CONTINUOUS
 62
     0
 10
1397.1325429999999
 20
6244.3414608590892
 30
0.0
 11
1397.1325429999999
 21
6495.40947585909
 31
0.0
  0
LINE
  5
7E17
  8
3
  6
CONTINUOUS
 62
     0
 10
3297.1325430000002
 20
6244.3414608590892
 30
0.0
 11
3297.1325430000002
 21
6495.40947585909
 31
0.0
  0
LINE
  5
7E18
  8
3
  6
CONTINUOUS
 62
     0
 10
1457.1325429999999
 20
6465.4094758590891
 30
0.0
 11
3237.1325429999988
 21
6465.4094758590891
 31
0.0
  0
INSERT
  5
7E19
  8
3
  6
CONTINUOUS
 62
     0
  2
_OPEN
 10
1397.1325429999999
 20
6465.4094758590891
 30
0.0
 41
60.0
 42
60.0
 43
60.0
 50
180.0
  0
INSERT
  5
7E1A
  8
3
  6
CONTINUOUS
 62
     0
  2
_OPEN
 10
3297.1325430000002
 20
6465.4094758590891
 30
0.0
 41
60.0
 42
60.0
 43
60.0
  0
TEXT
  8
3
  40
90
  5
7E4C
  62
0
  72
0
  71
0
 10
2156.13
 20
6381.11
 30
0.000000
  1
1900
  0
POINT
  5
7E1C
  8
DEFPOINTS
  6
CONTINUOUS
 62
     0
 10
1397.1325429999999
 20
6229.3414608590892
 30
0.0
  0
POINT
  5
7E1D
  8
DEFPOINTS
  6
CONTINUOUS
 62
     0
 10
3297.1325430000002
 20
6229.3414608590892
 30
0.0
  0
POINT
  5
7E1E
  8
DEFPOINTS
  6
CONTINUOUS
 62
     0
 10
3297.1325430000002
 20
6465.4094758590891
 30
0.0
  0
ENDBLK
  5
7CBC
  8
0
  0
BLOCK
  8
0
  2
*D13
 70
     1
 10
0.0
 20
0.0
 30
0.0
  3
*D13
  1

  0
LINE
  5
7E1F
  8
3
  6
CONTINUOUS
 62
     0
 10
3312.1325430000002
 20
6229.3414608590892
 30
0.0
 11
3594.6994060000011
 21
6229.3414608590892
 31
0.0
  0
LINE
  5
7E20
  8
3
  6
CONTINUOUS
 62
     0
 10
3312.1325430000002
 20
5309.3414608590892
 30
0.0
 11
3594.6994060000011
 21
5309.3414608590892
 31
0.0
  0
LINE
  5
7E21
  8
3
  6
CONTINUOUS
 62
     0
 10
3564.6994060000011
 20
6169.3414608590892
 30
0.0
 11
3564.6994060000011
 21
5369.3414608590892
 31
0.0
  0
INSERT
  5
7E22
  8
3
  6
CONTINUOUS
 62
     0
  2
_OPEN
 10
3564.6994060000011
 20
6229.3414608590892
 30
0.0
 41
60.0
 42
60.0
 43
60.0
 50
90.0
  0
INSERT
  5
7E23
  8
3
  6
CONTINUOUS
 62
     0
  2
_OPEN
 10
3564.6994060000011
 20
5309.3414608590892
 30
0.0
 41
60.0
 42
60.0
 43
60.0
 50
270.0
  0
TEXT
  8
3
  40
90
  5
7E4D
  62
0
  72
0
  71
0
 10
3309.70
 20
5599.11
 30
0.000000
  1
920
  0
POINT
  5
7E25
  8
DEFPOINTS
  6
CONTINUOUS
 62
     0
 10
3297.1325430000002
 20
6229.3414608590892
 30
0.0
  0
POINT
  5
7E26
  8
DEFPOINTS
  6
CONTINUOUS
 62
     0
 10
3297.1325430000002
 20
5309.3414608590892
 30
0.0
  0
POINT
  5
7E27
  8
DEFPOINTS
  6
CONTINUOUS
 62
     0
 10
3564.6994060000011
 20
5309.3414608590892
 30
0.0
  0
ENDBLK
  5
7C4C
  8
0
  0
BLOCK
  8
0
  2
*D14
 70
     1
 10
0.0
 20
0.0
 30
0.0
  3
*D14
  1

  0
LINE
  5
7E28
  8
3
  6
CONTINUOUS
 62
     0
 10
1404.137600008268
 20
2962.1102000000001
 30
0.0
 11
1404.137600008268
 21
3994.8548810000002
 31
0.0
  0
LINE
  5
7E29
  8
3
  6
CONTINUOUS
 62
     0
 10
1987.132542999999
 20
3964.8548810000002
 30
0.0
 11
1464.137600008268
 21
3964.8548810000002
 31
0.0
  0
INSERT
  5
7E2A
  8
3
  6
CONTINUOUS
 62
     0
  2
_OPEN
 10
2047.1325429999999
 20
3964.8548810000002
 30
0.0
 41
60.0
 42
60.0
 43
60.0
  0
INSERT
  5
7E2B
  8
3
  6
CONTINUOUS
 62
     0
  2
_OPEN
 10
1404.137600008268
 20
3964.8548810000002
 30
0.0
 41
60.0
 42
60.0
 43
60.0
 50
180.0
  0
TEXT
  8
3
  40
90
  5
7E4E
  62
0
  72
0
  71
0
 10
1545.64
 20
3880.55
 30
0.000000
  1
643
  0
POINT
  5
7E2D
  8
DEFPOINTS
  6
CONTINUOUS
 62
     0
 10
2047.1325429999999
 20
3743.3466899999999
 30
0.0
  0
POINT
  5
7E2E
  8
DEFPOINTS
  6
CONTINUOUS
 62
     0
 10
1404.137600008268
 20
2947.1102000000001
 30
0.0
  0
POINT
  5
7E2F
  8
DEFPOINTS
  6
CONTINUOUS
 62
     0
 10
1404.137600008268
 20
3964.8548810000002
 30
0.0
  0
ENDBLK
  5
7D1B
  8
0
  0
BLOCK
  8
0
  2
*D15
 70
     1
 10
0.0
 20
0.0
 30
0.0
  3
*D15
  1

  0
LINE
  5
7E30
  8
3
  6
CONTINUOUS
 62
     0
 10
1382.132542999999
 20
2182.1101999999992
 30
0.0
 11
1182.894321
 21
2182.1101999999992
 31
0.0
  0
LINE
  5
7E31
  8
3
  6
CONTINUOUS
 62
     0
 10
1212.894321
 20
2887.1102000000001
 30
0.0
 11
1212.894321
 21
2242.1102000000001
 31
0.0
  0
INSERT
  5
7E32
  8
3
  6
CONTINUOUS
 62
     0
  2
_OPEN
 10
1212.894321
 20
2947.1102000000001
 30
0.0
 41
60.0
 42
60.0
 43
60.0
 50
90.0
  0
INSERT
  5
7E33
  8
3
  6
CONTINUOUS
 62
     0
  2
_OPEN
 10
1212.894321
 20
2182.1101999999992
 30
0.0
 41
60.0
 42
60.0
 43
60.0
 50
270.0
  0
TEXT
  8
3
  40
90
  5
7E4F
  62
0
  72
0
  71
0
 10
957.894
 20
2405.31
 30
0.000000
  1
765
  0
POINT
  5
7E35
  8
DEFPOINTS
  6
CONTINUOUS
 62
     0
 10
1250.912591999999
 20
2947.1102000000001
 30
0.0
  0
POINT
  5
7E36
  8
DEFPOINTS
  6
CONTINUOUS
 62
     0
 10
1397.1325429999999
 20
2182.1101999999992
 30
0.0
  0
POINT
  5
7E37
  8
DEFPOINTS
  6
CONTINUOUS
 62
     0
 10
1212.894321
 20
2182.1101999999992
 30
0.0
  0
ENDBLK
  5
7D4E
  8
0
  0
BLOCK
  8
0
  2
*D16
 70
     1
 10
0.0
 20
0.0
 30
0.0
  3
*D16
  1

  0
LINE
  5
7E38
  8
3
  6
CONTINUOUS
 62
     0
 10
1932.6325429999999
 20
3602.1102000000001
 30
0.0
 11
1018.357538
 21
3602.1102000000001
 31
0.0
  0
LINE
  5
7E39
  8
3
  6
CONTINUOUS
 62
     0
 10
1382.132542999999
 20
2182.1101999999992
 30
0.0
 11
1018.357538
 21
2182.1102000000001
 31
0.0
  0
LINE
  5
7E3A
  8
3
  6
CONTINUOUS
 62
     0
 10
1048.357538
 20
3542.1102000000001
 30
0.0
 11
1048.357538
 21
2242.1102000000001
 31
0.0
  0
INSERT
  5
7E3B
  8
3
  6
CONTINUOUS
 62
     0
  2
_OPEN
 10
1048.357538
 20
3602.1102000000001
 30
0.0
 41
60.0
 42
60.0
 43
60.0
 50
90.0
  0
INSERT
  5
7E3C
  8
3
  6
CONTINUOUS
 62
     0
  2
_OPEN
 10
1048.357538
 20
2182.1101999999992
 30
0.0
 41
60.0
 42
60.0
 43
60.0
 50
270.0
  0
TEXT
  8
3
  40
90
  5
7E50
  62
0
  72
0
  71
0
 10
793.358
 20
2679.87
 30
0.000000
  1
1420
  0
POINT
  5
7E3E
  8
DEFPOINTS
  6
CONTINUOUS
 62
     0
 10
1947.6325429999999
 20
3602.1102000000001
 30
0.0
  0
POINT
  5
7E3F
  8
DEFPOINTS
  6
CONTINUOUS
 62
     0
 10
1397.1325429999999
 20
2182.1101999999992
 30
0.0
  0
POINT
  5
7E40
  8
DEFPOINTS
  6
CONTINUOUS
 62
     0
 10
1048.357538
 20
2182.1101999999992
 30
0.0
  0
ENDBLK
  5
7D44
  8
0
  0
ENDSEC
  0
SECTION
  2
ENTITIES
  0
LINE
  5
7AC4
  8
1
  6
CONTINUOUS
 10
3207.1325430000002
 20
2657.1101999999992
 30
0.0
 11
2227.1325430000002
 21
3452.1101999999992
 31
0.0
  0
ARC
  5
7AC7
  8
1
  6
CONTINUOUS
 10
3027.1325430000002
 20
2532.1101999999992
 30
0.0
 40
162.0
 50
324.972283
 51
215.02771699999991
  0
LINE
  5
7AC8
  8
1
  6
CONTINUOUS
 10
1397.1325429999999
 20
2182.1101999999992
 30
0.0
 11
3297.1325430000002
 21
2182.1101999999992
 31
0.0
  0
LINE
  5
7AC9
  8
1
  6
CONTINUOUS
 10
1397.1325429999999
 20
2282.1101999999992
 30
0.0
 11
3297.1325430000002
 21
2282.1101999999992
 31
0.0
  0
LINE
  5
7ACA
  8
1
  6
CONTINUOUS
 10
2005.132542999999
 20
3562.1102000000001
 30
0.0
 11
2928.7890309999989
 21
3562.1102000000001
 31
0.0
  0
POLYLINE
  5
7ACB
  8
1
  6
CONTINUOUS
 66
     1
 10
0.0
 20
0.0
 30
0.0
  0
VERTEX
  5
7DB9
  8
1
  6
CONTINUOUS
 10
2930.1325430000002
 20
3602.1102000000001
 30
0.0
  0
VERTEX
  5
7DBA
  8
1
  6
CONTINUOUS
 10
2908.1325430000002
 20
2947.1102000000001
 30
0.0
 42
-0.4168370000000001
  0
VERTEX
  5
7DBB
  8
1
  6
CONTINUOUS
 10
2039.958601
 20
2204.6702399999999
 30
0.0
 42
-0.429867
  0
VERTEX
  5
7DBC
  8
1
  6
CONTINUOUS
 10
1408.7073660000001
 20
2990.9863599999999
 30
0.0
 42
-0.373172
  0
VERTEX
  5
7DBD
  8
1
  6
CONTINUOUS
 10
2005.132542999999
 20
3515.078927999999
 30
0.0
 42
-0.34598
  0
SEQEND
  5
7DBE
  8
1
  6
CONTINUOUS
  0
LINE
  5
7AD2
  8
1
  6
CONTINUOUS
 10
1962.6325429999999
 20
3602.1102000000001
 30
0.0
 11
2972.6325430000002
 21
3602.1102000000001
 31
0.0
  0
LINE
  5
7AD3
  8
1
  6
CONTINUOUS
 10
1567.1325429999999
 20
3452.1101999999992
 30
0.0
 11
2227.1325430000002
 21
3452.1101999999992
 31
0.0
  0
LINE
  5
7AD7
  8
1
  6
CONTINUOUS
 10
1567.132542999999
 20
2282.1101999999992
 30
0.0
 11
1567.1325429999999
 21
3452.1101999999992
 31
0.0
  0
LINE
  5
7AD9
  8
1
  6
CONTINUOUS
 10
1397.1325429999999
 20
2282.1101999999992
 30
0.0
 11
1397.1325429999999
 21
2182.1101999999992
 31
0.0
  0
LINE
  5
7ADA
  8
2
  6
CENTER
 10
2047.1325429999999
 20
2071.0530251829609
 30
0.0
 11
2047.1325429999999
 21
3743.3466899999999
 31
0.0
  0
CIRCLE
  5
7ADB
  8
1
  6
CONTINUOUS
 10
2047.1325429999999
 20
2947.1102000000001
 30
0.0
 40
254.0
  0
LINE
  5
7ADD
  8
2
  6
CENTER
 10
5165.457361226453
 20
2947.1102000000001
 30
0.0
 11
4049.446119226453
 21
2947.1102000000001
 31
0.0
  0
LINE
  5
7ADE
  8
1
  6
CONTINUOUS
 10
2894.4748770000001
 20
2439.1266329999999
 30
0.0
 11
2839.6325430000002
 21
2372.1102000000001
 31
0.0
  0
LINE
  5
7ADF
  8
1
  6
CONTINUOUS
 10
2829.6325430000002
 20
2322.1102000000001
 30
0.0
 11
2839.6325430000002
 21
2372.1102000000001
 31
0.0
  0
LINE
  5
7AE0
  8
1
  6
CONTINUOUS
 10
2829.6325430000002
 20
2322.1102000000001
 30
0.0
 11
2829.6325430000002
 21
2282.1101999999992
 31
0.0
  0
LINE
  5
7AE1
  8
1
  6
CONTINUOUS
 10
2005.132542999999
 20
3515.078927999999
 30
0.0
 11
2005.132542999999
 21
3602.1102000000001
 31
0.0
  0
LINE
  5
7AE8
  8
1
  6
CONTINUOUS
 10
3207.1325429999988
 20
2282.1101999999992
 30
0.0
 11
3207.1325430000002
 21
2657.1101999999992
 31
0.0
  0
LINE
  5
7AE9
  8
1
  6
CONTINUOUS
 10
3214.6325430000002
 20
2372.1102000000001
 30
0.0
 11
3159.7902079999999
 21
2439.1266329999999
 31
0.0
  0
LINE
  5
7AEA
  8
1
  6
CONTINUOUS
 10
3214.6325430000002
 20
2372.1102000000001
 30
0.0
 11
3224.6325430000002
 21
2322.1102000000001
 31
0.0
  0
LINE
  5
7AEB
  8
1
  6
CONTINUOUS
 10
3224.6325430000002
 20
2322.1102000000001
 30
0.0
 11
3224.6325430000002
 21
2282.1101999999992
 31
0.0
  0
LINE
  5
7AEC
  8
1
  6
CONTINUOUS
 10
3297.1325430000002
 20
2282.1101999999992
 30
0.0
 11
3297.1325430000002
 21
2182.1101999999992
 31
0.0
  0
LINE
  5
7AED
  8
2
  6
CENTER
 10
3107.1325430000002
 20
2532.1101999999992
 30
0.0
 11
2947.1325430000002
 21
2532.1101999999992
 31
0.0
  0
LINE
  5
7AEE
  8
2
  6
CENTER
 10
3027.1325430000002
 20
2452.1102000000001
 30
0.0
 11
3027.1325430000002
 21
2612.1102000000001
 31
0.0
  0
CIRCLE
  5
7AEF
  8
1
  6
CONTINUOUS
 10
3027.1325430000002
 20
2532.1101999999992
 30
0.0
 40
75.0
  0
LINE
  5
7AFE
  8
1
  6
CONTINUOUS
 10
2301.1325430000002
 20
5309.3414608590892
 30
0.0
 11
2952.1325430000002
 21
5309.3414608590892
 31
0.0
  0
LINE
  5
7AFF
  8
1
  6
CONTINUOUS
 10
1397.1325429999999
 20
6229.3414608590892
 30
0.0
 11
3297.1325430000002
 21
6229.3414608590892
 31
0.0
  0
LINE
  5
7B00
  8
1
  6
CONTINUOUS
 10
3207.1325430000002
 20
5220.3414608590892
 30
0.0
 11
1567.1325429999999
 21
5220.3414608590892
 31
0.0
  0
LINE
  5
7B01
  8
1
  6
CONTINUOUS
 10
3207.1325430000002
 20
5390.3414608590892
 30
0.0
 11
1567.1325429999999
 21
5390.3414608590892
 31
0.0
  0
LINE
  5
7B02
  8
1
  6
CONTINUOUS
 10
3189.1325430000002
 20
5401.3414608590892
 30
0.0
 11
2865.1325430000002
 21
5401.3414608590892
 31
0.0
  0
LINE
  5
7B03
  8
1
  6
CONTINUOUS
 10
1402.3362
 20
5443.3414608590892
 30
0.0
 11
2930.1325430000002
 21
5443.3414608590892
 31
0.0
  0
LINE
  5
7B04
  8
1
  6
CONTINUOUS
 10
1402.3362
 20
6113.3414608590892
 30
0.0
 11
2930.1325430000002
 21
6113.3414608590892
 31
0.0
  0
LINE
  5
7B05
  8
1
  6
CONTINUOUS
 10
2930.1325430000002
 20
5443.3414608590892
 30
0.0
 11
2005.132542999999
 21
6113.3414608590892
 31
0.0
  0
LINE
  5
7B06
  8
1
  6
CONTINUOUS
 10
2930.1325430000002
 20
6113.3414608590892
 30
0.0
 11
2005.132542999999
 21
5443.3414608590892
 31
0.0
  0
LINE
  5
7B07
  8
1
  6
CONTINUOUS
 10
1397.1325429999999
 20
5309.3414608590892
 30
0.0
 11
1793.1325429999999
 21
5309.3414608590892
 31
0.0
  0
LINE
  5
7B08
  8
1
  6
CONTINUOUS
 10
1397.1325429999999
 20
5309.3414608590892
 30
0.0
 11
1397.1325429999999
 21
6229.3414608590892
 31
0.0
  0
LINE
  5
7B09
  8
1
  6
CONTINUOUS
 10
1402.3362
 20
5443.3414608590892
 30
0.0
 11
1402.3362
 21
6113.3414608590892
 31
0.0
  0
LINE
  5
7B0A
  8
1
  6
CONTINUOUS
 10
1567.1325429999999
 20
5220.3414608590892
 30
0.0
 11
1567.1325429999999
 21
5390.3414608590892
 31
0.0
  0
LINE
  5
7B0B
  8
1
  6
CONTINUOUS
 10
2005.132542999999
 20
5443.3414608590892
 30
0.0
 11
2005.132542999999
 21
6113.3414608590892
 31
0.0
  0
LINE
  5
7B0C
  8
1
  6
CONTINUOUS
 10
2301.1325430000002
 20
5253.3414608590901
 30
0.0
 11
1793.1325429999999
 21
5253.3414608590901
 31
0.0
  0
LINE
  5
7B0D
  8
1
  6
CONTINUOUS
 10
2301.1325430000002
 20
5357.3414608590892
 30
0.0
 11
1793.1325429999999
 21
5357.3414608590892
 31
0.0
  0
LINE
  5
7B0E
  8
1
  6
CONTINUOUS
 10
1793.1325429999999
 20
5253.3414608590901
 30
0.0
 11
1793.1325429999999
 21
5357.3414608590892
 31
0.0
  0
LINE
  5
7B0F
  8
1
  6
CONTINUOUS
 10
2022.1325429999999
 20
5357.3414608590892
 30
0.0
 11
2022.1325429999999
 21
5443.3414608590892
 31
0.0
  0
LINE
  5
7B10
  8
1
  6
CONTINUOUS
 10
2301.1325430000002
 20
5253.3414608590901
 30
0.0
 11
2301.1325430000002
 21
5357.3414608590892
 31
0.0
  0
LINE
  5
7B11
  8
1
  6
CONTINUOUS
 10
2072.1325430000002
 20
5357.3414608590892
 30
0.0
 11
2072.1325430000002
 21
5443.3414608590892
 31
0.0
  0
LINE
  5
7B12
  8
1
  6
CONTINUOUS
 10
2865.1325430000002
 20
5401.3414608590892
 30
0.0
 11
2865.1325430000002
 21
5443.3414608590892
 31
0.0
  0
LINE
  5
7B17
  8
1
  6
CONTINUOUS
 10
3297.1325430000002
 20
5309.3414608590892
 30
0.0
 11
3297.1325430000002
 21
6229.3414608590892
 31
0.0
  0
LINE
  5
7B19
  8
1
  6
CONTINUOUS
 10
3189.1325430000002
 20
5401.3414608590892
 30
0.0
 11
3189.1325430000002
 21
5886.3414608590892
 31
0.0
  0
LINE
  5
7B1A
  8
1
  6
CONTINUOUS
 10
2930.1325430000002
 20
5443.3414608590892
 30
0.0
 11
2930.1325430000002
 21
6113.3414608590892
 31
0.0
  0
LINE
  5
7B1B
  8
1
  6
CONTINUOUS
 10
3102.1325430000002
 20
5309.3414608590892
 30
0.0
 11
3297.1325430000002
 21
5309.3414608590892
 31
0.0
  0
LINE
  5
7B1C
  8
1
  6
CONTINUOUS
 10
3102.1325430000002
 20
5253.3414608590901
 30
0.0
 11
3102.1325430000002
 21
5357.3414608590892
 31
0.0
  0
LINE
  5
7B1D
  8
1
  6
CONTINUOUS
 10
2952.1325430000002
 20
5253.3414608590901
 30
0.0
 11
2952.1325430000002
 21
5357.3414608590892
 31
0.0
  0
LINE
  5
7B1E
  8
1
  6
CONTINUOUS
 10
3048.1325430000002
 20
5357.3414608590892
 30
0.0
 11
3048.1325430000002
 21
5401.3414608590892
 31
0.0
  0
LINE
  5
7B1F
  8
1
  6
CONTINUOUS
 10
3006.1325430000002
 20
5357.3414608590892
 30
0.0
 11
3006.1325430000002
 21
5401.3414608590892
 31
0.0
  0
LINE
  5
7B20
  8
1
  6
CONTINUOUS
 10
3102.1325430000002
 20
5253.3414608590901
 30
0.0
 11
2952.1325430000002
 21
5253.3414608590901
 31
0.0
  0
LINE
  5
7B21
  8
1
  6
CONTINUOUS
 10
3102.1325430000002
 20
5357.3414608590892
 30
0.0
 11
2952.1325430000002
 21
5357.3414608590892
 31
0.0
  0
LINE
  5
7B22
  8
1
  6
CONTINUOUS
 10
3207.1325430000002
 20
5220.3414608590892
 30
0.0
 11
3207.1325430000002
 21
5390.3414608590892
 31
0.0
  0
LINE
  5
7B23
  8
1
  6
CONTINUOUS
 10
3189.1325430000002
 20
5886.3414608590892
 30
0.0
 11
2930.1325430000002
 21
5886.3414608590892
 31
0.0
  0
LINE
  5
7B34
  8
1
  6
CONTINUOUS
 10
4247.1928332264524
 20
2182.1101999999992
 30
0.0
 11
5167.1928332264533
 21
2182.1101999999992
 31
0.0
  0
LINE
  5
7B35
  8
1
  6
CONTINUOUS
 10
4106.1928332264524
 20
3452.1101999999992
 30
0.0
 11
4328.1928332264524
 21
3452.1101999999992
 31
0.0
  0
LINE
  5
7B36
  8
1
  6
CONTINUOUS
 10
4191.1928332264524
 20
3201.1102000000001
 30
0.0
 11
4295.1928332264524
 21
3201.1102000000001
 31
0.0
  0
LINE
  5
7B37
  8
1
  6
CONTINUOUS
 10
4191.1928332264524
 20
2693.1102000000001
 30
0.0
 11
4295.1928332264524
 21
2693.1102000000001
 31
0.0
  0
LINE
  5
7B38
  8
1
  6
CONTINUOUS
 10
4191.1928332264524
 20
2607.1102000000001
 30
0.0
 11
4295.1928332264524
 21
2607.1102000000001
 31
0.0
  0
LINE
  5
7B39
  8
1
  6
CONTINUOUS
 10
4191.1928332264524
 20
2457.1102000000001
 30
0.0
 11
4295.1928332264524
 21
2457.1102000000001
 31
0.0
  0
LINE
  5
7B3A
  8
1
  6
CONTINUOUS
 10
4247.1928332264524
 20
2282.1101999999992
 30
0.0
 11
5167.1928332264533
 21
2282.1101999999992
 31
0.0
  0
LINE
  5
7B3C
  8
1
  6
CONTINUOUS
 10
4191.1928332264524
 20
3201.1102000000001
 30
0.0
 11
4191.1928332264524
 21
2693.1102000000001
 31
0.0
  0
LINE
  5
7B3E
  8
1
  6
CONTINUOUS
 10
4106.1928332264524
 20
3452.1101999999992
 30
0.0
 11
4106.1928332264524
 21
2282.1101999999992
 31
0.0
  0
LINE
  5
7B40
  8
1
  6
CONTINUOUS
 10
4106.1928332264524
 20
2282.1101999999992
 30
0.0
 11
4247.1928332264524
 21
2282.1101999999992
 31
0.0
  0
LINE
  5
7B41
  8
1
  6
CONTINUOUS
 10
4247.1928332264524
 20
2282.1101999999992
 30
0.0
 11
4247.1928332264524
 21
2182.1101999999992
 31
0.0
  0
LINE
  5
7B42
  8
1
  6
CONTINUOUS
 10
4191.1928332264524
 20
2607.1102000000001
 30
0.0
 11
4191.1928332264524
 21
2457.1102000000001
 31
0.0
  0
LINE
  5
7B43
  8
1
  6
CONTINUOUS
 10
4381.1928332264524
 20
3602.1102000000001
 30
0.0
 11
4381.1928332264524
 21
2282.1101999999992
 31
0.0
  0
LINE
  5
7B44
  8
1
  6
CONTINUOUS
 10
5051.1928332264524
 20
3602.1102000000001
 30
0.0
 11
5051.1928332264524
 21
2282.1101999999992
 31
0.0
  0
LINE
  5
7B45
  8
1
  6
CONTINUOUS
 10
4295.1928332264524
 20
3201.1102000000001
 30
0.0
 11
4295.1928332264524
 21
2693.1102000000001
 31
0.0
  0
LINE
  5
7B46
  8
1
  6
CONTINUOUS
 10
4328.1928332264524
 20
3452.1101999999992
 30
0.0
 11
4328.1928332264524
 21
2282.1101999999992
 31
0.0
  0
LINE
  5
7B47
  8
1
  6
CONTINUOUS
 10
4295.1928332264524
 20
2972.1102000000001
 30
0.0
 11
4381.1928332264524
 21
2972.1102000000001
 31
0.0
  0
LINE
  5
7B48
  8
1
  6
CONTINUOUS
 10
4295.1928332264524
 20
2922.1102000000001
 30
0.0
 11
4381.1928332264524
 21
2922.1102000000001
 31
0.0
  0
LINE
  5
7B49
  8
1
  6
CONTINUOUS
 10
4295.1928332264524
 20
2553.1102000000001
 30
0.0
 11
4381.1928332264524
 21
2553.1102000000001
 31
0.0
  0
LINE
  5
7B4A
  8
1
  6
CONTINUOUS
 10
4295.1928332264524
 20
2511.1102000000001
 30
0.0
 11
4381.1928332264524
 21
2511.1102000000001
 31
0.0
  0
LINE
  5
7B4B
  8
1
  6
CONTINUOUS
 10
4295.1928332264524
 20
2607.1102000000001
 30
0.0
 11
4295.1928332264524
 21
2457.1102000000001
 31
0.0
  0
LINE
  5
7B4C
  8
1
  6
CONTINUOUS
 10
5167.1928332264533
 20
2282.1101999999992
 30
0.0
 11
5167.1928332264533
 21
2182.1101999999992
 31
0.0
  0
LINE
  5
7B4D
  8
1
  6
CONTINUOUS
 10
4381.1928332264524
 20
3562.1102000000001
 30
0.0
 11
5051.1928332264524
 21
3562.1102000000001
 31
0.0
  0
LINE
  5
7B4E
  8
1
  6
CONTINUOUS
 10
4339.1928332264524
 20
3602.1102000000001
 30
0.0
 11
5093.1928332264533
 21
3602.1102000000001
 31
0.0
  0
LINE
  5
7B54
  8
2
  6
CENTER
 10
3394.248814
 20
5778.3414608590892
 30
0.0
 11
1250.912591999999
 21
5778.3414608590892
 31
0.0
  0
LINE
  5
7B55
  8
2
  6
CENTER
 10
4716.1928332264524
 20
3768.4438530000002
 30
0.0
 11
4716.1928332264524
 21
2098.220043250516
 31
0.0
  0
LINE
  5
7B56
  8
2
  6
CENTER
 10
2047.1325429999999
 20
5130.7281118590899
 30
0.0
 11
2047.1325429999999
 21
6430.4593828590896
 31
0.0
  0
LINE
  5
7B57
  8
2
  6
CENTER
 10
3092.683102
 20
2947.1102000000001
 30
0.0
 11
1220.7474500000001
 21
2947.1102000000001
 31
0.0
  0
LINE
  5
7B58
  8
4
  6
CONTINUOUS
 10
5550.0
 20
1500.0
 30
0.0
 11
5550.0
 21
900.0
 31
0.0
  0
LINE
  5
7B59
  8
4
  6
CONTINUOUS
 10
3450.0
 20
1500.0
 30
0.0
 11
3450.0
 21
900.0
 31
0.0
  0
LINE
  5
7B5A
  8
4
  6
CONTINUOUS
 10
1950.0
 20
1500.0
 30
0.0
 11
1950.0
 21
900.0
 31
0.0
  0
LINE
  5
7B5D
  8
4
  6
CONTINUOUS
 10
1950.0
 20
900.0
 30
0.0
 11
5550.0
 21
900.0
 31
0.0
  0
LINE
  5
7B5E
  8
4
  6
CONTINUOUS
 10
1950.0
 20
1200.0
 30
0.0
 11
5550.0
 21
1200.0
 31
0.0
  0
TEXT
  5
7B5F
  8
4
  6
CONTINUOUS
 10
2065.5062429999989
 20
1294.6290779999999
 30
0.0
 40
150.0
  1
機器名称
  0
TEXT
  5
7B60
  8
4
  6
CONTINUOUS
 10
2058.7743179999989
 20
964.9354699999999
 30
0.0
 40
150.0
  1
機器型番
  0
TEXT
  5
7B61
  8
4
  6
CONTINUOUS
 10
3533.0362359999999
 20
1267.7153069999999
 30
0.0
 40
150.0
  1
ミツヤ多翼送風機
  0
TEXT
  5
7B62
  8
4
  6
CONTINUOUS
 10
3559.9634869999991
 20
951.47875299999987
 30
0.0
 40
150.0
  1
MF#5 1/2-4
  0
TEXT
  5
7B64
  8
4
  6
CONTINUOUS
 10
2455.0392849999998
 20
7150.2865239999992
 30
0.0
 40
162.0
  1
天井吊ベット
  0
TEXT
  5
7B65
  8
4
  6
CONTINUOUS
 10
948.50278000000014
 20
7601.6429289999996
 30
0.0
 40
216.0
  1
ベルト駆動式片吸込両持多翼ファン
  0
LINE
  5
7B66
  8
4
  6
CONTINUOUS
 10
750.0
 20
7408.2262629999996
 30
0.0
 11
5550.0
 21
7408.2262629999996
 31
0.0
  0
LINE
  5
7B67
  8
4
  6
CONTINUOUS
 10
750.0
 20
8008.2262629999996
 30
0.0
 11
5550.0
 21
8008.2262629999996
 31
0.0
  0
LINE
  5
7B68
  8
4
  6
CONTINUOUS
 10
1950.0
 20
1500.0
 30
0.0
 11
5550.0
 21
1500.0
 31
0.0
  0
LINE
  5
7B69
  8
4
  6
CONTINUOUS
 10
750.0
 20
8008.2262629999996
 30
0.0
 11
750.0
 21
7408.2262629999996
 31
0.0
  0
TEXT
  5
7B6A
  8
4
  6
CONTINUOUS
 10
1147.462788
 20
7146.9584329999998
 30
0.0
 40
162.0
  1
左回転上向
  0
TEXT
  5
7B6B
  8
4
  6
CONTINUOUS
 10
4406.9086779999989
 20
8118.1832439999989
 30
0.0
 40
168.0
  1
No.
  0
TEXT
  5
7B6C
  8
4
  6
CONTINUOUS
 10
3933.8881879999999
 20
7150.2865239999992
 30
0.0
 40
162.0
  1
縮尺：1/30
  0
LINE
  5
7B6D
  8
4
  6
CONTINUOUS
 10
5550.0
 20
8008.2262629999996
 30
0.0
 11
5550.0
 21
7408.2262629999996
 31
0.0
  0
LINE
  5
7B6F
  8
4
  6
CONTINUOUS
 10
4321.8522670000002
 20
8043.7907490000007
 30
0.0
 11
4321.8522670000002
 21
8359.9567849999985
 31
0.0
  0
LINE
  5
7B70
  8
4
  6
CONTINUOUS
 10
4321.8522670000002
 20
8359.9567849999985
 30
0.0
 11
5550.0
 21
8359.9567849999985
 31
0.0
  0
LINE
  5
7B71
  8
4
  6
CONTINUOUS
 10
5550.0
 20
8359.9567849999985
 30
0.0
 11
5550.0
 21
8043.7907490000007
 31
0.0
  0
LINE
  5
7B72
  8
4
  6
CONTINUOUS
 10
5550.0
 20
8043.7907490000007
 30
0.0
 11
4321.8522670000002
 21
8043.7907490000007
 31
0.0
  0
DIMENSION
  5
7B8A
  8
3
  6
CONTINUOUS
  2
*D1
 10
2930.1325430000002
 20
3771.1510969999999
 30
0.0
 11
2434.675819
 21
3771.1510969999999
 31
0.0
 70
   128
 13
2005.132542999999
 23
3602.1102000000001
 33
0.0
 14
2930.1325430000002
 24
3602.1102000000001
 34
0.0
1001
ACAD
1000
DSTYLE
1002
{
1070
   287
1070
     3
1070
    40
1040
30.0
1070
   143
1040
0.039
1070
   172
1070
     1
1070
   271
1070
     0
1070
   279
1070
     0
1070
   288
1070
     1
1002
}
  0
DIMENSION
  5
7B97
  8
3
  6
CONTINUOUS
  2
*D2
 10
2047.1325429999999
 20
3964.8548810000002
 30
0.0
 11
2441.854350999999
 21
3964.8548810000002
 31
0.0
 70
   128
 13
2930.1325430000002
 23
3602.1102000000001
 33
0.0
 14
2047.1325429999999
 24
3743.3466899999999
 34
0.0
1001
ACAD
1000
DSTYLE
1002
{
1070
   287
1070
     3
1070
    40
1040
30.0
1070
   143
1040
0.039
1070
   172
1070
     1
1070
   271
1070
     0
1070
   279
1070
     0
1070
   288
1070
     1
1002
}
  0
DIMENSION
  5
7BB0
  8
3
  6
CONTINUOUS
  2
*D3
 10
2047.1325429999999
 20
1947.9291221829601
 30
0.0
 11
1724.0019289999991
 21
1947.9291221829601
 31
0.0
 70
   128
 13
1397.1325429999999
 23
2182.1101999999992
 33
0.0
 14
2047.1325429999999
 24
2046.0530251829609
 34
0.0
1001
ACAD
1000
DSTYLE
1002
{
1070
   287
1070
     3
1070
    40
1040
30.0
1070
   143
1040
0.039
1070
   172
1070
     1
1070
   271
1070
     0
1070
   279
1070
     0
1070
   288
1070
     1
1002
}
  0
DIMENSION
  5
7BBC
  8
3
  6
CONTINUOUS
  2
*D4
 10
3297.1325430000002
 20
1947.9291221829601
 30
0.0
 11
2672.1325430000002
 21
2022.929122182961
 31
0.0
 70
     0
 13
2047.1325429999999
 23
2046.0530251829609
 33
0.0
 14
3297.1325430000002
 24
2182.1101999999992
 34
0.0
1001
ACAD
1000
DSTYLE
1002
{
1070
   287
1070
     4
1070
    40
1040
30.0
1070
    75
1070
     1
1070
   143
1040
0.039
1070
   172
1070
     1
1070
   271
1070
     0
1070
   279
1070
     1
1070
   288
1070
     1
1002
}
  0
DIMENSION
  5
7BC9
  8
3
  6
CONTINUOUS
  2
*D5
 10
1212.894321
 20
2947.1102000000001
 30
0.0
 11
1212.894321
 21
3240.2592500000001
 31
0.0
 70
   128
 13
1962.6325429999999
 23
3602.1102000000001
 33
0.0
 14
1250.912591999999
 24
2947.1102000000001
 34
0.0
 50
90.0
1001
ACAD
1000
DSTYLE
1002
{
1070
   287
1070
     3
1070
    40
1040
30.0
1070
   143
1040
0.039
1070
   172
1070
     1
1070
   271
1070
     0
1070
   279
1070
     0
1070
   288
1070
     1
1002
}
  0
DIMENSION
  5
7BEF
  8
3
  6
CONTINUOUS
  2
*D6
 10
5051.1928332264524
 20
3751.5828179999999
 30
0.0
 11
4714.5470182264517
 21
3751.5828179999999
 31
0.0
 70
   128
 13
4381.1928332264524
 23
3602.1102000000001
 33
0.0
 14
5051.1928332264524
 24
3602.1102000000001
 34
0.0
1001
ACAD
1000
DSTYLE
1002
{
1070
   287
1070
     3
1070
    40
1040
30.0
1070
   143
1040
0.039
1070
   172
1070
     1
1070
   271
1070
     0
1070
   279
1070
     0
1070
   288
1070
     1
1002
}
  0
LINE
  5
7BF0
  8
1
  6
CONTINUOUS
 10
5055.1928332264533
 20
3422.1102000000001
 30
0.0
 11
5055.1928332264533
 21
2472.1102000000001
 31
0.0
  0
DIMENSION
  5
7BFF
  8
3
  6
CONTINUOUS
  2
*D7
 10
5335.3656242264533
 20
2472.1101999999992
 30
0.0
 11
5335.3656242264533
 21
2954.7997409999998
 31
0.0
 70
   128
 13
5055.1928332264533
 23
3422.1102000000001
 33
0.0
 14
5055.1928332264533
 24
2472.1102000000001
 34
0.0
 50
90.0
1001
ACAD
1000
DSTYLE
1002
{
1070
   287
1070
     3
1070
     3
1000
φ<>
1070
    40
1040
30.0
1070
   143
1040
0.039
1070
   172
1070
     1
1070
   271
1070
     0
1070
   279
1070
     0
1070
   288
1070
     1
1002
}
  0
DIMENSION
  5
7C0E
  8
3
  6
CONTINUOUS
  2
*D8
 10
4716.1928332264524
 20
3947.5130899999999
 30
0.0
 11
4885.6928332264524
 21
4028.0931457905381
 31
0.0
 70
   128
 13
5055.1928332264533
 23
3422.1102000000001
 33
0.0
 14
4716.1928332264524
 24
3898.1650599999998
 34
0.0
1001
ACAD
1000
DSTYLE
1002
{
1070
   288
1070
     1
1070
   172
1070
     1
1070
    40
1040
30.0
1070
   271
1070
     0
1070
   143
1040
0.039
1002
}
  0
DIMENSION
  5
7C1A
  8
3
  6
CONTINUOUS
  2
*D9
 10
4106.1928332264524
 20
3947.5130899999999
 30
0.0
 11
4411.1928332264524
 21
4097.5130900000004
 31
0.0
 70
     0
  1
MAX\P640
 13
4716.1928332264524
 23
3898.1650599999998
 33
0.0
 14
4106.1928332264524
 24
3452.1101999999992
 34
0.0
1001
ACAD
1000
DSTYLE
1002
{
1070
   287
1070
     4
1070
    40
1040
30.0
1070
    75
1070
     1
1070
   143
1040
0.039
1070
   172
1070
     1
1070
   271
1070
     0
1070
   279
1070
     1
1070
   288
1070
     1
1002
}
  0
DIMENSION
  5
7C27
  8
3
  6
CONTINUOUS
  2
*D10
 10
4716.1928332264524
 20
1957.810149250517
 30
0.0
 11
4512.621404655024
 21
1957.810149250517
 31
0.0
 70
   128
 13
4247.1928332264524
 23
2182.1101999999992
 33
0.0
 14
4716.1928332264524
 24
2073.2200432505169
 34
0.0
1001
ACAD
1000
DSTYLE
1002
{
1070
   287
1070
     3
1070
    40
1040
30.0
1070
   143
1040
0.039
1070
   172
1070
     1
1070
   271
1070
     0
1070
   279
1070
     0
1070
   288
1070
     1
1002
}
  0
DIMENSION
  5
7C33
  8
3
  6
CONTINUOUS
  2
*D11
 10
5167.1928332264533
 20
1957.810149250517
 30
0.0
 11
4941.6928332264524
 21
2032.8101492505159
 31
0.0
 70
     0
 13
4716.1928332264524
 23
2073.2200432505169
 33
0.0
 14
5167.1928332264533
 24
2182.1101999999992
 34
0.0
1001
ACAD
1000
DSTYLE
1002
{
1070
   287
1070
     4
1070
    40
1040
30.0
1070
    75
1070
     1
1070
   143
1040
0.039
1070
   172
1070
     1
1070
   271
1070
     0
1070
   279
1070
     1
1070
   288
1070
     1
1002
}
  0
DIMENSION
  5
7C40
  8
3
  6
CONTINUOUS
  2
*D12
 10
3297.1325430000002
 20
6465.4094758590891
 30
0.0
 11
2336.132075
 21
6465.4094758590891
 31
0.0
 70
   128
 13
1397.1325429999999
 23
6229.3414608590892
 33
0.0
 14
3297.1325430000002
 24
6229.3414608590892
 34
0.0
1001
ACAD
1000
DSTYLE
1002
{
1070
   287
1070
     3
1070
    40
1040
30.0
1070
   143
1040
0.039
1070
   172
1070
     1
1070
   271
1070
     0
1070
   279
1070
     0
1070
   288
1070
     1
1002
}
  0
DIMENSION
  5
7C4D
  8
3
  6
CONTINUOUS
  2
*D13
 10
3564.6994060000011
 20
5309.3414608590892
 30
0.0
 11
3564.6994060000002
 21
5758.4078738590897
 31
0.0
 70
   128
 13
3297.1325430000002
 23
6229.3414608590892
 33
0.0
 14
3297.1325430000002
 24
5309.3414608590892
 34
0.0
 50
90.0
1001
ACAD
1000
DSTYLE
1002
{
1070
   287
1070
     3
1070
    40
1040
30.0
1070
   143
1040
0.039
1070
   172
1070
     1
1070
   271
1070
     0
1070
   279
1070
     0
1070
   288
1070
     1
1002
}
  0
DIMENSION
  5
7C75
  8
3
  6
CONTINUOUS
  2
*D14
 10
1404.137600008268
 20
3964.8548810000002
 30
0.0
 11
1725.635071504134
 21
4039.8548810000002
 31
0.0
 70
     0
 13
2047.1325429999999
 23
3743.3466899999999
 33
0.0
 14
1404.137600008268
 24
2947.1102000000001
 34
0.0
1001
ACAD
1000
DSTYLE
1002
{
1070
   287
1070
     4
1070
    40
1040
30.0
1070
    75
1070
     1
1070
   143
1040
0.039
1070
   172
1070
     1
1070
   271
1070
     0
1070
   279
1070
     1
1070
   288
1070
     1
1002
}
  0
LINE
  5
7C82
  8
1
  6
CONTINUOUS
 10
2188.3246920000001
 20
3158.251804
 30
0.0
 11
3068.8231379999988
 21
2594.4551620000002
 31
0.0
  0
LINE
  5
7C83
  8
1
  6
CONTINUOUS
 10
1983.1616770000001
 20
2701.2978159999998
 30
0.0
 11
3008.243508
 21
2459.5278029999999
 31
0.0
  0
DIMENSION
  5
7C8F
  8
3
  6
CONTINUOUS
  2
*D15
 10
1212.894321
 20
2182.1101999999992
 30
0.0
 11
1137.8943209999991
 21
2564.6102000000001
 31
0.0
 70
     0
 13
1250.912591999999
 23
2947.1102000000001
 33
0.0
 14
1397.1325429999999
 24
2182.1101999999992
 34
0.0
 50
90.0
1001
ACAD
1000
DSTYLE
1002
{
1070
   287
1070
     4
1070
    40
1040
30.0
1070
    75
1070
     1
1070
   143
1040
0.039
1070
   172
1070
     1
1070
   271
1070
     0
1070
   279
1070
     1
1070
   288
1070
     1
1002
}
  0
DIMENSION
  5
7C9C
  8
3
  6
CONTINUOUS
  2
*D16
 10
1048.357538
 20
2182.1101999999992
 30
0.0
 11
1048.357538
 21
2839.1724439999998
 31
0.0
 70
   128
 13
1947.6325429999999
 23
3602.1102000000001
 33
0.0
 14
1397.1325429999999
 24
2182.1101999999992
 34
0.0
 50
90.0
1001
ACAD
1000
DSTYLE
1002
{
1070
   287
1070
     3
1070
    40
1040
30.0
1070
   143
1040
0.039
1070
   172
1070
     1
1070
   271
1070
     0
1070
   279
1070
     0
1070
   288
1070
     1
1002
}
  0
LINE
  5
7D99
  8
1
  6
CONTINUOUS
 10
1487.132542999999
 20
3402.1102000000001
 30
0.0
 11
2607.1325430000002
 21
3402.1102000000001
 31
0.0
  0
LINE
  5
7D9A
  8
1
 10
1487.1325429999999
 20
2282.1101999999992
 30
0.0
 11
1487.132542999999
 21
3402.1102000000001
 31
0.0
  0
LINE
  5
7D9B
  8
1
 10
2607.1325430000002
 20
2282.1101999999992
 30
0.0
 11
2607.1325430000002
 21
3402.1102000000001
 31
0.0
  0
ENDSEC
  0
EOF
