  0
SECTION
  2
HEADER
  9
$ACADVER
  1
AC1009
  9
$INSBASE
 10
0.0
 20
0.0
 30
0.0
  9
$EXTMIN
 10
750.0
 20
900.0
 30
0.0
  9
$EXTMAX
 10
5550.0
 20
8359.9567849999985
 30
0.0
  9
$LIMMIN
 10
0.0
 20
0.0
  9
$LIMMAX
 10
297.0
 20
210.0
  9
$ORTHOMODE
 70
     0
  9
$REGENMODE
 70
     1
  9
$FILLMODE
 70
     0
  9
$QTEXTMODE
 70
     0
  9
$MIRRTEXT
 70
     1
  9
$DRAGMODE
 70
     2
  9
$LTSCALE
 40
100.0
  9
$OSMODE
 70
    37
  9
$ATTMODE
 70
     1
  9
$TEXTSIZE
 40
180.0
  9
$TRACEWID
 40
0.05
  9
$TEXTSTYLE
  7
STANDARD
  9
$CLAYER
  8
3
  9
$CELTYPE
  6
BYLAYER
  9
$CECOLOR
 62
   256
  9
$DIMSCALE
 40
30.0
  9
$DIMASZ
 40
2.0
  9
$DIMEXO
 40
0.5
  9
$DIMDLI
 40
10.0
  9
$DIMRND
 40
0.0
  9
$DIMDLE
 40
0.0
  9
$DIMEXE
 40
1.0
  9
$DIMTP
 40
1.0
  9
$DIMTM
 40
1.0
  9
$DIMTXT
 40
3.0
  9
$DIMCEN
 40
0.0
  9
$DIMTSZ
 40
0.0
  9
$DIMTOL
 70
     0
  9
$DIMLIM
 70
     0
  9
$DIMTIH
 70
     0
  9
$DIMTOH
 70
     0
  9
$DIMSE1
 70
     0
  9
$DIMSE2
 70
     0
  9
$DIMTAD
 70
     1
  9
$DIMZIN
 70
     8
  9
$DIMBLK
  1

  9
$DIMASO
 70
     1
  9
$DIMSHO
 70
     1
  9
$DIMPOST
  1

  9
$DIMAPOST
  1

  9
$DIMALT
 70
     0
  9
$DIMALTD
 70
     2
  9
$DIMALTF
 40
0.039
  9
$DIMLFAC
 40
1.0
  9
$DIMTOFL
 70
     1
  9
$DIMTVP
 40
0.0
  9
$DIMTIX
 70
     0
  9
$DIMSOXD
 70
     0
  9
$DIMSAH
 70
     1
  9
$DIMBLK1
  1
OPEN
  9
$DIMBLK2
  1
OPEN
  9
$DIMSTYLE
  2
IGA
  9
$DIMCLRD
 70
     0
  9
$DIMCLRE
 70
     0
  9
$DIMCLRT
 70
     0
  9
$DIMTFAC
 40
10.0
  9
$DIMGAP
 40
1.0
  9
$LUNITS
 70
     2
  9
$LUPREC
 70
     3
  9
$SKETCHINC
 40
0.1
  9
$FILLETRAD
 40
50.0
  9
$AUNITS
 70
     0
  9
$AUPREC
 70
     0
  9
$MENU
  1
acad
  9
$ELEVATION
 40
0.0
  9
$PELEVATION
 40
0.0
  9
$THICKNESS
 40
0.0
  9
$LIMCHECK
 70
     0
  9
$BLIPMODE
 70
     0
  9
$CHAMFERA
 40
0.5
  9
$CHAMFERB
 40
0.5
  9
$SKPOLY
 70
     0
  9
$TDCREATE
 40
2450751.6092324071
  9
$TDUPDATE
 40
2454953.7759257401
  9
$TDINDWG
 40
0.0273063889
  9
$TDUSRTIMER
 40
0.0273063889
  9
$USRTIMER
 70
     1
  9
$ANGBASE
 50
0.0
  9
$ANGDIR
 70
     0
  9
$PDMODE
 70
     0
  9
$PDSIZE
 40
0.0
  9
$PLINEWID
 40
0.0
  9
$COORDS
 70
     1
  9
$SPLFRAME
 70
     0
  9
$SPLINETYPE
 70
     6
  9
$SPLINESEGS
 70
     8
  9
$ATTDIA
 70
     0
  9
$ATTREQ
 70
     1
  9
$HANDLING
 70
 10241
  9
$HANDSEED
  5
7DED
  9
$SURFTAB1
 70
     6
  9
$SURFTAB2
 70
     6
  9
$SURFTYPE
 70
     6
  9
$SURFU
 70
     6
  9
$SURFV
 70
     6
  9
$UCSNAME
  2

  9
$UCSORG
 10
0.0
 20
0.0
 30
0.0
  9
$UCSXDIR
 10
1.0
 20
0.0
 30
0.0
  9
$UCSYDIR
 10
0.0
 20
1.0
 30
0.0
  9
$PUCSNAME
  2

  9
$PUCSORG
 10
0.0
 20
0.0
 30
0.0
  9
$PUCSXDIR
 10
1.0
 20
0.0
 30
0.0
  9
$PUCSYDIR
 10
0.0
 20
1.0
 30
0.0
  9
$USERI1
 70
     0
  9
$USERI2
 70
     0
  9
$USERI3
 70
     0
  9
$USERI4
 70
     0
  9
$USERI5
 70
     0
  9
$USERR1
 40
0.0
  9
$USERR2
 40
0.0
  9
$USERR3
 40
0.0
  9
$USERR4
 40
0.0
  9
$USERR5
 40
0.0
  9
$WORLDVIEW
 70
     1
  9
$SHADEDGE
 70
     3
  9
$SHADEDIF
 70
    70
  9
$TILEMODE
 70
     1
  9
$MAXACTVP
 70
    16
  9
$PLIMCHECK
 70
     0
  9
$PEXTMIN
 10
1.0000000000000000E+020
 20
1.0000000000000000E+020
 30
1.0000000000000000E+020
  9
$PEXTMAX
 10
-1.0000000000000000E+020
 20
-1.0000000000000000E+020
 30
-1.0000000000000000E+020
  9
$PLIMMIN
 10
0.0
 20
0.0
  9
$PLIMMAX
 10
12.0
 20
9.0
  9
$UNITMODE
 70
     0
  9
$VISRETAIN
 70
     0
  9
$PLINEGEN
 70
     0
  9
$PSLTSCALE
 70
     1
  0
ENDSEC
  0
SECTION
  2
TABLES
  0
TABLE
  2
VPORT
 70
     2
  0
VPORT
  2
*ACTIVE
 70
     0
 10
0.0
 20
0.0
 11
1.0
 21
1.0
 12
9438.4567678319436
 22
4630.0975558305709
 13
0.0
 23
0.0
 14
10.0
 24
10.0
 15
10.0
 25
10.0
 16
0.0
 26
0.0
 36
1.0
 17
0.0
 27
0.0
 37
0.0
 40
7517.4747125171307
 41
3.1666666666666661
 42
50.0
 43
0.0
 44
0.0
 50
0.0
 51
0.0
 71
     0
 72
   100
 73
     1
 74
     0
 75
     0
 76
     0
 77
     0
 78
     0
  0
ENDTAB
  0
TABLE
  2
LTYPE
 70
     2
  0
LTYPE
  2
CONTINUOUS
 70
     0
  3
Solid line
 72
    65
 73
     0
 40
0.0
  0
LTYPE
  2
CENTER
 70
     0
  3
____ _ ____ _ ____ _ ____ _ ____ _ ____ _ ____ 
 72
    65
 73
     4
 40
2.0
 49
1.25
 49
-0.25
 49
0.25
 49
-0.25
  0
ENDTAB
  0
TABLE
  2
LAYER
 70
     6
  0
LAYER
  2
0
 70
     0
 62
     7
  6
CONTINUOUS
  0
LAYER
  2
3
 70
     0
 62
     2
  6
CONTINUOUS
  0
LAYER
  2
2
 70
     0
 62
     3
  6
CENTER
  0
LAYER
  2
1
 70
     0
 62
     4
  6
CONTINUOUS
  0
LAYER
  2
4
 70
     0
 62
     7
  6
CONTINUOUS
  0
LAYER
  2
DEFPOINTS
 70
     0
 62
     7
  6
CONTINUOUS
  0
ENDTAB
  0
TABLE
  2
STYLE
 70
     1
  0
STYLE
  2
STANDARD
 70
     0
 40
0.0
 41
1.0
 50
0.0
 71
     0
 42
180.0
  3
simplex.shx
  4
extfont.shx
  0
ENDTAB
  0
TABLE
  2
VIEW
 70
     0
  0
ENDTAB
  0
TABLE
  2
UCS
 70
     0
  0
ENDTAB
  0
TABLE
  2
APPID
 70
     1
  0
APPID
  2
ACAD
 70
     0
  0
ENDTAB
  0
TABLE
  2
DIMSTYLE
 70
     1
  0
DIMSTYLE
  2
IGA
 70
     0
  3

  4

  5

  6
OPEN
  7
OPEN
 40
2.0
 41
2.0
 42
0.5
 43
10.0
 44
1.0
 45
0.0
 46
0.0
 47
1.0
 48
1.0
140
3.0
141
0.0
142
0.0
143
0.03937
144
1.0
145
0.0
146
10.0
147
1.0
 71
     0
 72
     0
 73
     0
 74
     0
 75
     0
 76
     0
 77
     1
 78
     8
170
     0
171
     2
172
     0
173
     1
174
     0
175
     0
176
     0
177
     0
178
     0
  0
ENDTAB
  0
ENDSEC
  0
SECTION
  2
BLOCKS
  0
BLOCK
  8
0
  2
$MODEL_SPACE
 70
     0
 10
0.0
 20
0.0
 30
0.0
  3
$MODEL_SPACE
  1

  0
ENDBLK
  5
1B
  8
0
  0
BLOCK
 67
     1
  8
0
  2
$PAPER_SPACE
 70
     0
 10
0.0
 20
0.0
 30
0.0
  3
$PAPER_SPACE
  1

  0
ENDBLK
  5
18
 67
     1
  8
0
  0
BLOCK
  8
0
  2
_OPEN
 70
     0
 10
0.0
 20
0.0
 30
0.0
  3
_OPEN
  1

  0
LINE
  5
7B79
  8
0
  6
BYBLOCK
 62
     0
 10
-1.0
 20
0.166667
 30
0.0
 11
0.0
 21
0.0
 31
0.0
  0
LINE
  5
7B7A
  8
0
  6
BYBLOCK
 62
     0
 10
0.0
 20
0.0
 30
0.0
 11
-1.0
 21
-0.166667
 31
0.0
  0
LINE
  5
7B7B
  8
0
  6
BYBLOCK
 62
     0
 10
0.0
 20
0.0
 30
0.0
 11
-1.0
 21
0.0
 31
0.0
  0
ENDBLK
  5
7B7C
  8
0
  0
BLOCK
  8
0
  2
*D1
 70
     1
 10
0.0
 20
0.0
 30
0.0
  3
*D1
  1

  0
LINE
  5
7D51
  8
3
  6
CONTINUOUS
 62
     0
 10
1498.082384
 20
4035.518642
 30
0.0
 11
1296.782005
 21
4035.518642
 31
0.0
  0
LINE
  5
7D52
  8
3
  6
CONTINUOUS
 62
     0
 10
1498.082384
 20
3110.518642
 30
0.0
 11
1296.782005
 21
3110.518642
 31
0.0
  0
LINE
  5
7D53
  8
3
  6
CONTINUOUS
 62
     0
 10
1326.782005
 20
3975.518642
 30
0.0
 11
1326.782005
 21
3170.518642
 31
0.0
  0
INSERT
  5
7D54
  8
3
  6
CONTINUOUS
 62
     0
  2
_OPEN
 10
1326.782005
 20
4035.518642
 30
0.0
 41
60.0
 42
60.0
 43
60.0
 50
90.0
  0
INSERT
  5
7D55
  8
3
  6
CONTINUOUS
 62
     0
  2
_OPEN
 10
1326.782005
 20
3110.518642
 30
0.0
 41
60.0
 42
60.0
 43
60.0
 50
270.0
  0
TEXT
  8
3
  40
90
  5
7DDC
  62
0
  72
0
  71
0
 10
1071.78
 20
3377.06
 30
0.000000
  1
925
  0
POINT
  5
7D57
  8
DEFPOINTS
  6
CONTINUOUS
 62
     0
 10
1513.082384
 20
4035.518642
 30
0.0
  0
POINT
  5
7D58
  8
DEFPOINTS
  6
CONTINUOUS
 62
     0
 10
1513.082384
 20
3110.518642
 30
0.0
  0
POINT
  5
7D59
  8
DEFPOINTS
  6
CONTINUOUS
 62
     0
 10
1326.782005
 20
3110.518642
 30
0.0
  0
ENDBLK
  5
7B89
  8
0
  0
BLOCK
  8
0
  2
*D2
 70
     1
 10
0.0
 20
0.0
 30
0.0
  3
*D2
  1

  0
LINE
  5
7D5A
  8
3
  6
CONTINUOUS
 62
     0
 10
1498.082384
 20
4035.518642
 30
0.0
 11
1106.6748809999999
 21
4035.518642
 31
0.0
  0
LINE
  5
7D5B
  8
3
  6
CONTINUOUS
 62
     0
 10
1408.704074
 20
3152.518642
 30
0.0
 11
1106.6748809999999
 21
3152.518642
 31
0.0
  0
LINE
  5
7D5C
  8
3
  6
CONTINUOUS
 62
     0
 10
1136.6748809999999
 20
3975.518642
 30
0.0
 11
1136.6748809999999
 21
3212.518642
 31
0.0
  0
INSERT
  5
7D5D
  8
3
  6
CONTINUOUS
 62
     0
  2
_OPEN
 10
1136.6748809999999
 20
4035.518642
 30
0.0
 41
60.0
 42
60.0
 43
60.0
 50
90.0
  0
INSERT
  5
7D5E
  8
3
  6
CONTINUOUS
 62
     0
  2
_OPEN
 10
1136.6748809999999
 20
3152.518642
 30
0.0
 41
60.0
 42
60.0
 43
60.0
 50
270.0
  0
TEXT
  8
3
  40
90
  5
7DDD
  62
0
  72
0
  71
0
 10
881.675
 20
3371.12
 30
0.000000
  1
883
  0
POINT
  5
7D60
  8
DEFPOINTS
  6
CONTINUOUS
 62
     0
 10
1513.082384
 20
4035.518642
 30
0.0
  0
POINT
  5
7D61
  8
DEFPOINTS
  6
CONTINUOUS
 62
     0
 10
1423.7040739999991
 20
3152.518642
 30
0.0
  0
POINT
  5
7D62
  8
DEFPOINTS
  6
CONTINUOUS
 62
     0
 10
1136.6748809999999
 20
3152.518642
 30
0.0
  0
ENDBLK
  5
7B96
  8
0
  0
BLOCK
  8
0
  2
*D3
 70
     1
 10
0.0
 20
0.0
 30
0.0
  3
*D3
  1

  0
LINE
  5
7D63
  8
3
  6
CONTINUOUS
 62
     0
 10
1518.082384
 20
2372.518642
 30
0.0
 11
1518.082384
 21
2073.2608190000001
 31
0.0
  0
LINE
  5
7D64
  8
3
  6
CONTINUOUS
 62
     0
 10
2168.0823839999989
 20
2214.1653849999998
 30
0.0
 11
2168.0823839999989
 21
2073.2608190000001
 31
0.0
  0
LINE
  5
7D65
  8
3
  6
CONTINUOUS
 62
     0
 10
1578.082384
 20
2103.2608190000001
 30
0.0
 11
2108.0823839999989
 21
2103.2608190000001
 31
0.0
  0
INSERT
  5
7D66
  8
3
  6
CONTINUOUS
 62
     0
  2
_OPEN
 10
1518.082384
 20
2103.2608190000001
 30
0.0
 41
60.0
 42
60.0
 43
60.0
 50
180.0
  0
INSERT
  5
7D67
  8
3
  6
CONTINUOUS
 62
     0
  2
_OPEN
 10
2168.0823839999989
 20
2103.2608190000001
 30
0.0
 41
60.0
 42
60.0
 43
60.0
  0
TEXT
  8
3
  40
90
  5
7DDE
  62
0
  72
0
  71
0
 10
1657.10
 20
2018.96
 30
0.000000
  1
650
  0
POINT
  5
7D69
  8
DEFPOINTS
  6
CONTINUOUS
 62
     0
 10
1518.082384
 20
2387.518642
 30
0.0
  0
POINT
  5
7D6A
  8
DEFPOINTS
  6
CONTINUOUS
 62
     0
 10
2168.0823839999989
 20
2229.1653849999998
 30
0.0
  0
POINT
  5
7D6B
  8
DEFPOINTS
  6
CONTINUOUS
 62
     0
 10
2168.0823839999989
 20
2103.2608190000001
 30
0.0
  0
ENDBLK
  5
7C7E
  8
0
  0
BLOCK
  8
0
  2
*D4
 70
     1
 10
0.0
 20
0.0
 30
0.0
  3
*D4
  1

  0
LINE
  5
7D6C
  8
3
  6
CONTINUOUS
 62
     0
 10
3418.0823839999998
 20
2372.518642
 30
0.0
 11
3418.0823839999998
 21
2073.2608190000001
 31
0.0
  0
LINE
  5
7D6D
  8
3
  6
CONTINUOUS
 62
     0
 10
2228.0823839999989
 20
2103.2608190000001
 30
0.0
 11
3358.0823839999998
 21
2103.2608190000001
 31
0.0
  0
INSERT
  5
7D6E
  8
3
  6
CONTINUOUS
 62
     0
  2
_OPEN
 10
2168.0823839999989
 20
2103.2608190000001
 30
0.0
 41
60.0
 42
60.0
 43
60.0
 50
180.0
  0
INSERT
  5
7D6F
  8
3
  6
CONTINUOUS
 62
     0
  2
_OPEN
 10
3418.0823839999998
 20
2103.2608190000001
 30
0.0
 41
60.0
 42
60.0
 43
60.0
  0
TEXT
  8
3
  40
90
  5
7DDF
  62
0
  72
0
  71
0
 10
2613.08
 20
2018.96
 30
0.000000
  1
1250
  0
POINT
  5
7D71
  8
DEFPOINTS
  6
CONTINUOUS
 62
     0
 10
2168.0823839999989
 20
2229.1653849999998
 30
0.0
  0
POINT
  5
7D72
  8
DEFPOINTS
  6
CONTINUOUS
 62
     0
 10
3418.0823839999998
 20
2387.518642
 30
0.0
  0
POINT
  5
7D73
  8
DEFPOINTS
  6
CONTINUOUS
 62
     0
 10
3418.0823839999998
 20
2103.2608190000001
 30
0.0
  0
ENDBLK
  5
7C73
  8
0
  0
BLOCK
  8
0
  2
*D5
 70
     1
 10
0.0
 20
0.0
 30
0.0
  3
*D5
  1

  0
LINE
  5
7D74
  8
3
  6
CONTINUOUS
 62
     0
 10
1513.082384
 20
4093.0186419999991
 30
0.0
 11
1513.082384
 21
4308.5164940000004
 31
0.0
  0
LINE
  5
7D75
  8
3
  6
CONTINUOUS
 62
     0
 10
2168.0823839999989
 20
4148.9136070000004
 30
0.0
 11
2168.0823839999989
 21
4308.5164940000004
 31
0.0
  0
LINE
  5
7D76
  8
3
  6
CONTINUOUS
 62
     0
 10
1573.082384
 20
4278.5164939999986
 30
0.0
 11
2108.0823839999989
 21
4278.5164939999986
 31
0.0
  0
INSERT
  5
7D77
  8
3
  6
CONTINUOUS
 62
     0
  2
_OPEN
 10
1513.082384
 20
4278.5164939999986
 30
0.0
 41
60.0
 42
60.0
 43
60.0
 50
180.0
  0
INSERT
  5
7D78
  8
3
  6
CONTINUOUS
 62
     0
  2
_OPEN
 10
2168.0823839999989
 20
4278.5164939999986
 30
0.0
 41
60.0
 42
60.0
 43
60.0
  0
TEXT
  8
3
  40
90
  5
7DE0
  62
0
  72
0
  71
0
 10
1651.16
 20
4194.22
 30
0.000000
  1
655
  0
POINT
  5
7D7A
  8
DEFPOINTS
  6
CONTINUOUS
 62
     0
 10
1513.082384
 20
4078.0186419999991
 30
0.0
  0
POINT
  5
7D7B
  8
DEFPOINTS
  6
CONTINUOUS
 62
     0
 10
2168.0823839999989
 20
4133.9136070000004
 30
0.0
  0
POINT
  5
7D7C
  8
DEFPOINTS
  6
CONTINUOUS
 62
     0
 10
2168.0823839999989
 20
4278.5164939999986
 30
0.0
  0
ENDBLK
  5
7BD5
  8
0
  0
BLOCK
  8
0
  2
*D6
 70
     1
 10
0.0
 20
0.0
 30
0.0
  3
*D6
  1

  0
LINE
  5
7D7D
  8
3
  6
CONTINUOUS
 62
     0
 10
5151.8667990000004
 20
4050.518642
 30
0.0
 11
5151.8667990000004
 21
4225.3945659999999
 31
0.0
  0
LINE
  5
7D7E
  8
3
  6
CONTINUOUS
 62
     0
 10
4481.8667990000004
 20
4050.518642
 30
0.0
 11
4481.8667990000004
 21
4225.3945659999999
 31
0.0
  0
LINE
  5
7D7F
  8
3
  6
CONTINUOUS
 62
     0
 10
5091.8667990000004
 20
4195.3945659999999
 30
0.0
 11
4541.8667990000004
 21
4195.3945659999999
 31
0.0
  0
INSERT
  5
7D80
  8
3
  6
CONTINUOUS
 62
     0
  2
_OPEN
 10
5151.8667990000004
 20
4195.3945659999999
 30
0.0
 41
60.0
 42
60.0
 43
60.0
  0
INSERT
  5
7D81
  8
3
  6
CONTINUOUS
 62
     0
  2
_OPEN
 10
4481.8667990000004
 20
4195.3945659999999
 30
0.0
 41
60.0
 42
60.0
 43
60.0
 50
180.0
  0
TEXT
  8
3
  40
90
  5
7DE1
  62
0
  72
0
  71
0
 10
4639.41
 20
4111.09
 30
0.000000
  1
670
  0
POINT
  5
7D83
  8
DEFPOINTS
  6
CONTINUOUS
 62
     0
 10
5151.8667990000004
 20
4035.518642
 30
0.0
  0
POINT
  5
7D84
  8
DEFPOINTS
  6
CONTINUOUS
 62
     0
 10
4481.8667990000004
 20
4035.518642
 30
0.0
  0
POINT
  5
7D85
  8
DEFPOINTS
  6
CONTINUOUS
 62
     0
 10
4481.8667990000004
 20
4195.3945659999999
 30
0.0
  0
ENDBLK
  5
7BEE
  8
0
  0
BLOCK
  8
0
  2
*D7
 70
     1
 10
0.0
 20
0.0
 30
0.0
  3
*D7
  1

  0
LINE
  5
7D86
  8
3
  6
CONTINUOUS
 62
     0
 10
5170.8667990000004
 20
3627.518642
 30
0.0
 11
5455.3742970000021
 21
3627.518642
 31
0.0
  0
LINE
  5
7D87
  8
3
  6
CONTINUOUS
 62
     0
 10
5170.8667990000004
 20
2677.518642
 30
0.0
 11
5455.3742970000021
 21
2677.518642
 31
0.0
  0
LINE
  5
7D88
  8
3
  6
CONTINUOUS
 62
     0
 10
5425.3742970000012
 20
3567.518642
 30
0.0
 11
5425.3742970000012
 21
2737.518642
 31
0.0
  0
INSERT
  5
7D89
  8
3
  6
CONTINUOUS
 62
     0
  2
_OPEN
 10
5425.3742970000012
 20
3627.518642
 30
0.0
 41
60.0
 42
60.0
 43
60.0
 50
90.0
  0
INSERT
  5
7D8A
  8
3
  6
CONTINUOUS
 62
     0
  2
_OPEN
 10
5425.3742970000012
 20
2677.518642
 30
0.0
 41
60.0
 42
60.0
 43
60.0
 50
270.0
  0
TEXT
  8
3
  40
90
  5
7DE2
  62
0
  72
0
  71
0
 10
5170.37
 20
3014.88
 30
0.000000
  1
φ950
  0
POINT
  5
7D8C
  8
DEFPOINTS
  6
CONTINUOUS
 62
     0
 10
5155.8667990000004
 20
3627.518642
 30
0.0
  0
POINT
  5
7D8D
  8
DEFPOINTS
  6
CONTINUOUS
 62
     0
 10
5155.8667990000004
 20
2677.518642
 30
0.0
  0
POINT
  5
7D8E
  8
DEFPOINTS
  6
CONTINUOUS
 62
     0
 10
5425.3742970000012
 20
2677.518642
 30
0.0
  0
ENDBLK
  5
7CE4
  8
0
  0
BLOCK
  8
0
  2
*D8
 70
     1
 10
0.0
 20
0.0
 30
0.0
  3
*D8
  1

  0
LINE
  5
7CC6
  8
0
  6
BYBLOCK
 62
     0
 10
5155.8667990000004
 20
3642.518642
 30
0.0
 11
5155.8667990000004
 21
4433.1993949999996
 31
0.0
  0
LINE
  5
7CC7
  8
0
  6
BYBLOCK
 62
     0
 10
4816.8667990000004
 20
4346.3827890000002
 30
0.0
 11
4816.8667990000004
 21
4433.1993949999996
 31
0.0
  0
LINE
  5
7CC8
  8
0
  6
BYBLOCK
 62
     0
 10
5095.8667990000004
 20
4403.1993949999996
 30
0.0
 11
4876.8667990000004
 21
4403.1993949999996
 31
0.0
  0
TEXT
  5
7CC9
  8
3
 62
     0
 10
4872.7953704285719
 20
4440.5313207437966
 30
0.0
 40
90.0
  1
339
  0
INSERT
  5
7CCA
  8
0
  6
BYBLOCK
 62
     0
  2
_OPEN
 10
5155.8667990000004
 20
4403.1993949999996
 30
0.0
 41
60.0
 42
60.0
 43
60.0
  0
INSERT
  5
7CCB
  8
0
  6
BYBLOCK
 62
     0
  2
_OPEN
 10
4816.8667990000004
 20
4403.1993949999996
 30
0.0
 41
60.0
 42
60.0
 43
60.0
 50
180.0
  0
POINT
  5
7CCC
  8
DEFPOINTS
  6
BYBLOCK
 62
     0
 10
5155.8667990000004
 20
3627.518642
 30
0.0
  0
POINT
  5
7CCD
  8
DEFPOINTS
  6
BYBLOCK
 62
     0
 10
4816.8667990000004
 20
4331.3827890000002
 30
0.0
  0
POINT
  5
7CCE
  8
DEFPOINTS
  6
BYBLOCK
 62
     0
 10
4816.8667990000004
 20
4403.1993949999996
 30
0.0
  0
ENDBLK
  5
7CCF
  8
0
  0
BLOCK
  8
0
  2
*D9
 70
     1
 10
0.0
 20
0.0
 30
0.0
  3
*D9
  1

  0
LINE
  5
7D8F
  8
3
  6
CONTINUOUS
 62
     0
 10
4206.8667990000004
 20
3672.5186419999991
 30
0.0
 11
4206.8667990000004
 21
4433.1993949999996
 31
0.0
  0
LINE
  5
7D90
  8
3
  6
CONTINUOUS
 62
     0
 10
4756.8667989999994
 20
4403.1993949999996
 30
0.0
 11
4266.8667990000004
 21
4403.1993949999996
 31
0.0
  0
INSERT
  5
7D91
  8
3
  6
CONTINUOUS
 62
     0
  2
_OPEN
 10
4816.8667990000004
 20
4403.1993949999996
 30
0.0
 41
60.0
 42
60.0
 43
60.0
  0
INSERT
  5
7D92
  8
3
  6
CONTINUOUS
 62
     0
  2
_OPEN
 10
4206.8667990000004
 20
4403.1993949999996
 30
0.0
 41
60.0
 42
60.0
 43
60.0
 50
180.0
  0
TEXT
  8
3
  40
90
  5
7DE3
  62
0
  72
0
  71
0
 10
4331.87
 20
4393.90
 30
0.000000
  1
MAX
  0
TEXT
  8
3
  40
90
  5
7DE4
  62
0
  72
0
  71
0
 10
4331.87
 20
4276.90
 30
0.000000
  1
640
  0
POINT
  5
7D94
  8
DEFPOINTS
  6
CONTINUOUS
 62
     0
 10
4816.8667990000004
 20
4331.3827890000002
 30
0.0
  0
POINT
  5
7D95
  8
DEFPOINTS
  6
CONTINUOUS
 62
     0
 10
4206.8667990000004
 20
3657.518642
 30
0.0
  0
POINT
  5
7D96
  8
DEFPOINTS
  6
CONTINUOUS
 62
     0
 10
4206.8667990000004
 20
4403.1993949999996
 30
0.0
  0
ENDBLK
  5
7CD9
  8
0
  0
BLOCK
  8
0
  2
*D10
 70
     1
 10
0.0
 20
0.0
 30
0.0
  3
*D10
  1

  0
LINE
  5
7D97
  8
3
  6
CONTINUOUS
 62
     0
 10
4347.8667990000013
 20
2372.518642
 30
0.0
 11
4347.8667990000013
 21
2128.9072500000002
 31
0.0
  0
LINE
  5
7D98
  8
3
  6
CONTINUOUS
 62
     0
 10
4816.8667990000004
 20
2221.3678629999999
 30
0.0
 11
4816.8667990000004
 21
2128.9072500000002
 31
0.0
  0
LINE
  5
7D99
  8
3
  6
CONTINUOUS
 62
     0
 10
4407.8667990000004
 20
2158.9072500000002
 30
0.0
 11
4756.8667989999994
 21
2158.9072500000002
 31
0.0
  0
INSERT
  5
7D9A
  8
3
  6
CONTINUOUS
 62
     0
  2
_OPEN
 10
4347.8667990000013
 20
2158.9072500000002
 30
0.0
 41
60.0
 42
60.0
 43
60.0
 50
180.0
  0
INSERT
  5
7D9B
  8
3
  6
CONTINUOUS
 62
     0
  2
_OPEN
 10
4816.8667990000004
 20
2158.9072500000002
 30
0.0
 41
60.0
 42
60.0
 43
60.0
  0
TEXT
  8
3
  40
90
  5
7DE5
  62
0
  72
0
  71
0
 10
4433.30
 20
2074.61
 30
0.000000
  1
469
  0
POINT
  5
7D9D
  8
DEFPOINTS
  6
CONTINUOUS
 62
     0
 10
4347.8667990000013
 20
2387.518642
 30
0.0
  0
POINT
  5
7D9E
  8
DEFPOINTS
  6
CONTINUOUS
 62
     0
 10
4816.8667990000004
 20
2236.367862999999
 30
0.0
  0
POINT
  5
7D9F
  8
DEFPOINTS
  6
CONTINUOUS
 62
     0
 10
4816.8667990000004
 20
2158.9072500000002
 30
0.0
  0
ENDBLK
  5
7C26
  8
0
  0
BLOCK
  8
0
  2
*D11
 70
     1
 10
0.0
 20
0.0
 30
0.0
  3
*D11
  1

  0
LINE
  5
7DA0
  8
3
  6
CONTINUOUS
 62
     0
 10
5267.8667990000004
 20
2372.518642
 30
0.0
 11
5267.8667990000004
 21
2128.9072500000002
 31
0.0
  0
LINE
  5
7DA1
  8
3
  6
CONTINUOUS
 62
     0
 10
4876.8667990000004
 20
2158.9072500000002
 30
0.0
 11
5207.8667990000013
 21
2158.9072500000002
 31
0.0
  0
INSERT
  5
7DA2
  8
3
  6
CONTINUOUS
 62
     0
  2
_OPEN
 10
4816.8667990000004
 20
2158.9072500000002
 30
0.0
 41
60.0
 42
60.0
 43
60.0
 50
180.0
  0
INSERT
  5
7DA3
  8
3
  6
CONTINUOUS
 62
     0
  2
_OPEN
 10
5267.8667990000004
 20
2158.9072500000002
 30
0.0
 41
60.0
 42
60.0
 43
60.0
  0
TEXT
  8
3
  40
90
  5
7DE6
  62
0
  72
0
  71
0
 10
4862.37
 20
2074.61
 30
0.000000
  1
451
  0
POINT
  5
7DA5
  8
DEFPOINTS
  6
CONTINUOUS
 62
     0
 10
4816.8667990000004
 20
2236.367862999999
 30
0.0
  0
POINT
  5
7DA6
  8
DEFPOINTS
  6
CONTINUOUS
 62
     0
 10
5267.8667990000004
 20
2387.518642
 30
0.0
  0
POINT
  5
7DA7
  8
DEFPOINTS
  6
CONTINUOUS
 62
     0
 10
5267.8667990000004
 20
2158.9072500000002
 30
0.0
  0
ENDBLK
  5
7C32
  8
0
  0
BLOCK
  8
0
  2
*D12
 70
     1
 10
0.0
 20
0.0
 30
0.0
  3
*D12
  1

  0
LINE
  5
7DA8
  8
3
  6
CONTINUOUS
 62
     0
 10
1518.082384
 20
6221.9625180000003
 30
0.0
 11
1518.082384
 21
6454.8331250000001
 31
0.0
  0
LINE
  5
7DA9
  8
3
  6
CONTINUOUS
 62
     0
 10
3418.0823839999998
 20
6221.9625180000003
 30
0.0
 11
3418.0823839999998
 21
6454.8331250000001
 31
0.0
  0
LINE
  5
7DAA
  8
3
  6
CONTINUOUS
 62
     0
 10
1578.082384
 20
6424.833125000001
 30
0.0
 11
3358.0823839999998
 21
6424.833125000001
 31
0.0
  0
INSERT
  5
7DAB
  8
3
  6
CONTINUOUS
 62
     0
  2
_OPEN
 10
1518.082384
 20
6424.833125000001
 30
0.0
 41
60.0
 42
60.0
 43
60.0
 50
180.0
  0
INSERT
  5
7DAC
  8
3
  6
CONTINUOUS
 62
     0
  2
_OPEN
 10
3418.0823839999998
 20
6424.833125000001
 30
0.0
 41
60.0
 42
60.0
 43
60.0
  0
TEXT
  8
3
  40
90
  5
7DE7
  62
0
  72
0
  71
0
 10
2245.25
 20
6340.53
 30
0.000000
  1
1900
  0
POINT
  5
7DAE
  8
DEFPOINTS
  6
CONTINUOUS
 62
     0
 10
1518.082384
 20
6206.9625180000003
 30
0.0
  0
POINT
  5
7DAF
  8
DEFPOINTS
  6
CONTINUOUS
 62
     0
 10
3418.0823839999998
 20
6206.9625180000003
 30
0.0
  0
POINT
  5
7DB0
  8
DEFPOINTS
  6
CONTINUOUS
 62
     0
 10
3418.0823839999998
 20
6424.833125000001
 30
0.0
  0
ENDBLK
  5
7C56
  8
0
  0
BLOCK
  8
0
  2
*D13
 70
     1
 10
0.0
 20
0.0
 30
0.0
  3
*D13
  1

  0
LINE
  5
7DB1
  8
3
  6
CONTINUOUS
 62
     0
 10
3433.0823839999998
 20
6206.9625180000003
 30
0.0
 11
3738.469309000001
 21
6206.9625180000003
 31
0.0
  0
LINE
  5
7DB2
  8
3
  6
CONTINUOUS
 62
     0
 10
3433.0823839999998
 20
5286.9625180000012
 30
0.0
 11
3738.469309000001
 21
5286.9625180000012
 31
0.0
  0
LINE
  5
7DB3
  8
3
  6
CONTINUOUS
 62
     0
 10
3708.469309000001
 20
6146.9625180000003
 30
0.0
 11
3708.469309000001
 21
5346.9625180000003
 31
0.0
  0
INSERT
  5
7DB4
  8
3
  6
CONTINUOUS
 62
     0
  2
_OPEN
 10
3708.469309000001
 20
6206.9625180000003
 30
0.0
 41
60.0
 42
60.0
 43
60.0
 50
90.0
  0
INSERT
  5
7DB5
  8
3
  6
CONTINUOUS
 62
     0
  2
_OPEN
 10
3708.469309000001
 20
5286.9625180000012
 30
0.0
 41
60.0
 42
60.0
 43
60.0
 50
270.0
  0
TEXT
  8
3
  40
90
  5
7DE8
  62
0
  72
0
  71
0
 10
3453.47
 20
5570.87
 30
0.000000
  1
920
  0
POINT
  5
7DB7
  8
DEFPOINTS
  6
CONTINUOUS
 62
     0
 10
3418.0823839999998
 20
6206.9625180000003
 30
0.0
  0
POINT
  5
7DB8
  8
DEFPOINTS
  6
CONTINUOUS
 62
     0
 10
3418.0823839999998
 20
5286.9625180000012
 30
0.0
  0
POINT
  5
7DB9
  8
DEFPOINTS
  6
CONTINUOUS
 62
     0
 10
3708.469309000001
 20
5286.9625180000012
 30
0.0
  0
ENDBLK
  5
7C63
  8
0
  0
BLOCK
  8
0
  2
*D14
 70
     1
 10
0.0
 20
0.0
 30
0.0
  3
*D14
  1

  0
LINE
  5
7DBA
  8
3
  6
CONTINUOUS
 62
     0
 10
1503.082384
 20
2387.518642
 30
0.0
 11
1106.6748809999999
 21
2387.518642
 31
0.0
  0
LINE
  5
7DBB
  8
3
  6
CONTINUOUS
 62
     0
 10
1136.6748809999999
 20
3092.5186419999991
 30
0.0
 11
1136.6748809999999
 21
2447.518642
 31
0.0
  0
INSERT
  5
7DBC
  8
3
  6
CONTINUOUS
 62
     0
  2
_OPEN
 10
1136.6748809999999
 20
3152.518642
 30
0.0
 41
60.0
 42
60.0
 43
60.0
 50
90.0
  0
INSERT
  5
7DBD
  8
3
  6
CONTINUOUS
 62
     0
  2
_OPEN
 10
1136.6748809999999
 20
2387.518642
 30
0.0
 41
60.0
 42
60.0
 43
60.0
 50
270.0
  0
TEXT
  8
3
  40
90
  5
7DE9
  62
0
  72
0
  71
0
 10
881.675
 20
2610.72
 30
0.000000
  1
765
  0
POINT
  5
7DBF
  8
DEFPOINTS
  6
CONTINUOUS
 62
     0
 10
1423.7040739999991
 20
3152.518642
 30
0.0
  0
POINT
  5
7DC0
  8
DEFPOINTS
  6
CONTINUOUS
 62
     0
 10
1518.082384
 20
2387.518642
 30
0.0
  0
POINT
  5
7DC1
  8
DEFPOINTS
  6
CONTINUOUS
 62
     0
 10
1136.6748809999999
 20
2387.518642
 30
0.0
  0
ENDBLK
  5
7D16
  8
0
  0
BLOCK
  8
0
  2
*D15
 70
     1
 10
0.0
 20
0.0
 30
0.0
  3
*D15
  1

  0
LINE
  5
7DC2
  8
3
  6
CONTINUOUS
 62
     0
 10
1498.082384
 20
4078.0186419999991
 30
0.0
 11
910.01312800000062
 21
4078.018642
 31
0.0
  0
LINE
  5
7DC3
  8
3
  6
CONTINUOUS
 62
     0
 10
1503.082384
 20
2387.518642
 30
0.0
 11
910.01312800000017
 21
2387.518642
 31
0.0
  0
LINE
  5
7DC4
  8
3
  6
CONTINUOUS
 62
     0
 10
940.01312800000073
 20
4018.018642
 30
0.0
 11
940.01312800000028
 21
2447.518642
 31
0.0
  0
INSERT
  5
7DC5
  8
3
  6
CONTINUOUS
 62
     0
  2
_OPEN
 10
940.01312800000073
 20
4078.018642
 30
0.0
 41
60.0
 42
60.0
 43
60.0
 50
90.0
  0
INSERT
  5
7DC6
  8
3
  6
CONTINUOUS
 62
     0
  2
_OPEN
 10
940.01312800000028
 20
2387.518642
 30
0.0
 41
60.0
 42
60.0
 43
60.0
 50
270.0
  0
TEXT
  8
3
  40
90
  5
7DEA
  62
0
  72
0
  71
0
 10
685.013
 20
3096.69
 30
0.000000
  1
1691
  0
POINT
  5
7DC8
  8
DEFPOINTS
  6
CONTINUOUS
 62
     0
 10
1513.082384
 20
4078.0186419999991
 30
0.0
  0
POINT
  5
7DC9
  8
DEFPOINTS
  6
CONTINUOUS
 62
     0
 10
1518.082384
 20
2387.518642
 30
0.0
  0
POINT
  5
7DCA
  8
DEFPOINTS
  6
CONTINUOUS
 62
     0
 10
940.01312800000028
 20
2387.518642
 30
0.0
  0
ENDBLK
  5
7D0C
  8
0
  0
BLOCK
  8
0
  2
*D16
 70
     1
 10
0.0
 20
0.0
 30
0.0
  3
*D16
  1

  0
LINE
  5
7DCB
  8
3
  6
CONTINUOUS
 62
     0
 10
2911.0823850000002
 20
3167.518642
 30
0.0
 11
2911.0823850000002
 21
4308.5164940000004
 31
0.0
  0
LINE
  5
7DCC
  8
3
  6
CONTINUOUS
 62
     0
 10
2228.0823839999989
 20
4278.5164939999986
 30
0.0
 11
2851.0823850000002
 21
4278.5164939999986
 31
0.0
  0
INSERT
  5
7DCD
  8
3
  6
CONTINUOUS
 62
     0
  2
_OPEN
 10
2168.0823839999989
 20
4278.5164939999986
 30
0.0
 41
60.0
 42
60.0
 43
60.0
 50
180.0
  0
INSERT
  5
7DCE
  8
3
  6
CONTINUOUS
 62
     0
  2
_OPEN
 10
2911.0823850000002
 20
4278.5164939999986
 30
0.0
 41
60.0
 42
60.0
 43
60.0
  0
TEXT
  8
3
  40
90
  5
7DEB
  62
0
  72
0
  71
0
 10
2359.58
 20
4194.22
 30
0.000000
  1
743
  0
POINT
  5
7DD0
  8
DEFPOINTS
  6
CONTINUOUS
 62
     0
 10
2168.0823839999989
 20
4133.9136070000004
 30
0.0
  0
POINT
  5
7DD1
  8
DEFPOINTS
  6
CONTINUOUS
 62
     0
 10
2911.0823850000002
 20
3152.518642
 30
0.0
  0
POINT
  5
7DD2
  8
DEFPOINTS
  6
CONTINUOUS
 62
     0
 10
2911.0823850000002
 20
4278.5164939999986
 30
0.0
  0
ENDBLK
  5
7CAE
  8
0
  0
BLOCK
  8
0
  2
*D17
 70
     1
 10
0.0
 20
0.0
 30
0.0
  3
*D17
  1

  0
LINE
  5
7DD3
  8
3
 62
     0
 10
1513.082384
 20
4093.0186419999991
 30
0.0
 11
1513.082384
 21
4484.6037458343708
 31
0.0
  0
LINE
  5
7DD4
  8
3
 62
     0
 10
3418.0823839999998
 20
2502.518642
 30
0.0
 11
3418.0823839999998
 21
4484.6037458343708
 31
0.0
  0
LINE
  5
7DD5
  8
3
 62
     0
 10
1573.082384
 20
4454.6037458343708
 30
0.0
 11
3358.0823839999998
 21
4454.6037458343708
 31
0.0
  0
INSERT
  5
7DD6
  8
3
 62
     0
  2
_OPEN
 10
1513.082384
 20
4454.6037458343708
 30
0.0
 41
60.0
 42
60.0
 43
60.0
 50
180.0
  0
INSERT
  5
7DD7
  8
3
 62
     0
  2
_OPEN
 10
3418.0823839999998
 20
4454.6037458343708
 30
0.0
 41
60.0
 42
60.0
 43
60.0
  0
TEXT
  8
3
  40
90
  5
7DEC
  62
0
  72
0
  71
0
 10
2279.61
 20
4370.30
 30
0.000000
  1
1905
  0
POINT
  5
7DD9
  8
DEFPOINTS
 62
     0
 10
1513.082384
 20
4078.0186419999991
 30
0.0
  0
POINT
  5
7DDA
  8
DEFPOINTS
 62
     0
 10
3418.0823839999998
 20
2487.518642
 30
0.0
  0
POINT
  5
7DDB
  8
DEFPOINTS
 62
     0
 10
3418.0823839999998
 20
4454.6037458343708
 30
0.0
  0
ENDBLK
  5
7D01
  8
0
  0
ENDSEC
  0
SECTION
  2
ENTITIES
  0
POLYLINE
  5
7AAE
  8
1
  6
CONTINUOUS
 66
     1
 10
0.0
 20
0.0
 30
0.0
  0
VERTEX
  5
7D4B
  8
1
  6
CONTINUOUS
 10
1513.082384
 20
4035.518642
 30
0.0
  0
VERTEX
  5
7D4C
  8
1
  6
CONTINUOUS
 10
2168.0823839999989
 20
4013.518642
 30
0.0
 42
-0.4168370000000001
  0
VERTEX
  5
7D4D
  8
1
  6
CONTINUOUS
 10
2910.5223430000001
 20
3145.3447000000001
 30
0.0
 42
-0.429867
  0
VERTEX
  5
7D4E
  8
1
  6
CONTINUOUS
 10
2124.2062230000001
 20
2514.0934649999999
 30
0.0
 42
-0.373172
  0
VERTEX
  5
7D4F
  8
1
  6
CONTINUOUS
 10
1600.1136559999991
 20
3110.518642
 30
0.0
 42
-0.34598
  0
SEQEND
  5
7D50
  8
1
  6
CONTINUOUS
  0
LINE
  5
7AB5
  8
1
  6
CONTINUOUS
 10
1518.082384
 20
2487.518642
 30
0.0
 11
3418.0823839999998
 21
2487.518642
 31
0.0
  0
LINE
  5
7AB6
  8
1
  6
CONTINUOUS
 10
1518.082384
 20
2387.518642
 30
0.0
 11
3418.0823839999998
 21
2387.518642
 31
0.0
  0
LINE
  5
7AB9
  8
1
  6
CONTINUOUS
 10
3328.0823839999998
 20
2862.518642
 30
0.0
 11
2348.0823839999998
 21
3657.518642
 31
0.0
  0
LINE
  5
7ABC
  8
1
  6
CONTINUOUS
 10
1513.082384
 20
3068.018642
 30
0.0
 11
1513.082384
 21
4078.0186419999991
 31
0.0
  0
LINE
  5
7ABD
  8
1
  6
CONTINUOUS
 10
1553.082384
 20
3110.518642
 30
0.0
 11
1553.082384
 21
4034.175131
 31
0.0
  0
LINE
  5
7ABF
  8
1
  6
CONTINUOUS
 10
1518.082384
 20
2487.518642
 30
0.0
 11
1518.082384
 21
2387.518642
 31
0.0
  0
LINE
  5
7AC0
  8
1
  6
CONTINUOUS
 10
1600.1136559999991
 20
3110.518642
 30
0.0
 11
1513.082384
 21
3110.518642
 31
0.0
  0
CIRCLE
  5
7AC3
  8
1
  6
CONTINUOUS
 10
2168.0823839999989
 20
3152.518642
 30
0.0
 40
254.0
  0
LINE
  5
7AC4
  8
2
  6
CENTER
 10
2168.0823839999989
 20
2254.1653849999998
 30
0.0
 11
2168.0823839999989
 21
4133.9136070000004
 31
0.0
  0
LINE
  5
7AC5
  8
1
  6
CONTINUOUS
 10
1688.082384
 20
2487.518642
 30
0.0
 11
1688.082384
 21
3657.518642
 31
0.0
  0
LINE
  5
7AC6
  8
2
  6
CENTER
 10
5235.267143
 20
3152.518642
 30
0.0
 11
4165.0587350000014
 21
3152.518642
 31
0.0
  0
LINE
  5
7AC7
  8
1
  6
CONTINUOUS
 10
1688.082384
 20
3657.518642
 30
0.0
 11
2348.0823839999998
 21
3657.518642
 31
0.0
  0
ARC
  5
7ADA
  8
1
  6
CONTINUOUS
 10
3148.0823839999998
 20
2737.518642
 30
0.0
 40
162.0
 50
324.972283
 51
215.02771699999991
  0
LINE
  5
7ADB
  8
1
  6
CONTINUOUS
 10
3335.5823839999998
 20
2577.518642
 30
0.0
 11
3280.740049
 21
2644.5350749999998
 31
0.0
  0
LINE
  5
7ADC
  8
1
  6
CONTINUOUS
 10
3015.4247180000002
 20
2644.5350749999998
 30
0.0
 11
2960.5823839999998
 21
2577.518642
 31
0.0
  0
LINE
  5
7ADD
  8
1
  6
CONTINUOUS
 10
3328.0823839999998
 20
2487.518642
 30
0.0
 11
3328.0823839999998
 21
2862.518642
 31
0.0
  0
LINE
  5
7ADE
  8
1
  6
CONTINUOUS
 10
2950.5823839999998
 20
2527.518642
 30
0.0
 11
2950.5823839999998
 21
2487.518642
 31
0.0
  0
LINE
  5
7ADF
  8
1
  6
CONTINUOUS
 10
2950.5823839999998
 20
2527.518642
 30
0.0
 11
2960.5823839999998
 21
2577.518642
 31
0.0
  0
LINE
  5
7AE0
  8
1
  6
CONTINUOUS
 10
3345.5823839999998
 20
2527.518642
 30
0.0
 11
3345.5823839999998
 21
2487.518642
 31
0.0
  0
LINE
  5
7AE1
  8
1
  6
CONTINUOUS
 10
3335.5823839999998
 20
2577.518642
 30
0.0
 11
3345.5823839999998
 21
2527.518642
 31
0.0
  0
CIRCLE
  5
7AE2
  8
1
  6
CONTINUOUS
 10
3148.0823839999998
 20
2737.518642
 30
0.0
 40
75.0
  0
LINE
  5
7AE3
  8
2
  6
CENTER
 10
3228.0823839999989
 20
2737.518642
 30
0.0
 11
3068.0823839999998
 21
2737.518642
 31
0.0
  0
LINE
  5
7AE4
  8
2
  6
CENTER
 10
3148.0823839999998
 20
2657.518642
 30
0.0
 11
3148.0823839999998
 21
2817.5186419999991
 31
0.0
  0
LINE
  5
7AE6
  8
1
  6
CONTINUOUS
 10
3418.0823839999998
 20
2487.518642
 30
0.0
 11
3418.0823839999998
 21
2387.518642
 31
0.0
  0
LINE
  5
7AFA
  8
1
  6
CONTINUOUS
 10
4428.8667990000004
 20
3657.518642
 30
0.0
 11
4428.8667990000004
 21
2487.518642
 31
0.0
  0
LINE
  5
7AFB
  8
1
  6
CONTINUOUS
 10
4206.8667990000004
 20
3657.518642
 30
0.0
 11
4206.8667990000004
 21
2487.518642
 31
0.0
  0
LINE
  5
7AFC
  8
1
  6
CONTINUOUS
 10
4395.8667990000004
 20
3406.518642
 30
0.0
 11
4395.8667990000004
 21
2898.518642
 31
0.0
  0
LINE
  5
7AFD
  8
1
  6
CONTINUOUS
 10
4291.8667990000004
 20
3406.518642
 30
0.0
 11
4291.8667990000004
 21
2898.518642
 31
0.0
  0
LINE
  5
7AFE
  8
1
  6
CONTINUOUS
 10
4481.8667990000004
 20
4035.518642
 30
0.0
 11
5151.8667990000004
 21
3110.518642
 31
0.0
  0
LINE
  5
7AFF
  8
1
  6
CONTINUOUS
 10
4481.8667990000004
 20
3110.518642
 30
0.0
 11
5151.8667990000004
 21
4035.518642
 31
0.0
  0
LINE
  5
7B00
  8
1
  6
CONTINUOUS
 10
5151.8667990000004
 20
4035.518642
 30
0.0
 11
5151.8667990000004
 21
2487.518642
 31
0.0
  0
LINE
  5
7B01
  8
1
  6
CONTINUOUS
 10
4481.8667990000004
 20
4035.518642
 30
0.0
 11
4481.8667990000004
 21
2487.518642
 31
0.0
  0
LINE
  5
7B02
  8
1
  6
CONTINUOUS
 10
4347.8667990000013
 20
2487.518642
 30
0.0
 11
5267.8667990000004
 21
2487.518642
 31
0.0
  0
LINE
  5
7B03
  8
1
  6
CONTINUOUS
 10
4347.8667990000013
 20
2387.518642
 30
0.0
 11
5267.8667990000004
 21
2387.518642
 31
0.0
  0
LINE
  5
7B04
  8
1
  6
CONTINUOUS
 10
4481.8667990000004
 20
3110.518642
 30
0.0
 11
5151.8667990000004
 21
3110.518642
 31
0.0
  0
LINE
  5
7B05
  8
1
  6
CONTINUOUS
 10
4347.8667990000013
 20
2487.518642
 30
0.0
 11
4347.8667990000013
 21
2387.518642
 31
0.0
  0
LINE
  5
7B06
  8
1
  6
CONTINUOUS
 10
4206.8667990000004
 20
2487.518642
 30
0.0
 11
4347.8667990000013
 21
2487.518642
 31
0.0
  0
LINE
  5
7B07
  8
1
  6
CONTINUOUS
 10
4395.8667990000004
 20
2716.518642
 30
0.0
 11
4481.8667990000004
 21
2716.518642
 31
0.0
  0
LINE
  5
7B08
  8
1
  6
CONTINUOUS
 10
4395.8667990000004
 20
2758.518642
 30
0.0
 11
4481.8667990000004
 21
2758.518642
 31
0.0
  0
LINE
  5
7B09
  8
1
  6
CONTINUOUS
 10
4395.8667990000004
 20
3127.518642
 30
0.0
 11
4481.8667990000004
 21
3127.518642
 31
0.0
  0
LINE
  5
7B0A
  8
1
  6
CONTINUOUS
 10
4395.8667990000004
 20
3177.518642
 30
0.0
 11
4481.8667990000004
 21
3177.518642
 31
0.0
  0
LINE
  5
7B0B
  8
1
  6
CONTINUOUS
 10
4395.8667990000004
 20
2812.518642
 30
0.0
 11
4395.8667990000004
 21
2662.518642
 31
0.0
  0
LINE
  5
7B0C
  8
1
  6
CONTINUOUS
 10
4291.8667990000004
 20
2812.518642
 30
0.0
 11
4291.8667990000004
 21
2662.518642
 31
0.0
  0
LINE
  5
7B0D
  8
1
  6
CONTINUOUS
 10
4291.8667990000004
 20
2662.518642
 30
0.0
 11
4395.8667990000004
 21
2662.518642
 31
0.0
  0
LINE
  5
7B0E
  8
1
  6
CONTINUOUS
 10
4291.8667990000004
 20
2812.518642
 30
0.0
 11
4395.8667990000004
 21
2812.518642
 31
0.0
  0
LINE
  5
7B0F
  8
1
  6
CONTINUOUS
 10
4291.8667990000004
 20
2898.518642
 30
0.0
 11
4395.8667990000004
 21
2898.518642
 31
0.0
  0
LINE
  5
7B10
  8
1
  6
CONTINUOUS
 10
5267.8667990000004
 20
2487.518642
 30
0.0
 11
5267.8667990000004
 21
2387.518642
 31
0.0
  0
LINE
  5
7B11
  8
1
  6
CONTINUOUS
 10
4481.8667990000004
 20
4035.518642
 30
0.0
 11
5151.8667990000004
 21
4035.518642
 31
0.0
  0
LINE
  5
7B12
  8
1
  6
CONTINUOUS
 10
4291.8667990000004
 20
3406.518642
 30
0.0
 11
4395.8667990000004
 21
3406.518642
 31
0.0
  0
LINE
  5
7B13
  8
1
  6
CONTINUOUS
 10
4206.8667990000004
 20
3657.518642
 30
0.0
 11
4428.8667990000004
 21
3657.518642
 31
0.0
  0
LINE
  5
7B14
  8
1
  6
CONTINUOUS
 10
2422.0823839999989
 20
5286.9625180000012
 30
0.0
 11
3073.0823839999998
 21
5286.9625180000012
 31
0.0
  0
LINE
  5
7B15
  8
1
  6
CONTINUOUS
 10
1513.082384
 20
6090.9625180000012
 30
0.0
 11
2913.2496550000001
 21
6090.9625180000012
 31
0.0
  0
LINE
  5
7B16
  8
1
  6
CONTINUOUS
 10
1513.082384
 20
5420.9625180000003
 30
0.0
 11
2913.2496550000001
 21
5420.9625180000003
 31
0.0
  0
LINE
  5
7B17
  8
1
  6
CONTINUOUS
 10
3328.0823839999998
 20
5367.9625180000003
 30
0.0
 11
1688.082384
 21
5367.9625180000003
 31
0.0
  0
LINE
  5
7B18
  8
1
  6
CONTINUOUS
 10
3328.0823839999998
 20
5197.9625180000003
 30
0.0
 11
1688.082384
 21
5197.9625180000003
 31
0.0
  0
LINE
  5
7B19
  8
1
  6
CONTINUOUS
 10
1518.082384
 20
6206.9625180000003
 30
0.0
 11
3418.0823839999998
 21
6206.9625180000003
 31
0.0
  0
LINE
  5
7B1A
  8
1
  6
CONTINUOUS
 10
1518.082384
 20
5286.9625180000012
 30
0.0
 11
1914.082384
 21
5286.9625180000012
 31
0.0
  0
LINE
  5
7B1B
  8
1
  6
CONTINUOUS
 10
1518.082384
 20
6090.9625180000012
 30
0.0
 11
1518.082384
 21
6206.9625180000003
 31
0.0
  0
LINE
  5
7B1C
  8
1
  6
CONTINUOUS
 10
1513.082384
 20
5378.9625180000003
 30
0.0
 11
1513.082384
 21
6132.9625180000003
 31
0.0
  0
LINE
  5
7B1D
  8
1
  6
CONTINUOUS
 10
1553.082384
 20
5420.9625180000003
 30
0.0
 11
1553.082384
 21
6090.9625180000012
 31
0.0
  0
LINE
  5
7B1E
  8
1
  6
CONTINUOUS
 10
1518.082384
 20
5286.9625180000012
 30
0.0
 11
1518.082384
 21
5420.9625180000003
 31
0.0
  0
LINE
  5
7B1F
  8
1
  6
CONTINUOUS
 10
2422.0823839999989
 20
5334.9625180000012
 30
0.0
 11
1914.082384
 21
5334.9625180000012
 31
0.0
  0
LINE
  5
7B20
  8
1
  6
CONTINUOUS
 10
2422.0823839999989
 20
5230.9625180000012
 30
0.0
 11
1914.082384
 21
5230.9625180000012
 31
0.0
  0
LINE
  5
7B21
  8
1
  6
CONTINUOUS
 10
1914.082384
 20
5230.9625180000012
 30
0.0
 11
1914.082384
 21
5334.9625180000012
 31
0.0
  0
LINE
  5
7B22
  8
1
  6
CONTINUOUS
 10
1688.082384
 20
5197.9625180000003
 30
0.0
 11
1688.082384
 21
5367.9625180000003
 31
0.0
  0
LINE
  5
7B23
  8
1
  6
CONTINUOUS
 10
2143.0823839999989
 20
5334.9625180000012
 30
0.0
 11
2143.0823839999989
 21
5420.9625180000003
 31
0.0
  0
LINE
  5
7B24
  8
1
  6
CONTINUOUS
 10
2193.0823839999989
 20
5334.9625180000012
 30
0.0
 11
2193.0823839999989
 21
5420.9625180000003
 31
0.0
  0
LINE
  5
7B25
  8
1
  6
CONTINUOUS
 10
2422.0823839999989
 20
5230.9625180000012
 30
0.0
 11
2422.0823839999989
 21
5334.9625180000012
 31
0.0
  0
LINE
  5
7B2E
  8
1
  6
CONTINUOUS
 10
3418.0823839999998
 20
5286.9625180000012
 30
0.0
 11
3418.0823839999998
 21
6206.9625180000003
 31
0.0
  0
LINE
  5
7B30
  8
1
  6
CONTINUOUS
 10
3223.0823839999998
 20
5286.9625180000012
 30
0.0
 11
3418.0823839999998
 21
5286.9625180000012
 31
0.0
  0
LINE
  5
7B31
  8
1
  6
CONTINUOUS
 10
2913.2496550000001
 20
5420.9625180000003
 30
0.0
 11
2913.2496550000001
 21
6090.9625180000012
 31
0.0
  0
LINE
  5
7B32
  8
1
  6
CONTINUOUS
 10
2986.0823839999989
 20
5378.9625180000003
 30
0.0
 11
2986.0823839999989
 21
5863.9625180000012
 31
0.0
  0
LINE
  5
7B33
  8
1
  6
CONTINUOUS
 10
3310.0823839999989
 20
5378.9625180000003
 30
0.0
 11
3310.0823839999989
 21
5863.9625180000012
 31
0.0
  0
LINE
  5
7B34
  8
1
  6
CONTINUOUS
 10
3223.0823839999998
 20
5334.9625180000012
 30
0.0
 11
3073.0823839999998
 21
5334.9625180000012
 31
0.0
  0
LINE
  5
7B35
  8
1
  6
CONTINUOUS
 10
3223.0823839999998
 20
5230.9625180000012
 30
0.0
 11
3073.0823839999998
 21
5230.9625180000012
 31
0.0
  0
LINE
  5
7B36
  8
1
  6
CONTINUOUS
 10
3310.0823839999989
 20
5378.9625180000003
 30
0.0
 11
2986.0823839999989
 21
5378.9625180000003
 31
0.0
  0
LINE
  5
7B37
  8
1
  6
CONTINUOUS
 10
3073.0823839999998
 20
5230.9625180000012
 30
0.0
 11
3073.0823839999998
 21
5334.9625180000012
 31
0.0
  0
LINE
  5
7B38
  8
1
  6
CONTINUOUS
 10
3127.0823839999989
 20
5334.9625180000012
 30
0.0
 11
3127.0823839999989
 21
5378.9625180000003
 31
0.0
  0
LINE
  5
7B39
  8
1
  6
CONTINUOUS
 10
3169.0823839999998
 20
5334.9625180000012
 30
0.0
 11
3169.0823839999998
 21
5378.9625180000003
 31
0.0
  0
LINE
  5
7B3A
  8
1
  6
CONTINUOUS
 10
3223.0823839999998
 20
5230.9625180000012
 30
0.0
 11
3223.0823839999998
 21
5334.9625180000012
 31
0.0
  0
LINE
  5
7B3B
  8
1
  6
CONTINUOUS
 10
3328.0823839999998
 20
5197.9625180000003
 30
0.0
 11
3328.0823839999998
 21
5367.9625180000003
 31
0.0
  0
LINE
  5
7B3C
  8
1
  6
CONTINUOUS
 10
3310.0823839999989
 20
5863.9625180000012
 30
0.0
 11
2986.0823839999989
 21
5863.9625180000012
 31
0.0
  0
LINE
  5
7B54
  8
2
  6
CENTER
 10
3555.6621180000002
 20
5755.9625180000003
 30
0.0
 11
1366.995541999999
 21
5755.9625180000003
 31
0.0
  0
LINE
  5
7B55
  8
2
  6
CENTER
 10
4816.8667990000004
 20
4215.3564729999989
 30
0.0
 11
4816.8667990000004
 21
2261.367862999999
 31
0.0
  0
LINE
  5
7B56
  8
2
  6
CENTER
 10
2168.0823839999989
 20
5104.0873710000014
 30
0.0
 11
2168.0823839999989
 21
6345.3391019999999
 31
0.0
  0
LINE
  5
7B57
  8
2
  6
CENTER
 10
3168.3917609999999
 20
3152.518642
 30
0.0
 11
1354.966228999999
 21
3152.518642
 31
0.0
  0
LINE
  5
7B58
  8
4
  6
CONTINUOUS
 10
5550.0
 20
1500.0
 30
0.0
 11
5550.0
 21
900.0
 31
0.0
  0
LINE
  5
7B59
  8
4
  6
CONTINUOUS
 10
3450.0
 20
1500.0
 30
0.0
 11
3450.0
 21
900.0
 31
0.0
  0
LINE
  5
7B5A
  8
4
  6
CONTINUOUS
 10
1950.0
 20
1500.0
 30
0.0
 11
1950.0
 21
900.0
 31
0.0
  0
LINE
  5
7B5D
  8
4
  6
CONTINUOUS
 10
1950.0
 20
900.0
 30
0.0
 11
5550.0
 21
900.0
 31
0.0
  0
LINE
  5
7B5E
  8
4
  6
CONTINUOUS
 10
1950.0
 20
1200.0
 30
0.0
 11
5550.0
 21
1200.0
 31
0.0
  0
TEXT
  5
7B5F
  8
4
  6
CONTINUOUS
 10
2065.5062429999989
 20
1294.6290779999999
 30
0.0
 40
150.0
  1
機器名称
  0
TEXT
  5
7B60
  8
4
  6
CONTINUOUS
 10
2058.7743179999989
 20
964.9354699999999
 30
0.0
 40
150.0
  1
機器型番
  0
TEXT
  5
7B61
  8
4
  6
CONTINUOUS
 10
3533.0362359999999
 20
1267.7153069999999
 30
0.0
 40
150.0
  1
ミツヤ多翼送風機
  0
TEXT
  5
7B62
  8
4
  6
CONTINUOUS
 10
3559.9634869999991
 20
951.47875299999987
 30
0.0
 40
150.0
  1
MF#5 1/2-4
  0
TEXT
  5
7B64
  8
4
  6
CONTINUOUS
 10
2584.698304999999
 20
7150.2865239999992
 30
0.0
 40
162.0
  1
天井吊ベット
  0
TEXT
  5
7B65
  8
4
  6
CONTINUOUS
 10
948.50278000000014
 20
7601.6429289999996
 30
0.0
 40
216.0
  1
ベルト駆動式片吸込両持多翼ファン
  0
LINE
  5
7B66
  8
4
  6
CONTINUOUS
 10
750.0
 20
7408.2262629999996
 30
0.0
 11
5550.0
 21
7408.2262629999996
 31
0.0
  0
LINE
  5
7B67
  8
4
  6
CONTINUOUS
 10
750.0
 20
8008.2262629999996
 30
0.0
 11
5550.0
 21
8008.2262629999996
 31
0.0
  0
LINE
  5
7B68
  8
4
  6
CONTINUOUS
 10
1950.0
 20
1500.0
 30
0.0
 11
5550.0
 21
1500.0
 31
0.0
  0
LINE
  5
7B69
  8
4
  6
CONTINUOUS
 10
750.0
 20
8008.2262629999996
 30
0.0
 11
750.0
 21
7408.2262629999996
 31
0.0
  0
TEXT
  5
7B6A
  8
4
  6
CONTINUOUS
 10
1277.121809
 20
7146.9584329999998
 30
0.0
 40
162.0
  1
左回転左横向
  0
TEXT
  5
7B6B
  8
4
  6
CONTINUOUS
 10
4406.9086779999989
 20
8118.1832439999989
 30
0.0
 40
168.0
  1
No.
  0
TEXT
  5
7B6C
  8
4
  6
CONTINUOUS
 10
3933.8881879999999
 20
7150.2865239999992
 30
0.0
 40
162.0
  1
縮尺：1/30
  0
LINE
  5
7B6D
  8
4
  6
CONTINUOUS
 10
5550.0
 20
8008.2262629999996
 30
0.0
 11
5550.0
 21
7408.2262629999996
 31
0.0
  0
LINE
  5
7B6F
  8
4
  6
CONTINUOUS
 10
4321.8522670000002
 20
8043.7907490000007
 30
0.0
 11
4321.8522670000002
 21
8359.9567849999985
 31
0.0
  0
LINE
  5
7B70
  8
4
  6
CONTINUOUS
 10
4321.8522670000002
 20
8359.9567849999985
 30
0.0
 11
5550.0
 21
8359.9567849999985
 31
0.0
  0
LINE
  5
7B71
  8
4
  6
CONTINUOUS
 10
5550.0
 20
8359.9567849999985
 30
0.0
 11
5550.0
 21
8043.7907490000007
 31
0.0
  0
LINE
  5
7B72
  8
4
  6
CONTINUOUS
 10
5550.0
 20
8043.7907490000007
 30
0.0
 11
4321.8522670000002
 21
8043.7907490000007
 31
0.0
  0
DIMENSION
  5
7B8A
  8
3
  6
CONTINUOUS
  2
*D1
 10
1326.782005
 20
3110.518642
 30
0.0
 11
1326.782005
 21
3536.3564109999988
 31
0.0
 70
   128
 13
1513.082384
 23
4035.518642
 33
0.0
 14
1513.082384
 24
3110.518642
 34
0.0
 50
90.0
1001
ACAD
1000
DSTYLE
1002
{
1070
   287
1070
     3
1070
    40
1040
30.0
1070
   143
1040
0.039
1070
   172
1070
     1
1070
   271
1070
     0
1070
   279
1070
     0
1070
   288
1070
     1
1002
}
  0
DIMENSION
  5
7B97
  8
3
  6
CONTINUOUS
  2
*D2
 10
1136.6748809999999
 20
3152.518642
 30
0.0
 11
1136.6748809999999
 21
3530.4191259999989
 31
0.0
 70
   128
 13
1513.082384
 23
4035.518642
 33
0.0
 14
1423.7040739999991
 24
3152.518642
 34
0.0
 50
90.0
1001
ACAD
1000
DSTYLE
1002
{
1070
   287
1070
     3
1070
    40
1040
30.0
1070
   143
1040
0.039
1070
   172
1070
     1
1070
   271
1070
     0
1070
   279
1070
     0
1070
   288
1070
     1
1002
}
  0
DIMENSION
  5
7BBD
  8
3
  6
CONTINUOUS
  2
*D3
 10
2168.0823839999989
 20
2103.2608190000001
 30
0.0
 11
1837.102245
 21
2103.2608190000001
 31
0.0
 70
   128
 13
1518.082384
 23
2387.518642
 33
0.0
 14
2168.0823839999989
 24
2229.1653849999998
 34
0.0
1001
ACAD
1000
DSTYLE
1002
{
1070
   287
1070
     3
1070
    40
1040
30.0
1070
   143
1040
0.039
1070
   172
1070
     1
1070
   271
1070
     0
1070
   279
1070
     0
1070
   288
1070
     1
1002
}
  0
DIMENSION
  5
7BC9
  8
3
  6
CONTINUOUS
  2
*D4
 10
3418.0823839999998
 20
2103.2608190000001
 30
0.0
 11
2793.0823839999998
 21
2178.2608190000001
 31
0.0
 70
     0
 13
2168.0823839999989
 23
2229.1653849999998
 33
0.0
 14
3418.0823839999998
 24
2387.518642
 34
0.0
1001
ACAD
1000
DSTYLE
1002
{
1070
   287
1070
     4
1070
    40
1040
30.0
1070
    75
1070
     1
1070
   143
1040
0.039
1070
   172
1070
     1
1070
   271
1070
     0
1070
   279
1070
     1
1070
   288
1070
     1
1002
}
  0
DIMENSION
  5
7BD6
  8
3
  6
CONTINUOUS
  2
*D5
 10
2168.0823839999989
 20
4278.5164939999986
 30
0.0
 11
1831.1613669999999
 21
4278.5164939999986
 31
0.0
 70
   128
 13
1513.082384
 23
4078.0186419999991
 33
0.0
 14
2168.0823839999989
 24
4133.9136070000004
 34
0.0
1001
ACAD
1000
DSTYLE
1002
{
1070
   287
1070
     3
1070
    40
1040
30.0
1070
   143
1040
0.039
1070
   172
1070
     1
1070
   271
1070
     0
1070
   279
1070
     0
1070
   288
1070
     1
1002
}
  0
DIMENSION
  5
7BEF
  8
3
  6
CONTINUOUS
  2
*D6
 10
4481.8667990000004
 20
4195.3945659999999
 30
0.0
 11
4819.4078159999999
 21
4195.3945659999999
 31
0.0
 70
   128
 13
5151.8667990000004
 23
4035.518642
 33
0.0
 14
4481.8667990000004
 24
4035.518642
 34
0.0
1001
ACAD
1000
DSTYLE
1002
{
1070
   287
1070
     3
1070
    40
1040
30.0
1070
   143
1040
0.039
1070
   172
1070
     1
1070
   271
1070
     0
1070
   279
1070
     0
1070
   288
1070
     1
1002
}
  0
LINE
  5
7BF0
  8
1
  6
CONTINUOUS
 10
5155.8667990000004
 20
3627.518642
 30
0.0
 11
5155.8667990000004
 21
2677.518642
 31
0.0
  0
DIMENSION
  5
7BFF
  8
3
  6
CONTINUOUS
  2
*D7
 10
5425.3742970000012
 20
2677.518642
 30
0.0
 11
5425.3742970000012
 21
3174.182276
 31
0.0
 70
   128
 13
5155.8667990000004
 23
3627.518642
 33
0.0
 14
5155.8667990000004
 24
2677.518642
 34
0.0
 50
90.0
1001
ACAD
1000
DSTYLE
1002
{
1070
   287
1070
     3
1070
     3
1000
φ<>
1070
    40
1040
30.0
1070
   143
1040
0.039
1070
   172
1070
     1
1070
   271
1070
     0
1070
   279
1070
     0
1070
   288
1070
     1
1002
}
  0
DIMENSION
  5
7C0E
  8
3
  6
CONTINUOUS
  2
*D8
 10
4816.8667990000004
 20
4403.1993949999996
 30
0.0
 11
4986.3667990000004
 21
4485.5313207437966
 31
0.0
 70
   128
 13
5155.8667990000004
 23
3627.518642
 33
0.0
 14
4816.8667990000004
 24
4331.3827890000002
 34
0.0
1001
ACAD
1000
DSTYLE
1002
{
1070
   288
1070
     1
1070
   172
1070
     1
1070
    40
1040
30.0
1070
   271
1070
     0
1070
   143
1040
0.039
1002
}
  0
DIMENSION
  5
7C1A
  8
3
  6
CONTINUOUS
  2
*D9
 10
4206.8667990000004
 20
4403.1993949999996
 30
0.0
 11
4511.8667990000004
 21
4553.1993949999996
 31
0.0
 70
     0
  1
MAX\P640
 13
4816.8667990000004
 23
4331.3827890000002
 33
0.0
 14
4206.8667990000004
 24
3657.518642
 34
0.0
1001
ACAD
1000
DSTYLE
1002
{
1070
   287
1070
     4
1070
    40
1040
30.0
1070
    75
1070
     1
1070
   143
1040
0.039
1070
   172
1070
     1
1070
   271
1070
     0
1070
   279
1070
     1
1070
   288
1070
     1
1002
}
  0
DIMENSION
  5
7C27
  8
3
  6
CONTINUOUS
  2
*D10
 10
4816.8667990000004
 20
2158.9072500000002
 30
0.0
 11
4613.2953700000007
 21
2158.9072500000002
 31
0.0
 70
   128
 13
4347.8667990000013
 23
2387.518642
 33
0.0
 14
4816.8667990000004
 24
2236.367862999999
 34
0.0
1001
ACAD
1000
DSTYLE
1002
{
1070
   287
1070
     3
1070
    40
1040
30.0
1070
   143
1040
0.039
1070
   172
1070
     1
1070
   271
1070
     0
1070
   279
1070
     0
1070
   288
1070
     1
1002
}
  0
DIMENSION
  5
7C33
  8
3
  6
CONTINUOUS
  2
*D11
 10
5267.8667990000004
 20
2158.9072500000002
 30
0.0
 11
5042.3667990000004
 21
2233.9072500000002
 31
0.0
 70
     0
 13
4816.8667990000004
 23
2236.367862999999
 33
0.0
 14
5267.8667990000004
 24
2387.518642
 34
0.0
1001
ACAD
1000
DSTYLE
1002
{
1070
   287
1070
     4
1070
    40
1040
30.0
1070
    75
1070
     1
1070
   143
1040
0.039
1070
   172
1070
     1
1070
   271
1070
     0
1070
   279
1070
     1
1070
   288
1070
     1
1002
}
  0
DIMENSION
  5
7C57
  8
3
  6
CONTINUOUS
  2
*D12
 10
3418.0823839999998
 20
6424.833125000001
 30
0.0
 11
2425.2461859999999
 21
6424.833125000001
 31
0.0
 70
   128
 13
1518.082384
 23
6206.9625180000003
 33
0.0
 14
3418.0823839999998
 24
6206.9625180000003
 34
0.0
1001
ACAD
1000
DSTYLE
1002
{
1070
   287
1070
     3
1070
    40
1040
30.0
1070
   143
1040
0.039
1070
   172
1070
     1
1070
   271
1070
     0
1070
   279
1070
     0
1070
   288
1070
     1
1002
}
  0
DIMENSION
  5
7C64
  8
3
  6
CONTINUOUS
  2
*D13
 10
3708.469309000001
 20
5286.9625180000012
 30
0.0
 11
3708.469309000001
 21
5730.1712600000001
 31
0.0
 70
   128
 13
3418.0823839999998
 23
6206.9625180000003
 33
0.0
 14
3418.0823839999998
 24
5286.9625180000012
 34
0.0
 50
90.0
1001
ACAD
1000
DSTYLE
1002
{
1070
   287
1070
     3
1070
    40
1040
30.0
1070
   143
1040
0.039
1070
   172
1070
     1
1070
   271
1070
     0
1070
   279
1070
     0
1070
   288
1070
     1
1002
}
  0
LINE
  5
7C7F
  8
1
  6
CONTINUOUS
 10
2309.2745329999989
 20
3363.6602459999999
 30
0.0
 11
3189.7729789999999
 21
2799.8636040000001
 31
0.0
  0
LINE
  5
7C80
  8
1
  6
CONTINUOUS
 10
2104.1115180000002
 20
2906.7062579999988
 30
0.0
 11
3129.1933489999992
 21
2664.936244999999
 31
0.0
  0
DIMENSION
  5
7C8C
  8
3
  6
CONTINUOUS
  2
*D14
 10
1136.6748809999999
 20
2387.518642
 30
0.0
 11
1061.674880999999
 21
2770.018642
 31
0.0
 70
     0
 13
1423.7040739999991
 23
3152.518642
 33
0.0
 14
1518.082384
 24
2387.518642
 34
0.0
 50
90.0
1001
ACAD
1000
DSTYLE
1002
{
1070
   287
1070
     4
1070
    40
1040
30.0
1070
    75
1070
     1
1070
   143
1040
0.039
1070
   172
1070
     1
1070
   271
1070
     0
1070
   279
1070
     1
1070
   288
1070
     1
1002
}
  0
DIMENSION
  5
7C99
  8
3
  6
CONTINUOUS
  2
*D15
 10
940.01312800000028
 20
2387.518642
 30
0.0
 11
940.01312800000005
 21
3255.993688
 31
0.0
 70
   128
 13
1513.082384
 23
4078.0186419999991
 33
0.0
 14
1518.082384
 24
2387.518642
 34
0.0
 50
90.0
1001
ACAD
1000
DSTYLE
1002
{
1070
   287
1070
     3
1070
    40
1040
30.0
1070
   143
1040
0.039
1070
   172
1070
     1
1070
   271
1070
     0
1070
   279
1070
     0
1070
   288
1070
     1
1002
}
  0
DIMENSION
  5
7CAF
  8
3
  6
CONTINUOUS
  2
*D16
 10
2911.0823850000002
 20
4278.5164939999986
 30
0.0
 11
2539.5823845
 21
4353.5164939999986
 31
0.0
 70
     0
 13
2168.0823839999989
 23
4133.9136070000004
 33
0.0
 14
2911.0823850000002
 24
3152.518642
 34
0.0
1001
ACAD
1000
DSTYLE
1002
{
1070
   287
1070
     4
1070
    40
1040
30.0
1070
    75
1070
     1
1070
   143
1040
0.039
1070
   172
1070
     1
1070
   271
1070
     0
1070
   279
1070
     1
1070
   288
1070
     1
1002
}
  0
DIMENSION
  5
7CF1
  8
3
  2
*D17
 10
3418.0823839999998
 20
4454.6037458343708
 30
0.0
 11
2459.6057395732569
 21
4454.6037458343708
 31
0.0
 70
   128
 13
1513.082384
 23
4078.0186419999991
 33
0.0
 14
3418.0823839999998
 24
2487.518642
 34
0.0
1001
ACAD
1000
DSTYLE
1002
{
1070
   287
1070
     3
1070
    40
1040
30.0
1070
   143
1040
0.039
1070
   172
1070
     1
1070
   271
1070
     0
1070
   279
1070
     0
1070
   288
1070
     1
1002
}
  0
LINE
  5
7D38
  8
1
  6
CONTINUOUS
 10
1608.0823839999989
 20
3607.5186419999991
 30
0.0
 11
2728.0823839999989
 21
3607.518642
 31
0.0
  0
LINE
  5
7D39
  8
1
 10
1608.082384
 20
2487.518642
 30
0.0
 11
1608.0823839999989
 21
3607.5186419999991
 31
0.0
  0
LINE
  5
7D3A
  8
1
 10
2728.0823839999989
 20
2487.5186419999991
 30
0.0
 11
2728.0823839999989
 21
3607.518642
 31
0.0
  0
ENDSEC
  0
EOF
