  0
SECTION
  2
HEADER
  9
$ACADVER
  1
AC1009
  9
$INSBASE
 10
0.0
 20
0.0
 30
0.0
  9
$EXTMIN
 10
0.0
 20
0.0
 30
0.0
  9
$EXTMAX
 10
6300.0
 20
8850.0
 30
0.0
  9
$LIMMIN
 10
0.0
 20
0.0
  9
$LIMMAX
 10
297.0
 20
210.0
  9
$ORTHOMODE
 70
     0
  9
$REGENMODE
 70
     1
  9
$FILLMODE
 70
     0
  9
$QTEXTMODE
 70
     0
  9
$MIRRTEXT
 70
     1
  9
$DRAGMODE
 70
     2
  9
$LTSCALE
 40
100.0
  9
$OSMODE
 70
    37
  9
$ATTMODE
 70
     1
  9
$TEXTSIZE
 40
180.0
  9
$TRACEWID
 40
0.05
  9
$TEXTSTYLE
  7
STANDARD
  9
$CLAYER
  8
3
  9
$CELTYPE
  6
BYLAYER
  9
$CECOLOR
 62
   256
  9
$DIMSCALE
 40
30.0
  9
$DIMASZ
 40
2.0
  9
$DIMEXO
 40
0.5
  9
$DIMDLI
 40
10.0
  9
$DIMRND
 40
0.0
  9
$DIMDLE
 40
0.0
  9
$DIMEXE
 40
1.0
  9
$DIMTP
 40
1.0
  9
$DIMTM
 40
1.0
  9
$DIMTXT
 40
3.0
  9
$DIMCEN
 40
0.0
  9
$DIMTSZ
 40
0.0
  9
$DIMTOL
 70
     0
  9
$DIMLIM
 70
     0
  9
$DIMTIH
 70
     0
  9
$DIMTOH
 70
     0
  9
$DIMSE1
 70
     0
  9
$DIMSE2
 70
     0
  9
$DIMTAD
 70
     1
  9
$DIMZIN
 70
     8
  9
$DIMBLK
  1

  9
$DIMASO
 70
     1
  9
$DIMSHO
 70
     1
  9
$DIMPOST
  1
(<>)
  9
$DIMAPOST
  1

  9
$DIMALT
 70
     0
  9
$DIMALTD
 70
     2
  9
$DIMALTF
 40
0.039
  9
$DIMLFAC
 40
1.0
  9
$DIMTOFL
 70
     1
  9
$DIMTVP
 40
0.0
  9
$DIMTIX
 70
     0
  9
$DIMSOXD
 70
     0
  9
$DIMSAH
 70
     1
  9
$DIMBLK1
  1
OPEN
  9
$DIMBLK2
  1
OPEN
  9
$DIMSTYLE
  2
IGA
  9
$DIMCLRD
 70
     0
  9
$DIMCLRE
 70
     0
  9
$DIMCLRT
 70
     0
  9
$DIMTFAC
 40
10.0
  9
$DIMGAP
 40
1.0
  9
$LUNITS
 70
     2
  9
$LUPREC
 70
     3
  9
$SKETCHINC
 40
0.1
  9
$FILLETRAD
 40
50.0
  9
$AUNITS
 70
     0
  9
$AUPREC
 70
     0
  9
$MENU
  1
acad
  9
$ELEVATION
 40
0.0
  9
$PELEVATION
 40
0.0
  9
$THICKNESS
 40
0.0
  9
$LIMCHECK
 70
     0
  9
$BLIPMODE
 70
     0
  9
$CHAMFERA
 40
0.0
  9
$CHAMFERB
 40
0.0
  9
$SKPOLY
 70
     0
  9
$TDCREATE
 40
2452521.4636486112
  9
$TDUPDATE
 40
2454953.759305011
  9
$TDINDWG
 40
0.0623976157
  9
$TDUSRTIMER
 40
0.0623976157
  9
$USRTIMER
 70
     1
  9
$ANGBASE
 50
0.0
  9
$ANGDIR
 70
     0
  9
$PDMODE
 70
     0
  9
$PDSIZE
 40
0.0
  9
$PLINEWID
 40
0.0
  9
$COORDS
 70
     1
  9
$SPLFRAME
 70
     0
  9
$SPLINETYPE
 70
     6
  9
$SPLINESEGS
 70
     8
  9
$ATTDIA
 70
     0
  9
$ATTREQ
 70
     1
  9
$HANDLING
 70
 10241
  9
$HANDSEED
  5
8319
  9
$SURFTAB1
 70
     6
  9
$SURFTAB2
 70
     6
  9
$SURFTYPE
 70
     6
  9
$SURFU
 70
     6
  9
$SURFV
 70
     6
  9
$UCSNAME
  2

  9
$UCSORG
 10
0.0
 20
0.0
 30
0.0
  9
$UCSXDIR
 10
1.0
 20
0.0
 30
0.0
  9
$UCSYDIR
 10
0.0
 20
1.0
 30
0.0
  9
$PUCSNAME
  2

  9
$PUCSORG
 10
0.0
 20
0.0
 30
0.0
  9
$PUCSXDIR
 10
1.0
 20
0.0
 30
0.0
  9
$PUCSYDIR
 10
0.0
 20
1.0
 30
0.0
  9
$USERI1
 70
     0
  9
$USERI2
 70
     0
  9
$USERI3
 70
     0
  9
$USERI4
 70
     0
  9
$USERI5
 70
     0
  9
$USERR1
 40
0.0
  9
$USERR2
 40
0.0
  9
$USERR3
 40
0.0
  9
$USERR4
 40
0.0
  9
$USERR5
 40
0.0
  9
$WORLDVIEW
 70
     1
  9
$SHADEDGE
 70
     3
  9
$SHADEDIF
 70
    70
  9
$TILEMODE
 70
     1
  9
$MAXACTVP
 70
    16
  9
$PLIMCHECK
 70
     0
  9
$PEXTMIN
 10
1.0000000000000000E+020
 20
1.0000000000000000E+020
 30
1.0000000000000000E+020
  9
$PEXTMAX
 10
-1.0000000000000000E+020
 20
-1.0000000000000000E+020
 30
-1.0000000000000000E+020
  9
$PLIMMIN
 10
0.0
 20
0.0
  9
$PLIMMAX
 10
12.0
 20
9.0
  9
$UNITMODE
 70
     0
  9
$VISRETAIN
 70
     0
  9
$PLINEGEN
 70
     0
  9
$PSLTSCALE
 70
     1
  0
ENDSEC
  0
SECTION
  2
TABLES
  0
TABLE
  2
VPORT
 70
     2
  0
VPORT
  2
*ACTIVE
 70
     0
 10
0.0
 20
0.0
 11
1.0
 21
1.0
 12
10609.8298765541
 22
4425.0000206055138
 13
0.0
 23
0.0
 14
10.0
 24
10.0
 15
10.0
 25
10.0
 16
0.0
 26
0.0
 36
1.0
 17
0.0
 27
0.0
 37
0.0
 40
8917.8446490508068
 41
3.1666666666666661
 42
50.0
 43
0.0
 44
0.0
 50
0.0
 51
0.0
 71
     0
 72
   100
 73
     1
 74
     0
 75
     0
 76
     0
 77
     0
 78
     0
  0
ENDTAB
  0
TABLE
  2
LTYPE
 70
     2
  0
LTYPE
  2
CONTINUOUS
 70
     0
  3
Solid line
 72
    65
 73
     0
 40
0.0
  0
LTYPE
  2
CENTER
 70
     0
  3
____ _ ____ _ ____ _ ____ _ ____ _ ____ _ ____ 
 72
    65
 73
     4
 40
2.0
 49
1.25
 49
-0.25
 49
0.25
 49
-0.25
  0
ENDTAB
  0
TABLE
  2
LAYER
 70
     6
  0
LAYER
  2
0
 70
     0
 62
     7
  6
CONTINUOUS
  0
LAYER
  2
3
 70
     0
 62
     2
  6
CONTINUOUS
  0
LAYER
  2
2
 70
     0
 62
     3
  6
CENTER
  0
LAYER
  2
1
 70
     0
 62
     4
  6
CONTINUOUS
  0
LAYER
  2
4
 70
     0
 62
     7
  6
CONTINUOUS
  0
LAYER
  2
DEFPOINTS
 70
     0
 62
     7
  6
CONTINUOUS
  0
ENDTAB
  0
TABLE
  2
STYLE
 70
     1
  0
STYLE
  2
STANDARD
 70
     0
 40
0.0
 41
1.0
 50
0.0
 71
     0
 42
180.0
  3
simplex.shx
  4
extfont.shx
  0
ENDTAB
  0
TABLE
  2
VIEW
 70
     0
  0
ENDTAB
  0
TABLE
  2
UCS
 70
     0
  0
ENDTAB
  0
TABLE
  2
APPID
 70
     1
  0
APPID
  2
ACAD
 70
     0
  0
ENDTAB
  0
TABLE
  2
DIMSTYLE
 70
     1
  0
DIMSTYLE
  2
IGA
 70
     0
  3

  4

  5

  6
OPEN
  7
OPEN
 40
2.0
 41
2.0
 42
0.5
 43
10.0
 44
1.0
 45
0.0
 46
0.0
 47
1.0
 48
1.0
140
3.0
141
0.0
142
0.0
143
0.03937
144
1.0
145
0.0
146
10.0
147
1.0
 71
     0
 72
     0
 73
     0
 74
     0
 75
     0
 76
     0
 77
     1
 78
     8
170
     0
171
     2
172
     0
173
     1
174
     0
175
     0
176
     0
177
     0
178
     0
  0
ENDTAB
  0
ENDSEC
  0
SECTION
  2
BLOCKS
  0
BLOCK
  8
0
  2
$MODEL_SPACE
 70
     0
 10
0.0
 20
0.0
 30
0.0
  3
$MODEL_SPACE
  1

  0
ENDBLK
  5
1B
  8
0
  0
BLOCK
 67
     1
  8
0
  2
$PAPER_SPACE
 70
     0
 10
0.0
 20
0.0
 30
0.0
  3
$PAPER_SPACE
  1

  0
ENDBLK
  5
18
 67
     1
  8
0
  0
BLOCK
  8
0
  2
YA_N
 70
     0
 10
0.0
 20
0.0
 30
0.0
  3
YA_N
  1

  0
ENDBLK
  5
79FE
  8
0
  0
BLOCK
  8
0
  2
_OPEN
 70
     0
 10
0.0
 20
0.0
 30
0.0
  3
_OPEN
  1

  0
LINE
  5
7BB9
  8
0
  6
BYBLOCK
 62
     0
 10
-1.0
 20
0.1666666666666666
 30
0.0
 11
0.0
 21
0.0
 31
0.0
  0
LINE
  5
7BBA
  8
0
  6
BYBLOCK
 62
     0
 10
0.0
 20
0.0
 30
0.0
 11
-1.0
 21
-0.1666666666666666
 31
0.0
  0
LINE
  5
7BBB
  8
0
  6
BYBLOCK
 62
     0
 10
0.0
 20
0.0
 30
0.0
 11
-1.0
 21
0.0
 31
0.0
  0
ENDBLK
  5
7BBC
  8
0
  0
BLOCK
  8
0
  2
*D2
 70
     1
 10
0.0
 20
0.0
 30
0.0
  3
*D2
  1

  0
LINE
  5
824E
  8
3
 62
     0
 10
2321.8086280306538
 20
6625.6824699157196
 30
0.0
 11
2321.8086280306538
 21
6919.7609109744399
 31
0.0
  0
LINE
  5
824F
  8
3
 62
     0
 10
1201.8086280306541
 20
6625.6824699157196
 30
0.0
 11
1201.8086280306541
 21
6919.7609109744399
 31
0.0
  0
LINE
  5
8250
  8
3
 62
     0
 10
2261.8086280306538
 20
6889.7609109744408
 30
0.0
 11
1261.8086280306541
 21
6889.7609109744408
 31
0.0
  0
INSERT
  5
8251
  8
3
 62
     0
  2
_OPEN
 10
2321.8086280306538
 20
6889.7609109744408
 30
0.0
 41
60.0
 42
60.0
 43
60.0
  0
INSERT
  5
8252
  8
3
 62
     0
  2
_OPEN
 10
1201.8086280306541
 20
6889.7609109744408
 30
0.0
 41
60.0
 42
60.0
 43
60.0
 50
180.0
  0
TEXT
  8
3
  40
90
  5
8304
  62
0
  72
0
  71
0
 10
1583.98
 20
6805.46
 30
0.000000
  1
1120
  0
POINT
  5
8254
  8
DEFPOINTS
 62
     0
 10
2321.8086280306538
 20
6610.6824699157196
 30
0.0
  0
POINT
  5
8255
  8
DEFPOINTS
 62
     0
 10
1201.8086280306541
 20
6610.6824699157196
 30
0.0
  0
POINT
  5
8256
  8
DEFPOINTS
 62
     0
 10
1201.8086280306541
 20
6889.7609109744408
 30
0.0
  0
ENDBLK
  5
7E96
  8
0
  0
BLOCK
  8
0
  2
*D3
 70
     1
 10
0.0
 20
0.0
 30
0.0
  3
*D3
  1

  0
LINE
  5
7E98
  8
0
  6
BYBLOCK
 62
     0
 10
1201.8086280306541
 20
6476.8039574550912
 30
0.0
 11
1201.8086280306541
 21
6770.8823985138106
 31
0.0
  0
LINE
  5
7E99
  8
0
  6
BYBLOCK
 62
     0
 10
891.80862803065429
 20
5731.8039574550921
 30
0.0
 11
891.80862803065429
 21
6770.8823985138106
 31
0.0
  0
LINE
  5
7E9A
  8
0
  6
BYBLOCK
 62
     0
 10
1141.8086280306541
 20
6740.8823985138106
 30
0.0
 11
951.80862803065418
 21
6740.8823985138106
 31
0.0
  0
TEXT
  5
7E9B
  8
3
 62
     0
 10
939.66577088779718
 20
6771.9709875244398
 30
0.0
 40
90.0
  1
310
  0
INSERT
  5
7E9C
  8
0
  6
BYBLOCK
 62
     0
  2
_OPEN
 10
1201.8086280306541
 20
6740.8823985138106
 30
0.0
 41
60.0
 42
60.0
 43
60.0
  0
INSERT
  5
7E9D
  8
0
  6
BYBLOCK
 62
     0
  2
_OPEN
 10
891.80862803065429
 20
6740.8823985138106
 30
0.0
 41
60.0
 42
60.0
 43
60.0
 50
180.0
  0
POINT
  5
7E9E
  8
DEFPOINTS
  6
BYBLOCK
 62
     0
 10
1201.8086280306541
 20
6461.8039574550921
 30
0.0
  0
POINT
  5
7E9F
  8
DEFPOINTS
  6
BYBLOCK
 62
     0
 10
891.80862803065429
 20
5716.8039574550912
 30
0.0
  0
POINT
  5
7EA0
  8
DEFPOINTS
  6
BYBLOCK
 62
     0
 10
891.80862803065429
 20
6740.8823985138106
 30
0.0
  0
ENDBLK
  5
7EA1
  8
0
  0
BLOCK
  8
0
  2
*D4
 70
     1
 10
0.0
 20
0.0
 30
0.0
  3
*D4
  1

  0
LINE
  5
8257
  8
3
 62
     0
 10
891.80862803065509
 20
5012.6824699157196
 30
0.0
 11
891.80862803065509
 21
4623.9264775967931
 31
0.0
  0
LINE
  5
8258
  8
3
 62
     0
 10
2076.8086280306561
 20
5012.6824699157196
 30
0.0
 11
2076.8086280306561
 21
4623.9264775967931
 31
0.0
  0
LINE
  5
8259
  8
3
 62
     0
 10
951.80862803065509
 20
4653.9264775967931
 30
0.0
 11
2016.8086280306561
 21
4653.9264775967931
 31
0.0
  0
INSERT
  5
825A
  8
3
 62
     0
  2
_OPEN
 10
891.80862803065509
 20
4653.9264775967931
 30
0.0
 41
60.0
 42
60.0
 43
60.0
 50
180.0
  0
INSERT
  5
825B
  8
3
 62
     0
  2
_OPEN
 10
2076.8086280306561
 20
4653.9264775967931
 30
0.0
 41
60.0
 42
60.0
 43
60.0
  0
TEXT
  8
3
  40
90
  5
8305
  62
0
  72
0
  71
0
 10
1302.81
 20
4569.63
 30
0.000000
  1
1185
  0
POINT
  5
825D
  8
DEFPOINTS
 62
     0
 10
891.80862803065509
 20
5027.6824699157196
 30
0.0
  0
POINT
  5
825E
  8
DEFPOINTS
 62
     0
 10
2076.8086280306561
 20
5027.6824699157196
 30
0.0
  0
POINT
  5
825F
  8
DEFPOINTS
 62
     0
 10
2076.8086280306561
 20
4653.9264775967931
 30
0.0
  0
ENDBLK
  5
7E8B
  8
0
  0
BLOCK
  8
0
  2
*D5
 70
     1
 10
0.0
 20
0.0
 30
0.0
  3
*D5
  1

  0
LINE
  5
8260
  8
3
 62
     0
 10
2076.8086280306561
 20
5012.6824699157196
 30
0.0
 11
2076.8086280306561
 21
4623.9264775967931
 31
0.0
  0
LINE
  5
8261
  8
3
 62
     0
 10
2321.8086280306538
 20
5785.6824699157196
 30
0.0
 11
2321.8086280306538
 21
4623.9264775967931
 31
0.0
  0
LINE
  5
8262
  8
3
 62
     0
 10
2136.8086280306561
 20
4653.9264775967931
 30
0.0
 11
2261.8086280306538
 21
4653.9264775967931
 31
0.0
  0
LINE
  5
8263
  8
3
 62
     0
 10
2321.8086280306538
 20
4653.9264775967931
 30
0.0
 11
2703.2371994592258
 21
4653.9264775967931
 31
0.0
  0
INSERT
  5
8264
  8
3
 62
     0
  2
_OPEN
 10
2076.8086280306561
 20
4653.9264775967931
 30
0.0
 41
60.0
 42
60.0
 43
60.0
 50
180.0
  0
INSERT
  5
8265
  8
3
 62
     0
  2
_OPEN
 10
2321.8086280306538
 20
4653.9264775967931
 30
0.0
 41
60.0
 42
60.0
 43
60.0
  0
TEXT
  8
3
  40
90
  5
8306
  62
0
  72
0
  71
0
 10
2377.52
 20
4569.63
 30
0.000000
  1
245
  0
POINT
  5
8267
  8
DEFPOINTS
 62
     0
 10
2076.8086280306561
 20
5027.6824699157196
 30
0.0
  0
POINT
  5
8268
  8
DEFPOINTS
 62
     0
 10
2321.8086280306538
 20
5800.6824699157196
 30
0.0
  0
POINT
  5
8269
  8
DEFPOINTS
 62
     0
 10
2321.8086280306538
 20
4653.9264775967931
 30
0.0
  0
ENDBLK
  5
7E80
  8
0
  0
BLOCK
  8
0
  2
*D6
 70
     1
 10
0.0
 20
0.0
 30
0.0
  3
*D6
  1

  0
LINE
  5
826A
  8
3
 62
     0
 10
800.80862803065418
 20
3686.2806296530612
 30
0.0
 11
800.80862803065418
 21
3867.8121743971692
 31
0.0
  0
LINE
  5
826B
  8
3
 62
     0
 10
1725.8086280306541
 20
3686.2806296530612
 30
0.0
 11
1725.8086280306541
 21
3867.8121743971692
 31
0.0
  0
LINE
  5
826C
  8
3
 62
     0
 10
860.80862803065418
 20
3837.8121743971701
 30
0.0
 11
1665.8086280306541
 21
3837.8121743971701
 31
0.0
  0
INSERT
  5
826D
  8
3
 62
     0
  2
_OPEN
 10
800.80862803065418
 20
3837.8121743971701
 30
0.0
 41
60.0
 42
60.0
 43
60.0
 50
180.0
  0
INSERT
  5
826E
  8
3
 62
     0
  2
_OPEN
 10
1725.8086280306541
 20
3837.8121743971701
 30
0.0
 41
60.0
 42
60.0
 43
60.0
  0
TEXT
  8
3
  40
90
  5
8307
  62
0
  72
0
  71
0
 10
1101.30
 20
3753.51
 30
0.000000
  1
925
  0
POINT
  5
8270
  8
DEFPOINTS
 62
     0
 10
800.80862803065418
 20
3671.2806296530612
 30
0.0
  0
POINT
  5
8271
  8
DEFPOINTS
 62
     0
 10
1725.8086280306541
 20
3671.2806296530612
 30
0.0
  0
POINT
  5
8272
  8
DEFPOINTS
 62
     0
 10
1725.8086280306541
 20
3837.8121743971701
 30
0.0
  0
ENDBLK
  5
7FA6
  8
0
  0
BLOCK
  8
0
  2
*D7
 70
     1
 10
0.0
 20
0.0
 30
0.0
  3
*D7
  1

  0
LINE
  5
8273
  8
3
 62
     0
 10
800.80862803065418
 20
3686.2806296530612
 30
0.0
 11
800.80862803065418
 21
4045.338103975836
 31
0.0
  0
LINE
  5
8274
  8
3
 62
     0
 10
1761.8086280306541
 20
3722.5359684316081
 30
0.0
 11
1761.8086280306541
 21
4045.338103975836
 31
0.0
  0
LINE
  5
8275
  8
3
 62
     0
 10
860.80862803065418
 20
4015.3381039758369
 30
0.0
 11
1701.8086280306541
 21
4015.3381039758369
 31
0.0
  0
INSERT
  5
8276
  8
3
 62
     0
  2
_OPEN
 10
800.80862803065418
 20
4015.3381039758369
 30
0.0
 41
60.0
 42
60.0
 43
60.0
 50
180.0
  0
INSERT
  5
8277
  8
3
 62
     0
  2
_OPEN
 10
1761.8086280306541
 20
4015.3381039758369
 30
0.0
 41
60.0
 42
60.0
 43
60.0
  0
TEXT
  8
3
  40
90
  5
8308
  62
0
  72
0
  71
0
 10
1082.30
 20
3931.04
 30
0.000000
  1
961
  0
POINT
  5
8279
  8
DEFPOINTS
 62
     0
 10
800.80862803065418
 20
3671.2806296530612
 30
0.0
  0
POINT
  5
827A
  8
DEFPOINTS
 62
     0
 10
1761.8086280306541
 20
3707.5359684316081
 30
0.0
  0
POINT
  5
827B
  8
DEFPOINTS
 62
     0
 10
1761.8086280306541
 20
4015.3381039758369
 30
0.0
  0
ENDBLK
  5
7F9B
  8
0
  0
BLOCK
  8
0
  2
*D8
 70
     1
 10
0.0
 20
0.0
 30
0.0
  3
*D8
  1

  0
LINE
  5
827C
  8
3
 62
     0
 10
2433.0639668091999
 20
3051.2806296530612
 30
0.0
 11
2755.8661023534291
 21
3051.2806296530612
 31
0.0
  0
LINE
  5
827D
  8
3
 62
     0
 10
2336.8086280306538
 20
2231.2806296530612
 30
0.0
 11
2755.8661023534291
 21
2231.2806296530612
 31
0.0
  0
LINE
  5
827E
  8
3
 62
     0
 10
2725.8661023534301
 20
2991.2806296530612
 30
0.0
 11
2725.8661023534301
 21
2291.2806296530612
 31
0.0
  0
INSERT
  5
827F
  8
3
 62
     0
  2
_OPEN
 10
2725.8661023534301
 20
3051.2806296530612
 30
0.0
 41
60.0
 42
60.0
 43
60.0
 50
90.0
  0
INSERT
  5
8280
  8
3
 62
     0
  2
_OPEN
 10
2725.8661023534301
 20
2231.2806296530612
 30
0.0
 41
60.0
 42
60.0
 43
60.0
 50
270.0
  0
TEXT
  8
3
  40
90
  5
8309
  62
0
  72
0
  71
0
 10
2470.87
 20
2481.98
 30
0.000000
  1
820
  0
POINT
  5
8282
  8
DEFPOINTS
 62
     0
 10
2418.0639668092008
 20
3051.2806296530612
 30
0.0
  0
POINT
  5
8283
  8
DEFPOINTS
 62
     0
 10
2321.8086280306538
 20
2231.2806296530612
 30
0.0
  0
POINT
  5
8284
  8
DEFPOINTS
 62
     0
 10
2725.8661023534301
 20
2231.2806296530612
 30
0.0
  0
ENDBLK
  5
8003
  8
0
  0
BLOCK
  8
0
  2
_DOT
 70
     0
 10
0.0
 20
0.0
 30
0.0
  3
_DOT
  1

  0
LINE
  5
7D1D
  8
0
  6
BYBLOCK
 62
     0
 10
0.0
 20
0.0
 30
0.0
 11
-1.0
 21
-0.0000000000000284
 31
0.0
  0
POLYLINE
  5
7D1E
  8
0
  6
BYBLOCK
 62
     0
 66
     1
 10
0.0
 20
0.0
 30
0.0
 70
     1
 40
0.1666666666666666
 41
0.1666666666666666
  0
VERTEX
  5
8285
  8
0
  6
BYBLOCK
 62
     0
 10
-0.0833333333333286
 20
-0.0000000000000284
 30
0.0
 42
1.0
  0
VERTEX
  5
8286
  8
0
  6
BYBLOCK
 62
     0
 10
0.0833333333333286
 20
-0.0000000000000284
 30
0.0
 42
1.0
  0
SEQEND
  5
8287
  8
0
  6
BYBLOCK
 62
     0
  0
ENDBLK
  5
7CE9
  8
0
  0
BLOCK
  8
0
  2
*D10
 70
     1
 10
0.0
 20
0.0
 30
0.0
  3
*D10
  1

  0
LINE
  5
8288
  8
3
 62
     0
 10
4516.3914073276082
 20
3643.7806296530612
 30
0.0
 11
4516.3914073276082
 21
3818.1745876517812
 31
0.0
  0
LINE
  5
8289
  8
3
 62
     0
 10
5186.3914073276082
 20
3643.7806296530612
 30
0.0
 11
5186.3914073276082
 21
3818.1745876517812
 31
0.0
  0
LINE
  5
828A
  8
3
 62
     0
 10
4576.3914073276082
 20
3788.1745876517821
 30
0.0
 11
5126.3914073276082
 21
3788.1745876517821
 31
0.0
  0
INSERT
  5
828B
  8
3
 62
     0
  2
_OPEN
 10
4516.3914073276082
 20
3788.1745876517821
 30
0.0
 41
60.0
 42
60.0
 43
60.0
 50
180.0
  0
INSERT
  5
828C
  8
3
 62
     0
  2
_OPEN
 10
5186.3914073276082
 20
3788.1745876517821
 30
0.0
 41
60.0
 42
60.0
 43
60.0
  0
TEXT
  8
3
  40
90
  5
830A
  62
0
  72
0
  71
0
 10
4670.69
 20
3703.87
 30
0.000000
  1
670
  0
POINT
  5
828E
  8
DEFPOINTS
 62
     0
 10
4516.3914073276082
 20
3628.7806296530621
 30
0.0
  0
POINT
  5
828F
  8
DEFPOINTS
 62
     0
 10
5186.3914073276082
 20
3628.7806296530621
 30
0.0
  0
POINT
  5
8290
  8
DEFPOINTS
 62
     0
 10
5186.3914073276082
 20
3788.1745876517821
 30
0.0
  0
ENDBLK
  5
8070
  8
0
  0
BLOCK
  8
0
  2
*D11
 70
     1
 10
0.0
 20
0.0
 30
0.0
  3
*D11
  1

  0
LINE
  5
8072
  8
0
  6
BYBLOCK
 62
     0
 10
5189.3914073276101
 20
3981.584016832448
 30
0.0
 11
5189.3914073276101
 21
4343.3375045385537
 31
0.0
  0
LINE
  5
8073
  8
0
  6
BYBLOCK
 62
     0
 10
4851.391407327611
 20
4260.7122151344502
 30
0.0
 11
4851.391407327611
 21
4343.3375045385537
 31
0.0
  0
LINE
  5
8074
  8
0
  6
BYBLOCK
 62
     0
 10
5129.3914073276092
 20
4313.3375045385537
 30
0.0
 11
4911.3914073276092
 21
4313.3375045385537
 31
0.0
  0
TEXT
  5
8075
  8
3
 62
     0
 10
4904.6771216133247
 20
4339.2592865431279
 30
0.0
 40
90.0
  1
338
  0
INSERT
  5
8076
  8
0
  6
BYBLOCK
 62
     0
  2
_OPEN
 10
5189.3914073276101
 20
4313.3375045385537
 30
0.0
 41
60.0
 42
60.0
 43
60.0
  0
INSERT
  5
8077
  8
0
  6
BYBLOCK
 62
     0
  2
_OPEN
 10
4851.391407327611
 20
4313.3375045385537
 30
0.0
 41
60.0
 42
60.0
 43
60.0
 50
180.0
  0
POINT
  5
8078
  8
DEFPOINTS
  6
BYBLOCK
 62
     0
 10
5189.3914073276101
 20
3966.584016832448
 30
0.0
  0
POINT
  5
8079
  8
DEFPOINTS
  6
BYBLOCK
 62
     0
 10
4851.391407327611
 20
4245.7122151344493
 30
0.0
  0
POINT
  5
807A
  8
DEFPOINTS
  6
BYBLOCK
 62
     0
 10
4851.391407327611
 20
4313.3375045385537
 30
0.0
  0
ENDBLK
  5
807B
  8
0
  0
BLOCK
  8
0
  2
*D12
 70
     1
 10
0.0
 20
0.0
 30
0.0
  3
*D12
  1

  0
LINE
  5
8291
  8
3
 62
     0
 10
3526.3914073276101
 20
3346.2806296530612
 30
0.0
 11
3526.3914073276101
 21
4010.8267285752331
 31
0.0
  0
LINE
  5
8292
  8
3
 62
     0
 10
4791.3914073276101
 20
3980.8267285752331
 30
0.0
 11
3586.3914073276101
 21
3980.8267285752331
 31
0.0
  0
INSERT
  5
8293
  8
3
 62
     0
  2
_OPEN
 10
4851.391407327611
 20
3980.8267285752331
 30
0.0
 41
60.0
 42
60.0
 43
60.0
  0
INSERT
  5
8294
  8
3
 62
     0
  2
_OPEN
 10
3526.3914073276101
 20
3980.8267285752331
 30
0.0
 41
60.0
 42
60.0
 43
60.0
 50
180.0
  0
TEXT
  8
3
  40
90
  5
830B
  62
0
  72
0
  71
0
 10
4008.89
 20
3971.53
 30
0.000000
  1
MAX
  0
TEXT
  8
3
  40
90
  5
830C
  62
0
  72
0
  71
0
 10
4008.89
 20
3854.53
 30
0.000000
  1
1340
  0
POINT
  5
8296
  8
DEFPOINTS
 62
     0
 10
4851.391407327611
 20
3913.2014391711291
 30
0.0
  0
POINT
  5
8297
  8
DEFPOINTS
 62
     0
 10
3526.3914073276101
 20
3331.2806296530612
 30
0.0
  0
POINT
  5
8298
  8
DEFPOINTS
 62
     0
 10
3526.3914073276101
 20
3980.8267285752331
 30
0.0
  0
ENDBLK
  5
8085
  8
0
  0
BLOCK
  8
0
  2
*D13
 70
     1
 10
0.0
 20
0.0
 30
0.0
  3
*D13
  1

  0
LINE
  5
8299
  8
3
 62
     0
 10
5201.3914073276092
 20
3526.2806296530612
 30
0.0
 11
5477.0337941012704
 21
3526.2806296530612
 31
0.0
  0
LINE
  5
829A
  8
3
 62
     0
 10
5201.3914073276101
 20
2576.2806296530612
 30
0.0
 11
5477.0337941012704
 21
2576.2806296530612
 31
0.0
  0
LINE
  5
829B
  8
3
 62
     0
 10
5447.0337941012704
 20
3466.2806296530612
 30
0.0
 11
5447.0337941012704
 21
2636.2806296530612
 31
0.0
  0
INSERT
  5
829C
  8
3
 62
     0
  2
_OPEN
 10
5447.0337941012704
 20
3526.2806296530612
 30
0.0
 41
60.0
 42
60.0
 43
60.0
 50
90.0
  0
INSERT
  5
829D
  8
3
 62
     0
  2
_OPEN
 10
5447.0337941012704
 20
2576.2806296530612
 30
0.0
 41
60.0
 42
60.0
 43
60.0
 50
270.0
  0
TEXT
  8
3
  40
90
  5
830D
  62
0
  72
0
  71
0
 10
5192.03
 20
2895.35
 30
0.000000
  1
φ950
  0
POINT
  5
829F
  8
DEFPOINTS
 62
     0
 10
5186.3914073276082
 20
3526.2806296530612
 30
0.0
  0
POINT
  5
82A0
  8
DEFPOINTS
 62
     0
 10
5186.3914073276101
 20
2576.2806296530612
 30
0.0
  0
POINT
  5
82A1
  8
DEFPOINTS
 62
     0
 10
5447.0337941012704
 20
2576.2806296530612
 30
0.0
  0
ENDBLK
  5
7E08
  8
0
  0
BLOCK
  8
0
  2
*D14
 70
     1
 10
0.0
 20
0.0
 30
0.0
  3
*D14
  1

  0
LINE
  5
82A2
  8
1
 62
     0
 10
1783.3086280306541
 20
3671.2806296530612
 30
0.0
 11
2755.8661023534291
 21
3671.2806296530612
 31
0.0
  0
LINE
  5
82A3
  8
1
 62
     0
 10
2725.8661023534301
 20
3111.2806296530612
 30
0.0
 11
2725.8661023534301
 21
3611.2806296530612
 31
0.0
  0
INSERT
  5
82A4
  8
1
 62
     0
  2
_OPEN
 10
2725.8661023534291
 20
3051.2806296530612
 30
0.0
 41
60.0
 42
60.0
 43
60.0
 50
270.0
  0
INSERT
  5
82A5
  8
1
 62
     0
  2
_OPEN
 10
2725.8661023534301
 20
3671.2806296530612
 30
0.0
 41
60.0
 42
60.0
 43
60.0
 50
90.0
  0
TEXT
  8
1
  40
90
  5
830E
  62
0
  72
0
  71
0
 10
2470.87
 20
3201.98
 30
0.000000
  1
620
  0
POINT
  5
82A7
  8
DEFPOINTS
 62
     0
 10
2418.0639668092008
 20
3051.2806296530612
 30
0.0
  0
POINT
  5
82A8
  8
DEFPOINTS
 62
     0
 10
1768.3086280306541
 20
3671.2806296530612
 30
0.0
  0
POINT
  5
82A9
  8
DEFPOINTS
 62
     0
 10
2725.8661023534301
 20
3671.2806296530612
 30
0.0
  0
ENDBLK
  5
7FC8
  8
0
  0
BLOCK
  8
0
  2
*D15
 70
     1
 10
0.0
 20
0.0
 30
0.0
  3
*D15
  1

  0
LINE
  5
82AA
  8
1
 62
     0
 10
2404.8086280306538
 20
2999.2806296530612
 30
0.0
 11
2404.8086280306538
 21
4045.338103975836
 31
0.0
  0
LINE
  5
82AB
  8
1
 62
     0
 10
1821.8086280306541
 20
4015.3381039758369
 30
0.0
 11
2344.8086280306538
 21
4015.3381039758369
 31
0.0
  0
INSERT
  5
82AC
  8
1
 62
     0
  2
_OPEN
 10
1761.8086280306541
 20
4015.3381039758369
 30
0.0
 41
60.0
 42
60.0
 43
60.0
 50
180.0
  0
INSERT
  5
82AD
  8
1
 62
     0
  2
_OPEN
 10
2404.8086280306538
 20
4015.3381039758369
 30
0.0
 41
60.0
 42
60.0
 43
60.0
  0
TEXT
  8
1
  40
90
  5
830F
  62
0
  72
0
  71
0
 10
1903.31
 20
3931.04
 30
0.000000
  1
643
  0
POINT
  5
82AF
  8
DEFPOINTS
 62
     0
 10
1761.8086280306541
 20
3707.5359684316081
 30
0.0
  0
POINT
  5
82B0
  8
DEFPOINTS
 62
     0
 10
2404.8086280306538
 20
2984.2806296530621
 30
0.0
  0
POINT
  5
82B1
  8
DEFPOINTS
 62
     0
 10
2404.8086280306538
 20
4015.3381039758369
 30
0.0
  0
ENDBLK
  5
8040
  8
0
  0
BLOCK
  8
0
  2
*D16
 70
     1
 10
0.0
 20
0.0
 30
0.0
  3
*D16
  1

  0
LINE
  5
82B2
  8
3
 62
     0
 10
2336.8086280306538
 20
6610.6824699157196
 30
0.0
 11
2711.8404311946801
 21
6610.6824699157196
 31
0.0
  0
LINE
  5
82B3
  8
3
 62
     0
 10
2336.8086280306538
 20
5800.6824699157196
 30
0.0
 11
2711.8404311946801
 21
5800.6824699157196
 31
0.0
  0
LINE
  5
82B4
  8
3
 62
     0
 10
2681.8404311946811
 20
6550.6824699157196
 30
0.0
 11
2681.8404311946811
 21
5860.6824699157214
 31
0.0
  0
INSERT
  5
82B5
  8
3
 62
     0
  2
_OPEN
 10
2681.8404311946811
 20
6610.6824699157196
 30
0.0
 41
60.0
 42
60.0
 43
60.0
 50
90.0
  0
INSERT
  5
82B6
  8
3
 62
     0
  2
_OPEN
 10
2681.8404311946811
 20
5800.6824699157196
 30
0.0
 41
60.0
 42
60.0
 43
60.0
 50
270.0
  0
TEXT
  8
3
  40
90
  5
8310
  62
0
  72
0
  71
0
 10
2426.84
 20
6043.58
 30
0.000000
  1
810
  0
POINT
  5
82B8
  8
DEFPOINTS
 62
     0
 10
2321.8086280306538
 20
6610.6824699157196
 30
0.0
  0
POINT
  5
82B9
  8
DEFPOINTS
 62
     0
 10
2321.8086280306538
 20
5800.6824699157196
 30
0.0
  0
POINT
  5
82BA
  8
DEFPOINTS
 62
     0
 10
2681.8404311946811
 20
5800.6824699157196
 30
0.0
  0
ENDBLK
  5
80BC
  8
0
  0
BLOCK
  8
0
  2
*D17
 70
     1
 10
0.0
 20
0.0
 30
0.0
  3
*D17
  1

  0
LINE
  5
82BB
  8
3
 62
     0
 10
2091.8086280306561
 20
5027.6824699157196
 30
0.0
 11
2711.8404311946788
 21
5027.6824699157196
 31
0.0
  0
LINE
  5
82BC
  8
3
 62
     0
 10
2681.8404311946801
 20
5740.6824699157214
 30
0.0
 11
2681.8404311946788
 21
5087.6824699157196
 31
0.0
  0
INSERT
  5
82BD
  8
3
 62
     0
  2
_OPEN
 10
2681.8404311946801
 20
5800.6824699157196
 30
0.0
 41
60.0
 42
60.0
 43
60.0
 50
90.0
  0
INSERT
  5
82BE
  8
3
 62
     0
  2
_OPEN
 10
2681.8404311946788
 20
5027.6824699157196
 30
0.0
 41
60.0
 42
60.0
 43
60.0
 50
270.0
  0
TEXT
  8
3
  40
90
  5
8311
  62
0
  72
0
  71
0
 10
2426.84
 20
5254.88
 30
0.000000
  1
773
  0
POINT
  5
82C0
  8
DEFPOINTS
 62
     0
 10
2321.8086280306538
 20
5800.6824699157196
 30
0.0
  0
POINT
  5
82C1
  8
DEFPOINTS
 62
     0
 10
2076.8086280306561
 20
5027.6824699157196
 30
0.0
  0
POINT
  5
82C2
  8
DEFPOINTS
 62
     0
 10
2681.8404311946788
 20
5027.6824699157196
 30
0.0
  0
ENDBLK
  5
80C8
  8
0
  0
BLOCK
  8
0
  2
*D18
 70
     1
 10
0.0
 20
0.0
 30
0.0
  3
*D18
  1

  0
LINE
  5
82C3
  8
3
 62
     0
 10
876.80862803065418
 20
5865.6824699157214
 30
0.0
 11
633.3549597268584
 21
5865.6824699157214
 31
0.0
  0
LINE
  5
82C4
  8
3
 62
     0
 10
876.80862803065509
 20
5027.6824699157196
 30
0.0
 11
633.35495972685817
 21
5027.6824699157196
 31
0.0
  0
LINE
  5
82C5
  8
3
 62
     0
 10
663.3549597268584
 20
5805.6824699157196
 30
0.0
 11
663.35495972685828
 21
5087.6824699157196
 31
0.0
  0
INSERT
  5
82C6
  8
3
 62
     0
  2
_OPEN
 10
663.3549597268584
 20
5865.6824699157214
 30
0.0
 41
60.0
 42
60.0
 43
60.0
 50
90.0
  0
INSERT
  5
82C7
  8
3
 62
     0
  2
_OPEN
 10
663.35495972685828
 20
5027.6824699157196
 30
0.0
 41
60.0
 42
60.0
 43
60.0
 50
270.0
  0
TEXT
  8
3
  40
90
  5
8312
  62
0
  72
0
  71
0
 10
408.355
 20
5297.49
 30
0.000000
  1
838
  0
POINT
  5
82C9
  8
DEFPOINTS
 62
     0
 10
891.80862803065429
 20
5865.6824699157214
 30
0.0
  0
POINT
  5
82CA
  8
DEFPOINTS
 62
     0
 10
891.80862803065509
 20
5027.6824699157196
 30
0.0
  0
POINT
  5
82CB
  8
DEFPOINTS
 62
     0
 10
663.35495972685828
 20
5027.6824699157196
 30
0.0
  0
ENDBLK
  5
80E0
  8
0
  0
BLOCK
  8
0
  2
*D19
 70
     1
 10
0.0
 20
0.0
 30
0.0
  3
*D19
  1

  0
LINE
  5
82CC
  8
3
 62
     0
 10
758.30862803065429
 20
3686.2806296530612
 30
0.0
 11
758.30862803065429
 21
4238.3918393318454
 31
0.0
  0
LINE
  5
82CD
  8
3
 62
     0
 10
2404.8086280306538
 20
2999.2806296530612
 30
0.0
 11
2404.8086280306538
 21
4238.3918393318454
 31
0.0
  0
LINE
  5
82CE
  8
3
 62
     0
 10
818.30862803065429
 20
4208.3918393318454
 30
0.0
 11
2344.8086280306538
 21
4208.3918393318454
 31
0.0
  0
INSERT
  5
82CF
  8
3
 62
     0
  2
_OPEN
 10
758.30862803065429
 20
4208.3918393318454
 30
0.0
 41
60.0
 42
60.0
 43
60.0
 50
180.0
  0
INSERT
  5
82D0
  8
3
 62
     0
  2
_OPEN
 10
2404.8086280306538
 20
4208.3918393318454
 30
0.0
 41
60.0
 42
60.0
 43
60.0
  0
TEXT
  8
3
  40
90
  5
8313
  62
0
  72
0
  71
0
 10
1412.91
 20
4124.09
 30
0.000000
  1
1647
  0
POINT
  5
82D2
  8
DEFPOINTS
 62
     0
 10
758.30862803065429
 20
3671.2806296530612
 30
0.0
  0
POINT
  5
82D3
  8
DEFPOINTS
 62
     0
 10
2404.8086280306538
 20
2984.2806296530621
 30
0.0
  0
POINT
  5
82D4
  8
DEFPOINTS
 62
     0
 10
2404.8086280306538
 20
4208.3918393318454
 30
0.0
  0
ENDBLK
  5
8156
  8
0
  0
BLOCK
  8
0
  2
*D20
 70
     1
 10
0.0
 20
0.0
 30
0.0
  3
*D20
  1

  0
LINE
  5
82D5
  8
3
 62
     0
 10
891.80862803065429
 20
2046.2806296530609
 30
0.0
 11
891.80862803065429
 21
1839.3380659276879
 31
0.0
  0
LINE
  5
82D6
  8
3
 62
     0
 10
1761.8086280306541
 20
2046.2806296530609
 30
0.0
 11
1761.8086280306541
 21
1839.3380659276879
 31
0.0
  0
LINE
  5
82D7
  8
3
 62
     0
 10
951.80862803065418
 20
1869.3380659276879
 30
0.0
 11
1701.8086280306541
 21
1869.3380659276879
 31
0.0
  0
INSERT
  5
82D8
  8
3
 62
     0
  2
_OPEN
 10
891.80862803065429
 20
1869.3380659276879
 30
0.0
 41
60.0
 42
60.0
 43
60.0
 50
180.0
  0
INSERT
  5
82D9
  8
3
 62
     0
  2
_OPEN
 10
1761.8086280306541
 20
1869.3380659276879
 30
0.0
 41
60.0
 42
60.0
 43
60.0
  0
TEXT
  8
3
  40
90
  5
8314
  62
0
  72
0
  71
0
 10
1146.81
 20
1785.04
 30
0.000000
  1
870
  0
POINT
  5
82DB
  8
DEFPOINTS
 62
     0
 10
891.80862803065429
 20
2061.2806296530612
 30
0.0
  0
POINT
  5
82DC
  8
DEFPOINTS
 62
     0
 10
1761.8086280306541
 20
2061.2806296530612
 30
0.0
  0
POINT
  5
82DD
  8
DEFPOINTS
 62
     0
 10
1761.8086280306541
 20
1869.3380659276879
 30
0.0
  0
ENDBLK
  5
81C3
  8
0
  0
BLOCK
  8
0
  2
*D21
 70
     1
 10
0.0
 20
0.0
 30
0.0
  3
*D21
  1

  0
LINE
  5
82DE
  8
3
 62
     0
 10
1761.8086280306541
 20
2046.2806296530609
 30
0.0
 11
1761.8086280306541
 21
1839.3380659276879
 31
0.0
  0
LINE
  5
82DF
  8
3
 62
     0
 10
2321.8086280306561
 20
2046.2806296530609
 30
0.0
 11
2321.8086280306561
 21
1839.3380659276879
 31
0.0
  0
LINE
  5
82E0
  8
3
 62
     0
 10
1821.8086280306541
 20
1869.3380659276879
 30
0.0
 11
2261.8086280306561
 21
1869.3380659276879
 31
0.0
  0
INSERT
  5
82E1
  8
3
 62
     0
  2
_OPEN
 10
1761.8086280306541
 20
1869.3380659276879
 30
0.0
 41
60.0
 42
60.0
 43
60.0
 50
180.0
  0
INSERT
  5
82E2
  8
3
 62
     0
  2
_OPEN
 10
2321.8086280306561
 20
1869.3380659276879
 30
0.0
 41
60.0
 42
60.0
 43
60.0
  0
TEXT
  8
3
  40
90
  5
8315
  62
0
  72
0
  71
0
 10
1861.81
 20
1785.04
 30
0.000000
  1
560
  0
POINT
  5
82E4
  8
DEFPOINTS
 62
     0
 10
1761.8086280306541
 20
2061.2806296530612
 30
0.0
  0
POINT
  5
82E5
  8
DEFPOINTS
 62
     0
 10
2321.8086280306561
 20
2061.2806296530612
 30
0.0
  0
POINT
  5
82E6
  8
DEFPOINTS
 62
     0
 10
2321.8086280306561
 20
1869.3380659276879
 30
0.0
  0
ENDBLK
  5
81D0
  8
0
  0
BLOCK
  8
0
  2
*D22
 70
     1
 10
0.0
 20
0.0
 30
0.0
  3
*D22
  1

  0
LINE
  5
82E7
  8
3
 62
     0
 10
3673.3914073276078
 20
2046.2806296530609
 30
0.0
 11
3673.3914073276078
 21
1839.3380659276879
 31
0.0
  0
LINE
  5
82E8
  8
3
 62
     0
 10
4851.3914073276082
 20
2046.2806296530609
 30
0.0
 11
4851.3914073276082
 21
1839.3380659276879
 31
0.0
  0
LINE
  5
82E9
  8
3
 62
     0
 10
3733.3914073276078
 20
1869.3380659276879
 30
0.0
 11
4791.3914073276082
 21
1869.3380659276879
 31
0.0
  0
INSERT
  5
82EA
  8
3
 62
     0
  2
_OPEN
 10
3673.3914073276078
 20
1869.3380659276879
 30
0.0
 41
60.0
 42
60.0
 43
60.0
 50
180.0
  0
INSERT
  5
82EB
  8
3
 62
     0
  2
_OPEN
 10
4851.3914073276082
 20
1869.3380659276879
 30
0.0
 41
60.0
 42
60.0
 43
60.0
  0
TEXT
  8
3
  40
90
  5
8316
  62
0
  72
0
  71
0
 10
4082.39
 20
1785.04
 30
0.000000
  1
1178
  0
POINT
  5
82ED
  8
DEFPOINTS
 62
     0
 10
3673.3914073276078
 20
2061.2806296530612
 30
0.0
  0
POINT
  5
82EE
  8
DEFPOINTS
 62
     0
 10
4851.3914073276082
 20
2061.2806296530612
 30
0.0
  0
POINT
  5
82EF
  8
DEFPOINTS
 62
     0
 10
4851.3914073276082
 20
1869.3380659276879
 30
0.0
  0
ENDBLK
  5
81DD
  8
0
  0
BLOCK
  8
0
  2
*D23
 70
     1
 10
0.0
 20
0.0
 30
0.0
  3
*D23
  1

  0
LINE
  5
82F0
  8
3
 62
     0
 10
4851.3914073276082
 20
2046.2806296530609
 30
0.0
 11
4851.3914073276082
 21
1839.3380659276879
 31
0.0
  0
LINE
  5
82F1
  8
3
 62
     0
 10
5256.3914073276082
 20
2046.2806296530609
 30
0.0
 11
5256.3914073276082
 21
1839.3380659276879
 31
0.0
  0
LINE
  5
82F2
  8
3
 62
     0
 10
4911.3914073276092
 20
1869.3380659276879
 30
0.0
 11
5196.3914073276092
 21
1869.3380659276879
 31
0.0
  0
INSERT
  5
82F3
  8
3
 62
     0
  2
_OPEN
 10
4851.3914073276082
 20
1869.3380659276879
 30
0.0
 41
60.0
 42
60.0
 43
60.0
 50
180.0
  0
INSERT
  5
82F4
  8
3
 62
     0
  2
_OPEN
 10
5256.3914073276082
 20
1869.3380659276879
 30
0.0
 41
60.0
 42
60.0
 43
60.0
  0
TEXT
  8
3
  40
90
  5
8317
  62
0
  72
0
  71
0
 10
4873.89
 20
1785.04
 30
0.000000
  1
405
  0
POINT
  5
82F6
  8
DEFPOINTS
 62
     0
 10
4851.3914073276082
 20
2061.2806296530612
 30
0.0
  0
POINT
  5
82F7
  8
DEFPOINTS
 62
     0
 10
5256.3914073276082
 20
2061.2806296530612
 30
0.0
  0
POINT
  5
82F8
  8
DEFPOINTS
 62
     0
 10
5256.3914073276082
 20
1869.3380659276879
 30
0.0
  0
ENDBLK
  5
81EC
  8
0
  0
BLOCK
  8
0
  2
*D24
 70
     1
 10
0.0
 20
0.0
 30
0.0
  3
*D24
  1

  0
LINE
  5
82F9
  8
3
 62
     0
 10
2336.8086280306552
 20
2186.2806296530612
 30
0.0
 11
2752.9093557717888
 21
2186.2806296530612
 31
0.0
  0
LINE
  5
82FA
  8
3
 62
     0
 10
2336.8086280306552
 20
2061.2806296530612
 30
0.0
 11
2752.9093557717888
 21
2061.2806296530612
 31
0.0
  0
LINE
  5
82FB
  8
3
 62
     0
 10
2722.9093557717902
 20
2246.2806296530612
 30
0.0
 11
2722.9093557717902
 21
2306.2806296530612
 31
0.0
  0
LINE
  5
82FC
  8
3
 62
     0
 10
2722.9093557717902
 20
2001.2806296530609
 30
0.0
 11
2722.9093557717902
 21
1666.9949153673469
 31
0.0
  0
LINE
  5
82FD
  8
3
 62
     0
 10
2722.9093557717902
 20
2186.2806296530612
 30
0.0
 11
2722.9093557717902
 21
2061.2806296530612
 31
0.0
  0
INSERT
  5
82FE
  8
3
 62
     0
  2
_DOT
 10
2722.9093557717902
 20
2186.2806296530612
 30
0.0
 41
60.0
 42
60.0
 43
60.0
 50
270.0
  0
INSERT
  5
82FF
  8
3
 62
     0
  2
_OPEN
 10
2722.9093557717902
 20
2061.2806296530612
 30
0.0
 41
60.0
 42
60.0
 43
60.0
 50
90.0
  0
TEXT
  8
3
  40
90
  5
8318
  62
0
  72
0
  71
0
 10
2467.91
 20
1644.84
 30
0.000000
  1
125
  0
POINT
  5
8301
  8
DEFPOINTS
 62
     0
 10
2321.8086280306561
 20
2186.2806296530612
 30
0.0
  0
POINT
  5
8302
  8
DEFPOINTS
 62
     0
 10
2321.8086280306561
 20
2061.2806296530612
 30
0.0
  0
POINT
  5
8303
  8
DEFPOINTS
 62
     0
 10
2722.9093557717902
 20
2061.2806296530612
 30
0.0
  0
ENDBLK
  5
81FB
  8
0
  0
BLOCK
  8
0
  2
*D25
 70
     1
 10
0.0
 20
0.0
 30
0.0
  3
*D25
  1

  0
LINE
  5
81FF
  8
0
  6
BYBLOCK
 62
     0
 10
2336.8086280306538
 20
2186.2806296530612
 30
0.0
 11
2752.9093557717888
 21
2186.2806296530612
 31
0.0
  0
LINE
  5
8200
  8
0
  6
BYBLOCK
 62
     0
 10
2336.8086280306538
 20
2231.2806296530612
 30
0.0
 11
2752.9093557717888
 21
2231.2806296530612
 31
0.0
  0
LINE
  5
8201
  8
0
  6
BYBLOCK
 62
     0
 10
2722.9093557717902
 20
2126.2806296530612
 30
0.0
 11
2722.9093557717902
 21
2066.2806296530612
 31
0.0
  0
LINE
  5
8202
  8
0
  6
BYBLOCK
 62
     0
 10
2722.9093557717902
 20
2291.2806296530612
 30
0.0
 11
2722.9093557717902
 21
2351.2806296530612
 31
0.0
  0
TEXT
  5
8203
  8
3
 62
     0
 10
2896.4807843432181
 20
2078.0663439387749
 30
0.0
 40
90.0
  1
(45)
 50
90.0
  0
LINE
  5
8204
  8
0
  6
BYBLOCK
 62
     0
 10
2722.9093557717902
 20
2186.2806296530612
 30
0.0
 11
2722.9093557717902
 21
2231.2806296530612
 31
0.0
  0
INSERT
  5
8205
  8
0
  6
BYBLOCK
 62
     0
  2
_DOT
 10
2722.9093557717902
 20
2186.2806296530612
 30
0.0
 41
60.0
 42
60.0
 43
60.0
 50
90.0
  0
INSERT
  5
8206
  8
0
  6
BYBLOCK
 62
     0
  2
_OPEN
 10
2722.9093557717902
 20
2231.2806296530612
 30
0.0
 41
60.0
 42
60.0
 43
60.0
 50
270.0
  0
POINT
  5
8207
  8
DEFPOINTS
  6
BYBLOCK
 62
     0
 10
2321.8086280306538
 20
2186.2806296530612
 30
0.0
  0
POINT
  5
8208
  8
DEFPOINTS
  6
BYBLOCK
 62
     0
 10
2321.8086280306538
 20
2231.2806296530612
 30
0.0
  0
POINT
  5
8209
  8
DEFPOINTS
  6
BYBLOCK
 62
     0
 10
2722.9093557717902
 20
2231.2806296530612
 30
0.0
  0
ENDBLK
  5
820A
  8
0
  0
BLOCK
  8
0
  2
*D26
 70
     1
 10
0.0
 20
0.0
 30
0.0
  3
*D26
  1

  0
LINE
  5
820E
  8
0
  6
BYBLOCK
 62
     0
 10
1783.3086280306541
 20
3671.2806296530612
 30
0.0
 11
3007.4892925233539
 21
3671.2806296530612
 31
0.0
  0
LINE
  5
820F
  8
0
  6
BYBLOCK
 62
     0
 10
2336.8086280306538
 20
2061.2806296530612
 30
0.0
 11
3007.4892925233539
 21
2061.2806296530612
 31
0.0
  0
LINE
  5
8210
  8
0
  6
BYBLOCK
 62
     0
 10
2977.4892925233539
 20
3611.2806296530612
 30
0.0
 11
2977.4892925233539
 21
2121.2806296530612
 31
0.0
  0
INSERT
  5
8211
  8
0
  6
BYBLOCK
 62
     0
  2
_OPEN
 10
2977.4892925233539
 20
3671.2806296530612
 30
0.0
 41
60.0
 42
60.0
 43
60.0
 50
90.0
  0
INSERT
  5
8212
  8
0
  6
BYBLOCK
 62
     0
  2
_OPEN
 10
2977.4892925233539
 20
2061.2806296530612
 30
0.0
 41
60.0
 42
60.0
 43
60.0
 50
270.0
  0
TEXT
  5
8213
  8
3
 62
     0
 10
2908.9178639519259
 20
2666.9949153673469
 30
0.0
 40
90.0
  1
(1610)
 50
90.0
  0
POINT
  5
8214
  8
DEFPOINTS
  6
BYBLOCK
 62
     0
 10
1768.3086280306541
 20
3671.2806296530612
 30
0.0
  0
POINT
  5
8215
  8
DEFPOINTS
  6
BYBLOCK
 62
     0
 10
2321.8086280306538
 20
2061.2806296530612
 30
0.0
  0
POINT
  5
8216
  8
DEFPOINTS
  6
BYBLOCK
 62
     0
 10
2977.4892925233539
 20
2061.2806296530612
 30
0.0
  0
ENDBLK
  5
8217
  8
0
  0
ENDSEC
  0
SECTION
  2
ENTITIES
  0
INSERT
  5
7AE3
  8
0
  2
YA_N
 10
791.5023376026661
 20
124.5017017181089
 30
0.0
  0
LINE
  5
7AE5
  8
2
 10
2481.5823171640618
 20
3051.2806296530612
 30
0.0
 11
779.97209611587459
 21
3051.2806296530612
 31
0.0
  0
LINE
  5
7AE6
  8
2
 10
1761.8086280306541
 20
3711.8054912884731
 30
0.0
 11
1761.8086280306541
 21
2061.2806296530612
 31
0.0
  0
ARC
  5
7AE7
  8
1
 10
1694.8086280306541
 20
3118.2806296530621
 30
0.0
 40
844.0
 50
184.553152387219
 51
206.73998687543161
  0
ARC
  5
7AE8
  8
1
 10
1694.8086280306541
 20
2984.2806296530621
 30
0.0
 40
710.0
 50
302.21051284031643
 51
5.414841706129411
  0
ARC
  5
7AE9
  8
1
 10
1815.3086280306541
 20
2997.7806296530612
 30
0.0
 40
589.5
 50
5.2070360883494882
 51
95.207036088349469
  0
LINE
  5
7AEA
  8
1
 10
758.30862803065429
 20
3671.2806296530612
 30
0.0
 11
1768.3086280306541
 21
3671.2806296530612
 31
0.0
  0
LINE
  5
7AEB
  8
1
 10
1725.8086280306541
 20
3671.2806296530612
 30
0.0
 11
1725.8086280306541
 21
3586.0703079378982
 31
0.0
  0
LINE
  5
7AEC
  8
1
 10
800.80862803065418
 20
3671.2806296530612
 30
0.0
 11
853.47219116368979
 21
3051.2806296530612
 31
0.0
  0
LINE
  5
7AED
  8
1
 10
758.30862803065429
 20
3671.2806296530612
 30
0.0
 11
758.30862803065429
 21
3631.2806296530612
 31
0.0
  0
LINE
  5
7AEE
  8
1
 10
1768.3086280306541
 20
3671.2806296530612
 30
0.0
 11
1768.3086280306541
 21
3631.2806296530612
 31
0.0
  0
LINE
  5
7AEF
  8
1
 10
758.30862803065429
 20
3631.2806296530612
 30
0.0
 11
1768.3086280306541
 21
3631.2806296530612
 31
0.0
  0
LINE
  5
7AF0
  8
1
 10
758.30862803065429
 20
3668.2806296530612
 30
0.0
 11
1768.3086280306541
 21
3668.2806296530612
 31
0.0
  0
LINE
  5
7AF1
  8
1
 10
2321.8086280306538
 20
2356.2806296530612
 30
0.0
 11
2321.8086280306538
 21
2231.2806296530612
 31
0.0
  0
LINE
  5
7AF2
  8
1
 10
891.80862803065429
 20
2231.2806296530612
 30
0.0
 11
2321.8086280306561
 21
2231.2806296530612
 31
0.0
1001
ACAD
1000
ASC_BOUNDS
1002
{
1070
    19
1005
0
1002
}
  0
LINE
  5
7AF3
  8
1
 10
891.80862803065429
 20
2356.2806296530612
 30
0.0
 11
2321.8086280306561
 21
2356.2806296530612
 31
0.0
  0
LINE
  5
7AF4
  8
2
 10
1091.8086280306541
 20
2838.8562286371762
 30
0.0
 11
1091.8086280306541
 21
2360.4644890429699
 31
0.0
1001
ACAD
1000
ASC_BOUNDS
1002
{
1070
    19
1002
}
  0
LINE
  5
7AF5
  8
2
 10
848.17422144792715
 20
2631.2806296530612
 30
0.0
 11
1306.6515544844881
 21
2631.2806296530612
 31
0.0
  0
LINE
  5
7AF6
  8
1
 10
5186.3914073276082
 20
3628.7806296530621
 30
0.0
 11
5186.3914073276101
 21
3051.2806296530612
 31
0.0
  0
LINE
  5
7AF7
  8
1
 10
4516.3914073276082
 20
3628.7806296530621
 30
0.0
 11
4516.3914073276092
 21
3051.2806296530612
 31
0.0
  0
LINE
  5
7AF8
  8
1
 10
3673.3914073276078
 20
2356.2806296530612
 30
0.0
 11
5256.3914073276082
 21
2356.2806296530612
 31
0.0
  0
LINE
  5
7AF9
  8
1
 10
3673.3914073276078
 20
2356.2806296530612
 30
0.0
 11
3673.3914073276078
 21
2231.2806296530612
 31
0.0
  0
LINE
  5
7AFA
  8
1
 10
5256.3914073276082
 20
2356.2806296530612
 30
0.0
 11
5256.3914073276082
 21
2231.2806296530612
 31
0.0
  0
LINE
  5
7AFB
  8
1
 10
4474.3914073276073
 20
3671.2806296530612
 30
0.0
 11
5228.3914073276092
 21
3671.2806296530612
 31
0.0
  0
LINE
  5
7AFC
  8
1
 10
5228.3914073276092
 20
3671.2806296530612
 30
0.0
 11
5228.3914073276092
 21
3631.2806296530612
 31
0.0
  0
LINE
  5
7AFD
  8
1
 10
4474.3914073276073
 20
3671.2806296530612
 30
0.0
 11
4474.3914073276073
 21
3631.2806296530612
 31
0.0
  0
LINE
  5
7AFF
  8
2
 10
3563.863566744611
 20
3051.2806296530612
 30
0.0
 11
5256.2417092423557
 21
3051.2806296530612
 31
0.0
  0
LINE
  5
7B00
  8
1
 10
3673.3914073276078
 20
2231.2806296530612
 30
0.0
 11
5256.3914073276082
 21
2231.2806296530612
 31
0.0
1001
ACAD
1000
ASC_BOUNDS
1002
{
1070
    19
1002
}
  0
LINE
  5
7B03
  8
2
 10
716.74578058419127
 20
6205.6824699157196
 30
0.0
 11
2486.3319616089279
 21
6205.6824699157196
 31
0.0
  0
LINE
  5
7B04
  8
2
 10
4851.391407327611
 20
3775.4724434232048
 30
0.0
 11
4851.3914073276082
 21
2061.2806296530612
 31
0.0
  0
INSERT
  5
7B06
  8
0
  2
YA_N
 10
-853.1654824878492
 20
-861.23841843369883
 30
0.0
 41
20.0
 42
20.0
 43
20.0
  0
INSERT
  5
7B08
  8
0
  2
YA_N
 10
-767.31428752034788
 20
-950.9038503398732
 30
0.0
 41
20.0
 42
20.0
 43
20.0
  0
ARC
  5
7B0A
  8
1
 10
1091.8086280306541
 20
2631.2806296530612
 30
0.0
 40
185.0
 50
287.94525099999993
 51
252.05474899999999
  0
LINE
  5
7B0B
  8
1
 10
1148.8086280306541
 20
2455.2806296530612
 30
0.0
 11
1034.8086280306541
 21
2455.2806296530612
 31
0.0
  0
LINE
  5
7B0C
  8
1
 10
1253.8086280306541
 20
2526.539662653061
 30
0.0
 11
1253.8086280306541
 21
2451.2806296530612
 31
0.0
  0
LINE
  5
7B0D
  8
1
 10
1253.8086280306541
 20
2526.539662653061
 30
0.0
 11
1247.424656030654
 21
2531.2374166530608
 31
0.0
  0
LINE
  5
7B0E
  8
1
 10
929.80862803065429
 20
2526.539662653061
 30
0.0
 11
929.80862803065429
 21
2451.2806296530612
 31
0.0
  0
LINE
  5
7B0F
  8
1
 10
929.80862803065429
 20
2526.539662653061
 30
0.0
 11
936.19253903065498
 21
2531.2374166530608
 31
0.0
  0
LINE
  5
7B10
  8
1
 10
866.80862803065429
 20
2396.2806296530612
 30
0.0
 11
1316.8086280306541
 21
2396.2806296530612
 31
0.0
  0
LINE
  5
7B11
  8
1
 10
891.80862803065429
 20
2396.2806296530612
 30
0.0
 11
891.80862803065429
 21
2356.2806296530612
 31
0.0
  0
LINE
  5
7B12
  8
1
 10
1291.8086280306541
 20
2396.2806296530612
 30
0.0
 11
1291.8086280306541
 21
2356.2806296530612
 31
0.0
  0
LINE
  5
7B13
  8
1
 10
881.70708962953177
 20
2451.2806296530612
 30
0.0
 11
1021.8086280306539
 21
2451.2806296530612
 31
0.0
  0
LINE
  5
7B14
  8
1
 10
1316.8086280306541
 20
2396.2806296530612
 30
0.0
 11
1301.606311396142
 21
2451.2806296530612
 31
0.0
  0
LINE
  5
7B15
  8
1
 10
866.80862803065429
 20
2396.2806296530612
 30
0.0
 11
881.70708962953177
 21
2451.2806296530612
 31
0.0
  0
LINE
  5
7B16
  8
1
 10
1021.8086280306539
 20
2406.2806296530612
 30
0.0
 11
1161.8086280306541
 21
2406.2806296530612
 31
0.0
  0
LINE
  5
7B17
  8
1
 10
1021.8086280306539
 20
2441.2806296530621
 30
0.0
 11
1161.8086280306541
 21
2441.2806296530621
 31
0.0
  0
LINE
  5
7B18
  8
1
 10
1021.8086280306539
 20
2451.2806296530612
 30
0.0
 11
1021.8086280306539
 21
2441.2806296530621
 31
0.0
  0
LINE
  5
7B19
  8
1
 10
1161.8086280306541
 20
2451.2806296530612
 30
0.0
 11
1161.8086280306541
 21
2441.2806296530621
 31
0.0
  0
LINE
  5
7B1A
  8
1
 10
1161.8086280306541
 20
2451.2806296530612
 30
0.0
 11
1301.606311396142
 21
2451.2806296530612
 31
0.0
  0
LINE
  5
7B1B
  8
1
 10
1021.8086280306539
 20
2406.2806296530612
 30
0.0
 11
1021.8086280306539
 21
2396.2806296530612
 31
0.0
  0
LINE
  5
7B1C
  8
1
 10
1161.8086280306541
 20
2406.2806296530612
 30
0.0
 11
1161.8086280306541
 21
2396.2806296530612
 31
0.0
  0
POINT
  5
7B1F
  8
1
 10
2321.8086280306538
 20
2231.2806296530612
 30
0.0
  0
CIRCLE
  5
7B20
  8
1
 10
1091.8086280306541
 20
2631.2806296530612
 30
0.0
 40
119.0
  0
LINE
  5
7B21
  8
1
 10
891.80862803065429
 20
2356.2806296530612
 30
0.0
 11
891.80862803065429
 21
2231.2806296530612
 31
0.0
  0
LINE
  5
7B31
  8
1
 10
1201.8086280306541
 20
6610.6824699157196
 30
0.0
 11
2321.8086280306538
 21
6610.6824699157196
 31
0.0
  0
LINE
  5
7B32
  8
1
 10
891.80862803065429
 20
5800.6824699157196
 30
0.0
 11
1729.3086280306541
 21
5800.6824699157196
 31
0.0
  0
LINE
  5
7B33
  8
1
 10
891.80862803065509
 20
5027.6824699157196
 30
0.0
 11
2076.8086280306561
 21
5027.6824699157196
 31
0.0
  0
LINE
  5
7B34
  8
1
 10
2321.8086280306538
 20
6610.6824699157187
 30
0.0
 11
2321.8086280306538
 21
6540.6824699157214
 31
0.0
  0
LINE
  5
7B35
  8
1
 10
1201.8086280306541
 20
6610.6824699157196
 30
0.0
 11
1201.8086280306541
 21
6580.6824699157214
 31
0.0
  0
LINE
  5
7B36
  8
1
 10
891.80862803065429
 20
5865.6824699157214
 30
0.0
 11
891.80862803065509
 21
5027.6824699157196
 31
0.0
  0
LINE
  5
7B37
  8
1
 10
1765.8086280306541
 20
6545.6824699157187
 30
0.0
 11
2256.8086280306538
 21
6545.6824699157214
 31
0.0
  0
LINE
  5
7B38
  8
1
 10
2256.8086280306538
 20
6545.6824699157214
 30
0.0
 11
2256.8086280306538
 21
6540.6824699157214
 31
0.0
  0
LINE
  5
7B3A
  8
1
 10
891.80862803065429
 20
5865.6824699157214
 30
0.0
 11
2321.8086280306538
 21
5865.6824699157214
 31
0.0
  0
LINE
  5
7B3D
  8
1
 10
2076.8086280306552
 20
5800.6824699157196
 30
0.0
 11
2076.8086280306561
 21
5027.6824699157196
 31
0.0
  0
LINE
  5
7B3F
  8
2
 10
1091.808628030655
 20
5761.6908850373648
 30
0.0
 11
1091.8086280306561
 21
4925.586706562226
 31
0.0
  0
LINE
  5
7B45
  8
1
 10
3596.3914073276101
 20
2749.9721829641712
 30
0.0
 11
3706.3914073276078
 21
2749.9721829641712
 31
0.0
  0
LINE
  5
7B46
  8
1
 10
3596.3914073276101
 20
2511.9721829641712
 30
0.0
 11
3706.3914073276101
 21
2511.9721829641712
 31
0.0
  0
LINE
  5
7B47
  8
1
 10
3596.3914073276078
 20
3254.480629653061
 30
0.0
 11
3596.3914073276092
 21
2511.9721829641712
 31
0.0
  0
LINE
  5
7B48
  8
1
 10
3706.3914073276078
 20
3254.480629653061
 30
0.0
 11
3706.3914073276092
 21
2511.9721829641712
 31
0.0
  0
LINE
  5
7B49
  8
1
 10
3726.3914073276101
 20
3331.2806296530612
 30
0.0
 11
3726.3914073276101
 21
3311.2806296530612
 31
0.0
  0
LINE
  5
7B4A
  8
1
 10
3526.3914073276101
 20
3331.2806296530612
 30
0.0
 11
3526.3914073276101
 21
2410.9721829641712
 31
0.0
  0
LINE
  5
7B4B
  8
1
 10
3526.3914073276078
 20
2410.9721829641712
 30
0.0
 11
3726.3914073276101
 21
2410.9721829641712
 31
0.0
  0
POINT
  5
7B4C
  8
1
 10
5189.3914073276092
 20
3671.2806296530612
 30
0.0
  0
ARC
  5
7B50
  8
1
 10
1761.8086280306541
 20
3051.2806296530612
 30
0.0
 40
536.0
 50
90.0
 51
93.851123126497725
  0
CIRCLE
  5
7B51
  8
1
 10
1761.8086280306541
 20
3051.2806296530612
 30
0.0
 40
203.19999999999999
  0
ARC
  5
7B53
  8
1
 10
1091.8086280306541
 20
2631.2806296530612
 30
0.0
 40
220.0
 50
122.47489985542769
 51
298.7998387723265
  0
LINE
  5
7B54
  8
1
 10
1591.452259131383
 20
3273.2286872209252
 30
0.0
 11
970.92962970123335
 21
2814.8425475483159
 31
0.0
  0
LINE
  5
7B55
  8
1
 10
1662.2449796424351
 20
3228.4170740105878
 30
0.0
 11
1033.5011764647179
 21
2735.0170316144081
 31
0.0
  0
LINE
  5
7B56
  8
1
 10
1817.892948522039
 20
2855.9737199058141
 30
0.0
 11
1124.6532842239351
 21
2516.903059476278
 31
0.0
  0
LINE
  5
7B57
  8
1
 10
1904.2489613954599
 20
2810.2082648758801
 30
0.0
 11
1193.9058656968371
 21
2436.4388043982249
 31
0.0
  0
LINE
  5
7B58
  8
1
 10
3526.3914073276101
 20
3331.2806296530612
 30
0.0
 11
3726.3914073276101
 21
3331.2806296530612
 31
0.0
  0
LINE
  5
7B59
  8
1
 10
3596.3914073276078
 20
3254.480629653061
 30
0.0
 11
3706.3914073276078
 21
3254.480629653061
 31
0.0
  0
LINE
  5
7B5A
  8
1
 10
3596.3914073276092
 20
2848.0806296530609
 30
0.0
 11
3706.3914073276092
 21
2848.0806296530609
 31
0.0
  0
LINE
  5
7B5B
  8
1
 10
3726.3914073276078
 20
2430.9721829641712
 30
0.0
 11
3726.3914073276078
 21
2410.9721829641712
 31
0.0
  0
INSERT
  5
7B5C
  8
0
  2
YA_N
 10
1684.084545659538
 20
-1644.9931351483519
 30
0.0
  0
INSERT
  5
7B5E
  8
0
  2
YA_N
 10
812.60933172367402
 20
-6436.0955458567769
 30
0.0
  0
INSERT
  5
7B60
  8
0
  2
YA_N
 10
-832.05848836684106
 20
-7421.8356660085838
 30
0.0
 41
20.0
 42
20.0
 43
20.0
  0
INSERT
  5
7B62
  8
0
  2
YA_N
 10
-746.20729339933985
 20
-7511.5010979147592
 30
0.0
 41
20.0
 42
20.0
 43
20.0
  0
LINE
  5
7B64
  8
1
 10
3736.3914073276092
 20
2971.2806296530598
 30
0.0
 11
3736.3914073276092
 21
2356.2806296530612
 31
0.0
  0
LINE
  5
7B65
  8
1
 10
4418.3914073276101
 20
2971.2806296530598
 30
0.0
 11
4418.3914073276082
 21
2356.2806296530612
 31
0.0
  0
LINE
  5
7B67
  8
1
 10
3736.3914073276078
 20
2971.2806296530598
 30
0.0
 11
4418.3914073276101
 21
2971.2806296530598
 31
0.0
  0
LINE
  5
7B68
  8
1
 10
3728.8914073276078
 20
3083.7806296530612
 30
0.0
 11
4516.3914073276092
 21
3083.7806296530612
 31
0.0
  0
LINE
  5
7B69
  8
1
 10
3728.8914073276078
 20
3018.7806296530598
 30
0.0
 11
4514.0914073276108
 21
3018.7806296530598
 31
0.0
  0
LINE
  5
7B6A
  8
1
 10
3706.3914073276078
 20
3078.7806296530598
 30
0.0
 11
3728.8914073276078
 21
3078.7806296530598
 31
0.0
  0
LINE
  5
7B6B
  8
1
 10
3706.3914073276092
 20
3023.7806296530598
 30
0.0
 11
3728.8914073276078
 21
3023.7806296530598
 31
0.0
  0
LINE
  5
7B6C
  8
1
 10
3728.8914073276078
 20
3018.7806296530598
 30
0.0
 11
3728.8914073276078
 21
3083.7806296530612
 31
0.0
  0
LINE
  5
7B72
  8
2
 10
3857.1408213943209
 20
2631.2806296530612
 30
0.0
 11
3613.581502001578
 21
2631.2806296530612
 31
0.0
  0
LINE
  5
7B81
  8
1
 10
3651.7619562371451
 20
2607.2806296530621
 30
0.0
 11
3736.3914073276092
 21
2607.2806296530621
 31
0.0
  0
LINE
  5
7B82
  8
1
 10
3651.7619562371451
 20
2655.2806296530612
 30
0.0
 11
3736.3914073276092
 21
2655.2806296530621
 31
0.0
  0
LINE
  5
7B84
  8
1
 10
3651.7619562371451
 20
2655.2806296530612
 30
0.0
 11
3651.7619562371451
 21
2607.2806296530612
 31
0.0
  0
LINE
  5
7B8B
  8
1
 10
1274.3086280306561
 20
5223.7838946521206
 30
0.0
 11
1274.3086280306561
 21
5490.4685078566654
 31
0.0
  0
LINE
  5
7B8C
  8
1
 10
1274.3086280306561
 20
5490.4685078566654
 30
0.0
 11
1274.3086280306561
 21
5142.6959377438316
 31
0.0
  0
LINE
  5
7B8D
  8
1
 10
1729.3086280306541
 20
5083.1824699157214
 30
0.0
 11
1729.3086280306541
 21
5830.6824699157187
 31
0.0
  0
LINE
  5
7B8E
  8
1
 10
1794.3086280306541
 20
5083.1824699157214
 30
0.0
 11
1794.3086280306541
 21
5868.3824699157221
 31
0.0
  0
LINE
  5
7B8F
  8
2
 10
1761.8086280306541
 20
4918.1546293327228
 30
0.0
 11
1761.8086280306541
 21
6661.2021176734579
 31
0.0
  0
LINE
  5
7B90
  8
1
 10
1729.3086280306541
 20
5083.1824699157214
 30
0.0
 11
1794.3086280306541
 21
5083.1824699157214
 31
0.0
  0
LINE
  5
7B91
  8
1
 10
1965.008628030655
 20
5060.6824699157214
 30
0.0
 11
972.50018134176571
 21
5060.6824699157214
 31
0.0
  0
LINE
  5
7B92
  8
1
 10
2041.8086280306541
 20
4880.6824699157196
 30
0.0
 11
871.50018134176571
 21
4880.6824699157196
 31
0.0
  0
LINE
  5
7B93
  8
1
 10
1965.008628030655
 20
4950.6824699157214
 30
0.0
 11
972.50018134176571
 21
4950.6824699157214
 31
0.0
  0
LINE
  5
7B94
  8
1
 10
871.50018134176571
 20
4880.6824699157178
 30
0.0
 11
871.50018134176571
 21
5080.6824699157196
 31
0.0
  0
LINE
  5
7B95
  8
1
 10
1274.3086280306561
 20
5142.6959377438316
 30
0.0
 11
911.80862803065611
 21
5142.6959377438316
 31
0.0
  0
LINE
  5
7B96
  8
1
 10
972.50018134176571
 20
4950.6824699157214
 30
0.0
 11
972.50018134176571
 21
5060.6824699157214
 31
0.0
  0
LINE
  5
7B97
  8
1
 10
1067.808628030657
 20
5006.053018825256
 30
0.0
 11
1067.808628030657
 21
5116.0530188213861
 31
0.0
  0
LINE
  5
7B98
  8
1
 10
1115.8086280306561
 20
5006.053018825256
 30
0.0
 11
1115.8086280306561
 21
5116.0530188213861
 31
0.0
  0
LINE
  5
7B99
  8
1
 10
1558.6086280306549
 20
4950.6824699157214
 30
0.0
 11
1558.6086280306549
 21
5060.6824699157214
 31
0.0
  0
LINE
  5
7B9A
  8
1
 10
1115.8086280306561
 20
5006.053018825256
 30
0.0
 11
1067.8086280306561
 21
5006.053018825256
 31
0.0
  0
LINE
  5
7B9B
  8
1
 10
1210.500181341765
 20
4950.6824699157214
 30
0.0
 11
1210.500181341765
 21
5060.6824699157178
 31
0.0
  0
LINE
  5
7B9C
  8
1
 10
1734.3086280306541
 20
5060.6824699157214
 30
0.0
 11
1734.3086280306541
 21
5083.1824699157214
 31
0.0
  0
LINE
  5
7B9D
  8
1
 10
1058.387319084809
 20
5116.0530188213861
 30
0.0
 11
1123.2299369765019
 21
5116.0530188213861
 31
0.0
  0
LINE
  5
7B9E
  8
1
 10
1033.591179048057
 20
5121.0530188262474
 30
0.0
 11
1150.0260770132541
 21
5121.0530188262474
 31
0.0
  0
LINE
  5
7B9F
  8
1
 10
1058.387319084809
 20
5116.0530188213861
 30
0.0
 11
1058.3873190848101
 21
5121.0530188262474
 31
0.0
  0
LINE
  5
7BA0
  8
1
 10
1033.591179048057
 20
5142.6959377438316
 30
0.0
 11
1033.591179048057
 21
5121.0530188262474
 31
0.0
  0
LINE
  5
7BA1
  8
1
 10
1150.0260770132541
 20
5142.6959377438316
 30
0.0
 11
1150.0260770132541
 21
5121.0530188262474
 31
0.0
  0
LINE
  5
7BA2
  8
1
 10
1123.2299369765019
 20
5116.0530188213861
 30
0.0
 11
1123.2299369765019
 21
5121.0530188262474
 31
0.0
  0
LINE
  5
7BA3
  8
1
 10
2041.8086280306541
 20
4880.6824699157196
 30
0.0
 11
2041.8086280306541
 21
5080.6824699157196
 31
0.0
  0
LINE
  5
7BA4
  8
1
 10
1789.3086280306541
 20
5060.6824699157214
 30
0.0
 11
1789.3086280306541
 21
5083.1824699157214
 31
0.0
  0
LINE
  5
7BA5
  8
1
 10
1965.008628030655
 20
4950.6824699157214
 30
0.0
 11
1965.008628030655
 21
5060.6824699157214
 31
0.0
  0
LINE
  5
7BA6
  8
1
 10
2041.8086280306541
 20
5080.6824699157196
 30
0.0
 11
871.50018134176571
 21
5080.6824699157196
 31
0.0
  0
LINE
  5
7BA7
  8
1
 10
2404.8086280306538
 20
6540.6824699157214
 30
0.0
 11
1765.8086280306541
 21
6540.6824699157187
 31
0.0
  0
LINE
  5
7BA8
  8
1
 10
2404.8086280306538
 20
5870.6824699157196
 30
0.0
 11
1765.8086280306541
 21
5870.6824699157196
 31
0.0
  0
LINE
  5
7BAA
  8
1
 10
911.80862803065611
 20
5682.5530188262474
 30
0.0
 11
1274.3086280306561
 21
5682.5530188262474
 31
0.0
  0
LINE
  5
7BAB
  8
1
 10
911.80862803065611
 20
5500.5530188262483
 30
0.0
 11
911.80862803065611
 21
5682.5530188262474
 31
0.0
  0
LINE
  5
7BAC
  8
1
 10
911.80862803065611
 20
5142.6959377438316
 30
0.0
 11
911.80862803065611
 21
5500.5530188262483
 31
0.0
  0
LINE
  5
7BAD
  8
1
 10
1274.3086280306561
 20
5490.4685078566654
 30
0.0
 11
1274.3086280306561
 21
5682.5530188262483
 31
0.0
  0
LINE
  5
7BB3
  8
1
 10
1201.808628030655
 20
5870.6824699157214
 30
0.0
 11
1201.808628030655
 21
5865.6824699157214
 31
0.0
  0
LINE
  5
7BB4
  8
1
 10
1266.808628030655
 20
5870.6824699157196
 30
0.0
 11
1266.808628030655
 21
5865.6824699157214
 31
0.0
  0
LINE
  5
7BB5
  8
1
 10
2256.8086280306538
 20
5870.6824699157196
 30
0.0
 11
2256.8086280306538
 21
5865.6824699157214
 31
0.0
  0
LINE
  5
7BB6
  8
1
 10
2321.8086280306538
 20
5870.6824699157196
 30
0.0
 11
2321.8086280306538
 21
5800.6824699157196
 31
0.0
  0
DIMENSION
  5
7BC9
  8
3
  2
*D2
 10
1201.8086280306541
 20
6889.7609109744408
 30
0.0
 11
1763.9847534771829
 21
6889.7609109744408
 31
0.0
 70
   128
 13
2321.8086280306538
 23
6610.6824699157196
 33
0.0
 14
1201.8086280306541
 24
6610.6824699157196
 34
0.0
1001
ACAD
1000
DSTYLE
1002
{
1070
   287
1070
     3
1070
    40
1040
30.0
1070
   143
1040
0.039
1070
   172
1070
     1
1070
   271
1070
     0
1070
   279
1070
     0
1070
   288
1070
     1
1002
}
  0
DIMENSION
  5
7BD7
  8
3
  2
*D3
 10
891.80862803065429
 20
6889.7609109744408
 30
0.0
 11
1046.8086280306541
 21
6965.84949998507
 31
0.0
 12
0.0
 22
148.8785124606292
 32
0.0
 70
   128
 13
1201.8086280306541
 23
6610.6824699157196
 33
0.0
 14
891.80862803065429
 24
5865.6824699157214
 34
0.0
1001
ACAD
1000
DSTYLE
1002
{
1070
   288
1070
     1
1070
   172
1070
     1
1070
    40
1040
30.0
1070
   271
1070
     0
1070
   143
1040
0.039
1002
}
  0
DIMENSION
  5
7BF1
  8
3
  2
*D4
 10
2076.8086280306561
 20
4653.9264775967931
 30
0.0
 11
1482.810174374149
 21
4653.9264775967931
 31
0.0
 70
   128
 13
891.80862803065509
 23
5027.6824699157196
 33
0.0
 14
2076.8086280306561
 24
5027.6824699157196
 34
0.0
1001
ACAD
1000
DSTYLE
1002
{
1070
   287
1070
     3
1070
    40
1040
30.0
1070
   143
1040
0.039
1070
   172
1070
     1
1070
   271
1070
     0
1070
   279
1070
     0
1070
   288
1070
     1
1002
}
  0
DIMENSION
  5
7BFF
  8
3
  2
*D5
 10
2321.8086280306538
 20
4653.9264775967931
 30
0.0
 11
2557.5229137449401
 21
4653.9264775967931
 31
0.0
 70
   128
 13
2076.8086280306561
 23
5027.6824699157196
 33
0.0
 14
2321.8086280306538
 24
5800.6824699157196
 34
0.0
1001
ACAD
1000
DSTYLE
1002
{
1070
   287
1070
     2
1070
    40
1040
30.0
1070
   143
1040
0.039
1070
   172
1070
     1
1070
   271
1070
     0
1070
   279
1070
     0
1070
   288
1070
     1
1070
   289
1070
     2
1002
}
  0
LINE
  5
7C78
  8
1
 10
2076.8086280306552
 20
5800.6824699157196
 30
0.0
 11
2321.8086280306538
 21
5800.6824699157196
 31
0.0
  0
DIMENSION
  5
7C85
  8
3
  2
*D6
 10
1725.8086280306541
 20
3837.8121743971701
 30
0.0
 11
1281.304539407492
 21
3837.8121743971701
 31
0.0
 70
   128
 13
800.80862803065418
 23
3671.2806296530612
 33
0.0
 14
1725.8086280306541
 24
3671.2806296530612
 34
0.0
1001
ACAD
1000
DSTYLE
1002
{
1070
   287
1070
     3
1070
    40
1040
30.0
1070
   143
1040
0.039
1070
   172
1070
     1
1070
   271
1070
     0
1070
   279
1070
     0
1070
   288
1070
     1
1002
}
  0
DIMENSION
  5
7C92
  8
3
  2
*D7
 10
1761.8086280306541
 20
4015.3381039758369
 30
0.0
 11
1262.2996111218899
 21
4015.3381039758369
 31
0.0
 70
   128
 13
800.80862803065418
 23
3671.2806296530612
 33
0.0
 14
1761.8086280306541
 24
3707.5359684316081
 34
0.0
1001
ACAD
1000
DSTYLE
1002
{
1070
   287
1070
     3
1070
    40
1040
30.0
1070
   143
1040
0.039
1070
   172
1070
     1
1070
   271
1070
     0
1070
   279
1070
     0
1070
   288
1070
     1
1002
}
  0
DIMENSION
  5
7C9E
  8
3
  2
*D8
 10
2725.8661023534301
 20
2231.2806296530612
 30
0.0
 11
2650.8661023534291
 21
2641.2806296530621
 31
0.0
 70
     0
 13
2418.0639668092008
 23
3051.2806296530612
 33
0.0
 14
2321.8086280306538
 24
2231.2806296530612
 34
0.0
 50
270.0
1001
ACAD
1000
DSTYLE
1002
{
1070
   287
1070
     3
1070
    40
1040
30.0
1070
   143
1040
0.039
1070
   172
1070
     1
1070
   271
1070
     0
1070
   279
1070
     0
1070
   288
1070
     1
1002
}
  0
DIMENSION
  5
7D60
  8
3
  2
*D10
 10
5186.3914073276082
 20
3788.1745876517821
 30
0.0
 11
4850.6921420321587
 21
3788.1745876517821
 31
0.0
 70
   128
 13
4516.3914073276082
 23
3628.7806296530621
 33
0.0
 14
5186.3914073276082
 24
3628.7806296530621
 34
0.0
1001
ACAD
1000
DSTYLE
1002
{
1070
   287
1070
     3
1070
    40
1040
30.0
1070
   143
1040
0.039
1070
   172
1070
     1
1070
   271
1070
     0
1070
   279
1070
     0
1070
   288
1070
     1
1002
}
  0
DIMENSION
  5
7D70
  8
3
  2
*D11
 10
4851.391407327611
 20
3980.8267285752331
 30
0.0
 11
5020.3914073276101
 21
4051.7485105798082
 31
0.0
 12
0.0
 22
-332.51077596332101
 32
0.0
 70
   128
 13
5189.3914073276101
 23
3634.0732408691269
 33
0.0
 14
4851.391407327611
 24
3913.2014391711291
 34
0.0
1001
ACAD
1000
DSTYLE
1002
{
1070
   288
1070
     1
1070
   172
1070
     1
1070
    40
1040
30.0
1070
   271
1070
     0
1070
   143
1040
0.039
1002
}
  0
DIMENSION
  5
7DA0
  8
3
  2
*D12
 10
3526.3914073276101
 20
3980.8267285752331
 30
0.0
 11
4188.8914073276101
 21
4130.8267285752327
 31
0.0
 70
     0
  1
MAX\P1340
 13
4851.391407327611
 23
3913.2014391711291
 33
0.0
 14
3526.3914073276101
 24
3331.2806296530612
 34
0.0
1001
ACAD
1000
DSTYLE
1002
{
1070
   287
1070
     4
1070
    40
1040
30.0
1070
    75
1070
     1
1070
   143
1040
0.039
1070
   172
1070
     1
1070
   271
1070
     0
1070
   279
1070
     1
1070
   288
1070
     1
1002
}
  0
DIMENSION
  5
7DFD
  8
3
  2
*D13
 10
5447.0337941012704
 20
2576.2806296530612
 30
0.0
 11
5447.0337941012695
 21
3054.6471675784742
 31
0.0
 70
   128
 13
5186.3914073276082
 23
3526.2806296530612
 33
0.0
 14
5186.3914073276101
 24
2576.2806296530612
 34
0.0
 50
90.0
1001
ACAD
1000
DSTYLE
1002
{
1070
   287
1070
     3
1070
     3
1000
φ<>
1070
    40
1040
30.0
1070
   143
1040
0.039
1070
   172
1070
     1
1070
   271
1070
     0
1070
   279
1070
     0
1070
   288
1070
     1
1002
}
  0
LINE
  5
7E09
  8
4
 10
5550.0
 20
1500.0
 30
0.0
 11
5550.0
 21
900.0
 31
0.0
  0
LINE
  5
7E0A
  8
4
 10
3450.0
 20
1500.0
 30
0.0
 11
3450.0
 21
900.0
 31
0.0
  0
LINE
  5
7E0B
  8
4
 10
1950.0
 20
1500.0
 30
0.0
 11
1950.0
 21
600.0
 31
0.0
  0
LINE
  5
7E0E
  8
4
 10
1950.0
 20
900.0
 30
0.0
 11
5550.0
 21
900.0
 31
0.0
  0
LINE
  5
7E0F
  8
4
 10
1950.0
 20
1200.0
 30
0.0
 11
5550.0
 21
1200.0
 31
0.0
  0
TEXT
  5
7E10
  8
4
 10
2065.5062425407041
 20
1294.629077599838
 30
0.0
 40
150.0
  1
機器名称
  0
TEXT
  5
7E11
  8
4
 10
2058.7743180743919
 20
964.93547019603284
 30
0.0
 40
150.0
  1
機器型番
  0
TEXT
  5
7E12
  8
4
 10
3533.036236462995
 20
1267.715306872705
 30
0.0
 40
130.0
  1
ミツヤ多翼送風機
  0
TEXT
  5
7E13
  8
4
 10
3559.9634867564419
 20
951.47875283983012
 30
0.0
 40
150.0
  1
MF#5 1/2-1
  0
TEXT
  5
7E15
  8
4
 10
2452.306731152159
 20
7150.2865239975472
 30
0.0
 40
161.99999999999989
  1
床置防振ベット
  0
TEXT
  5
7E16
  8
4
 10
898.50277998833917
 20
7601.6429285978938
 30
0.0
 40
216.0
  1
遠心式片吸込片持多翼ファン
  0
LINE
  5
7E17
  8
4
 10
750.0
 20
7408.2262627944137
 30
0.0
 11
5550.0
 21
7408.2262627944137
 31
0.0
  0
LINE
  5
7E18
  8
4
 10
750.0
 20
8008.2262627944137
 30
0.0
 11
5550.0
 21
8008.2262627944137
 31
0.0
  0
LINE
  5
7E19
  8
4
 10
1950.0
 20
1500.0
 30
0.0
 11
5550.0
 21
1500.0
 31
0.0
  0
LINE
  5
7E1A
  8
4
 10
750.0
 20
8008.2262627944137
 30
0.0
 11
750.0
 21
7408.2262627944137
 31
0.0
  0
TEXT
  5
7E1B
  8
4
 10
1144.730234424052
 20
7146.9584326390304
 30
0.0
 40
161.99999999999989
  1
右回転上向
  0
TEXT
  5
7E1C
  8
4
 10
4406.9086777478688
 20
8118.1832444859256
 30
0.0
 40
168.0
  1
No.
  0
TEXT
  5
7E1D
  8
4
 10
3933.8881878000388
 20
7150.2865239975472
 30
0.0
 40
161.99999999999989
  1
縮尺：1/30
  0
LINE
  5
7E1E
  8
4
 10
5550.0
 20
8008.2262627944137
 30
0.0
 11
5550.0
 21
7408.2262627944137
 31
0.0
  0
LINE
  5
7E1F
  8
4
 10
6300.0
 20
8850.0
 30
0.0
 11
6300.0
 21
8850.0
 31
0.0
  0
LINE
  5
7E20
  8
4
 10
4321.8522670795937
 20
8043.790749376205
 30
0.0
 11
4321.8522670795937
 21
8359.9567846492573
 31
0.0
  0
LINE
  5
7E21
  8
4
 10
4321.8522670795937
 20
8359.9567846492573
 30
0.0
 11
5550.0
 21
8359.9567846492573
 31
0.0
  0
LINE
  5
7E22
  8
4
 10
5550.0
 20
8359.9567846492573
 30
0.0
 11
5550.0
 21
8043.790749376205
 31
0.0
  0
LINE
  5
7E23
  8
4
 10
5550.0
 20
8043.790749376205
 30
0.0
 11
4321.8522670795937
 21
8043.790749376205
 31
0.0
  0
LINE
  5
7E24
  8
4
 10
0.0
 20
0.0
 30
0.0
 11
0.0
 21
8850.0
 31
0.0
  0
LINE
  5
7E25
  8
4
 10
0.0
 20
8850.0
 30
0.0
 11
6300.0
 21
8850.0
 31
0.0
  0
LINE
  5
7E26
  8
4
 10
6300.0
 20
8850.0
 30
0.0
 11
6300.0
 21
0.0
 31
0.0
  0
LINE
  5
7E27
  8
4
 10
6300.0
 20
0.0
 30
0.0
 11
0.0
 21
0.0
 31
0.0
  0
LINE
  5
7F26
  8
1
 10
5186.3914073276082
 20
3051.2806296530612
 30
0.0
 11
5186.3914073276092
 21
2356.2806296530612
 31
0.0
  0
LINE
  5
7F27
  8
1
 10
4516.3914073276082
 20
3051.2806296530612
 30
0.0
 11
4516.3914073276092
 21
2356.2806296530612
 31
0.0
  0
DIMENSION
  5
7FBE
  8
1
 62
     2
  2
*D14
 10
2725.8661023534301
 20
3671.2806296530612
 30
0.0
 11
2650.8661023534291
 21
3361.2806296530621
 31
0.0
 70
     0
 13
2418.0639668092008
 23
3051.2806296530612
 33
0.0
 14
1768.3086280306541
 24
3671.2806296530612
 34
0.0
 50
90.0
1001
ACAD
1000
DSTYLE
1002
{
1070
   287
1070
     4
1070
    40
1040
30.0
1070
    75
1070
     1
1070
   143
1040
0.039
1070
   172
1070
     1
1070
   271
1070
     0
1070
   279
1070
     1
1070
   288
1070
     1
1002
}
  0
DIMENSION
  5
8036
  8
1
 62
     2
  2
*D15
 10
2404.8086280306538
 20
4015.3381039758369
 30
0.0
 11
2083.3086280306538
 21
4090.3381039758369
 31
0.0
 70
     0
 13
1761.8086280306541
 23
3707.5359684316081
 33
0.0
 14
2404.8086280306538
 24
2984.2806296530621
 34
0.0
1001
ACAD
1000
DSTYLE
1002
{
1070
   287
1070
     4
1070
    40
1040
30.0
1070
    75
1070
     1
1070
   143
1040
0.039
1070
   172
1070
     1
1070
   271
1070
     0
1070
   279
1070
     1
1070
   288
1070
     1
1002
}
  0
LINE
  5
8065
  8
1
 10
4474.3914073276073
 20
3631.2806296530612
 30
0.0
 11
5228.3914073276092
 21
3631.2806296530612
 31
0.0
  0
ARC
  5
8087
  8
1
 10
1761.8086280306541
 20
3051.2806296530612
 30
0.0
 40
280.0
 50
300.53892003520389
 51
128.91228862536931
  0
LINE
  5
808A
  8
1
 62
     4
 10
800.80862803065418
 20
5870.6824699157196
 30
0.0
 11
800.80862803065418
 21
6540.6824699157214
 31
0.0
  0
LINE
  5
808B
  8
1
 10
2404.8086280306538
 20
5870.6824699157196
 30
0.0
 11
2404.8086280306538
 21
6540.6824699157187
 31
0.0
  0
LINE
  5
8097
  8
1
 10
1765.8086280306541
 20
6580.6824699157196
 30
0.0
 11
760.8086280306544
 21
6580.6824699157214
 31
0.0
  0
LINE
  5
8098
  8
1
 62
     4
 10
760.80862803065406
 20
5830.6824699157196
 30
0.0
 11
760.8086280306544
 21
6580.6824699157214
 31
0.0
  0
LINE
  5
8099
  8
1
 10
1765.8086280306541
 20
5830.6824699157196
 30
0.0
 11
760.80862803065406
 21
5830.6824699157196
 31
0.0
  0
LINE
  5
809B
  8
1
 62
     4
 10
1725.8086280306541
 20
5870.6824699157196
 30
0.0
 11
1725.8086280306541
 21
6540.6824699157214
 31
0.0
  0
LINE
  5
809C
  8
1
 62
     4
 10
1765.8086280306541
 20
5830.6824699157196
 30
0.0
 11
1765.8086280306541
 21
6580.6824699157214
 31
0.0
  0
LINE
  5
809F
  8
1
 10
1725.8086280306541
 20
5870.6824699157196
 30
0.0
 11
800.8086280306544
 21
5870.6824699157196
 31
0.0
  0
LINE
  5
80A0
  8
1
 10
1725.8086280306541
 20
6540.6824699157214
 30
0.0
 11
800.8086280306544
 21
6540.6824699157214
 31
0.0
  0
LINE
  5
80A1
  8
1
 10
1725.8086280306541
 20
6540.6824699157214
 30
0.0
 11
800.80862803065406
 21
5870.6824699157196
 31
0.0
  0
LINE
  5
80A2
  8
1
 10
800.80862803065406
 20
6540.6824699157214
 30
0.0
 11
1725.8086280306541
 21
5870.6824699157196
 31
0.0
  0
LINE
  5
80A3
  8
1
 10
2076.8086280306538
 20
2356.2806296530612
 30
0.0
 11
2076.8086280306538
 21
2231.2806296530612
 31
0.0
  0
DIMENSION
  5
80BD
  8
3
  2
*D16
 10
2681.8404311946811
 20
5800.6824699157196
 30
0.0
 11
2681.8404311946788
 21
6202.8845273101606
 31
0.0
 70
   128
 13
2321.8086280306538
 23
6610.6824699157196
 33
0.0
 14
2321.8086280306538
 24
5800.6824699157196
 34
0.0
 50
90.0
1001
ACAD
1000
DSTYLE
1002
{
1070
   287
1070
     3
1070
    40
1040
30.0
1070
   143
1040
0.039
1070
   172
1070
     1
1070
   271
1070
     0
1070
   279
1070
     0
1070
   288
1070
     1
1002
}
  0
DIMENSION
  5
80C9
  8
3
  2
*D17
 10
2681.8404311946788
 20
5027.6824699157196
 30
0.0
 11
2606.8404311946788
 21
5414.1824699157214
 31
0.0
 70
     0
 13
2321.8086280306538
 23
5800.6824699157196
 33
0.0
 14
2076.8086280306561
 24
5027.6824699157196
 34
0.0
 50
90.0
1001
ACAD
1000
DSTYLE
1002
{
1070
   287
1070
     4
1070
    40
1040
30.0
1070
    75
1070
     1
1070
   143
1040
0.039
1070
   172
1070
     1
1070
   271
1070
     0
1070
   279
1070
     1
1070
   288
1070
     1
1002
}
  0
DIMENSION
  5
80E1
  8
3
  2
*D18
 10
663.35495972685828
 20
5027.6824699157196
 30
0.0
 11
663.35495972685749
 21
5456.791412708626
 31
0.0
 70
   128
 13
891.80862803065429
 23
5865.6824699157214
 33
0.0
 14
891.80862803065509
 24
5027.6824699157196
 34
0.0
 50
90.0
1001
ACAD
1000
DSTYLE
1002
{
1070
   287
1070
     3
1070
    40
1040
30.0
1070
   143
1040
0.039
1070
   172
1070
     1
1070
   271
1070
     0
1070
   279
1070
     0
1070
   288
1070
     1
1002
}
  0
LINE
  5
80EA
  8
1
 10
4446.3914073276092
 20
2356.2806296530612
 30
0.0
 11
4446.3914073276092
 21
2231.2806296530612
 31
0.0
  0
DIMENSION
  5
8147
  8
3
  2
*D19
 10
2404.8086280306538
 20
4208.3918393318454
 30
0.0
 11
1592.9059807028491
 21
4208.3918393318454
 31
0.0
 70
   128
 13
758.30862803065429
 23
3671.2806296530612
 33
0.0
 14
2404.8086280306538
 24
2984.2806296530621
 34
0.0
1001
ACAD
1000
DSTYLE
1002
{
1070
   287
1070
     3
1070
    40
1040
30.0
1070
   143
1040
0.039
1070
   172
1070
     1
1070
   271
1070
     0
1070
   279
1070
     0
1070
   288
1070
     1
1002
}
  0
LINE
  5
81AE
  8
1
 10
891.80862803065429
 20
2061.2806296530612
 30
0.0
 11
2321.8086280306561
 21
2061.2806296530612
 31
0.0
1001
ACAD
1000
ASC_BOUNDS
1002
{
1070
    19
1005
0
1002
}
  0
LINE
  5
81AF
  8
1
 10
891.80862803065429
 20
2186.2806296530612
 30
0.0
 11
891.80862803065429
 21
2061.2806296530612
 31
0.0
  0
LINE
  5
81B0
  8
1
 10
891.80862803065429
 20
2186.2806296530612
 30
0.0
 11
2321.8086280306561
 21
2186.2806296530612
 31
0.0
  0
LINE
  5
81B1
  8
1
 10
2321.8086280306538
 20
2186.2806296530612
 30
0.0
 11
2321.8086280306538
 21
2061.2806296530612
 31
0.0
  0
LINE
  5
81B2
  8
1
 10
2076.8086280306538
 20
2186.2806296530612
 30
0.0
 11
2076.8086280306538
 21
2061.2806296530612
 31
0.0
  0
LINE
  5
81B3
  8
1
 10
3673.3914073276078
 20
2061.2806296530612
 30
0.0
 11
5256.3914073276082
 21
2061.2806296530612
 31
0.0
1001
ACAD
1000
ASC_BOUNDS
1002
{
1070
    19
1002
}
  0
LINE
  5
81B4
  8
1
 10
3673.3914073276078
 20
2186.2806296530612
 30
0.0
 11
3673.3914073276078
 21
2061.2806296530612
 31
0.0
  0
LINE
  5
81B5
  8
1
 10
3673.3914073276078
 20
2186.2806296530612
 30
0.0
 11
5256.3914073276082
 21
2186.2806296530612
 31
0.0
  0
LINE
  5
81B6
  8
1
 10
5256.3914073276082
 20
2186.2806296530612
 30
0.0
 11
5256.3914073276082
 21
2061.2806296530612
 31
0.0
  0
LINE
  5
81B7
  8
1
 10
4446.3914073276092
 20
2186.2806296530612
 30
0.0
 11
4446.3914073276092
 21
2061.2806296530612
 31
0.0
  0
DIMENSION
  5
81C4
  8
3
  2
*D20
 10
1761.8086280306541
 20
1869.3380659276879
 30
0.0
 11
1326.8086280306541
 21
1944.3380659276879
 31
0.0
 70
     0
 13
891.80862803065429
 23
2061.2806296530612
 33
0.0
 14
1761.8086280306541
 24
2061.2806296530612
 34
0.0
1001
ACAD
1000
DSTYLE
1002
{
1070
   287
1070
     3
1070
    40
1040
30.0
1070
   143
1040
0.039
1070
   172
1070
     1
1070
   271
1070
     0
1070
   279
1070
     0
1002
}
  0
DIMENSION
  5
81D1
  8
3
  2
*D21
 10
2321.8086280306561
 20
1869.3380659276879
 30
0.0
 11
2041.808628030655
 21
1944.3380659276879
 31
0.0
 70
     0
 13
1761.8086280306541
 23
2061.2806296530612
 33
0.0
 14
2321.8086280306561
 24
2061.2806296530612
 34
0.0
1001
ACAD
1000
DSTYLE
1002
{
1070
   287
1070
     3
1070
    40
1040
30.0
1070
   143
1040
0.039
1070
   172
1070
     1
1070
   271
1070
     0
1070
   279
1070
     0
1002
}
  0
DIMENSION
  5
81DE
  8
3
  2
*D22
 10
4851.3914073276082
 20
1869.3380659276879
 30
0.0
 11
4262.3914073276082
 21
1944.3380659276879
 31
0.0
 70
     0
 13
3673.3914073276078
 23
2061.2806296530612
 33
0.0
 14
4851.3914073276082
 24
2061.2806296530612
 34
0.0
1001
ACAD
1000
DSTYLE
1002
{
1070
   287
1070
     3
1070
    40
1040
30.0
1070
   143
1040
0.039
1070
   172
1070
     1
1070
   271
1070
     0
1070
   279
1070
     0
1002
}
  0
DIMENSION
  5
81ED
  8
3
  2
*D23
 10
5256.3914073276082
 20
1869.3380659276879
 30
0.0
 11
5053.8914073276082
 21
1944.3380659276879
 31
0.0
 70
     0
 13
4851.3914073276082
 23
2061.2806296530612
 33
0.0
 14
5256.3914073276082
 24
2061.2806296530612
 34
0.0
1001
ACAD
1000
DSTYLE
1002
{
1070
   287
1070
     3
1070
    40
1040
30.0
1070
   143
1040
0.039
1070
   172
1070
     1
1070
   271
1070
     0
1070
   279
1070
     0
1002
}
  0
DIMENSION
  5
81FC
  8
3
  2
*D24
 10
2722.9093557717902
 20
2061.2806296530612
 30
0.0
 11
2647.9093557717888
 21
1804.137772510205
 31
0.0
 70
     0
 13
2321.8086280306561
 23
2186.2806296530612
 33
0.0
 14
2321.8086280306561
 24
2061.2806296530612
 34
0.0
 50
90.0
1001
ACAD
1000
DSTYLE
1002
{
1070
   287
1070
     3
1070
    40
1040
30.0
1070
   143
1040
0.039
1070
   172
1070
     1
1070
   271
1070
     0
1070
   279
1070
     0
1070
     6
1000
DOT
1002
}
  0
DIMENSION
  5
820B
  8
3
  2
*D25
 10
2722.9093557717902
 20
2231.2806296530612
 30
0.0
 11
2866.4807843432181
 21
2208.7806296530612
 31
0.0
 70
     0
 13
2321.8086280306538
 23
2186.2806296530612
 33
0.0
 14
2321.8086280306538
 24
2231.2806296530612
 34
0.0
 50
90.0
1001
ACAD
1000
DSTYLE
1002
{
1070
   172
1070
     1
1070
    40
1040
30.0
1070
     3
1000
(<>)
1070
   271
1070
     0
1070
     6
1000
_DOT
1070
   143
1040
0.039
1002
}
  0
DIMENSION
  5
8218
  8
3
  2
*D26
 10
2977.4892925233539
 20
2061.2806296530612
 30
0.0
 11
2878.9178639519259
 21
2866.2806296530612
 31
0.0
 70
     0
 13
1768.3086280306541
 23
3671.2806296530612
 33
0.0
 14
2321.8086280306538
 24
2061.2806296530612
 34
0.0
 50
90.0
1001
ACAD
1000
DSTYLE
1002
{
1070
   172
1070
     1
1070
    40
1040
30.0
1070
     3
1000
(<>)
1070
   271
1070
     0
1070
   143
1040
0.039
1002
}
  0
LINE
  5
821D
  8
1
 10
1526.8086280306541
 20
2971.2806296530598
 30
0.0
 11
1996.8086280306541
 21
2971.2806296530612
 31
0.0
  0
LINE
  5
821F
  8
1
 10
1996.8086280306541
 20
2971.2806296530598
 30
0.0
 11
2076.8086280306538
 21
2356.2806296530612
 31
0.0
  0
LINE
  5
8220
  8
1
 10
1526.8086280306541
 20
2971.2806296530598
 30
0.0
 11
1446.8086280306541
 21
2356.2806296530612
 31
0.0
  0
LINE
  5
8229
  8
1
 10
1526.8086280306541
 20
5090.6824699157196
 30
0.0
 11
1526.8086280306541
 21
5772.6824699157214
 31
0.0
  0
LINE
  5
822A
  8
1
 10
1996.8086280306541
 20
5090.6824699157196
 30
0.0
 11
1996.8086280306541
 21
5772.6824699157214
 31
0.0
  0
LINE
  5
822B
  8
1
 10
1526.8086280306541
 20
5090.6824699157196
 30
0.0
 11
1729.3086280306541
 21
5090.6824699157187
 31
0.0
  0
LINE
  5
822C
  8
1
 10
1526.8086280306541
 20
5772.6824699157214
 30
0.0
 11
1729.3086280306541
 21
5772.6824699157214
 31
0.0
  0
LINE
  5
822D
  8
1
 10
1794.3086280306541
 20
5772.6824699157214
 30
0.0
 11
1996.8086280306541
 21
5772.6824699157214
 31
0.0
  0
LINE
  5
822E
  8
1
 10
1794.3086280306541
 20
5090.6824699157196
 30
0.0
 11
1996.8086280306541
 21
5090.6824699157187
 31
0.0
  0
ARC
  5
8233
  8
1
 10
1694.8086280306541
 20
3118.2806296530621
 30
0.0
 40
844.0
 50
241.47852265516619
 51
244.53440057003479
  0
ENDSEC
  0
EOF
