  0
SECTION
  2
HEADER
  9
$ACADVER
  1
AC1009
  9
$INSBASE
 10
0.0
 20
0.0
 30
0.0
  9
$EXTMIN
 10
0.0
 20
0.0
 30
0.0
  9
$EXTMAX
 10
6300.0
 20
8850.0
 30
0.0
  9
$LIMMIN
 10
0.0
 20
0.0
  9
$LIMMAX
 10
297.0
 20
210.0
  9
$ORTHOMODE
 70
     0
  9
$REGENMODE
 70
     1
  9
$FILLMODE
 70
     0
  9
$QTEXTMODE
 70
     0
  9
$MIRRTEXT
 70
     1
  9
$DRAGMODE
 70
     2
  9
$LTSCALE
 40
100.0
  9
$OSMODE
 70
    37
  9
$ATTMODE
 70
     1
  9
$TEXTSIZE
 40
180.0
  9
$TRACEWID
 40
0.05
  9
$TEXTSTYLE
  7
STANDARD
  9
$CLAYER
  8
3
  9
$CELTYPE
  6
BYLAYER
  9
$CECOLOR
 62
   256
  9
$DIMSCALE
 40
30.0
  9
$DIMASZ
 40
2.0
  9
$DIMEXO
 40
0.5
  9
$DIMDLI
 40
10.0
  9
$DIMRND
 40
0.0
  9
$DIMDLE
 40
0.0
  9
$DIMEXE
 40
1.0
  9
$DIMTP
 40
1.0
  9
$DIMTM
 40
1.0
  9
$DIMTXT
 40
3.0
  9
$DIMCEN
 40
0.0
  9
$DIMTSZ
 40
0.0
  9
$DIMTOL
 70
     0
  9
$DIMLIM
 70
     0
  9
$DIMTIH
 70
     0
  9
$DIMTOH
 70
     0
  9
$DIMSE1
 70
     0
  9
$DIMSE2
 70
     0
  9
$DIMTAD
 70
     1
  9
$DIMZIN
 70
     8
  9
$DIMBLK
  1

  9
$DIMASO
 70
     1
  9
$DIMSHO
 70
     1
  9
$DIMPOST
  1
(<>)
  9
$DIMAPOST
  1

  9
$DIMALT
 70
     0
  9
$DIMALTD
 70
     2
  9
$DIMALTF
 40
0.039
  9
$DIMLFAC
 40
1.0
  9
$DIMTOFL
 70
     1
  9
$DIMTVP
 40
0.0
  9
$DIMTIX
 70
     0
  9
$DIMSOXD
 70
     0
  9
$DIMSAH
 70
     1
  9
$DIMBLK1
  1
OPEN
  9
$DIMBLK2
  1
OPEN
  9
$DIMSTYLE
  2
IGA
  9
$DIMCLRD
 70
     0
  9
$DIMCLRE
 70
     0
  9
$DIMCLRT
 70
     0
  9
$DIMTFAC
 40
10.0
  9
$DIMGAP
 40
1.0
  9
$LUNITS
 70
     2
  9
$LUPREC
 70
     3
  9
$SKETCHINC
 40
0.1
  9
$FILLETRAD
 40
50.0
  9
$AUNITS
 70
     0
  9
$AUPREC
 70
     0
  9
$MENU
  1
acad
  9
$ELEVATION
 40
0.0
  9
$PELEVATION
 40
0.0
  9
$THICKNESS
 40
0.0
  9
$LIMCHECK
 70
     0
  9
$BLIPMODE
 70
     0
  9
$CHAMFERA
 40
0.5
  9
$CHAMFERB
 40
0.5
  9
$SKPOLY
 70
     0
  9
$TDCREATE
 40
2452521.4636486112
  9
$TDUPDATE
 40
2454953.7592473142
  9
$TDINDWG
 40
0.0337303356
  9
$TDUSRTIMER
 40
0.0337303356
  9
$USRTIMER
 70
     1
  9
$ANGBASE
 50
0.0
  9
$ANGDIR
 70
     0
  9
$PDMODE
 70
     0
  9
$PDSIZE
 40
0.0
  9
$PLINEWID
 40
0.0
  9
$COORDS
 70
     1
  9
$SPLFRAME
 70
     0
  9
$SPLINETYPE
 70
     6
  9
$SPLINESEGS
 70
     8
  9
$ATTDIA
 70
     0
  9
$ATTREQ
 70
     1
  9
$HANDLING
 70
 10241
  9
$HANDSEED
  5
8199
  9
$SURFTAB1
 70
     6
  9
$SURFTAB2
 70
     6
  9
$SURFTYPE
 70
     6
  9
$SURFU
 70
     6
  9
$SURFV
 70
     6
  9
$UCSNAME
  2

  9
$UCSORG
 10
0.0
 20
0.0
 30
0.0
  9
$UCSXDIR
 10
1.0
 20
0.0
 30
0.0
  9
$UCSYDIR
 10
0.0
 20
1.0
 30
0.0
  9
$PUCSNAME
  2

  9
$PUCSORG
 10
0.0
 20
0.0
 30
0.0
  9
$PUCSXDIR
 10
1.0
 20
0.0
 30
0.0
  9
$PUCSYDIR
 10
0.0
 20
1.0
 30
0.0
  9
$USERI1
 70
     0
  9
$USERI2
 70
     0
  9
$USERI3
 70
     0
  9
$USERI4
 70
     0
  9
$USERI5
 70
     0
  9
$USERR1
 40
0.0
  9
$USERR2
 40
0.0
  9
$USERR3
 40
0.0
  9
$USERR4
 40
0.0
  9
$USERR5
 40
0.0
  9
$WORLDVIEW
 70
     1
  9
$SHADEDGE
 70
     3
  9
$SHADEDIF
 70
    70
  9
$TILEMODE
 70
     1
  9
$MAXACTVP
 70
    16
  9
$PLIMCHECK
 70
     0
  9
$PEXTMIN
 10
1.0000000000000000E+020
 20
1.0000000000000000E+020
 30
1.0000000000000000E+020
  9
$PEXTMAX
 10
-1.0000000000000000E+020
 20
-1.0000000000000000E+020
 30
-1.0000000000000000E+020
  9
$PLIMMIN
 10
0.0
 20
0.0
  9
$PLIMMAX
 10
12.0
 20
9.0
  9
$UNITMODE
 70
     0
  9
$VISRETAIN
 70
     0
  9
$PLINEGEN
 70
     0
  9
$PSLTSCALE
 70
     1
  0
ENDSEC
  0
SECTION
  2
TABLES
  0
TABLE
  2
VPORT
 70
     2
  0
VPORT
  2
*ACTIVE
 70
     0
 10
0.0
 20
0.0
 11
1.0
 21
1.0
 12
10609.8298765541
 22
4425.0000206055138
 13
0.0
 23
0.0
 14
10.0
 24
10.0
 15
10.0
 25
10.0
 16
0.0
 26
0.0
 36
1.0
 17
0.0
 27
0.0
 37
0.0
 40
8917.8446490508068
 41
3.1666666666666661
 42
50.0
 43
0.0
 44
0.0
 50
0.0
 51
0.0
 71
     0
 72
   100
 73
     1
 74
     0
 75
     0
 76
     0
 77
     0
 78
     0
  0
ENDTAB
  0
TABLE
  2
LTYPE
 70
     2
  0
LTYPE
  2
CONTINUOUS
 70
     0
  3
Solid line
 72
    65
 73
     0
 40
0.0
  0
LTYPE
  2
CENTER
 70
     0
  3
____ _ ____ _ ____ _ ____ _ ____ _ ____ _ ____ 
 72
    65
 73
     4
 40
2.0
 49
1.25
 49
-0.25
 49
0.25
 49
-0.25
  0
ENDTAB
  0
TABLE
  2
LAYER
 70
     6
  0
LAYER
  2
0
 70
     0
 62
     7
  6
CONTINUOUS
  0
LAYER
  2
3
 70
     0
 62
     2
  6
CONTINUOUS
  0
LAYER
  2
2
 70
     0
 62
     3
  6
CENTER
  0
LAYER
  2
1
 70
     0
 62
     4
  6
CONTINUOUS
  0
LAYER
  2
4
 70
     0
 62
     7
  6
CONTINUOUS
  0
LAYER
  2
DEFPOINTS
 70
     0
 62
     7
  6
CONTINUOUS
  0
ENDTAB
  0
TABLE
  2
STYLE
 70
     1
  0
STYLE
  2
STANDARD
 70
     0
 40
0.0
 41
1.0
 50
0.0
 71
     0
 42
180.0
  3
simplex.shx
  4
extfont.shx
  0
ENDTAB
  0
TABLE
  2
VIEW
 70
     0
  0
ENDTAB
  0
TABLE
  2
UCS
 70
     0
  0
ENDTAB
  0
TABLE
  2
APPID
 70
     1
  0
APPID
  2
ACAD
 70
     0
  0
ENDTAB
  0
TABLE
  2
DIMSTYLE
 70
     1
  0
DIMSTYLE
  2
IGA
 70
     0
  3

  4

  5

  6
OPEN
  7
OPEN
 40
2.0
 41
2.0
 42
0.5
 43
10.0
 44
1.0
 45
0.0
 46
0.0
 47
1.0
 48
1.0
140
3.0
141
0.0
142
0.0
143
0.03937
144
1.0
145
0.0
146
10.0
147
1.0
 71
     0
 72
     0
 73
     0
 74
     0
 75
     0
 76
     0
 77
     1
 78
     8
170
     0
171
     2
172
     0
173
     1
174
     0
175
     0
176
     0
177
     0
178
     0
  0
ENDTAB
  0
ENDSEC
  0
SECTION
  2
BLOCKS
  0
BLOCK
  8
0
  2
$MODEL_SPACE
 70
     0
 10
0.0
 20
0.0
 30
0.0
  3
$MODEL_SPACE
  1

  0
ENDBLK
  5
1B
  8
0
  0
BLOCK
 67
     1
  8
0
  2
$PAPER_SPACE
 70
     0
 10
0.0
 20
0.0
 30
0.0
  3
$PAPER_SPACE
  1

  0
ENDBLK
  5
18
 67
     1
  8
0
  0
BLOCK
  8
0
  2
YA_N
 70
     0
 10
0.0
 20
0.0
 30
0.0
  3
YA_N
  1

  0
ENDBLK
  5
79FE
  8
0
  0
BLOCK
  8
0
  2
_OPEN
 70
     0
 10
0.0
 20
0.0
 30
0.0
  3
_OPEN
  1

  0
LINE
  5
7BB9
  8
0
  6
BYBLOCK
 62
     0
 10
-1.0
 20
0.1666666666666666
 30
0.0
 11
0.0
 21
0.0
 31
0.0
  0
LINE
  5
7BBA
  8
0
  6
BYBLOCK
 62
     0
 10
0.0
 20
0.0
 30
0.0
 11
-1.0
 21
-0.1666666666666666
 31
0.0
  0
LINE
  5
7BBB
  8
0
  6
BYBLOCK
 62
     0
 10
0.0
 20
0.0
 30
0.0
 11
-1.0
 21
0.0
 31
0.0
  0
ENDBLK
  5
7BBC
  8
0
  0
BLOCK
  8
0
  2
*D2
 70
     1
 10
0.0
 20
0.0
 30
0.0
  3
*D2
  1

  0
LINE
  5
80CE
  8
3
 62
     0
 10
2321.8086280306538
 20
6476.8039574550912
 30
0.0
 11
2321.8086280306538
 21
6770.8823985138106
 31
0.0
  0
LINE
  5
80CF
  8
3
 62
     0
 10
1201.8086280306541
 20
6476.8039574550912
 30
0.0
 11
1201.8086280306541
 21
6770.8823985138106
 31
0.0
  0
LINE
  5
80D0
  8
3
 62
     0
 10
2261.8086280306538
 20
6740.8823985138106
 30
0.0
 11
1261.8086280306541
 21
6740.8823985138106
 31
0.0
  0
INSERT
  5
80D1
  8
3
 62
     0
  2
_OPEN
 10
2321.8086280306538
 20
6740.8823985138106
 30
0.0
 41
60.0
 42
60.0
 43
60.0
  0
INSERT
  5
80D2
  8
3
 62
     0
  2
_OPEN
 10
1201.8086280306541
 20
6740.8823985138106
 30
0.0
 41
60.0
 42
60.0
 43
60.0
 50
180.0
  0
TEXT
  8
3
  40
90
  5
8184
  62
0
  72
0
  71
0
 10
1583.98
 20
6656.58
 30
0.000000
  1
1120
  0
POINT
  5
80D4
  8
DEFPOINTS
 62
     0
 10
2321.8086280306538
 20
6461.8039574550921
 30
0.0
  0
POINT
  5
80D5
  8
DEFPOINTS
 62
     0
 10
1201.8086280306541
 20
6461.8039574550921
 30
0.0
  0
POINT
  5
80D6
  8
DEFPOINTS
 62
     0
 10
1201.8086280306541
 20
6740.8823985138106
 30
0.0
  0
ENDBLK
  5
7E96
  8
0
  0
BLOCK
  8
0
  2
*D3
 70
     1
 10
0.0
 20
0.0
 30
0.0
  3
*D3
  1

  0
LINE
  5
7E98
  8
0
  6
BYBLOCK
 62
     0
 10
1201.8086280306541
 20
6476.8039574550912
 30
0.0
 11
1201.8086280306541
 21
6770.8823985138106
 31
0.0
  0
LINE
  5
7E99
  8
0
  6
BYBLOCK
 62
     0
 10
891.80862803065429
 20
5731.8039574550921
 30
0.0
 11
891.80862803065429
 21
6770.8823985138106
 31
0.0
  0
LINE
  5
7E9A
  8
0
  6
BYBLOCK
 62
     0
 10
1141.8086280306541
 20
6740.8823985138106
 30
0.0
 11
951.80862803065418
 21
6740.8823985138106
 31
0.0
  0
TEXT
  5
7E9B
  8
3
 62
     0
 10
939.66577088779718
 20
6771.9709875244398
 30
0.0
 40
90.0
  1
310
  0
INSERT
  5
7E9C
  8
0
  6
BYBLOCK
 62
     0
  2
_OPEN
 10
1201.8086280306541
 20
6740.8823985138106
 30
0.0
 41
60.0
 42
60.0
 43
60.0
  0
INSERT
  5
7E9D
  8
0
  6
BYBLOCK
 62
     0
  2
_OPEN
 10
891.80862803065429
 20
6740.8823985138106
 30
0.0
 41
60.0
 42
60.0
 43
60.0
 50
180.0
  0
POINT
  5
7E9E
  8
DEFPOINTS
  6
BYBLOCK
 62
     0
 10
1201.8086280306541
 20
6461.8039574550921
 30
0.0
  0
POINT
  5
7E9F
  8
DEFPOINTS
  6
BYBLOCK
 62
     0
 10
891.80862803065429
 20
5716.8039574550912
 30
0.0
  0
POINT
  5
7EA0
  8
DEFPOINTS
  6
BYBLOCK
 62
     0
 10
891.80862803065429
 20
6740.8823985138106
 30
0.0
  0
ENDBLK
  5
7EA1
  8
0
  0
BLOCK
  8
0
  2
*D4
 70
     1
 10
0.0
 20
0.0
 30
0.0
  3
*D4
  1

  0
LINE
  5
80D7
  8
3
 62
     0
 10
876.80862803065509
 20
4878.8039574550912
 30
0.0
 11
609.28643706505761
 21
4878.8039574550912
 31
0.0
  0
LINE
  5
80D8
  8
3
 62
     0
 10
876.80862803065418
 20
5716.8039574550912
 30
0.0
 11
609.28643706505773
 21
5716.8039574550912
 31
0.0
  0
LINE
  5
80D9
  8
3
 62
     0
 10
639.28643706505761
 20
4938.8039574550921
 30
0.0
 11
639.28643706505773
 21
5656.8039574550921
 31
0.0
  0
INSERT
  5
80DA
  8
3
 62
     0
  2
_OPEN
 10
639.28643706505761
 20
4878.8039574550912
 30
0.0
 41
60.0
 42
60.0
 43
60.0
 50
270.0
  0
INSERT
  5
80DB
  8
3
 62
     0
  2
_OPEN
 10
639.28643706505773
 20
5716.8039574550912
 30
0.0
 41
60.0
 42
60.0
 43
60.0
 50
90.0
  0
TEXT
  8
3
  40
90
  5
8185
  62
0
  72
0
  71
0
 10
384.286
 20
5135.90
 30
0.000000
  1
838
  0
POINT
  5
80DD
  8
DEFPOINTS
 62
     0
 10
891.80862803065509
 20
4878.8039574550912
 30
0.0
  0
POINT
  5
80DE
  8
DEFPOINTS
 62
     0
 10
891.80862803065429
 20
5716.8039574550912
 30
0.0
  0
POINT
  5
80DF
  8
DEFPOINTS
 62
     0
 10
639.28643706505773
 20
5716.8039574550912
 30
0.0
  0
ENDBLK
  5
7EAC
  8
0
  0
BLOCK
  8
0
  2
*D5
 70
     1
 10
0.0
 20
0.0
 30
0.0
  3
*D5
  1

  0
LINE
  5
80E0
  8
3
 62
     0
 10
891.80862803065509
 20
4863.8039574550912
 30
0.0
 11
891.80862803065509
 21
4475.0479651361629
 31
0.0
  0
LINE
  5
80E1
  8
3
 62
     0
 10
2076.8086280306561
 20
4863.8039574550912
 30
0.0
 11
2076.8086280306561
 21
4475.0479651361629
 31
0.0
  0
LINE
  5
80E2
  8
3
 62
     0
 10
951.80862803065509
 20
4505.0479651361638
 30
0.0
 11
2016.8086280306561
 21
4505.0479651361638
 31
0.0
  0
INSERT
  5
80E3
  8
3
 62
     0
  2
_OPEN
 10
891.80862803065509
 20
4505.0479651361638
 30
0.0
 41
60.0
 42
60.0
 43
60.0
 50
180.0
  0
INSERT
  5
80E4
  8
3
 62
     0
  2
_OPEN
 10
2076.8086280306561
 20
4505.0479651361638
 30
0.0
 41
60.0
 42
60.0
 43
60.0
  0
TEXT
  8
3
  40
90
  5
8186
  62
0
  72
0
  71
0
 10
1302.81
 20
4420.75
 30
0.000000
  1
1185
  0
POINT
  5
80E6
  8
DEFPOINTS
 62
     0
 10
891.80862803065509
 20
4878.8039574550912
 30
0.0
  0
POINT
  5
80E7
  8
DEFPOINTS
 62
     0
 10
2076.8086280306561
 20
4878.8039574550912
 30
0.0
  0
POINT
  5
80E8
  8
DEFPOINTS
 62
     0
 10
2076.8086280306561
 20
4505.0479651361638
 30
0.0
  0
ENDBLK
  5
7E8B
  8
0
  0
BLOCK
  8
0
  2
*D6
 70
     1
 10
0.0
 20
0.0
 30
0.0
  3
*D6
  1

  0
LINE
  5
80E9
  8
3
 62
     0
 10
2076.8086280306561
 20
4863.8039574550912
 30
0.0
 11
2076.8086280306561
 21
4475.0479651361629
 31
0.0
  0
LINE
  5
80EA
  8
3
 62
     0
 10
2321.8086280306538
 20
5644.8039574550912
 30
0.0
 11
2321.8086280306538
 21
4475.0479651361629
 31
0.0
  0
LINE
  5
80EB
  8
3
 62
     0
 10
2136.8086280306561
 20
4505.0479651361638
 30
0.0
 11
2261.8086280306538
 21
4505.0479651361638
 31
0.0
  0
LINE
  5
80EC
  8
3
 62
     0
 10
2321.8086280306538
 20
4505.0479651361638
 30
0.0
 11
2703.2371994592258
 21
4505.0479651361638
 31
0.0
  0
INSERT
  5
80ED
  8
3
 62
     0
  2
_OPEN
 10
2076.8086280306561
 20
4505.0479651361638
 30
0.0
 41
60.0
 42
60.0
 43
60.0
 50
180.0
  0
INSERT
  5
80EE
  8
3
 62
     0
  2
_OPEN
 10
2321.8086280306538
 20
4505.0479651361638
 30
0.0
 41
60.0
 42
60.0
 43
60.0
  0
TEXT
  8
3
  40
90
  5
8187
  62
0
  72
0
  71
0
 10
2377.52
 20
4420.75
 30
0.000000
  1
245
  0
POINT
  5
80F0
  8
DEFPOINTS
 62
     0
 10
2076.8086280306561
 20
4878.8039574550912
 30
0.0
  0
POINT
  5
80F1
  8
DEFPOINTS
 62
     0
 10
2321.8086280306538
 20
5659.8039574550912
 30
0.0
  0
POINT
  5
80F2
  8
DEFPOINTS
 62
     0
 10
2321.8086280306538
 20
4505.0479651361638
 30
0.0
  0
ENDBLK
  5
7FC4
  8
0
  0
BLOCK
  8
0
  2
*D7
 70
     1
 10
0.0
 20
0.0
 30
0.0
  3
*D7
  1

  0
LINE
  5
80F3
  8
3
 62
     0
 10
2396.8086280306538
 20
3765.8194401879659
 30
0.0
 11
2578.3401727747628
 21
3765.8194401879659
 31
0.0
  0
LINE
  5
80F4
  8
3
 62
     0
 10
2396.8086280306538
 20
2840.8194401879659
 30
0.0
 11
2578.3401727747619
 21
2840.8194401879659
 31
0.0
  0
LINE
  5
80F5
  8
3
 62
     0
 10
2548.3401727747628
 20
3705.8194401879659
 30
0.0
 11
2548.3401727747619
 21
2900.8194401879659
 31
0.0
  0
INSERT
  5
80F6
  8
3
 62
     0
  2
_OPEN
 10
2548.3401727747628
 20
3765.8194401879659
 30
0.0
 41
60.0
 42
60.0
 43
60.0
 50
90.0
  0
INSERT
  5
80F7
  8
3
 62
     0
  2
_OPEN
 10
2548.3401727747619
 20
2840.8194401879659
 30
0.0
 41
60.0
 42
60.0
 43
60.0
 50
270.0
  0
TEXT
  8
3
  40
90
  5
8188
  62
0
  72
0
  71
0
 10
2293.34
 20
3126.02
 30
0.000000
  1
925
  0
POINT
  5
80F9
  8
DEFPOINTS
 62
     0
 10
2381.8086280306538
 20
3765.8194401879659
 30
0.0
  0
POINT
  5
80FA
  8
DEFPOINTS
 62
     0
 10
2381.8086280306538
 20
2840.8194401879659
 30
0.0
  0
POINT
  5
80FB
  8
DEFPOINTS
 62
     0
 10
2548.3401727747619
 20
2840.8194401879659
 30
0.0
  0
ENDBLK
  5
7F33
  8
0
  0
BLOCK
  8
0
  2
*D8
 70
     1
 10
0.0
 20
0.0
 30
0.0
  3
*D8
  1

  0
LINE
  5
80FC
  8
3
 62
     0
 10
2396.8086280306538
 20
3765.8194401879659
 30
0.0
 11
2755.8661023534301
 21
3765.8194401879659
 31
0.0
  0
LINE
  5
80FD
  8
3
 62
     0
 10
2433.0639668091999
 20
2804.8194401879659
 30
0.0
 11
2755.8661023534301
 21
2804.8194401879659
 31
0.0
  0
LINE
  5
80FE
  8
3
 62
     0
 10
2725.8661023534301
 20
3705.8194401879659
 30
0.0
 11
2725.8661023534301
 21
2864.8194401879659
 31
0.0
  0
INSERT
  5
80FF
  8
3
 62
     0
  2
_OPEN
 10
2725.8661023534301
 20
3765.8194401879659
 30
0.0
 41
60.0
 42
60.0
 43
60.0
 50
90.0
  0
INSERT
  5
8100
  8
3
 62
     0
  2
_OPEN
 10
2725.8661023534301
 20
2804.8194401879659
 30
0.0
 41
60.0
 42
60.0
 43
60.0
 50
270.0
  0
TEXT
  8
3
  40
90
  5
8189
  62
0
  72
0
  71
0
 10
2470.87
 20
3145.03
 30
0.000000
  1
961
  0
POINT
  5
8102
  8
DEFPOINTS
 62
     0
 10
2381.8086280306538
 20
3765.8194401879659
 30
0.0
  0
POINT
  5
8103
  8
DEFPOINTS
 62
     0
 10
2418.0639668092008
 20
2804.8194401879659
 30
0.0
  0
POINT
  5
8104
  8
DEFPOINTS
 62
     0
 10
2725.8661023534301
 20
2804.8194401879659
 30
0.0
  0
ENDBLK
  5
7F3E
  8
0
  0
BLOCK
  8
0
  2
*D9
 70
     1
 10
0.0
 20
0.0
 30
0.0
  3
*D9
  1

  0
LINE
  5
8105
  8
3
 62
     0
 10
2336.8086280306538
 20
2124.8194401879659
 30
0.0
 11
2755.8661023534291
 21
2124.8194401879659
 31
0.0
  0
LINE
  5
8106
  8
3
 62
     0
 10
2725.8661023534301
 20
2744.8194401879659
 30
0.0
 11
2725.8661023534301
 21
2184.8194401879659
 31
0.0
  0
INSERT
  5
8107
  8
3
 62
     0
  2
_OPEN
 10
2725.8661023534301
 20
2804.8194401879659
 30
0.0
 41
60.0
 42
60.0
 43
60.0
 50
90.0
  0
INSERT
  5
8108
  8
3
 62
     0
  2
_OPEN
 10
2725.8661023534301
 20
2124.8194401879659
 30
0.0
 41
60.0
 42
60.0
 43
60.0
 50
270.0
  0
TEXT
  8
3
  40
90
  5
818A
  62
0
  72
0
  71
0
 10
2470.87
 20
2305.52
 30
0.000000
  1
680
  0
POINT
  5
810A
  8
DEFPOINTS
 62
     0
 10
2418.0639668092008
 20
2804.8194401879659
 30
0.0
  0
POINT
  5
810B
  8
DEFPOINTS
 62
     0
 10
2321.8086280306538
 20
2124.8194401879659
 30
0.0
  0
POINT
  5
810C
  8
DEFPOINTS
 62
     0
 10
2725.8661023534301
 20
2124.8194401879659
 30
0.0
  0
ENDBLK
  5
7F48
  8
0
  0
BLOCK
  8
0
  2
_DOT
 70
     0
 10
0.0
 20
0.0
 30
0.0
  3
_DOT
  1

  0
LINE
  5
7D1D
  8
0
  6
BYBLOCK
 62
     0
 10
0.0
 20
0.0
 30
0.0
 11
-1.0
 21
-0.0000000000000284
 31
0.0
  0
POLYLINE
  5
7D1E
  8
0
  6
BYBLOCK
 62
     0
 66
     1
 10
0.0
 20
0.0
 30
0.0
 70
     1
 40
0.1666666666666666
 41
0.1666666666666666
  0
VERTEX
  5
810D
  8
0
  6
BYBLOCK
 62
     0
 10
-0.0833333333333286
 20
-0.0000000000000284
 30
0.0
 42
1.0
  0
VERTEX
  5
810E
  8
0
  6
BYBLOCK
 62
     0
 10
0.0833333333333286
 20
-0.0000000000000284
 30
0.0
 42
1.0
  0
SEQEND
  5
810F
  8
0
  6
BYBLOCK
 62
     0
  0
ENDBLK
  5
7CE9
  8
0
  0
BLOCK
  8
0
  2
*D11
 70
     1
 10
0.0
 20
0.0
 30
0.0
  3
*D11
  1

  0
LINE
  5
8110
  8
3
 62
     0
 10
2381.8086280306538
 20
3823.3194401879659
 30
0.0
 11
2381.8086280306538
 21
3986.8313007888678
 31
0.0
  0
LINE
  5
8111
  8
3
 62
     0
 10
1761.8086280306541
 20
3772.3443811334018
 30
0.0
 11
1761.8086280306541
 21
3986.8313007888678
 31
0.0
  0
LINE
  5
8112
  8
3
 62
     0
 10
2321.8086280306538
 20
3956.8313007888678
 30
0.0
 11
1821.8086280306541
 21
3956.8313007888678
 31
0.0
  0
INSERT
  5
8113
  8
3
 62
     0
  2
_OPEN
 10
2381.8086280306538
 20
3956.8313007888678
 30
0.0
 41
60.0
 42
60.0
 43
60.0
  0
INSERT
  5
8114
  8
3
 62
     0
  2
_OPEN
 10
1761.8086280306541
 20
3956.8313007888678
 30
0.0
 41
60.0
 42
60.0
 43
60.0
 50
180.0
  0
TEXT
  8
3
  40
90
  5
818B
  62
0
  72
0
  71
0
 10
1878.56
 20
3872.53
 30
0.000000
  1
620
  0
POINT
  5
8116
  8
DEFPOINTS
 62
     0
 10
2381.8086280306538
 20
3808.3194401879659
 30
0.0
  0
POINT
  5
8117
  8
DEFPOINTS
 62
     0
 10
1761.8086280306541
 20
3757.3443811334009
 30
0.0
  0
POINT
  5
8118
  8
DEFPOINTS
 62
     0
 10
1761.8086280306541
 20
3956.8313007888678
 30
0.0
  0
ENDBLK
  5
7ECD
  8
0
  0
BLOCK
  8
0
  2
*D12
 70
     1
 10
0.0
 20
0.0
 30
0.0
  3
*D12
  1

  0
LINE
  5
8119
  8
3
 62
     0
 10
984.80862803065418
 20
2886.8194401879659
 30
0.0
 11
984.8086280306544
 21
3986.8313007888678
 31
0.0
  0
LINE
  5
811A
  8
3
 62
     0
 10
1701.8086280306541
 20
3956.8313007888678
 30
0.0
 11
1044.8086280306541
 21
3956.8313007888678
 31
0.0
  0
INSERT
  5
811B
  8
3
 62
     0
  2
_OPEN
 10
1761.8086280306541
 20
3956.8313007888678
 30
0.0
 41
60.0
 42
60.0
 43
60.0
  0
INSERT
  5
811C
  8
3
 62
     0
  2
_OPEN
 10
984.8086280306544
 20
3956.8313007888678
 30
0.0
 41
60.0
 42
60.0
 43
60.0
 50
180.0
  0
TEXT
  8
3
  40
90
  5
818C
  62
0
  72
0
  71
0
 10
1193.31
 20
3872.53
 30
0.000000
  1
777
  0
POINT
  5
811E
  8
DEFPOINTS
 62
     0
 10
1761.8086280306541
 20
3757.3443811334009
 30
0.0
  0
POINT
  5
811F
  8
DEFPOINTS
 62
     0
 10
984.80862803065418
 20
2871.8194401879659
 30
0.0
  0
POINT
  5
8120
  8
DEFPOINTS
 62
     0
 10
984.8086280306544
 20
3956.8313007888678
 30
0.0
  0
ENDBLK
  5
7F10
  8
0
  0
BLOCK
  8
0
  2
*D13
 70
     1
 10
0.0
 20
0.0
 30
0.0
  3
*D13
  1

  0
LINE
  5
8121
  8
3
 62
     0
 10
4516.3914073276082
 20
3780.8194401879668
 30
0.0
 11
4516.3914073276082
 21
3987.3821685462099
 31
0.0
  0
LINE
  5
8122
  8
3
 62
     0
 10
5186.3914073276082
 20
3780.8194401879659
 30
0.0
 11
5186.3914073276082
 21
3987.3821685462099
 31
0.0
  0
LINE
  5
8123
  8
3
 62
     0
 10
4576.3914073276082
 20
3957.3821685462099
 30
0.0
 11
5126.3914073276082
 21
3957.3821685462099
 31
0.0
  0
INSERT
  5
8124
  8
3
 62
     0
  2
_OPEN
 10
4516.3914073276082
 20
3957.3821685462099
 30
0.0
 41
60.0
 42
60.0
 43
60.0
 50
180.0
  0
INSERT
  5
8125
  8
3
 62
     0
  2
_OPEN
 10
5186.3914073276082
 20
3957.3821685462099
 30
0.0
 41
60.0
 42
60.0
 43
60.0
  0
TEXT
  8
3
  40
90
  5
818D
  62
0
  72
0
  71
0
 10
4670.69
 20
3873.08
 30
0.000000
  1
670
  0
POINT
  5
8127
  8
DEFPOINTS
 62
     0
 10
4516.3914073276082
 20
3765.8194401879659
 30
0.0
  0
POINT
  5
8128
  8
DEFPOINTS
 62
     0
 10
5186.3914073276082
 20
3765.8194401879659
 30
0.0
  0
POINT
  5
8129
  8
DEFPOINTS
 62
     0
 10
5186.3914073276082
 20
3957.3821685462099
 30
0.0
  0
ENDBLK
  5
7D5F
  8
0
  0
BLOCK
  8
0
  2
*D14
 70
     1
 10
0.0
 20
0.0
 30
0.0
  3
*D14
  1

  0
LINE
  5
7DAC
  8
0
  6
BYBLOCK
 62
     0
 10
5189.3914073276101
 20
3786.1120514040308
 30
0.0
 11
5189.3914073276101
 21
4180.0343094696618
 31
0.0
  0
LINE
  5
7DAD
  8
0
  6
BYBLOCK
 62
     0
 10
4851.391407327611
 20
4097.4090200655573
 30
0.0
 11
4851.391407327611
 21
4180.0343094696618
 31
0.0
  0
LINE
  5
7DAE
  8
0
  6
BYBLOCK
 62
     0
 10
5129.3914073276092
 20
4150.0343094696618
 30
0.0
 11
4911.3914073276092
 21
4150.0343094696618
 31
0.0
  0
TEXT
  5
7DAF
  8
3
 62
     0
 10
4904.6771216133247
 20
4175.956091474236
 30
0.0
 40
90.0
  1
338
  0
INSERT
  5
7DB0
  8
0
  6
BYBLOCK
 62
     0
  2
_OPEN
 10
5189.3914073276101
 20
4150.0343094696618
 30
0.0
 41
60.0
 42
60.0
 43
60.0
  0
INSERT
  5
7DB1
  8
0
  6
BYBLOCK
 62
     0
  2
_OPEN
 10
4851.391407327611
 20
4150.0343094696618
 30
0.0
 41
60.0
 42
60.0
 43
60.0
 50
180.0
  0
POINT
  5
7DB2
  8
DEFPOINTS
  6
BYBLOCK
 62
     0
 10
5189.3914073276101
 20
3771.1120514040308
 30
0.0
  0
POINT
  5
7DB3
  8
DEFPOINTS
  6
BYBLOCK
 62
     0
 10
4851.391407327611
 20
4082.4090200655569
 30
0.0
  0
POINT
  5
7DB4
  8
DEFPOINTS
  6
BYBLOCK
 62
     0
 10
4851.391407327611
 20
4150.0343094696618
 30
0.0
  0
ENDBLK
  5
7DB5
  8
0
  0
BLOCK
  8
0
  2
*D15
 70
     1
 10
0.0
 20
0.0
 30
0.0
  3
*D15
  1

  0
LINE
  5
812A
  8
3
 62
     0
 10
3526.3914073276101
 20
3099.8194401879659
 30
0.0
 11
3526.3914073276101
 21
4180.0343094696618
 31
0.0
  0
LINE
  5
812B
  8
3
 62
     0
 10
4791.3914073276101
 20
4150.0343094696618
 30
0.0
 11
3586.3914073276101
 21
4150.0343094696618
 31
0.0
  0
INSERT
  5
812C
  8
3
 62
     0
  2
_OPEN
 10
4851.391407327611
 20
4150.0343094696618
 30
0.0
 41
60.0
 42
60.0
 43
60.0
  0
INSERT
  5
812D
  8
3
 62
     0
  2
_OPEN
 10
3526.3914073276101
 20
4150.0343094696618
 30
0.0
 41
60.0
 42
60.0
 43
60.0
 50
180.0
  0
TEXT
  8
3
  40
90
  5
818E
  62
0
  72
0
  71
0
 10
4008.89
 20
4140.73
 30
0.000000
  1
MAX
  0
TEXT
  8
3
  40
90
  5
818F
  62
0
  72
0
  71
0
 10
4008.89
 20
4023.73
 30
0.000000
  1
1340
  0
POINT
  5
812F
  8
DEFPOINTS
 62
     0
 10
4851.391407327611
 20
4082.4090200655569
 30
0.0
  0
POINT
  5
8130
  8
DEFPOINTS
 62
     0
 10
3526.3914073276101
 20
3084.8194401879659
 30
0.0
  0
POINT
  5
8131
  8
DEFPOINTS
 62
     0
 10
3526.3914073276101
 20
4150.0343094696618
 30
0.0
  0
ENDBLK
  5
7DBF
  8
0
  0
BLOCK
  8
0
  2
*D16
 70
     1
 10
0.0
 20
0.0
 30
0.0
  3
*D16
  1

  0
LINE
  5
8132
  8
3
 62
     0
 10
5201.3914073276092
 20
3279.8194401879659
 30
0.0
 11
5477.0337941012704
 21
3279.8194401879659
 31
0.0
  0
LINE
  5
8133
  8
3
 62
     0
 10
5201.3914073276101
 20
2329.8194401879659
 30
0.0
 11
5477.0337941012704
 21
2329.8194401879659
 31
0.0
  0
LINE
  5
8134
  8
3
 62
     0
 10
5447.0337941012704
 20
3219.8194401879659
 30
0.0
 11
5447.0337941012704
 21
2389.8194401879659
 31
0.0
  0
INSERT
  5
8135
  8
3
 62
     0
  2
_OPEN
 10
5447.0337941012704
 20
3279.8194401879659
 30
0.0
 41
60.0
 42
60.0
 43
60.0
 50
90.0
  0
INSERT
  5
8136
  8
3
 62
     0
  2
_OPEN
 10
5447.0337941012704
 20
2329.8194401879659
 30
0.0
 41
60.0
 42
60.0
 43
60.0
 50
270.0
  0
TEXT
  8
3
  40
90
  5
8190
  62
0
  72
0
  71
0
 10
5192.03
 20
2648.89
 30
0.000000
  1
φ950
  0
POINT
  5
8138
  8
DEFPOINTS
 62
     0
 10
5186.3914073276082
 20
3279.8194401879659
 30
0.0
  0
POINT
  5
8139
  8
DEFPOINTS
 62
     0
 10
5186.3914073276101
 20
2329.8194401879659
 30
0.0
  0
POINT
  5
813A
  8
DEFPOINTS
 62
     0
 10
5447.0337941012704
 20
2329.8194401879659
 30
0.0
  0
ENDBLK
  5
7E08
  8
0
  0
BLOCK
  8
0
  2
*D17
 70
     1
 10
0.0
 20
0.0
 30
0.0
  3
*D17
  1

  0
LINE
  5
813B
  8
3
 62
     0
 10
2381.8086280306538
 20
3823.3194401879659
 30
0.0
 11
2381.8086280306538
 21
4185.6429031706803
 31
0.0
  0
LINE
  5
813C
  8
3
 62
     0
 10
891.80862803065429
 20
2264.8194401879659
 30
0.0
 11
891.8086280306544
 21
4185.6429031706803
 31
0.0
  0
LINE
  5
813D
  8
3
 62
     0
 10
2321.8086280306538
 20
4155.6429031706784
 30
0.0
 11
951.8086280306544
 21
4155.6429031706784
 31
0.0
  0
INSERT
  5
813E
  8
3
 62
     0
  2
_OPEN
 10
2381.8086280306538
 20
4155.6429031706784
 30
0.0
 41
60.0
 42
60.0
 43
60.0
  0
INSERT
  5
813F
  8
3
 62
     0
  2
_OPEN
 10
891.8086280306544
 20
4155.6429031706784
 30
0.0
 41
60.0
 42
60.0
 43
60.0
 50
180.0
  0
TEXT
  8
3
  40
90
  5
8191
  62
0
  72
0
  71
0
 10
1498.99
 20
4071.34
 30
0.000000
  1
1490
  0
POINT
  5
8141
  8
DEFPOINTS
 62
     0
 10
2381.8086280306538
 20
3808.3194401879659
 30
0.0
  0
POINT
  5
8142
  8
DEFPOINTS
 62
     0
 10
891.80862803065429
 20
2249.8194401879659
 30
0.0
  0
POINT
  5
8143
  8
DEFPOINTS
 62
     0
 10
891.8086280306544
 20
4155.6429031706784
 30
0.0
  0
ENDBLK
  5
7EB7
  8
0
  0
BLOCK
  8
0
  2
*D18
 70
     1
 10
0.0
 20
0.0
 30
0.0
  3
*D18
  1

  0
LINE
  5
8144
  8
3
 62
     0
 10
2336.8086280306538
 20
6461.8039574550921
 30
0.0
 11
2659.424300214087
 21
6461.8039574550921
 31
0.0
  0
LINE
  5
8145
  8
3
 62
     0
 10
2336.8086280306538
 20
5651.8867209771561
 30
0.0
 11
2659.424300214087
 21
5651.8867209771561
 31
0.0
  0
LINE
  5
8146
  8
3
 62
     0
 10
2629.424300214087
 20
6401.8039574550912
 30
0.0
 11
2629.424300214087
 21
5711.8867209771561
 31
0.0
  0
INSERT
  5
8147
  8
3
 62
     0
  2
_OPEN
 10
2629.424300214087
 20
6461.8039574550921
 30
0.0
 41
60.0
 42
60.0
 43
60.0
 50
90.0
  0
INSERT
  5
8148
  8
3
 62
     0
  2
_OPEN
 10
2629.424300214087
 20
5651.8867209771561
 30
0.0
 41
60.0
 42
60.0
 43
60.0
 50
270.0
  0
TEXT
  8
3
  40
90
  5
8192
  62
0
  72
0
  71
0
 10
2374.42
 20
5938.74
 30
0.000000
  1
810
  0
POINT
  5
814A
  8
DEFPOINTS
 62
     0
 10
2321.8086280306538
 20
6461.8039574550921
 30
0.0
  0
POINT
  5
814B
  8
DEFPOINTS
 62
     0
 10
2321.8086280306538
 20
5651.8867209771561
 30
0.0
  0
POINT
  5
814C
  8
DEFPOINTS
 62
     0
 10
2629.424300214087
 20
5651.8867209771561
 30
0.0
  0
ENDBLK
  5
7FCF
  8
0
  0
BLOCK
  8
0
  2
*D19
 70
     1
 10
0.0
 20
0.0
 30
0.0
  3
*D19
  1

  0
LINE
  5
814D
  8
3
 62
     0
 10
2091.8086280306561
 20
4878.8039574550912
 30
0.0
 11
2659.4243002140861
 21
4878.8039574550912
 31
0.0
  0
LINE
  5
814E
  8
3
 62
     0
 10
2629.424300214087
 20
5591.8867209771561
 30
0.0
 11
2629.4243002140861
 21
4938.8039574550921
 31
0.0
  0
INSERT
  5
814F
  8
3
 62
     0
  2
_OPEN
 10
2629.424300214087
 20
5651.8867209771561
 30
0.0
 41
60.0
 42
60.0
 43
60.0
 50
90.0
  0
INSERT
  5
8150
  8
3
 62
     0
  2
_OPEN
 10
2629.4243002140861
 20
4878.8039574550912
 30
0.0
 41
60.0
 42
60.0
 43
60.0
 50
270.0
  0
TEXT
  8
3
  40
90
  5
8193
  62
0
  72
0
  71
0
 10
2374.42
 20
5106.05
 30
0.000000
  1
773
  0
POINT
  5
8152
  8
DEFPOINTS
 62
     0
 10
2321.8086280306538
 20
5651.8867209771561
 30
0.0
  0
POINT
  5
8153
  8
DEFPOINTS
 62
     0
 10
2076.8086280306561
 20
4878.8039574550912
 30
0.0
  0
POINT
  5
8154
  8
DEFPOINTS
 62
     0
 10
2629.4243002140861
 20
4878.8039574550912
 30
0.0
  0
ENDBLK
  5
7FD9
  8
0
  0
BLOCK
  8
0
  2
*D20
 70
     1
 10
0.0
 20
0.0
 30
0.0
  3
*D20
  1

  0
LINE
  5
8155
  8
3
 62
     0
 10
891.80862803065429
 20
1939.8194401879659
 30
0.0
 11
891.80862803065429
 21
1714.7998215651969
 31
0.0
  0
LINE
  5
8156
  8
3
 62
     0
 10
1761.8086280306541
 20
1939.8194401879659
 30
0.0
 11
1761.8086280306541
 21
1714.7998215651969
 31
0.0
  0
LINE
  5
8157
  8
3
 62
     0
 10
951.80862803065418
 20
1744.7998215651969
 30
0.0
 11
1701.8086280306541
 21
1744.7998215651969
 31
0.0
  0
INSERT
  5
8158
  8
3
 62
     0
  2
_OPEN
 10
891.80862803065429
 20
1744.7998215651969
 30
0.0
 41
60.0
 42
60.0
 43
60.0
 50
180.0
  0
INSERT
  5
8159
  8
3
 62
     0
  2
_OPEN
 10
1761.8086280306541
 20
1744.7998215651969
 30
0.0
 41
60.0
 42
60.0
 43
60.0
  0
TEXT
  8
3
  40
90
  5
8194
  62
0
  72
0
  71
0
 10
1146.81
 20
1660.50
 30
0.000000
  1
870
  0
POINT
  5
815B
  8
DEFPOINTS
 62
     0
 10
891.80862803065429
 20
1954.8194401879659
 30
0.0
  0
POINT
  5
815C
  8
DEFPOINTS
 62
     0
 10
1761.8086280306541
 20
1954.8194401879659
 30
0.0
  0
POINT
  5
815D
  8
DEFPOINTS
 62
     0
 10
1761.8086280306541
 20
1744.7998215651969
 30
0.0
  0
ENDBLK
  5
801F
  8
0
  0
BLOCK
  8
0
  2
*D21
 70
     1
 10
0.0
 20
0.0
 30
0.0
  3
*D21
  1

  0
LINE
  5
815E
  8
3
 62
     0
 10
1761.8086280306541
 20
1939.8194401879659
 30
0.0
 11
1761.8086280306541
 21
1714.7998215651969
 31
0.0
  0
LINE
  5
815F
  8
3
 62
     0
 10
2321.8086280306538
 20
1939.8194401879659
 30
0.0
 11
2321.8086280306538
 21
1714.7998215651969
 31
0.0
  0
LINE
  5
8160
  8
3
 62
     0
 10
1821.8086280306541
 20
1744.7998215651969
 30
0.0
 11
2261.8086280306538
 21
1744.7998215651969
 31
0.0
  0
INSERT
  5
8161
  8
3
 62
     0
  2
_OPEN
 10
1761.8086280306541
 20
1744.7998215651969
 30
0.0
 41
60.0
 42
60.0
 43
60.0
 50
180.0
  0
INSERT
  5
8162
  8
3
 62
     0
  2
_OPEN
 10
2321.8086280306538
 20
1744.7998215651969
 30
0.0
 41
60.0
 42
60.0
 43
60.0
  0
TEXT
  8
3
  40
90
  5
8195
  62
0
  72
0
  71
0
 10
1861.81
 20
1660.50
 30
0.000000
  1
560
  0
POINT
  5
8164
  8
DEFPOINTS
 62
     0
 10
1761.8086280306541
 20
1954.8194401879659
 30
0.0
  0
POINT
  5
8165
  8
DEFPOINTS
 62
     0
 10
2321.8086280306538
 20
1954.8194401879659
 30
0.0
  0
POINT
  5
8166
  8
DEFPOINTS
 62
     0
 10
2321.8086280306538
 20
1744.7998215651969
 30
0.0
  0
ENDBLK
  5
802C
  8
0
  0
BLOCK
  8
0
  2
*D22
 70
     1
 10
0.0
 20
0.0
 30
0.0
  3
*D22
  1

  0
LINE
  5
8167
  8
3
 62
     0
 10
3673.3914073276078
 20
1939.8194401879659
 30
0.0
 11
3673.3914073276078
 21
1714.7998215651969
 31
0.0
  0
LINE
  5
8168
  8
3
 62
     0
 10
4851.3914073276082
 20
1939.8194401879659
 30
0.0
 11
4851.3914073276082
 21
1714.7998215651969
 31
0.0
  0
LINE
  5
8169
  8
3
 62
     0
 10
3733.3914073276078
 20
1744.7998215651969
 30
0.0
 11
4791.3914073276082
 21
1744.7998215651969
 31
0.0
  0
INSERT
  5
816A
  8
3
 62
     0
  2
_OPEN
 10
3673.3914073276078
 20
1744.7998215651969
 30
0.0
 41
60.0
 42
60.0
 43
60.0
 50
180.0
  0
INSERT
  5
816B
  8
3
 62
     0
  2
_OPEN
 10
4851.3914073276082
 20
1744.7998215651969
 30
0.0
 41
60.0
 42
60.0
 43
60.0
  0
TEXT
  8
3
  40
90
  5
8196
  62
0
  72
0
  71
0
 10
4082.39
 20
1660.50
 30
0.000000
  1
1178
  0
POINT
  5
816D
  8
DEFPOINTS
 62
     0
 10
3673.3914073276078
 20
1954.8194401879659
 30
0.0
  0
POINT
  5
816E
  8
DEFPOINTS
 62
     0
 10
4851.3914073276082
 20
1954.8194401879659
 30
0.0
  0
POINT
  5
816F
  8
DEFPOINTS
 62
     0
 10
4851.3914073276082
 20
1744.7998215651969
 30
0.0
  0
ENDBLK
  5
8039
  8
0
  0
BLOCK
  8
0
  2
*D23
 70
     1
 10
0.0
 20
0.0
 30
0.0
  3
*D23
  1

  0
LINE
  5
8170
  8
3
 62
     0
 10
4851.3914073276082
 20
1939.8194401879659
 30
0.0
 11
4851.3914073276082
 21
1714.7998215651969
 31
0.0
  0
LINE
  5
8171
  8
3
 62
     0
 10
5256.3914073276082
 20
1939.8194401879659
 30
0.0
 11
5256.3914073276082
 21
1714.7998215651969
 31
0.0
  0
LINE
  5
8172
  8
3
 62
     0
 10
4911.3914073276092
 20
1744.7998215651969
 30
0.0
 11
5196.3914073276092
 21
1744.7998215651969
 31
0.0
  0
INSERT
  5
8173
  8
3
 62
     0
  2
_OPEN
 10
4851.3914073276082
 20
1744.7998215651969
 30
0.0
 41
60.0
 42
60.0
 43
60.0
 50
180.0
  0
INSERT
  5
8174
  8
3
 62
     0
  2
_OPEN
 10
5256.3914073276082
 20
1744.7998215651969
 30
0.0
 41
60.0
 42
60.0
 43
60.0
  0
TEXT
  8
3
  40
90
  5
8197
  62
0
  72
0
  71
0
 10
4873.89
 20
1660.50
 30
0.000000
  1
405
  0
POINT
  5
8176
  8
DEFPOINTS
 62
     0
 10
4851.3914073276082
 20
1954.8194401879659
 30
0.0
  0
POINT
  5
8177
  8
DEFPOINTS
 62
     0
 10
5256.3914073276082
 20
1954.8194401879659
 30
0.0
  0
POINT
  5
8178
  8
DEFPOINTS
 62
     0
 10
5256.3914073276082
 20
1744.7998215651969
 30
0.0
  0
ENDBLK
  5
8048
  8
0
  0
BLOCK
  8
0
  2
*D24
 70
     1
 10
0.0
 20
0.0
 30
0.0
  3
*D24
  1

  0
LINE
  5
8179
  8
3
 62
     0
 10
2336.8086280306552
 20
2079.8194401879659
 30
0.0
 11
2753.126651218332
 21
2079.8194401879659
 31
0.0
  0
LINE
  5
817A
  8
3
 62
     0
 10
2336.8086280306552
 20
1954.8194401879659
 30
0.0
 11
2753.126651218332
 21
1954.8194401879659
 31
0.0
  0
LINE
  5
817B
  8
3
 62
     0
 10
2723.126651218332
 20
2139.8194401879659
 30
0.0
 11
2723.126651218332
 21
2199.8194401879659
 31
0.0
  0
LINE
  5
817C
  8
3
 62
     0
 10
2723.126651218332
 20
1894.8194401879659
 30
0.0
 11
2723.126651218332
 21
1560.5337259022519
 31
0.0
  0
LINE
  5
817D
  8
3
 62
     0
 10
2723.126651218332
 20
2079.8194401879659
 30
0.0
 11
2723.126651218332
 21
1954.8194401879659
 31
0.0
  0
INSERT
  5
817E
  8
3
 62
     0
  2
_DOT
 10
2723.126651218332
 20
2079.8194401879659
 30
0.0
 41
60.0
 42
60.0
 43
60.0
 50
270.0
  0
INSERT
  5
817F
  8
3
 62
     0
  2
_OPEN
 10
2723.126651218332
 20
1954.8194401879659
 30
0.0
 41
60.0
 42
60.0
 43
60.0
 50
90.0
  0
TEXT
  8
3
  40
90
  5
8198
  62
0
  72
0
  71
0
 10
2468.13
 20
1538.38
 30
0.000000
  1
125
  0
POINT
  5
8181
  8
DEFPOINTS
 62
     0
 10
2321.8086280306561
 20
2079.8194401879659
 30
0.0
  0
POINT
  5
8182
  8
DEFPOINTS
 62
     0
 10
2321.8086280306561
 20
1954.8194401879659
 30
0.0
  0
POINT
  5
8183
  8
DEFPOINTS
 62
     0
 10
2723.126651218332
 20
1954.8194401879659
 30
0.0
  0
ENDBLK
  5
8086
  8
0
  0
BLOCK
  8
0
  2
*D25
 70
     1
 10
0.0
 20
0.0
 30
0.0
  3
*D25
  1

  0
LINE
  5
808A
  8
0
  6
BYBLOCK
 62
     0
 10
2336.8086280306538
 20
2079.8194401879659
 30
0.0
 11
2753.126651218332
 21
2079.8194401879659
 31
0.0
  0
LINE
  5
808B
  8
0
  6
BYBLOCK
 62
     0
 10
2336.8086280306538
 20
2124.8194401879659
 30
0.0
 11
2753.126651218332
 21
2124.8194401879659
 31
0.0
  0
LINE
  5
808C
  8
0
  6
BYBLOCK
 62
     0
 10
2723.126651218332
 20
2019.8194401879659
 30
0.0
 11
2723.126651218332
 21
1959.8194401879659
 31
0.0
  0
LINE
  5
808D
  8
0
  6
BYBLOCK
 62
     0
 10
2723.126651218332
 20
2184.8194401879659
 30
0.0
 11
2723.126651218332
 21
2244.8194401879659
 31
0.0
  0
TEXT
  5
808E
  8
3
 62
     0
 10
2896.69807978976
 20
1971.6051544736799
 30
0.0
 40
90.0
  1
(45)
 50
90.0
  0
LINE
  5
808F
  8
0
  6
BYBLOCK
 62
     0
 10
2723.126651218332
 20
2079.8194401879659
 30
0.0
 11
2723.126651218332
 21
2124.8194401879659
 31
0.0
  0
INSERT
  5
8090
  8
0
  6
BYBLOCK
 62
     0
  2
_DOT
 10
2723.126651218332
 20
2079.8194401879659
 30
0.0
 41
60.0
 42
60.0
 43
60.0
 50
90.0
  0
INSERT
  5
8091
  8
0
  6
BYBLOCK
 62
     0
  2
_OPEN
 10
2723.126651218332
 20
2124.8194401879659
 30
0.0
 41
60.0
 42
60.0
 43
60.0
 50
270.0
  0
POINT
  5
8092
  8
DEFPOINTS
  6
BYBLOCK
 62
     0
 10
2321.8086280306538
 20
2079.8194401879659
 30
0.0
  0
POINT
  5
8093
  8
DEFPOINTS
  6
BYBLOCK
 62
     0
 10
2321.8086280306538
 20
2124.8194401879659
 30
0.0
  0
POINT
  5
8094
  8
DEFPOINTS
  6
BYBLOCK
 62
     0
 10
2723.126651218332
 20
2124.8194401879659
 30
0.0
  0
ENDBLK
  5
8095
  8
0
  0
BLOCK
  8
0
  2
*D26
 70
     1
 10
0.0
 20
0.0
 30
0.0
  3
*D26
  1

  0
LINE
  5
8099
  8
0
  6
BYBLOCK
 62
     0
 10
2396.8086280306538
 20
3808.3194401879659
 30
0.0
 11
3016.158411639914
 21
3808.3194401879659
 31
0.0
  0
LINE
  5
809A
  8
0
  6
BYBLOCK
 62
     0
 10
2336.8086280306538
 20
1954.8194401879659
 30
0.0
 11
3016.158411639914
 21
1954.8194401879659
 31
0.0
  0
LINE
  5
809B
  8
0
  6
BYBLOCK
 62
     0
 10
2986.1584116399131
 20
3748.3194401879659
 30
0.0
 11
2986.1584116399131
 21
2014.8194401879659
 31
0.0
  0
INSERT
  5
809C
  8
0
  6
BYBLOCK
 62
     0
  2
_OPEN
 10
2986.1584116399131
 20
3808.3194401879659
 30
0.0
 41
60.0
 42
60.0
 43
60.0
 50
90.0
  0
INSERT
  5
809D
  8
0
  6
BYBLOCK
 62
     0
  2
_OPEN
 10
2986.1584116399131
 20
1954.8194401879659
 30
0.0
 41
60.0
 42
60.0
 43
60.0
 50
270.0
  0
TEXT
  5
809E
  8
3
 62
     0
 10
2917.5869830684851
 20
2673.7122973308242
 30
0.0
 40
90.0
  1
(1854)
 50
90.0
  0
POINT
  5
809F
  8
DEFPOINTS
  6
BYBLOCK
 62
     0
 10
2381.8086280306538
 20
3808.3194401879659
 30
0.0
  0
POINT
  5
80A0
  8
DEFPOINTS
  6
BYBLOCK
 62
     0
 10
2321.8086280306538
 20
1954.8194401879659
 30
0.0
  0
POINT
  5
80A1
  8
DEFPOINTS
  6
BYBLOCK
 62
     0
 10
2986.1584116399131
 20
1954.8194401879659
 30
0.0
  0
ENDBLK
  5
80A2
  8
0
  0
ENDSEC
  0
SECTION
  2
ENTITIES
  0
INSERT
  5
7AE3
  8
0
  2
YA_N
 10
791.5023376026661
 20
124.5017017181089
 30
0.0
  0
LINE
  5
7AE5
  8
2
 10
2418.0639668092008
 20
2804.8194401879659
 30
0.0
 11
916.48387339196233
 21
2804.8194401879659
 31
0.0
  0
LINE
  5
7AE6
  8
2
 10
1761.8086280306541
 20
3757.3443811334009
 30
0.0
 11
1761.8086280306529
 21
1954.8194401879659
 31
0.0
  0
ARC
  5
7AE7
  8
1
 10
1828.8086280306541
 20
2871.8194401879659
 30
0.0
 40
844.0
 50
94.553152387219043
 51
184.553152387219
  0
ARC
  5
7AE8
  8
1
 10
1694.8086280306541
 20
2871.8194401879659
 30
0.0
 40
710.0
 50
185.41484170612941
 51
194.8383973834159
  0
ARC
  5
7AE9
  8
1
 10
1708.3086280306541
 20
2751.3194401879659
 30
0.0
 40
589.5
 50
307.92824112012352
 51
5.2070360883494891
  0
LINE
  5
7AEA
  8
1
 10
2381.8086280306538
 20
3808.3194401879659
 30
0.0
 11
2381.8086280306538
 21
2798.3194401879659
 31
0.0
  0
LINE
  5
7AEB
  8
1
 10
2381.8086280306538
 20
2840.8194401879659
 30
0.0
 11
2296.5983063154908
 21
2840.8194401879659
 31
0.0
  0
LINE
  5
7AEC
  8
1
 10
2381.8086280306538
 20
3765.8194401879659
 30
0.0
 11
1761.8086280306541
 21
3713.1558770549309
 31
0.0
  0
LINE
  5
7AED
  8
1
 10
2381.8086280306538
 20
3808.3194401879659
 30
0.0
 11
2341.8086280306538
 21
3808.3194401879659
 31
0.0
  0
LINE
  5
7AEE
  8
1
 10
2381.8086280306538
 20
2798.3194401879659
 30
0.0
 11
2341.8086280306538
 21
2798.3194401879659
 31
0.0
  0
LINE
  5
7AEF
  8
1
 10
2341.8086280306538
 20
3808.3194401879659
 30
0.0
 11
2341.8086280306538
 21
2798.3194401879659
 31
0.0
  0
LINE
  5
7AF0
  8
1
 10
2378.8086280306538
 20
3808.3194401879659
 30
0.0
 11
2378.8086280306538
 21
2798.3194401879659
 31
0.0
  0
LINE
  5
7AF1
  8
1
 10
2321.8086280306538
 20
2249.8194401879659
 30
0.0
 11
2321.8086280306538
 21
2124.8194401879659
 31
0.0
  0
LINE
  5
7AF2
  8
1
 10
891.80862803065429
 20
2124.8194401879659
 30
0.0
 11
2321.8086280306561
 21
2124.8194401879659
 31
0.0
1001
ACAD
1000
ASC_BOUNDS
1002
{
1070
    19
1005
0
1002
}
  0
LINE
  5
7AF3
  8
1
 10
891.80862803065429
 20
2249.8194401879659
 30
0.0
 11
2321.8086280306561
 21
2249.8194401879659
 31
0.0
  0
LINE
  5
7AF4
  8
2
 10
1091.8086280306541
 20
2732.3950391720809
 30
0.0
 11
1091.8086280306541
 21
2214.0032995778738
 31
0.0
1001
ACAD
1000
ASC_BOUNDS
1002
{
1070
    19
1002
}
  0
LINE
  5
7AF5
  8
2
 10
848.17422144792715
 20
2524.8194401879659
 30
0.0
 11
1306.6515544844881
 21
2524.8194401879659
 31
0.0
  0
LINE
  5
7AF6
  8
1
 10
5186.3914073276082
 20
3765.8194401879659
 30
0.0
 11
5186.3914073276092
 21
2840.8194401879659
 31
0.0
  0
LINE
  5
7AF7
  8
1
 10
4516.3914073276082
 20
3765.8194401879659
 30
0.0
 11
4516.3914073276092
 21
2840.8194401879659
 31
0.0
  0
LINE
  5
7AF8
  8
1
 10
3673.3914073276078
 20
2249.8194401879659
 30
0.0
 11
5256.3914073276082
 21
2249.8194401879659
 31
0.0
  0
LINE
  5
7AF9
  8
1
 10
3673.3914073276078
 20
2249.8194401879659
 30
0.0
 11
3673.3914073276078
 21
2124.8194401879659
 31
0.0
  0
LINE
  5
7AFA
  8
1
 10
5256.3914073276082
 20
2249.8194401879659
 30
0.0
 11
5256.3914073276082
 21
2124.8194401879659
 31
0.0
  0
LINE
  5
7AFB
  8
1
 10
4474.3914073276073
 20
3808.3194401879659
 30
0.0
 11
5228.3914073276092
 21
3808.3194401879659
 31
0.0
  0
LINE
  5
7AFC
  8
1
 10
5228.3914073276092
 20
3808.3194401879659
 30
0.0
 11
5228.3914073276092
 21
2798.3194401879659
 31
0.0
  0
LINE
  5
7AFD
  8
1
 10
4474.3914073276073
 20
3808.3194401879659
 30
0.0
 11
4474.3914073276073
 21
2798.3194401879659
 31
0.0
  0
LINE
  5
7AFE
  8
1
 10
4516.3914073276082
 20
3765.8194401879659
 30
0.0
 11
5186.3914073276082
 21
3765.8194401879659
 31
0.0
  0
LINE
  5
7AFF
  8
2
 10
3563.863566744611
 20
2804.8194401879659
 30
0.0
 11
5256.2417092423557
 21
2804.8194401879659
 31
0.0
  0
LINE
  5
7B00
  8
1
 10
3673.3914073276078
 20
2124.8194401879659
 30
0.0
 11
5256.3914073276082
 21
2124.8194401879659
 31
0.0
1001
ACAD
1000
ASC_BOUNDS
1002
{
1070
    19
1002
}
  0
LINE
  5
7B03
  8
2
 10
1311.8246920908041
 20
6056.8039574550912
 30
0.0
 11
2209.9892871737311
 21
6056.8039574550912
 31
0.0
  0
LINE
  5
7B04
  8
2
 10
4851.391407327611
 20
3944.6800243176331
 30
0.0
 11
4851.3914073276073
 21
1954.8194401879659
 31
0.0
  0
POINT
  5
7B05
  8
1
 10
987.97696490286216
 20
2804.8194401879659
 30
0.0
  0
INSERT
  5
7B06
  8
0
  2
YA_N
 10
-853.1654824878492
 20
-861.23841843369883
 30
0.0
 41
20.0
 42
20.0
 43
20.0
  0
INSERT
  5
7B08
  8
0
  2
YA_N
 10
-767.31428752034788
 20
-950.9038503398732
 30
0.0
 41
20.0
 42
20.0
 43
20.0
  0
ARC
  5
7B0A
  8
1
 10
1091.8086280306541
 20
2524.8194401879659
 30
0.0
 40
185.0
 50
287.94525099999993
 51
252.05474899999999
  0
LINE
  5
7B0B
  8
1
 10
1148.8086280306541
 20
2348.8194401879659
 30
0.0
 11
1034.8086280306541
 21
2348.8194401879659
 31
0.0
  0
LINE
  5
7B0C
  8
1
 10
1253.8086280306541
 20
2420.0784731879662
 30
0.0
 11
1253.8086280306541
 21
2344.8194401879659
 31
0.0
  0
LINE
  5
7B0D
  8
1
 10
1253.8086280306541
 20
2420.0784731879662
 30
0.0
 11
1247.424656030654
 21
2424.776227187966
 31
0.0
  0
LINE
  5
7B0E
  8
1
 10
929.80862803065429
 20
2420.0784731879662
 30
0.0
 11
929.80862803065429
 21
2344.8194401879659
 31
0.0
  0
LINE
  5
7B0F
  8
1
 10
929.80862803065429
 20
2420.0784731879662
 30
0.0
 11
936.19253903065498
 21
2424.776227187966
 31
0.0
  0
LINE
  5
7B10
  8
1
 10
866.80862803065429
 20
2289.8194401879659
 30
0.0
 11
1316.8086280306541
 21
2289.8194401879659
 31
0.0
  0
LINE
  5
7B11
  8
1
 10
891.80862803065429
 20
2289.8194401879659
 30
0.0
 11
891.80862803065429
 21
2249.8194401879659
 31
0.0
  0
LINE
  5
7B12
  8
1
 10
1291.8086280306541
 20
2289.8194401879659
 30
0.0
 11
1291.8086280306541
 21
2249.8194401879659
 31
0.0
  0
LINE
  5
7B13
  8
1
 10
881.70708962953177
 20
2344.8194401879659
 30
0.0
 11
1021.8086280306539
 21
2344.8194401879659
 31
0.0
  0
LINE
  5
7B14
  8
1
 10
1316.8086280306541
 20
2289.8194401879659
 30
0.0
 11
1301.606311396142
 21
2344.8194401879659
 31
0.0
  0
LINE
  5
7B15
  8
1
 10
866.80862803065429
 20
2289.8194401879659
 30
0.0
 11
881.70708962953177
 21
2344.8194401879659
 31
0.0
  0
LINE
  5
7B16
  8
1
 10
1021.8086280306539
 20
2299.8194401879659
 30
0.0
 11
1161.8086280306541
 21
2299.8194401879659
 31
0.0
  0
LINE
  5
7B17
  8
1
 10
1021.8086280306539
 20
2334.8194401879659
 30
0.0
 11
1161.8086280306541
 21
2334.8194401879659
 31
0.0
  0
LINE
  5
7B18
  8
1
 10
1021.8086280306539
 20
2344.8194401879659
 30
0.0
 11
1021.8086280306539
 21
2334.8194401879659
 31
0.0
  0
LINE
  5
7B19
  8
1
 10
1161.8086280306541
 20
2344.8194401879659
 30
0.0
 11
1161.8086280306541
 21
2334.8194401879659
 31
0.0
  0
LINE
  5
7B1A
  8
1
 10
1161.8086280306541
 20
2344.8194401879659
 30
0.0
 11
1301.606311396142
 21
2344.8194401879659
 31
0.0
  0
LINE
  5
7B1B
  8
1
 10
1021.8086280306539
 20
2299.8194401879659
 30
0.0
 11
1021.8086280306539
 21
2289.8194401879659
 31
0.0
  0
LINE
  5
7B1C
  8
1
 10
1161.8086280306541
 20
2299.8194401879659
 30
0.0
 11
1161.8086280306541
 21
2289.8194401879659
 31
0.0
  0
POINT
  5
7B1F
  8
1
 10
2321.8086280306538
 20
2124.8194401879659
 30
0.0
  0
CIRCLE
  5
7B20
  8
1
 10
1091.8086280306541
 20
2524.8194401879659
 30
0.0
 40
119.0
  0
LINE
  5
7B21
  8
1
 10
891.80862803065429
 20
2249.8194401879659
 30
0.0
 11
891.80862803065429
 21
2124.8194401879659
 31
0.0
  0
LINE
  5
7B31
  8
1
 10
1201.8086280306541
 20
6461.8039574550921
 30
0.0
 11
2321.8086280306538
 21
6461.8039574550921
 31
0.0
  0
LINE
  5
7B33
  8
1
 10
891.80862803065509
 20
4878.8039574550912
 30
0.0
 11
2076.8086280306561
 21
4878.8039574550912
 31
0.0
  0
LINE
  5
7B34
  8
1
 10
2321.8086280306538
 20
6461.8039574550894
 30
0.0
 11
2321.8086280306538
 21
6391.8039574550912
 31
0.0
  0
LINE
  5
7B35
  8
1
 10
1201.8086280306541
 20
6461.8039574550921
 30
0.0
 11
1201.8086280306541
 21
6391.8039574550912
 31
0.0
  0
LINE
  5
7B36
  8
1
 10
891.80862803065429
 20
5716.8039574550912
 30
0.0
 11
891.80862803065509
 21
4878.8039574550912
 31
0.0
  0
LINE
  5
7B37
  8
1
 10
1266.8086280306541
 20
6396.8039574550921
 30
0.0
 11
2256.8086280306538
 21
6396.8039574550921
 31
0.0
  0
LINE
  5
7B38
  8
1
 10
2256.8086280306538
 20
6396.8039574550912
 30
0.0
 11
2256.8086280306538
 21
6391.8039574550912
 31
0.0
  0
LINE
  5
7B39
  8
1
 10
1266.8086280306541
 20
6396.8039574550912
 30
0.0
 11
1266.8086280306541
 21
6391.8039574550912
 31
0.0
  0
LINE
  5
7B3A
  8
1
 10
891.80862803065429
 20
5716.8039574550912
 30
0.0
 11
2321.8086280306538
 21
5716.8039574550912
 31
0.0
  0
LINE
  5
7B3D
  8
1
 10
2076.8086280306552
 20
5659.8039574550912
 30
0.0
 11
2076.8086280306561
 21
4878.8039574550912
 31
0.0
  0
LINE
  5
7B3F
  8
2
 10
1091.808628030655
 20
5557.9433306424489
 30
0.0
 11
1091.8086280306561
 21
4776.7081941015967
 31
0.0
  0
LINE
  5
7B45
  8
1
 10
3596.3914073276101
 20
2643.8194401879659
 30
0.0
 11
3706.3914073276078
 21
2643.8194401879659
 31
0.0
  0
LINE
  5
7B46
  8
1
 10
3596.3914073276101
 20
2405.8194401879659
 30
0.0
 11
3706.3914073276101
 21
2405.8194401879659
 31
0.0
  0
LINE
  5
7B47
  8
1
 10
3596.3914073276078
 20
3008.0194401879662
 30
0.0
 11
3596.3914073276101
 21
2405.8194401879659
 31
0.0
  0
LINE
  5
7B48
  8
1
 10
3706.3914073276078
 20
3008.0194401879662
 30
0.0
 11
3706.3914073276101
 21
2405.8194401879659
 31
0.0
  0
LINE
  5
7B49
  8
1
 10
3726.3914073276101
 20
3084.8194401879659
 30
0.0
 11
3726.3914073276101
 21
3064.8194401879659
 31
0.0
  0
LINE
  5
7B4A
  8
1
 10
3526.3914073276101
 20
3084.8194401879659
 30
0.0
 11
3526.3914073276101
 21
2304.8194401879659
 31
0.0
  0
LINE
  5
7B4B
  8
1
 10
3526.3914073276078
 20
2304.8194401879659
 30
0.0
 11
3726.3914073276101
 21
2304.8194401879659
 31
0.0
  0
POINT
  5
7B4C
  8
1
 10
5189.3914073276092
 20
3808.3194401879659
 30
0.0
  0
ARC
  5
7B50
  8
1
 10
1761.8086280306541
 20
2804.8194401879659
 30
0.0
 40
536.0
 50
0.0
 51
3.8511231264977099
  0
CIRCLE
  5
7B51
  8
1
 10
1761.8086280306541
 20
2804.8194401879659
 30
0.0
 40
203.19999999999999
  0
ARC
  5
7B52
  8
1
 10
1761.8086280306541
 20
2804.8194401879659
 30
0.0
 40
280.0
 50
287.94097357959703
 51
117.42014563445269
  0
ARC
  5
7B53
  8
1
 10
1091.8086280306541
 20
2524.8194401879659
 30
0.0
 40
220.0
 50
117.42014563445269
 51
287.94097357959703
  0
LINE
  5
7B54
  8
1
 10
1632.8652907070641
 20
3053.3624259265612
 30
0.0
 11
990.49600584783354
 21
2720.1032146968619
 31
0.0
  0
LINE
  5
7B55
  8
1
 10
1662.2449796424351
 20
2981.9558845454931
 30
0.0
 11
1033.5011764647179
 21
2628.5558421493129
 31
0.0
  0
LINE
  5
7B56
  8
1
 10
1817.892948522039
 20
2609.5125304407188
 30
0.0
 11
1124.6532842239351
 21
2410.4418700111828
 31
0.0
  0
LINE
  5
7B57
  8
1
 10
1848.059001197216
 20
2538.4346186822572
 30
0.0
 11
1159.576778375811
 21
2315.5170804334798
 31
0.0
  0
LINE
  5
7B58
  8
1
 10
3526.3914073276101
 20
3084.8194401879659
 30
0.0
 11
3726.3914073276101
 21
3084.8194401879659
 31
0.0
  0
LINE
  5
7B59
  8
1
 10
3596.3914073276078
 20
3008.0194401879662
 30
0.0
 11
3706.3914073276078
 21
3008.0194401879662
 31
0.0
  0
LINE
  5
7B5A
  8
1
 10
3596.3914073276092
 20
2601.6194401879661
 30
0.0
 11
3706.3914073276092
 21
2601.6194401879661
 31
0.0
  0
LINE
  5
7B5B
  8
1
 10
3726.3914073276078
 20
2324.8194401879659
 30
0.0
 11
3726.3914073276078
 21
2304.8194401879659
 31
0.0
  0
INSERT
  5
7B5C
  8
0
  2
YA_N
 10
1684.084545659538
 20
-1644.9931351483519
 30
0.0
  0
INSERT
  5
7B5E
  8
0
  2
YA_N
 10
812.60933172367402
 20
-6436.0955458567769
 30
0.0
  0
INSERT
  5
7B60
  8
0
  2
YA_N
 10
-832.05848836684106
 20
-7421.8356660085838
 30
0.0
 41
20.0
 42
20.0
 43
20.0
  0
INSERT
  5
7B62
  8
0
  2
YA_N
 10
-746.20729339933985
 20
-7511.5010979147592
 30
0.0
 41
20.0
 42
20.0
 43
20.0
  0
LINE
  5
7B64
  8
1
 10
3736.3914073276092
 20
2724.819440187965
 30
0.0
 11
3736.3914073276092
 21
2249.8194401879659
 31
0.0
  0
LINE
  5
7B65
  8
1
 10
4418.3914073276101
 20
2724.819440187965
 30
0.0
 11
4418.3914073276082
 21
2249.8194401879641
 31
0.0
  0
LINE
  5
7B67
  8
1
 10
3736.3914073276078
 20
2724.819440187965
 30
0.0
 11
4418.3914073276101
 21
2724.819440187965
 31
0.0
  0
LINE
  5
7B68
  8
1
 10
3728.8914073276078
 20
2837.319440187965
 30
0.0
 11
4474.3914073276073
 21
2837.319440187965
 31
0.0
  0
LINE
  5
7B69
  8
1
 10
3728.8914073276078
 20
2772.319440187965
 30
0.0
 11
4514.0914073276108
 21
2772.319440187965
 31
0.0
  0
LINE
  5
7B6A
  8
1
 10
3706.3914073276078
 20
2832.319440187965
 30
0.0
 11
3728.8914073276078
 21
2832.319440187965
 31
0.0
  0
LINE
  5
7B6B
  8
1
 10
3706.3914073276092
 20
2777.319440187965
 30
0.0
 11
3728.8914073276078
 21
2777.319440187965
 31
0.0
  0
LINE
  5
7B6C
  8
1
 10
3728.8914073276078
 20
2772.319440187965
 30
0.0
 11
3728.8914073276078
 21
2837.319440187965
 31
0.0
  0
LINE
  5
7B6D
  8
1
 10
4474.3914073276092
 20
2798.3194401879659
 30
0.0
 11
5228.3914073276092
 21
2798.3194401879659
 31
0.0
  0
LINE
  5
7B6E
  8
1
 10
4516.3914073276092
 20
2840.8194401879659
 30
0.0
 11
5186.3914073276092
 21
2840.8194401879659
 31
0.0
  0
LINE
  5
7B72
  8
2
 10
3857.1408213943209
 20
2525.1278868768568
 30
0.0
 11
3613.581502001578
 21
2525.1278868768568
 31
0.0
  0
LINE
  5
7B81
  8
1
 10
3651.7619562371451
 20
2501.1278868768582
 30
0.0
 11
3736.3914073276092
 21
2501.1278868768582
 31
0.0
  0
LINE
  5
7B82
  8
1
 10
3651.7619562371451
 20
2549.1278868768559
 30
0.0
 11
3736.3914073276092
 21
2549.1278868768568
 31
0.0
  0
LINE
  5
7B84
  8
1
 10
3651.7619562371451
 20
2549.1278868768559
 30
0.0
 11
3651.7619562371451
 21
2501.1278868768559
 31
0.0
  0
LINE
  5
7B8B
  8
1
 10
1274.3086280306561
 20
5074.9053821914922
 30
0.0
 11
1274.3086280306561
 21
5341.5899953960361
 31
0.0
  0
LINE
  5
7B8C
  8
1
 10
1274.3086280306561
 20
5341.5899953960361
 30
0.0
 11
1274.3086280306561
 21
4993.8174252832041
 31
0.0
  0
LINE
  5
7B8D
  8
1
 10
1729.3086280306541
 20
4934.3039574550912
 30
0.0
 11
1729.3086280306541
 21
5719.5039574550929
 31
0.0
  0
LINE
  5
7B8E
  8
1
 10
1794.3086280306541
 20
4934.3039574550912
 30
0.0
 11
1794.3086280306541
 21
5719.5039574550929
 31
0.0
  0
LINE
  5
7B8F
  8
2
 10
1761.8086280306541
 20
4769.2761168720926
 30
0.0
 11
1761.8086280306541
 21
6512.3236052128286
 31
0.0
  0
LINE
  5
7B90
  8
1
 10
1729.3086280306541
 20
4934.3039574550912
 30
0.0
 11
1794.3086280306541
 21
4934.3039574550912
 31
0.0
  0
LINE
  5
7B91
  8
1
 10
1965.008628030655
 20
4911.8039574550921
 30
0.0
 11
972.50018134176571
 21
4911.8039574550921
 31
0.0
  0
LINE
  5
7B92
  8
1
 10
2041.8086280306541
 20
4731.8039574550912
 30
0.0
 11
871.50018134176571
 21
4731.8039574550912
 31
0.0
  0
LINE
  5
7B93
  8
1
 10
1965.008628030655
 20
4801.8039574550912
 30
0.0
 11
972.50018134176571
 21
4801.8039574550921
 31
0.0
  0
LINE
  5
7B94
  8
1
 10
871.50018134176571
 20
4731.8039574550894
 30
0.0
 11
871.50018134176571
 21
4931.8039574550912
 31
0.0
  0
LINE
  5
7B95
  8
1
 10
1274.3086280306561
 20
4993.8174252832041
 30
0.0
 11
911.80862803065611
 21
4993.8174252832041
 31
0.0
  0
LINE
  5
7B96
  8
1
 10
972.50018134176571
 20
4801.8039574550912
 30
0.0
 11
972.50018134176571
 21
4911.8039574550921
 31
0.0
  0
LINE
  5
7B97
  8
1
 10
1067.808628030657
 20
4857.1745063646267
 30
0.0
 11
1067.808628030657
 21
4967.174506360755
 31
0.0
  0
LINE
  5
7B98
  8
1
 10
1115.8086280306561
 20
4857.1745063646267
 30
0.0
 11
1115.8086280306561
 21
4967.174506360755
 31
0.0
  0
LINE
  5
7B99
  8
1
 10
1558.6086280306549
 20
4801.8039574550912
 30
0.0
 11
1558.6086280306549
 21
4911.8039574550921
 31
0.0
  0
LINE
  5
7B9A
  8
1
 10
1115.8086280306561
 20
4857.1745063646267
 30
0.0
 11
1067.8086280306561
 21
4857.1745063646267
 31
0.0
  0
LINE
  5
7B9B
  8
1
 10
1210.500181341765
 20
4801.8039574550912
 30
0.0
 11
1210.500181341765
 21
4911.8039574550894
 31
0.0
  0
LINE
  5
7B9C
  8
1
 10
1734.3086280306541
 20
4911.8039574550921
 30
0.0
 11
1734.3086280306541
 21
4934.3039574550912
 31
0.0
  0
LINE
  5
7B9D
  8
1
 10
1058.387319084809
 20
4967.174506360755
 30
0.0
 11
1123.2299369765019
 21
4967.174506360755
 31
0.0
  0
LINE
  5
7B9E
  8
1
 10
1033.591179048057
 20
4972.1745063656181
 30
0.0
 11
1150.0260770132541
 21
4972.1745063656181
 31
0.0
  0
LINE
  5
7B9F
  8
1
 10
1058.387319084809
 20
4967.174506360755
 30
0.0
 11
1058.3873190848101
 21
4972.1745063656181
 31
0.0
  0
LINE
  5
7BA0
  8
1
 10
1033.591179048057
 20
4993.8174252832041
 30
0.0
 11
1033.591179048057
 21
4972.1745063656181
 31
0.0
  0
LINE
  5
7BA1
  8
1
 10
1150.0260770132541
 20
4993.8174252832041
 30
0.0
 11
1150.0260770132541
 21
4972.1745063656181
 31
0.0
  0
LINE
  5
7BA2
  8
1
 10
1123.2299369765019
 20
4967.174506360755
 30
0.0
 11
1123.2299369765019
 21
4972.1745063656181
 31
0.0
  0
LINE
  5
7BA3
  8
1
 10
2041.8086280306541
 20
4731.8039574550912
 30
0.0
 11
2041.8086280306541
 21
4931.8039574550912
 31
0.0
  0
LINE
  5
7BA4
  8
1
 10
1789.3086280306541
 20
4911.8039574550921
 30
0.0
 11
1789.3086280306541
 21
4934.3039574550912
 31
0.0
  0
LINE
  5
7BA5
  8
1
 10
1965.008628030655
 20
4801.8039574550912
 30
0.0
 11
1965.008628030655
 21
4911.8039574550921
 31
0.0
  0
LINE
  5
7BA6
  8
1
 10
2041.8086280306541
 20
4931.8039574550912
 30
0.0
 11
871.50018134176571
 21
4931.8039574550912
 31
0.0
  0
LINE
  5
7BA7
  8
1
 10
2341.8086280306538
 20
6391.8039574550912
 30
0.0
 11
984.80862803065418
 21
6391.8039574550912
 31
0.0
  0
LINE
  5
7BA8
  8
1
 10
2341.8086280306538
 20
5721.8039574550903
 30
0.0
 11
984.80862803065418
 21
5721.8039574550912
 31
0.0
  0
LINE
  5
7BA9
  8
1
 10
2381.8086280306538
 20
6433.8039574550921
 30
0.0
 11
2341.8086280306538
 21
6433.8039574550921
 31
0.0
  0
LINE
  5
7BAA
  8
1
 10
911.80862803065611
 20
5533.6745063656181
 30
0.0
 11
1274.3086280306561
 21
5533.6745063656181
 31
0.0
  0
LINE
  5
7BAB
  8
1
 10
911.80862803065611
 20
5351.6745063656181
 30
0.0
 11
911.80862803065611
 21
5533.6745063656181
 31
0.0
  0
LINE
  5
7BAC
  8
1
 10
911.80862803065611
 20
4993.8174252832041
 30
0.0
 11
911.80862803065611
 21
5351.6745063656181
 31
0.0
  0
LINE
  5
7BAD
  8
1
 10
1274.3086280306561
 20
5341.5899953960361
 30
0.0
 11
1274.3086280306561
 21
5533.674506365619
 31
0.0
  0
LINE
  5
7BAE
  8
1
 10
2381.8086280306538
 20
5679.8039574550912
 30
0.0
 11
2341.8086280306538
 21
5679.8039574550912
 31
0.0
  0
LINE
  5
7BB0
  8
1
 10
2381.8086280306538
 20
5679.8039574550912
 30
0.0
 11
2381.8086280306538
 21
6433.8039574550921
 31
0.0
  0
LINE
  5
7BB1
  8
1
 10
2341.8086280306538
 20
5679.8039574550912
 30
0.0
 11
2341.8086280306538
 21
6433.8039574550921
 31
0.0
  0
LINE
  5
7BB2
  8
1
 10
984.80862803065418
 20
5721.8039574550921
 30
0.0
 11
984.80862803065418
 21
6391.8039574550912
 31
0.0
  0
LINE
  5
7BB3
  8
1
 10
1201.808628030655
 20
5721.8039574550921
 30
0.0
 11
1201.808628030655
 21
5716.8039574550912
 31
0.0
  0
LINE
  5
7BB4
  8
1
 10
1266.808628030655
 20
5721.8039574550912
 30
0.0
 11
1266.808628030655
 21
5716.8039574550912
 31
0.0
  0
LINE
  5
7BB5
  8
1
 10
2256.8086280306538
 20
5721.8039574550912
 30
0.0
 11
2256.8086280306538
 21
5716.8039574550912
 31
0.0
  0
LINE
  5
7BB6
  8
1
 10
2321.8086280306538
 20
5721.8039574550912
 30
0.0
 11
2321.8086280306538
 21
5659.8039574550912
 31
0.0
  0
DIMENSION
  5
7BC9
  8
3
  2
*D2
 10
1201.8086280306541
 20
6740.8823985138106
 30
0.0
 11
1763.9847534771829
 21
6740.8823985138106
 31
0.0
 70
   128
 13
2321.8086280306538
 23
6461.8039574550921
 33
0.0
 14
1201.8086280306541
 24
6461.8039574550921
 34
0.0
1001
ACAD
1000
DSTYLE
1002
{
1070
   287
1070
     3
1070
    40
1040
30.0
1070
   143
1040
0.039
1070
   172
1070
     1
1070
   271
1070
     0
1070
   279
1070
     0
1070
   288
1070
     1
1002
}
  0
DIMENSION
  5
7BD7
  8
3
  2
*D3
 10
891.80862803065429
 20
6740.8823985138106
 30
0.0
 11
1046.8086280306541
 21
6816.9709875244407
 31
0.0
 70
   128
 13
1201.8086280306541
 23
6461.8039574550921
 33
0.0
 14
891.80862803065429
 24
5716.8039574550912
 34
0.0
1001
ACAD
1000
DSTYLE
1002
{
1070
   288
1070
     1
1070
   172
1070
     1
1070
    40
1040
30.0
1070
   271
1070
     0
1070
   143
1040
0.039
1002
}
  0
DIMENSION
  5
7BE4
  8
3
  2
*D4
 10
639.28643706505773
 20
5716.8039574550912
 30
0.0
 11
639.28643706505682
 21
5295.1988605485058
 31
0.0
 70
   128
 13
891.80862803065509
 23
4878.8039574550912
 33
0.0
 14
891.80862803065429
 24
5716.8039574550912
 34
0.0
 50
270.0
1001
ACAD
1000
DSTYLE
1002
{
1070
   287
1070
     3
1070
    40
1040
30.0
1070
   143
1040
0.039
1070
   172
1070
     1
1070
   271
1070
     0
1070
   279
1070
     0
1070
   288
1070
     1
1002
}
  0
DIMENSION
  5
7BF1
  8
3
  2
*D5
 10
2076.8086280306561
 20
4505.0479651361638
 30
0.0
 11
1482.810174374149
 21
4505.0479651361638
 31
0.0
 70
   128
 13
891.80862803065509
 23
4878.8039574550912
 33
0.0
 14
2076.8086280306561
 24
4878.8039574550912
 34
0.0
1001
ACAD
1000
DSTYLE
1002
{
1070
   287
1070
     3
1070
    40
1040
30.0
1070
   143
1040
0.039
1070
   172
1070
     1
1070
   271
1070
     0
1070
   279
1070
     0
1070
   288
1070
     1
1002
}
  0
DIMENSION
  5
7BFF
  8
3
  2
*D6
 10
2321.8086280306538
 20
4505.0479651361638
 30
0.0
 11
2557.5229137449401
 21
4505.0479651361638
 31
0.0
 70
   128
 13
2076.8086280306561
 23
4878.8039574550912
 33
0.0
 14
2321.8086280306538
 24
5659.8039574550912
 34
0.0
1001
ACAD
1000
DSTYLE
1002
{
1070
   287
1070
     2
1070
    40
1040
30.0
1070
   143
1040
0.039
1070
   172
1070
     1
1070
   271
1070
     0
1070
   279
1070
     0
1070
   288
1070
     1
1070
   289
1070
     2
1002
}
  0
LINE
  5
7C78
  8
1
 10
2076.8086280306552
 20
5659.8039574550912
 30
0.0
 11
2321.8086280306538
 21
5659.8039574550912
 31
0.0
  0
DIMENSION
  5
7C85
  8
3
  2
*D7
 10
2548.3401727747619
 20
2840.8194401879659
 30
0.0
 11
2548.3401727747619
 21
3285.3235288111282
 31
0.0
 70
   128
 13
2381.8086280306538
 23
3765.8194401879659
 33
0.0
 14
2381.8086280306538
 24
2840.8194401879659
 34
0.0
 50
270.0
1001
ACAD
1000
DSTYLE
1002
{
1070
   287
1070
     3
1070
    40
1040
30.0
1070
   143
1040
0.039
1070
   172
1070
     1
1070
   271
1070
     0
1070
   279
1070
     0
1070
   288
1070
     1
1002
}
  0
DIMENSION
  5
7C92
  8
3
  2
*D8
 10
2725.8661023534301
 20
2804.8194401879659
 30
0.0
 11
2725.8661023534301
 21
3304.3284570967298
 31
0.0
 70
   128
 13
2381.8086280306538
 23
3765.8194401879659
 33
0.0
 14
2418.0639668092008
 24
2804.8194401879659
 34
0.0
 50
270.0
1001
ACAD
1000
DSTYLE
1002
{
1070
   287
1070
     3
1070
    40
1040
30.0
1070
   143
1040
0.039
1070
   172
1070
     1
1070
   271
1070
     0
1070
   279
1070
     0
1070
   288
1070
     1
1002
}
  0
DIMENSION
  5
7C9E
  8
3
  2
*D9
 10
2725.8661023534301
 20
2124.8194401879659
 30
0.0
 11
2650.8661023534291
 21
2464.8194401879659
 31
0.0
 70
     0
 13
2418.0639668092008
 23
2804.8194401879659
 33
0.0
 14
2321.8086280306538
 24
2124.8194401879659
 34
0.0
 50
270.0
1001
ACAD
1000
DSTYLE
1002
{
1070
   287
1070
     4
1070
    40
1040
30.0
1070
    75
1070
     1
1070
   143
1040
0.039
1070
   172
1070
     1
1070
   271
1070
     0
1070
   279
1070
     1
1070
   288
1070
     1
1002
}
  0
DIMENSION
  5
7D47
  8
3
  2
*D11
 10
1761.8086280306541
 20
3956.8313007888678
 30
0.0
 11
2058.5633300180161
 21
3956.8313007888678
 31
0.0
 70
   128
 13
2381.8086280306538
 23
3808.3194401879659
 33
0.0
 14
1761.8086280306541
 24
3757.3443811334009
 34
0.0
1001
ACAD
1000
DSTYLE
1002
{
1070
   287
1070
     3
1070
    40
1040
30.0
1070
   143
1040
0.039
1070
   172
1070
     1
1070
   271
1070
     0
1070
   279
1070
     0
1070
   288
1070
     1
1002
}
  0
DIMENSION
  5
7D53
  8
3
  2
*D12
 10
984.8086280306544
 20
3956.8313007888678
 30
0.0
 11
1373.3086280306541
 21
4031.8313007888678
 31
0.0
 70
     0
 13
1761.8086280306541
 23
3757.3443811334009
 33
0.0
 14
984.80862803065418
 24
2871.8194401879659
 34
0.0
1001
ACAD
1000
DSTYLE
1002
{
1070
   287
1070
     4
1070
    40
1040
30.0
1070
    75
1070
     1
1070
   143
1040
0.039
1070
   172
1070
     1
1070
   271
1070
     0
1070
   279
1070
     1
1070
   288
1070
     1
1002
}
  0
DIMENSION
  5
7D60
  8
3
  2
*D13
 10
5186.3914073276082
 20
3957.3821685462099
 30
0.0
 11
4850.6921420321587
 21
3957.3821685462099
 31
0.0
 70
   128
 13
4516.3914073276082
 23
3765.8194401879659
 33
0.0
 14
5186.3914073276082
 24
3765.8194401879659
 34
0.0
1001
ACAD
1000
DSTYLE
1002
{
1070
   287
1070
     3
1070
    40
1040
30.0
1070
   143
1040
0.039
1070
   172
1070
     1
1070
   271
1070
     0
1070
   279
1070
     0
1070
   288
1070
     1
1002
}
  0
DIMENSION
  5
7D70
  8
3
  2
*D14
 10
4851.391407327611
 20
4150.0343094696618
 30
0.0
 11
5020.3914073276101
 21
4220.956091474236
 31
0.0
 70
   128
 13
5189.3914073276101
 23
3771.1120514040308
 33
0.0
 14
4851.391407327611
 24
4082.4090200655569
 34
0.0
1001
ACAD
1000
DSTYLE
1002
{
1070
   288
1070
     1
1070
   172
1070
     1
1070
    40
1040
30.0
1070
   271
1070
     0
1070
   143
1040
0.039
1002
}
  0
DIMENSION
  5
7DA0
  8
3
  2
*D15
 10
3526.3914073276101
 20
4150.0343094696618
 30
0.0
 11
4188.8914073276101
 21
4300.0343094696609
 31
0.0
 70
     0
  1
MAX\P1340
 13
4851.391407327611
 23
4082.4090200655569
 33
0.0
 14
3526.3914073276101
 24
3084.8194401879659
 34
0.0
1001
ACAD
1000
DSTYLE
1002
{
1070
   287
1070
     4
1070
    40
1040
30.0
1070
    75
1070
     1
1070
   143
1040
0.039
1070
   172
1070
     1
1070
   271
1070
     0
1070
   279
1070
     1
1070
   288
1070
     1
1002
}
  0
DIMENSION
  5
7DFD
  8
3
  2
*D16
 10
5447.0337941012704
 20
2329.8194401879659
 30
0.0
 11
5447.0337941012695
 21
2808.185978113379
 31
0.0
 70
   128
 13
5186.3914073276082
 23
3279.8194401879659
 33
0.0
 14
5186.3914073276101
 24
2329.8194401879659
 34
0.0
 50
90.0
1001
ACAD
1000
DSTYLE
1002
{
1070
   287
1070
     3
1070
     3
1000
φ<>
1070
    40
1040
30.0
1070
   143
1040
0.039
1070
   172
1070
     1
1070
   271
1070
     0
1070
   279
1070
     0
1070
   288
1070
     1
1002
}
  0
LINE
  5
7E09
  8
4
 10
5550.0
 20
1500.0
 30
0.0
 11
5550.0
 21
900.0
 31
0.0
  0
LINE
  5
7E0A
  8
4
 10
3450.0
 20
1500.0
 30
0.0
 11
3450.0
 21
900.0
 31
0.0
  0
LINE
  5
7E0B
  8
4
 10
1950.0
 20
1500.0
 30
0.0
 11
1950.0
 21
900.0
 31
0.0
  0
LINE
  5
7E0E
  8
4
 10
1950.0
 20
900.0
 30
0.0
 11
5550.0
 21
900.0
 31
0.0
  0
LINE
  5
7E0F
  8
4
 10
1950.0
 20
1200.0
 30
0.0
 11
5550.0
 21
1200.0
 31
0.0
  0
TEXT
  5
7E10
  8
4
 10
2065.5062425407041
 20
1294.629077599838
 30
0.0
 40
150.0
  1
機器名称
  0
TEXT
  5
7E11
  8
4
 10
2058.7743180743919
 20
964.93547019603284
 30
0.0
 40
150.0
  1
機器型番
  0
TEXT
  5
7E12
  8
4
 10
3533.036236462995
 20
1267.715306872705
 30
0.0
 40
130.0
  1
ミツヤ多翼送風機
  0
TEXT
  5
7E13
  8
4
 10
3559.9634867564419
 20
951.47875283983012
 30
0.0
 40
150.0
  1
MF#5 1/2-1
  0
TEXT
  5
7E15
  8
4
 10
2452.306731152159
 20
7150.2865239975472
 30
0.0
 40
161.99999999999989
  1
床置防振ベット
  0
TEXT
  5
7E16
  8
4
 10
898.50277998833917
 20
7601.6429285978938
 30
0.0
 40
216.0
  1
遠心式片吸込片持多翼ファン
  0
LINE
  5
7E17
  8
4
 10
750.0
 20
7408.2262627944137
 30
0.0
 11
5550.0
 21
7408.2262627944137
 31
0.0
  0
LINE
  5
7E18
  8
4
 10
750.0
 20
8008.2262627944137
 30
0.0
 11
5550.0
 21
8008.2262627944137
 31
0.0
  0
LINE
  5
7E19
  8
4
 10
1950.0
 20
1500.0
 30
0.0
 11
5550.0
 21
1500.0
 31
0.0
  0
LINE
  5
7E1A
  8
4
 10
750.0
 20
8008.2262627944137
 30
0.0
 11
750.0
 21
7408.2262627944137
 31
0.0
  0
TEXT
  5
7E1B
  8
4
 10
1144.730234424052
 20
7146.9584326390304
 30
0.0
 40
161.99999999999989
  1
右回転右横向
  0
TEXT
  5
7E1C
  8
4
 10
4406.9086777478688
 20
8118.1832444859256
 30
0.0
 40
168.0
  1
No.
  0
TEXT
  5
7E1D
  8
4
 10
3933.8881878000388
 20
7150.2865239975472
 30
0.0
 40
161.99999999999989
  1
縮尺：1/30
  0
LINE
  5
7E1E
  8
4
 10
5550.0
 20
8008.2262627944137
 30
0.0
 11
5550.0
 21
7408.2262627944137
 31
0.0
  0
LINE
  5
7E1F
  8
4
 10
6300.0
 20
8850.0
 30
0.0
 11
6300.0
 21
8850.0
 31
0.0
  0
LINE
  5
7E20
  8
4
 10
4321.8522670795937
 20
8043.790749376205
 30
0.0
 11
4321.8522670795937
 21
8359.9567846492573
 31
0.0
  0
LINE
  5
7E21
  8
4
 10
4321.8522670795937
 20
8359.9567846492573
 30
0.0
 11
5550.0
 21
8359.9567846492573
 31
0.0
  0
LINE
  5
7E22
  8
4
 10
5550.0
 20
8359.9567846492573
 30
0.0
 11
5550.0
 21
8043.790749376205
 31
0.0
  0
LINE
  5
7E23
  8
4
 10
5550.0
 20
8043.790749376205
 30
0.0
 11
4321.8522670795937
 21
8043.790749376205
 31
0.0
  0
LINE
  5
7E24
  8
4
 10
0.0
 20
0.0
 30
0.0
 11
0.0
 21
8850.0
 31
0.0
  0
LINE
  5
7E25
  8
4
 10
0.0
 20
8850.0
 30
0.0
 11
6300.0
 21
8850.0
 31
0.0
  0
LINE
  5
7E26
  8
4
 10
6300.0
 20
8850.0
 30
0.0
 11
6300.0
 21
0.0
 31
0.0
  0
LINE
  5
7E27
  8
4
 10
6300.0
 20
0.0
 30
0.0
 11
0.0
 21
0.0
 31
0.0
  0
DIMENSION
  5
7E4D
  8
3
  2
*D17
 10
891.8086280306544
 20
4155.6429031706784
 30
0.0
 11
1678.994897360458
 21
4155.6429031706784
 31
0.0
 70
   128
 13
2381.8086280306538
 23
3808.3194401879659
 33
0.0
 14
891.80862803065429
 24
2249.8194401879659
 34
0.0
1001
ACAD
1000
DSTYLE
1002
{
1070
   287
1070
     3
1070
    40
1040
30.0
1070
   143
1040
0.039
1070
   172
1070
     1
1070
   271
1070
     0
1070
   279
1070
     0
1070
   288
1070
     1
1002
}
  0
LINE
  5
7E62
  8
1
 10
5186.3914073276082
 20
3765.8194401879659
 30
0.0
 11
4516.3914073276092
 21
2840.8194401879659
 31
0.0
  0
LINE
  5
7E63
  8
1
 10
4516.3914073276082
 20
3765.8194401879659
 30
0.0
 11
5186.3914073276092
 21
2840.8194401879659
 31
0.0
  0
LINE
  5
7F26
  8
1
 10
5186.3914073276082
 20
2798.3194401879659
 30
0.0
 11
5186.3914073276101
 21
2249.8194401879659
 31
0.0
  0
LINE
  5
7F27
  8
1
 10
4516.3914073276092
 20
2798.3194401879659
 30
0.0
 11
4516.3914073276092
 21
2249.8194401879659
 31
0.0
  0
DIMENSION
  5
7F96
  8
3
  2
*D18
 10
2629.424300214087
 20
5651.8867209771561
 30
0.0
 11
2629.4243002140861
 21
6098.035728615283
 31
0.0
 70
   128
 13
2321.8086280306538
 23
6461.8039574550921
 33
0.0
 14
2321.8086280306538
 24
5651.8867209771561
 34
0.0
 50
90.0
1001
ACAD
1000
DSTYLE
1002
{
1070
   287
1070
     3
1070
    40
1040
30.0
1070
   143
1040
0.039
1070
   172
1070
     1
1070
   271
1070
     0
1070
   279
1070
     0
1070
   288
1070
     1
1002
}
  0
DIMENSION
  5
7FAD
  8
3
  2
*D19
 10
2629.4243002140861
 20
4878.8039574550912
 30
0.0
 11
2554.4243002140861
 21
5265.3453392161246
 31
0.0
 70
     0
 13
2321.8086280306538
 23
5651.8867209771561
 33
0.0
 14
2076.8086280306561
 24
4878.8039574550912
 34
0.0
 50
90.0
1001
ACAD
1000
DSTYLE
1002
{
1070
   287
1070
     4
1070
    40
1040
30.0
1070
    75
1070
     1
1070
   143
1040
0.039
1070
   172
1070
     1
1070
   271
1070
     0
1070
   279
1070
     1
1070
   288
1070
     1
1002
}
  0
LINE
  5
7FDE
  8
1
 10
2076.8086280306538
 20
2249.8194401879659
 30
0.0
 11
2076.8086280306538
 21
2124.8194401879659
 31
0.0
  0
LINE
  5
7FE2
  8
1
 10
4446.3914073276092
 20
2249.8194401879659
 30
0.0
 11
4446.3914073276092
 21
2124.8194401879659
 31
0.0
  0
DIMENSION
  5
8020
  8
3
  2
*D20
 10
1761.8086280306541
 20
1744.7998215651969
 30
0.0
 11
1326.8086280306541
 21
1819.7998215651969
 31
0.0
 70
     0
 13
891.80862803065429
 23
1954.8194401879659
 33
0.0
 14
1761.8086280306541
 24
1954.8194401879659
 34
0.0
1001
ACAD
1000
DSTYLE
1002
{
1070
   287
1070
     3
1070
    40
1040
30.0
1070
   143
1040
0.039
1070
   172
1070
     1
1070
   271
1070
     0
1070
   279
1070
     0
1002
}
  0
DIMENSION
  5
802D
  8
3
  2
*D21
 10
2321.8086280306538
 20
1744.7998215651969
 30
0.0
 11
2041.8086280306541
 21
1819.7998215651969
 31
0.0
 70
     0
 13
1761.8086280306541
 23
1954.8194401879659
 33
0.0
 14
2321.8086280306538
 24
1954.8194401879659
 34
0.0
1001
ACAD
1000
DSTYLE
1002
{
1070
   287
1070
     3
1070
    40
1040
30.0
1070
   143
1040
0.039
1070
   172
1070
     1
1070
   271
1070
     0
1070
   279
1070
     0
1002
}
  0
DIMENSION
  5
803A
  8
3
  2
*D22
 10
4851.3914073276082
 20
1744.7998215651969
 30
0.0
 11
4262.3914073276082
 21
1819.7998215651969
 31
0.0
 70
     0
 13
3673.3914073276078
 23
1954.8194401879659
 33
0.0
 14
4851.3914073276082
 24
1954.8194401879659
 34
0.0
1001
ACAD
1000
DSTYLE
1002
{
1070
   287
1070
     3
1070
    40
1040
30.0
1070
   143
1040
0.039
1070
   172
1070
     1
1070
   271
1070
     0
1070
   279
1070
     0
1002
}
  0
DIMENSION
  5
8049
  8
3
  2
*D23
 10
5256.3914073276082
 20
1744.7998215651969
 30
0.0
 11
5053.8914073276082
 21
1819.7998215651969
 31
0.0
 70
     0
 13
4851.3914073276082
 23
1954.8194401879659
 33
0.0
 14
5256.3914073276082
 24
1954.8194401879659
 34
0.0
1001
ACAD
1000
DSTYLE
1002
{
1070
   287
1070
     3
1070
    40
1040
30.0
1070
   143
1040
0.039
1070
   172
1070
     1
1070
   271
1070
     0
1070
   279
1070
     0
1002
}
  0
LINE
  5
8067
  8
1
 10
1526.8086280306541
 20
2724.8194401879659
 30
0.0
 11
1996.8086280306541
 21
2724.819440187965
 31
0.0
  0
LINE
  5
8069
  8
1
 10
1996.8086280306541
 20
2724.819440187965
 30
0.0
 11
2076.8086280306538
 21
2249.8194401879659
 31
0.0
  0
LINE
  5
806A
  8
1
 10
1526.8086280306541
 20
2724.819440187965
 30
0.0
 11
1446.8086280306541
 21
2249.8194401879659
 31
0.0
  0
LINE
  5
806F
  8
1
 10
3673.3914073276078
 20
1954.8194401879659
 30
0.0
 11
5256.3914073276082
 21
1954.8194401879659
 31
0.0
1001
ACAD
1000
ASC_BOUNDS
1002
{
1070
    19
1002
}
  0
LINE
  5
8070
  8
1
 10
3673.3914073276078
 20
2079.8194401879659
 30
0.0
 11
5256.3914073276082
 21
2079.8194401879659
 31
0.0
  0
LINE
  5
8071
  8
1
 10
5256.3914073276082
 20
2079.8194401879659
 30
0.0
 11
5256.3914073276082
 21
1954.8194401879659
 31
0.0
  0
LINE
  5
8072
  8
1
 10
3673.3914073276078
 20
2079.8194401879659
 30
0.0
 11
3673.3914073276078
 21
1954.8194401879659
 31
0.0
  0
LINE
  5
8073
  8
1
 10
4446.3914073276092
 20
2079.8194401879659
 30
0.0
 11
4446.3914073276092
 21
1954.8194401879659
 31
0.0
  0
LINE
  5
8074
  8
1
 10
891.80862803065429
 20
2079.8194401879659
 30
0.0
 11
2321.8086280306561
 21
2079.8194401879659
 31
0.0
  0
LINE
  5
8075
  8
1
 10
2321.8086280306538
 20
2079.8194401879659
 30
0.0
 11
2321.8086280306538
 21
1954.8194401879659
 31
0.0
  0
LINE
  5
8076
  8
1
 10
891.80862803065429
 20
1954.8194401879659
 30
0.0
 11
2321.8086280306561
 21
1954.8194401879659
 31
0.0
1001
ACAD
1000
ASC_BOUNDS
1002
{
1070
    19
1005
0
1002
}
  0
LINE
  5
8077
  8
1
 10
2076.8086280306538
 20
2079.8194401879659
 30
0.0
 11
2076.8086280306538
 21
1954.8194401879659
 31
0.0
  0
LINE
  5
8078
  8
1
 10
891.80862803065429
 20
2079.8194401879659
 30
0.0
 11
891.80862803065429
 21
1954.8194401879659
 31
0.0
  0
DIMENSION
  5
8087
  8
3
  2
*D24
 10
2723.126651218332
 20
1954.8194401879659
 30
0.0
 11
2648.1266512183311
 21
1697.6765830451091
 31
0.0
 70
     0
 13
2321.8086280306561
 23
2079.8194401879659
 33
0.0
 14
2321.8086280306561
 24
1954.8194401879659
 34
0.0
 50
90.0
1001
ACAD
1000
DSTYLE
1002
{
1070
   287
1070
     3
1070
    40
1040
30.0
1070
   143
1040
0.039
1070
   172
1070
     1
1070
   271
1070
     0
1070
   279
1070
     0
1070
     6
1000
DOT
1002
}
  0
DIMENSION
  5
8096
  8
3
  2
*D25
 10
2723.126651218332
 20
2124.8194401879659
 30
0.0
 11
2866.69807978976
 21
2102.3194401879659
 31
0.0
 70
     0
 13
2321.8086280306538
 23
2079.8194401879659
 33
0.0
 14
2321.8086280306538
 24
2124.8194401879659
 34
0.0
 50
90.0
1001
ACAD
1000
DSTYLE
1002
{
1070
   172
1070
     1
1070
    40
1040
30.0
1070
     3
1000
(<>)
1070
   271
1070
     0
1070
     6
1000
_DOT
1070
   143
1040
0.039
1002
}
  0
DIMENSION
  5
80A3
  8
3
  2
*D26
 10
2986.1584116399131
 20
1954.8194401879659
 30
0.0
 11
2887.5869830684851
 21
2881.5694401879659
 31
0.0
 70
     0
 13
2381.8086280306538
 23
3808.3194401879659
 33
0.0
 14
2321.8086280306538
 24
1954.8194401879659
 34
0.0
 50
90.0
1001
ACAD
1000
DSTYLE
1002
{
1070
   172
1070
     1
1070
    40
1040
30.0
1070
     3
1000
(<>)
1070
   271
1070
     0
1070
   143
1040
0.039
1002
}
  0
LINE
  5
80A8
  8
1
 10
1526.8086280306541
 20
4941.8039574550912
 30
0.0
 11
1526.8086280306541
 21
5623.8039574550912
 31
0.0
  0
LINE
  5
80A9
  8
1
 10
1996.8086280306541
 20
4941.8039574550912
 30
0.0
 11
1996.8086280306541
 21
5623.8039574550912
 31
0.0
  0
LINE
  5
80AA
  8
1
 10
1526.8086280306541
 20
4941.8039574550912
 30
0.0
 11
1729.3086280306541
 21
4941.8039574550912
 31
0.0
  0
LINE
  5
80AB
  8
1
 10
1526.8086280306541
 20
5623.8039574550912
 30
0.0
 11
1729.3086280306541
 21
5623.8039574550912
 31
0.0
  0
LINE
  5
80AC
  8
1
 10
1794.3086280306541
 20
5623.8039574550912
 30
0.0
 11
1996.8086280306541
 21
5623.8039574550912
 31
0.0
  0
LINE
  5
80AD
  8
1
 10
1794.3086280306541
 20
4941.8039574550912
 30
0.0
 11
1996.8086280306541
 21
4941.8039574550912
 31
0.0
  0
ARC
  5
80B2
  8
1
 10
1694.8086280306541
 20
2871.8194401879659
 30
0.0
 40
710.0
 50
235.4165724774528
 51
241.1702404574356
  0
ENDSEC
  0
EOF
