  0
SECTION
  2
HEADER
  9
$ACADVER
  1
AC1009
  9
$INSBASE
 10
0.0
 20
0.0
 30
0.0
  9
$EXTMIN
 10
0.0
 20
0.0
 30
0.0
  9
$EXTMAX
 10
6300.0
 20
8850.0
 30
0.0
  9
$LIMMIN
 10
0.0
 20
0.0
  9
$LIMMAX
 10
297.0
 20
210.0
  9
$ORTHOMODE
 70
     0
  9
$REGENMODE
 70
     1
  9
$FILLMODE
 70
     0
  9
$QTEXTMODE
 70
     0
  9
$MIRRTEXT
 70
     1
  9
$DRAGMODE
 70
     2
  9
$LTSCALE
 40
100.0
  9
$OSMODE
 70
    37
  9
$ATTMODE
 70
     1
  9
$TEXTSIZE
 40
180.0
  9
$TRACEWID
 40
0.05
  9
$TEXTSTYLE
  7
STANDARD
  9
$CLAYER
  8
3
  9
$CELTYPE
  6
BYLAYER
  9
$CECOLOR
 62
   256
  9
$DIMSCALE
 40
30.0
  9
$DIMASZ
 40
2.0
  9
$DIMEXO
 40
0.5
  9
$DIMDLI
 40
10.0
  9
$DIMRND
 40
0.0
  9
$DIMDLE
 40
0.0
  9
$DIMEXE
 40
1.0
  9
$DIMTP
 40
1.0
  9
$DIMTM
 40
1.0
  9
$DIMTXT
 40
3.0
  9
$DIMCEN
 40
0.0
  9
$DIMTSZ
 40
0.0
  9
$DIMTOL
 70
     0
  9
$DIMLIM
 70
     0
  9
$DIMTIH
 70
     0
  9
$DIMTOH
 70
     0
  9
$DIMSE1
 70
     0
  9
$DIMSE2
 70
     0
  9
$DIMTAD
 70
     1
  9
$DIMZIN
 70
     8
  9
$DIMBLK
  1

  9
$DIMASO
 70
     1
  9
$DIMSHO
 70
     1
  9
$DIMPOST
  1
(<>)
  9
$DIMAPOST
  1

  9
$DIMALT
 70
     0
  9
$DIMALTD
 70
     2
  9
$DIMALTF
 40
0.039
  9
$DIMLFAC
 40
1.0
  9
$DIMTOFL
 70
     1
  9
$DIMTVP
 40
0.0
  9
$DIMTIX
 70
     0
  9
$DIMSOXD
 70
     0
  9
$DIMSAH
 70
     1
  9
$DIMBLK1
  1
OPEN
  9
$DIMBLK2
  1
OPEN
  9
$DIMSTYLE
  2
IGA
  9
$DIMCLRD
 70
     0
  9
$DIMCLRE
 70
     0
  9
$DIMCLRT
 70
     0
  9
$DIMTFAC
 40
10.0
  9
$DIMGAP
 40
1.0
  9
$LUNITS
 70
     2
  9
$LUPREC
 70
     3
  9
$SKETCHINC
 40
0.1
  9
$FILLETRAD
 40
50.0
  9
$AUNITS
 70
     0
  9
$AUPREC
 70
     0
  9
$MENU
  1
acad
  9
$ELEVATION
 40
0.0
  9
$PELEVATION
 40
0.0
  9
$THICKNESS
 40
0.0
  9
$LIMCHECK
 70
     0
  9
$BLIPMODE
 70
     0
  9
$CHAMFERA
 40
0.5
  9
$CHAMFERB
 40
0.5
  9
$SKPOLY
 70
     0
  9
$TDCREATE
 40
2452521.4636486112
  9
$TDUPDATE
 40
2454953.759084919
  9
$TDINDWG
 40
0.0219672106
  9
$TDUSRTIMER
 40
0.0219672106
  9
$USRTIMER
 70
     1
  9
$ANGBASE
 50
0.0
  9
$ANGDIR
 70
     0
  9
$PDMODE
 70
     0
  9
$PDSIZE
 40
0.0
  9
$PLINEWID
 40
0.0
  9
$COORDS
 70
     1
  9
$SPLFRAME
 70
     0
  9
$SPLINETYPE
 70
     6
  9
$SPLINESEGS
 70
     8
  9
$ATTDIA
 70
     0
  9
$ATTREQ
 70
     1
  9
$HANDLING
 70
 10241
  9
$HANDSEED
  5
8082
  9
$SURFTAB1
 70
     6
  9
$SURFTAB2
 70
     6
  9
$SURFTYPE
 70
     6
  9
$SURFU
 70
     6
  9
$SURFV
 70
     6
  9
$UCSNAME
  2

  9
$UCSORG
 10
0.0
 20
0.0
 30
0.0
  9
$UCSXDIR
 10
1.0
 20
0.0
 30
0.0
  9
$UCSYDIR
 10
0.0
 20
1.0
 30
0.0
  9
$PUCSNAME
  2

  9
$PUCSORG
 10
0.0
 20
0.0
 30
0.0
  9
$PUCSXDIR
 10
1.0
 20
0.0
 30
0.0
  9
$PUCSYDIR
 10
0.0
 20
1.0
 30
0.0
  9
$USERI1
 70
     0
  9
$USERI2
 70
     0
  9
$USERI3
 70
     0
  9
$USERI4
 70
     0
  9
$USERI5
 70
     0
  9
$USERR1
 40
0.0
  9
$USERR2
 40
0.0
  9
$USERR3
 40
0.0
  9
$USERR4
 40
0.0
  9
$USERR5
 40
0.0
  9
$WORLDVIEW
 70
     1
  9
$SHADEDGE
 70
     3
  9
$SHADEDIF
 70
    70
  9
$TILEMODE
 70
     1
  9
$MAXACTVP
 70
    16
  9
$PLIMCHECK
 70
     0
  9
$PEXTMIN
 10
1.0000000000000000E+020
 20
1.0000000000000000E+020
 30
1.0000000000000000E+020
  9
$PEXTMAX
 10
-1.0000000000000000E+020
 20
-1.0000000000000000E+020
 30
-1.0000000000000000E+020
  9
$PLIMMIN
 10
0.0
 20
0.0
  9
$PLIMMAX
 10
12.0
 20
9.0
  9
$UNITMODE
 70
     0
  9
$VISRETAIN
 70
     0
  9
$PLINEGEN
 70
     0
  9
$PSLTSCALE
 70
     1
  0
ENDSEC
  0
SECTION
  2
TABLES
  0
TABLE
  2
VPORT
 70
     2
  0
VPORT
  2
*ACTIVE
 70
     0
 10
0.0
 20
0.0
 11
1.0
 21
1.0
 12
10609.8298765541
 22
4425.0000206055138
 13
0.0
 23
0.0
 14
10.0
 24
10.0
 15
10.0
 25
10.0
 16
0.0
 26
0.0
 36
1.0
 17
0.0
 27
0.0
 37
0.0
 40
8917.8446490508068
 41
3.1666666666666661
 42
50.0
 43
0.0
 44
0.0
 50
0.0
 51
0.0
 71
     0
 72
   100
 73
     1
 74
     0
 75
     0
 76
     0
 77
     0
 78
     0
  0
ENDTAB
  0
TABLE
  2
LTYPE
 70
     2
  0
LTYPE
  2
CONTINUOUS
 70
     0
  3
Solid line
 72
    65
 73
     0
 40
0.0
  0
LTYPE
  2
CENTER
 70
     0
  3
____ _ ____ _ ____ _ ____ _ ____ _ ____ _ ____ 
 72
    65
 73
     4
 40
2.0
 49
1.25
 49
-0.25
 49
0.25
 49
-0.25
  0
ENDTAB
  0
TABLE
  2
LAYER
 70
     6
  0
LAYER
  2
0
 70
     0
 62
     7
  6
CONTINUOUS
  0
LAYER
  2
3
 70
     0
 62
     2
  6
CONTINUOUS
  0
LAYER
  2
2
 70
     0
 62
     3
  6
CENTER
  0
LAYER
  2
1
 70
     0
 62
     4
  6
CONTINUOUS
  0
LAYER
  2
4
 70
     0
 62
     7
  6
CONTINUOUS
  0
LAYER
  2
DEFPOINTS
 70
     0
 62
     7
  6
CONTINUOUS
  0
ENDTAB
  0
TABLE
  2
STYLE
 70
     1
  0
STYLE
  2
STANDARD
 70
     0
 40
0.0
 41
1.0
 50
0.0
 71
     0
 42
180.0
  3
simplex.shx
  4
extfont.shx
  0
ENDTAB
  0
TABLE
  2
VIEW
 70
     0
  0
ENDTAB
  0
TABLE
  2
UCS
 70
     0
  0
ENDTAB
  0
TABLE
  2
APPID
 70
     1
  0
APPID
  2
ACAD
 70
     0
  0
ENDTAB
  0
TABLE
  2
DIMSTYLE
 70
     1
  0
DIMSTYLE
  2
IGA
 70
     0
  3

  4

  5

  6
OPEN
  7
OPEN
 40
2.0
 41
2.0
 42
0.5
 43
10.0
 44
1.0
 45
0.0
 46
0.0
 47
1.0
 48
1.0
140
3.0
141
0.0
142
0.0
143
0.03937
144
1.0
145
0.0
146
10.0
147
1.0
 71
     0
 72
     0
 73
     0
 74
     0
 75
     0
 76
     0
 77
     1
 78
     8
170
     0
171
     2
172
     0
173
     1
174
     0
175
     0
176
     0
177
     0
178
     0
  0
ENDTAB
  0
ENDSEC
  0
SECTION
  2
BLOCKS
  0
BLOCK
  8
0
  2
$MODEL_SPACE
 70
     0
 10
0.0
 20
0.0
 30
0.0
  3
$MODEL_SPACE
  1

  0
ENDBLK
  5
1B
  8
0
  0
BLOCK
 67
     1
  8
0
  2
$PAPER_SPACE
 70
     0
 10
0.0
 20
0.0
 30
0.0
  3
$PAPER_SPACE
  1

  0
ENDBLK
  5
18
 67
     1
  8
0
  0
BLOCK
  8
0
  2
YA_N
 70
     0
 10
0.0
 20
0.0
 30
0.0
  3
YA_N
  1

  0
ENDBLK
  5
79FE
  8
0
  0
BLOCK
  8
0
  2
_OPEN
 70
     0
 10
0.0
 20
0.0
 30
0.0
  3
_OPEN
  1

  0
LINE
  5
7BB9
  8
0
  6
BYBLOCK
 62
     0
 10
-1.0
 20
0.1666666666666666
 30
0.0
 11
0.0
 21
0.0
 31
0.0
  0
LINE
  5
7BBA
  8
0
  6
BYBLOCK
 62
     0
 10
0.0
 20
0.0
 30
0.0
 11
-1.0
 21
-0.1666666666666666
 31
0.0
  0
LINE
  5
7BBB
  8
0
  6
BYBLOCK
 62
     0
 10
0.0
 20
0.0
 30
0.0
 11
-1.0
 21
0.0
 31
0.0
  0
ENDBLK
  5
7BBC
  8
0
  0
BLOCK
  8
0
  2
*D2
 70
     1
 10
0.0
 20
0.0
 30
0.0
  3
*D2
  1

  0
LINE
  5
7FB7
  8
3
 62
     0
 10
1201.8086280306541
 20
6476.8039574550912
 30
0.0
 11
1201.8086280306541
 21
6770.8823985138106
 31
0.0
  0
LINE
  5
7FB8
  8
3
 62
     0
 10
2321.8086280306538
 20
6476.8039574550912
 30
0.0
 11
2321.8086280306538
 21
6770.8823985138106
 31
0.0
  0
LINE
  5
7FB9
  8
3
 62
     0
 10
1261.8086280306541
 20
6740.8823985138106
 30
0.0
 11
2261.8086280306538
 21
6740.8823985138106
 31
0.0
  0
INSERT
  5
7FBA
  8
3
 62
     0
  2
_OPEN
 10
1201.8086280306541
 20
6740.8823985138106
 30
0.0
 41
60.0
 42
60.0
 43
60.0
 50
180.0
  0
INSERT
  5
7FBB
  8
3
 62
     0
  2
_OPEN
 10
2321.8086280306538
 20
6740.8823985138106
 30
0.0
 41
60.0
 42
60.0
 43
60.0
  0
TEXT
  8
3
  40
90
  5
806D
  62
0
  72
0
  71
0
 10
1579.63
 20
6656.58
 30
0.000000
  1
1120
  0
POINT
  5
7FBD
  8
DEFPOINTS
 62
     0
 10
1201.8086280306541
 20
6461.8039574550921
 30
0.0
  0
POINT
  5
7FBE
  8
DEFPOINTS
 62
     0
 10
2321.8086280306538
 20
6461.8039574550921
 30
0.0
  0
POINT
  5
7FBF
  8
DEFPOINTS
 62
     0
 10
2321.8086280306538
 20
6740.8823985138106
 30
0.0
  0
ENDBLK
  5
7BC8
  8
0
  0
BLOCK
  8
0
  2
*D3
 70
     1
 10
0.0
 20
0.0
 30
0.0
  3
*D3
  1

  0
LINE
  5
7C49
  8
0
  6
BYBLOCK
 62
     0
 10
2321.8086280306538
 20
6180.058395300528
 30
0.0
 11
2321.8086280306538
 21
6474.1368363592492
 31
0.0
  0
LINE
  5
7C4A
  8
0
  6
BYBLOCK
 62
     0
 10
2631.8086280306538
 20
5435.058395300528
 30
0.0
 11
2631.8086280306538
 21
6474.1368363592492
 31
0.0
  0
LINE
  5
7C4B
  8
0
  6
BYBLOCK
 62
     0
 10
2381.8086280306538
 20
6444.1368363592483
 30
0.0
 11
2571.8086280306538
 21
6444.1368363592483
 31
0.0
  0
TEXT
  5
7C4C
  8
3
 62
     0
 10
2369.665770887797
 20
6475.2254253698766
 30
0.0
 40
90.0
  1
310
  0
INSERT
  5
7C4D
  8
0
  6
BYBLOCK
 62
     0
  2
_OPEN
 10
2321.8086280306538
 20
6444.1368363592483
 30
0.0
 41
60.0
 42
60.0
 43
60.0
 50
180.0
  0
INSERT
  5
7C4E
  8
0
  6
BYBLOCK
 62
     0
  2
_OPEN
 10
2631.8086280306538
 20
6444.1368363592483
 30
0.0
 41
60.0
 42
60.0
 43
60.0
  0
POINT
  5
7C4F
  8
DEFPOINTS
  6
BYBLOCK
 62
     0
 10
2321.8086280306538
 20
6165.058395300528
 30
0.0
  0
POINT
  5
7C50
  8
DEFPOINTS
  6
BYBLOCK
 62
     0
 10
2631.8086280306538
 20
5420.058395300528
 30
0.0
  0
POINT
  5
7C51
  8
DEFPOINTS
  6
BYBLOCK
 62
     0
 10
2631.8086280306538
 20
6444.1368363592483
 30
0.0
  0
ENDBLK
  5
7C52
  8
0
  0
BLOCK
  8
0
  2
*D4
 70
     1
 10
0.0
 20
0.0
 30
0.0
  3
*D4
  1

  0
LINE
  5
7FC0
  8
3
 62
     0
 10
2646.8086280306529
 20
4878.8039574550912
 30
0.0
 11
2914.3308189962522
 21
4878.8039574550912
 31
0.0
  0
LINE
  5
7FC1
  8
3
 62
     0
 10
2646.8086280306538
 20
5716.8039574550912
 30
0.0
 11
2914.3308189962531
 21
5716.8039574550912
 31
0.0
  0
LINE
  5
7FC2
  8
3
 62
     0
 10
2884.3308189962522
 20
4938.8039574550921
 30
0.0
 11
2884.3308189962522
 21
5656.8039574550921
 31
0.0
  0
INSERT
  5
7FC3
  8
3
 62
     0
  2
_OPEN
 10
2884.3308189962522
 20
4878.8039574550912
 30
0.0
 41
60.0
 42
60.0
 43
60.0
 50
270.0
  0
INSERT
  5
7FC4
  8
3
 62
     0
  2
_OPEN
 10
2884.3308189962522
 20
5716.8039574550912
 30
0.0
 41
60.0
 42
60.0
 43
60.0
 50
90.0
  0
TEXT
  8
3
  40
90
  5
806E
  62
0
  72
0
  71
0
 10
2629.33
 20
5135.90
 30
0.000000
  1
838
  0
POINT
  5
7FC6
  8
DEFPOINTS
 62
     0
 10
2631.8086280306529
 20
4878.8039574550912
 30
0.0
  0
POINT
  5
7FC7
  8
DEFPOINTS
 62
     0
 10
2631.8086280306538
 20
5716.8039574550912
 30
0.0
  0
POINT
  5
7FC8
  8
DEFPOINTS
 62
     0
 10
2884.3308189962522
 20
5716.8039574550912
 30
0.0
  0
ENDBLK
  5
7BE3
  8
0
  0
BLOCK
  8
0
  2
*D5
 70
     1
 10
0.0
 20
0.0
 30
0.0
  3
*D5
  1

  0
LINE
  5
7FC9
  8
3
 62
     0
 10
2631.8086280306529
 20
4863.8039574550912
 30
0.0
 11
2631.8086280306529
 21
4475.0479651361629
 31
0.0
  0
LINE
  5
7FCA
  8
3
 62
     0
 10
1446.808628030652
 20
4863.8039574550912
 30
0.0
 11
1446.808628030652
 21
4475.0479651361629
 31
0.0
  0
LINE
  5
7FCB
  8
3
 62
     0
 10
2571.8086280306529
 20
4505.0479651361638
 30
0.0
 11
1506.808628030652
 21
4505.0479651361638
 31
0.0
  0
INSERT
  5
7FCC
  8
3
 62
     0
  2
_OPEN
 10
2631.8086280306529
 20
4505.0479651361638
 30
0.0
 41
60.0
 42
60.0
 43
60.0
  0
INSERT
  5
7FCD
  8
3
 62
     0
  2
_OPEN
 10
1446.808628030652
 20
4505.0479651361638
 30
0.0
 41
60.0
 42
60.0
 43
60.0
 50
180.0
  0
TEXT
  8
3
  40
90
  5
806F
  62
0
  72
0
  71
0
 10
1860.81
 20
4420.75
 30
0.000000
  1
1185
  0
POINT
  5
7FCF
  8
DEFPOINTS
 62
     0
 10
2631.8086280306529
 20
4878.8039574550912
 30
0.0
  0
POINT
  5
7FD0
  8
DEFPOINTS
 62
     0
 10
1446.808628030652
 20
4878.8039574550912
 30
0.0
  0
POINT
  5
7FD1
  8
DEFPOINTS
 62
     0
 10
1446.808628030652
 20
4505.0479651361638
 30
0.0
  0
ENDBLK
  5
7BF0
  8
0
  0
BLOCK
  8
0
  2
*D6
 70
     1
 10
0.0
 20
0.0
 30
0.0
  3
*D6
  1

  0
LINE
  5
7FD2
  8
3
 62
     0
 10
1446.808628030652
 20
4863.8039574550912
 30
0.0
 11
1446.808628030652
 21
4475.0479651361629
 31
0.0
  0
LINE
  5
7FD3
  8
3
 62
     0
 10
1201.8086280306541
 20
5636.8039574550912
 30
0.0
 11
1201.8086280306541
 21
4475.0479651361629
 31
0.0
  0
LINE
  5
7FD4
  8
3
 62
     0
 10
1386.808628030652
 20
4505.0479651361638
 30
0.0
 11
1261.8086280306541
 21
4505.0479651361638
 31
0.0
  0
LINE
  5
7FD5
  8
3
 62
     0
 10
1201.8086280306541
 20
4505.0479651361638
 30
0.0
 11
820.38005660208285
 21
4505.0479651361638
 31
0.0
  0
INSERT
  5
7FD6
  8
3
 62
     0
  2
_OPEN
 10
1446.808628030652
 20
4505.0479651361638
 30
0.0
 41
60.0
 42
60.0
 43
60.0
  0
INSERT
  5
7FD7
  8
3
 62
     0
  2
_OPEN
 10
1201.8086280306541
 20
4505.0479651361638
 30
0.0
 41
60.0
 42
60.0
 43
60.0
 50
180.0
  0
TEXT
  8
3
  40
90
  5
8070
  62
0
  72
0
  71
0
 10
786.094
 20
4420.75
 30
0.000000
  1
245
  0
POINT
  5
7FD9
  8
DEFPOINTS
 62
     0
 10
1446.808628030652
 20
4878.8039574550912
 30
0.0
  0
POINT
  5
7FDA
  8
DEFPOINTS
 62
     0
 10
1201.8086280306541
 20
5651.8039574550912
 30
0.0
  0
POINT
  5
7FDB
  8
DEFPOINTS
 62
     0
 10
1201.8086280306541
 20
4505.0479651361638
 30
0.0
  0
ENDBLK
  5
7C77
  8
0
  0
BLOCK
  8
0
  2
*D7
 70
     1
 10
0.0
 20
0.0
 30
0.0
  3
*D7
  1

  0
LINE
  5
7FDC
  8
3
 62
     0
 10
1126.8086280306541
 20
3765.8194401879659
 30
0.0
 11
991.23915476348748
 21
3765.8194401879659
 31
0.0
  0
LINE
  5
7FDD
  8
3
 62
     0
 10
1126.8086280306541
 20
2840.8194401879659
 30
0.0
 11
991.23915476348748
 21
2840.8194401879668
 31
0.0
  0
LINE
  5
7FDE
  8
3
 62
     0
 10
1021.239154763487
 20
3705.8194401879659
 30
0.0
 11
1021.239154763487
 21
2900.8194401879668
 31
0.0
  0
INSERT
  5
7FDF
  8
3
 62
     0
  2
_OPEN
 10
1021.239154763487
 20
3765.8194401879659
 30
0.0
 41
60.0
 42
60.0
 43
60.0
 50
90.0
  0
INSERT
  5
7FE0
  8
3
 62
     0
  2
_OPEN
 10
1021.239154763487
 20
2840.8194401879668
 30
0.0
 41
60.0
 42
60.0
 43
60.0
 50
270.0
  0
TEXT
  8
3
  40
90
  5
8071
  62
0
  72
0
  71
0
 10
766.239
 20
3126.02
 30
0.000000
  1
925
  0
POINT
  5
7FE2
  8
DEFPOINTS
 62
     0
 10
1141.8086280306541
 20
3765.8194401879659
 30
0.0
  0
POINT
  5
7FE3
  8
DEFPOINTS
 62
     0
 10
1141.8086280306541
 20
2840.8194401879659
 30
0.0
  0
POINT
  5
7FE4
  8
DEFPOINTS
 62
     0
 10
1021.239154763487
 20
2840.8194401879668
 30
0.0
  0
ENDBLK
  5
7C84
  8
0
  0
BLOCK
  8
0
  2
*D8
 70
     1
 10
0.0
 20
0.0
 30
0.0
  3
*D8
  1

  0
LINE
  5
7FE5
  8
3
 62
     0
 10
1126.8086280306541
 20
3765.8194401879659
 30
0.0
 11
813.71322518482032
 21
3765.8194401879659
 31
0.0
  0
LINE
  5
7FE6
  8
3
 62
     0
 10
1090.5532892521071
 20
2804.8194401879659
 30
0.0
 11
813.71322518481998
 21
2804.8194401879668
 31
0.0
  0
LINE
  5
7FE7
  8
3
 62
     0
 10
843.7132251848202
 20
3705.8194401879659
 30
0.0
 11
843.7132251848202
 21
2864.8194401879659
 31
0.0
  0
INSERT
  5
7FE8
  8
3
 62
     0
  2
_OPEN
 10
843.7132251848202
 20
3765.8194401879659
 30
0.0
 41
60.0
 42
60.0
 43
60.0
 50
90.0
  0
INSERT
  5
7FE9
  8
3
 62
     0
  2
_OPEN
 10
843.71322518482009
 20
2804.8194401879668
 30
0.0
 41
60.0
 42
60.0
 43
60.0
 50
270.0
  0
TEXT
  8
3
  40
90
  5
8072
  62
0
  72
0
  71
0
 10
588.713
 20
3145.03
 30
0.000000
  1
961
  0
POINT
  5
7FEB
  8
DEFPOINTS
 62
     0
 10
1141.8086280306541
 20
3765.8194401879659
 30
0.0
  0
POINT
  5
7FEC
  8
DEFPOINTS
 62
     0
 10
1105.5532892521071
 20
2804.8194401879659
 30
0.0
  0
POINT
  5
7FED
  8
DEFPOINTS
 62
     0
 10
843.71322518482009
 20
2804.8194401879668
 30
0.0
  0
ENDBLK
  5
7C91
  8
0
  0
BLOCK
  8
0
  2
*D9
 70
     1
 10
0.0
 20
0.0
 30
0.0
  3
*D9
  1

  0
LINE
  5
7FEE
  8
3
 62
     0
 10
1186.8086280306541
 20
2124.8194401879659
 30
0.0
 11
813.71322518481963
 21
2124.8194401879659
 31
0.0
  0
LINE
  5
7FEF
  8
3
 62
     0
 10
843.71322518481986
 20
2744.8194401879668
 30
0.0
 11
843.71322518481975
 21
2184.8194401879668
 31
0.0
  0
INSERT
  5
7FF0
  8
3
 62
     0
  2
_OPEN
 10
843.71322518481986
 20
2804.8194401879668
 30
0.0
 41
60.0
 42
60.0
 43
60.0
 50
90.0
  0
INSERT
  5
7FF1
  8
3
 62
     0
  2
_OPEN
 10
843.71322518481975
 20
2124.8194401879659
 30
0.0
 41
60.0
 42
60.0
 43
60.0
 50
270.0
  0
TEXT
  8
3
  40
90
  5
8073
  62
0
  72
0
  71
0
 10
588.713
 20
2305.52
 30
0.000000
  1
680
  0
POINT
  5
7FF3
  8
DEFPOINTS
 62
     0
 10
1105.5532892521071
 20
2804.8194401879659
 30
0.0
  0
POINT
  5
7FF4
  8
DEFPOINTS
 62
     0
 10
1201.8086280306541
 20
2124.8194401879659
 30
0.0
  0
POINT
  5
7FF5
  8
DEFPOINTS
 62
     0
 10
843.71322518481975
 20
2124.8194401879659
 30
0.0
  0
ENDBLK
  5
7C9D
  8
0
  0
BLOCK
  8
0
  2
_DOT
 70
     0
 10
0.0
 20
0.0
 30
0.0
  3
_DOT
  1

  0
LINE
  5
7D1D
  8
0
  6
BYBLOCK
 62
     0
 10
0.0
 20
0.0
 30
0.0
 11
-1.0
 21
-0.0000000000000284
 31
0.0
  0
POLYLINE
  5
7D1E
  8
0
  6
BYBLOCK
 62
     0
 66
     1
 10
0.0
 20
0.0
 30
0.0
 70
     1
 40
0.1666666666666666
 41
0.1666666666666666
  0
VERTEX
  5
7FF6
  8
0
  6
BYBLOCK
 62
     0
 10
-0.0833333333333286
 20
-0.0000000000000284
 30
0.0
 42
1.0
  0
VERTEX
  5
7FF7
  8
0
  6
BYBLOCK
 62
     0
 10
0.0833333333333286
 20
-0.0000000000000284
 30
0.0
 42
1.0
  0
SEQEND
  5
7FF8
  8
0
  6
BYBLOCK
 62
     0
  0
ENDBLK
  5
7CE9
  8
0
  0
BLOCK
  8
0
  2
*D11
 70
     1
 10
0.0
 20
0.0
 30
0.0
  3
*D11
  1

  0
LINE
  5
7FF9
  8
3
 62
     0
 10
1141.8086280306541
 20
3823.3194401879659
 30
0.0
 11
1141.8086280306541
 21
3986.8313007888678
 31
0.0
  0
LINE
  5
7FFA
  8
3
 62
     0
 10
1761.8086280306541
 20
3772.3443811334018
 30
0.0
 11
1761.8086280306541
 21
3986.8313007888678
 31
0.0
  0
LINE
  5
7FFB
  8
3
 62
     0
 10
1201.8086280306541
 20
3956.8313007888678
 30
0.0
 11
1701.8086280306541
 21
3956.8313007888678
 31
0.0
  0
INSERT
  5
7FFC
  8
3
 62
     0
  2
_OPEN
 10
1141.8086280306541
 20
3956.8313007888678
 30
0.0
 41
60.0
 42
60.0
 43
60.0
 50
180.0
  0
INSERT
  5
7FFD
  8
3
 62
     0
  2
_OPEN
 10
1761.8086280306541
 20
3956.8313007888678
 30
0.0
 41
60.0
 42
60.0
 43
60.0
  0
TEXT
  8
3
  40
90
  5
8074
  62
0
  72
0
  71
0
 10
1285.05
 20
3872.53
 30
0.000000
  1
620
  0
POINT
  5
7FFF
  8
DEFPOINTS
 62
     0
 10
1141.8086280306541
 20
3808.3194401879659
 30
0.0
  0
POINT
  5
8000
  8
DEFPOINTS
 62
     0
 10
1761.8086280306541
 20
3757.3443811334009
 30
0.0
  0
POINT
  5
8001
  8
DEFPOINTS
 62
     0
 10
1761.8086280306541
 20
3956.8313007888678
 30
0.0
  0
ENDBLK
  5
7D46
  8
0
  0
BLOCK
  8
0
  2
*D12
 70
     1
 10
0.0
 20
0.0
 30
0.0
  3
*D12
  1

  0
LINE
  5
8002
  8
3
 62
     0
 10
2538.8086280306538
 20
2886.8194401879659
 30
0.0
 11
2538.8086280306538
 21
3986.8313007888678
 31
0.0
  0
LINE
  5
8003
  8
3
 62
     0
 10
1821.8086280306541
 20
3956.8313007888678
 30
0.0
 11
2478.8086280306538
 21
3956.8313007888678
 31
0.0
  0
INSERT
  5
8004
  8
3
 62
     0
  2
_OPEN
 10
1761.8086280306541
 20
3956.8313007888678
 30
0.0
 41
60.0
 42
60.0
 43
60.0
 50
180.0
  0
INSERT
  5
8005
  8
3
 62
     0
  2
_OPEN
 10
2538.8086280306538
 20
3956.8313007888678
 30
0.0
 41
60.0
 42
60.0
 43
60.0
  0
TEXT
  8
3
  40
90
  5
8075
  62
0
  72
0
  71
0
 10
1970.31
 20
3872.53
 30
0.000000
  1
777
  0
POINT
  5
8007
  8
DEFPOINTS
 62
     0
 10
1761.8086280306541
 20
3757.3443811334009
 30
0.0
  0
POINT
  5
8008
  8
DEFPOINTS
 62
     0
 10
2538.8086280306538
 20
2871.8194401879659
 30
0.0
  0
POINT
  5
8009
  8
DEFPOINTS
 62
     0
 10
2538.8086280306538
 20
3956.8313007888678
 30
0.0
  0
ENDBLK
  5
7D52
  8
0
  0
BLOCK
  8
0
  2
*D13
 70
     1
 10
0.0
 20
0.0
 30
0.0
  3
*D13
  1

  0
LINE
  5
800A
  8
3
 62
     0
 10
4516.3914073276082
 20
3780.8194401879668
 30
0.0
 11
4516.3914073276082
 21
3987.3821685462099
 31
0.0
  0
LINE
  5
800B
  8
3
 62
     0
 10
5186.3914073276082
 20
3780.8194401879659
 30
0.0
 11
5186.3914073276082
 21
3987.3821685462099
 31
0.0
  0
LINE
  5
800C
  8
3
 62
     0
 10
4576.3914073276082
 20
3957.3821685462099
 30
0.0
 11
5126.3914073276082
 21
3957.3821685462099
 31
0.0
  0
INSERT
  5
800D
  8
3
 62
     0
  2
_OPEN
 10
4516.3914073276082
 20
3957.3821685462099
 30
0.0
 41
60.0
 42
60.0
 43
60.0
 50
180.0
  0
INSERT
  5
800E
  8
3
 62
     0
  2
_OPEN
 10
5186.3914073276082
 20
3957.3821685462099
 30
0.0
 41
60.0
 42
60.0
 43
60.0
  0
TEXT
  8
3
  40
90
  5
8076
  62
0
  72
0
  71
0
 10
4670.69
 20
3873.08
 30
0.000000
  1
670
  0
POINT
  5
8010
  8
DEFPOINTS
 62
     0
 10
4516.3914073276082
 20
3765.8194401879659
 30
0.0
  0
POINT
  5
8011
  8
DEFPOINTS
 62
     0
 10
5186.3914073276082
 20
3765.8194401879659
 30
0.0
  0
POINT
  5
8012
  8
DEFPOINTS
 62
     0
 10
5186.3914073276082
 20
3957.3821685462099
 30
0.0
  0
ENDBLK
  5
7D5F
  8
0
  0
BLOCK
  8
0
  2
*D14
 70
     1
 10
0.0
 20
0.0
 30
0.0
  3
*D14
  1

  0
LINE
  5
7DAC
  8
0
  6
BYBLOCK
 62
     0
 10
5189.3914073276101
 20
3786.1120514040308
 30
0.0
 11
5189.3914073276101
 21
4180.0343094696618
 31
0.0
  0
LINE
  5
7DAD
  8
0
  6
BYBLOCK
 62
     0
 10
4851.391407327611
 20
4097.4090200655573
 30
0.0
 11
4851.391407327611
 21
4180.0343094696618
 31
0.0
  0
LINE
  5
7DAE
  8
0
  6
BYBLOCK
 62
     0
 10
5129.3914073276092
 20
4150.0343094696618
 30
0.0
 11
4911.3914073276092
 21
4150.0343094696618
 31
0.0
  0
TEXT
  5
7DAF
  8
3
 62
     0
 10
4904.6771216133247
 20
4175.956091474236
 30
0.0
 40
90.0
  1
338
  0
INSERT
  5
7DB0
  8
0
  6
BYBLOCK
 62
     0
  2
_OPEN
 10
5189.3914073276101
 20
4150.0343094696618
 30
0.0
 41
60.0
 42
60.0
 43
60.0
  0
INSERT
  5
7DB1
  8
0
  6
BYBLOCK
 62
     0
  2
_OPEN
 10
4851.391407327611
 20
4150.0343094696618
 30
0.0
 41
60.0
 42
60.0
 43
60.0
 50
180.0
  0
POINT
  5
7DB2
  8
DEFPOINTS
  6
BYBLOCK
 62
     0
 10
5189.3914073276101
 20
3771.1120514040308
 30
0.0
  0
POINT
  5
7DB3
  8
DEFPOINTS
  6
BYBLOCK
 62
     0
 10
4851.391407327611
 20
4082.4090200655569
 30
0.0
  0
POINT
  5
7DB4
  8
DEFPOINTS
  6
BYBLOCK
 62
     0
 10
4851.391407327611
 20
4150.0343094696618
 30
0.0
  0
ENDBLK
  5
7DB5
  8
0
  0
BLOCK
  8
0
  2
*D15
 70
     1
 10
0.0
 20
0.0
 30
0.0
  3
*D15
  1

  0
LINE
  5
8013
  8
3
 62
     0
 10
3526.3914073276101
 20
3099.8194401879659
 30
0.0
 11
3526.3914073276101
 21
4180.0343094696618
 31
0.0
  0
LINE
  5
8014
  8
3
 62
     0
 10
4791.3914073276101
 20
4150.0343094696618
 30
0.0
 11
3586.3914073276101
 21
4150.0343094696618
 31
0.0
  0
INSERT
  5
8015
  8
3
 62
     0
  2
_OPEN
 10
4851.391407327611
 20
4150.0343094696618
 30
0.0
 41
60.0
 42
60.0
 43
60.0
  0
INSERT
  5
8016
  8
3
 62
     0
  2
_OPEN
 10
3526.3914073276101
 20
4150.0343094696618
 30
0.0
 41
60.0
 42
60.0
 43
60.0
 50
180.0
  0
TEXT
  8
3
  40
90
  5
8077
  62
0
  72
0
  71
0
 10
4008.89
 20
4140.73
 30
0.000000
  1
MAX
  0
TEXT
  8
3
  40
90
  5
8078
  62
0
  72
0
  71
0
 10
4008.89
 20
4023.73
 30
0.000000
  1
1340
  0
POINT
  5
8018
  8
DEFPOINTS
 62
     0
 10
4851.391407327611
 20
4082.4090200655569
 30
0.0
  0
POINT
  5
8019
  8
DEFPOINTS
 62
     0
 10
3526.3914073276101
 20
3084.8194401879659
 30
0.0
  0
POINT
  5
801A
  8
DEFPOINTS
 62
     0
 10
3526.3914073276101
 20
4150.0343094696618
 30
0.0
  0
ENDBLK
  5
7DBF
  8
0
  0
BLOCK
  8
0
  2
*D16
 70
     1
 10
0.0
 20
0.0
 30
0.0
  3
*D16
  1

  0
LINE
  5
801B
  8
3
 62
     0
 10
5201.3914073276092
 20
3279.8194401879659
 30
0.0
 11
5477.0337941012704
 21
3279.8194401879659
 31
0.0
  0
LINE
  5
801C
  8
3
 62
     0
 10
5201.3914073276101
 20
2329.8194401879659
 30
0.0
 11
5477.0337941012704
 21
2329.8194401879659
 31
0.0
  0
LINE
  5
801D
  8
3
 62
     0
 10
5447.0337941012704
 20
3219.8194401879659
 30
0.0
 11
5447.0337941012704
 21
2389.8194401879659
 31
0.0
  0
INSERT
  5
801E
  8
3
 62
     0
  2
_OPEN
 10
5447.0337941012704
 20
3279.8194401879659
 30
0.0
 41
60.0
 42
60.0
 43
60.0
 50
90.0
  0
INSERT
  5
801F
  8
3
 62
     0
  2
_OPEN
 10
5447.0337941012704
 20
2329.8194401879659
 30
0.0
 41
60.0
 42
60.0
 43
60.0
 50
270.0
  0
TEXT
  8
3
  40
90
  5
8079
  62
0
  72
0
  71
0
 10
5192.03
 20
2648.89
 30
0.000000
  1
φ950
  0
POINT
  5
8021
  8
DEFPOINTS
 62
     0
 10
5186.3914073276082
 20
3279.8194401879659
 30
0.0
  0
POINT
  5
8022
  8
DEFPOINTS
 62
     0
 10
5186.3914073276101
 20
2329.8194401879659
 30
0.0
  0
POINT
  5
8023
  8
DEFPOINTS
 62
     0
 10
5447.0337941012704
 20
2329.8194401879659
 30
0.0
  0
ENDBLK
  5
7E08
  8
0
  0
BLOCK
  8
0
  2
*D17
 70
     1
 10
0.0
 20
0.0
 30
0.0
  3
*D17
  1

  0
LINE
  5
8024
  8
3
 62
     0
 10
1141.8086280306541
 20
3823.3194401879659
 30
0.0
 11
1141.8086280306541
 21
4185.6429031706803
 31
0.0
  0
LINE
  5
8025
  8
3
 62
     0
 10
2631.8086280306538
 20
2264.8194401879659
 30
0.0
 11
2631.8086280306538
 21
4185.6429031706803
 31
0.0
  0
LINE
  5
8026
  8
3
 62
     0
 10
1201.8086280306541
 20
4155.6429031706784
 30
0.0
 11
2571.8086280306538
 21
4155.6429031706784
 31
0.0
  0
INSERT
  5
8027
  8
3
 62
     0
  2
_OPEN
 10
1141.8086280306541
 20
4155.6429031706784
 30
0.0
 41
60.0
 42
60.0
 43
60.0
 50
180.0
  0
INSERT
  5
8028
  8
3
 62
     0
  2
_OPEN
 10
2631.8086280306538
 20
4155.6429031706784
 30
0.0
 41
60.0
 42
60.0
 43
60.0
  0
TEXT
  8
3
  40
90
  5
807A
  62
0
  72
0
  71
0
 10
1664.62
 20
4071.34
 30
0.000000
  1
1490
  0
POINT
  5
802A
  8
DEFPOINTS
 62
     0
 10
1141.8086280306541
 20
3808.3194401879659
 30
0.0
  0
POINT
  5
802B
  8
DEFPOINTS
 62
     0
 10
2631.8086280306538
 20
2249.8194401879659
 30
0.0
  0
POINT
  5
802C
  8
DEFPOINTS
 62
     0
 10
2631.8086280306538
 20
4155.6429031706784
 30
0.0
  0
ENDBLK
  5
7E5D
  8
0
  0
BLOCK
  8
0
  2
*D18
 70
     1
 10
0.0
 20
0.0
 30
0.0
  3
*D18
  1

  0
LINE
  5
802D
  8
3
 62
     0
 10
1186.8086280306541
 20
6461.8039574550921
 30
0.0
 11
1014.391828501849
 21
6461.8039574550921
 31
0.0
  0
LINE
  5
802E
  8
3
 62
     0
 10
1186.8086280306541
 20
5651.8039574550912
 30
0.0
 11
1014.391828501848
 21
5651.8039574550912
 31
0.0
  0
LINE
  5
802F
  8
3
 62
     0
 10
1044.391828501849
 20
6401.8039574550912
 30
0.0
 11
1044.391828501849
 21
5711.8039574550912
 31
0.0
  0
INSERT
  5
8030
  8
3
 62
     0
  2
_OPEN
 10
1044.391828501849
 20
6461.8039574550921
 30
0.0
 41
60.0
 42
60.0
 43
60.0
 50
90.0
  0
INSERT
  5
8031
  8
3
 62
     0
  2
_OPEN
 10
1044.391828501849
 20
5651.8039574550912
 30
0.0
 41
60.0
 42
60.0
 43
60.0
 50
270.0
  0
TEXT
  8
3
  40
90
  5
807B
  62
0
  72
0
  71
0
 10
789.392
 20
5922.64
 30
0.000000
  1
810
  0
POINT
  5
8033
  8
DEFPOINTS
 62
     0
 10
1201.8086280306541
 20
6461.8039574550921
 30
0.0
  0
POINT
  5
8034
  8
DEFPOINTS
 62
     0
 10
1201.8086280306541
 20
5651.8039574550912
 30
0.0
  0
POINT
  5
8035
  8
DEFPOINTS
 62
     0
 10
1044.391828501849
 20
5651.8039574550912
 30
0.0
  0
ENDBLK
  5
7E8B
  8
0
  0
BLOCK
  8
0
  2
*D19
 70
     1
 10
0.0
 20
0.0
 30
0.0
  3
*D19
  1

  0
LINE
  5
8036
  8
3
 62
     0
 10
1431.808628030652
 20
4878.8039574550912
 30
0.0
 11
1014.391828501848
 21
4878.8039574550912
 31
0.0
  0
LINE
  5
8037
  8
3
 62
     0
 10
1044.3918285018481
 20
5591.8039574550912
 30
0.0
 11
1044.3918285018481
 21
4938.8039574550921
 31
0.0
  0
INSERT
  5
8038
  8
3
 62
     0
  2
_OPEN
 10
1044.3918285018481
 20
5651.8039574550912
 30
0.0
 41
60.0
 42
60.0
 43
60.0
 50
90.0
  0
INSERT
  5
8039
  8
3
 62
     0
  2
_OPEN
 10
1044.3918285018481
 20
4878.8039574550912
 30
0.0
 41
60.0
 42
60.0
 43
60.0
 50
270.0
  0
TEXT
  8
3
  40
90
  5
807C
  62
0
  72
0
  71
0
 10
789.392
 20
5106.00
 30
0.000000
  1
773
  0
POINT
  5
803B
  8
DEFPOINTS
 62
     0
 10
1201.8086280306541
 20
5651.8039574550912
 30
0.0
  0
POINT
  5
803C
  8
DEFPOINTS
 62
     0
 10
1446.808628030652
 20
4878.8039574550912
 30
0.0
  0
POINT
  5
803D
  8
DEFPOINTS
 62
     0
 10
1044.3918285018481
 20
4878.8039574550912
 30
0.0
  0
ENDBLK
  5
7EA5
  8
0
  0
BLOCK
  8
0
  2
*D20
 70
     1
 10
0.0
 20
0.0
 30
0.0
  3
*D20
  1

  0
LINE
  5
803E
  8
3
 62
     0
 10
1201.8086280306541
 20
1939.8194401879659
 30
0.0
 11
1201.8086280306541
 21
1723.985449724343
 31
0.0
  0
LINE
  5
803F
  8
3
 62
     0
 10
1761.8086280306541
 20
1939.8194401879659
 30
0.0
 11
1761.8086280306541
 21
1723.985449724343
 31
0.0
  0
LINE
  5
8040
  8
3
 62
     0
 10
1261.8086280306541
 20
1753.985449724343
 30
0.0
 11
1701.8086280306541
 21
1753.985449724343
 31
0.0
  0
INSERT
  5
8041
  8
3
 62
     0
  2
_OPEN
 10
1201.8086280306541
 20
1753.985449724343
 30
0.0
 41
60.0
 42
60.0
 43
60.0
 50
180.0
  0
INSERT
  5
8042
  8
3
 62
     0
  2
_OPEN
 10
1761.8086280306541
 20
1753.985449724343
 30
0.0
 41
60.0
 42
60.0
 43
60.0
  0
TEXT
  8
3
  40
90
  5
807D
  62
0
  72
0
  71
0
 10
1301.81
 20
1669.69
 30
0.000000
  1
560
  0
POINT
  5
8044
  8
DEFPOINTS
 62
     0
 10
1201.8086280306541
 20
1954.8194401879659
 30
0.0
  0
POINT
  5
8045
  8
DEFPOINTS
 62
     0
 10
1761.8086280306541
 20
1954.8194401879659
 30
0.0
  0
POINT
  5
8046
  8
DEFPOINTS
 62
     0
 10
1761.8086280306541
 20
1753.985449724343
 30
0.0
  0
ENDBLK
  5
7EEA
  8
0
  0
BLOCK
  8
0
  2
*D21
 70
     1
 10
0.0
 20
0.0
 30
0.0
  3
*D21
  1

  0
LINE
  5
8047
  8
3
 62
     0
 10
1761.8086280306541
 20
1939.8194401879659
 30
0.0
 11
1761.8086280306541
 21
1723.985449724343
 31
0.0
  0
LINE
  5
8048
  8
3
 62
     0
 10
2631.8086280306538
 20
1939.8194401879659
 30
0.0
 11
2631.8086280306538
 21
1723.985449724343
 31
0.0
  0
LINE
  5
8049
  8
3
 62
     0
 10
1821.8086280306541
 20
1753.985449724343
 30
0.0
 11
2571.8086280306538
 21
1753.985449724343
 31
0.0
  0
INSERT
  5
804A
  8
3
 62
     0
  2
_OPEN
 10
1761.8086280306541
 20
1753.985449724343
 30
0.0
 41
60.0
 42
60.0
 43
60.0
 50
180.0
  0
INSERT
  5
804B
  8
3
 62
     0
  2
_OPEN
 10
2631.8086280306538
 20
1753.985449724343
 30
0.0
 41
60.0
 42
60.0
 43
60.0
  0
TEXT
  8
3
  40
90
  5
807E
  62
0
  72
0
  71
0
 10
2016.81
 20
1669.69
 30
0.000000
  1
870
  0
POINT
  5
804D
  8
DEFPOINTS
 62
     0
 10
1761.8086280306541
 20
1954.8194401879659
 30
0.0
  0
POINT
  5
804E
  8
DEFPOINTS
 62
     0
 10
2631.8086280306538
 20
1954.8194401879659
 30
0.0
  0
POINT
  5
804F
  8
DEFPOINTS
 62
     0
 10
2631.8086280306538
 20
1753.985449724343
 30
0.0
  0
ENDBLK
  5
7EF7
  8
0
  0
BLOCK
  8
0
  2
*D22
 70
     1
 10
0.0
 20
0.0
 30
0.0
  3
*D22
  1

  0
LINE
  5
8050
  8
3
 62
     0
 10
3673.3914073276078
 20
1939.8194401879659
 30
0.0
 11
3673.3914073276078
 21
1723.985449724343
 31
0.0
  0
LINE
  5
8051
  8
3
 62
     0
 10
4851.3914073276082
 20
1939.8194401879659
 30
0.0
 11
4851.3914073276082
 21
1723.985449724343
 31
0.0
  0
LINE
  5
8052
  8
3
 62
     0
 10
3733.3914073276078
 20
1753.985449724343
 30
0.0
 11
4791.3914073276082
 21
1753.985449724343
 31
0.0
  0
INSERT
  5
8053
  8
3
 62
     0
  2
_OPEN
 10
3673.3914073276078
 20
1753.985449724343
 30
0.0
 41
60.0
 42
60.0
 43
60.0
 50
180.0
  0
INSERT
  5
8054
  8
3
 62
     0
  2
_OPEN
 10
4851.3914073276082
 20
1753.985449724343
 30
0.0
 41
60.0
 42
60.0
 43
60.0
  0
TEXT
  8
3
  40
90
  5
807F
  62
0
  72
0
  71
0
 10
4082.39
 20
1669.69
 30
0.000000
  1
1178
  0
POINT
  5
8056
  8
DEFPOINTS
 62
     0
 10
3673.3914073276078
 20
1954.8194401879659
 30
0.0
  0
POINT
  5
8057
  8
DEFPOINTS
 62
     0
 10
4851.3914073276082
 20
1954.8194401879659
 30
0.0
  0
POINT
  5
8058
  8
DEFPOINTS
 62
     0
 10
4851.3914073276082
 20
1753.985449724343
 30
0.0
  0
ENDBLK
  5
7F04
  8
0
  0
BLOCK
  8
0
  2
*D23
 70
     1
 10
0.0
 20
0.0
 30
0.0
  3
*D23
  1

  0
LINE
  5
8059
  8
3
 62
     0
 10
4851.3914073276082
 20
1939.8194401879659
 30
0.0
 11
4851.3914073276082
 21
1723.985449724343
 31
0.0
  0
LINE
  5
805A
  8
3
 62
     0
 10
5256.3914073276082
 20
1939.8194401879659
 30
0.0
 11
5256.3914073276082
 21
1723.985449724343
 31
0.0
  0
LINE
  5
805B
  8
3
 62
     0
 10
4911.3914073276092
 20
1753.985449724343
 30
0.0
 11
5196.3914073276092
 21
1753.985449724343
 31
0.0
  0
INSERT
  5
805C
  8
3
 62
     0
  2
_OPEN
 10
4851.3914073276082
 20
1753.985449724343
 30
0.0
 41
60.0
 42
60.0
 43
60.0
 50
180.0
  0
INSERT
  5
805D
  8
3
 62
     0
  2
_OPEN
 10
5256.3914073276082
 20
1753.985449724343
 30
0.0
 41
60.0
 42
60.0
 43
60.0
  0
TEXT
  8
3
  40
90
  5
8080
  62
0
  72
0
  71
0
 10
4873.89
 20
1669.69
 30
0.000000
  1
405
  0
POINT
  5
805F
  8
DEFPOINTS
 62
     0
 10
4851.3914073276082
 20
1954.8194401879659
 30
0.0
  0
POINT
  5
8060
  8
DEFPOINTS
 62
     0
 10
5256.3914073276082
 20
1954.8194401879659
 30
0.0
  0
POINT
  5
8061
  8
DEFPOINTS
 62
     0
 10
5256.3914073276082
 20
1753.985449724343
 30
0.0
  0
ENDBLK
  5
7F13
  8
0
  0
BLOCK
  8
0
  2
*D24
 70
     1
 10
0.0
 20
0.0
 30
0.0
  3
*D24
  1

  0
LINE
  5
8062
  8
3
 62
     0
 10
1186.8086280306541
 20
2079.8194401879659
 30
0.0
 11
811.98797261323489
 21
2079.8194401879668
 31
0.0
  0
LINE
  5
8063
  8
3
 62
     0
 10
1186.8086280306541
 20
1954.8194401879659
 30
0.0
 11
811.98797261323489
 21
1954.8194401879659
 31
0.0
  0
LINE
  5
8064
  8
3
 62
     0
 10
841.98797261323477
 20
2139.8194401879659
 30
0.0
 11
841.98797261323477
 21
2199.8194401879668
 31
0.0
  0
LINE
  5
8065
  8
3
 62
     0
 10
841.98797261323477
 20
1894.8194401879659
 30
0.0
 11
841.98797261323466
 21
1560.5337259022519
 31
0.0
  0
LINE
  5
8066
  8
3
 62
     0
 10
841.98797261323477
 20
2079.8194401879668
 30
0.0
 11
841.98797261323477
 21
1954.8194401879659
 31
0.0
  0
INSERT
  5
8067
  8
3
 62
     0
  2
_DOT
 10
841.98797261323477
 20
2079.8194401879668
 30
0.0
 41
60.0
 42
60.0
 43
60.0
 50
270.0
  0
INSERT
  5
8068
  8
3
 62
     0
  2
_OPEN
 10
841.98797261323477
 20
1954.8194401879659
 30
0.0
 41
60.0
 42
60.0
 43
60.0
 50
90.0
  0
TEXT
  8
3
  40
90
  5
8081
  62
0
  72
0
  71
0
 10
586.988
 20
1538.38
 30
0.000000
  1
125
  0
POINT
  5
806A
  8
DEFPOINTS
 62
     0
 10
1201.8086280306541
 20
2079.8194401879659
 30
0.0
  0
POINT
  5
806B
  8
DEFPOINTS
 62
     0
 10
1201.8086280306541
 20
1954.8194401879659
 30
0.0
  0
POINT
  5
806C
  8
DEFPOINTS
 62
     0
 10
841.98797261323477
 20
1954.8194401879659
 30
0.0
  0
ENDBLK
  5
7F6F
  8
0
  0
BLOCK
  8
0
  2
*D25
 70
     1
 10
0.0
 20
0.0
 30
0.0
  3
*D25
  1

  0
LINE
  5
7F73
  8
0
  6
BYBLOCK
 62
     0
 10
1186.8086280306541
 20
2079.8194401879659
 30
0.0
 11
811.98797261323489
 21
2079.8194401879659
 31
0.0
  0
LINE
  5
7F74
  8
0
  6
BYBLOCK
 62
     0
 10
1186.8086280306541
 20
2124.8194401879659
 30
0.0
 11
811.98797261323489
 21
2124.8194401879659
 31
0.0
  0
LINE
  5
7F75
  8
0
  6
BYBLOCK
 62
     0
 10
841.98797261323477
 20
2019.8194401879659
 30
0.0
 11
841.98797261323477
 21
1959.8194401879659
 31
0.0
  0
LINE
  5
7F76
  8
0
  6
BYBLOCK
 62
     0
 10
841.98797261323477
 20
2184.8194401879659
 30
0.0
 11
841.98797261323477
 21
2244.8194401879659
 31
0.0
  0
TEXT
  5
7F77
  8
3
 62
     0
 10
728.41654404180633
 20
1971.6051544736799
 30
0.0
 40
90.0
  1
(45)
 50
90.0
  0
LINE
  5
7F78
  8
0
  6
BYBLOCK
 62
     0
 10
841.98797261323477
 20
2079.8194401879659
 30
0.0
 11
841.98797261323477
 21
2124.8194401879659
 31
0.0
  0
INSERT
  5
7F79
  8
0
  6
BYBLOCK
 62
     0
  2
_DOT
 10
841.98797261323477
 20
2079.8194401879659
 30
0.0
 41
60.0
 42
60.0
 43
60.0
 50
90.0
  0
INSERT
  5
7F7A
  8
0
  6
BYBLOCK
 62
     0
  2
_OPEN
 10
841.98797261323477
 20
2124.8194401879659
 30
0.0
 41
60.0
 42
60.0
 43
60.0
 50
270.0
  0
POINT
  5
7F7B
  8
DEFPOINTS
  6
BYBLOCK
 62
     0
 10
1201.8086280306541
 20
2079.8194401879659
 30
0.0
  0
POINT
  5
7F7C
  8
DEFPOINTS
  6
BYBLOCK
 62
     0
 10
1201.8086280306541
 20
2124.8194401879659
 30
0.0
  0
POINT
  5
7F7D
  8
DEFPOINTS
  6
BYBLOCK
 62
     0
 10
841.98797261323477
 20
2124.8194401879659
 30
0.0
  0
ENDBLK
  5
7F7E
  8
0
  0
BLOCK
  8
0
  2
*D26
 70
     1
 10
0.0
 20
0.0
 30
0.0
  3
*D26
  1

  0
LINE
  5
7F82
  8
0
  6
BYBLOCK
 62
     0
 10
1126.8086280306541
 20
3808.3194401879659
 30
0.0
 11
560.15505239799313
 21
3808.3194401879659
 31
0.0
  0
LINE
  5
7F83
  8
0
  6
BYBLOCK
 62
     0
 10
1186.8086280306541
 20
1954.8194401879659
 30
0.0
 11
560.15505239799313
 21
1954.8194401879659
 31
0.0
  0
LINE
  5
7F84
  8
0
  6
BYBLOCK
 62
     0
 10
590.15505239799313
 20
3748.3194401879659
 30
0.0
 11
590.15505239799313
 21
2014.8194401879659
 31
0.0
  0
INSERT
  5
7F85
  8
0
  6
BYBLOCK
 62
     0
  2
_OPEN
 10
590.15505239799313
 20
3808.3194401879659
 30
0.0
 41
60.0
 42
60.0
 43
60.0
 50
90.0
  0
INSERT
  5
7F86
  8
0
  6
BYBLOCK
 62
     0
  2
_OPEN
 10
590.15505239799313
 20
1954.8194401879659
 30
0.0
 41
60.0
 42
60.0
 43
60.0
 50
270.0
  0
TEXT
  5
7F87
  8
3
 62
     0
 10
521.58362382656446
 20
2673.7122973308242
 30
0.0
 40
90.0
  1
(1854)
 50
90.0
  0
POINT
  5
7F88
  8
DEFPOINTS
  6
BYBLOCK
 62
     0
 10
1141.8086280306541
 20
3808.3194401879659
 30
0.0
  0
POINT
  5
7F89
  8
DEFPOINTS
  6
BYBLOCK
 62
     0
 10
1201.8086280306541
 20
1954.8194401879659
 30
0.0
  0
POINT
  5
7F8A
  8
DEFPOINTS
  6
BYBLOCK
 62
     0
 10
590.15505239799313
 20
1954.8194401879659
 30
0.0
  0
ENDBLK
  5
7F8B
  8
0
  0
ENDSEC
  0
SECTION
  2
ENTITIES
  0
INSERT
  5
7AE3
  8
0
  2
YA_N
 10
791.5023376026661
 20
124.5017017181089
 30
0.0
  0
LINE
  5
7AE5
  8
2
 10
1105.5532892521071
 20
2804.8194401879659
 30
0.0
 11
2607.1333826693458
 21
2804.8194401879659
 31
0.0
  0
LINE
  5
7AE6
  8
2
 10
1761.8086280306541
 20
3757.3443811334009
 30
0.0
 11
1761.8086280306529
 21
1954.8194401879659
 31
0.0
  0
ARC
  5
7AE7
  8
1
 10
1694.8086280306541
 20
2871.8194401879659
 30
0.0
 40
844.0
 50
355.44684761278091
 51
85.446847612780957
  0
ARC
  5
7AE8
  8
1
 10
1828.8086280306541
 20
2871.8194401879659
 30
0.0
 40
710.0
 50
298.82975954256432
 51
304.58342752254708
  0
ARC
  5
7AE9
  8
1
 10
1815.3086280306541
 20
2751.3194401879659
 30
0.0
 40
589.5
 50
174.7929639116505
 51
232.07175887987651
  0
LINE
  5
7AEA
  8
1
 10
1141.8086280306541
 20
3808.3194401879659
 30
0.0
 11
1141.8086280306541
 21
2798.3194401879659
 31
0.0
  0
LINE
  5
7AEB
  8
1
 10
1141.8086280306541
 20
2840.8194401879659
 30
0.0
 11
1227.0189497458171
 21
2840.8194401879659
 31
0.0
  0
LINE
  5
7AEC
  8
1
 10
1141.8086280306541
 20
3765.8194401879659
 30
0.0
 11
1761.8086280306541
 21
3713.1558770549309
 31
0.0
  0
LINE
  5
7AED
  8
1
 10
1141.8086280306541
 20
3808.3194401879659
 30
0.0
 11
1181.8086280306541
 21
3808.3194401879659
 31
0.0
  0
LINE
  5
7AEE
  8
1
 10
1141.8086280306541
 20
2798.3194401879659
 30
0.0
 11
1181.8086280306541
 21
2798.3194401879659
 31
0.0
  0
LINE
  5
7AEF
  8
1
 10
1181.8086280306541
 20
3808.3194401879659
 30
0.0
 11
1181.8086280306541
 21
2798.3194401879659
 31
0.0
  0
LINE
  5
7AF0
  8
1
 10
1144.8086280306541
 20
3808.3194401879659
 30
0.0
 11
1144.8086280306541
 21
2798.3194401879659
 31
0.0
  0
LINE
  5
7AF1
  8
1
 10
1201.8086280306541
 20
2249.8194401879659
 30
0.0
 11
1201.8086280306541
 21
2124.8194401879659
 31
0.0
  0
LINE
  5
7AF2
  8
1
 10
2631.8086280306538
 20
2124.8194401879659
 30
0.0
 11
1201.808628030652
 21
2124.8194401879659
 31
0.0
1001
ACAD
1000
ASC_BOUNDS
1002
{
1070
    19
1005
0
1002
}
  0
LINE
  5
7AF3
  8
1
 10
2631.8086280306538
 20
2249.8194401879659
 30
0.0
 11
1201.808628030652
 21
2249.8194401879659
 31
0.0
  0
LINE
  5
7AF4
  8
2
 10
2431.8086280306538
 20
2732.3950391720809
 30
0.0
 11
2431.8086280306538
 21
2214.0032995778738
 31
0.0
1001
ACAD
1000
ASC_BOUNDS
1002
{
1070
    19
1002
}
  0
LINE
  5
7AF5
  8
2
 10
2675.4430346133809
 20
2524.8194401879659
 30
0.0
 11
2216.9657015768212
 21
2524.8194401879659
 31
0.0
  0
LINE
  5
7AF6
  8
1
 10
5186.3914073276082
 20
3765.8194401879659
 30
0.0
 11
5186.3914073276101
 21
2249.8194401879659
 31
0.0
  0
LINE
  5
7AF7
  8
1
 10
4516.3914073276082
 20
3765.8194401879659
 30
0.0
 11
4516.3914073276092
 21
2249.8194401879659
 31
0.0
  0
LINE
  5
7AF8
  8
1
 10
3673.3914073276078
 20
2249.8194401879659
 30
0.0
 11
5256.3914073276082
 21
2249.8194401879659
 31
0.0
  0
LINE
  5
7AF9
  8
1
 10
3673.3914073276078
 20
2249.8194401879659
 30
0.0
 11
3673.3914073276078
 21
2124.8194401879659
 31
0.0
  0
LINE
  5
7AFA
  8
1
 10
5256.3914073276082
 20
2249.8194401879659
 30
0.0
 11
5256.3914073276082
 21
2124.8194401879659
 31
0.0
  0
LINE
  5
7AFB
  8
1
 10
4474.3914073276073
 20
3808.3194401879659
 30
0.0
 11
5228.3914073276092
 21
3808.3194401879659
 31
0.0
  0
LINE
  5
7AFC
  8
1
 10
5228.3914073276092
 20
3808.3194401879659
 30
0.0
 11
5228.3914073276092
 21
2798.3194401879659
 31
0.0
  0
LINE
  5
7AFD
  8
1
 10
4474.3914073276073
 20
3808.3194401879659
 30
0.0
 11
4474.3914073276073
 21
2837.319440187965
 31
0.0
  0
LINE
  5
7AFE
  8
1
 10
4516.3914073276082
 20
3765.8194401879659
 30
0.0
 11
5186.3914073276082
 21
3765.8194401879659
 31
0.0
  0
LINE
  5
7AFF
  8
2
 10
3563.863566744611
 20
2804.8194401879659
 30
0.0
 11
5256.2417092423557
 21
2804.8194401879659
 31
0.0
  0
LINE
  5
7B00
  8
1
 10
3673.3914073276078
 20
2124.8194401879659
 30
0.0
 11
5256.3914073276082
 21
2124.8194401879659
 31
0.0
1001
ACAD
1000
ASC_BOUNDS
1002
{
1070
    19
1002
}
  0
LINE
  5
7B03
  8
2
 10
2211.7925639705031
 20
6056.8039574550912
 30
0.0
 11
1313.627968887577
 21
6056.8039574550912
 31
0.0
  0
LINE
  5
7B04
  8
2
 10
4851.391407327611
 20
3944.6800243176331
 30
0.0
 11
4851.3914073276073
 21
1954.8194401879659
 31
0.0
  0
POINT
  5
7B05
  8
1
 10
2535.640291158446
 20
2804.8194401879659
 30
0.0
  0
INSERT
  5
7B06
  8
0
  2
YA_N
 10
-853.1654824878492
 20
-861.23841843369883
 30
0.0
 41
20.0
 42
20.0
 43
20.0
  0
INSERT
  5
7B08
  8
0
  2
YA_N
 10
-767.31428752034788
 20
-950.9038503398732
 30
0.0
 41
20.0
 42
20.0
 43
20.0
  0
ARC
  5
7B0A
  8
1
 10
2431.8086280306538
 20
2524.8194401879659
 30
0.0
 40
185.0
 50
287.94525099999993
 51
252.05474899999999
  0
LINE
  5
7B0B
  8
1
 10
2374.8086280306538
 20
2348.8194401879659
 30
0.0
 11
2488.8086280306538
 21
2348.8194401879659
 31
0.0
  0
LINE
  5
7B0C
  8
1
 10
2269.8086280306538
 20
2420.0784731879662
 30
0.0
 11
2269.8086280306538
 21
2344.8194401879659
 31
0.0
  0
LINE
  5
7B0D
  8
1
 10
2269.8086280306538
 20
2420.0784731879662
 30
0.0
 11
2276.1926000306539
 21
2424.776227187966
 31
0.0
  0
LINE
  5
7B0E
  8
1
 10
2593.8086280306538
 20
2420.0784731879662
 30
0.0
 11
2593.8086280306538
 21
2344.8194401879659
 31
0.0
  0
LINE
  5
7B0F
  8
1
 10
2593.8086280306538
 20
2420.0784731879662
 30
0.0
 11
2587.424717030653
 21
2424.776227187966
 31
0.0
  0
LINE
  5
7B10
  8
1
 10
2656.8086280306538
 20
2289.8194401879659
 30
0.0
 11
2206.8086280306538
 21
2289.8194401879659
 31
0.0
  0
LINE
  5
7B11
  8
1
 10
2631.8086280306538
 20
2289.8194401879659
 30
0.0
 11
2631.8086280306538
 21
2249.8194401879659
 31
0.0
  0
LINE
  5
7B12
  8
1
 10
2231.8086280306538
 20
2289.8194401879659
 30
0.0
 11
2231.8086280306538
 21
2249.8194401879659
 31
0.0
  0
LINE
  5
7B13
  8
1
 10
2641.9101664317768
 20
2344.8194401879659
 30
0.0
 11
2501.8086280306538
 21
2344.8194401879659
 31
0.0
  0
LINE
  5
7B14
  8
1
 10
2206.8086280306538
 20
2289.8194401879659
 30
0.0
 11
2222.0109446651659
 21
2344.8194401879659
 31
0.0
  0
LINE
  5
7B15
  8
1
 10
2656.8086280306538
 20
2289.8194401879659
 30
0.0
 11
2641.9101664317768
 21
2344.8194401879659
 31
0.0
  0
LINE
  5
7B16
  8
1
 10
2501.8086280306538
 20
2299.8194401879659
 30
0.0
 11
2361.8086280306538
 21
2299.8194401879659
 31
0.0
  0
LINE
  5
7B17
  8
1
 10
2501.8086280306538
 20
2334.8194401879659
 30
0.0
 11
2361.8086280306538
 21
2334.8194401879659
 31
0.0
  0
LINE
  5
7B18
  8
1
 10
2501.8086280306538
 20
2344.8194401879659
 30
0.0
 11
2501.8086280306538
 21
2334.8194401879659
 31
0.0
  0
LINE
  5
7B19
  8
1
 10
2361.8086280306538
 20
2344.8194401879659
 30
0.0
 11
2361.8086280306538
 21
2334.8194401879659
 31
0.0
  0
LINE
  5
7B1A
  8
1
 10
2361.8086280306538
 20
2344.8194401879659
 30
0.0
 11
2222.0109446651659
 21
2344.8194401879659
 31
0.0
  0
LINE
  5
7B1B
  8
1
 10
2501.8086280306538
 20
2299.8194401879659
 30
0.0
 11
2501.8086280306538
 21
2289.8194401879659
 31
0.0
  0
LINE
  5
7B1C
  8
1
 10
2361.8086280306538
 20
2299.8194401879659
 30
0.0
 11
2361.8086280306538
 21
2289.8194401879659
 31
0.0
  0
POINT
  5
7B1D
  8
1
 10
1201.808628030652
 20
2104.8194401879659
 30
0.0
  0
POINT
  5
7B1E
  8
1
 10
1201.808628030652
 20
2104.8194401879659
 30
0.0
  0
POINT
  5
7B1F
  8
1
 10
1201.8086280306541
 20
2124.8194401879659
 30
0.0
  0
CIRCLE
  5
7B20
  8
1
 10
2431.8086280306538
 20
2524.8194401879659
 30
0.0
 40
119.0
  0
LINE
  5
7B21
  8
1
 10
2631.8086280306538
 20
2249.8194401879659
 30
0.0
 11
2631.8086280306538
 21
2124.8194401879659
 31
0.0
  0
LINE
  5
7B31
  8
1
 10
2321.8086280306538
 20
6461.8039574550921
 30
0.0
 11
1201.8086280306541
 21
6461.8039574550921
 31
0.0
  0
LINE
  5
7B33
  8
1
 10
2631.8086280306529
 20
4878.8039574550912
 30
0.0
 11
1446.808628030652
 21
4878.8039574550912
 31
0.0
  0
LINE
  5
7B34
  8
1
 10
1201.8086280306541
 20
6461.8039574550894
 30
0.0
 11
1201.8086280306541
 21
6391.8039574550912
 31
0.0
  0
LINE
  5
7B35
  8
1
 10
2321.8086280306538
 20
6461.8039574550921
 30
0.0
 11
2321.8086280306538
 21
6391.8039574550912
 31
0.0
  0
LINE
  5
7B36
  8
1
 10
2631.8086280306538
 20
5716.8039574550912
 30
0.0
 11
2631.8086280306529
 21
4878.8039574550912
 31
0.0
  0
LINE
  5
7B37
  8
1
 10
2256.8086280306538
 20
6396.8039574550921
 30
0.0
 11
1266.8086280306541
 21
6396.8039574550921
 31
0.0
  0
LINE
  5
7B38
  8
1
 10
1266.8086280306541
 20
6396.8039574550912
 30
0.0
 11
1266.8086280306541
 21
6391.8039574550912
 31
0.0
  0
LINE
  5
7B39
  8
1
 10
2256.8086280306538
 20
6396.8039574550912
 30
0.0
 11
2256.8086280306538
 21
6391.8039574550912
 31
0.0
  0
LINE
  5
7B3A
  8
1
 10
2631.8086280306538
 20
5716.8039574550912
 30
0.0
 11
1201.8086280306541
 21
5716.8039574550912
 31
0.0
  0
LINE
  5
7B3D
  8
1
 10
1446.8086280306529
 20
5651.8039574550912
 30
0.0
 11
1446.808628030652
 21
4878.8039574550912
 31
0.0
  0
LINE
  5
7B3F
  8
2
 10
2431.8086280306529
 20
5557.9433306424489
 30
0.0
 11
2431.808628030652
 21
4776.7081941015967
 31
0.0
  0
LINE
  5
7B44
  8
1
 10
3563.863566744611
 20
2524.8194401879659
 30
0.0
 11
3762.2570052334081
 21
2524.8194401879659
 31
0.0
  0
LINE
  5
7B45
  8
1
 10
3596.3914073276101
 20
2643.8194401879659
 30
0.0
 11
3706.3914073276078
 21
2643.8194401879659
 31
0.0
  0
LINE
  5
7B46
  8
1
 10
3596.3914073276101
 20
2405.8194401879659
 30
0.0
 11
3706.3914073276101
 21
2405.8194401879659
 31
0.0
  0
LINE
  5
7B47
  8
1
 10
3596.3914073276078
 20
3008.0194401879662
 30
0.0
 11
3596.3914073276101
 21
2405.8194401879659
 31
0.0
  0
LINE
  5
7B48
  8
1
 10
3706.3914073276078
 20
3008.0194401879662
 30
0.0
 11
3706.3914073276101
 21
2405.8194401879659
 31
0.0
  0
LINE
  5
7B49
  8
1
 10
3726.3914073276101
 20
3084.8194401879659
 30
0.0
 11
3726.3914073276101
 21
3064.8194401879659
 31
0.0
  0
LINE
  5
7B4A
  8
1
 10
3526.3914073276101
 20
3084.8194401879659
 30
0.0
 11
3526.3914073276101
 21
2304.8194401879659
 31
0.0
  0
LINE
  5
7B4B
  8
1
 10
3526.3914073276078
 20
2304.8194401879659
 30
0.0
 11
3726.3914073276101
 21
2304.8194401879659
 31
0.0
  0
POINT
  5
7B4C
  8
1
 10
5189.3914073276092
 20
3808.3194401879659
 30
0.0
  0
POINT
  5
7B4E
  8
1
 10
1201.808628030652
 20
2104.8194401879659
 30
0.0
  0
ARC
  5
7B50
  8
1
 10
1761.8086280306541
 20
2804.8194401879659
 30
0.0
 40
536.0
 50
176.1488768735023
 51
180.0
  0
CIRCLE
  5
7B51
  8
1
 10
1761.8086280306541
 20
2804.8194401879659
 30
0.0
 40
203.19999999999999
  0
ARC
  5
7B52
  8
1
 10
1761.8086280306541
 20
2804.8194401879659
 30
0.0
 40
280.0
 50
62.579854365547249
 51
252.05902642040289
  0
ARC
  5
7B53
  8
1
 10
2431.8086280306538
 20
2524.8194401879659
 30
0.0
 40
220.0
 50
252.05902642040289
 51
62.579854365547241
  0
LINE
  5
7B54
  8
1
 10
1890.751965354244
 20
3053.3624259265612
 30
0.0
 11
2533.1212502134749
 21
2720.1032146968619
 31
0.0
  0
LINE
  5
7B55
  8
1
 10
1861.3722764188731
 20
2981.9558845454931
 30
0.0
 11
2490.1160795965889
 21
2628.5558421493129
 31
0.0
  0
LINE
  5
7B56
  8
1
 10
1705.7243075392689
 20
2609.5125304407188
 30
0.0
 11
2398.9639718373719
 21
2410.4418700111828
 31
0.0
  0
LINE
  5
7B57
  8
1
 10
1675.5582548640921
 20
2538.4346186822572
 30
0.0
 11
2364.0404776854971
 21
2315.5170804334798
 31
0.0
  0
LINE
  5
7B58
  8
1
 10
3526.3914073276101
 20
3084.8194401879659
 30
0.0
 11
3726.3914073276101
 21
3084.8194401879659
 31
0.0
  0
LINE
  5
7B59
  8
1
 10
3596.3914073276078
 20
3008.0194401879662
 30
0.0
 11
3706.3914073276078
 21
3008.0194401879662
 31
0.0
  0
LINE
  5
7B5A
  8
1
 10
3596.3914073276092
 20
2601.6194401879661
 30
0.0
 11
3706.3914073276092
 21
2601.6194401879661
 31
0.0
  0
LINE
  5
7B5B
  8
1
 10
3726.3914073276078
 20
2324.8194401879659
 30
0.0
 11
3726.3914073276078
 21
2304.8194401879659
 31
0.0
  0
INSERT
  5
7B5C
  8
0
  2
YA_N
 10
1684.084545659538
 20
-1644.9931351483519
 30
0.0
  0
INSERT
  5
7B5E
  8
0
  2
YA_N
 10
812.60933172367402
 20
-6436.0955458567769
 30
0.0
  0
INSERT
  5
7B60
  8
0
  2
YA_N
 10
-832.05848836684106
 20
-7421.8356660085838
 30
0.0
 41
20.0
 42
20.0
 43
20.0
  0
INSERT
  5
7B62
  8
0
  2
YA_N
 10
-746.20729339933985
 20
-7511.5010979147592
 30
0.0
 41
20.0
 42
20.0
 43
20.0
  0
LINE
  5
7B64
  8
1
 10
3736.3914073276092
 20
2724.819440187965
 30
0.0
 11
3736.3914073276092
 21
2549.1278868768582
 31
0.0
  0
LINE
  5
7B65
  8
1
 10
4418.3914073276101
 20
2724.819440187965
 30
0.0
 11
4418.3914073276082
 21
2249.8194401879641
 31
0.0
  0
LINE
  5
7B67
  8
1
 10
3736.3914073276078
 20
2724.819440187965
 30
0.0
 11
4418.3914073276101
 21
2724.819440187965
 31
0.0
  0
LINE
  5
7B68
  8
1
 10
3728.8914073276078
 20
2837.319440187965
 30
0.0
 11
4514.0914073276108
 21
2837.319440187965
 31
0.0
  0
LINE
  5
7B69
  8
1
 10
3728.8914073276078
 20
2772.319440187965
 30
0.0
 11
4514.0914073276108
 21
2772.319440187965
 31
0.0
  0
LINE
  5
7B6A
  8
1
 10
3706.3914073276078
 20
2832.319440187965
 30
0.0
 11
3728.8914073276078
 21
2832.319440187965
 31
0.0
  0
LINE
  5
7B6B
  8
1
 10
3706.3914073276092
 20
2777.319440187965
 30
0.0
 11
3728.8914073276078
 21
2777.319440187965
 31
0.0
  0
LINE
  5
7B6C
  8
1
 10
3728.8914073276078
 20
2772.319440187965
 30
0.0
 11
3728.8914073276078
 21
2837.319440187965
 31
0.0
  0
LINE
  5
7B6D
  8
1
 10
5186.3914073276082
 20
2798.3194401879659
 30
0.0
 11
5228.3914073276092
 21
2798.3194401879659
 31
0.0
  0
LINE
  5
7B6E
  8
1
 10
4516.3914073276092
 20
2840.8194401879659
 30
0.0
 11
5186.3914073276092
 21
2840.8194401879659
 31
0.0
  0
LINE
  5
7B70
  8
1
 10
3869.4928320640101
 20
2707.6278868768559
 30
0.0
 11
4136.1774452685549
 21
2707.6278868768559
 31
0.0
  0
LINE
  5
7B71
  8
1
 10
4136.1774452685549
 20
2707.6278868768559
 30
0.0
 11
3788.404875155722
 21
2707.6278868768559
 31
0.0
  0
LINE
  5
7B72
  8
2
 10
4332.6344241469269
 20
2525.1278868768568
 30
0.0
 11
3613.581502001578
 21
2525.1278868768568
 31
0.0
  0
LINE
  5
7B74
  8
1
 10
4328.2619562381369
 20
2345.1278868768568
 30
0.0
 11
4328.2619562381369
 21
2707.6278868768559
 31
0.0
  0
LINE
  5
7B75
  8
1
 10
3788.404875155722
 20
2345.1278868768568
 30
0.0
 11
4146.2619562381369
 21
2345.1278868768568
 31
0.0
  0
LINE
  5
7B78
  8
1
 10
3788.404875155722
 20
2707.6278868768559
 30
0.0
 11
3788.404875155722
 21
2345.1278868768568
 31
0.0
  0
LINE
  5
7B7C
  8
1
 10
3761.7619562332752
 20
2556.549195822703
 30
0.0
 11
3766.761956238136
 21
2556.549195822703
 31
0.0
  0
LINE
  5
7B7D
  8
1
 10
3761.7619562332752
 20
2491.7065779310101
 30
0.0
 11
3766.761956238136
 21
2491.706577931011
 31
0.0
  0
LINE
  5
7B7E
  8
1
 10
3766.761956238136
 20
2466.9104378942579
 30
0.0
 11
3766.761956238136
 21
2583.3453358594552
 31
0.0
  0
LINE
  5
7B7F
  8
1
 10
3788.404875155722
 20
2466.9104378942579
 30
0.0
 11
3766.761956238136
 21
2466.9104378942579
 31
0.0
  0
LINE
  5
7B80
  8
1
 10
3788.404875155722
 20
2583.3453358594552
 30
0.0
 11
3766.761956238136
 21
2583.3453358594552
 31
0.0
  0
LINE
  5
7B81
  8
1
 10
3651.7619562371451
 20
2501.1278868768582
 30
0.0
 11
3761.7619562332752
 21
2501.1278868768582
 31
0.0
  0
LINE
  5
7B82
  8
1
 10
3651.7619562371451
 20
2549.1278868768559
 30
0.0
 11
3761.7619562332752
 21
2549.1278868768582
 31
0.0
  0
LINE
  5
7B83
  8
1
 10
3761.7619562332752
 20
2491.7065779310101
 30
0.0
 11
3761.7619562332752
 21
2556.549195822703
 31
0.0
  0
LINE
  5
7B84
  8
1
 10
3651.7619562371451
 20
2549.1278868768559
 30
0.0
 11
3651.7619562371451
 21
2501.1278868768559
 31
0.0
  0
LINE
  5
7B85
  8
1
 10
4146.2619562381369
 20
2345.1278868768568
 30
0.0
 11
4328.2619562381369
 21
2345.1278868768568
 31
0.0
  0
LINE
  5
7B86
  8
1
 10
4136.1774452685549
 20
2707.6278868768559
 30
0.0
 11
4328.2619562381369
 21
2707.6278868768559
 31
0.0
  0
LINE
  5
7B87
  8
1
 10
3736.3914073276092
 20
2501.1278868768582
 30
0.0
 11
3736.3914073276078
 21
2249.819440187965
 31
0.0
  0
LINE
  5
7B88
  8
1
 10
4208.2619562381378
 20
2345.1278868768568
 30
0.0
 11
4208.2619562381378
 21
2249.8194401879659
 31
0.0
  0
LINE
  5
7B89
  8
1
 10
3798.2619562381378
 20
2345.1278868768568
 30
0.0
 11
3798.2619562381369
 21
2249.8194401879659
 31
0.0
  0
LINE
  5
7B8A
  8
1
 10
3798.2619562381378
 20
2289.8194401879659
 30
0.0
 11
4208.2619562381378
 21
2289.8194401879659
 31
0.0
  0
LINE
  5
7B8B
  8
1
 10
2249.308628030652
 20
5074.9053821914922
 30
0.0
 11
2249.308628030652
 21
5341.5899953960361
 31
0.0
  0
LINE
  5
7B8C
  8
1
 10
2249.308628030652
 20
5341.5899953960361
 30
0.0
 11
2249.308628030652
 21
4993.8174252832041
 31
0.0
  0
LINE
  5
7B8D
  8
1
 10
1794.3086280306541
 20
4934.3039574550912
 30
0.0
 11
1794.3086280306541
 21
5719.5039574550929
 31
0.0
  0
LINE
  5
7B8E
  8
1
 10
1729.3086280306541
 20
4934.3039574550912
 30
0.0
 11
1729.3086280306541
 21
5719.5039574550929
 31
0.0
  0
LINE
  5
7B8F
  8
2
 10
1761.8086280306541
 20
4769.2761168720926
 30
0.0
 11
1761.8086280306541
 21
6512.3236052128286
 31
0.0
  0
LINE
  5
7B90
  8
1
 10
1794.3086280306541
 20
4934.3039574550912
 30
0.0
 11
1729.3086280306541
 21
4934.3039574550912
 31
0.0
  0
LINE
  5
7B91
  8
1
 10
1558.6086280306531
 20
4911.8039574550921
 30
0.0
 11
2551.1170747195429
 21
4911.8039574550921
 31
0.0
  0
LINE
  5
7B92
  8
1
 10
1481.8086280306541
 20
4731.8039574550912
 30
0.0
 11
2652.1170747195429
 21
4731.8039574550912
 31
0.0
  0
LINE
  5
7B93
  8
1
 10
1558.6086280306531
 20
4801.8039574550912
 30
0.0
 11
2551.1170747195429
 21
4801.8039574550921
 31
0.0
  0
LINE
  5
7B94
  8
1
 10
2652.1170747195429
 20
4731.8039574550894
 30
0.0
 11
2652.1170747195429
 21
4931.8039574550912
 31
0.0
  0
LINE
  5
7B95
  8
1
 10
2249.308628030652
 20
4993.8174252832041
 30
0.0
 11
2611.808628030652
 21
4993.8174252832041
 31
0.0
  0
LINE
  5
7B96
  8
1
 10
2551.1170747195429
 20
4801.8039574550912
 30
0.0
 11
2551.1170747195429
 21
4911.8039574550921
 31
0.0
  0
LINE
  5
7B97
  8
1
 10
2455.8086280306511
 20
4857.1745063646267
 30
0.0
 11
2455.8086280306511
 21
4967.174506360755
 31
0.0
  0
LINE
  5
7B98
  8
1
 10
2407.808628030652
 20
4857.1745063646267
 30
0.0
 11
2407.8086280306511
 21
4967.174506360755
 31
0.0
  0
LINE
  5
7B99
  8
1
 10
1965.008628030653
 20
4801.8039574550912
 30
0.0
 11
1965.008628030653
 21
4911.8039574550921
 31
0.0
  0
LINE
  5
7B9A
  8
1
 10
2407.808628030652
 20
4857.1745063646267
 30
0.0
 11
2455.808628030652
 21
4857.1745063646267
 31
0.0
  0
LINE
  5
7B9B
  8
1
 10
2313.1170747195429
 20
4801.8039574550912
 30
0.0
 11
2313.1170747195429
 21
4911.8039574550894
 31
0.0
  0
LINE
  5
7B9C
  8
1
 10
1789.3086280306541
 20
4911.8039574550921
 30
0.0
 11
1789.3086280306541
 21
4934.3039574550912
 31
0.0
  0
LINE
  5
7B9D
  8
1
 10
2465.2299369764978
 20
4967.174506360755
 30
0.0
 11
2400.3873190848062
 21
4967.174506360755
 31
0.0
  0
LINE
  5
7B9E
  8
1
 10
2490.0260770132509
 20
4972.1745063656181
 30
0.0
 11
2373.5911790480532
 21
4972.1745063656181
 31
0.0
  0
LINE
  5
7B9F
  8
1
 10
2465.2299369764978
 20
4967.174506360755
 30
0.0
 11
2465.2299369764978
 21
4972.1745063656181
 31
0.0
  0
LINE
  5
7BA0
  8
1
 10
2490.0260770132509
 20
4993.8174252832041
 30
0.0
 11
2490.0260770132509
 21
4972.1745063656181
 31
0.0
  0
LINE
  5
7BA1
  8
1
 10
2373.5911790480532
 20
4993.8174252832041
 30
0.0
 11
2373.5911790480532
 21
4972.1745063656181
 31
0.0
  0
LINE
  5
7BA2
  8
1
 10
2400.3873190848062
 20
4967.174506360755
 30
0.0
 11
2400.3873190848062
 21
4972.1745063656181
 31
0.0
  0
LINE
  5
7BA3
  8
1
 10
1481.8086280306541
 20
4731.8039574550912
 30
0.0
 11
1481.8086280306541
 21
4931.8039574550912
 31
0.0
  0
LINE
  5
7BA4
  8
1
 10
1734.3086280306541
 20
4911.8039574550921
 30
0.0
 11
1734.3086280306541
 21
4934.3039574550912
 31
0.0
  0
LINE
  5
7BA5
  8
1
 10
1558.6086280306531
 20
4801.8039574550912
 30
0.0
 11
1558.6086280306531
 21
4911.8039574550921
 31
0.0
  0
LINE
  5
7BA6
  8
1
 10
1481.8086280306541
 20
4931.8039574550912
 30
0.0
 11
2652.1170747195429
 21
4931.8039574550912
 31
0.0
  0
LINE
  5
7BA7
  8
1
 10
1181.8086280306541
 20
6391.8039574550912
 30
0.0
 11
2538.8086280306538
 21
6391.8039574550912
 31
0.0
  0
LINE
  5
7BA8
  8
1
 10
1181.8086280306541
 20
5721.8039574550903
 30
0.0
 11
2538.8086280306538
 21
5721.8039574550912
 31
0.0
  0
LINE
  5
7BA9
  8
1
 10
1141.8086280306541
 20
6433.8039574550921
 30
0.0
 11
1181.8086280306541
 21
6433.8039574550921
 31
0.0
  0
LINE
  5
7BAA
  8
1
 10
2611.808628030652
 20
5533.6745063656181
 30
0.0
 11
2249.308628030652
 21
5533.6745063656181
 31
0.0
  0
LINE
  5
7BAB
  8
1
 10
2611.808628030652
 20
5351.6745063656181
 30
0.0
 11
2611.808628030652
 21
5533.6745063656181
 31
0.0
  0
LINE
  5
7BAC
  8
1
 10
2611.808628030652
 20
4993.8174252832041
 30
0.0
 11
2611.808628030652
 21
5351.6745063656181
 31
0.0
  0
LINE
  5
7BAD
  8
1
 10
2249.308628030652
 20
5341.5899953960361
 30
0.0
 11
2249.308628030652
 21
5533.674506365619
 31
0.0
  0
LINE
  5
7BAE
  8
1
 10
1141.8086280306541
 20
5679.8039574550912
 30
0.0
 11
1181.8086280306541
 21
5679.8039574550912
 31
0.0
  0
LINE
  5
7BB0
  8
1
 10
1141.8086280306541
 20
5679.8039574550912
 30
0.0
 11
1141.8086280306541
 21
6433.8039574550921
 31
0.0
  0
LINE
  5
7BB1
  8
1
 10
1181.8086280306541
 20
5679.8039574550912
 30
0.0
 11
1181.8086280306541
 21
6433.8039574550921
 31
0.0
  0
LINE
  5
7BB2
  8
1
 10
2538.8086280306538
 20
5721.8039574550921
 30
0.0
 11
2538.8086280306538
 21
6391.8039574550912
 31
0.0
  0
LINE
  5
7BB3
  8
1
 10
2321.8086280306529
 20
5721.8039574550921
 30
0.0
 11
2321.8086280306529
 21
5716.8039574550912
 31
0.0
  0
LINE
  5
7BB4
  8
1
 10
2256.8086280306529
 20
5721.8039574550912
 30
0.0
 11
2256.8086280306529
 21
5716.8039574550912
 31
0.0
  0
LINE
  5
7BB5
  8
1
 10
1266.8086280306541
 20
5721.8039574550912
 30
0.0
 11
1266.8086280306541
 21
5716.8039574550912
 31
0.0
  0
LINE
  5
7BB6
  8
1
 10
1201.8086280306541
 20
5721.8039574550912
 30
0.0
 11
1201.8086280306541
 21
5651.8039574550912
 31
0.0
  0
DIMENSION
  5
7BC9
  8
3
  2
*D2
 10
2321.8086280306538
 20
6740.8823985138106
 30
0.0
 11
1759.6325025841249
 21
6740.8823985138106
 31
0.0
 70
   128
 13
1201.8086280306541
 23
6461.8039574550921
 33
0.0
 14
2321.8086280306538
 24
6461.8039574550921
 34
0.0
1001
ACAD
1000
DSTYLE
1002
{
1070
   287
1070
     3
1070
    40
1040
30.0
1070
   143
1040
0.039
1070
   172
1070
     1
1070
   271
1070
     0
1070
   279
1070
     0
1070
   288
1070
     1
1002
}
  0
DIMENSION
  5
7BD7
  8
3
  2
*D3
 10
2631.8086280306538
 20
6740.8823985138106
 30
0.0
 11
2476.8086280306538
 21
6816.9709875244407
 31
0.0
 12
0.0
 22
296.74556215456317
 32
0.0
 70
   128
 13
2321.8086280306538
 23
6461.8039574550921
 33
0.0
 14
2631.8086280306538
 24
5716.8039574550912
 34
0.0
1001
ACAD
1000
DSTYLE
1002
{
1070
   288
1070
     1
1070
   172
1070
     1
1070
    40
1040
30.0
1070
   271
1070
     0
1070
   143
1040
0.039
1002
}
  0
DIMENSION
  5
7BE4
  8
3
  2
*D4
 10
2884.3308189962522
 20
5716.8039574550912
 30
0.0
 11
2884.3308189962522
 21
5295.1988605485058
 31
0.0
 70
   128
 13
2631.8086280306529
 23
4878.8039574550912
 33
0.0
 14
2631.8086280306538
 24
5716.8039574550912
 34
0.0
 50
90.0
1001
ACAD
1000
DSTYLE
1002
{
1070
   287
1070
     3
1070
    40
1040
30.0
1070
   143
1040
0.039
1070
   172
1070
     1
1070
   271
1070
     0
1070
   279
1070
     0
1070
   288
1070
     1
1002
}
  0
DIMENSION
  5
7BF1
  8
3
  2
*D5
 10
1446.808628030652
 20
4505.0479651361638
 30
0.0
 11
2040.807081687158
 21
4505.0479651361638
 31
0.0
 70
   128
 13
2631.8086280306529
 23
4878.8039574550912
 33
0.0
 14
1446.808628030652
 24
4878.8039574550912
 34
0.0
1001
ACAD
1000
DSTYLE
1002
{
1070
   287
1070
     3
1070
    40
1040
30.0
1070
   143
1040
0.039
1070
   172
1070
     1
1070
   271
1070
     0
1070
   279
1070
     0
1070
   288
1070
     1
1002
}
  0
DIMENSION
  5
7BFF
  8
3
  2
*D6
 10
1201.8086280306541
 20
4505.0479651361638
 30
0.0
 11
966.09434231636851
 21
4505.0479651361638
 31
0.0
 70
   128
 13
1446.808628030652
 23
4878.8039574550912
 33
0.0
 14
1201.8086280306541
 24
5651.8039574550912
 34
0.0
1001
ACAD
1000
DSTYLE
1002
{
1070
   287
1070
     2
1070
    40
1040
30.0
1070
   143
1040
0.039
1070
   172
1070
     1
1070
   271
1070
     0
1070
   279
1070
     0
1070
   288
1070
     1
1070
   289
1070
     2
1002
}
  0
LINE
  5
7C78
  8
1
 10
1446.8086280306529
 20
5651.8039574550912
 30
0.0
 11
1201.8086280306541
 21
5651.8039574550912
 31
0.0
  0
DIMENSION
  5
7C85
  8
3
  2
*D7
 10
1021.239154763487
 20
2840.8194401879668
 30
0.0
 11
1021.239154763487
 21
3285.3235288111282
 31
0.0
 70
   128
 13
1141.8086280306541
 23
3765.8194401879659
 33
0.0
 14
1141.8086280306541
 24
2840.8194401879659
 34
0.0
 50
90.0
1001
ACAD
1000
DSTYLE
1002
{
1070
   287
1070
     3
1070
    40
1040
30.0
1070
   143
1040
0.039
1070
   172
1070
     1
1070
   271
1070
     0
1070
   279
1070
     0
1070
   288
1070
     1
1002
}
  0
DIMENSION
  5
7C92
  8
3
  2
*D8
 10
843.71322518482009
 20
2804.8194401879668
 30
0.0
 11
843.71322518481975
 21
3304.3284570967298
 31
0.0
 70
   128
 13
1141.8086280306541
 23
3765.8194401879659
 33
0.0
 14
1105.5532892521071
 24
2804.8194401879659
 34
0.0
 50
90.0
1001
ACAD
1000
DSTYLE
1002
{
1070
   287
1070
     3
1070
    40
1040
30.0
1070
   143
1040
0.039
1070
   172
1070
     1
1070
   271
1070
     0
1070
   279
1070
     0
1070
   288
1070
     1
1002
}
  0
DIMENSION
  5
7C9E
  8
3
  2
*D9
 10
843.71322518481975
 20
2124.8194401879659
 30
0.0
 11
768.71322518481929
 21
2464.8194401879659
 31
0.0
 70
     0
 13
1105.5532892521071
 23
2804.8194401879659
 33
0.0
 14
1201.8086280306541
 24
2124.8194401879659
 34
0.0
 50
90.0
1001
ACAD
1000
DSTYLE
1002
{
1070
   287
1070
     4
1070
    40
1040
30.0
1070
    75
1070
     1
1070
   143
1040
0.039
1070
   172
1070
     1
1070
   271
1070
     0
1070
   279
1070
     1
1070
   288
1070
     1
1002
}
  0
DIMENSION
  5
7D47
  8
3
  2
*D11
 10
1761.8086280306541
 20
3956.8313007888678
 30
0.0
 11
1465.053926043292
 21
3956.8313007888678
 31
0.0
 70
   128
 13
1141.8086280306541
 23
3808.3194401879659
 33
0.0
 14
1761.8086280306541
 24
3757.3443811334009
 34
0.0
1001
ACAD
1000
DSTYLE
1002
{
1070
   287
1070
     3
1070
    40
1040
30.0
1070
   143
1040
0.039
1070
   172
1070
     1
1070
   271
1070
     0
1070
   279
1070
     0
1070
   288
1070
     1
1002
}
  0
DIMENSION
  5
7D53
  8
3
  2
*D12
 10
2538.8086280306538
 20
3956.8313007888678
 30
0.0
 11
2150.3086280306538
 21
4031.8313007888678
 31
0.0
 70
     0
 13
1761.8086280306541
 23
3757.3443811334009
 33
0.0
 14
2538.8086280306538
 24
2871.8194401879659
 34
0.0
1001
ACAD
1000
DSTYLE
1002
{
1070
   287
1070
     4
1070
    40
1040
30.0
1070
    75
1070
     1
1070
   143
1040
0.039
1070
   172
1070
     1
1070
   271
1070
     0
1070
   279
1070
     1
1070
   288
1070
     1
1002
}
  0
DIMENSION
  5
7D60
  8
3
  2
*D13
 10
5186.3914073276082
 20
3957.3821685462099
 30
0.0
 11
4850.6921420321587
 21
3957.3821685462099
 31
0.0
 70
   128
 13
4516.3914073276082
 23
3765.8194401879659
 33
0.0
 14
5186.3914073276082
 24
3765.8194401879659
 34
0.0
1001
ACAD
1000
DSTYLE
1002
{
1070
   287
1070
     3
1070
    40
1040
30.0
1070
   143
1040
0.039
1070
   172
1070
     1
1070
   271
1070
     0
1070
   279
1070
     0
1070
   288
1070
     1
1002
}
  0
DIMENSION
  5
7D70
  8
3
  2
*D14
 10
4851.391407327611
 20
4150.0343094696618
 30
0.0
 11
5020.3914073276101
 21
4220.956091474236
 31
0.0
 70
   128
 13
5189.3914073276101
 23
3771.1120514040308
 33
0.0
 14
4851.391407327611
 24
4082.4090200655569
 34
0.0
1001
ACAD
1000
DSTYLE
1002
{
1070
   288
1070
     1
1070
   172
1070
     1
1070
    40
1040
30.0
1070
   271
1070
     0
1070
   143
1040
0.039
1002
}
  0
DIMENSION
  5
7DA0
  8
3
  2
*D15
 10
3526.3914073276101
 20
4150.0343094696618
 30
0.0
 11
4188.8914073276101
 21
4300.0343094696609
 31
0.0
 70
     0
  1
MAX\P1340
 13
4851.391407327611
 23
4082.4090200655569
 33
0.0
 14
3526.3914073276101
 24
3084.8194401879659
 34
0.0
1001
ACAD
1000
DSTYLE
1002
{
1070
   287
1070
     4
1070
    40
1040
30.0
1070
    75
1070
     1
1070
   143
1040
0.039
1070
   172
1070
     1
1070
   271
1070
     0
1070
   279
1070
     1
1070
   288
1070
     1
1002
}
  0
DIMENSION
  5
7DFD
  8
3
  2
*D16
 10
5447.0337941012704
 20
2329.8194401879659
 30
0.0
 11
5447.0337941012695
 21
2808.185978113379
 31
0.0
 70
   128
 13
5186.3914073276082
 23
3279.8194401879659
 33
0.0
 14
5186.3914073276101
 24
2329.8194401879659
 34
0.0
 50
90.0
1001
ACAD
1000
DSTYLE
1002
{
1070
   287
1070
     3
1070
     3
1000
φ<>
1070
    40
1040
30.0
1070
   143
1040
0.039
1070
   172
1070
     1
1070
   271
1070
     0
1070
   279
1070
     0
1070
   288
1070
     1
1002
}
  0
LINE
  5
7E09
  8
4
 10
5550.0
 20
1500.0
 30
0.0
 11
5550.0
 21
900.0
 31
0.0
  0
LINE
  5
7E0A
  8
4
 10
3450.0
 20
1500.0
 30
0.0
 11
3450.0
 21
900.0
 31
0.0
  0
LINE
  5
7E0B
  8
4
 10
1950.0
 20
1500.0
 30
0.0
 11
1950.0
 21
900.0
 31
0.0
  0
LINE
  5
7E0E
  8
4
 10
1950.0
 20
900.0
 30
0.0
 11
5550.0
 21
900.0
 31
0.0
  0
LINE
  5
7E0F
  8
4
 10
1950.0
 20
1200.0
 30
0.0
 11
5550.0
 21
1200.0
 31
0.0
  0
TEXT
  5
7E10
  8
4
 10
2065.5062425407041
 20
1294.629077599838
 30
0.0
 40
150.0
  1
機器名称
  0
TEXT
  5
7E11
  8
4
 10
2058.7743180743919
 20
964.93547019603284
 30
0.0
 40
150.0
  1
機器型番
  0
TEXT
  5
7E12
  8
4
 10
3533.036236462995
 20
1267.715306872705
 30
0.0
 40
130.0
  1
ミツヤ多翼送風機
  0
TEXT
  5
7E13
  8
4
 10
3559.9634867564419
 20
951.47875283983012
 30
0.0
 40
150.0
  1
MF#5 1/2-1
  0
TEXT
  5
7E15
  8
4
 10
2452.306731152159
 20
7150.2865239975472
 30
0.0
 40
161.99999999999989
  1
床置防振ベット
  0
TEXT
  5
7E16
  8
4
 10
898.50277998833917
 20
7601.6429285978938
 30
0.0
 40
216.0
  1
遠心式片吸込片持多翼ファン
  0
LINE
  5
7E17
  8
4
 10
750.0
 20
7408.2262627944137
 30
0.0
 11
5550.0
 21
7408.2262627944137
 31
0.0
  0
LINE
  5
7E18
  8
4
 10
750.0
 20
8008.2262627944137
 30
0.0
 11
5550.0
 21
8008.2262627944137
 31
0.0
  0
LINE
  5
7E19
  8
4
 10
1950.0
 20
1500.0
 30
0.0
 11
5550.0
 21
1500.0
 31
0.0
  0
LINE
  5
7E1A
  8
4
 10
750.0
 20
8008.2262627944137
 30
0.0
 11
750.0
 21
7408.2262627944137
 31
0.0
  0
TEXT
  5
7E1B
  8
4
 10
1144.730234424052
 20
7146.9584326390304
 30
0.0
 40
161.99999999999989
  1
左回転左横向
  0
TEXT
  5
7E1C
  8
4
 10
4406.9086777478688
 20
8118.1832444859256
 30
0.0
 40
168.0
  1
No.
  0
TEXT
  5
7E1D
  8
4
 10
3933.8881878000388
 20
7150.2865239975472
 30
0.0
 40
161.99999999999989
  1
縮尺：1/30
  0
LINE
  5
7E1E
  8
4
 10
5550.0
 20
8008.2262627944137
 30
0.0
 11
5550.0
 21
7408.2262627944137
 31
0.0
  0
LINE
  5
7E1F
  8
4
 10
6300.0
 20
8850.0
 30
0.0
 11
6300.0
 21
8850.0
 31
0.0
  0
LINE
  5
7E20
  8
4
 10
4321.8522670795937
 20
8043.790749376205
 30
0.0
 11
4321.8522670795937
 21
8359.9567846492573
 31
0.0
  0
LINE
  5
7E21
  8
4
 10
4321.8522670795937
 20
8359.9567846492573
 30
0.0
 11
5550.0
 21
8359.9567846492573
 31
0.0
  0
LINE
  5
7E22
  8
4
 10
5550.0
 20
8359.9567846492573
 30
0.0
 11
5550.0
 21
8043.790749376205
 31
0.0
  0
LINE
  5
7E23
  8
4
 10
5550.0
 20
8043.790749376205
 30
0.0
 11
4321.8522670795937
 21
8043.790749376205
 31
0.0
  0
LINE
  5
7E24
  8
4
 10
0.0
 20
0.0
 30
0.0
 11
0.0
 21
8850.0
 31
0.0
  0
LINE
  5
7E25
  8
4
 10
0.0
 20
8850.0
 30
0.0
 11
6300.0
 21
8850.0
 31
0.0
  0
LINE
  5
7E26
  8
4
 10
6300.0
 20
8850.0
 30
0.0
 11
6300.0
 21
0.0
 31
0.0
  0
LINE
  5
7E27
  8
4
 10
6300.0
 20
0.0
 30
0.0
 11
0.0
 21
0.0
 31
0.0
  0
DIMENSION
  5
7E4D
  8
3
  2
*D17
 10
2631.8086280306538
 20
4155.6429031706784
 30
0.0
 11
1844.6223587008501
 21
4155.6429031706784
 31
0.0
 70
   128
 13
1141.8086280306541
 23
3808.3194401879659
 33
0.0
 14
2631.8086280306538
 24
2249.8194401879659
 34
0.0
1001
ACAD
1000
DSTYLE
1002
{
1070
   287
1070
     3
1070
    40
1040
30.0
1070
   143
1040
0.039
1070
   172
1070
     1
1070
   271
1070
     0
1070
   279
1070
     0
1070
   288
1070
     1
1002
}
  0
LINE
  5
7E62
  8
1
 10
5186.3914073276082
 20
3765.8194401879659
 30
0.0
 11
4516.3914073276092
 21
2840.8194401879659
 31
0.0
  0
LINE
  5
7E63
  8
1
 10
4516.3914073276082
 20
3765.8194401879659
 30
0.0
 11
5186.3914073276092
 21
2840.8194401879659
 31
0.0
  0
DIMENSION
  5
7E8C
  8
3
  2
*D18
 10
1044.391828501849
 20
5651.8039574550912
 30
0.0
 11
1044.3918285018481
 21
6081.9392922932311
 31
0.0
 70
   128
 13
1201.8086280306541
 23
6461.8039574550921
 33
0.0
 14
1201.8086280306541
 24
5651.8039574550912
 34
0.0
 50
90.0
1001
ACAD
1000
DSTYLE
1002
{
1070
   287
1070
     3
1070
    40
1040
30.0
1070
   143
1040
0.039
1070
   172
1070
     1
1070
   271
1070
     0
1070
   279
1070
     0
1070
   288
1070
     1
1002
}
  0
DIMENSION
  5
7EA6
  8
3
  2
*D19
 10
1044.3918285018481
 20
4878.8039574550912
 30
0.0
 11
969.39182850184716
 21
5265.3039574550921
 31
0.0
 70
     0
 13
1201.8086280306541
 23
5651.8039574550912
 33
0.0
 14
1446.808628030652
 24
4878.8039574550912
 34
0.0
 50
90.0
1001
ACAD
1000
DSTYLE
1002
{
1070
   287
1070
     4
1070
    40
1040
30.0
1070
    75
1070
     1
1070
   143
1040
0.039
1070
   172
1070
     1
1070
   271
1070
     0
1070
   279
1070
     1
1070
   288
1070
     1
1002
}
  0
LINE
  5
7EAB
  8
1
 10
1446.8086280306541
 20
2249.8194401879659
 30
0.0
 11
1446.8086280306541
 21
2124.8194401879659
 31
0.0
  0
LINE
  5
7EAD
  8
1
 10
4446.3914073276092
 20
2249.8194401879659
 30
0.0
 11
4446.3914073276092
 21
2124.8194401879659
 31
0.0
  0
DIMENSION
  5
7EEB
  8
3
  2
*D20
 10
1761.8086280306541
 20
1753.985449724343
 30
0.0
 11
1481.8086280306541
 21
1828.985449724343
 31
0.0
 70
     0
 13
1201.8086280306541
 23
1954.8194401879659
 33
0.0
 14
1761.8086280306541
 24
1954.8194401879659
 34
0.0
1001
ACAD
1000
DSTYLE
1002
{
1070
   287
1070
     3
1070
    40
1040
30.0
1070
   143
1040
0.039
1070
   172
1070
     1
1070
   271
1070
     0
1070
   279
1070
     0
1002
}
  0
DIMENSION
  5
7EF8
  8
3
  2
*D21
 10
2631.8086280306538
 20
1753.985449724343
 30
0.0
 11
2196.8086280306538
 21
1828.985449724343
 31
0.0
 70
     0
 13
1761.8086280306541
 23
1954.8194401879659
 33
0.0
 14
2631.8086280306538
 24
1954.8194401879659
 34
0.0
1001
ACAD
1000
DSTYLE
1002
{
1070
   287
1070
     3
1070
    40
1040
30.0
1070
   143
1040
0.039
1070
   172
1070
     1
1070
   271
1070
     0
1070
   279
1070
     0
1002
}
  0
DIMENSION
  5
7F05
  8
3
  2
*D22
 10
4851.3914073276082
 20
1753.985449724343
 30
0.0
 11
4262.3914073276082
 21
1828.985449724343
 31
0.0
 70
     0
 13
3673.3914073276078
 23
1954.8194401879659
 33
0.0
 14
4851.3914073276082
 24
1954.8194401879659
 34
0.0
1001
ACAD
1000
DSTYLE
1002
{
1070
   287
1070
     3
1070
    40
1040
30.0
1070
   143
1040
0.039
1070
   172
1070
     1
1070
   271
1070
     0
1070
   279
1070
     0
1002
}
  0
DIMENSION
  5
7F14
  8
3
  2
*D23
 10
5256.3914073276082
 20
1753.985449724343
 30
0.0
 11
5053.8914073276082
 21
1828.985449724343
 31
0.0
 70
     0
 13
4851.3914073276082
 23
1954.8194401879659
 33
0.0
 14
5256.3914073276082
 24
1954.8194401879659
 34
0.0
1001
ACAD
1000
DSTYLE
1002
{
1070
   287
1070
     3
1070
    40
1040
30.0
1070
   143
1040
0.039
1070
   172
1070
     1
1070
   271
1070
     0
1070
   279
1070
     0
1002
}
  0
LINE
  5
7F32
  8
1
 10
1526.8086280306541
 20
2724.819440187965
 30
0.0
 11
1996.8086280306541
 21
2724.819440187965
 31
0.0
  0
LINE
  5
7F34
  8
1
 10
1526.8086280306541
 20
2724.819440187965
 30
0.0
 11
1446.8086280306541
 21
2249.8194401879659
 31
0.0
  0
LINE
  5
7F35
  8
1
 10
1996.8086280306541
 20
2724.819440187965
 30
0.0
 11
2076.8086280306529
 21
2249.8194401879659
 31
0.0
  0
LINE
  5
7F3A
  8
1
 10
3673.3914073276078
 20
1954.8194401879659
 30
0.0
 11
5256.3914073276082
 21
1954.8194401879659
 31
0.0
1001
ACAD
1000
ASC_BOUNDS
1002
{
1070
    19
1002
}
  0
LINE
  5
7F3B
  8
1
 10
3673.3914073276078
 20
2079.8194401879659
 30
0.0
 11
5256.3914073276082
 21
2079.8194401879659
 31
0.0
  0
LINE
  5
7F3C
  8
1
 10
5256.3914073276082
 20
2079.8194401879659
 30
0.0
 11
5256.3914073276082
 21
1954.8194401879659
 31
0.0
  0
LINE
  5
7F3D
  8
1
 10
3673.3914073276078
 20
2079.8194401879659
 30
0.0
 11
3673.3914073276078
 21
1954.8194401879659
 31
0.0
  0
LINE
  5
7F3E
  8
1
 10
4446.3914073276092
 20
2079.8194401879659
 30
0.0
 11
4446.3914073276092
 21
1954.8194401879659
 31
0.0
  0
LINE
  5
7F3F
  8
1
 10
2631.8086280306538
 20
1954.8194401879659
 30
0.0
 11
1201.808628030652
 21
1954.8194401879659
 31
0.0
1001
ACAD
1000
ASC_BOUNDS
1002
{
1070
    19
1005
0
1002
}
  0
LINE
  5
7F40
  8
1
 10
2631.8086280306538
 20
2079.8194401879659
 30
0.0
 11
2631.8086280306538
 21
1954.8194401879659
 31
0.0
  0
LINE
  5
7F41
  8
1
 10
2631.8086280306538
 20
2079.8194401879659
 30
0.0
 11
1201.808628030652
 21
2079.8194401879659
 31
0.0
  0
LINE
  5
7F42
  8
1
 10
1201.8086280306541
 20
2079.8194401879659
 30
0.0
 11
1201.8086280306541
 21
1954.8194401879659
 31
0.0
  0
LINE
  5
7F43
  8
1
 10
1446.8086280306541
 20
2079.8194401879659
 30
0.0
 11
1446.8086280306541
 21
1954.8194401879659
 31
0.0
  0
DIMENSION
  5
7F70
  8
3
  2
*D24
 10
841.98797261323477
 20
1954.8194401879659
 30
0.0
 11
766.98797261323455
 21
1697.6765830451091
 31
0.0
 70
     0
 13
1201.8086280306541
 23
2079.8194401879659
 33
0.0
 14
1201.8086280306541
 24
1954.8194401879659
 34
0.0
 50
90.0
1001
ACAD
1000
DSTYLE
1002
{
1070
   287
1070
     3
1070
    40
1040
30.0
1070
   143
1040
0.039
1070
   172
1070
     1
1070
   271
1070
     0
1070
   279
1070
     0
1070
     6
1000
DOT
1002
}
  0
DIMENSION
  5
7F7F
  8
3
  2
*D25
 10
841.98797261323477
 20
2124.8194401879659
 30
0.0
 11
698.41654404180633
 21
2102.3194401879659
 31
0.0
 70
     0
 13
1201.8086280306541
 23
2079.8194401879659
 33
0.0
 14
1201.8086280306541
 24
2124.8194401879659
 34
0.0
 50
90.0
1001
ACAD
1000
DSTYLE
1002
{
1070
   172
1070
     1
1070
    40
1040
30.0
1070
     3
1000
(<>)
1070
   271
1070
     0
1070
     6
1000
_DOT
1070
   143
1040
0.039
1002
}
  0
DIMENSION
  5
7F8C
  8
3
  2
*D26
 10
590.15505239799313
 20
1954.8194401879659
 30
0.0
 11
491.58362382656452
 21
2881.5694401879659
 31
0.0
 70
     0
 13
1141.8086280306541
 23
3808.3194401879659
 33
0.0
 14
1201.8086280306541
 24
1954.8194401879659
 34
0.0
 50
90.0
1001
ACAD
1000
DSTYLE
1002
{
1070
   172
1070
     1
1070
    40
1040
30.0
1070
     3
1000
(<>)
1070
   271
1070
     0
1070
   143
1040
0.039
1002
}
  0
LINE
  5
7F92
  8
1
 10
1526.8086280306541
 20
4941.8039574550912
 30
0.0
 11
1526.8086280306541
 21
5623.8039574550903
 31
0.0
  0
LINE
  5
7F93
  8
1
 10
1996.8086280306541
 20
4941.8039574550912
 30
0.0
 11
1996.8086280306541
 21
5623.8039574550912
 31
0.0
  0
LINE
  5
7F94
  8
1
 10
1996.8086280306541
 20
4941.8039574550903
 30
0.0
 11
1794.3086280306541
 21
4941.803957455093
 31
0.0
  0
LINE
  5
7F95
  8
1
 10
1996.8086280306541
 20
5623.8039574550912
 30
0.0
 11
1794.3086280306541
 21
5623.8039574550912
 31
0.0
  0
LINE
  5
7F96
  8
1
 10
1729.3086280306541
 20
5623.8039574550912
 30
0.0
 11
1526.8086280306541
 21
5623.8039574550912
 31
0.0
  0
LINE
  5
7F97
  8
1
 10
1729.3086280306541
 20
4941.803957455093
 30
0.0
 11
1526.8086280306541
 21
4941.8039574550912
 31
0.0
  0
ARC
  5
7F9C
  8
1
 10
1828.8086280306541
 20
2871.8194401879659
 30
0.0
 40
710.0
 50
345.1616026165841
 51
354.58515829387051
  0
ENDSEC
  0
EOF
